  0
SECTION
  2
HEADER
  9
$ACADVER
  1
AC1015
  9
$ACADMAINTVER
 70
     6
  9
$DWGCODEPAGE
  3
ANSI_1250
  9
$INSBASE
 10
0.0
 20
0.0
 30
0.0
  9
$EXTMIN
 10
0.0
 20
0.0
 30
0.0
  9
$EXTMAX
 10
420.0
 20
297.0
 30
0.0
  9
$LIMMIN
 10
0.0
 20
0.0
  9
$LIMMAX
 10
420.0
 20
297.0
  9
$ORTHOMODE
 70
     0
  9
$REGENMODE
 70
     1
  9
$FILLMODE
 70
     1
  9
$QTEXTMODE
 70
     0
  9
$MIRRTEXT
 70
     1
  9
$LTSCALE
 40
1.0
  9
$ATTMODE
 70
     1
  9
$TEXTSIZE
 40
3.5
  9
$TRACEWID
 40
1.0
  9
$TEXTSTYLE
  7
Standard
  9
$CLAYER
  8
0
  9
$CELTYPE
  6
ByLayer
  9
$CECOLOR
 62
   256
  9
$CELTSCALE
 40
1.0
  9
$DISPSILH
 70
     0
  9
$DIMSCALE
 40
1.0
  9
$DIMASZ
 40
3.302
  9
$DIMEXO
 40
1.0
  9
$DIMDLI
 40
3.75
  9
$DIMRND
 40
0.0
  9
$DIMDLE
 40
0.0
  9
$DIMEXE
 40
1.0
  9
$DIMTP
 40
0.0
  9
$DIMTM
 40
0.0
  9
$DIMTXT
 40
3.5
  9
$DIMCEN
 40
2.5
  9
$DIMTSZ
 40
0.0
  9
$DIMTOL
 70
     0
  9
$DIMLIM
 70
     0
  9
$DIMTIH
 70
     1
  9
$DIMTOH
 70
     1
  9
$DIMSE1
 70
     0
  9
$DIMSE2
 70
     0
  9
$DIMTAD
 70
     1
  9
$DIMZIN
 70
     1
  9
$DIMBLK
  1

  9
$DIMASO
 70
     1
  9
$DIMSHO
 70
     1
  9
$DIMPOST
  1

  9
$DIMAPOST
  1

  9
$DIMALT
 70
     0
  9
$DIMALTD
 70
     3
  9
$DIMALTF
 40
0.0393700787
  9
$DIMLFAC
 40
1.0
  9
$DIMTOFL
 70
     1
  9
$DIMTVP
 40
0.0
  9
$DIMTIX
 70
     0
  9
$DIMSOXD
 70
     0
  9
$DIMSAH
 70
     0
  9
$DIMBLK1
  1

  9
$DIMBLK2
  1

  9
$DIMSTYLE
  2
ISO-25
  9
$DIMCLRD
 70
     0
  9
$DIMCLRE
 70
     0
  9
$DIMCLRT
 70
     0
  9
$DIMTFAC
 40
1.0
  9
$DIMGAP
 40
1.524
  9
$DIMJUST
 70
     0
  9
$DIMSD1
 70
     0
  9
$DIMSD2
 70
     0
  9
$DIMTOLJ
 70
     0
  9
$DIMTZIN
 70
     1
  9
$DIMALTZ
 70
     0
  9
$DIMALTTZ
 70
     0
  9
$DIMUPT
 70
     0
  9
$DIMDEC
 70
     2
  9
$DIMTDEC
 70
     2
  9
$DIMALTU
 70
     2
  9
$DIMALTTD
 70
     3
  9
$DIMTXSTY
  7
Standard
  9
$DIMAUNIT
 70
     0
  9
$DIMADEC
 70
     2
  9
$DIMALTRND
 40
0.0
  9
$DIMAZIN
 70
     0
  9
$DIMDSEP
 70
    44
  9
$DIMATFIT
 70
     3
  9
$DIMFRAC
 70
     0
  9
$DIMLDRBLK
  1

  9
$DIMLUNIT
 70
     2
  9
$DIMLWD
 70
    -2
  9
$DIMLWE
 70
    -2
  9
$DIMTMOVE
 70
     0
  9
$LUNITS
 70
     2
  9
$LUPREC
 70
     2
  9
$SKETCHINC
 40
1.0
  9
$FILLETRAD
 40
10.0
  9
$AUNITS
 70
     0
  9
$AUPREC
 70
     2
  9
$MENU
  1
.
  9
$ELEVATION
 40
0.0
  9
$PELEVATION
 40
0.0
  9
$THICKNESS
 40
0.0
  9
$LIMCHECK
 70
     0
  9
$CHAMFERA
 40
0.0
  9
$CHAMFERB
 40
0.0
  9
$CHAMFERC
 40
0.0
  9
$CHAMFERD
 40
0.0
  9
$SKPOLY
 70
     0
  9
$TDCREATE
 40
2460180.314923507
  9
$TDUCREATE
 40
2460180.231590174
  9
$TDUPDATE
 40
2460180.3149264
  9
$TDUUPDATE
 40
2460180.231593067
  9
$TDINDWG
 40
0.0000000116
  9
$TDUSRTIMER
 40
0.0000000116
  9
$USRTIMER
 70
     1
  9
$ANGBASE
 50
0.0
  9
$ANGDIR
 70
     0
  9
$PDMODE
 70
     0
  9
$PDSIZE
 40
-1.0
  9
$PLINEWID
 40
0.0
  9
$SPLFRAME
 70
     0
  9
$SPLINETYPE
 70
     6
  9
$SPLINESEGS
 70
     8
  9
$HANDSEED
  5
38D
  9
$SURFTAB1
 70
     6
  9
$SURFTAB2
 70
     6
  9
$SURFTYPE
 70
     6
  9
$SURFU
 70
     6
  9
$SURFV
 70
     6
  9
$UCSBASE
  2

  9
$UCSNAME
  2

  9
$UCSORG
 10
0.0
 20
0.0
 30
0.0
  9
$UCSXDIR
 10
1.0
 20
0.0
 30
0.0
  9
$UCSYDIR
 10
0.0
 20
1.0
 30
0.0
  9
$UCSORTHOREF
  2

  9
$UCSORTHOVIEW
 70
     0
  9
$UCSORGTOP
 10
0.0
 20
0.0
 30
0.0
  9
$UCSORGBOTTOM
 10
0.0
 20
0.0
 30
0.0
  9
$UCSORGLEFT
 10
0.0
 20
0.0
 30
0.0
  9
$UCSORGRIGHT
 10
0.0
 20
0.0
 30
0.0
  9
$UCSORGFRONT
 10
0.0
 20
0.0
 30
0.0
  9
$UCSORGBACK
 10
0.0
 20
0.0
 30
0.0
  9
$PUCSBASE
  2

  9
$PUCSNAME
  2

  9
$PUCSORG
 10
0.0
 20
0.0
 30
0.0
  9
$PUCSXDIR
 10
1.0
 20
0.0
 30
0.0
  9
$PUCSYDIR
 10
0.0
 20
1.0
 30
0.0
  9
$PUCSORTHOREF
  2

  9
$PUCSORTHOVIEW
 70
     0
  9
$PUCSORGTOP
 10
0.0
 20
0.0
 30
0.0
  9
$PUCSORGBOTTOM
 10
0.0
 20
0.0
 30
0.0
  9
$PUCSORGLEFT
 10
0.0
 20
0.0
 30
0.0
  9
$PUCSORGRIGHT
 10
0.0
 20
0.0
 30
0.0
  9
$PUCSORGFRONT
 10
0.0
 20
0.0
 30
0.0
  9
$PUCSORGBACK
 10
0.0
 20
0.0
 30
0.0
  9
$USERI1
 70
     0
  9
$USERI2
 70
     0
  9
$USERI3
 70
     0
  9
$USERI4
 70
     0
  9
$USERI5
 70
     0
  9
$USERR1
 40
0.0
  9
$USERR2
 40
0.0
  9
$USERR3
 40
0.0
  9
$USERR4
 40
0.0
  9
$USERR5
 40
0.0
  9
$WORLDVIEW
 70
     1
  9
$SHADEDGE
 70
     3
  9
$SHADEDIF
 70
    70
  9
$TILEMODE
 70
     1
  9
$MAXACTVP
 70
    64
  9
$PINSBASE
 10
0.0
 20
0.0
 30
0.0
  9
$PLIMCHECK
 70
     0
  9
$PEXTMIN
 10
1.0000000000E+20
 20
1.0000000000E+20
 30
1.0000000000E+20
  9
$PEXTMAX
 10
-1.0000000000E+20
 20
-1.0000000000E+20
 30
-1.0000000000E+20
  9
$PLIMMIN
 10
0.0
 20
0.0
  9
$PLIMMAX
 10
420.0
 20
297.0
  9
$UNITMODE
 70
     0
  9
$VISRETAIN
 70
     1
  9
$PLINEGEN
 70
     0
  9
$PSLTSCALE
 70
     1
  9
$TREEDEPTH
 70
  3020
  9
$CMLSTYLE
  2
Standard
  9
$CMLJUST
 70
     0
  9
$CMLSCALE
 40
20.0
  9
$PROXYGRAPHICS
 70
     1
  9
$MEASUREMENT
 70
     1
  9
$CELWEIGHT
370
    -1
  9
$ENDCAPS
280
     0
  9
$JOINSTYLE
280
     0
  9
$LWDISPLAY
290
     1
  9
$INSUNITS
 70
     4
  9
$HYPERLINKBASE
  1

  9
$STYLESHEET
  1

  9
$XEDIT
290
     1
  9
$CEPSNTYPE
380
     0
  9
$PSTYLEMODE
290
     1
  9
$FINGERPRINTGUID
  2
{e85fb3d4-71cb-480a-93cc-34481bd18f48}
  9
$VERSIONGUID
  2
{FAEB1C32-E019-11D5-929B-00C0DF256EC4}
  9
$EXTNAMES
290
     1
  9
$PSVPSCALE
 40
0.0
  9
$OLESTARTUP
290
     0
  0
ENDSEC
  0
SECTION
  2
CLASSES
  0
CLASS
  1
ACDBDICTIONARYWDFLT
  2
AcDbDictionaryWithDefault
  3
ObjectDBX Classes
 90
        0
280
     0
281
     0
  0
CLASS
  1
VISUALSTYLE
  2
AcDbVisualStyle
  3
ObjectDBX Classes
 90
     4095
280
     0
281
     0
  0
CLASS
  1
MATERIAL
  2
AcDbMaterial
  3
ObjectDBX Classes
 90
     1153
280
     0
281
     0
  0
CLASS
  1
SCALE
  2
AcDbScale
  3
ObjectDBX Classes
 90
     1153
280
     0
281
     0
  0
CLASS
  1
TABLESTYLE
  2
AcDbTableStyle
  3
ObjectDBX Classes
 90
     4095
280
     0
281
     0
  0
CLASS
  1
MLEADERSTYLE
  2
AcDbMLeaderStyle
  3
ACDB_MLEADERSTYLE_CLASS
 90
     4095
280
     0
281
     0
  0
CLASS
  1
SUN
  2
AcDbSun
  3
SCENEOE
 90
     1153
280
     0
281
     0
  0
CLASS
  1
ACDBPLACEHOLDER
  2
AcDbPlaceHolder
  3
ObjectDBX Classes
 90
        0
280
     0
281
     0
  0
CLASS
  1
LAYOUT
  2
AcDbLayout
  3
ObjectDBX Classes
 90
        0
280
     0
281
     0
  0
ENDSEC
  0
SECTION
  2
TABLES
  0
TABLE
  2
VPORT
  5
8
330
0
100
AcDbSymbolTable
 70
     1
  0
VPORT
  5
29
330
8
100
AcDbSymbolTableRecord
100
AcDbViewportTableRecord
  2
*Active
 70
     0
 10
0.0
 20
0.0
 11
1.0
 21
1.0
 12
210.0
 22
148.5
 13
0.0
 23
0.0
 14
10.0
 24
10.0
 15
10.0
 25
10.0
 16
0.0
 26
0.0
 36
1.0
 17
0.0
 27
0.0
 37
0.0
 40
297.0
 41
1.4141414141
 42
50.0
 43
0.0
 44
0.0
 50
0.0
 51
0.0
 71
     0
 72
  2000
 73
     1
 74
     3
 75
     0
 76
     0
 77
     0
 78
     0
281
     0
 65
     1
110
0.0
120
0.0
130
0.0
111
1.0
121
0.0
131
0.0
112
0.0
122
1.0
132
0.0
 79
     0
146
0.0
  0
ENDTAB
  0
TABLE
  2
LTYPE
  5
5
330
0
100
AcDbSymbolTable
 70
     6
  0
LTYPE
  5
14
330
5
100
AcDbSymbolTableRecord
100
AcDbLinetypeTableRecord
  2
ByBlock
 70
     0
  3

 72
    65
 73
     0
 40
0.0
  0
LTYPE
  5
15
330
5
100
AcDbSymbolTableRecord
100
AcDbLinetypeTableRecord
  2
ByLayer
 70
     0
  3

 72
    65
 73
     0
 40
0.0
  0
LTYPE
  5
16
330
5
100
AcDbSymbolTableRecord
100
AcDbLinetypeTableRecord
  2
Continuous
 70
     0
  3
Solid line
 72
    65
 73
     0
 40
0.0
  0
LTYPE
  5
6E
330
5
100
AcDbSymbolTableRecord
100
AcDbLinetypeTableRecord
  2
HIDDEN
 70
     0
  3
Hidden __ __ __ __ __ __ __ __ __ __ __ __ __ __
 72
    65
 73
     2
 40
1.905
 49
1.27
 74
     0
 49
-0.635
 74
     0
  0
LTYPE
  5
6F
330
5
100
AcDbSymbolTableRecord
100
AcDbLinetypeTableRecord
  2
PHANTOM
 70
     0
  3
Phantom ______  __  __  ______  __  __  ______
 72
    65
 73
     6
 40
12.7
 49
6.35
 74
     0
 49
-1.27
 74
     0
 49
1.27
 74
     0
 49
-1.27
 74
     0
 49
1.27
 74
     0
 49
-1.27
 74
     0
  0
LTYPE
  5
70
330
5
100
AcDbSymbolTableRecord
100
AcDbLinetypeTableRecord
  2
CENTER
 70
     0
  3
Center ____ _ ____ _ ____ _ ____ _ ____ _ ____
 72
    65
 73
     4
 40
10.16
 49
6.35
 74
     0
 49
-1.27
 74
     0
 49
1.27
 74
     0
 49
-1.27
 74
     0
  0
LTYPE
  5
71
330
5
100
AcDbSymbolTableRecord
100
AcDbLinetypeTableRecord
  2
CENTERX2
 70
     0
  3
Center (2x) ________  __  ________  __  _____
 72
    65
 73
     4
 40
20.32
 49
12.7
 74
     0
 49
-2.54
 74
     0
 49
2.54
 74
     0
 49
-2.54
 74
     0
  0
LTYPE
  5
72
330
5
100
AcDbSymbolTableRecord
100
AcDbLinetypeTableRecord
  2
DOT2
 70
     0
  3
Dot (.5x) ........................................
 72
    65
 73
     2
 40
0.635
 49
0.0
 74
     0
 49
-0.635
 74
     0
  0
ENDTAB
  0
TABLE
  2
LAYER
  5
2
330
0
100
AcDbSymbolTable
 70
     2
  0
LAYER
  5
10
330
2
100
AcDbSymbolTableRecord
100
AcDbLayerTableRecord
  2
0
 70
     0
 62
     7
  6
Continuous
370
    -3
390
F
  0
LAYER
  5
73
330
2
100
AcDbSymbolTableRecord
100
AcDbLayerTableRecord
  2
FORMAT
 70
     0
 62
     7
  6
Continuous
370
    -3
390
F
  0
ENDTAB
  0
TABLE
  2
STYLE
  5
3
330
0
100
AcDbSymbolTable
 70
     4
  0
STYLE
  5
11
330
3
100
AcDbSymbolTableRecord
100
AcDbTextStyleTableRecord
  2
Standard
 70
     0
 40
0.0
 41
1.0
 50
0.0
 71
     0
 42
3.5
  3
txt
  4

  0
STYLE
  5
B1
330
3
100
AcDbSymbolTableRecord
100
AcDbTextStyleTableRecord
  2
SLDTEXTSTYLE0
 70
     0
 40
0.0
 41
0.75
 50
0.0
 71
     0
 42
3.5
  3
TXT
  4

  0
STYLE
  5
D1
330
3
100
AcDbSymbolTableRecord
100
AcDbTextStyleTableRecord
  2
SLDTEXTSTYLE1
 70
     0
 40
0.0
 41
0.6875
 50
0.0
 71
     0
 42
3.5
  3
TXT
  4
bigfont
  0
STYLE
  5
D3
330
3
100
AcDbSymbolTableRecord
100
AcDbTextStyleTableRecord
  2
SLDTEXTSTYLE2
 70
     0
 40
0.0
 41
0.75
 50
0.0
 71
     0
 42
3.5
  3
TXT
  4
bigfont
  0
ENDTAB
  0
TABLE
  2
VIEW
  5
6
330
0
100
AcDbSymbolTable
 70
     0
  0
ENDTAB
  0
TABLE
  2
UCS
  5
7
330
0
100
AcDbSymbolTable
 70
     0
  0
ENDTAB
  0
TABLE
  2
APPID
  5
9
330
0
100
AcDbSymbolTable
 70
     1
  0
APPID
  5
12
330
9
100
AcDbSymbolTableRecord
100
AcDbRegAppTableRecord
  2
ACAD
 70
     0
  0
ENDTAB
  0
TABLE
  2
DIMSTYLE
  5
A
330
0
100
AcDbSymbolTable
 70
     6
100
AcDbDimStyleTable
  0
DIMSTYLE
105
27
330
A
100
AcDbSymbolTableRecord
100
AcDbDimStyleTableRecord
  2
ISO-25
 70
     0
 41
2.5
 42
0.625
 43
3.75
 44
1.25
 73
     0
 74
     0
 77
     1
 78
     8
140
2.5
141
2.5
143
0.0393700787
147
0.625
171
     3
172
     1
178
     0
271
     2
272
     2
274
     3
278
    44
283
     0
284
     8
340
11
  0
DIMSTYLE
105
254
102
{ACAD_REACTORS
330
253
330
273
330
27F
330
28B
330
2A7
102
}
330
A
100
AcDbSymbolTableRecord
100
AcDbDimStyleTableRecord
  2
SLDDIMSTYLE0
 70
     0
 41
3.302
 44
0.0
 45
0.000000001
 73
     0
 74
     0
 77
     1
 78
    12
 79
     3
140
3.5
147
0.875
172
     1
173
     1
178
     0
271
     0
272
     0
276
     2
284
    12
289
     0
340
B1
  0
DIMSTYLE
105
25F
102
{ACAD_REACTORS
330
25E
330
269
330
32D
330
337
330
341
330
34B
102
}
330
A
100
AcDbSymbolTableRecord
100
AcDbDimStyleTableRecord
  2
SLDDIMSTYLE1
 70
     0
 41
3.302
 44
0.0
 45
0.000000001
 73
     0
 74
     0
 77
     1
 78
    12
 79
     3
140
3.5
147
0.875
173
     1
178
     0
271
     0
272
     0
276
     2
284
    12
340
B1
  0
DIMSTYLE
105
299
102
{ACAD_REACTORS
330
298
102
}
330
A
100
AcDbSymbolTableRecord
100
AcDbDimStyleTableRecord
  2
SLDDIMSTYLE2
 70
     0
 41
3.302
 44
0.0
 45
0.000000001
 73
     0
 74
     0
 77
     1
 78
    12
 79
     3
140
3.5
147
0.875
172
     1
173
     1
178
     0
271
     0
272
     2
276
     2
284
    12
289
     0
340
B1
  0
DIMSTYLE
105
318
102
{ACAD_REACTORS
330
317
330
355
102
}
330
A
100
AcDbSymbolTableRecord
100
AcDbDimStyleTableRecord
  2
SLDDIMSTYLE3
 70
     0
  3
<>
 41
3.302
 44
0.0
 45
0.000000001
 73
     0
 74
     0
 77
     1
 78
    12
 79
     3
140
3.5
141
0.0
147
0.875
172
     1
173
     1
178
     0
271
     2
272
     2
276
     2
284
    12
340
B1
341
319
343
319
  0
DIMSTYLE
105
324
102
{ACAD_REACTORS
330
323
102
}
330
A
100
AcDbSymbolTableRecord
100
AcDbDimStyleTableRecord
  2
SLDDIMSTYLE4
 70
     0
 41
3.302
 44
0.0
 45
0.000000001
 73
     0
 74
     0
 77
     1
 78
    12
 79
     3
140
3.5
141
0.0
147
0.875
172
     1
173
     1
178
     0
271
     0
272
     2
276
     2
284
    12
340
B1
341
319
343
319
  0
ENDTAB
  0
TABLE
  2
BLOCK_RECORD
  5
1
330
0
100
AcDbSymbolTable
 70
    23
  0
BLOCK_RECORD
  5
1F
330
1
100
AcDbSymbolTableRecord
100
AcDbBlockTableRecord
  2
*Model_Space
340
22
  0
BLOCK_RECORD
  5
1B
330
1
100
AcDbSymbolTableRecord
100
AcDbBlockTableRecord
  2
*Paper_Space
340
1E
  0
BLOCK_RECORD
  5
23
330
1
100
AcDbSymbolTableRecord
100
AcDbBlockTableRecord
  2
*Paper_Space0
340
26
  0
BLOCK_RECORD
  5
DD
330
1
100
AcDbSymbolTableRecord
100
AcDbBlockTableRecord
  2
SW_NOTE_0
340
0
102
{BLKREFS
331
E2
102
}
  0
BLOCK_RECORD
  5
E4
330
1
100
AcDbSymbolTableRecord
100
AcDbBlockTableRecord
  2
SW_NOTE_0_1
340
0
102
{BLKREFS
331
ED
102
}
  0
BLOCK_RECORD
  5
255
330
1
100
AcDbSymbolTableRecord
100
AcDbBlockTableRecord
  2
_D
340
0
  0
BLOCK_RECORD
  5
260
330
1
100
AcDbSymbolTableRecord
100
AcDbBlockTableRecord
  2
_D_1
340
0
  0
BLOCK_RECORD
  5
26A
330
1
100
AcDbSymbolTableRecord
100
AcDbBlockTableRecord
  2
_D_2
340
0
  0
BLOCK_RECORD
  5
274
330
1
100
AcDbSymbolTableRecord
100
AcDbBlockTableRecord
  2
_D_3
340
0
  0
BLOCK_RECORD
  5
280
330
1
100
AcDbSymbolTableRecord
100
AcDbBlockTableRecord
  2
_D_4
340
0
  0
BLOCK_RECORD
  5
28C
330
1
100
AcDbSymbolTableRecord
100
AcDbBlockTableRecord
  2
_D_5
340
0
  0
BLOCK_RECORD
  5
29A
330
1
100
AcDbSymbolTableRecord
100
AcDbBlockTableRecord
  2
_D_6
340
0
  0
BLOCK_RECORD
  5
2A8
330
1
100
AcDbSymbolTableRecord
100
AcDbBlockTableRecord
  2
_D_7
340
0
  0
BLOCK_RECORD
  5
319
330
1
100
AcDbSymbolTableRecord
100
AcDbBlockTableRecord
  2
_None
340
0
  0
BLOCK_RECORD
  5
31C
330
1
100
AcDbSymbolTableRecord
100
AcDbBlockTableRecord
  2
_D_8
340
0
  0
BLOCK_RECORD
  5
325
330
1
100
AcDbSymbolTableRecord
100
AcDbBlockTableRecord
  2
_D_9
340
0
  0
BLOCK_RECORD
  5
32E
330
1
100
AcDbSymbolTableRecord
100
AcDbBlockTableRecord
  2
_D_10
340
0
  0
BLOCK_RECORD
  5
338
330
1
100
AcDbSymbolTableRecord
100
AcDbBlockTableRecord
  2
_D_11
340
0
  0
BLOCK_RECORD
  5
342
330
1
100
AcDbSymbolTableRecord
100
AcDbBlockTableRecord
  2
_D_12
340
0
  0
BLOCK_RECORD
  5
34C
330
1
100
AcDbSymbolTableRecord
100
AcDbBlockTableRecord
  2
_D_13
340
0
  0
BLOCK_RECORD
  5
356
330
1
100
AcDbSymbolTableRecord
100
AcDbBlockTableRecord
  2
_D_14
340
0
  0
BLOCK_RECORD
  5
35D
330
1
100
AcDbSymbolTableRecord
100
AcDbBlockTableRecord
  2
SW_CENTERMARKSYMBOL_0
340
0
102
{BLKREFS
331
368
102
}
  0
BLOCK_RECORD
  5
369
330
1
100
AcDbSymbolTableRecord
100
AcDbBlockTableRecord
  2
SW_CENTERMARKSYMBOL_1
340
0
102
{BLKREFS
331
374
102
}
  0
BLOCK_RECORD
  5
375
330
1
100
AcDbSymbolTableRecord
100
AcDbBlockTableRecord
  2
SW_CENTERMARKSYMBOL_2
340
0
102
{BLKREFS
331
380
102
}
  0
BLOCK_RECORD
  5
381
330
1
100
AcDbSymbolTableRecord
100
AcDbBlockTableRecord
  2
SW_CENTERMARKSYMBOL_3
340
0
102
{BLKREFS
331
38C
102
}
  0
ENDTAB
  0
ENDSEC
  0
SECTION
  2
BLOCKS
  0
BLOCK
  5
20
330
1F
100
AcDbEntity
  8
0
100
AcDbBlockBegin
  2
*Model_Space
 70
     0
 10
0.0
 20
0.0
 30
0.0
  3
*Model_Space
  1

  0
ENDBLK
  5
21
330
1F
100
AcDbEntity
  8
0
100
AcDbBlockEnd
  0
BLOCK
  5
1C
330
1B
100
AcDbEntity
 67
     1
  8
0
100
AcDbBlockBegin
  2
*Paper_Space
 70
     0
 10
0.0
 20
0.0
 30
0.0
  3
*Paper_Space
  1

  0
ENDBLK
  5
1D
330
1B
100
AcDbEntity
 67
     1
  8
0
100
AcDbBlockEnd
  0
BLOCK
  5
24
330
23
100
AcDbEntity
  8
0
100
AcDbBlockBegin
  2
*Paper_Space0
 70
     0
 10
0.0
 20
0.0
 30
0.0
  3
*Paper_Space0
  1

  0
ENDBLK
  5
25
330
23
100
AcDbEntity
  8
0
100
AcDbBlockEnd
  0
BLOCK
  5
DE
330
DD
100
AcDbEntity
  8
0
100
AcDbBlockBegin
  2
SW_NOTE_0
 70
     0
 10
0.0
 20
0.0
 30
0.0
  3
SW_NOTE_0
  1

  0
MTEXT
  5
E0
330
DD
100
AcDbEntity
  8
0
  6
Continuous
 62
     0
370
     0
100
AcDbMText
 10
0.0
 20
1.9336016097
 30
0.0
 40
1.5
 41
0.0
 71
     1
 72
     1
  1
ODSTRANIT
  7
SLDTEXTSTYLE0
 73
     1
 44
1.0
  0
MTEXT
  5
E1
330
DD
100
AcDbEntity
  8
0
  6
Continuous
 62
     0
370
     0
100
AcDbMText
 10
0.0
 20
-0.5663983345
 30
0.0
 40
1.5
 41
0.0
 71
     1
 72
     1
  1
OSTRÉ HRANY
  7
SLDTEXTSTYLE0
 73
     1
 44
1.0
  0
ENDBLK
  5
DF
330
DD
100
AcDbEntity
  8
0
100
AcDbBlockEnd
  0
BLOCK
  5
E5
330
E4
100
AcDbEntity
  8
0
100
AcDbBlockBegin
  2
SW_NOTE_0_1
 70
     0
 10
0.0
 20
0.0
 30
0.0
  3
SW_NOTE_0_1
  1

  0
MTEXT
  5
E7
330
E4
100
AcDbEntity
  8
0
  6
Continuous
 62
     0
370
     0
100
AcDbMText
 10
0.0
 20
1.9336016097
 30
0.0
 40
1.5
 41
0.0
 71
     1
 72
     1
  1
POKUD NENÍ UVEDENO JINAK:
  7
SLDTEXTSTYLE0
 73
     1
 44
1.0
  0
MTEXT
  5
E8
330
E4
100
AcDbEntity
  8
0
  6
Continuous
 62
     0
370
     0
100
AcDbMText
 10
0.0
 20
-0.5663983345
 30
0.0
 40
1.5
 41
0.0
 71
     1
 72
     1
  1
JEDNOTKY JSOU V MILIMETRECH
  7
SLDTEXTSTYLE0
 73
     1
 44
1.0
  0
MTEXT
  5
E9
330
E4
100
AcDbEntity
  8
0
  6
Continuous
 62
     0
370
     0
100
AcDbMText
 10
0.0
 20
-3.0663982786
 30
0.0
 40
1.5
 41
0.0
 71
     1
 72
     1
  1
DRSNOST:
  7
SLDTEXTSTYLE0
 73
     1
 44
1.0
  0
MTEXT
  5
EA
330
E4
100
AcDbEntity
  8
0
  6
Continuous
 62
     0
370
     0
100
AcDbMText
 10
0.0
 20
-5.5663982227
 30
0.0
 40
1.5
 41
0.0
 71
     1
 72
     1
  1
TOLERANCE:
  7
SLDTEXTSTYLE0
 73
     1
 44
1.0
  0
MTEXT
  5
EB
330
E4
100
AcDbEntity
  8
0
  6
Continuous
 62
     0
370
     0
100
AcDbMText
 10
1.6875
 20
-8.0663981668
 30
0.0
 40
1.5
 41
0.0
 71
     1
 72
     1
  1
LINEÁRNÍ:
  7
SLDTEXTSTYLE0
 73
     1
 44
1.0
  0
MTEXT
  5
EC
330
E4
100
AcDbEntity
  8
0
  6
Continuous
 62
     0
370
     0
100
AcDbMText
 10
1.6875
 20
-10.5663981109
 30
0.0
 40
1.5
 41
0.0
 71
     1
 72
     1
  1
ÚHLOVÁ:
  7
SLDTEXTSTYLE0
 73
     1
 44
1.0
  0
ENDBLK
  5
E6
330
E4
100
AcDbEntity
  8
0
100
AcDbBlockEnd
  0
BLOCK
  5
256
330
255
100
AcDbEntity
  8
0
100
AcDbBlockBegin
  2
_D
 70
     0
 10
0.0
 20
0.0
 30
0.0
  3
_D
  1

  0
SOLID
  5
258
330
255
100
AcDbEntity
  8
0
  6
Continuous
 62
     7
370
    18
100
AcDbTrace
 10
195.94
 20
191.7789947304
 30
0.0
 11
199.242
 21
191.2709947304
 31
0.0
 12
199.242
 22
192.2869947304
 32
0.0
 13
199.242
 23
192.2869947304
 33
0.0
  0
SOLID
  5
259
330
255
100
AcDbEntity
  8
0
  6
Continuous
 62
     7
370
    18
100
AcDbTrace
 10
213.94
 20
191.7789947304
 30
0.0
 11
210.638
 21
192.2869947304
 31
0.0
 12
210.638
 22
191.2709947304
 32
0.0
 13
210.638
 23
191.2709947304
 33
0.0
  0
LINE
  5
25A
330
255
100
AcDbEntity
  8
0
  6
Continuous
 62
     7
370
     0
100
AcDbLine
 10
195.94
 20
209.2789947304
 30
0.0
 11
195.94
 21
190.7789947304
 31
0.0
  0
LINE
  5
25B
330
255
100
AcDbEntity
  8
0
  6
Continuous
 62
     7
370
     0
100
AcDbLine
 10
213.94
 20
224.7789947304
 30
0.0
 11
213.94
 21
190.7789947304
 31
0.0
  0
LINE
  5
25C
330
255
100
AcDbEntity
  8
0
  6
Continuous
 62
     7
370
     0
100
AcDbLine
 10
195.94
 20
191.7789947304
 30
0.0
 11
213.94
 21
191.7789947304
 31
0.0
  0
MTEXT
  5
25D
330
255
100
AcDbEntity
  8
0
  6
Continuous
 62
     7
370
    18
100
AcDbMText
 10
202.3538888065
 20
196.2907316449
 30
0.0
 40
3.5
 41
0.0
 71
     1
 72
     1
  1
18
  7
SLDTEXTSTYLE0
 73
     1
 44
1.0
  0
ENDBLK
  5
257
330
255
100
AcDbEntity
  8
0
100
AcDbBlockEnd
  0
BLOCK
  5
261
330
260
100
AcDbEntity
  8
0
100
AcDbBlockBegin
  2
_D_1
 70
     0
 10
0.0
 20
0.0
 30
0.0
  3
_D_1
  1

  0
SOLID
  5
263
330
260
100
AcDbEntity
  8
0
  6
Continuous
 62
     7
370
    18
100
AcDbTrace
 10
147.94
 20
264.06
 30
0.0
 11
151.242
 21
263.552
 31
0.0
 12
151.242
 22
264.568
 32
0.0
 13
151.242
 23
264.568
 33
0.0
  0
SOLID
  5
264
330
260
100
AcDbEntity
  8
0
  6
Continuous
 62
     7
370
    18
100
AcDbTrace
 10
185.94
 20
264.06
 30
0.0
 11
182.638
 21
264.568
 31
0.0
 12
182.638
 22
263.552
 32
0.0
 13
182.638
 23
263.552
 33
0.0
  0
LINE
  5
265
330
260
100
AcDbEntity
  8
0
  6
Continuous
 62
     7
370
     0
100
AcDbLine
 10
147.94
 20
254.7789947304
 30
0.0
 11
147.94
 21
265.06
 31
0.0
  0
LINE
  5
266
330
260
100
AcDbEntity
  8
0
  6
Continuous
 62
     7
370
     0
100
AcDbLine
 10
185.94
 20
254.7789947304
 30
0.0
 11
185.94
 21
265.06
 31
0.0
  0
LINE
  5
267
330
260
100
AcDbEntity
  8
0
  6
Continuous
 62
     7
370
     0
100
AcDbLine
 10
147.94
 20
264.06
 30
0.0
 11
185.94
 21
264.06
 31
0.0
  0
MTEXT
  5
268
330
260
100
AcDbEntity
  8
0
  6
Continuous
 62
     7
370
    18
100
AcDbMText
 10
164.3538888065
 20
268.5717369146
 30
0.0
 40
3.5
 41
0.0
 71
     1
 72
     1
  1
38
  7
SLDTEXTSTYLE0
 73
     1
 44
1.0
  0
ENDBLK
  5
262
330
260
100
AcDbEntity
  8
0
100
AcDbBlockEnd
  0
BLOCK
  5
26B
330
26A
100
AcDbEntity
  8
0
100
AcDbBlockBegin
  2
_D_2
 70
     0
 10
0.0
 20
0.0
 30
0.0
  3
_D_2
  1

  0
SOLID
  5
26D
330
26A
100
AcDbEntity
  8
0
  6
Continuous
 62
     7
370
    18
100
AcDbTrace
 10
213.94
 20
185.7789947304
 30
0.0
 11
210.638
 21
186.2869947304
 31
0.0
 12
210.638
 22
185.2709947304
 32
0.0
 13
210.638
 23
185.2709947304
 33
0.0
  0
SOLID
  5
26E
330
26A
100
AcDbEntity
  8
0
  6
Continuous
 62
     7
370
    18
100
AcDbTrace
 10
75.94
 20
185.7789947304
 30
0.0
 11
79.242
 21
185.2709947304
 31
0.0
 12
79.242
 22
186.2869947304
 32
0.0
 13
79.242
 23
186.2869947304
 33
0.0
  0
LINE
  5
26F
330
26A
100
AcDbEntity
  8
0
  6
Continuous
 62
     7
370
     0
100
AcDbLine
 10
213.94
 20
224.7789947304
 30
0.0
 11
213.94
 21
184.7789947304
 31
0.0
  0
LINE
  5
270
330
26A
100
AcDbEntity
  8
0
  6
Continuous
 62
     7
370
     0
100
AcDbLine
 10
75.94
 20
207.7789947304
 30
0.0
 11
75.94
 21
184.7789947304
 31
0.0
  0
LINE
  5
271
330
26A
100
AcDbEntity
  8
0
  6
Continuous
 62
     7
370
     0
100
AcDbLine
 10
213.94
 20
185.7789947304
 30
0.0
 11
75.94
 21
185.7789947304
 31
0.0
  0
MTEXT
  5
272
330
26A
100
AcDbEntity
  8
0
  6
Continuous
 62
     7
370
    18
100
AcDbMText
 10
141.0608333261
 20
190.2907316449
 30
0.0
 40
3.5
 41
0.0
 71
     1
 72
     1
  1
138
  7
SLDTEXTSTYLE0
 73
     1
 44
1.0
  0
ENDBLK
  5
26C
330
26A
100
AcDbEntity
  8
0
100
AcDbBlockEnd
  0
BLOCK
  5
275
330
274
100
AcDbEntity
  8
0
100
AcDbBlockBegin
  2
_D_3
 70
     0
 10
0.0
 20
0.0
 30
0.0
  3
_D_3
  1

  0
SOLID
  5
277
330
274
100
AcDbEntity
  8
0
  6
Continuous
 62
     7
370
    18
100
AcDbTrace
 10
65.94
 20
191.7789947304
 30
0.0
 11
62.638
 21
192.2869947304
 31
0.0
 12
62.638
 22
191.2709947304
 32
0.0
 13
62.638
 23
191.2709947304
 33
0.0
  0
SOLID
  5
278
330
274
100
AcDbEntity
  8
0
  6
Continuous
 62
     7
370
    18
100
AcDbTrace
 10
75.94
 20
191.7789947304
 30
0.0
 11
79.242
 21
191.2709947304
 31
0.0
 12
79.242
 22
192.2869947304
 32
0.0
 13
79.242
 23
192.2869947304
 33
0.0
  0
LINE
  5
279
330
274
100
AcDbEntity
  8
0
  6
Continuous
 62
     7
370
     0
100
AcDbLine
 10
65.94
 20
209.4789947304
 30
0.0
 11
65.94
 21
190.7789947304
 31
0.0
  0
LINE
  5
27A
330
274
100
AcDbEntity
  8
0
  6
Continuous
 62
     7
370
     0
100
AcDbLine
 10
75.94
 20
207.7789947304
 30
0.0
 11
75.94
 21
190.7789947304
 31
0.0
  0
LINE
  5
27B
330
274
100
AcDbEntity
  8
0
  6
Continuous
 62
     7
370
     0
100
AcDbLine
 10
65.94
 20
191.7789947304
 30
0.0
 11
59.59
 21
191.7789947304
 31
0.0
  0
LINE
  5
27C
330
274
100
AcDbEntity
  8
0
  6
Continuous
 62
     7
370
     0
100
AcDbLine
 10
65.94
 20
191.7789947304
 30
0.0
 11
75.94
 21
191.7789947304
 31
0.0
  0
LINE
  5
27D
330
274
100
AcDbEntity
  8
0
  6
Continuous
 62
     7
370
     0
100
AcDbLine
 10
75.94
 20
191.7789947304
 30
0.0
 11
82.29
 21
191.7789947304
 31
0.0
  0
MTEXT
  5
27E
330
274
100
AcDbEntity
  8
0
  6
Continuous
 62
     7
370
    18
100
AcDbMText
 10
68.3538888065
 20
196.2907316449
 30
0.0
 40
3.5
 41
0.0
 71
     1
 72
     1
  1
10
  7
SLDTEXTSTYLE0
 73
     1
 44
1.0
  0
ENDBLK
  5
276
330
274
100
AcDbEntity
  8
0
100
AcDbBlockEnd
  0
BLOCK
  5
281
330
280
100
AcDbEntity
  8
0
100
AcDbBlockBegin
  2
_D_4
 70
     0
 10
0.0
 20
0.0
 30
0.0
  3
_D_4
  1

  0
SOLID
  5
283
330
280
100
AcDbEntity
  8
0
  6
Continuous
 62
     7
370
    18
100
AcDbTrace
 10
195.94
 20
270.06
 30
0.0
 11
199.242
 21
269.552
 31
0.0
 12
199.242
 22
270.568
 32
0.0
 13
199.242
 23
270.568
 33
0.0
  0
SOLID
  5
284
330
280
100
AcDbEntity
  8
0
  6
Continuous
 62
     7
370
    18
100
AcDbTrace
 10
185.94
 20
270.06
 30
0.0
 11
182.638
 21
270.568
 31
0.0
 12
182.638
 22
269.552
 32
0.0
 13
182.638
 23
269.552
 33
0.0
  0
LINE
  5
285
330
280
100
AcDbEntity
  8
0
  6
Continuous
 62
     7
370
     0
100
AcDbLine
 10
195.94
 20
253.2789947304
 30
0.0
 11
195.94
 21
271.06
 31
0.0
  0
LINE
  5
286
330
280
100
AcDbEntity
  8
0
  6
Continuous
 62
     7
370
     0
100
AcDbLine
 10
185.94
 20
254.7789947304
 30
0.0
 11
185.94
 21
271.06
 31
0.0
  0
LINE
  5
287
330
280
100
AcDbEntity
  8
0
  6
Continuous
 62
     7
370
     0
100
AcDbLine
 10
195.94
 20
270.06
 30
0.0
 11
202.29
 21
270.06
 31
0.0
  0
LINE
  5
288
330
280
100
AcDbEntity
  8
0
  6
Continuous
 62
     7
370
     0
100
AcDbLine
 10
195.94
 20
270.06
 30
0.0
 11
185.94
 21
270.06
 31
0.0
  0
LINE
  5
289
330
280
100
AcDbEntity
  8
0
  6
Continuous
 62
     7
370
     0
100
AcDbLine
 10
185.94
 20
270.06
 30
0.0
 11
179.59
 21
270.06
 31
0.0
  0
MTEXT
  5
28A
330
280
100
AcDbEntity
  8
0
  6
Continuous
 62
     7
370
    18
100
AcDbMText
 10
188.3538888065
 20
274.5717369146
 30
0.0
 40
3.5
 41
0.0
 71
     1
 72
     1
  1
10
  7
SLDTEXTSTYLE0
 73
     1
 44
1.0
  0
ENDBLK
  5
282
330
280
100
AcDbEntity
  8
0
100
AcDbBlockEnd
  0
BLOCK
  5
28D
330
28C
100
AcDbEntity
  8
0
100
AcDbBlockBegin
  2
_D_5
 70
     0
 10
0.0
 20
0.0
 30
0.0
  3
_D_5
  1

  0
SOLID
  5
28F
330
28C
100
AcDbEntity
  8
0
  6
Continuous
 62
     7
370
    18
100
AcDbTrace
 10
223.94
 20
224.2789947304
 30
0.0
 11
223.432
 21
220.9769947304
 31
0.0
 12
224.448
 22
220.9769947304
 32
0.0
 13
224.448
 23
220.9769947304
 33
0.0
  0
SOLID
  5
290
330
28C
100
AcDbEntity
  8
0
  6
Continuous
 62
     7
370
    18
100
AcDbTrace
 10
223.94
 20
238.2789947304
 30
0.0
 11
224.448
 21
241.5809947304
 31
0.0
 12
223.432
 22
241.5809947304
 32
0.0
 13
223.432
 23
241.5809947304
 33
0.0
  0
LINE
  5
291
330
28C
100
AcDbEntity
  8
0
  6
Continuous
 62
     7
370
     0
100
AcDbLine
 10
206.44
 20
224.2789947304
 30
0.0
 11
224.94
 21
224.2789947304
 31
0.0
  0
LINE
  5
292
330
28C
100
AcDbEntity
  8
0
  6
Continuous
 62
     7
370
     0
100
AcDbLine
 10
206.44
 20
238.2789947304
 30
0.0
 11
224.94
 21
238.2789947304
 31
0.0
  0
LINE
  5
293
330
28C
100
AcDbEntity
  8
0
  6
Continuous
 62
     7
370
     0
100
AcDbLine
 10
223.94
 20
224.2789947304
 30
0.0
 11
223.94
 21
217.9289947304
 31
0.0
  0
LINE
  5
294
330
28C
100
AcDbEntity
  8
0
  6
Continuous
 62
     7
370
     0
100
AcDbLine
 10
223.94
 20
224.2789947304
 30
0.0
 11
223.94
 21
238.2789947304
 31
0.0
  0
LINE
  5
295
330
28C
100
AcDbEntity
  8
0
  6
Continuous
 62
     7
370
     0
100
AcDbLine
 10
223.94
 20
238.2789947304
 30
0.0
 11
223.94
 21
244.6289947304
 31
0.0
  0
MTEXT
  5
296
330
28C
100
AcDbEntity
  8
0
  6
Continuous
 62
     7
370
    18
100
AcDbMText
 10
219.4282629108
 20
226.0536646048
 30
0.0
 40
3.5
 41
0.0
 71
     1
 72
     1
  1
%%c
  7
SLDTEXTSTYLE0
 11
6.123233995736766E-17
 21
1.0
 31
0.0
 73
     1
 44
1.0
  0
MTEXT
  5
297
330
28C
100
AcDbEntity
  8
0
  6
Continuous
 62
     7
370
    18
100
AcDbMText
 10
219.3747907341
 20
231.3321020032
 30
0.0
 40
3.5
 41
0.0
 71
     1
 72
     1
  1
14
  7
SLDTEXTSTYLE0
 11
6.123233995736766E-17
 21
1.0
 31
0.0
 73
     1
 44
1.0
  0
ENDBLK
  5
28E
330
28C
100
AcDbEntity
  8
0
100
AcDbBlockEnd
  0
BLOCK
  5
29B
330
29A
100
AcDbEntity
  8
0
100
AcDbBlockBegin
  2
_D_6
 70
     0
 10
0.0
 20
0.0
 30
0.0
  3
_D_6
  1

  0
SOLID
  5
29D
330
29A
100
AcDbEntity
  8
0
  6
Continuous
 62
     7
370
    18
100
AcDbTrace
 10
235.94
 20
244.2789947304
 30
0.0
 11
236.448
 21
247.5809947304
 31
0.0
 12
235.432
 22
247.5809947304
 32
0.0
 13
235.432
 23
247.5809947304
 33
0.0
  0
SOLID
  5
29E
330
29A
100
AcDbEntity
  8
0
  6
Continuous
 62
     7
370
    18
100
AcDbTrace
 10
235.94
 20
218.2789947304
 30
0.0
 11
235.432
 21
214.9769947304
 31
0.0
 12
236.448
 22
214.9769947304
 32
0.0
 13
236.448
 23
214.9769947304
 33
0.0
  0
LINE
  5
29F
330
29A
100
AcDbEntity
  8
0
  6
Continuous
 62
     7
370
     0
100
AcDbLine
 10
204.44
 20
244.2789947304
 30
0.0
 11
236.94
 21
244.2789947304
 31
0.0
  0
LINE
  5
2A0
330
29A
100
AcDbEntity
  8
0
  6
Continuous
 62
     7
370
     0
100
AcDbLine
 10
204.44
 20
218.2789947304
 30
0.0
 11
236.94
 21
218.2789947304
 31
0.0
  0
LINE
  5
2A1
330
29A
100
AcDbEntity
  8
0
  6
Continuous
 62
     7
370
     0
100
AcDbLine
 10
235.94
 20
244.2789947304
 30
0.0
 11
235.94
 21
250.6289947304
 31
0.0
  0
LINE
  5
2A2
330
29A
100
AcDbEntity
  8
0
  6
Continuous
 62
     7
370
     0
100
AcDbLine
 10
235.94
 20
244.2789947304
 30
0.0
 11
235.94
 21
218.2789947304
 31
0.0
  0
LINE
  5
2A3
330
29A
100
AcDbEntity
  8
0
  6
Continuous
 62
     7
370
     0
100
AcDbLine
 10
235.94
 20
218.2789947304
 30
0.0
 11
235.94
 21
211.9289947304
 31
0.0
  0
MTEXT
  5
2A4
330
29A
100
AcDbEntity
  8
0
  6
Continuous
 62
     7
370
    18
100
AcDbMText
 10
231.4282629108
 20
223.3824838462
 30
0.0
 40
3.5
 41
0.0
 71
     1
 72
     1
  1
%%c
  7
SLDTEXTSTYLE0
 11
-7.044195017643634E-15
 21
1.0
 31
0.0
 73
     1
 44
1.0
  0
MTEXT
  5
2A5
330
29A
100
AcDbEntity
  8
0
  6
Continuous
 62
     7
370
    18
100
AcDbMText
 10
231.3747907341
 20
228.6609212446
 30
0.0
 40
3.5
 41
0.0
 71
     1
 72
     1
  1
26
  7
SLDTEXTSTYLE0
 11
-7.044195017643634E-15
 21
1.0
 31
0.0
 73
     1
 44
1.0
  0
MTEXT
  5
2A6
330
29A
100
AcDbEntity
  8
0
  6
Continuous
 62
     7
370
    18
100
AcDbMText
 10
231.3747907341
 20
235.1456431659
 30
0.0
 40
3.5
 41
0.0
 71
     1
 72
     1
  1
f9
  7
SLDTEXTSTYLE0
 11
-7.044195017643634E-15
 21
1.0
 31
0.0
 73
     1
 44
1.0
  0
ENDBLK
  5
29C
330
29A
100
AcDbEntity
  8
0
100
AcDbBlockEnd
  0
BLOCK
  5
2A9
330
2A8
100
AcDbEntity
  8
0
100
AcDbBlockBegin
  2
_D_7
 70
     0
 10
0.0
 20
0.0
 30
0.0
  3
_D_7
  1

  0
SOLID
  5
2AB
330
2A8
100
AcDbEntity
  8
0
  6
Continuous
 62
     7
370
    18
100
AcDbTrace
 10
203.94
 20
264.06
 30
0.0
 11
207.242
 21
263.552
 31
0.0
 12
207.242
 22
264.568
 32
0.0
 13
207.242
 23
264.568
 33
0.0
  0
SOLID
  5
2AC
330
2A8
100
AcDbEntity
  8
0
  6
Continuous
 62
     7
370
    18
100
AcDbTrace
 10
195.94
 20
264.06
 30
0.0
 11
192.638
 21
264.568
 31
0.0
 12
192.638
 22
263.552
 32
0.0
 13
192.638
 23
263.552
 33
0.0
  0
LINE
  5
2AD
330
2A8
100
AcDbEntity
  8
0
  6
Continuous
 62
     7
370
     0
100
AcDbLine
 10
203.94
 20
244.7789947304
 30
0.0
 11
203.94
 21
265.06
 31
0.0
  0
LINE
  5
2AE
330
2A8
100
AcDbEntity
  8
0
  6
Continuous
 62
     7
370
     0
100
AcDbLine
 10
195.94
 20
253.2789947304
 30
0.0
 11
195.94
 21
265.06
 31
0.0
  0
LINE
  5
2AF
330
2A8
100
AcDbEntity
  8
0
  6
Continuous
 62
     7
370
     0
100
AcDbLine
 10
203.94
 20
264.06
 30
0.0
 11
210.29
 21
264.06
 31
0.0
  0
LINE
  5
2B0
330
2A8
100
AcDbEntity
  8
0
  6
Continuous
 62
     7
370
     0
100
AcDbLine
 10
203.94
 20
264.06
 30
0.0
 11
195.94
 21
264.06
 31
0.0
  0
LINE
  5
2B1
330
2A8
100
AcDbEntity
  8
0
  6
Continuous
 62
     7
370
     0
100
AcDbLine
 10
195.94
 20
264.06
 30
0.0
 11
189.59
 21
264.06
 31
0.0
  0
MTEXT
  5
2B2
330
2A8
100
AcDbEntity
  8
0
  6
Continuous
 62
     7
370
    18
100
AcDbMText
 10
198.6469444032
 20
268.5717369146
 30
0.0
 40
3.5
 41
0.0
 71
     1
 72
     1
  1
8
  7
SLDTEXTSTYLE0
 73
     1
 44
1.0
  0
ENDBLK
  5
2AA
330
2A8
100
AcDbEntity
  8
0
100
AcDbBlockEnd
  0
BLOCK
  5
31A
330
319
100
AcDbEntity
  8
0
100
AcDbBlockBegin
  2
_None
 70
     0
 10
0.0
 20
0.0
 30
0.0
  3
_None
  1

  0
ENDBLK
  5
31B
330
319
100
AcDbEntity
  8
0
100
AcDbBlockEnd
  0
BLOCK
  5
31D
330
31C
100
AcDbEntity
  8
0
100
AcDbBlockBegin
  2
_D_8
 70
     0
 10
0.0
 20
0.0
 30
0.0
  3
_D_8
  1

  0
SOLID
  5
31F
330
31C
100
AcDbEntity
  8
0
  6
Continuous
 62
     7
370
    18
100
AcDbTrace
 10
103.2160448801
 20
78.5546379799
 30
0.0
 11
104.9432355745
 21
75.6949036731
 31
0.0
 12
105.7229388022
 22
76.3463013064
 32
0.0
 13
105.7229388022
 23
76.3463013064
 33
0.0
  0
LINE
  5
320
330
31C
100
AcDbEntity
  8
0
  6
Continuous
 62
     7
370
     0
100
AcDbLine
 10
103.2160448801
 20
78.5546379799
 30
0.0
 11
140.5445256437
 21
33.873577672
 31
0.0
  0
LINE
  5
321
330
31C
100
AcDbEntity
  8
0
  6
Continuous
 62
     7
370
     0
100
AcDbLine
 10
103.2160448801
 20
78.5546379799
 30
0.0
 11
98.6639551199
 21
84.0033514808
 31
0.0
  0
MTEXT
  5
322
330
31C
100
AcDbEntity
  8
0
  6
Continuous
 62
     7
370
    18
100
AcDbMText
 10
130.6988644029
 20
52.6892985597
 30
0.0
 40
3.5
 41
0.0
 71
     1
 72
     1
  1
M12x1.25
  7
SLDTEXTSTYLE0
 11
0.6411394028501736
 21
-0.7674244367447018
 31
0.0
 73
     1
 44
1.0
  0
ENDBLK
  5
31E
330
31C
100
AcDbEntity
  8
0
100
AcDbBlockEnd
  0
BLOCK
  5
326
330
325
100
AcDbEntity
  8
0
100
AcDbBlockBegin
  2
_D_9
 70
     0
 10
0.0
 20
0.0
 30
0.0
  3
_D_9
  1

  0
SOLID
  5
328
330
325
100
AcDbEntity
  8
0
  6
Continuous
 62
     7
370
    18
100
AcDbTrace
 10
87.4760725402
 20
65.1630815587
 30
0.0
 11
84.9691786181
 21
62.9547448852
 31
0.0
 12
85.7488818458
 22
62.3033472519
 32
0.0
 13
85.7488818458
 23
62.3033472519
 33
0.0
  0
LINE
  5
329
330
325
100
AcDbEntity
  8
0
  6
Continuous
 62
     7
370
     0
100
AcDbLine
 10
87.4760725402
 20
65.1630815587
 30
0.0
 11
64.6387247108
 21
37.8274682478
 31
0.0
  0
LINE
  5
32A
330
325
100
AcDbEntity
  8
0
  6
Continuous
 62
     7
370
     0
100
AcDbLine
 10
87.4760725402
 20
65.1630815587
 30
0.0
 11
114.4039274599
 21
97.394907902
 31
0.0
  0
MTEXT
  5
32B
330
325
100
AcDbEntity
  8
0
  6
Continuous
 62
     7
370
    18
100
AcDbMText
 10
61.1794963894
 20
40.7174564657
 30
0.0
 40
3.5
 41
0.0
 71
     1
 72
     1
  1
%%c
  7
SLDTEXTSTYLE0
 11
0.6411394028501575
 21
0.7674244367447153
 31
0.0
 73
     1
 44
1.0
  0
MTEXT
  5
32C
330
325
100
AcDbEntity
  8
0
  6
Continuous
 62
     7
370
    18
100
AcDbMText
 10
64.5226747359
 20
44.8025414324
 30
0.0
 40
3.5
 41
0.0
 71
     1
 72
     1
  1
42
  7
SLDTEXTSTYLE0
 11
0.6411394028501575
 21
0.7674244367447153
 31
0.0
 73
     1
 44
1.0
  0
ENDBLK
  5
327
330
325
100
AcDbEntity
  8
0
100
AcDbBlockEnd
  0
BLOCK
  5
32F
330
32E
100
AcDbEntity
  8
0
100
AcDbBlockBegin
  2
_D_10
 70
     0
 10
0.0
 20
0.0
 30
0.0
  3
_D_10
  1

  0
SOLID
  5
331
330
32E
100
AcDbEntity
  8
0
  6
Continuous
 62
     7
370
    18
100
AcDbTrace
 10
145.94
 20
97.7789947304
 30
0.0
 11
145.432
 21
94.4769947304
 31
0.0
 12
146.448
 22
94.4769947304
 32
0.0
 13
146.448
 23
94.4769947304
 33
0.0
  0
SOLID
  5
332
330
32E
100
AcDbEntity
  8
0
  6
Continuous
 62
     7
370
    18
100
AcDbTrace
 10
145.94
 20
64.7789947304
 30
0.0
 11
146.448
 21
68.0809947304
 31
0.0
 12
145.432
 22
68.0809947304
 32
0.0
 13
145.432
 23
68.0809947304
 33
0.0
  0
LINE
  5
333
330
32E
100
AcDbEntity
  8
0
  6
Continuous
 62
     7
370
     0
100
AcDbLine
 10
137.19
 20
97.7789947304
 30
0.0
 11
146.94
 21
97.7789947304
 31
0.0
  0
LINE
  5
334
330
32E
100
AcDbEntity
  8
0
  6
Continuous
 62
     7
370
     0
100
AcDbLine
 10
136.69
 20
64.7789947304
 30
0.0
 11
146.94
 21
64.7789947304
 31
0.0
  0
LINE
  5
335
330
32E
100
AcDbEntity
  8
0
  6
Continuous
 62
     7
370
     0
100
AcDbLine
 10
145.94
 20
97.7789947304
 30
0.0
 11
145.94
 21
64.7789947304
 31
0.0
  0
MTEXT
  5
336
330
32E
100
AcDbEntity
  8
0
  6
Continuous
 62
     7
370
    18
100
AcDbMText
 10
141.4282630854
 20
78.6928835368
 30
0.0
 40
3.5
 41
0.0
 71
     1
 72
     1
  1
33
  7
SLDTEXTSTYLE0
 11
-7.044195017643634E-15
 21
1.0
 31
0.0
 73
     1
 44
1.0
  0
ENDBLK
  5
330
330
32E
100
AcDbEntity
  8
0
100
AcDbBlockEnd
  0
BLOCK
  5
339
330
338
100
AcDbEntity
  8
0
100
AcDbBlockBegin
  2
_D_11
 70
     0
 10
0.0
 20
0.0
 30
0.0
  3
_D_11
  1

  0
SOLID
  5
33B
330
338
100
AcDbEntity
  8
0
  6
Continuous
 62
     7
370
    18
100
AcDbTrace
 10
151.94
 20
58.7789947304
 30
0.0
 11
152.448
 21
62.0809947304
 31
0.0
 12
151.432
 22
62.0809947304
 32
0.0
 13
151.432
 23
62.0809947304
 33
0.0
  0
SOLID
  5
33C
330
338
100
AcDbEntity
  8
0
  6
Continuous
 62
     7
370
    18
100
AcDbTrace
 10
151.94
 20
103.7789947304
 30
0.0
 11
151.432
 21
100.4769947304
 31
0.0
 12
152.448
 22
100.4769947304
 32
0.0
 13
152.448
 23
100.4769947304
 33
0.0
  0
LINE
  5
33D
330
338
100
AcDbEntity
  8
0
  6
Continuous
 62
     7
370
     0
100
AcDbLine
 10
136.44
 20
58.7789947304
 30
0.0
 11
152.94
 21
58.7789947304
 31
0.0
  0
LINE
  5
33E
330
338
100
AcDbEntity
  8
0
  6
Continuous
 62
     7
370
     0
100
AcDbLine
 10
136.44
 20
103.7789947304
 30
0.0
 11
152.94
 21
103.7789947304
 31
0.0
  0
LINE
  5
33F
330
338
100
AcDbEntity
  8
0
  6
Continuous
 62
     7
370
     0
100
AcDbLine
 10
151.94
 20
58.7789947304
 30
0.0
 11
151.94
 21
103.7789947304
 31
0.0
  0
MTEXT
  5
340
330
338
100
AcDbEntity
  8
0
  6
Continuous
 62
     7
370
    18
100
AcDbMText
 10
147.4282630854
 20
78.6928835368
 30
0.0
 40
3.5
 41
0.0
 71
     1
 72
     1
  1
45
  7
SLDTEXTSTYLE0
 11
6.123233995736766E-17
 21
1.0
 31
0.0
 73
     1
 44
1.0
  0
ENDBLK
  5
33A
330
338
100
AcDbEntity
  8
0
100
AcDbBlockEnd
  0
BLOCK
  5
343
330
342
100
AcDbEntity
  8
0
100
AcDbBlockBegin
  2
_D_12
 70
     0
 10
0.0
 20
0.0
 30
0.0
  3
_D_12
  1

  0
SOLID
  5
345
330
342
100
AcDbEntity
  8
0
  6
Continuous
 62
     7
370
    18
100
AcDbTrace
 10
71.94
 20
114.06
 30
0.0
 11
75.242
 21
113.552
 31
0.0
 12
75.242
 22
114.568
 32
0.0
 13
75.242
 23
114.568
 33
0.0
  0
SOLID
  5
346
330
342
100
AcDbEntity
  8
0
  6
Continuous
 62
     7
370
    18
100
AcDbTrace
 10
129.94
 20
114.06
 30
0.0
 11
126.638
 21
114.568
 31
0.0
 12
126.638
 22
113.552
 32
0.0
 13
126.638
 23
113.552
 33
0.0
  0
LINE
  5
347
330
342
100
AcDbEntity
  8
0
  6
Continuous
 62
     7
370
     0
100
AcDbLine
 10
71.94
 20
105.0289947304
 30
0.0
 11
71.94
 21
115.06
 31
0.0
  0
LINE
  5
348
330
342
100
AcDbEntity
  8
0
  6
Continuous
 62
     7
370
     0
100
AcDbLine
 10
129.94
 20
105.0289947304
 30
0.0
 11
129.94
 21
115.06
 31
0.0
  0
LINE
  5
349
330
342
100
AcDbEntity
  8
0
  6
Continuous
 62
     7
370
     0
100
AcDbLine
 10
71.94
 20
114.06
 30
0.0
 11
129.94
 21
114.06
 31
0.0
  0
MTEXT
  5
34A
330
342
100
AcDbEntity
  8
0
  6
Continuous
 62
     7
370
    18
100
AcDbMText
 10
98.3538888065
 20
118.5717369146
 30
0.0
 40
3.5
 41
0.0
 71
     1
 72
     1
  1
58
  7
SLDTEXTSTYLE0
 73
     1
 44
1.0
  0
ENDBLK
  5
344
330
342
100
AcDbEntity
  8
0
100
AcDbBlockEnd
  0
BLOCK
  5
34D
330
34C
100
AcDbEntity
  8
0
100
AcDbBlockBegin
  2
_D_13
 70
     0
 10
0.0
 20
0.0
 30
0.0
  3
_D_13
  1

  0
SOLID
  5
34F
330
34C
100
AcDbEntity
  8
0
  6
Continuous
 62
     7
370
    18
100
AcDbTrace
 10
65.94
 20
120.06
 30
0.0
 11
69.242
 21
119.552
 31
0.0
 12
69.242
 22
120.568
 32
0.0
 13
69.242
 23
120.568
 33
0.0
  0
SOLID
  5
350
330
34C
100
AcDbEntity
  8
0
  6
Continuous
 62
     7
370
    18
100
AcDbTrace
 10
135.94
 20
120.06
 30
0.0
 11
132.638
 21
120.568
 31
0.0
 12
132.638
 22
119.552
 32
0.0
 13
132.638
 23
119.552
 33
0.0
  0
LINE
  5
351
330
34C
100
AcDbEntity
  8
0
  6
Continuous
 62
     7
370
     0
100
AcDbLine
 10
65.94
 20
104.2789947304
 30
0.0
 11
65.94
 21
121.06
 31
0.0
  0
LINE
  5
352
330
34C
100
AcDbEntity
  8
0
  6
Continuous
 62
     7
370
     0
100
AcDbLine
 10
135.94
 20
104.2789947304
 30
0.0
 11
135.94
 21
121.06
 31
0.0
  0
LINE
  5
353
330
34C
100
AcDbEntity
  8
0
  6
Continuous
 62
     7
370
     0
100
AcDbLine
 10
65.94
 20
120.06
 30
0.0
 11
135.94
 21
120.06
 31
0.0
  0
MTEXT
  5
354
330
34C
100
AcDbEntity
  8
0
  6
Continuous
 62
     7
370
    18
100
AcDbMText
 10
98.3538888065
 20
124.5717369146
 30
0.0
 40
3.5
 41
0.0
 71
     1
 72
     1
  1
70
  7
SLDTEXTSTYLE0
 73
     1
 44
1.0
  0
ENDBLK
  5
34E
330
34C
100
AcDbEntity
  8
0
100
AcDbBlockEnd
  0
BLOCK
  5
357
330
356
100
AcDbEntity
  8
0
100
AcDbBlockBegin
  2
_D_14
 70
     0
 10
0.0
 20
0.0
 30
0.0
  3
_D_14
  1

  0
SOLID
  5
359
330
356
100
AcDbEntity
  8
0
  6
Continuous
 62
     7
370
    18
100
AcDbTrace
 10
69.3581121334
 20
95.0593706673
 30
0.0
 11
66.7162553975
 21
93.0144107687
 31
0.0
 12
67.4530922103
 22
92.3148912827
 32
0.0
 13
67.4530922103
 23
92.3148912827
 33
0.0
  0
LINE
  5
35A
330
356
100
AcDbEntity
  8
0
  6
Continuous
 62
     7
370
     0
100
AcDbLine
 10
69.3581121334
 20
95.0593706673
 30
0.0
 11
52.0251359603
 21
76.8017307079
 31
0.0
  0
LINE
  5
35B
330
356
100
AcDbEntity
  8
0
  6
Continuous
 62
     7
370
     0
100
AcDbLine
 10
69.3581121334
 20
95.0593706673
 30
0.0
 11
74.5218878666
 21
100.4986187934
 31
0.0
  0
MTEXT
  5
35C
330
356
100
AcDbEntity
  8
0
  6
Continuous
 62
     7
370
    18
100
AcDbMText
 10
48.7673196909
 20
79.8945538713
 30
0.0
 40
3.5
 41
0.0
 71
     1
 72
     1
  1
M6x1
  7
SLDTEXTSTYLE0
 11
0.6885034310974635
 21
0.725233083475251
 31
0.0
 73
     1
 44
1.0
  0
ENDBLK
  5
358
330
356
100
AcDbEntity
  8
0
100
AcDbBlockEnd
  0
BLOCK
  5
35E
330
35D
100
AcDbEntity
  8
0
100
AcDbBlockBegin
  2
SW_CENTERMARKSYMBOL_0
 70
     0
 10
0.0
 20
0.0
 30
0.0
  3
SW_CENTERMARKSYMBOL_0
  1

  0
LINE
  5
360
330
35D
100
AcDbEntity
  8
0
  6
Continuous
 62
     0
370
    18
100
AcDbLine
 10
0.0
 20
0.0
 30
0.0
 11
0.0
 21
2.5
 31
0.0
  0
LINE
  5
361
330
35D
100
AcDbEntity
  8
0
  6
Continuous
 62
     0
370
    18
100
AcDbLine
 10
0.0
 20
0.0
 30
0.0
 11
-2.5
 21
0.0
 31
0.0
  0
LINE
  5
362
330
35D
100
AcDbEntity
  8
0
  6
Continuous
 62
     0
370
    18
100
AcDbLine
 10
0.0
 20
0.0
 30
0.0
 11
0.0
 21
-2.5
 31
0.0
  0
LINE
  5
363
330
35D
100
AcDbEntity
  8
0
  6
Continuous
 62
     0
370
    18
100
AcDbLine
 10
0.0
 20
0.0
 30
0.0
 11
2.5
 21
0.0
 31
0.0
  0
LINE
  5
364
330
35D
100
AcDbEntity
  8
0
  6
Continuous
 62
     0
370
    18
100
AcDbLine
 10
0.0
 20
5.0
 30
0.0
 11
0.0
 21
6.25
 31
0.0
  0
LINE
  5
365
330
35D
100
AcDbEntity
  8
0
  6
Continuous
 62
     0
370
    18
100
AcDbLine
 10
-5.0
 20
0.0
 30
0.0
 11
-6.25
 21
0.0
 31
0.0
  0
LINE
  5
366
330
35D
100
AcDbEntity
  8
0
  6
Continuous
 62
     0
370
    18
100
AcDbLine
 10
0.0
 20
-5.0
 30
0.0
 11
0.0
 21
-6.25
 31
0.0
  0
LINE
  5
367
330
35D
100
AcDbEntity
  8
0
  6
Continuous
 62
     0
370
    18
100
AcDbLine
 10
5.0
 20
0.0
 30
0.0
 11
6.25
 21
0.0
 31
0.0
  0
ENDBLK
  5
35F
330
35D
100
AcDbEntity
  8
0
100
AcDbBlockEnd
  0
BLOCK
  5
36A
330
369
100
AcDbEntity
  8
0
100
AcDbBlockBegin
  2
SW_CENTERMARKSYMBOL_1
 70
     0
 10
0.0
 20
0.0
 30
0.0
  3
SW_CENTERMARKSYMBOL_1
  1

  0
LINE
  5
36C
330
369
100
AcDbEntity
  8
0
  6
Continuous
 62
     0
370
    18
100
AcDbLine
 10
0.0
 20
0.0
 30
0.0
 11
0.0
 21
2.5
 31
0.0
  0
LINE
  5
36D
330
369
100
AcDbEntity
  8
0
  6
Continuous
 62
     0
370
    18
100
AcDbLine
 10
0.0
 20
0.0
 30
0.0
 11
-2.5
 21
0.0
 31
0.0
  0
LINE
  5
36E
330
369
100
AcDbEntity
  8
0
  6
Continuous
 62
     0
370
    18
100
AcDbLine
 10
0.0
 20
0.0
 30
0.0
 11
0.0
 21
-2.5
 31
0.0
  0
LINE
  5
36F
330
369
100
AcDbEntity
  8
0
  6
Continuous
 62
     0
370
    18
100
AcDbLine
 10
0.0
 20
0.0
 30
0.0
 11
2.5
 21
0.0
 31
0.0
  0
LINE
  5
370
330
369
100
AcDbEntity
  8
0
  6
Continuous
 62
     0
370
    18
100
AcDbLine
 10
0.0
 20
5.0
 30
0.0
 11
0.0
 21
6.25
 31
0.0
  0
LINE
  5
371
330
369
100
AcDbEntity
  8
0
  6
Continuous
 62
     0
370
    18
100
AcDbLine
 10
-5.0
 20
0.0
 30
0.0
 11
-6.25
 21
0.0
 31
0.0
  0
LINE
  5
372
330
369
100
AcDbEntity
  8
0
  6
Continuous
 62
     0
370
    18
100
AcDbLine
 10
0.0
 20
-5.0
 30
0.0
 11
0.0
 21
-6.25
 31
0.0
  0
LINE
  5
373
330
369
100
AcDbEntity
  8
0
  6
Continuous
 62
     0
370
    18
100
AcDbLine
 10
5.0
 20
0.0
 30
0.0
 11
6.25
 21
0.0
 31
0.0
  0
ENDBLK
  5
36B
330
369
100
AcDbEntity
  8
0
100
AcDbBlockEnd
  0
BLOCK
  5
376
330
375
100
AcDbEntity
  8
0
100
AcDbBlockBegin
  2
SW_CENTERMARKSYMBOL_2
 70
     0
 10
0.0
 20
0.0
 30
0.0
  3
SW_CENTERMARKSYMBOL_2
  1

  0
LINE
  5
378
330
375
100
AcDbEntity
  8
0
  6
Continuous
 62
     0
370
    18
100
AcDbLine
 10
0.0
 20
0.0
 30
0.0
 11
0.0
 21
2.5
 31
0.0
  0
LINE
  5
379
330
375
100
AcDbEntity
  8
0
  6
Continuous
 62
     0
370
    18
100
AcDbLine
 10
0.0
 20
0.0
 30
0.0
 11
-2.5
 21
0.0
 31
0.0
  0
LINE
  5
37A
330
375
100
AcDbEntity
  8
0
  6
Continuous
 62
     0
370
    18
100
AcDbLine
 10
0.0
 20
0.0
 30
0.0
 11
0.0
 21
-2.5
 31
0.0
  0
LINE
  5
37B
330
375
100
AcDbEntity
  8
0
  6
Continuous
 62
     0
370
    18
100
AcDbLine
 10
0.0
 20
0.0
 30
0.0
 11
2.5
 21
0.0
 31
0.0
  0
LINE
  5
37C
330
375
100
AcDbEntity
  8
0
  6
Continuous
 62
     0
370
    18
100
AcDbLine
 10
0.0
 20
5.0
 30
0.0
 11
0.0
 21
5.75
 31
0.0
  0
LINE
  5
37D
330
375
100
AcDbEntity
  8
0
  6
Continuous
 62
     0
370
    18
100
AcDbLine
 10
-5.0
 20
0.0
 30
0.0
 11
-5.75
 21
0.0
 31
0.0
  0
LINE
  5
37E
330
375
100
AcDbEntity
  8
0
  6
Continuous
 62
     0
370
    18
100
AcDbLine
 10
0.0
 20
-5.0
 30
0.0
 11
0.0
 21
-5.75
 31
0.0
  0
LINE
  5
37F
330
375
100
AcDbEntity
  8
0
  6
Continuous
 62
     0
370
    18
100
AcDbLine
 10
5.0
 20
0.0
 30
0.0
 11
5.75
 21
0.0
 31
0.0
  0
ENDBLK
  5
377
330
375
100
AcDbEntity
  8
0
100
AcDbBlockEnd
  0
BLOCK
  5
382
330
381
100
AcDbEntity
  8
0
100
AcDbBlockBegin
  2
SW_CENTERMARKSYMBOL_3
 70
     0
 10
0.0
 20
0.0
 30
0.0
  3
SW_CENTERMARKSYMBOL_3
  1

  0
LINE
  5
384
330
381
100
AcDbEntity
  8
0
  6
Continuous
 62
     0
370
    18
100
AcDbLine
 10
0.0
 20
0.0
 30
0.0
 11
0.0
 21
2.5
 31
0.0
  0
LINE
  5
385
330
381
100
AcDbEntity
  8
0
  6
Continuous
 62
     0
370
    18
100
AcDbLine
 10
0.0
 20
0.0
 30
0.0
 11
-2.5
 21
0.0
 31
0.0
  0
LINE
  5
386
330
381
100
AcDbEntity
  8
0
  6
Continuous
 62
     0
370
    18
100
AcDbLine
 10
0.0
 20
0.0
 30
0.0
 11
0.0
 21
-2.5
 31
0.0
  0
LINE
  5
387
330
381
100
AcDbEntity
  8
0
  6
Continuous
 62
     0
370
    18
100
AcDbLine
 10
0.0
 20
0.0
 30
0.0
 11
2.5
 21
0.0
 31
0.0
  0
LINE
  5
388
330
381
100
AcDbEntity
  8
0
  6
Continuous
 62
     0
370
    18
100
AcDbLine
 10
0.0
 20
5.0
 30
0.0
 11
0.0
 21
6.25
 31
0.0
  0
LINE
  5
389
330
381
100
AcDbEntity
  8
0
  6
Continuous
 62
     0
370
    18
100
AcDbLine
 10
-5.0
 20
0.0
 30
0.0
 11
-6.25
 21
0.0
 31
0.0
  0
LINE
  5
38A
330
381
100
AcDbEntity
  8
0
  6
Continuous
 62
     0
370
    18
100
AcDbLine
 10
0.0
 20
-5.0
 30
0.0
 11
0.0
 21
-6.25
 31
0.0
  0
LINE
  5
38B
330
381
100
AcDbEntity
  8
0
  6
Continuous
 62
     0
370
    18
100
AcDbLine
 10
5.0
 20
0.0
 30
0.0
 11
6.25
 21
0.0
 31
0.0
  0
ENDBLK
  5
383
330
381
100
AcDbEntity
  8
0
100
AcDbBlockEnd
  0
ENDSEC
  0
SECTION
  2
ENTITIES
  0
LINE
  5
74
330
1F
100
AcDbEntity
  8
0
  6
Continuous
 62
     7
370
    50
100
AcDbLine
 10
230.0
 20
14.25
 30
0.0
 11
410.0
 21
14.25
 31
0.0
  0
LINE
  5
75
330
1F
100
AcDbEntity
  8
0
  6
Continuous
 62
     7
370
    50
100
AcDbLine
 10
410.0
 20
48.25
 30
0.0
 11
230.0
 21
48.25
 31
0.0
  0
LINE
  5
76
330
1F
100
AcDbEntity
  8
0
  6
Continuous
 62
     7
370
    50
100
AcDbLine
 10
230.0
 20
65.25
 30
0.0
 11
410.0
 21
65.25
 31
0.0
  0
LINE
  5
77
330
1F
100
AcDbEntity
  8
0
  6
Continuous
 62
     7
370
    50
100
AcDbLine
 10
256.9909524338
 20
48.25
 30
0.0
 11
256.9909524338
 21
10.0
 31
0.0
  0
LINE
  5
78
330
1F
100
AcDbEntity
  8
0
  6
Continuous
 62
     7
370
    50
100
AcDbLine
 10
328.8
 20
31.25
 30
0.0
 11
230.0
 21
31.25
 31
0.0
  0
LINE
  5
79
330
1F
100
AcDbEntity
  8
0
  6
Continuous
 62
     7
370
    50
100
AcDbLine
 10
328.8
 20
35.5
 30
0.0
 11
230.0
 21
35.5
 31
0.0
  0
LINE
  5
7A
330
1F
100
AcDbEntity
  8
0
  6
Continuous
 62
     7
370
    50
100
AcDbLine
 10
328.8
 20
39.75
 30
0.0
 11
230.0
 21
39.75
 31
0.0
  0
LINE
  5
7B
330
1F
100
AcDbEntity
  8
0
  6
Continuous
 62
     7
370
    50
100
AcDbLine
 10
328.8
 20
44.0
 30
0.0
 11
230.0
 21
44.0
 31
0.0
  0
LINE
  5
7C
330
1F
100
AcDbEntity
  8
0
  6
Continuous
 62
     7
370
    50
100
AcDbLine
 10
284.6
 20
10.0
 30
0.0
 11
284.6
 21
48.25
 31
0.0
  0
LINE
  5
7D
330
1F
100
AcDbEntity
  8
0
  6
Continuous
 62
     7
370
    50
100
AcDbLine
 10
230.0
 20
65.25
 30
0.0
 11
230.0
 21
10.0
 31
0.0
  0
LINE
  5
7E
330
1F
100
AcDbEntity
  8
0
  6
Continuous
 62
     7
370
    50
100
AcDbLine
 10
242.0703737145
 20
48.25
 30
0.0
 11
242.0703737145
 21
10.0
 31
0.0
  0
LINE
  5
7F
330
1F
100
AcDbEntity
  8
0
  6
Continuous
 62
     7
370
    50
100
AcDbLine
 10
263.8
 20
48.25
 30
0.0
 11
263.8
 21
65.25
 31
0.0
  0
LINE
  5
80
330
1F
100
AcDbEntity
  8
0
  6
Continuous
 62
     7
370
    50
100
AcDbLine
 10
274.3989261635
 20
48.25
 30
0.0
 11
274.3989261635
 21
10.0
 31
0.0
  0
LINE
  5
81
330
1F
100
AcDbEntity
  8
0
  6
Continuous
 62
     7
370
    50
100
AcDbLine
 10
295.0
 20
31.25
 30
0.0
 11
295.0
 21
48.25
 31
0.0
  0
LINE
  5
82
330
1F
100
AcDbEntity
  8
0
  6
Continuous
 62
     7
370
    50
100
AcDbLine
 10
284.6
 20
18.5
 30
0.0
 11
230.0
 21
18.5
 31
0.0
  0
LINE
  5
83
330
1F
100
AcDbEntity
  8
0
  6
Continuous
 62
     7
370
    50
100
AcDbLine
 10
310.6
 20
65.25
 30
0.0
 11
310.6
 21
27.0
 31
0.0
  0
LINE
  5
84
330
1F
100
AcDbEntity
  8
0
  6
Continuous
 62
     7
370
    50
100
AcDbLine
 10
284.6
 20
22.749928
 30
0.0
 11
230.0
 21
22.749928
 31
0.0
  0
LINE
  5
85
330
1F
100
AcDbEntity
  8
0
  6
Continuous
 62
     7
370
    50
100
AcDbLine
 10
284.6
 20
27.0
 30
0.0
 11
230.0
 21
27.0
 31
0.0
  0
LINE
  5
86
330
1F
100
AcDbEntity
  8
0
  6
Continuous
 62
     7
370
    50
100
AcDbLine
 10
284.6
 20
27.0
 30
0.0
 11
410.0
 21
27.0
 31
0.0
  0
LINE
  5
87
330
1F
100
AcDbEntity
  8
0
  6
Continuous
 62
     7
370
    50
100
AcDbLine
 10
328.8
 20
65.25
 30
0.0
 11
328.8
 21
10.0
 31
0.0
  0
LINE
  5
88
330
1F
100
AcDbEntity
  8
0
  6
Continuous
 62
     7
370
    50
100
AcDbLine
 10
373.0
 20
10.0
 30
0.0
 11
373.0
 21
14.25
 31
0.0
  0
LINE
  5
89
330
1F
100
AcDbEntity
  8
0
  6
Continuous
 62
     7
370
    50
100
AcDbLine
 10
380.8
 20
58.875
 30
0.0
 11
380.8
 21
65.25
 31
0.0
  0
LINE
  5
8A
330
1F
100
AcDbEntity
  8
0
  6
Continuous
 62
     7
370
    50
100
AcDbLine
 10
397.0
 20
14.25
 30
0.0
 11
397.0
 21
27.0
 31
0.0
  0
LINE
  5
8B
330
1F
100
AcDbEntity
  8
0
  6
Continuous
 62
     7
370
    50
100
AcDbLine
 10
410.0
 20
58.875
 30
0.0
 11
328.8
 21
58.875
 31
0.0
  0
LINE
  5
8C
330
1F
100
AcDbEntity
  8
0
  6
Continuous
 62
     7
370
    50
100
AcDbLine
 10
410.0
 20
18.5
 30
0.0
 11
397.0
 21
18.5
 31
0.0
  0
LINE
  5
8D
330
1F
100
AcDbEntity
  8
0
  6
Continuous
 62
     7
370
    70
100
AcDbLine
 10
20.0
 20
10.0
 30
0.0
 11
20.0
 21
287.0
 31
0.0
  0
LINE
  5
8E
330
1F
100
AcDbEntity
  8
0
  6
Continuous
 62
     7
370
    70
100
AcDbLine
 10
20.0
 20
287.0
 30
0.0
 11
410.0
 21
287.0
 31
0.0
  0
LINE
  5
8F
330
1F
100
AcDbEntity
  8
0
  6
Continuous
 62
     7
370
    70
100
AcDbLine
 10
410.0
 20
287.0
 30
0.0
 11
410.0
 21
10.0
 31
0.0
  0
LINE
  5
90
330
1F
100
AcDbEntity
  8
0
  6
Continuous
 62
     7
370
    70
100
AcDbLine
 10
410.0
 20
10.0
 30
0.0
 11
20.0
 21
10.0
 31
0.0
  0
LINE
  5
91
330
1F
100
AcDbEntity
  8
0
  6
Continuous
 62
     7
370
    70
100
AcDbLine
 10
15.0
 20
5.0
 30
0.0
 11
15.0
 21
292.0
 31
0.0
  0
LINE
  5
92
330
1F
100
AcDbEntity
  8
0
  6
Continuous
 62
     7
370
    70
100
AcDbLine
 10
15.0
 20
292.0
 30
0.0
 11
415.0
 21
292.0
 31
0.0
  0
LINE
  5
93
330
1F
100
AcDbEntity
  8
0
  6
Continuous
 62
     7
370
    70
100
AcDbLine
 10
415.0
 20
292.0
 30
0.0
 11
415.0
 21
5.0
 31
0.0
  0
LINE
  5
94
330
1F
100
AcDbEntity
  8
0
  6
Continuous
 62
     7
370
    70
100
AcDbLine
 10
415.0
 20
5.0
 30
0.0
 11
15.0
 21
5.0
 31
0.0
  0
LINE
  5
95
330
1F
100
AcDbEntity
  8
0
  6
Continuous
 62
     7
370
    35
100
AcDbLine
 10
15.0
 20
148.5
 30
0.0
 11
25.0
 21
148.5
 31
0.0
  0
LINE
  5
96
330
1F
100
AcDbEntity
  8
0
  6
Continuous
 62
     7
370
    35
100
AcDbLine
 10
215.0
 20
292.0
 30
0.0
 11
215.0
 21
282.0
 31
0.0
  0
LINE
  5
97
330
1F
100
AcDbEntity
  8
0
  6
Continuous
 62
     7
370
    35
100
AcDbLine
 10
415.0
 20
148.5
 30
0.0
 11
405.0
 21
148.5
 31
0.0
  0
LINE
  5
98
330
1F
100
AcDbEntity
  8
0
  6
Continuous
 62
     7
370
    35
100
AcDbLine
 10
215.0
 20
5.0
 30
0.0
 11
215.0
 21
15.0
 31
0.0
  0
LINE
  5
99
330
1F
100
AcDbEntity
  8
0
  6
Continuous
 62
     7
370
    35
100
AcDbLine
 10
20.0
 20
48.5
 30
0.0
 11
15.0
 21
48.5
 31
0.0
  0
LINE
  5
9A
330
1F
100
AcDbEntity
  8
0
  6
Continuous
 62
     7
370
    35
100
AcDbLine
 10
410.0
 20
48.5
 30
0.0
 11
415.0
 21
48.5
 31
0.0
  0
LINE
  5
9B
330
1F
100
AcDbEntity
  8
0
  6
Continuous
 62
     7
370
    35
100
AcDbLine
 10
20.0
 20
98.5
 30
0.0
 11
15.0
 21
98.5
 31
0.0
  0
LINE
  5
9C
330
1F
100
AcDbEntity
  8
0
  6
Continuous
 62
     7
370
    35
100
AcDbLine
 10
410.0
 20
98.5
 30
0.0
 11
415.0
 21
98.5
 31
0.0
  0
LINE
  5
9D
330
1F
100
AcDbEntity
  8
0
  6
Continuous
 62
     7
370
    35
100
AcDbLine
 10
20.0
 20
148.5
 30
0.0
 11
15.0
 21
148.5
 31
0.0
  0
LINE
  5
9E
330
1F
100
AcDbEntity
  8
0
  6
Continuous
 62
     7
370
    35
100
AcDbLine
 10
410.0
 20
148.5
 30
0.0
 11
415.0
 21
148.5
 31
0.0
  0
LINE
  5
9F
330
1F
100
AcDbEntity
  8
0
  6
Continuous
 62
     7
370
    35
100
AcDbLine
 10
20.0
 20
198.5
 30
0.0
 11
15.0
 21
198.5
 31
0.0
  0
LINE
  5
A0
330
1F
100
AcDbEntity
  8
0
  6
Continuous
 62
     7
370
    35
100
AcDbLine
 10
410.0
 20
198.5
 30
0.0
 11
415.0
 21
198.5
 31
0.0
  0
LINE
  5
A1
330
1F
100
AcDbEntity
  8
0
  6
Continuous
 62
     7
370
    35
100
AcDbLine
 10
20.0
 20
248.5
 30
0.0
 11
15.0
 21
248.5
 31
0.0
  0
LINE
  5
A2
330
1F
100
AcDbEntity
  8
0
  6
Continuous
 62
     7
370
    35
100
AcDbLine
 10
410.0
 20
248.5
 30
0.0
 11
415.0
 21
248.5
 31
0.0
  0
LINE
  5
A3
330
1F
100
AcDbEntity
  8
0
  6
Continuous
 62
     7
370
    35
100
AcDbLine
 10
65.0
 20
287.0
 30
0.0
 11
65.0
 21
292.0
 31
0.0
  0
LINE
  5
A4
330
1F
100
AcDbEntity
  8
0
  6
Continuous
 62
     7
370
    35
100
AcDbLine
 10
65.0
 20
10.0
 30
0.0
 11
65.0
 21
5.0
 31
0.0
  0
LINE
  5
A5
330
1F
100
AcDbEntity
  8
0
  6
Continuous
 62
     7
370
    35
100
AcDbLine
 10
115.0
 20
287.0
 30
0.0
 11
115.0
 21
292.0
 31
0.0
  0
LINE
  5
A6
330
1F
100
AcDbEntity
  8
0
  6
Continuous
 62
     7
370
    35
100
AcDbLine
 10
115.0
 20
10.0
 30
0.0
 11
115.0
 21
5.0
 31
0.0
  0
LINE
  5
A7
330
1F
100
AcDbEntity
  8
0
  6
Continuous
 62
     7
370
    35
100
AcDbLine
 10
165.0
 20
287.0
 30
0.0
 11
165.0
 21
292.0
 31
0.0
  0
LINE
  5
A8
330
1F
100
AcDbEntity
  8
0
  6
Continuous
 62
     7
370
    35
100
AcDbLine
 10
165.0
 20
10.0
 30
0.0
 11
165.0
 21
5.0
 31
0.0
  0
LINE
  5
A9
330
1F
100
AcDbEntity
  8
0
  6
Continuous
 62
     7
370
    35
100
AcDbLine
 10
215.0
 20
287.0
 30
0.0
 11
215.0
 21
292.0
 31
0.0
  0
LINE
  5
AA
330
1F
100
AcDbEntity
  8
0
  6
Continuous
 62
     7
370
    35
100
AcDbLine
 10
215.0
 20
10.0
 30
0.0
 11
215.0
 21
5.0
 31
0.0
  0
LINE
  5
AB
330
1F
100
AcDbEntity
  8
0
  6
Continuous
 62
     7
370
    35
100
AcDbLine
 10
265.0
 20
287.0
 30
0.0
 11
265.0
 21
292.0
 31
0.0
  0
LINE
  5
AC
330
1F
100
AcDbEntity
  8
0
  6
Continuous
 62
     7
370
    35
100
AcDbLine
 10
265.0
 20
10.0
 30
0.0
 11
265.0
 21
5.0
 31
0.0
  0
LINE
  5
AD
330
1F
100
AcDbEntity
  8
0
  6
Continuous
 62
     7
370
    35
100
AcDbLine
 10
315.0
 20
287.0
 30
0.0
 11
315.0
 21
292.0
 31
0.0
  0
LINE
  5
AE
330
1F
100
AcDbEntity
  8
0
  6
Continuous
 62
     7
370
    35
100
AcDbLine
 10
315.0
 20
10.0
 30
0.0
 11
315.0
 21
5.0
 31
0.0
  0
LINE
  5
AF
330
1F
100
AcDbEntity
  8
0
  6
Continuous
 62
     7
370
    35
100
AcDbLine
 10
365.0
 20
287.0
 30
0.0
 11
365.0
 21
292.0
 31
0.0
  0
LINE
  5
B0
330
1F
100
AcDbEntity
  8
0
  6
Continuous
 62
     7
370
    35
100
AcDbLine
 10
365.0
 20
10.0
 30
0.0
 11
365.0
 21
5.0
 31
0.0
  0
MTEXT
  5
B2
330
1F
100
AcDbEntity
  8
0
  6
Continuous
 62
     7
370
     0
100
AcDbMText
 10
17.3396881428
 20
31.167684388
 30
0.0
 40
3.96875
 41
0.0
 71
     2
 72
     1
  1
A
  7
SLDTEXTSTYLE0
 73
     1
 44
1.0
  0
MTEXT
  5
B3
330
1F
100
AcDbEntity
  8
0
  6
Continuous
 62
     7
370
     0
100
AcDbMText
 10
412.3396881428
 20
31.167684388
 30
0.0
 40
3.96875
 41
0.0
 71
     2
 72
     1
  1
A
  7
SLDTEXTSTYLE0
 73
     1
 44
1.0
  0
MTEXT
  5
B4
330
1F
100
AcDbEntity
  8
0
  6
Continuous
 62
     7
370
     0
100
AcDbMText
 10
17.4706018241
 20
75.4739273576
 30
0.0
 40
3.96875
 41
0.0
 71
     2
 72
     1
  1
B
  7
SLDTEXTSTYLE0
 73
     1
 44
1.0
  0
MTEXT
  5
B5
330
1F
100
AcDbEntity
  8
0
  6
Continuous
 62
     7
370
     0
100
AcDbMText
 10
412.4706018241
 20
75.4739273576
 30
0.0
 40
3.96875
 41
0.0
 71
     2
 72
     1
  1
B
  7
SLDTEXTSTYLE0
 73
     1
 44
1.0
  0
MTEXT
  5
B6
330
1F
100
AcDbEntity
  8
0
  6
Continuous
 62
     7
370
     0
100
AcDbMText
 10
17.458658902
 20
125.4739273576
 30
0.0
 40
3.96875
 41
0.0
 71
     2
 72
     1
  1
C
  7
SLDTEXTSTYLE0
 73
     1
 44
1.0
  0
MTEXT
  5
B7
330
1F
100
AcDbEntity
  8
0
  6
Continuous
 62
     7
370
     0
100
AcDbMText
 10
412.458658902
 20
125.4739273576
 30
0.0
 40
3.96875
 41
0.0
 71
     2
 72
     1
  1
C
  7
SLDTEXTSTYLE0
 73
     1
 44
1.0
  0
MTEXT
  5
B8
330
1F
100
AcDbEntity
  8
0
  6
Continuous
 62
     7
370
     0
100
AcDbMText
 10
17.4526872821
 20
175.4739273576
 30
0.0
 40
3.96875
 41
0.0
 71
     2
 72
     1
  1
D
  7
SLDTEXTSTYLE0
 73
     1
 44
1.0
  0
MTEXT
  5
B9
330
1F
100
AcDbEntity
  8
0
  6
Continuous
 62
     7
370
     0
100
AcDbMText
 10
412.4526872821
 20
175.4739273576
 30
0.0
 40
3.96875
 41
0.0
 71
     2
 72
     1
  1
D
  7
SLDTEXTSTYLE0
 73
     1
 44
1.0
  0
MTEXT
  5
BA
330
1F
100
AcDbEntity
  8
0
  6
Continuous
 62
     7
370
     0
100
AcDbMText
 10
17.5078089051
 20
225.4739273576
 30
0.0
 40
3.96875
 41
0.0
 71
     2
 72
     1
  1
E
  7
SLDTEXTSTYLE0
 73
     1
 44
1.0
  0
MTEXT
  5
BB
330
1F
100
AcDbEntity
  8
0
  6
Continuous
 62
     7
370
     0
100
AcDbMText
 10
412.5078089051
 20
225.4739273576
 30
0.0
 40
3.96875
 41
0.0
 71
     2
 72
     1
  1
E
  7
SLDTEXTSTYLE0
 73
     1
 44
1.0
  0
MTEXT
  5
BC
330
1F
100
AcDbEntity
  8
0
  6
Continuous
 62
     7
370
     0
100
AcDbMText
 10
17.4577402091
 20
269.7239273576
 30
0.0
 40
3.96875
 41
0.0
 71
     2
 72
     1
  1
F
  7
SLDTEXTSTYLE0
 73
     1
 44
1.0
  0
MTEXT
  5
BD
330
1F
100
AcDbEntity
  8
0
  6
Continuous
 62
     7
370
     0
100
AcDbMText
 10
412.4577402091
 20
269.7239273576
 30
0.0
 40
3.96875
 41
0.0
 71
     2
 72
     1
  1
F
  7
SLDTEXTSTYLE0
 73
     1
 44
1.0
  0
MTEXT
  5
BE
330
1F
100
AcDbEntity
  8
0
  6
Continuous
 62
     7
370
     0
100
AcDbMText
 10
42.4600369465
 20
9.4739273576
 30
0.0
 40
3.96875
 41
0.0
 71
     2
 72
     1
  1
8
  7
SLDTEXTSTYLE0
 73
     1
 44
1.0
  0
MTEXT
  5
BF
330
1F
100
AcDbEntity
  8
0
  6
Continuous
 62
     7
370
     0
100
AcDbMText
 10
42.4600369465
 20
291.4739273576
 30
0.0
 40
3.96875
 41
0.0
 71
     2
 72
     1
  1
8
  7
SLDTEXTSTYLE0
 73
     1
 44
1.0
  0
MTEXT
  5
C0
330
1F
100
AcDbEntity
  8
0
  6
Continuous
 62
     7
370
     0
100
AcDbMText
 10
89.9600369465
 20
9.4739273576
 30
0.0
 40
3.96875
 41
0.0
 71
     2
 72
     1
  1
7
  7
SLDTEXTSTYLE0
 73
     1
 44
1.0
  0
MTEXT
  5
C1
330
1F
100
AcDbEntity
  8
0
  6
Continuous
 62
     7
370
     0
100
AcDbMText
 10
89.9600369465
 20
291.4739273576
 30
0.0
 40
3.96875
 41
0.0
 71
     2
 72
     1
  1
7
  7
SLDTEXTSTYLE0
 73
     1
 44
1.0
  0
MTEXT
  5
C2
330
1F
100
AcDbEntity
  8
0
  6
Continuous
 62
     7
370
     0
100
AcDbMText
 10
139.9600369465
 20
9.4739273576
 30
0.0
 40
3.96875
 41
0.0
 71
     2
 72
     1
  1
6
  7
SLDTEXTSTYLE0
 73
     1
 44
1.0
  0
MTEXT
  5
C3
330
1F
100
AcDbEntity
  8
0
  6
Continuous
 62
     7
370
     0
100
AcDbMText
 10
139.9600369465
 20
291.4739273576
 30
0.0
 40
3.96875
 41
0.0
 71
     2
 72
     1
  1
6
  7
SLDTEXTSTYLE0
 73
     1
 44
1.0
  0
MTEXT
  5
C4
330
1F
100
AcDbEntity
  8
0
  6
Continuous
 62
     7
370
     0
100
AcDbMText
 10
189.9600369465
 20
9.4739273576
 30
0.0
 40
3.96875
 41
0.0
 71
     2
 72
     1
  1
5
  7
SLDTEXTSTYLE0
 73
     1
 44
1.0
  0
MTEXT
  5
C5
330
1F
100
AcDbEntity
  8
0
  6
Continuous
 62
     7
370
     0
100
AcDbMText
 10
189.9600369465
 20
291.4739273576
 30
0.0
 40
3.96875
 41
0.0
 71
     2
 72
     1
  1
5
  7
SLDTEXTSTYLE0
 73
     1
 44
1.0
  0
MTEXT
  5
C6
330
1F
100
AcDbEntity
  8
0
  6
Continuous
 62
     7
370
     0
100
AcDbMText
 10
239.9600369465
 20
9.4739273576
 30
0.0
 40
3.96875
 41
0.0
 71
     2
 72
     1
  1
4
  7
SLDTEXTSTYLE0
 73
     1
 44
1.0
  0
MTEXT
  5
C7
330
1F
100
AcDbEntity
  8
0
  6
Continuous
 62
     7
370
     0
100
AcDbMText
 10
239.9600369465
 20
291.4739273576
 30
0.0
 40
3.96875
 41
0.0
 71
     2
 72
     1
  1
4
  7
SLDTEXTSTYLE0
 73
     1
 44
1.0
  0
MTEXT
  5
C8
330
1F
100
AcDbEntity
  8
0
  6
Continuous
 62
     7
370
     0
100
AcDbMText
 10
289.9600369465
 20
9.4739273576
 30
0.0
 40
3.96875
 41
0.0
 71
     2
 72
     1
  1
3
  7
SLDTEXTSTYLE0
 73
     1
 44
1.0
  0
MTEXT
  5
C9
330
1F
100
AcDbEntity
  8
0
  6
Continuous
 62
     7
370
     0
100
AcDbMText
 10
289.9600369465
 20
291.4739273576
 30
0.0
 40
3.96875
 41
0.0
 71
     2
 72
     1
  1
3
  7
SLDTEXTSTYLE0
 73
     1
 44
1.0
  0
MTEXT
  5
CA
330
1F
100
AcDbEntity
  8
0
  6
Continuous
 62
     7
370
     0
100
AcDbMText
 10
339.9600369465
 20
9.4739273576
 30
0.0
 40
3.96875
 41
0.0
 71
     2
 72
     1
  1
2
  7
SLDTEXTSTYLE0
 73
     1
 44
1.0
  0
MTEXT
  5
CB
330
1F
100
AcDbEntity
  8
0
  6
Continuous
 62
     7
370
     0
100
AcDbMText
 10
339.9600369465
 20
291.4739273576
 30
0.0
 40
3.96875
 41
0.0
 71
     2
 72
     1
  1
2
  7
SLDTEXTSTYLE0
 73
     1
 44
1.0
  0
MTEXT
  5
CC
330
1F
100
AcDbEntity
  8
0
  6
Continuous
 62
     7
370
     0
100
AcDbMText
 10
387.4600369465
 20
9.4739273576
 30
0.0
 40
3.96875
 41
0.0
 71
     2
 72
     1
  1
1
  7
SLDTEXTSTYLE0
 73
     1
 44
1.0
  0
MTEXT
  5
CD
330
1F
100
AcDbEntity
  8
0
  6
Continuous
 62
     7
370
     0
100
AcDbMText
 10
387.4600369465
 20
291.4739273576
 30
0.0
 40
3.96875
 41
0.0
 71
     2
 72
     1
  1
1
  7
SLDTEXTSTYLE0
 73
     1
 44
1.0
  0
MTEXT
  5
CE
330
1F
100
AcDbEntity
  8
0
  6
Continuous
 62
     7
370
     0
100
AcDbMText
 10
364.5006305798
 20
23.347828666
 30
0.0
 40
4.2333333333
 41
0.0
 71
     2
 72
     1
  1
CR032014D3GGGM_#_#_#
  7
SLDTEXTSTYLE0
 73
     1
 44
1.0
  0
MTEXT
  5
CF
330
1F
100
AcDbEntity
  8
0
  6
Continuous
 62
     7
370
     0
100
AcDbMText
 10
285.6178111281
 20
12.9493119036
 30
0.0
 40
1.4986
 41
0.0
 71
     1
 72
     1
  1
HMOTNOST:
  7
SLDTEXTSTYLE0
 73
     1
 44
1.0
  0
MTEXT
  5
D0
330
1F
100
AcDbEntity
  8
0
  6
Continuous
 62
     7
370
     0
100
AcDbMText
 10
400.8711564346
 20
24.406388569
 30
0.0
 40
2.9104166667
 41
0.0
 71
     1
 72
     1
  1
A3
  7
SLDTEXTSTYLE0
 73
     1
 44
1.0
  0
MTEXT
  5
D2
330
1F
100
AcDbEntity
  8
0
  6
Continuous
 62
     7
370
     0
100
AcDbMText
 10
374.4782944278
 20
12.9000872745
 30
0.0
 40
1.5
 41
0.0
 71
     1
 72
     1
  1
LIST 1 Z 1 LISTŮ
  7
SLDTEXTSTYLE1
 73
     1
 44
1.0
  0
MTEXT
  5
D4
330
1F
100
AcDbEntity
  8
0
  6
Continuous
 62
     7
370
     0
100
AcDbMText
 10
330.0739661175
 20
12.9000872745
 30
0.0
 40
1.5
 41
0.0
 71
     1
 72
     1
  1
MĚŘÍTKO:1:1
  7
SLDTEXTSTYLE2
 73
     1
 44
1.0
  0
MTEXT
  5
D5
330
1F
100
AcDbEntity
  8
0
  6
Continuous
 62
     7
370
     0
100
AcDbMText
 10
330.2786531243
 20
25.9860562892
 30
0.0
 40
1.5
 41
0.0
 71
     1
 72
     1
  1
Č. VÝKRESU
  7
SLDTEXTSTYLE2
 73
     1
 44
1.0
  0
MTEXT
  5
D6
330
1F
100
AcDbEntity
  8
0
  6
Continuous
 62
     7
370
     0
100
AcDbMText
 10
329.9561869366
 20
46.5761792212
 30
0.0
 40
1.5
 41
0.0
 71
     1
 72
     1
  1
NÁZEV:
  7
SLDTEXTSTYLE0
 73
     1
 44
1.0
  0
MTEXT
  5
D7
330
1F
100
AcDbEntity
  8
0
  6
Continuous
 62
     7
370
     0
100
AcDbMText
 10
383.3275816993
 20
62.3349086805
 30
0.0
 40
1.5
 41
0.0
 71
     1
 72
     1
  1
ZMĚNA
  7
SLDTEXTSTYLE2
 73
     1
 44
1.0
  0
MTEXT
  5
D8
330
1F
100
AcDbEntity
  8
0
  6
Continuous
 62
     7
370
     0
100
AcDbMText
 10
342.6146405229
 20
62.5329935751
 30
0.0
 40
1.5
 41
0.0
 71
     1
 72
     1
  1
NEUPRAVOVAT MĚŘÍTKO VÝKRESU
  7
SLDTEXTSTYLE2
 73
     1
 44
1.0
  0
MTEXT
  5
D9
330
1F
100
AcDbEntity
  8
0
  6
Continuous
 62
     7
370
     0
100
AcDbMText
 10
285.6458623088
 20
25.9860562892
 30
0.0
 40
1.5
 41
0.0
 71
     1
 72
     1
  1
MATERIÁL:
  7
SLDTEXTSTYLE0
 73
     1
 44
1.0
  0
MTEXT
  5
DA
330
1F
100
AcDbEntity
  8
0
  6
Continuous
 62
     7
370
     0
100
AcDbMText
 10
277.2147019657
 20
46.5761792212
 30
0.0
 40
1.5
 41
0.0
 71
     1
 72
     1
  1
DATUM
  7
SLDTEXTSTYLE0
 73
     1
 44
1.0
  0
MTEXT
  5
DB
330
1F
100
AcDbEntity
  8
0
  6
Continuous
 62
     7
370
     0
100
AcDbMText
 10
260.0335875632
 20
46.5617563795
 30
0.0
 40
1.5
 41
0.0
 71
     1
 72
     1
  1
PODPIS
  7
SLDTEXTSTYLE0
 73
     1
 44
1.0
  0
MTEXT
  5
DC
330
1F
100
AcDbEntity
  8
0
  6
Continuous
 62
     7
370
     0
100
AcDbMText
 10
244.3222392177
 20
46.5014826335
 30
0.0
 40
1.5
 41
0.0
 71
     1
 72
     1
  1
JMÉNO
  7
SLDTEXTSTYLE0
 73
     1
 44
1.0
  0
INSERT
  5
E2
330
1F
100
AcDbEntity
  8
0
  6
Continuous
 62
     7
370
     0
100
AcDbBlockReference
  2
SW_NOTE_0
 10
311.3092156863
 20
62.069489643
 30
0.0
  0
MTEXT
  5
E3
330
1F
100
AcDbEntity
  8
0
  6
Continuous
 62
     7
370
     0
100
AcDbMText
 10
264.3712921668
 20
63.9192719951
 30
0.0
 40
1.5
 41
0.0
 71
     1
 72
     1
  1
OPRACOVÁNÍ:
  7
SLDTEXTSTYLE0
 73
     1
 44
1.0
  0
INSERT
  5
ED
330
1F
100
AcDbEntity
  8
0
  6
Continuous
 62
     7
370
     0
100
AcDbBlockReference
  2
SW_NOTE_0_1
 10
230.5936687456
 20
61.9873698743
 30
0.0
  0
MTEXT
  5
EE
330
1F
100
AcDbEntity
  8
0
  6
Continuous
 62
     7
370
     0
100
AcDbMText
 10
230.6690428622
 20
25.3496492073
 30
0.0
 40
1.5
 41
0.0
 71
     1
 72
     1
  1
Z. JAKOSTI
  7
SLDTEXTSTYLE0
 73
     1
 44
1.0
  0
MTEXT
  5
EF
330
1F
100
AcDbEntity
  8
0
  6
Continuous
 62
     7
370
     0
100
AcDbMText
 10
230.4551864991
 20
29.7337046506
 30
0.0
 40
1.5
 41
0.0
 71
     1
 72
     1
  1
VÝROBA
  7
SLDTEXTSTYLE0
 73
     1
 44
1.0
  0
MTEXT
  5
F0
330
1F
100
AcDbEntity
  8
0
  6
Continuous
 62
     7
370
     0
100
AcDbMText
 10
230.4017224083
 20
34.0642960031
 30
0.0
 40
1.5
 41
0.0
 71
     1
 72
     1
  1
SCHVÁLIL
  7
SLDTEXTSTYLE0
 73
     1
 44
1.0
  0
MTEXT
  5
F1
330
1F
100
AcDbEntity
  8
0
  6
Continuous
 62
     7
370
     0
100
AcDbMText
 10
230.4104688676
 20
38.15440716
 30
0.0
 40
1.5
 41
0.0
 71
     1
 72
     1
  1
PŘEZKOUŠEL
  7
SLDTEXTSTYLE2
 73
     1
 44
1.0
  0
MTEXT
  5
F2
330
1F
100
AcDbEntity
  8
0
  6
Continuous
 62
     7
370
     0
100
AcDbMText
 10
230.2121492441
 20
42.4297148859
 30
0.0
 40
1.5
 41
0.0
 71
     1
 72
     1
  1
NAVRHL
  7
SLDTEXTSTYLE0
 73
     1
 44
1.0
  0
LINE
  5
F3
330
1F
100
AcDbEntity
  8
0
  6
Continuous
 62
     7
370
    25
100
AcDbLine
 10
205.44
 20
224.2789947304
 30
0.0
 11
205.94
 21
224.7789947304
 31
0.0
  0
LINE
  5
F4
330
1F
100
AcDbEntity
  8
0
  6
Continuous
 62
     7
370
    25
100
AcDbLine
 10
205.94
 20
237.7789947304
 30
0.0
 11
205.44
 21
238.2789947304
 31
0.0
  0
LINE
  5
F5
330
1F
100
AcDbEntity
  8
0
  6
Continuous
 62
     7
370
    25
100
AcDbLine
 10
203.94
 20
224.2789947304
 30
0.0
 11
205.44
 21
224.2789947304
 31
0.0
  0
LINE
  5
F6
330
1F
100
AcDbEntity
  8
0
  6
Continuous
 62
     7
370
    25
100
AcDbLine
 10
205.44
 20
238.2789947304
 30
0.0
 11
203.94
 21
238.2789947304
 31
0.0
  0
LINE
  5
F7
330
1F
100
AcDbEntity
  8
0
  6
Continuous
 62
     7
370
    25
100
AcDbLine
 10
100.94
 20
244.8789947304
 30
0.0
 11
147.94
 21
244.8789947304
 31
0.0
  0
LINE
  5
F8
330
1F
100
AcDbEntity
  8
0
  6
Continuous
 62
     7
370
    25
100
AcDbLine
 10
147.94
 20
250.8789947304
 30
0.0
 11
100.94
 21
250.8789947304
 31
0.0
  0
LINE
  5
F9
330
1F
100
AcDbEntity
  8
0
  6
Continuous
 62
     7
370
    25
100
AcDbLine
 10
147.94
 20
217.6789947304
 30
0.0
 11
100.94
 21
217.6789947304
 31
0.0
  0
LINE
  5
FA
330
1F
100
AcDbEntity
  8
0
  6
Continuous
 62
     7
370
    25
100
AcDbLine
 10
100.94
 20
211.6789947304
 30
0.0
 11
147.94
 21
211.6789947304
 31
0.0
  0
ARC
  5
FB
330
1F
100
AcDbEntity
  8
0
  6
Continuous
 62
     7
370
    25
100
AcDbCircle
 10
66.24
 20
210.4789947304
 30
0.0
 40
0.3000000000000114
100
AcDbArc
 50
180.0
 51
270.0
  0
ARC
  5
FC
330
1F
100
AcDbEntity
  8
0
  6
Continuous
 62
     7
370
    25
100
AcDbCircle
 10
66.24
 20
218.8789947304
 30
0.0
 40
0.2999999999999972
100
AcDbArc
 50
90.0
 51
180.0
  0
LINE
  5
FD
330
1F
100
AcDbEntity
  8
0
  6
Continuous
 62
     7
370
    25
100
AcDbLine
 10
67.94
 20
219.1789947304
 30
0.0
 11
66.24
 21
219.1789947304
 31
0.0
  0
LINE
  5
FE
330
1F
100
AcDbEntity
  8
0
  6
Continuous
 62
     7
370
    25
100
AcDbLine
 10
66.24
 20
210.1789947304
 30
0.0
 11
67.94
 21
210.1789947304
 31
0.0
  0
LINE
  5
FF
330
1F
100
AcDbEntity
  8
0
  6
Continuous
 62
     7
370
    25
100
AcDbLine
 10
68.6929372307
 20
220.2989947304
 30
0.0
 11
67.94
 21
219.5460574996
 31
0.0
  0
LINE
  5
100
330
1F
100
AcDbEntity
  8
0
  6
Continuous
 62
     7
370
    25
100
AcDbLine
 10
75.94
 20
219.5460574996
 30
0.0
 11
75.1870627693
 21
220.2989947304
 31
0.0
  0
LINE
  5
101
330
1F
100
AcDbEntity
  8
0
  6
Continuous
 62
     7
370
    25
100
AcDbLine
 10
67.94
 20
209.8119319611
 30
0.0
 11
68.6929372307
 21
209.0589947304
 31
0.0
  0
LINE
  5
102
330
1F
100
AcDbEntity
  8
0
  6
Continuous
 62
     7
370
    25
100
AcDbLine
 10
75.1870627693
 20
209.0589947304
 30
0.0
 11
75.94
 21
209.8119319611
 31
0.0
  0
LINE
  5
103
330
1F
100
AcDbEntity
  8
0
  6
Continuous
 62
     7
370
    25
100
AcDbLine
 10
67.94
 20
252.3789947304
 30
0.0
 11
66.24
 21
252.3789947304
 31
0.0
  0
LINE
  5
104
330
1F
100
AcDbEntity
  8
0
  6
Continuous
 62
     7
370
    25
100
AcDbLine
 10
66.24
 20
243.3789947304
 30
0.0
 11
67.94
 21
243.3789947304
 31
0.0
  0
ARC
  5
105
330
1F
100
AcDbEntity
  8
0
  6
Continuous
 62
     7
370
    25
100
AcDbCircle
 10
66.24
 20
243.6789947304
 30
0.0
 40
0.2999999999999972
100
AcDbArc
 50
180.0
 51
270.0
  0
ARC
  5
106
330
1F
100
AcDbEntity
  8
0
  6
Continuous
 62
     7
370
    25
100
AcDbCircle
 10
66.24
 20
252.0789947304
 30
0.0
 40
0.3000000000000114
100
AcDbArc
 50
90.0
 51
180.0
  0
LINE
  5
107
330
1F
100
AcDbEntity
  8
0
  6
Continuous
 62
     7
370
    25
100
AcDbLine
 10
68.6929372307
 20
253.4989947304
 30
0.0
 11
67.94
 21
252.7460574996
 31
0.0
  0
LINE
  5
108
330
1F
100
AcDbEntity
  8
0
  6
Continuous
 62
     7
370
    25
100
AcDbLine
 10
75.94
 20
252.7460574996
 30
0.0
 11
75.1870627693
 21
253.4989947304
 31
0.0
  0
LINE
  5
109
330
1F
100
AcDbEntity
  8
0
  6
Continuous
 62
     7
370
    25
100
AcDbLine
 10
75.1870627693
 20
242.2589947304
 30
0.0
 11
75.94
 21
243.0119319611
 31
0.0
  0
LINE
  5
10A
330
1F
100
AcDbEntity
  8
0
  6
Continuous
 62
     7
370
    25
100
AcDbLine
 10
67.94
 20
243.0119319611
 30
0.0
 11
68.6929372307
 21
242.2589947304
 31
0.0
  0
LINE
  5
10B
330
1F
100
AcDbEntity
  8
0
  6
Continuous
 62
     7
370
    25
100
AcDbLine
 10
203.44
 20
218.2789947304
 30
0.0
 11
203.94
 21
218.7789947304
 31
0.0
  0
LINE
  5
10C
330
1F
100
AcDbEntity
  8
0
  6
Continuous
 62
     7
370
    25
100
AcDbLine
 10
203.94
 20
243.7789947304
 30
0.0
 11
203.44
 21
244.2789947304
 31
0.0
  0
LINE
  5
10D
330
1F
100
AcDbEntity
  8
0
  6
Continuous
 62
     7
370
    25
100
AcDbLine
 10
195.94
 20
218.2789947304
 30
0.0
 11
203.44
 21
218.2789947304
 31
0.0
  0
LINE
  5
10E
330
1F
100
AcDbEntity
  8
0
  6
Continuous
 62
     7
370
    25
100
AcDbLine
 10
203.44
 20
244.2789947304
 30
0.0
 11
195.94
 21
244.2789947304
 31
0.0
  0
LINE
  5
10F
330
1F
100
AcDbEntity
  8
0
  6
Continuous
 62
     7
370
    25
100
AcDbLine
 10
185.94
 20
210.2789947304
 30
0.0
 11
195.94
 21
210.2789947304
 31
0.0
  0
LINE
  5
110
330
1F
100
AcDbEntity
  8
0
  6
Continuous
 62
     7
370
    25
100
AcDbLine
 10
195.94
 20
252.2789947304
 30
0.0
 11
185.94
 21
252.2789947304
 31
0.0
  0
LINE
  5
111
330
1F
100
AcDbEntity
  8
0
  6
Continuous
 62
     7
370
    25
100
AcDbLine
 10
91.94
 20
204.6789947304
 30
0.0
 11
84.94
 21
204.6789947304
 31
0.0
  0
SPLINE
  5
112
330
1F
100
AcDbEntity
  8
0
  6
Continuous
 62
     7
370
    25
100
AcDbSpline
210
0.0
220
0.0
230
1.0
 70
     8
 71
     3
 72
    11
 73
     7
 74
     0
 42
0.000000001
 43
0.00000001
 40
0.0
 40
0.0
 40
0.0
 40
0.0
 40
0.4320475053576602
 40
0.655922060996519
 40
0.8796449995662925
 40
1.0
 40
1.0
 40
1.0
 40
1.0
 10
88.44
 20
205.7618984990093
 30
0.0
 10
87.96058893520764
 20
205.5071292171612
 30
0.0
 10
87.23276088439451
 20
205.1203458418236
 30
0.0
 10
86.19254936376925
 20
204.8102635527087
 30
0.0
 10
85.50587242033399
 20
204.6931046987588
 30
0.0
 10
85.0866424312566
 20
204.6826512437265
 30
0.0
 10
84.94000000000001
 20
204.6789947303546
 30
0.0
  0
SPLINE
  5
113
330
1F
100
AcDbEntity
  8
0
  6
Continuous
 62
     7
370
    25
100
AcDbSpline
210
0.0
220
0.0
230
1.0
 70
     8
 71
     3
 72
    11
 73
     7
 74
     0
 42
0.000000001
 43
0.00000001
 40
0.0
 40
0.0
 40
0.0
 40
0.0
 40
0.2495752731476853
 40
0.5043586713351458
 40
0.7510441660612341
 40
1.0
 40
1.0
 40
1.0
 40
1.0
 10
91.94000000000001
 20
204.6789947303546
 30
0.0
 10
91.63565552700321
 20
204.6944361208461
 30
0.0
 10
91.0206155348882
 20
204.7256411320384
 30
0.0
 10
90.12539354499205
 20
204.9669645405144
 30
0.0
 10
89.25977661220696
 20
205.3115696014492
 30
0.0
 10
88.71409205995609
 20
205.6113311696271
 30
0.0
 10
88.44
 20
205.7618984990093
 30
0.0
  0
SPLINE
  5
114
330
1F
100
AcDbEntity
  8
0
  6
Continuous
 62
     7
370
    25
100
AcDbSpline
210
0.0
220
0.0
230
1.0
 70
     8
 71
     3
 72
     9
 73
     5
 74
     0
 42
0.000000001
 43
0.00000001
 40
0.0
 40
0.0
 40
0.0
 40
0.0
 40
0.7120972309941602
 40
0.9999999999999999
 40
0.9999999999999999
 40
0.9999999999999999
 40
0.9999999999999999
 10
88.44
 20
207.8960909616998
 30
0.0
 10
88.91817050815135
 20
208.1564347789228
 30
0.0
 10
89.58966660073376
 20
208.5220362809248
 30
0.0
 10
90.3094204060304
 20
208.721553244172
 30
0.0
 10
90.51663951957778
 20
208.7789947303546
 30
0.0
  0
SPLINE
  5
115
330
1F
100
AcDbEntity
  8
0
  6
Continuous
 62
     7
370
    25
100
AcDbSpline
210
0.0
220
0.0
230
1.0
 70
     8
 71
     3
 72
    10
 73
     6
 74
     0
 42
0.000000001
 43
0.00000001
 40
0.0
 40
0.0
 40
0.0
 40
0.0
 40
0.1950175574550732
 40
0.5956651237505093
 40
1.0
 40
1.0
 40
1.0
 40
1.0
 10
86.33057976710727
 20
208.7789947303546
 30
0.0
 10
86.47409534200143
 20
208.7456424490277
 30
0.0
 10
86.91245188689426
 20
208.6437706430058
 30
0.0
 10
87.61943299936132
 20
208.3417265388453
 30
0.0
 10
88.16564367391314
 20
208.0450890808346
 30
0.0
 10
88.44
 20
207.8960909616998
 30
0.0
  0
LINE
  5
116
330
1F
100
AcDbEntity
  8
0
  6
Continuous
 62
     7
370
    25
100
AcDbLine
 10
88.44
 20
205.761898499
 30
0.0
 11
88.44
 21
207.8960909617
 31
0.0
  0
SPLINE
  5
117
330
1F
100
AcDbEntity
  8
0
  6
Continuous
 62
     7
370
    25
100
AcDbSpline
210
0.0
220
0.0
230
1.0
 70
     8
 71
     3
 72
    11
 73
     7
 74
     0
 42
0.000000001
 43
0.00000001
 40
0.0
 40
0.0
 40
0.0
 40
0.0
 40
0.2495752731476854
 40
0.5043586713351462
 40
0.7510441660612341
 40
1.0
 40
1.0
 40
1.0
 40
1.0
 10
84.94000000000001
 20
204.6789947303546
 30
0.0
 10
84.63565552700322
 20
204.6944361208461
 30
0.0
 10
84.02061553488818
 20
204.7256411320384
 30
0.0
 10
83.12539354499205
 20
204.9669645405144
 30
0.0
 10
82.25977661220696
 20
205.3115696014492
 30
0.0
 10
81.71409205995609
 20
205.6113311696271
 30
0.0
 10
81.44000000000001
 20
205.7618984990093
 30
0.0
  0
LINE
  5
118
330
1F
100
AcDbEntity
  8
0
  6
Continuous
 62
     7
370
    25
100
AcDbLine
 10
81.44
 20
205.761898499
 30
0.0
 11
81.44
 21
207.8960909617
 31
0.0
  0
SPLINE
  5
119
330
1F
100
AcDbEntity
  8
0
  6
Continuous
 62
     7
370
    25
100
AcDbSpline
210
0.0
220
0.0
230
1.0
 70
     8
 71
     3
 72
     9
 73
     5
 74
     0
 42
0.000000001
 43
0.00000001
 40
0.0
 40
0.0
 40
0.0
 40
0.0
 40
0.71209723099416
 40
1.0
 40
1.0
 40
1.0
 40
1.0
 10
81.44000000000001
 20
207.8960909616998
 30
0.0
 10
81.91817050815135
 20
208.1564347789228
 30
0.0
 10
82.58966660073378
 20
208.5220362809248
 30
0.0
 10
83.3094204060304
 20
208.721553244172
 30
0.0
 10
83.51663951957778
 20
208.7789947303546
 30
0.0
  0
SPLINE
  5
11A
330
1F
100
AcDbEntity
  8
0
  6
Continuous
 62
     7
370
    25
100
AcDbSpline
210
0.0
220
0.0
230
1.0
 70
     8
 71
     3
 72
    10
 73
     6
 74
     0
 42
0.000000001
 43
0.00000001
 40
0.0
 40
0.0
 40
0.0
 40
0.0
 40
0.1950175574550755
 40
0.5956651237505105
 40
0.9999999999999999
 40
0.9999999999999999
 40
0.9999999999999999
 40
0.9999999999999999
 10
93.33057976710728
 20
208.7789947303546
 30
0.0
 10
93.47409534200142
 20
208.7456424490277
 30
0.0
 10
93.91245188689426
 20
208.6437706430058
 30
0.0
 10
94.61943299936132
 20
208.3417265388453
 30
0.0
 10
95.16564367391314
 20
208.0450890808346
 30
0.0
 10
95.44
 20
207.8960909616998
 30
0.0
  0
LINE
  5
11B
330
1F
100
AcDbEntity
  8
0
  6
Continuous
 62
     7
370
    25
100
AcDbLine
 10
95.44
 20
205.761898499
 30
0.0
 11
95.44
 21
207.8960909617
 31
0.0
  0
SPLINE
  5
11C
330
1F
100
AcDbEntity
  8
0
  6
Continuous
 62
     7
370
    25
100
AcDbSpline
210
0.0
220
0.0
230
1.0
 70
     8
 71
     3
 72
    11
 73
     7
 74
     0
 42
0.000000001
 43
0.00000001
 40
0.0
 40
0.0
 40
0.0
 40
0.0
 40
0.4320475053576596
 40
0.6559220609965176
 40
0.8796449995662916
 40
1.0
 40
1.0
 40
1.0
 40
1.0
 10
95.44
 20
205.7618984990093
 30
0.0
 10
94.96058893520765
 20
205.5071292171612
 30
0.0
 10
94.2327608843945
 20
205.1203458418236
 30
0.0
 10
93.19254936376925
 20
204.8102635527086
 30
0.0
 10
92.50587242033399
 20
204.6931046987588
 30
0.0
 10
92.0866424312566
 20
204.6826512437265
 30
0.0
 10
91.94000000000001
 20
204.6789947303546
 30
0.0
  0
SPLINE
  5
11D
330
1F
100
AcDbEntity
  8
0
  6
Continuous
 62
     7
370
    25
100
AcDbSpline
210
0.0
220
0.0
230
1.0
 70
    24
 71
     3
 72
    10
 73
     6
 74
     0
 42
0.000000001
 43
0.00000001
 40
0.0
 40
0.0
 40
0.0
 40
0.0
 40
0.2693617427969187
 40
0.5451824849164217
 40
1.0
 40
1.0
 40
1.0
 40
1.0
 10
95.44
 20
204.6789947303546
 30
0.0
 10
95.44
 20
204.6974871766369
 30
0.0
 10
95.44000000000001
 20
204.7349154977923
 30
0.0
 10
95.44
 20
205.0707970136929
 30
0.0
 10
95.44
 20
205.4967472655593
 30
0.0
 10
95.44
 20
205.7618984990093
 30
0.0
  0
LINE
  5
11E
330
1F
100
AcDbEntity
  8
0
  6
Continuous
 62
     7
370
    25
100
AcDbLine
 10
95.44
 20
204.6789947304
 30
0.0
 11
91.94
 21
204.6789947304
 31
0.0
  0
SPLINE
  5
11F
330
1F
100
AcDbEntity
  8
0
  6
Continuous
 62
     7
370
    25
100
AcDbSpline
210
0.0
220
0.0
230
1.0
 70
    24
 71
     3
 72
     9
 73
     5
 74
     0
 42
0.000000001
 43
0.00000001
 40
0.0
 40
0.0
 40
0.0
 40
0.0
 40
0.2638268981264535
 40
0.9999999999999999
 40
0.9999999999999999
 40
0.9999999999999999
 40
0.9999999999999999
 10
81.44000000000001
 20
208.7789947303546
 30
0.0
 10
81.44000000000001
 20
208.7310357609213
 30
0.0
 10
81.44000000000001
 20
208.5492538055032
 30
0.0
 10
81.44000000000001
 20
208.1730454406238
 30
0.0
 10
81.44000000000001
 20
207.8960909616998
 30
0.0
  0
SPLINE
  5
120
330
1F
100
AcDbEntity
  8
0
  6
Continuous
 62
     7
370
    25
100
AcDbSpline
210
0.0
220
0.0
230
1.0
 70
    24
 71
     3
 72
    11
 73
     7
 74
     0
 42
0.000000001
 43
0.00000001
 40
0.0
 40
0.0
 40
0.0
 40
0.0
 40
0.2016186384057697
 40
0.5317069160962208
 40
0.8697607621712642
 40
1.0
 40
1.0
 40
1.0
 40
1.0
 10
81.44000000000001
 20
205.7618984990093
 30
0.0
 10
81.44000000000001
 20
205.6392729112002
 30
0.0
 10
81.44000000000001
 20
205.3158857797125
 30
0.0
 10
81.44000000000001
 20
204.9097818156822
 30
0.0
 10
81.44000000000001
 20
204.6991689475817
 30
0.0
 10
81.44000000000001
 20
204.6833845929903
 30
0.0
 10
81.44000000000001
 20
204.6789947303546
 30
0.0
  0
LINE
  5
121
330
1F
100
AcDbEntity
  8
0
  6
Continuous
 62
     7
370
    25
100
AcDbLine
 10
84.94
 20
204.6789947304
 30
0.0
 11
81.44
 21
204.6789947304
 31
0.0
  0
SPLINE
  5
122
330
1F
100
AcDbEntity
  8
0
  6
Continuous
 62
     7
370
    25
100
AcDbSpline
210
0.0
220
0.0
230
1.0
 70
    24
 71
     3
 72
    10
 73
     6
 74
     0
 42
0.000000001
 43
0.00000001
 40
0.0
 40
0.0
 40
0.0
 40
0.0
 40
0.3227983778963154
 40
0.8512810689986365
 40
0.9999999999999999
 40
0.9999999999999999
 40
0.9999999999999999
 40
0.9999999999999999
 10
95.44
 20
207.8960909616998
 30
0.0
 10
95.44
 20
208.0169336673177
 30
0.0
 10
95.44
 20
208.3356189974284
 30
0.0
 10
95.44
 20
208.6654261066779
 30
0.0
 10
95.44
 20
208.7585450584763
 30
0.0
 10
95.44
 20
208.7789947303546
 30
0.0
  0
SPLINE
  5
123
330
1F
100
AcDbEntity
  8
0
  6
Continuous
 62
     7
370
    25
100
AcDbSpline
210
0.0
220
0.0
230
1.0
 70
     8
 71
     3
 72
     9
 73
     5
 74
     0
 42
0.000000001
 43
0.00000001
 40
0.0
 40
0.0
 40
0.0
 40
0.0
 40
0.5039902157544015
 40
1.0
 40
1.0
 40
1.0
 40
1.0
 10
86.69000000000001
 20
202.2789947303546
 30
0.0
 10
86.38211004209273
 20
202.3102987073688
 30
0.0
 10
85.77120540886207
 20
202.3724109786703
 30
0.0
 10
85.21559045392299
 20
202.6718980814485
 30
0.0
 10
84.94000000000001
 20
202.8204466146818
 30
0.0
  0
LINE
  5
124
330
1F
100
AcDbEntity
  8
0
  6
Continuous
 62
     7
370
    25
100
AcDbLine
 10
84.94
 20
202.8204466147
 30
0.0
 11
84.94
 21
204.6789947304
 31
0.0
  0
LINE
  5
125
330
1F
100
AcDbEntity
  8
0
  6
Continuous
 62
     7
370
    25
100
AcDbLine
 10
88.44
 20
202.8204466147
 30
0.0
 11
88.44
 21
204.6789947304
 31
0.0
  0
SPLINE
  5
126
330
1F
100
AcDbEntity
  8
0
  6
Continuous
 62
     7
370
    25
100
AcDbSpline
210
0.0
220
0.0
230
1.0
 70
     8
 71
     3
 72
    10
 73
     6
 74
     0
 42
0.000000001
 43
0.00000001
 40
0.0
 40
0.0
 40
0.0
 40
0.0
 40
0.4323791861032156
 40
0.8795414153548207
 40
1.0
 40
1.0
 40
1.0
 40
1.0
 10
88.44
 20
202.820446614682
 30
0.0
 10
88.20039083371314
 20
202.6939700556663
 30
0.0
 10
87.71298026442261
 20
202.4366927044404
 30
0.0
 10
87.1086853981004
 20
202.2901468598968
 30
0.0
 10
86.76329713776296
 20
202.2809470773414
 30
0.0
 10
86.69000000000001
 20
202.2789947303546
 30
0.0
  0
LINE
  5
127
330
1F
100
AcDbEntity
  8
0
  6
Continuous
 62
     7
370
    25
100
AcDbLine
 10
90.19
 20
202.2789947304
 30
0.0
 11
86.69
 21
202.2789947304
 31
0.0
  0
SPLINE
  5
128
330
1F
100
AcDbEntity
  8
0
  6
Continuous
 62
     7
370
    25
100
AcDbSpline
210
0.0
220
0.0
230
1.0
 70
     8
 71
     3
 72
     9
 73
     5
 74
     0
 42
0.000000001
 43
0.00000001
 40
0.0
 40
0.0
 40
0.0
 40
0.0
 40
0.5039902157541677
 40
1.0
 40
1.0
 40
1.0
 40
1.0
 10
90.19000000000001
 20
202.2789947303546
 30
0.0
 10
89.88211004209266
 20
202.3102987073688
 30
0.0
 10
89.2712054088616
 20
202.3724109786704
 30
0.0
 10
88.71559045392291
 20
202.6718980814485
 30
0.0
 10
88.44
 20
202.820446614682
 30
0.0
  0
LINE
  5
129
330
1F
100
AcDbEntity
  8
0
  6
Continuous
 62
     7
370
    25
100
AcDbLine
 10
91.94
 20
202.8204466147
 30
0.0
 11
91.94
 21
204.6789947304
 31
0.0
  0
SPLINE
  5
12A
330
1F
100
AcDbEntity
  8
0
  6
Continuous
 62
     7
370
    25
100
AcDbSpline
210
0.0
220
0.0
230
1.0
 70
     8
 71
     3
 72
    10
 73
     6
 74
     0
 42
0.000000001
 43
0.00000001
 40
0.0
 40
0.0
 40
0.0
 40
0.0
 40
0.4323791861032157
 40
0.8795414153548206
 40
1.0
 40
1.0
 40
1.0
 40
1.0
 10
91.94000000000001
 20
202.820446614682
 30
0.0
 10
91.70039083371314
 20
202.6939700556663
 30
0.0
 10
91.21298026442263
 20
202.4366927044404
 30
0.0
 10
90.6086853981004
 20
202.2901468598968
 30
0.0
 10
90.26329713776296
 20
202.2809470773414
 30
0.0
 10
90.19000000000001
 20
202.2789947303546
 30
0.0
  0
SPLINE
  5
12B
330
1F
100
AcDbEntity
  8
0
  6
Continuous
 62
     7
370
    25
100
AcDbSpline
210
0.0
220
0.0
230
1.0
 70
    24
 71
     3
 72
     9
 73
     5
 74
     0
 42
0.000000001
 43
0.00000001
 40
0.0
 40
0.0
 40
0.0
 40
0.0
 40
0.5088623606180956
 40
1.0
 40
1.0
 40
1.0
 40
1.0
 10
91.94000000000001
 20
202.2789947303546
 30
0.0
 10
91.94000000000001
 20
202.31089796232
 30
0.0
 10
91.94000000000001
 20
202.3735931711516
 30
0.0
 10
91.94000000000001
 20
202.6732660059917
 30
0.0
 10
91.94000000000001
 20
202.820446614682
 30
0.0
  0
LINE
  5
12C
330
1F
100
AcDbEntity
  8
0
  6
Continuous
 62
     7
370
    25
100
AcDbLine
 10
91.94
 20
202.2789947304
 30
0.0
 11
90.19
 21
202.2789947304
 31
0.0
  0
SPLINE
  5
12D
330
1F
100
AcDbEntity
  8
0
  6
Continuous
 62
     7
370
    25
100
AcDbSpline
210
0.0
220
0.0
230
1.0
 70
    24
 71
     3
 72
    11
 73
     7
 74
     0
 42
0.000000001
 43
0.00000001
 40
0.0
 40
0.0
 40
0.0
 40
0.0
 40
0.1599319724360643
 40
0.4914647762085502
 40
0.8304998079163807
 40
1.0
 40
1.0
 40
1.0
 40
1.0
 10
84.94000000000001
 20
202.8204466146818
 30
0.0
 10
84.94000000000001
 20
202.7714869488914
 30
0.0
 10
84.94000000000001
 20
202.6210357862849
 30
0.0
 10
84.94000000000001
 20
202.4180046396245
 30
0.0
 10
84.94000000000001
 20
202.2937179175923
 30
0.0
 10
84.94000000000001
 20
202.2826753390757
 30
0.0
 10
84.94000000000001
 20
202.2789947303546
 30
0.0
  0
LINE
  5
12E
330
1F
100
AcDbEntity
  8
0
  6
Continuous
 62
     7
370
    25
100
AcDbLine
 10
86.69
 20
202.2789947304
 30
0.0
 11
84.94
 21
202.2789947304
 31
0.0
  0
LINE
  5
12F
330
1F
100
AcDbEntity
  8
0
  6
Continuous
 62
     7
370
    25
100
AcDbLine
 10
89.8542135624
 20
201.7789947304
 30
0.0
 11
87.0257864376
 21
201.7789947304
 31
0.0
  0
LINE
  5
130
330
1F
100
AcDbEntity
  8
0
  6
Continuous
 62
     7
370
    25
100
AcDbLine
 10
87.0257864376
 20
201.7789947304
 30
0.0
 11
86.5035083269
 21
202.2789947304
 31
0.0
  0
LINE
  5
131
330
1F
100
AcDbEntity
  8
0
  6
Continuous
 62
     7
370
    25
100
AcDbLine
 10
90.3764916731
 20
202.2789947304
 30
0.0
 11
89.8542135624
 21
201.7789947304
 31
0.0
  0
SPLINE
  5
132
330
1F
100
AcDbEntity
  8
0
  6
Continuous
 62
     7
370
    25
100
AcDbSpline
210
0.0
220
0.0
230
1.0
 70
     8
 71
     3
 72
     9
 73
     5
 74
     0
 42
0.000000001
 43
0.00000001
 40
0.0
 40
0.0
 40
0.0
 40
0.0
 40
0.7120972309941644
 40
1.0
 40
1.0
 40
1.0
 40
1.0
 10
160.94
 20
207.8960909616998
 30
0.0
 10
161.4181705081514
 20
208.1564347789228
 30
0.0
 10
162.0896666007338
 20
208.5220362809248
 30
0.0
 10
162.8094204060304
 20
208.721553244172
 30
0.0
 10
163.0166395195778
 20
208.7789947303546
 30
0.0
  0
SPLINE
  5
133
330
1F
100
AcDbEntity
  8
0
  6
Continuous
 62
     7
370
    25
100
AcDbSpline
210
0.0
220
0.0
230
1.0
 70
     8
 71
     3
 72
    10
 73
     6
 74
     0
 42
0.000000001
 43
0.00000001
 40
0.0
 40
0.0
 40
0.0
 40
0.0
 40
0.195017557455067
 40
0.5956651237505068
 40
1.0
 40
1.0
 40
1.0
 40
1.0
 10
158.8305797671073
 20
208.7789947303546
 30
0.0
 10
158.9740953420014
 20
208.7456424490277
 30
0.0
 10
159.4124518868942
 20
208.6437706430058
 30
0.0
 10
160.1194329993614
 20
208.3417265388453
 30
0.0
 10
160.6656436739132
 20
208.0450890808346
 30
0.0
 10
160.94
 20
207.8960909616998
 30
0.0
  0
LINE
  5
134
330
1F
100
AcDbEntity
  8
0
  6
Continuous
 62
     7
370
    25
100
AcDbLine
 10
164.44
 20
204.6789947304
 30
0.0
 11
157.44
 21
204.6789947304
 31
0.0
  0
SPLINE
  5
135
330
1F
100
AcDbEntity
  8
0
  6
Continuous
 62
     7
370
    25
100
AcDbSpline
210
0.0
220
0.0
230
1.0
 70
     8
 71
     3
 72
    11
 73
     7
 74
     0
 42
0.000000001
 43
0.00000001
 40
0.0
 40
0.0
 40
0.0
 40
0.0
 40
0.4320475053576597
 40
0.6559220609965174
 40
0.8796449995662923
 40
1.0
 40
1.0
 40
1.0
 40
1.0
 10
160.94
 20
205.7618984990093
 30
0.0
 10
160.4605889352077
 20
205.5071292171612
 30
0.0
 10
159.7327608843945
 20
205.1203458418236
 30
0.0
 10
158.6925493637692
 20
204.8102635527087
 30
0.0
 10
158.005872420334
 20
204.6931046987588
 30
0.0
 10
157.5866424312566
 20
204.6826512437265
 30
0.0
 10
157.44
 20
204.6789947303546
 30
0.0
  0
SPLINE
  5
136
330
1F
100
AcDbEntity
  8
0
  6
Continuous
 62
     7
370
    25
100
AcDbSpline
210
0.0
220
0.0
230
1.0
 70
     8
 71
     3
 72
    11
 73
     7
 74
     0
 42
0.000000001
 43
0.00000001
 40
0.0
 40
0.0
 40
0.0
 40
0.0
 40
0.2495752731476852
 40
0.5043586713351454
 40
0.7510441660612343
 40
1.0
 40
1.0
 40
1.0
 40
1.0
 10
164.44
 20
204.6789947303546
 30
0.0
 10
164.1356555270032
 20
204.6944361208461
 30
0.0
 10
163.5206155348882
 20
204.7256411320384
 30
0.0
 10
162.6253935449921
 20
204.9669645405144
 30
0.0
 10
161.759776612207
 20
205.3115696014492
 30
0.0
 10
161.2140920599561
 20
205.6113311696271
 30
0.0
 10
160.94
 20
205.7618984990093
 30
0.0
  0
LINE
  5
137
330
1F
100
AcDbEntity
  8
0
  6
Continuous
 62
     7
370
    25
100
AcDbLine
 10
160.94
 20
205.761898499
 30
0.0
 11
160.94
 21
207.8960909617
 31
0.0
  0
SPLINE
  5
138
330
1F
100
AcDbEntity
  8
0
  6
Continuous
 62
     7
370
    25
100
AcDbSpline
210
0.0
220
0.0
230
1.0
 70
     8
 71
     3
 72
    11
 73
     7
 74
     0
 42
0.000000001
 43
0.00000001
 40
0.0
 40
0.0
 40
0.0
 40
0.0
 40
0.2495752731476852
 40
0.5043586713351458
 40
0.7510441660612345
 40
1.0
 40
1.0
 40
1.0
 40
1.0
 10
157.44
 20
204.6789947303546
 30
0.0
 10
157.1356555270032
 20
204.6944361208461
 30
0.0
 10
156.5206155348882
 20
204.7256411320384
 30
0.0
 10
155.6253935449921
 20
204.9669645405144
 30
0.0
 10
154.759776612207
 20
205.3115696014492
 30
0.0
 10
154.2140920599561
 20
205.6113311696271
 30
0.0
 10
153.94
 20
205.7618984990093
 30
0.0
  0
LINE
  5
139
330
1F
100
AcDbEntity
  8
0
  6
Continuous
 62
     7
370
    25
100
AcDbLine
 10
153.94
 20
205.761898499
 30
0.0
 11
153.94
 21
207.8960909617
 31
0.0
  0
SPLINE
  5
13A
330
1F
100
AcDbEntity
  8
0
  6
Continuous
 62
     7
370
    25
100
AcDbSpline
210
0.0
220
0.0
230
1.0
 70
     8
 71
     3
 72
     9
 73
     5
 74
     0
 42
0.000000001
 43
0.00000001
 40
0.0
 40
0.0
 40
0.0
 40
0.0
 40
0.7120972309941654
 40
1.0
 40
1.0
 40
1.0
 40
1.0
 10
153.94
 20
207.8960909616998
 30
0.0
 10
154.4181705081513
 20
208.1564347789228
 30
0.0
 10
155.0896666007338
 20
208.5220362809248
 30
0.0
 10
155.8094204060304
 20
208.721553244172
 30
0.0
 10
156.0166395195778
 20
208.7789947303546
 30
0.0
  0
SPLINE
  5
13B
330
1F
100
AcDbEntity
  8
0
  6
Continuous
 62
     7
370
    25
100
AcDbSpline
210
0.0
220
0.0
230
1.0
 70
     8
 71
     3
 72
    10
 73
     6
 74
     0
 42
0.000000001
 43
0.00000001
 40
0.0
 40
0.0
 40
0.0
 40
0.0
 40
0.1950175574550682
 40
0.5956651237505096
 40
1.0
 40
1.0
 40
1.0
 40
1.0
 10
165.8305797671073
 20
208.7789947303546
 30
0.0
 10
165.9740953420015
 20
208.7456424490277
 30
0.0
 10
166.4124518868943
 20
208.6437706430058
 30
0.0
 10
167.1194329993613
 20
208.3417265388453
 30
0.0
 10
167.6656436739131
 20
208.0450890808346
 30
0.0
 10
167.94
 20
207.8960909616998
 30
0.0
  0
LINE
  5
13C
330
1F
100
AcDbEntity
  8
0
  6
Continuous
 62
     7
370
    25
100
AcDbLine
 10
167.94
 20
205.761898499
 30
0.0
 11
167.94
 21
207.8960909617
 31
0.0
  0
SPLINE
  5
13D
330
1F
100
AcDbEntity
  8
0
  6
Continuous
 62
     7
370
    25
100
AcDbSpline
210
0.0
220
0.0
230
1.0
 70
     8
 71
     3
 72
    11
 73
     7
 74
     0
 42
0.000000001
 43
0.00000001
 40
0.0
 40
0.0
 40
0.0
 40
0.0
 40
0.4320475053576607
 40
0.6559220609965187
 40
0.8796449995662915
 40
1.0
 40
1.0
 40
1.0
 40
1.0
 10
167.94
 20
205.7618984990093
 30
0.0
 10
167.4605889352077
 20
205.5071292171612
 30
0.0
 10
166.7327608843945
 20
205.1203458418236
 30
0.0
 10
165.6925493637692
 20
204.8102635527087
 30
0.0
 10
165.005872420334
 20
204.6931046987588
 30
0.0
 10
164.5866424312566
 20
204.6826512437265
 30
0.0
 10
164.44
 20
204.6789947303546
 30
0.0
  0
SPLINE
  5
13E
330
1F
100
AcDbEntity
  8
0
  6
Continuous
 62
     7
370
    25
100
AcDbSpline
210
0.0
220
0.0
230
1.0
 70
    24
 71
     3
 72
    10
 73
     6
 74
     0
 42
0.000000001
 43
0.00000001
 40
0.0
 40
0.0
 40
0.0
 40
0.0
 40
0.2693617427969187
 40
0.5451824849164217
 40
1.0
 40
1.0
 40
1.0
 40
1.0
 10
167.94
 20
204.6789947303546
 30
0.0
 10
167.94
 20
204.6974871766369
 30
0.0
 10
167.94
 20
204.7349154977923
 30
0.0
 10
167.94
 20
205.0707970136929
 30
0.0
 10
167.94
 20
205.4967472655593
 30
0.0
 10
167.94
 20
205.7618984990093
 30
0.0
  0
LINE
  5
13F
330
1F
100
AcDbEntity
  8
0
  6
Continuous
 62
     7
370
    25
100
AcDbLine
 10
167.94
 20
204.6789947304
 30
0.0
 11
164.44
 21
204.6789947304
 31
0.0
  0
SPLINE
  5
140
330
1F
100
AcDbEntity
  8
0
  6
Continuous
 62
     7
370
    25
100
AcDbSpline
210
0.0
220
0.0
230
1.0
 70
    24
 71
     3
 72
     9
 73
     5
 74
     0
 42
0.000000001
 43
0.00000001
 40
0.0
 40
0.0
 40
0.0
 40
0.0
 40
0.2638268981264485
 40
1.0
 40
1.0
 40
1.0
 40
1.0
 10
153.94
 20
208.7789947303546
 30
0.0
 10
153.94
 20
208.7310357609213
 30
0.0
 10
153.94
 20
208.5492538055032
 30
0.0
 10
153.94
 20
208.1730454406238
 30
0.0
 10
153.94
 20
207.8960909616998
 30
0.0
  0
SPLINE
  5
141
330
1F
100
AcDbEntity
  8
0
  6
Continuous
 62
     7
370
    25
100
AcDbSpline
210
0.0
220
0.0
230
1.0
 70
    24
 71
     3
 72
    11
 73
     7
 74
     0
 42
0.000000001
 43
0.00000001
 40
0.0
 40
0.0
 40
0.0
 40
0.0
 40
0.2016186384057697
 40
0.5317069160962208
 40
0.8697607621712642
 40
1.0
 40
1.0
 40
1.0
 40
1.0
 10
153.94
 20
205.7618984990093
 30
0.0
 10
153.94
 20
205.6392729112002
 30
0.0
 10
153.94
 20
205.3158857797125
 30
0.0
 10
153.9400000000001
 20
204.9097818156822
 30
0.0
 10
153.94
 20
204.6991689475817
 30
0.0
 10
153.94
 20
204.6833845929903
 30
0.0
 10
153.94
 20
204.6789947303546
 30
0.0
  0
LINE
  5
142
330
1F
100
AcDbEntity
  8
0
  6
Continuous
 62
     7
370
    25
100
AcDbLine
 10
157.44
 20
204.6789947304
 30
0.0
 11
153.94
 21
204.6789947304
 31
0.0
  0
SPLINE
  5
143
330
1F
100
AcDbEntity
  8
0
  6
Continuous
 62
     7
370
    25
100
AcDbSpline
210
0.0
220
0.0
230
1.0
 70
    24
 71
     3
 72
    10
 73
     6
 74
     0
 42
0.000000001
 43
0.00000001
 40
0.0
 40
0.0
 40
0.0
 40
0.0
 40
0.3227983778963179
 40
0.8512810689986431
 40
1.0
 40
1.0
 40
1.0
 40
1.0
 10
167.94
 20
207.8960909616998
 30
0.0
 10
167.94
 20
208.0169336673177
 30
0.0
 10
167.94
 20
208.3356189974284
 30
0.0
 10
167.94
 20
208.6654261066779
 30
0.0
 10
167.94
 20
208.7585450584763
 30
0.0
 10
167.94
 20
208.7789947303546
 30
0.0
  0
SPLINE
  5
144
330
1F
100
AcDbEntity
  8
0
  6
Continuous
 62
     7
370
    25
100
AcDbSpline
210
0.0
220
0.0
230
1.0
 70
     8
 71
     3
 72
     9
 73
     5
 74
     0
 42
0.000000001
 43
0.00000001
 40
0.0
 40
0.0
 40
0.0
 40
0.0
 40
0.5039902157543977
 40
1.0
 40
1.0
 40
1.0
 40
1.0
 10
159.19
 20
202.2789947303546
 30
0.0
 10
158.8821100420927
 20
202.3102987073688
 30
0.0
 10
158.2712054088621
 20
202.3724109786703
 30
0.0
 10
157.715590453923
 20
202.6718980814485
 30
0.0
 10
157.44
 20
202.8204466146818
 30
0.0
  0
LINE
  5
145
330
1F
100
AcDbEntity
  8
0
  6
Continuous
 62
     7
370
    25
100
AcDbLine
 10
157.44
 20
202.8204466147
 30
0.0
 11
157.44
 21
204.6789947304
 31
0.0
  0
LINE
  5
146
330
1F
100
AcDbEntity
  8
0
  6
Continuous
 62
     7
370
    25
100
AcDbLine
 10
160.94
 20
202.8204466147
 30
0.0
 11
160.94
 21
204.6789947304
 31
0.0
  0
SPLINE
  5
147
330
1F
100
AcDbEntity
  8
0
  6
Continuous
 62
     7
370
    25
100
AcDbSpline
210
0.0
220
0.0
230
1.0
 70
     8
 71
     3
 72
    10
 73
     6
 74
     0
 42
0.000000001
 43
0.00000001
 40
0.0
 40
0.0
 40
0.0
 40
0.0
 40
0.4323791861032132
 40
0.879541415354817
 40
1.0
 40
1.0
 40
1.0
 40
1.0
 10
160.94
 20
202.820446614682
 30
0.0
 10
160.7003908337131
 20
202.6939700556663
 30
0.0
 10
160.2129802644226
 20
202.4366927044404
 30
0.0
 10
159.6086853981005
 20
202.2901468598968
 30
0.0
 10
159.263297137763
 20
202.2809470773414
 30
0.0
 10
159.19
 20
202.2789947303546
 30
0.0
  0
LINE
  5
148
330
1F
100
AcDbEntity
  8
0
  6
Continuous
 62
     7
370
    25
100
AcDbLine
 10
162.69
 20
202.2789947304
 30
0.0
 11
159.19
 21
202.2789947304
 31
0.0
  0
SPLINE
  5
149
330
1F
100
AcDbEntity
  8
0
  6
Continuous
 62
     7
370
    25
100
AcDbSpline
210
0.0
220
0.0
230
1.0
 70
     8
 71
     3
 72
     9
 73
     5
 74
     0
 42
0.000000001
 43
0.00000001
 40
0.0
 40
0.0
 40
0.0
 40
0.0
 40
0.5039902157541695
 40
1.0
 40
1.0
 40
1.0
 40
1.0
 10
162.69
 20
202.2789947303546
 30
0.0
 10
162.3821100420927
 20
202.3102987073688
 30
0.0
 10
161.7712054088616
 20
202.3724109786704
 30
0.0
 10
161.2155904539229
 20
202.6718980814485
 30
0.0
 10
160.94
 20
202.820446614682
 30
0.0
  0
LINE
  5
14A
330
1F
100
AcDbEntity
  8
0
  6
Continuous
 62
     7
370
    25
100
AcDbLine
 10
164.44
 20
202.8204466147
 30
0.0
 11
164.44
 21
204.6789947304
 31
0.0
  0
SPLINE
  5
14B
330
1F
100
AcDbEntity
  8
0
  6
Continuous
 62
     7
370
    25
100
AcDbSpline
210
0.0
220
0.0
230
1.0
 70
     8
 71
     3
 72
    10
 73
     6
 74
     0
 42
0.000000001
 43
0.00000001
 40
0.0
 40
0.0
 40
0.0
 40
0.0
 40
0.4323791861032187
 40
0.8795414153548226
 40
1.0
 40
1.0
 40
1.0
 40
1.0
 10
164.44
 20
202.820446614682
 30
0.0
 10
164.2003908337132
 20
202.6939700556663
 30
0.0
 10
163.7129802644226
 20
202.4366927044404
 30
0.0
 10
163.1086853981004
 20
202.2901468598968
 30
0.0
 10
162.7632971377629
 20
202.2809470773414
 30
0.0
 10
162.69
 20
202.2789947303546
 30
0.0
  0
SPLINE
  5
14C
330
1F
100
AcDbEntity
  8
0
  6
Continuous
 62
     7
370
    25
100
AcDbSpline
210
0.0
220
0.0
230
1.0
 70
    24
 71
     3
 72
     9
 73
     5
 74
     0
 42
0.000000001
 43
0.00000001
 40
0.0
 40
0.0
 40
0.0
 40
0.0
 40
0.5088623606180956
 40
1.0
 40
1.0
 40
1.0
 40
1.0
 10
164.44
 20
202.2789947303546
 30
0.0
 10
164.44
 20
202.31089796232
 30
0.0
 10
164.44
 20
202.3735931711516
 30
0.0
 10
164.44
 20
202.6732660059917
 30
0.0
 10
164.44
 20
202.820446614682
 30
0.0
  0
LINE
  5
14D
330
1F
100
AcDbEntity
  8
0
  6
Continuous
 62
     7
370
    25
100
AcDbLine
 10
164.44
 20
202.2789947304
 30
0.0
 11
162.69
 21
202.2789947304
 31
0.0
  0
SPLINE
  5
14E
330
1F
100
AcDbEntity
  8
0
  6
Continuous
 62
     7
370
    25
100
AcDbSpline
210
0.0
220
0.0
230
1.0
 70
    24
 71
     3
 72
    11
 73
     7
 74
     0
 42
0.000000001
 43
0.00000001
 40
0.0
 40
0.0
 40
0.0
 40
0.0
 40
0.1599319724360643
 40
0.4914647762085502
 40
0.8304998079163807
 40
1.0
 40
1.0
 40
1.0
 40
1.0
 10
157.44
 20
202.8204466146818
 30
0.0
 10
157.44
 20
202.7714869488914
 30
0.0
 10
157.44
 20
202.6210357862849
 30
0.0
 10
157.44
 20
202.4180046396245
 30
0.0
 10
157.44
 20
202.2937179175923
 30
0.0
 10
157.44
 20
202.2826753390757
 30
0.0
 10
157.44
 20
202.2789947303546
 30
0.0
  0
LINE
  5
14F
330
1F
100
AcDbEntity
  8
0
  6
Continuous
 62
     7
370
    25
100
AcDbLine
 10
159.19
 20
202.2789947304
 30
0.0
 11
157.44
 21
202.2789947304
 31
0.0
  0
LINE
  5
150
330
1F
100
AcDbEntity
  8
0
  6
Continuous
 62
     7
370
    25
100
AcDbLine
 10
162.3542135624
 20
201.7789947304
 30
0.0
 11
159.5257864376
 21
201.7789947304
 31
0.0
  0
LINE
  5
151
330
1F
100
AcDbEntity
  8
0
  6
Continuous
 62
     7
370
    25
100
AcDbLine
 10
159.5257864376
 20
201.7789947304
 30
0.0
 11
159.0035083269
 21
202.2789947304
 31
0.0
  0
LINE
  5
152
330
1F
100
AcDbEntity
  8
0
  6
Continuous
 62
     7
370
    25
100
AcDbLine
 10
162.8764916731
 20
202.2789947304
 30
0.0
 11
162.3542135624
 21
201.7789947304
 31
0.0
  0
LINE
  5
153
330
1F
100
AcDbEntity
  8
0
  6
Continuous
 62
     7
370
    25
100
AcDbLine
 10
205.44
 20
224.2789947304
 30
0.0
 11
205.44
 21
238.2789947304
 31
0.0
  0
LINE
  5
154
330
1F
100
AcDbEntity
  8
0
  6
Continuous
 62
     7
370
    25
100
AcDbLine
 10
205.94
 20
237.7789947304
 30
0.0
 11
205.94
 21
236.7789947304
 31
0.0
  0
LINE
  5
155
330
1F
100
AcDbEntity
  8
0
  6
Continuous
 62
     7
370
    25
100
AcDbLine
 10
205.94
 20
236.7789947304
 30
0.0
 11
205.94
 21
234.7430963455
 31
0.0
  0
LINE
  5
156
330
1F
100
AcDbEntity
  8
0
  6
Continuous
 62
     7
370
    25
100
AcDbLine
 10
205.94
 20
234.7430963455
 30
0.0
 11
205.94
 21
227.8148931152
 31
0.0
  0
LINE
  5
157
330
1F
100
AcDbEntity
  8
0
  6
Continuous
 62
     7
370
    25
100
AcDbLine
 10
205.94
 20
227.8148931152
 30
0.0
 11
205.94
 21
225.7789947304
 31
0.0
  0
LINE
  5
158
330
1F
100
AcDbEntity
  8
0
  6
Continuous
 62
     7
370
    25
100
AcDbLine
 10
205.94
 20
225.7789947304
 30
0.0
 11
205.94
 21
224.7789947304
 31
0.0
  0
LINE
  5
159
330
1F
100
AcDbEntity
  8
0
  6
Continuous
 62
     7
370
    25
100
AcDbLine
 10
213.44
 20
234.7430963455
 30
0.0
 11
213.44
 21
236.7789947304
 31
0.0
  0
LINE
  5
15A
330
1F
100
AcDbEntity
  8
0
  6
Continuous
 62
     7
370
    25
100
AcDbLine
 10
213.44
 20
236.7789947304
 30
0.0
 11
213.94
 21
236.7789947304
 31
0.0
  0
LINE
  5
15B
330
1F
100
AcDbEntity
  8
0
  6
Continuous
 62
     7
370
    25
100
AcDbLine
 10
213.94
 20
236.7789947304
 30
0.0
 11
213.94
 21
233.676910492
 31
0.0
  0
LINE
  5
15C
330
1F
100
AcDbEntity
  8
0
  6
Continuous
 62
     7
370
    25
100
AcDbLine
 10
213.94
 20
233.676910492
 30
0.0
 11
213.44
 21
234.7430963455
 31
0.0
  0
LINE
  5
15D
330
1F
100
AcDbEntity
  8
0
  6
Continuous
 62
     7
370
    25
100
AcDbLine
 10
205.94
 20
234.7430963455
 30
0.0
 11
213.44
 21
234.7430963455
 31
0.0
  0
LINE
  5
15E
330
1F
100
AcDbEntity
  8
0
  6
Continuous
 62
     7
370
    25
100
AcDbLine
 10
213.94
 20
233.676910492
 30
0.0
 11
213.94
 21
228.8810789687
 31
0.0
  0
LINE
  5
15F
330
1F
100
AcDbEntity
  8
0
  6
Continuous
 62
     7
370
    25
100
AcDbLine
 10
213.44
 20
227.8148931152
 30
0.0
 11
213.94
 21
228.8810789687
 31
0.0
  0
LINE
  5
160
330
1F
100
AcDbEntity
  8
0
  6
Continuous
 62
     7
370
    25
100
AcDbLine
 10
205.94
 20
227.8148931152
 30
0.0
 11
213.44
 21
227.8148931152
 31
0.0
  0
LINE
  5
161
330
1F
100
AcDbEntity
  8
0
  6
Continuous
 62
     7
370
    25
100
AcDbLine
 10
205.94
 20
236.7789947304
 30
0.0
 11
213.44
 21
236.7789947304
 31
0.0
  0
LINE
  5
162
330
1F
100
AcDbEntity
  8
0
  6
Continuous
 62
     7
370
    25
100
AcDbLine
 10
213.44
 20
225.7789947304
 30
0.0
 11
213.44
 21
227.8148931152
 31
0.0
  0
LINE
  5
163
330
1F
100
AcDbEntity
  8
0
  6
Continuous
 62
     7
370
    25
100
AcDbLine
 10
213.94
 20
225.7789947304
 30
0.0
 11
213.44
 21
225.7789947304
 31
0.0
  0
LINE
  5
164
330
1F
100
AcDbEntity
  8
0
  6
Continuous
 62
     7
370
    25
100
AcDbLine
 10
213.94
 20
228.8810789687
 30
0.0
 11
213.94
 21
225.7789947304
 31
0.0
  0
LINE
  5
165
330
1F
100
AcDbEntity
  8
0
  6
Continuous
 62
     7
370
    25
100
AcDbLine
 10
205.94
 20
225.7789947304
 30
0.0
 11
213.44
 21
225.7789947304
 31
0.0
  0
LINE
  5
166
330
1F
100
AcDbEntity
  8
0
  6
Continuous
 62
     7
370
    25
100
AcDbLine
 10
67.94
 20
218.8939947304
 30
0.0
 11
67.94
 21
214.6789947304
 31
0.0
  0
SPLINE
  5
167
330
1F
100
AcDbEntity
  8
0
  6
Continuous
 62
     7
370
    25
100
AcDbSpline
210
0.0
220
0.0
230
1.0
 70
     8
 71
     3
 72
    10
 73
     6
 74
     0
 42
0.000000001
 43
0.00000001
 40
0.0
 40
0.0
 40
0.0
 40
0.0
 40
0.4323817941271815
 40
0.8795469733397072
 40
1.0
 40
1.0
 40
1.0
 40
1.0
 10
68.69293723073146
 20
217.4889947303546
 30
0.0
 10
68.51705926282824
 20
217.6813678355946
 30
0.0
 10
68.15928995697975
 20
218.0726913944585
 30
0.0
 10
67.9555071599281
 20
218.5578541713421
 30
0.0
 10
67.94271466711574
 20
218.835150317448
 30
0.0
 10
67.94
 20
218.8939947303546
 30
0.0
  0
SPLINE
  5
168
330
1F
100
AcDbEntity
  8
0
  6
Continuous
 62
     7
370
    25
100
AcDbSpline
210
0.0
220
0.0
230
1.0
 70
     8
 71
     3
 72
    11
 73
     7
 74
     0
 42
0.000000001
 43
0.00000001
 40
0.0
 40
0.0
 40
0.0
 40
0.0
 40
0.0334314479032466
 40
0.3900705361446561
 40
0.7601916466789104
 40
0.9999999999999999
 40
0.9999999999999999
 40
0.9999999999999999
 40
0.9999999999999999
 10
67.94
 20
214.6789947303546
 30
0.0
 10
67.94020992619454
 20
214.7116773028263
 30
0.0
 10
67.94265929732234
 20
215.0930101306333
 30
0.0
 10
68.04232628747258
 20
215.8355696208667
 30
0.0
 10
68.33608296724864
 20
216.7384775714611
 30
0.0
 10
68.5922277747421
 20
217.2771878878493
 30
0.0
 10
68.69293723073146
 20
217.4889947303546
 30
0.0
  0
SPLINE
  5
169
330
1F
100
AcDbEntity
  8
0
  6
Continuous
 62
     7
370
    25
100
AcDbSpline
210
0.0
220
0.0
230
1.0
 70
     8
 71
     3
 72
    10
 73
     6
 74
     0
 42
0.000000001
 43
0.00000001
 40
0.0
 40
0.0
 40
0.0
 40
0.0
 40
0.4323817941271816
 40
0.8795469733397066
 40
1.0
 40
1.0
 40
1.0
 40
1.0
 10
75.18706276926855
 20
211.8689947303546
 30
0.0
 10
75.36294073717177
 20
211.6766216251146
 30
0.0
 10
75.72071004302026
 20
211.2852980662506
 30
0.0
 10
75.9244928400719
 20
210.8001352893671
 30
0.0
 10
75.93728533288427
 20
210.5228391432612
 30
0.0
 10
75.94000000000001
 20
210.4639947303546
 30
0.0
  0
SPLINE
  5
16A
330
1F
100
AcDbEntity
  8
0
  6
Continuous
 62
     7
370
    25
100
AcDbSpline
210
0.0
220
0.0
230
1.0
 70
     8
 71
     3
 72
    11
 73
     7
 74
     0
 42
0.000000001
 43
0.00000001
 40
0.0
 40
0.0
 40
0.0
 40
0.0
 40
0.0334314479032454
 40
0.3900705361446563
 40
0.7601916466789108
 40
1.0
 40
1.0
 40
1.0
 40
1.0
 10
75.94000000000001
 20
214.6789947303546
 30
0.0
 10
75.93979007380547
 20
214.6463121578828
 30
0.0
 10
75.93734070267769
 20
214.2649793300758
 30
0.0
 10
75.83767371252745
 20
213.5224198398424
 30
0.0
 10
75.54391703275137
 20
212.619511889248
 30
0.0
 10
75.28777222525791
 20
212.0808015728598
 30
0.0
 10
75.18706276926855
 20
211.8689947303546
 30
0.0
  0
SPLINE
  5
16B
330
1F
100
AcDbEntity
  8
0
  6
Continuous
 62
     7
370
    25
100
AcDbSpline
210
0.0
220
0.0
230
1.0
 70
     8
 71
     3
 72
    10
 73
     6
 74
     0
 42
0.000000001
 43
0.00000001
 40
0.0
 40
0.0
 40
0.0
 40
0.0
 40
0.2497034303800084
 40
0.5046175962614916
 40
0.9999999999999999
 40
0.9999999999999999
 40
0.9999999999999999
 40
0.9999999999999999
 10
67.94
 20
210.4639947303546
 30
0.0
 10
67.95103536957134
 20
210.5860979154954
 30
0.0
 10
67.97333639146147
 20
210.8328522980357
 30
0.0
 10
68.19056290456717
 20
211.3124845887059
 30
0.0
 10
68.49315269025648
 20
211.6476814244621
 30
0.0
 10
68.69293723073146
 20
211.8689947303546
 30
0.0
  0
SPLINE
  5
16C
330
1F
100
AcDbEntity
  8
0
  6
Continuous
 62
     7
370
    25
100
AcDbSpline
210
0.0
220
0.0
230
1.0
 70
     8
 71
     3
 72
    10
 73
     6
 74
     0
 42
0.000000001
 43
0.00000001
 40
0.0
 40
0.0
 40
0.0
 40
0.0
 40
0.3093119432967826
 40
0.6493836184716414
 40
1.0
 40
1.0
 40
1.0
 40
1.0
 10
68.69293723073146
 20
211.8689947303546
 30
0.0
 10
68.56507746721014
 20
212.1429809507268
 30
0.0
 10
68.2966428409638
 20
212.7182001333431
 30
0.0
 10
68.00477671945846
 20
213.6599508867935
 30
0.0
 10
67.96181089232883
 20
214.3358736872378
 30
0.0
 10
67.94
 20
214.6789947303546
 30
0.0
  0
LINE
  5
16D
330
1F
100
AcDbEntity
  8
0
  6
Continuous
 62
     7
370
    25
100
AcDbLine
 10
67.94
 20
214.6789947304
 30
0.0
 11
67.94
 21
210.4639947304
 31
0.0
  0
SPLINE
  5
16E
330
1F
100
AcDbEntity
  8
0
  6
Continuous
 62
     7
370
    25
100
AcDbSpline
210
0.0
220
0.0
230
1.0
 70
     8
 71
     3
 72
    10
 73
     6
 74
     0
 42
0.000000001
 43
0.00000001
 40
0.0
 40
0.0
 40
0.0
 40
0.0
 40
0.3093119432967819
 40
0.6493836184716409
 40
1.0
 40
1.0
 40
1.0
 40
1.0
 10
75.18706276926856
 20
217.4889947303546
 30
0.0
 10
75.31492253278988
 20
217.2150085099824
 30
0.0
 10
75.58335715903623
 20
216.639789327366
 30
0.0
 10
75.87522328054153
 20
215.6980385739157
 30
0.0
 10
75.91818910767117
 20
215.0221157734714
 30
0.0
 10
75.94000000000001
 20
214.6789947303546
 30
0.0
  0
SPLINE
  5
16F
330
1F
100
AcDbEntity
  8
0
  6
Continuous
 62
     7
370
    25
100
AcDbSpline
210
0.0
220
0.0
230
1.0
 70
     8
 71
     3
 72
    10
 73
     6
 74
     0
 42
0.000000001
 43
0.00000001
 40
0.0
 40
0.0
 40
0.0
 40
0.0
 40
0.2497034303800091
 40
0.504617596261493
 40
1.0
 40
1.0
 40
1.0
 40
1.0
 10
75.94000000000001
 20
218.8939947303546
 30
0.0
 10
75.92896463042867
 20
218.7718915452137
 30
0.0
 10
75.90666360853854
 20
218.5251371626734
 30
0.0
 10
75.68943709543285
 20
218.0455048720032
 30
0.0
 10
75.38684730974354
 20
217.7103080362471
 30
0.0
 10
75.18706276926856
 20
217.4889947303546
 30
0.0
  0
LINE
  5
170
330
1F
100
AcDbEntity
  8
0
  6
Continuous
 62
     7
370
    25
100
AcDbLine
 10
75.1870627693
 20
211.8689947304
 30
0.0
 11
68.6929372307
 21
211.8689947304
 31
0.0
  0
LINE
  5
171
330
1F
100
AcDbEntity
  8
0
  6
Continuous
 62
     7
370
    25
100
AcDbLine
 10
75.1870627693
 20
217.4889947304
 30
0.0
 11
68.6929372307
 21
217.4889947304
 31
0.0
  0
SPLINE
  5
172
330
1F
100
AcDbEntity
  8
0
  6
Continuous
 62
     7
370
    25
100
AcDbSpline
210
0.0
220
0.0
230
1.0
 70
     8
 71
     3
 72
    10
 73
     6
 74
     0
 42
0.000000001
 43
0.00000001
 40
0.0
 40
0.0
 40
0.0
 40
0.0
 40
0.2497034303800091
 40
0.5046175962614922
 40
0.9999999999999999
 40
0.9999999999999999
 40
0.9999999999999999
 40
0.9999999999999999
 10
75.94000000000001
 20
210.4639947303546
 30
0.0
 10
75.92896463042867
 20
210.3418915452138
 30
0.0
 10
75.90666360853855
 20
210.0951371626734
 30
0.0
 10
75.68943709543285
 20
209.6155048720032
 30
0.0
 10
75.38684730974354
 20
209.2803080362471
 30
0.0
 10
75.18706276926856
 20
209.0589947303546
 30
0.0
  0
LINE
  5
173
330
1F
100
AcDbEntity
  8
0
  6
Continuous
 62
     7
370
    25
100
AcDbLine
 10
75.1870627693
 20
209.0589947304
 30
0.0
 11
68.6929372307
 21
209.0589947304
 31
0.0
  0
SPLINE
  5
174
330
1F
100
AcDbEntity
  8
0
  6
Continuous
 62
     7
370
    25
100
AcDbSpline
210
0.0
220
0.0
230
1.0
 70
     8
 71
     3
 72
    10
 73
     6
 74
     0
 42
0.000000001
 43
0.00000001
 40
0.0
 40
0.0
 40
0.0
 40
0.0
 40
0.4323817941271811
 40
0.879546973339707
 40
0.9999999999999999
 40
0.9999999999999999
 40
0.9999999999999999
 40
0.9999999999999999
 10
68.69293723073146
 20
209.0589947303546
 30
0.0
 10
68.51705926282824
 20
209.2513678355946
 30
0.0
 10
68.15928995697975
 20
209.6426913944585
 30
0.0
 10
67.9555071599281
 20
210.1278541713421
 30
0.0
 10
67.94271466711575
 20
210.405150317448
 30
0.0
 10
67.94
 20
210.4639947303546
 30
0.0
  0
SPLINE
  5
175
330
1F
100
AcDbEntity
  8
0
  6
Continuous
 62
     7
370
    25
100
AcDbSpline
210
0.0
220
0.0
230
1.0
 70
     8
 71
     3
 72
    10
 73
     6
 74
     0
 42
0.000000001
 43
0.00000001
 40
0.0
 40
0.0
 40
0.0
 40
0.0
 40
0.2497034303800098
 40
0.5046175962614939
 40
0.9999999999999999
 40
0.9999999999999999
 40
0.9999999999999999
 40
0.9999999999999999
 10
67.94
 20
218.8939947303546
 30
0.0
 10
67.95103536957134
 20
219.0160979154954
 30
0.0
 10
67.97333639146147
 20
219.2628522980357
 30
0.0
 10
68.19056290456717
 20
219.742484588706
 30
0.0
 10
68.49315269025647
 20
220.0776814244621
 30
0.0
 10
68.69293723073146
 20
220.2989947303546
 30
0.0
  0
LINE
  5
176
330
1F
100
AcDbEntity
  8
0
  6
Continuous
 62
     7
370
    25
100
AcDbLine
 10
75.1870627693
 20
220.2989947304
 30
0.0
 11
68.6929372307
 21
220.2989947304
 31
0.0
  0
SPLINE
  5
177
330
1F
100
AcDbEntity
  8
0
  6
Continuous
 62
     7
370
    25
100
AcDbSpline
210
0.0
220
0.0
230
1.0
 70
     8
 71
     3
 72
    10
 73
     6
 74
     0
 42
0.000000001
 43
0.00000001
 40
0.0
 40
0.0
 40
0.0
 40
0.0
 40
0.432381794127181
 40
0.879546973339706
 40
0.9999999999999999
 40
0.9999999999999999
 40
0.9999999999999999
 40
0.9999999999999999
 10
75.18706276926856
 20
220.2989947303546
 30
0.0
 10
75.36294073717177
 20
220.1066216251145
 30
0.0
 10
75.72071004302026
 20
219.7152980662506
 30
0.0
 10
75.9244928400719
 20
219.2301352893671
 30
0.0
 10
75.93728533288427
 20
218.9528391432612
 30
0.0
 10
75.94000000000001
 20
218.8939947303546
 30
0.0
  0
LINE
  5
178
330
1F
100
AcDbEntity
  8
0
  6
Continuous
 62
     7
370
    25
100
AcDbLine
 10
65.94
 20
210.4789947882
 30
0.0
 11
65.94
 21
218.8789947304
 31
0.0
  0
LINE
  5
179
330
1F
100
AcDbEntity
  8
0
  6
Continuous
 62
     7
370
    25
100
AcDbLine
 10
67.94
 20
219.5460574996
 30
0.0
 11
67.94
 21
218.8939947304
 31
0.0
  0
LINE
  5
17A
330
1F
100
AcDbEntity
  8
0
  6
Continuous
 62
     7
370
    25
100
AcDbLine
 10
67.94
 20
210.4639947304
 30
0.0
 11
67.94
 21
209.8119319611
 31
0.0
  0
LINE
  5
17B
330
1F
100
AcDbEntity
  8
0
  6
Continuous
 62
     7
370
    25
100
AcDbLine
 10
67.94
 20
252.0939947304
 30
0.0
 11
67.94
 21
247.8789947304
 31
0.0
  0
SPLINE
  5
17C
330
1F
100
AcDbEntity
  8
0
  6
Continuous
 62
     7
370
    25
100
AcDbSpline
210
0.0
220
0.0
230
1.0
 70
     8
 71
     3
 72
    10
 73
     6
 74
     0
 42
0.000000001
 43
0.00000001
 40
0.0
 40
0.0
 40
0.0
 40
0.0
 40
0.4323817941271814
 40
0.8795469733397073
 40
0.9999999999999999
 40
0.9999999999999999
 40
0.9999999999999999
 40
0.9999999999999999
 10
68.69293723073146
 20
250.6889947303546
 30
0.0
 10
68.51705926282824
 20
250.8813678355946
 30
0.0
 10
68.15928995697975
 20
251.2726913944585
 30
0.0
 10
67.95550715992812
 20
251.757854171342
 30
0.0
 10
67.94271466711575
 20
252.0351503174479
 30
0.0
 10
67.94
 20
252.0939947303546
 30
0.0
  0
SPLINE
  5
17D
330
1F
100
AcDbEntity
  8
0
  6
Continuous
 62
     7
370
    25
100
AcDbSpline
210
0.0
220
0.0
230
1.0
 70
     8
 71
     3
 72
    11
 73
     7
 74
     0
 42
0.000000001
 43
0.00000001
 40
0.0
 40
0.0
 40
0.0
 40
0.0
 40
0.0334314479032466
 40
0.3900705361446564
 40
0.7601916466789109
 40
1.0
 40
1.0
 40
1.0
 40
1.0
 10
67.94
 20
247.8789947303546
 30
0.0
 10
67.94020992619456
 20
247.9116773028263
 30
0.0
 10
67.94265929732234
 20
248.2930101306333
 30
0.0
 10
68.04232628747258
 20
249.0355696208667
 30
0.0
 10
68.33608296724864
 20
249.9384775714611
 30
0.0
 10
68.5922277747421
 20
250.4771878878493
 30
0.0
 10
68.69293723073146
 20
250.6889947303546
 30
0.0
  0
SPLINE
  5
17E
330
1F
100
AcDbEntity
  8
0
  6
Continuous
 62
     7
370
    25
100
AcDbSpline
210
0.0
220
0.0
230
1.0
 70
     8
 71
     3
 72
    10
 73
     6
 74
     0
 42
0.000000001
 43
0.00000001
 40
0.0
 40
0.0
 40
0.0
 40
0.0
 40
0.2497034303800081
 40
0.5046175962614914
 40
0.9999999999999999
 40
0.9999999999999999
 40
0.9999999999999999
 40
0.9999999999999999
 10
67.94
 20
243.6639947303545
 30
0.0
 10
67.95103536957134
 20
243.7860979154954
 30
0.0
 10
67.97333639146147
 20
244.0328522980357
 30
0.0
 10
68.19056290456717
 20
244.5124845887059
 30
0.0
 10
68.49315269025647
 20
244.8476814244621
 30
0.0
 10
68.69293723073146
 20
245.0689947303546
 30
0.0
  0
SPLINE
  5
17F
330
1F
100
AcDbEntity
  8
0
  6
Continuous
 62
     7
370
    25
100
AcDbSpline
210
0.0
220
0.0
230
1.0
 70
     8
 71
     3
 72
    10
 73
     6
 74
     0
 42
0.000000001
 43
0.00000001
 40
0.0
 40
0.0
 40
0.0
 40
0.0
 40
0.309311943296782
 40
0.6493836184716419
 40
1.0
 40
1.0
 40
1.0
 40
1.0
 10
68.69293723073146
 20
245.0689947303546
 30
0.0
 10
68.56507746721013
 20
245.3429809507267
 30
0.0
 10
68.2966428409638
 20
245.9182001333431
 30
0.0
 10
68.00477671945846
 20
246.8599508867935
 30
0.0
 10
67.96181089232884
 20
247.5358736872378
 30
0.0
 10
67.94
 20
247.8789947303546
 30
0.0
  0
LINE
  5
180
330
1F
100
AcDbEntity
  8
0
  6
Continuous
 62
     7
370
    25
100
AcDbLine
 10
67.94
 20
247.8789947304
 30
0.0
 11
67.94
 21
243.6639947304
 31
0.0
  0
SPLINE
  5
181
330
1F
100
AcDbEntity
  8
0
  6
Continuous
 62
     7
370
    25
100
AcDbSpline
210
0.0
220
0.0
230
1.0
 70
     8
 71
     3
 72
    10
 73
     6
 74
     0
 42
0.000000001
 43
0.00000001
 40
0.0
 40
0.0
 40
0.0
 40
0.0
 40
0.4323817941271819
 40
0.8795469733397066
 40
1.0
 40
1.0
 40
1.0
 40
1.0
 10
75.18706276926855
 20
245.0689947303546
 30
0.0
 10
75.36294073717177
 20
244.8766216251146
 30
0.0
 10
75.72071004302026
 20
244.4852980662506
 30
0.0
 10
75.9244928400719
 20
244.0001352893671
 30
0.0
 10
75.93728533288427
 20
243.7228391432612
 30
0.0
 10
75.94000000000001
 20
243.6639947303545
 30
0.0
  0
SPLINE
  5
182
330
1F
100
AcDbEntity
  8
0
  6
Continuous
 62
     7
370
    25
100
AcDbSpline
210
0.0
220
0.0
230
1.0
 70
     8
 71
     3
 72
    11
 73
     7
 74
     0
 42
0.000000001
 43
0.00000001
 40
0.0
 40
0.0
 40
0.0
 40
0.0
 40
0.0334314479032454
 40
0.3900705361446557
 40
0.7601916466789101
 40
1.0
 40
1.0
 40
1.0
 40
1.0
 10
75.94000000000001
 20
247.8789947303546
 30
0.0
 10
75.93979007380547
 20
247.8463121578829
 30
0.0
 10
75.93734070267769
 20
247.4649793300758
 30
0.0
 10
75.83767371252745
 20
246.7224198398424
 30
0.0
 10
75.54391703275137
 20
245.819511889248
 30
0.0
 10
75.28777222525791
 20
245.2808015728598
 30
0.0
 10
75.18706276926855
 20
245.0689947303546
 30
0.0
  0
SPLINE
  5
183
330
1F
100
AcDbEntity
  8
0
  6
Continuous
 62
     7
370
    25
100
AcDbSpline
210
0.0
220
0.0
230
1.0
 70
     8
 71
     3
 72
    10
 73
     6
 74
     0
 42
0.000000001
 43
0.00000001
 40
0.0
 40
0.0
 40
0.0
 40
0.0
 40
0.3093119432967815
 40
0.6493836184716413
 40
1.0
 40
1.0
 40
1.0
 40
1.0
 10
75.18706276926856
 20
250.6889947303546
 30
0.0
 10
75.31492253278988
 20
250.4150085099824
 30
0.0
 10
75.58335715903623
 20
249.839789327366
 30
0.0
 10
75.87522328054153
 20
248.8980385739156
 30
0.0
 10
75.91818910767117
 20
248.2221157734713
 30
0.0
 10
75.94000000000001
 20
247.8789947303546
 30
0.0
  0
SPLINE
  5
184
330
1F
100
AcDbEntity
  8
0
  6
Continuous
 62
     7
370
    25
100
AcDbSpline
210
0.0
220
0.0
230
1.0
 70
     8
 71
     3
 72
    10
 73
     6
 74
     0
 42
0.000000001
 43
0.00000001
 40
0.0
 40
0.0
 40
0.0
 40
0.0
 40
0.2497034303800091
 40
0.5046175962614929
 40
1.0
 40
1.0
 40
1.0
 40
1.0
 10
75.94000000000001
 20
252.0939947303546
 30
0.0
 10
75.92896463042867
 20
251.9718915452138
 30
0.0
 10
75.90666360853854
 20
251.7251371626734
 30
0.0
 10
75.68943709543285
 20
251.2455048720032
 30
0.0
 10
75.38684730974354
 20
250.9103080362471
 30
0.0
 10
75.18706276926856
 20
250.6889947303546
 30
0.0
  0
SPLINE
  5
185
330
1F
100
AcDbEntity
  8
0
  6
Continuous
 62
     7
370
    25
100
AcDbSpline
210
0.0
220
0.0
230
1.0
 70
     8
 71
     3
 72
    10
 73
     6
 74
     0
 42
0.000000001
 43
0.00000001
 40
0.0
 40
0.0
 40
0.0
 40
0.0
 40
0.2497034303800088
 40
0.5046175962614922
 40
0.9999999999999999
 40
0.9999999999999999
 40
0.9999999999999999
 40
0.9999999999999999
 10
75.94000000000001
 20
243.6639947303545
 30
0.0
 10
75.92896463042867
 20
243.5418915452138
 30
0.0
 10
75.90666360853855
 20
243.2951371626734
 30
0.0
 10
75.68943709543285
 20
242.8155048720032
 30
0.0
 10
75.38684730974354
 20
242.4803080362471
 30
0.0
 10
75.18706276926856
 20
242.2589947303546
 30
0.0
  0
LINE
  5
186
330
1F
100
AcDbEntity
  8
0
  6
Continuous
 62
     7
370
    25
100
AcDbLine
 10
75.1870627693
 20
242.2589947304
 30
0.0
 11
68.6929372307
 21
242.2589947304
 31
0.0
  0
SPLINE
  5
187
330
1F
100
AcDbEntity
  8
0
  6
Continuous
 62
     7
370
    25
100
AcDbSpline
210
0.0
220
0.0
230
1.0
 70
     8
 71
     3
 72
    10
 73
     6
 74
     0
 42
0.000000001
 43
0.00000001
 40
0.0
 40
0.0
 40
0.0
 40
0.0
 40
0.4323817941271811
 40
0.879546973339707
 40
0.9999999999999999
 40
0.9999999999999999
 40
0.9999999999999999
 40
0.9999999999999999
 10
68.69293723073146
 20
242.2589947303546
 30
0.0
 10
68.51705926282824
 20
242.4513678355946
 30
0.0
 10
68.15928995697975
 20
242.8426913944585
 30
0.0
 10
67.9555071599281
 20
243.3278541713421
 30
0.0
 10
67.94271466711575
 20
243.6051503174479
 30
0.0
 10
67.94
 20
243.6639947303545
 30
0.0
  0
LINE
  5
188
330
1F
100
AcDbEntity
  8
0
  6
Continuous
 62
     7
370
    25
100
AcDbLine
 10
75.1870627693
 20
245.0689947304
 30
0.0
 11
68.6929372307
 21
245.0689947304
 31
0.0
  0
LINE
  5
189
330
1F
100
AcDbEntity
  8
0
  6
Continuous
 62
     7
370
    25
100
AcDbLine
 10
75.1870627693
 20
250.6889947304
 30
0.0
 11
68.6929372307
 21
250.6889947304
 31
0.0
  0
SPLINE
  5
18A
330
1F
100
AcDbEntity
  8
0
  6
Continuous
 62
     7
370
    25
100
AcDbSpline
210
0.0
220
0.0
230
1.0
 70
     8
 71
     3
 72
    10
 73
     6
 74
     0
 42
0.000000001
 43
0.00000001
 40
0.0
 40
0.0
 40
0.0
 40
0.0
 40
0.2497034303800101
 40
0.5046175962614939
 40
0.9999999999999999
 40
0.9999999999999999
 40
0.9999999999999999
 40
0.9999999999999999
 10
67.94
 20
252.0939947303546
 30
0.0
 10
67.95103536957134
 20
252.2160979154954
 30
0.0
 10
67.97333639146147
 20
252.4628522980357
 30
0.0
 10
68.19056290456717
 20
252.942484588706
 30
0.0
 10
68.49315269025648
 20
253.2776814244621
 30
0.0
 10
68.69293723073146
 20
253.4989947303546
 30
0.0
  0
LINE
  5
18B
330
1F
100
AcDbEntity
  8
0
  6
Continuous
 62
     7
370
    25
100
AcDbLine
 10
75.1870627693
 20
253.4989947304
 30
0.0
 11
68.6929372307
 21
253.4989947304
 31
0.0
  0
SPLINE
  5
18C
330
1F
100
AcDbEntity
  8
0
  6
Continuous
 62
     7
370
    25
100
AcDbSpline
210
0.0
220
0.0
230
1.0
 70
     8
 71
     3
 72
    10
 73
     6
 74
     0
 42
0.000000001
 43
0.00000001
 40
0.0
 40
0.0
 40
0.0
 40
0.0
 40
0.432381794127181
 40
0.879546973339706
 40
0.9999999999999999
 40
0.9999999999999999
 40
0.9999999999999999
 40
0.9999999999999999
 10
75.18706276926856
 20
253.4989947303546
 30
0.0
 10
75.36294073717177
 20
253.3066216251145
 30
0.0
 10
75.72071004302026
 20
252.9152980662506
 30
0.0
 10
75.9244928400719
 20
252.4301352893671
 30
0.0
 10
75.93728533288427
 20
252.1528391432612
 30
0.0
 10
75.94000000000001
 20
252.0939947303546
 30
0.0
  0
LINE
  5
18D
330
1F
100
AcDbEntity
  8
0
  6
Continuous
 62
     7
370
    25
100
AcDbLine
 10
65.94
 20
243.6789947882
 30
0.0
 11
65.94
 21
252.0789947304
 31
0.0
  0
LINE
  5
18E
330
1F
100
AcDbEntity
  8
0
  6
Continuous
 62
     7
370
    25
100
AcDbLine
 10
67.94
 20
252.7460574996
 30
0.0
 11
67.94
 21
252.0939947304
 31
0.0
  0
LINE
  5
18F
330
1F
100
AcDbEntity
  8
0
  6
Continuous
 62
     7
370
    25
100
AcDbLine
 10
67.94
 20
243.6639947304
 30
0.0
 11
67.94
 21
243.0119319611
 31
0.0
  0
LINE
  5
190
330
1F
100
AcDbEntity
  8
0
  6
Continuous
 62
     7
370
    25
100
AcDbLine
 10
203.94
 20
231.2789947304
 30
0.0
 11
203.94
 21
218.7789947304
 31
0.0
  0
LINE
  5
191
330
1F
100
AcDbEntity
  8
0
  6
Continuous
 62
     7
370
    25
100
AcDbLine
 10
203.94
 20
243.7789947304
 30
0.0
 11
203.94
 21
231.2789947304
 31
0.0
  0
LINE
  5
192
330
1F
100
AcDbEntity
  8
0
  6
Continuous
 62
     7
370
    25
100
AcDbLine
 10
203.44
 20
231.2789947304
 30
0.0
 11
203.44
 21
244.2789947304
 31
0.0
  0
LINE
  5
193
330
1F
100
AcDbEntity
  8
0
  6
Continuous
 62
     7
370
    25
100
AcDbLine
 10
203.44
 20
218.2789947304
 30
0.0
 11
203.44
 21
231.2789947304
 31
0.0
  0
LINE
  5
194
330
1F
100
AcDbEntity
  8
0
  6
Continuous
 62
     7
370
    25
100
AcDbLine
 10
161.7858806818
 20
210.6880856394
 30
0.0
 11
162.3490909091
 21
210.6880856394
 31
0.0
  0
SPLINE
  5
195
330
1F
100
AcDbEntity
  8
0
  6
Continuous
 62
     7
370
    25
100
AcDbSpline
210
0.0
220
0.0
230
1.0
 70
     8
 71
     3
 72
    15
 73
    11
 74
     0
 42
0.000000001
 43
0.00000001
 40
0.0
 40
0.0
 40
0.0
 40
0.0
 40
0.0901288015275075
 40
0.1887045969824424
 40
0.2978271886832029
 40
0.4162253375982832
 40
0.5463143019173381
 40
0.6865899079084475
 40
0.8372008478997236
 40
1.0
 40
1.0
 40
1.0
 40
1.0
 10
161.3320454545454
 20
210.7576879121727
 30
0.0
 10
161.3447378001879
 20
210.7520081935713
 30
0.0
 10
161.3713120353781
 20
210.7401164454119
 30
0.0
 10
161.415157660262
 20
210.7262182475408
 30
0.0
 10
161.4639778518743
 20
210.7140518187369
 30
0.0
 10
161.5184593333751
 20
210.7053313356696
 30
0.0
 10
161.5778681590036
 20
210.6974010124345
 30
0.0
 10
161.6425503244873
 20
210.6916383875884
 30
0.0
 10
161.7124729716923
 20
210.6892316728849
 30
0.0
 10
161.7607851736736
 20
210.6884774278757
 30
0.0
 10
161.7858806818182
 20
210.6880856394455
 30
0.0
  0
SPLINE
  5
196
330
1F
100
AcDbEntity
  8
0
  6
Continuous
 62
     7
370
    25
100
AcDbSpline
210
0.0
220
0.0
230
1.0
 70
     8
 71
     3
 72
    23
 73
    19
 74
     0
 42
0.000000001
 43
0.00000001
 40
0.0
 40
0.0
 40
0.0
 40
0.0
 40
0.0926501324187881
 40
0.1803440764637855
 40
0.2632060708009744
 40
0.340881909754356
 40
0.414457704860949
 40
0.4838260401889134
 40
0.5485109684903489
 40
0.610082422904755
 40
0.6678222200192466
 40
0.7224490943685152
 40
0.7739764009907291
 40
0.8229932516797609
 40
0.8695486927613144
 40
0.9143624676890058
 40
0.9576166174378843
 40
1.0
 40
1.0
 40
1.0
 40
1.0
 10
160.8490909090909
 20
212.0048470030818
 30
0.0
 10
160.8494732771286
 20
211.9615142552416
 30
0.0
 10
160.8502175589641
 20
211.8771667838902
 30
0.0
 10
160.8567427543886
 20
211.7542118889034
 30
0.0
 10
160.8670317448491
 20
211.6385351999444
 30
0.0
 10
160.8823207385791
 20
211.530097815513
 30
0.0
 10
160.9000099532055
 20
211.4283847489768
 30
0.0
 10
160.9237872211521
 20
211.3341797657673
 30
0.0
 10
160.9503407148957
 20
211.2465492217617
 30
0.0
 10
160.9825919882884
 20
211.1666789714093
 30
0.0
 10
161.0172979974925
 20
211.093050593311
 30
0.0
 10
161.0550604163145
 20
211.0262816232501
 30
0.0
 10
161.0946918282224
 20
210.9654106685486
 30
0.0
 10
161.1373698395022
 20
210.911317997139
 30
0.0
 10
161.1824539181604
 20
210.8635144684067
 30
0.0
 10
161.2290624362422
 20
210.8210236815295
 30
0.0
 10
161.2792638435259
 20
210.7860105044067
 30
0.0
 10
161.3145712534409
 20
210.767064561785
 30
0.0
 10
161.3320454545455
 20
210.7576879121727
 30
0.0
  0
SPLINE
  5
197
330
1F
100
AcDbEntity
  8
0
  6
Continuous
 62
     7
370
    25
100
AcDbSpline
210
0.0
220
0.0
230
1.0
 70
     8
 71
     3
 72
    15
 73
    11
 74
     0
 42
0.000000001
 43
0.00000001
 40
0.0
 40
0.0
 40
0.0
 40
0.0
 40
0.1109282667870264
 40
0.224380289428312
 40
0.3432230346468745
 40
0.4651453263128083
 40
0.5921228794825479
 40
0.7226342829728978
 40
0.8593405828394306
 40
1.0
 40
1.0
 40
1.0
 40
1.0
 10
160.9762215909091
 20
212.8599606394455
 30
0.0
 10
160.9659328319397
 20
212.8295268568908
 30
0.0
 10
160.9451212319547
 20
212.7679668854262
 30
0.0
 10
160.9197752732616
 20
212.671811702644
 30
0.0
 10
160.8977759061451
 20
212.5716107808574
 30
0.0
 10
160.8802002020528
 20
212.4665598624926
 30
0.0
 10
160.8659377666246
 20
212.3576115864817
 30
0.0
 10
160.8560046307715
 20
212.2438757308106
 30
0.0
 10
160.8504789585033
 20
212.1258782699094
 30
0.0
 10
160.8495579676608
 20
212.0455722754587
 30
0.0
 10
160.8490909090909
 20
212.0048470030818
 30
0.0
  0
SPLINE
  5
198
330
1F
100
AcDbEntity
  8
0
  6
Continuous
 62
     7
370
    25
100
AcDbSpline
210
0.0
220
0.0
230
1.0
 70
     8
 71
     3
 72
    23
 73
    19
 74
     0
 42
0.000000001
 43
0.00000001
 40
0.0
 40
0.0
 40
0.0
 40
0.0
 40
0.0813358770532294
 40
0.1580204213296492
 40
0.2302408174490492
 40
0.2976741432014605
 40
0.3611915332746012
 40
0.4204751070065267
 40
0.4768816708711234
 40
0.5306507777215566
 40
0.5832954809950149
 40
0.6364607207589363
 40
0.6915729541454173
 40
0.7480804393321592
 40
0.8067521618681915
 40
0.8681253328504843
 40
0.9325666742475828
 40
1.0
 40
1.0
 40
1.0
 40
1.0
 10
161.7766477272727
 20
213.3699038212637
 30
0.0
 10
161.748700717288
 20
213.3694739443406
 30
0.0
 10
161.694404895411
 20
213.3686387737498
 30
0.0
 10
161.6154822942092
 20
213.3627964577825
 30
0.0
 10
161.5416189880149
 20
213.3540646739104
 30
0.0
 10
161.4731079789084
 20
213.3403531668793
 30
0.0
 10
161.4099056721841
 20
213.3235438175373
 30
0.0
 10
161.351735670653
 20
213.303066193797
 30
0.0
 10
161.2990715608444
 20
213.2780381635095
 30
0.0
 10
161.2507984999753
 20
213.2495670881964
 30
0.0
 10
161.207095254194
 20
213.2162853787328
 30
0.0
 10
161.1662058348969
 20
213.1789793147912
 30
0.0
 10
161.1279467312863
 20
213.1371291713945
 30
0.0
 10
161.0924754942709
 20
213.0905372331709
 30
0.0
 10
161.0587747716397
 20
213.0400360107575
 30
0.0
 10
161.0283074320919
 20
212.9843679125235
 30
0.0
 10
161.0007469919406
 20
212.9239060180142
 30
0.0
 10
160.984519448576
 20
212.8815957453968
 30
0.0
 10
160.9762215909091
 20
212.8599606394455
 30
0.0
  0
LINE
  5
199
330
1F
100
AcDbEntity
  8
0
  6
Continuous
 62
     7
370
    25
100
AcDbLine
 10
162.3490909091
 20
210.6880856394
 30
0.0
 11
162.3490909091
 21
213.3699038213
 31
0.0
  0
LINE
  5
19A
330
1F
100
AcDbEntity
  8
0
  6
Continuous
 62
     7
370
    25
100
AcDbLine
 10
162.3490909091
 20
213.3699038213
 30
0.0
 11
161.7766477273
 21
213.3699038213
 31
0.0
  0
SPLINE
  5
19B
330
1F
100
AcDbEntity
  8
0
  6
Continuous
 62
     7
370
    25
100
AcDbSpline
210
0.0
220
0.0
230
1.0
 70
     8
 71
     3
 72
    15
 73
    11
 74
     0
 42
0.000000001
 43
0.00000001
 40
0.0
 40
0.0
 40
0.0
 40
0.0
 40
0.1358591900611207
 40
0.2658381844998451
 40
0.3936804328607577
 40
0.5207812248526659
 40
0.6453735379026104
 40
0.7646193444758987
 40
0.8816097600038513
 40
1.0
 40
1.0
 40
1.0
 40
1.0
 10
163.5749431818182
 20
211.2306992758091
 30
0.0
 10
163.5931132801123
 20
211.1876846747139
 30
0.0
 10
163.6286670467769
 20
211.1035172109083
 30
0.0
 10
163.7024584094391
 20
210.9897208040581
 30
0.0
 10
163.7866844865238
 20
210.887498142442
 30
0.0
 10
163.8850365023436
 20
210.801441428861
 30
0.0
 10
163.9913130339519
 20
210.7304518470088
 30
0.0
 10
164.1051368074268
 20
210.6806753844128
 30
0.0
 10
164.223220542462
 20
210.6479551316202
 30
0.0
 10
164.3041328142302
 20
210.6444127953707
 30
0.0
 10
164.3448295454546
 20
210.642631093991
 30
0.0
  0
SPLINE
  5
19C
330
1F
100
AcDbEntity
  8
0
  6
Continuous
 62
     7
370
    25
100
AcDbSpline
210
0.0
220
0.0
230
1.0
 70
     8
 71
     3
 72
    11
 73
     7
 74
     0
 42
0.000000001
 43
0.00000001
 40
0.0
 40
0.0
 40
0.0
 40
0.0
 40
0.2669168647866166
 40
0.5215207175380567
 40
0.764789137030076
 40
1.0
 40
1.0
 40
1.0
 40
1.0
 10
163.44
 20
212.0218924576273
 30
0.0
 10
163.441515423987
 20
211.9500678425667
 30
0.0
 10
163.4444763646742
 20
211.8097319188204
 30
0.0
 10
163.4710801150913
 20
211.6054743834401
 30
0.0
 10
163.5113128599637
 20
211.4120012369092
 30
0.0
 10
163.5539725364895
 20
211.2904509635709
 30
0.0
 10
163.5749431818182
 20
211.2306992758091
 30
0.0
  0
SPLINE
  5
19D
330
1F
100
AcDbEntity
  8
0
  6
Continuous
 62
     7
370
    25
100
AcDbSpline
210
0.0
220
0.0
230
1.0
 70
     8
 71
     3
 72
    23
 73
    19
 74
     0
 42
0.000000001
 43
0.00000001
 40
0.0
 40
0.0
 40
0.0
 40
0.0
 40
0.0509180019820862
 40
0.1006167904141337
 40
0.1499276525903502
 40
0.1991718333808552
 40
0.2495259930923005
 40
0.3014493889625802
 40
0.3560342047157338
 40
0.4136288738645705
 40
0.4738344013366614
 40
0.5365596415325549
 40
0.6027689603453955
 40
0.6729018153132624
 40
0.7471021992056438
 40
0.826223233692779
 40
0.9105471764055557
 40
1.0
 40
1.0
 40
1.0
 40
1.0
 10
164.3512215909091
 20
213.4153583667182
 30
0.0
 10
164.3196675739615
 20
213.4142302047478
 30
0.0
 10
164.2573150898431
 20
213.4120008942463
 30
0.0
 10
164.1655788437169
 20
213.3953120500186
 30
0.0
 10
164.0779022835966
 20
213.3673544736399
 30
0.0
 10
163.9936493921709
 20
213.329016284082
 30
0.0
 10
163.9148902875552
 20
213.2774850740275
 30
0.0
 10
163.8387749174108
 20
213.2168312033535
 30
0.0
 10
163.7670040050983
 20
213.1445247671492
 30
0.0
 10
163.6995620988343
 20
213.0614998937756
 30
0.0
 10
163.638489757702
 20
212.9675526322308
 30
0.0
 10
163.5851008736308
 20
212.8630364620463
 30
0.0
 10
163.5396276249146
 20
212.7482090306813
 30
0.0
 10
163.5029851318882
 20
212.6228542450442
 30
0.0
 10
163.4749007631385
 20
212.4871852125545
 30
0.0
 10
163.4543813469529
 20
212.3413083493306
 30
0.0
 10
163.4424798840184
 20
212.1849696620766
 30
0.0
 10
163.4408427343891
 20
212.0773106817233
 30
0.0
 10
163.44
 20
212.0218924576273
 30
0.0
  0
SPLINE
  5
19E
330
1F
100
AcDbEntity
  8
0
  6
Continuous
 62
     7
370
    25
100
AcDbSpline
210
0.0
220
0.0
230
1.0
 70
     8
 71
     3
 72
    23
 73
    19
 74
     0
 42
0.000000001
 43
0.00000001
 40
0.0
 40
0.0
 40
0.0
 40
0.0
 40
0.0857830521953997
 40
0.1670694454186727
 40
0.2438012276375994
 40
0.3163671090895925
 40
0.3854844221054513
 40
0.4517504887817393
 40
0.5153949770372919
 40
0.5768805476262304
 40
0.6363810632650599
 40
0.6922654913508519
 40
0.745710408640008
 40
0.7972333055607409
 40
0.847795589241432
 40
0.8979127368709202
 40
0.948137263504926
 40
1.0
 40
1.0
 40
1.0
 40
1.0
 10
165.2581818181819
 20
212.0808413212637
 30
0.0
 10
165.2573419899271
 20
212.1322379489272
 30
0.0
 10
165.255706356347
 20
212.2323370461309
 30
0.0
 10
165.2436779350035
 20
212.378019145703
 30
0.0
 10
165.2234419429872
 20
212.5147915075255
 30
0.0
 10
165.194158866008
 20
212.642453392941
 30
0.0
 10
165.1575178920202
 20
212.7616621423016
 30
0.0
 10
165.1122024386526
 20
212.8721629282317
 30
0.0
 10
165.0580857167799
 20
212.9734793449433
 30
0.0
 10
164.9961389196705
 20
213.0653672715827
 30
0.0
 10
164.9283299685393
 20
213.1469466363434
 30
0.0
 10
164.8572858895295
 20
213.2192498060239
 30
0.0
 10
164.7812277812978
 20
213.27873761945
 30
0.0
 10
164.7029404413181
 20
213.3296046243371
 30
0.0
 10
164.6199291649463
 20
213.3681548214126
 30
0.0
 10
164.5334119242903
 20
213.3949964858807
 30
0.0
 10
164.4435119174101
 20
213.412121450795
 30
0.0
 10
164.3823123924424
 20
213.4142679132074
 30
0.0
 10
164.3512215909091
 20
213.4153583667182
 30
0.0
  0
SPLINE
  5
19F
330
1F
100
AcDbEntity
  8
0
  6
Continuous
 62
     7
370
    25
100
AcDbSpline
210
0.0
220
0.0
230
1.0
 70
     8
 71
     3
 72
    23
 73
    19
 74
     0
 42
0.000000001
 43
0.00000001
 40
0.0
 40
0.0
 40
0.0
 40
0.0
 40
0.0510700504509139
 40
0.1005660900124697
 40
0.1488296696138368
 40
0.1976155264965223
 40
0.2465699945136572
 40
0.2971331471789224
 40
0.3497617125489748
 40
0.4053241194824201
 40
0.4637501237503587
 40
0.5256608702399915
 40
0.5916042736391878
 40
0.6623011091677775
 40
0.7382031055661145
 40
0.8196269972046536
 40
0.906566137671779
 40
1.0
 40
1.0
 40
1.0
 40
1.0
 10
164.3448295454546
 20
210.642631093991
 30
0.0
 10
164.3773361506368
 20
210.643732783044
 30
0.0
 10
164.4413474871029
 20
210.6459022064046
 30
0.0
 10
164.5348241618429
 20
210.6627520809658
 30
0.0
 10
164.6243645709959
 20
210.6896151173026
 30
0.0
 10
164.708666187605
 20
210.7292590193618
 30
0.0
 10
164.7893432448352
 20
210.7785777080021
 30
0.0
 10
164.8647377821378
 20
210.8396761371794
 30
0.0
 10
164.9361721501976
 20
210.9112939962107
 30
0.0
 10
165.0030478509582
 20
210.9937907971769
 30
0.0
 10
165.0637176690001
 20
211.0880953556651
 30
0.0
 10
165.1162981871422
 20
211.1945734877903
 30
0.0
 10
165.1599940783824
 20
211.3132899940932
 30
0.0
 10
165.1959603619673
 20
211.4437588182376
 30
0.0
 10
165.2243239398889
 20
211.586157553393
 30
0.0
 10
165.2435225555388
 20
211.7404527519372
 30
0.0
 10
165.2558388108601
 20
211.9066360293081
 30
0.0
 10
165.2573822902977
 20
212.0213955025547
 30
0.0
 10
165.2581818181819
 20
212.0808413212637
 30
0.0
  0
SPLINE
  5
1A0
330
1F
100
AcDbEntity
  8
0
  6
Continuous
 62
     7
370
    25
100
AcDbSpline
210
0.0
220
0.0
230
1.0
 70
     8
 71
     3
 72
    23
 73
    19
 74
     0
 42
0.000000001
 43
0.00000001
 40
0.0
 40
0.0
 40
0.0
 40
0.0
 40
0.0912767643244924
 40
0.1764629232372341
 40
0.2562801431555508
 40
0.3309455529399311
 40
0.4006389904447177
 40
0.4660089483284489
 40
0.5279263555437911
 40
0.5867234830687497
 40
0.6428721960916924
 40
0.69627165463178
 40
0.7475656410401068
 40
0.7976820514592233
 40
0.8471601091351857
 40
0.8969249623901866
 40
0.9476183243460207
 40
1.0
 40
1.0
 40
1.0
 40
1.0
 10
150.0763636363637
 20
212.4799890485364
 30
0.0
 10
150.0772717689825
 20
212.5349284779155
 30
0.0
 10
150.0790274374464
 20
212.6411414049508
 30
0.0
 10
150.0899200311512
 20
212.7951489595067
 30
0.0
 10
150.1101361383647
 20
212.9380598798095
 30
0.0
 10
150.1361355751471
 20
213.0706168360481
 30
0.0
 10
150.1721433661527
 20
213.1917636823179
 30
0.0
 10
150.2141202973717
 20
213.3028430472956
 30
0.0
 10
150.2655960219407
 20
213.4025825559053
 30
0.0
 10
150.3237977969898
 20
213.4919749599465
 30
0.0
 10
150.3886801118347
 20
213.5700618426943
 30
0.0
 10
150.4576825024755
 20
213.6382458100047
 30
0.0
 10
150.5314894346662
 20
213.6954669451795
 30
0.0
 10
150.6091781064731
 20
213.7429540044151
 30
0.0
 10
150.6916926504643
 20
213.779286112229
 30
0.0
 10
150.7781514697056
 20
213.8057775836543
 30
0.0
 10
150.8690876992808
 20
213.8218652157822
 30
0.0
 10
150.931175095522
 20
213.8235785678715
 30
0.0
 10
150.9627272727273
 20
213.8244492758091
 30
0.0
  0
SPLINE
  5
1A1
330
1F
100
AcDbEntity
  8
0
  6
Continuous
 62
     7
370
    25
100
AcDbSpline
210
0.0
220
0.0
230
1.0
 70
     8
 71
     3
 72
    23
 73
    19
 74
     0
 42
0.000000001
 43
0.00000001
 40
0.0
 40
0.0
 40
0.0
 40
0.0
 40
0.0527852402278166
 40
0.1042458293004908
 40
0.1551604530941806
 40
0.2054268083520238
 40
0.2570914424417262
 40
0.309970030844728
 40
0.3653095312247635
 40
0.4234521060082706
 40
0.483842822061041
 40
0.5467834342241109
 40
0.612062618021642
 40
0.6811908593868692
 40
0.7539750279956028
 40
0.8310409578182172
 40
0.913198972293863
 40
1.0
 40
1.0
 40
1.0
 40
1.0
 10
150.9627272727273
 20
211.1880856394455
 30
0.0
 10
150.9318822492232
 20
211.1889595294724
 30
0.0
 10
150.8709662613239
 20
211.1906853791643
 30
0.0
 10
150.7814914508103
 20
211.2068958327581
 30
0.0
 10
150.6960815294658
 20
211.2330478883783
 30
0.0
 10
150.6145739035921
 20
211.2699833380359
 30
0.0
 10
150.5371200921059
 20
211.3169910042318
 30
0.0
 10
150.463353355084
 20
211.3745240497125
 30
0.0
 10
150.3935477056824
 20
211.4423521088704
 30
0.0
 10
150.328592284189
 20
211.5205735507839
 30
0.0
 10
150.2683874451968
 20
211.608003929295
 30
0.0
 10
150.2168654046291
 20
211.7055985027023
 30
0.0
 10
150.1732728652268
 20
211.8124579131406
 30
0.0
 10
150.1384348775935
 20
211.9284456607829
 30
0.0
 10
150.10964286116
 20
212.0531319543734
 30
0.0
 10
150.0900919270659
 20
212.1873234194348
 30
0.0
 10
150.0790397578363
 20
212.3306530315805
 30
0.0
 10
150.0772718707655
 20
212.4293067049204
 30
0.0
 10
150.0763636363637
 20
212.4799890485364
 30
0.0
  0
SPLINE
  5
1A2
330
1F
100
AcDbEntity
  8
0
  6
Continuous
 62
     7
370
    25
100
AcDbSpline
210
0.0
220
0.0
230
1.0
 70
     8
 71
     3
 72
    23
 73
    19
 74
     0
 42
0.000000001
 43
0.00000001
 40
0.0
 40
0.0
 40
0.0
 40
0.0
 40
0.0890390678183895
 40
0.1727021385026589
 40
0.2509364528333339
 40
0.3247546437725828
 40
0.3939511538506431
 40
0.4596932424381922
 40
0.5218198132862305
 40
0.5813764206301941
 40
0.6383575883276261
 40
0.6925487413961094
 40
0.7446032068334263
 40
0.7954626376687947
 40
0.8456742516130851
 40
0.8957953612070877
 40
0.9472402973995024
 40
1.0
 40
1.0
 40
1.0
 40
1.0
 10
151.8490909090909
 20
212.5062674576273
 30
0.0
 10
151.8481726211236
 20
212.4534587080001
 30
0.0
 10
151.8463914895416
 20
212.3510296932348
 30
0.0
 10
151.8355683944203
 20
212.2024492762597
 30
0.0
 10
151.815215496617
 20
212.0640500459639
 30
0.0
 10
151.7892156789382
 20
211.9352882825602
 30
0.0
 10
151.7532786424527
 20
211.8166209538121
 30
0.0
 10
151.7104438915336
 20
211.707704326915
 30
0.0
 10
151.659156000549
 20
211.6088039184092
 30
0.0
 10
151.5999384186306
 20
211.5206794875332
 30
0.0
 10
151.5354174179151
 20
211.4424309045745
 30
0.0
 10
151.4663360519673
 20
211.3742984210394
 30
0.0
 10
151.3925472897513
 20
211.3170700584217
 30
0.0
 10
151.3148602080399
 20
211.2695641292476
 30
0.0
 10
151.2325299542309
 20
211.2334044584579
 30
0.0
 10
151.146394166064
 20
211.2066349402242
 30
0.0
 10
151.0558840205001
 20
211.1907331186482
 30
0.0
 10
150.9940396221698
 20
211.188975524461
 30
0.0
 10
150.9627272727273
 20
211.1880856394455
 30
0.0
  0
SPLINE
  5
1A3
330
1F
100
AcDbEntity
  8
0
  6
Continuous
 62
     7
370
    25
100
AcDbSpline
210
0.0
220
0.0
230
1.0
 70
     8
 71
     3
 72
    23
 73
    19
 74
     0
 42
0.000000001
 43
0.00000001
 40
0.0
 40
0.0
 40
0.0
 40
0.0
 40
0.0524221588341681
 40
0.1031397662365298
 40
0.1533192909396099
 40
0.2032243992953773
 40
0.2543512222751581
 40
0.3064663561075186
 40
0.3610010158153169
 40
0.4183041352387586
 40
0.4781533511349307
 40
0.5407068807815049
 40
0.6063044484403417
 40
0.6755816056093632
 40
0.7495689674650328
 40
0.8278944622592455
 40
0.911256612859181
 40
1.0
 40
1.0
 40
1.0
 40
1.0
 10
150.9627272727273
 20
213.8244492758091
 30
0.0
 10
150.9938080687934
 20
213.8235838500752
 30
0.0
 10
151.0549590421984
 20
213.821881138667
 30
0.0
 10
151.1446952548833
 20
213.8056817368364
 30
0.0
 10
151.2302092674454
 20
213.7792653765834
 30
0.0
 10
151.3123963021922
 20
213.7429021609424
 30
0.0
 10
151.389462275338
 20
213.6946218496088
 30
0.0
 10
151.4638007421354
 20
213.6376162172877
 30
0.0
 10
151.5323326168482
 20
213.5684572426855
 30
0.0
 10
151.5977924958389
 20
213.4904990872092
 30
0.0
 10
151.6580905267134
 20
213.4024066593153
 30
0.0
 10
151.7084239373894
 20
213.302808501424
 30
0.0
 10
151.7530457133417
 20
213.194539937542
 30
0.0
 10
151.788174884263
 20
213.0756825735185
 30
0.0
 10
151.8155097021973
 20
212.9471836166183
 30
0.0
 10
151.8354342701643
 20
212.8088774610344
 30
0.0
 10
151.8464251790201
 20
212.6608025896881
 30
0.0
 10
151.8481840013251
 20
212.5588418397435
 30
0.0
 10
151.8490909090909
 20
212.5062674576273
 30
0.0
  0
LINE
  5
1A4
330
1F
100
AcDbEntity
  8
0
  6
Continuous
 62
     7
370
    25
100
AcDbLine
 10
153.5763636364
 20
212.4593924576
 30
0.0
 11
153.5763636364
 21
213.7789947304
 31
0.0
  0
SPLINE
  5
1A5
330
1F
100
AcDbEntity
  8
0
  6
Continuous
 62
     7
370
    25
100
AcDbSpline
210
0.0
220
0.0
230
1.0
 70
     8
 71
     3
 72
    11
 73
     7
 74
     0
 42
0.000000001
 43
0.00000001
 40
0.0
 40
0.0
 40
0.0
 40
0.0
 40
0.2422089502770346
 40
0.4884794597618003
 40
0.7412752106879985
 40
1.0
 40
1.0
 40
1.0
 40
1.0
 10
153.5167045454546
 20
211.9395060939909
 30
0.0
 10
153.5260565665508
 20
211.980825385741
 30
0.0
 10
153.544917431137
 20
212.0641568451637
 30
0.0
 10
153.5625669136392
 20
212.192662199718
 30
0.0
 10
153.574606640466
 20
212.3246902601137
 30
0.0
 10
153.5757734628488
 20
212.4141460973645
 30
0.0
 10
153.5763636363637
 20
212.4593924576273
 30
0.0
  0
SPLINE
  5
1A6
330
1F
100
AcDbEntity
  8
0
  6
Continuous
 62
     7
370
    25
100
AcDbSpline
210
0.0
220
0.0
230
1.0
 70
     8
 71
     3
 72
    15
 73
    11
 74
     0
 42
0.000000001
 43
0.00000001
 40
0.0
 40
0.0
 40
0.0
 40
0.0
 40
0.108029479098998
 40
0.2159128736428816
 40
0.3274236087165076
 40
0.4471094889623592
 40
0.5750455314220672
 40
0.7081311642011684
 40
0.8482590320714982
 40
1.0
 40
1.0
 40
1.0
 40
1.0
 10
153.2148579545455
 20
211.6426310939909
 30
0.0
 10
153.2313165225979
 20
211.6435602989213
 30
0.0
 10
153.2642114023463
 20
211.6454174522502
 30
0.0
 10
153.3118537636934
 20
211.6614635106447
 30
0.0
 10
153.3574381940567
 20
211.6859535783101
 30
0.0
 10
153.4000012233505
 20
211.7205862156213
 30
0.0
 10
153.4390215556471
 20
211.763653244381
 30
0.0
 10
153.4715988381683
 20
211.8154892491009
 30
0.0
 10
153.4982602244138
 20
211.8745773161217
 30
0.0
 10
153.5103954893788
 20
211.9172965857305
 30
0.0
 10
153.5167045454546
 20
211.9395060939909
 30
0.0
  0
SPLINE
  5
1A7
330
1F
100
AcDbEntity
  8
0
  6
Continuous
 62
     7
370
    25
100
AcDbSpline
210
0.0
220
0.0
230
1.0
 70
     8
 71
     3
 72
    11
 73
     7
 74
     0
 42
0.000000001
 43
0.00000001
 40
0.0
 40
0.0
 40
0.0
 40
0.0
 40
0.2617400869703931
 40
0.5166989218434781
 40
0.7610587188810217
 40
1.0
 40
1.0
 40
1.0
 40
1.0
 10
152.9854545454546
 20
211.6880856394455
 30
0.0
 10
153.0047498829494
 20
211.681073671569
 30
0.0
 10
153.0428406477061
 20
211.6672314042888
 30
0.0
 10
153.1009695610446
 20
211.6534411942072
 30
0.0
 10
153.1582231347037
 20
211.6442922006403
 30
0.0
 10
153.1961213127034
 20
211.6431806421388
 30
0.0
 10
153.2148579545455
 20
211.6426310939909
 30
0.0
  0
LINE
  5
1A8
330
1F
100
AcDbEntity
  8
0
  6
Continuous
 62
     7
370
    25
100
AcDbLine
 10
152.8945454545
 20
211.3244492758
 30
0.0
 11
152.9854545455
 21
211.6880856394
 31
0.0
  0
SPLINE
  5
1A9
330
1F
100
AcDbEntity
  8
0
  6
Continuous
 62
     7
370
    25
100
AcDbSpline
210
0.0
220
0.0
230
1.0
 70
     8
 71
     3
 72
    11
 73
     7
 74
     0
 42
0.000000001
 43
0.00000001
 40
0.0
 40
0.0
 40
0.0
 40
0.0
 40
0.2215004838521603
 40
0.4561273429754498
 40
0.7132387558380905
 40
1.0
 40
1.0
 40
1.0
 40
1.0
 10
153.1971022727273
 20
211.1880856394455
 30
0.0
 10
153.1720320970236
 20
211.189802413935
 30
0.0
 10
153.1204060579614
 20
211.1933377009591
 30
0.0
 10
153.0439009216178
 20
211.2212278020053
 30
0.0
 10
152.9668740361987
 20
211.2643815948491
 30
0.0
 10
152.919515581618
 20
211.3037120016605
 30
0.0
 10
152.8945454545454
 20
211.3244492758091
 30
0.0
  0
SPLINE
  5
1AA
330
1F
100
AcDbEntity
  8
0
  6
Continuous
 62
     7
370
    25
100
AcDbSpline
210
0.0
220
0.0
230
1.0
 70
     8
 71
     3
 72
    19
 73
    15
 74
     0
 42
0.000000001
 43
0.00000001
 40
0.0
 40
0.0
 40
0.0
 40
0.0
 40
0.111763142882653
 40
0.2142806808058606
 40
0.3089378987489532
 40
0.3944457138045782
 40
0.4719121922118165
 40
0.540399593374737
 40
0.6010371244503153
 40
0.6540510379455241
 40
0.7478116546859139
 40
0.8335660735218153
 40
0.9169214501301761
 40
1.0
 40
1.0
 40
1.0
 40
1.0
 10
153.5763636363637
 20
211.6397901849
 30
0.0
 10
153.5678360820712
 20
211.6180146000956
 30
0.0
 10
153.551486415336
 20
211.5762648155379
 30
0.0
 10
153.5279911267145
 20
211.5159972951099
 30
0.0
 10
153.5025383503748
 20
211.4625820425952
 30
0.0
 10
153.4797309251979
 20
211.4136917655406
 30
0.0
 10
153.4558001865947
 20
211.3715821057342
 30
0.0
 10
153.4346564808376
 20
211.3337723421662
 30
0.0
 10
153.411225161042
 20
211.3036283836281
 30
0.0
 10
153.3840683796611
 20
211.2697219813297
 30
0.0
 10
153.3470682212361
 20
211.2375513864122
 30
0.0
 10
153.3000615988883
 20
211.2084716547447
 30
0.0
 10
153.2493523561725
 20
211.1915716621073
 30
0.0
 10
153.2144996438998
 20
211.1892463577863
 30
0.0
 10
153.1971022727273
 20
211.1880856394455
 30
0.0
  0
LINE
  5
1AB
330
1F
100
AcDbEntity
  8
0
  6
Continuous
 62
     7
370
    25
100
AcDbLine
 10
153.5763636364
 20
211.2335401849
 30
0.0
 11
153.5763636364
 21
211.6397901849
 31
0.0
  0
LINE
  5
1AC
330
1F
100
AcDbEntity
  8
0
  6
Continuous
 62
     7
370
    25
100
AcDbLine
 10
153.8945454545
 20
211.2335401849
 30
0.0
 11
153.5763636364
 21
211.2335401849
 31
0.0
  0
LINE
  5
1AD
330
1F
100
AcDbEntity
  8
0
  6
Continuous
 62
     7
370
    25
100
AcDbLine
 10
153.8945454545
 20
213.7789947304
 30
0.0
 11
153.8945454545
 21
211.2335401849
 31
0.0
  0
LINE
  5
1AE
330
1F
100
AcDbEntity
  8
0
  6
Continuous
 62
     7
370
    25
100
AcDbLine
 10
153.5763636364
 20
213.7789947304
 30
0.0
 11
153.8945454545
 21
213.7789947304
 31
0.0
  0
SPLINE
  5
1AF
330
1F
100
AcDbEntity
  8
0
  6
Continuous
 62
     7
370
    25
100
AcDbSpline
210
0.0
220
0.0
230
1.0
 70
     8
 71
     3
 72
    23
 73
    19
 74
     0
 42
0.000000001
 43
0.00000001
 40
0.0
 40
0.0
 40
0.0
 40
0.0
 40
0.0704753344234612
 40
0.1384899825933976
 40
0.2034870202581032
 40
0.2664407567069141
 40
0.3271541255849968
 40
0.3876484468101654
 40
0.4473266096201269
 40
0.5072945563284808
 40
0.5669701020769057
 40
0.6258897472579769
 40
0.6843623800035421
 40
0.7436177071928428
 40
0.803887002264719
 40
0.8663875953882737
 40
0.9317584026438587
 40
1.0
 40
1.0
 40
1.0
 40
1.0
 10
155.3036363636364
 20
213.002006093991
 30
0.0
 10
155.3044341259366
 20
213.0318541670614
 30
0.0
 10
155.3060017962139
 20
213.0905081508103
 30
0.0
 10
155.3148747244382
 20
213.1763746405764
 30
0.0
 10
155.331387864867
 20
213.2578514365615
 30
0.0
 10
155.3541177058993
 20
213.334562105203
 30
0.0
 10
155.3825995001118
 20
213.4073137157894
 30
0.0
 10
155.4180611796642
 20
213.4754130753856
 30
0.0
 10
155.4603701099654
 20
213.5390739410989
 30
0.0
 10
155.5085396797224
 20
213.5979643563107
 30
0.0
 10
155.5623514954754
 20
213.651355016241
 30
0.0
 10
155.6216109336483
 20
213.6975913703648
 30
0.0
 10
155.6853166094281
 20
213.7371487952228
 30
0.0
 10
155.7538256267231
 20
213.7690245076107
 30
0.0
 10
155.8268907448343
 20
213.7941126395517
 30
0.0
 10
155.9047541151251
 20
213.8116749776513
 30
0.0
 10
155.9872788254922
 20
213.8225198022142
 30
0.0
 10
156.0438957853486
 20
213.8237969708813
 30
0.0
 10
156.0728125000001
 20
213.8244492758091
 30
0.0
  0
SPLINE
  5
1B0
330
1F
100
AcDbEntity
  8
0
  6
Continuous
 62
     7
370
    25
100
AcDbSpline
210
0.0
220
0.0
230
1.0
 70
     8
 71
     3
 72
    15
 73
    11
 74
     0
 42
0.000000001
 43
0.00000001
 40
0.0
 40
0.0
 40
0.0
 40
0.0
 40
0.0577637959166498
 40
0.1339095606009052
 40
0.2295030292916202
 40
0.3448176406847284
 40
0.4789606386437754
 40
0.6330175227221314
 40
0.8070638318754246
 40
0.9999999999999999
 40
0.9999999999999999
 40
0.9999999999999999
 40
0.9999999999999999
 10
156.3831818181818
 20
212.0730288212637
 30
0.0
 10
156.3768377257247
 20
212.0771329351216
 30
0.0
 10
156.3621306826734
 20
212.0866472004957
 30
0.0
 10
156.3355997535602
 20
212.1007568473588
 30
0.0
 10
156.3013898919396
 20
212.1162451525471
 30
0.0
 10
156.2594414393321
 20
212.1328810007737
 30
0.0
 10
156.2104045337984
 20
212.1523692275311
 30
0.0
 10
156.1535100357837
 20
212.1728161700918
 30
0.0
 10
156.0889375908003
 20
212.1945560556782
 30
0.0
 10
156.0434565226567
 20
212.2098661211301
 30
0.0
 10
156.0195454545455
 20
212.2179151849
 30
0.0
  0
SPLINE
  5
1B1
330
1F
100
AcDbEntity
  8
0
  6
Continuous
 62
     7
370
    25
100
AcDbSpline
210
0.0
220
0.0
230
1.0
 70
     8
 71
     3
 72
    11
 73
     7
 74
     0
 42
0.000000001
 43
0.00000001
 40
0.0
 40
0.0
 40
0.0
 40
0.0
 40
0.2612018464440369
 40
0.5049792000801392
 40
0.7479683367497322
 40
1.0
 40
1.0
 40
1.0
 40
1.0
 10
156.4854545454546
 20
211.8620913212636
 30
0.0
 10
156.4843611887387
 20
211.8833426043065
 30
0.0
 10
156.4822474119513
 20
211.9244275202737
 30
0.0
 10
156.4618882963869
 20
211.9822723931536
 30
0.0
 10
156.4297940133542
 20
212.0338174592155
 30
0.0
 10
156.3989072854766
 20
212.0598001589106
 30
0.0
 10
156.3831818181818
 20
212.0730288212637
 30
0.0
  0
SPLINE
  5
1B2
330
1F
100
AcDbEntity
  8
0
  6
Continuous
 62
     7
370
    25
100
AcDbSpline
210
0.0
220
0.0
230
1.0
 70
     8
 71
     3
 72
    15
 73
    11
 74
     0
 42
0.000000001
 43
0.00000001
 40
0.0
 40
0.0
 40
0.0
 40
0.0
 40
0.1679916647423579
 40
0.3151574940028675
 40
0.4449673626661161
 40
0.5641363972236241
 40
0.6758278916254683
 40
0.7812169892488562
 40
0.8880605774475788
 40
1.0
 40
1.0
 40
1.0
 40
1.0
 10
156.0749431818182
 20
211.5517220030818
 30
0.0
 10
156.1074597778174
 20
211.5527059926527
 30
0.0
 10
156.1684619050617
 20
211.5545519871415
 30
0.0
 10
156.2533545482447
 20
211.5707233021905
 30
0.0
 10
156.3258186759321
 20
211.5972030557636
 30
0.0
 10
156.3843249379275
 20
211.6363043669824
 30
0.0
 10
156.429873172933
 20
211.6834988265082
 30
0.0
 10
156.4619681418824
 20
211.7378217143687
 30
0.0
 10
156.482085079832
 20
211.7979716094007
 30
0.0
 10
156.4843140844573
 20
211.8403887610579
 30
0.0
 10
156.4854545454546
 20
211.8620913212636
 30
0.0
  0
SPLINE
  5
1B3
330
1F
100
AcDbEntity
  8
0
  6
Continuous
 62
     7
370
    25
100
AcDbSpline
210
0.0
220
0.0
230
1.0
 70
     8
 71
     3
 72
    15
 73
    11
 74
     0
 42
0.000000001
 43
0.00000001
 40
0.0
 40
0.0
 40
0.0
 40
0.0
 40
0.1502582195245543
 40
0.2850603007255549
 40
0.4068984126073956
 40
0.5209872511395572
 40
0.6319879778142734
 40
0.7454829310191475
 40
0.866710371475505
 40
1.0
 40
1.0
 40
1.0
 40
1.0
 10
155.6672727272728
 20
211.9608129121727
 30
0.0
 10
155.6714791155316
 20
211.9286450813753
 30
0.0
 10
155.679459206776
 20
211.8676183265674
 30
0.0
 10
155.7062923626548
 20
211.7837076700887
 30
0.0
 10
155.7413631203416
 20
211.7114518942169
 30
0.0
 10
155.7884701812495
 20
211.6525556172395
 30
0.0
 10
155.8459366813153
 20
211.6065714792365
 30
0.0
 10
155.9137289611608
 20
211.5743590982201
 30
0.0
 10
155.9912476022913
 20
211.5548943895457
 30
0.0
 10
156.046176910436
 20
211.5528123561264
 30
0.0
 10
156.0749431818182
 20
211.5517220030818
 30
0.0
  0
LINE
  5
1B4
330
1F
100
AcDbEntity
  8
0
  6
Continuous
 62
     7
370
    25
100
AcDbLine
 10
155.3490909091
 20
211.9153583667
 30
0.0
 11
155.6672727273
 21
211.9608129122
 31
0.0
  0
SPLINE
  5
1B5
330
1F
100
AcDbEntity
  8
0
  6
Continuous
 62
     7
370
    25
100
AcDbSpline
210
0.0
220
0.0
230
1.0
 70
     8
 71
     3
 72
    19
 73
    15
 74
     0
 42
0.000000001
 43
0.00000001
 40
0.0
 40
0.0
 40
0.0
 40
0.0
 40
0.0890223283603135
 40
0.1734761019486486
 40
0.2547393000803023
 40
0.3337873141316939
 40
0.4103332026615494
 40
0.4835724380709345
 40
0.5555749335244805
 40
0.6273395677255154
 40
0.7038289784086783
 40
0.7912582993925606
 40
0.8895416060842827
 40
0.9999999999999999
 40
0.9999999999999999
 40
0.9999999999999999
 40
0.9999999999999999
 10
156.0863068181819
 20
211.1880856394455
 30
0.0
 10
156.051927330062
 20
211.1892569342391
 30
0.0
 10
155.9849326816871
 20
211.1915394139133
 30
0.0
 10
155.8874221923437
 20
211.2069799138769
 30
0.0
 10
155.7967555602471
 20
211.2344360203043
 30
0.0
 10
155.7124628958452
 20
211.2707603397273
 30
0.0
 10
155.6376061435442
 20
211.3182124020422
 30
0.0
 10
155.5702630574985
 20
211.3715164244984
 30
0.0
 10
155.5132121225938
 20
211.4333154702897
 30
0.0
 10
155.4640060728226
 20
211.5030721161308
 30
0.0
 10
155.4244274715836
 20
211.5854526864046
 30
0.0
 10
155.3926013357101
 20
211.681752830969
 30
0.0
 10
155.3662718044926
 20
211.7932346246728
 30
0.0
 10
155.3550363149497
 20
211.8730977513964
 30
0.0
 10
155.3490909090909
 20
211.9153583667182
 30
0.0
  0
SPLINE
  5
1B6
330
1F
100
AcDbEntity
  8
0
  6
Continuous
 62
     7
370
    25
100
AcDbSpline
210
0.0
220
0.0
230
1.0
 70
     8
 71
     3
 72
    23
 73
    19
 74
     0
 42
0.000000001
 43
0.00000001
 40
0.0
 40
0.0
 40
0.0
 40
0.0
 40
0.0684541638465215
 40
0.1336601907647525
 40
0.1972381692343307
 40
0.2578650826206745
 40
0.3180739285712243
 40
0.3770977210116631
 40
0.4360732295901484
 40
0.4959689880522527
 40
0.5556869196732975
 40
0.6147300146026498
 40
0.6741322713623794
 40
0.7342685251728354
 40
0.7964419763033054
 40
0.8613531697595955
 40
0.929082163112468
 40
1.0
 40
1.0
 40
1.0
 40
1.0
 10
156.8036363636364
 20
211.9139379121727
 30
0.0
 10
156.8031959733767
 20
211.8876267191864
 30
0.0
 10
156.8023360892905
 20
211.8362527942681
 30
0.0
 10
156.7925172640148
 20
211.7609952160965
 30
0.0
 10
156.7780754995948
 20
211.6896122700899
 30
0.0
 10
156.7571992158243
 20
211.6217885356576
 30
0.0
 10
156.7303298779481
 20
211.5580032578446
 30
0.0
 10
156.6973163029049
 20
211.4979163778871
 30
0.0
 10
156.6588455620752
 20
211.4412783389868
 30
0.0
 10
156.6140917865079
 20
211.3891537449792
 30
0.0
 10
156.5648429841168
 20
211.341109695419
 30
0.0
 10
156.5093378128949
 20
211.300773388724
 30
0.0
 10
156.4503186560817
 20
211.265604796891
 30
0.0
 10
156.3864603409439
 20
211.2370314040849
 30
0.0
 10
156.3178589890498
 20
211.2149371024944
 30
0.0
 10
156.2444835403561
 20
211.1998537026399
 30
0.0
 10
156.1668718110483
 20
211.1892059786342
 30
0.0
 10
156.1135704552312
 20
211.1884647683938
 30
0.0
 10
156.0863068181819
 20
211.1880856394455
 30
0.0
  0
SPLINE
  5
1B7
330
1F
100
AcDbEntity
  8
0
  6
Continuous
 62
     7
370
    25
100
AcDbSpline
210
0.0
220
0.0
230
1.0
 70
     8
 71
     3
 72
    23
 73
    19
 74
     0
 42
0.000000001
 43
0.00000001
 40
0.0
 40
0.0
 40
0.0
 40
0.0
 40
0.0775405969985322
 40
0.1491571696458407
 40
0.214310670606558
 40
0.2737849970163059
 40
0.3276265935731625
 40
0.3751148465947299
 40
0.4168327416443608
 40
0.4526482340629349
 40
0.5179942125506989
 40
0.5827052352963695
 40
0.6479405426656915
 40
0.714442622579516
 40
0.7827618385493931
 40
0.8523782127499073
 40
0.9248045777620294
 40
1.0
 40
1.0
 40
1.0
 40
1.0
 10
156.0167045454546
 20
212.6944776849
 30
0.0
 10
156.0463204302735
 20
212.6843642063521
 30
0.0
 10
156.1032895758196
 20
212.6649099089404
 30
0.0
 10
156.1847753278254
 20
212.6358979743596
 30
0.0
 10
156.2590064951552
 20
212.6082617997972
 30
0.0
 10
156.325822666903
 20
212.5813352651267
 30
0.0
 10
156.3852660130451
 20
212.5552486367493
 30
0.0
 10
156.4372883048955
 20
212.5302161418427
 30
0.0
 10
156.4822751050735
 20
212.5072914793086
 30
0.0
 10
156.5313650945426
 20
212.4769425087849
 30
0.0
 10
156.5850427557365
 20
212.4366718151384
 30
0.0
 10
156.6418639263449
 20
212.3816869860322
 30
0.0
 10
156.6903204734747
 20
212.318589616782
 30
0.0
 10
156.7308206552264
 20
212.2485165430642
 30
0.0
 10
156.7635430541245
 20
212.1725583614084
 30
0.0
 10
156.7872516347353
 20
212.0907953691379
 30
0.0
 10
156.8005007863618
 20
212.0038586821369
 30
0.0
 10
156.8025781820998
 20
211.94428399846
 30
0.0
 10
156.8036363636364
 20
211.9139379121727
 30
0.0
  0
SPLINE
  5
1B8
330
1F
100
AcDbEntity
  8
0
  6
Continuous
 62
     7
370
    25
100
AcDbSpline
210
0.0
220
0.0
230
1.0
 70
     8
 71
     3
 72
    15
 73
    11
 74
     0
 42
0.000000001
 43
0.00000001
 40
0.0
 40
0.0
 40
0.0
 40
0.0
 40
0.0642898394880093
 40
0.147627126204478
 40
0.2461686922708307
 40
0.3603015254696295
 40
0.4940629204354116
 40
0.644625155909194
 40
0.8132322161245429
 40
1.0
 40
1.0
 40
1.0
 40
1.0
 10
155.7034943181819
 20
212.8351026849
 30
0.0
 10
155.7090665803943
 20
212.8302230203732
 30
0.0
 10
155.7218620246423
 20
212.819017970607
 30
0.0
 10
155.7460882931231
 20
212.8041534173292
 30
0.0
 10
155.7759601642888
 20
212.7878422175575
 30
0.0
 10
155.8119089538302
 20
212.7705474283786
 30
0.0
 10
155.8544407001337
 20
212.7534243529009
 30
0.0
 10
155.9027488628804
 20
212.7338914603144
 30
0.0
 10
155.9575171804861
 20
212.7141454370219
 30
0.0
 10
155.9963145365927
 20
212.7012532127559
 30
0.0
 10
156.0167045454546
 20
212.6944776849
 30
0.0
  0
SPLINE
  5
1B9
330
1F
100
AcDbEntity
  8
0
  6
Continuous
 62
     7
370
    25
100
AcDbSpline
210
0.0
220
0.0
230
1.0
 70
     8
 71
     3
 72
    11
 73
     7
 74
     0
 42
0.000000001
 43
0.00000001
 40
0.0
 40
0.0
 40
0.0
 40
0.0
 40
0.2808399984848188
 40
0.5347733217096203
 40
0.7701835190502125
 40
1.0
 40
1.0
 40
1.0
 40
1.0
 10
155.6218181818182
 20
213.0659265485364
 30
0.0
 10
155.622580133724
 20
213.0423755902079
 30
0.0
 10
155.6240310365649
 20
212.9975300401342
 30
0.0
 10
155.6401458400029
 20
212.9347207045994
 30
0.0
 10
155.6654607706896
 20
212.8794241828149
 30
0.0
 10
155.6909185005129
 20
212.849757617541
 30
0.0
 10
155.7034943181819
 20
212.8351026849
 30
0.0
  0
SPLINE
  5
1BA
330
1F
100
AcDbEntity
  8
0
  6
Continuous
 62
     7
370
    25
100
AcDbSpline
210
0.0
220
0.0
230
1.0
 70
     8
 71
     3
 72
    15
 73
    11
 74
     0
 42
0.000000001
 43
0.00000001
 40
0.0
 40
0.0
 40
0.0
 40
0.0
 40
0.1472807282839329
 40
0.2806153354772334
 40
0.4047813093738584
 40
0.5247085089494864
 40
0.6421143683919427
 40
0.7566027311301513
 40
0.874251754478844
 40
1.0
 40
1.0
 40
1.0
 40
1.0
 10
156.0507954545455
 20
213.4608129121727
 30
0.0
 10
156.0184765059828
 20
213.4595404262037
 30
0.0
 10
155.9568989139999
 20
213.4571159469032
 30
0.0
 10
155.8699908447976
 20
213.436417800877
 30
0.0
 10
155.7941762172797
 20
213.4016206474369
 30
0.0
 10
155.7317997257323
 20
213.351597109708
 30
0.0
 10
155.682467346285
 20
213.2916442321381
 30
0.0
 10
155.6467438213911
 20
213.2232651714447
 30
0.0
 10
155.6256976003467
 20
213.146936865176
 30
0.0
 10
155.6231396934026
 20
213.0935224552707
 30
0.0
 10
155.6218181818182
 20
213.0659265485364
 30
0.0
  0
SPLINE
  5
1BB
330
1F
100
AcDbEntity
  8
0
  6
Continuous
 62
     7
370
    25
100
AcDbSpline
210
0.0
220
0.0
230
1.0
 70
     8
 71
     3
 72
    15
 73
    11
 74
     0
 42
0.000000001
 43
0.00000001
 40
0.0
 40
0.0
 40
0.0
 40
0.0
 40
0.1555424125785324
 40
0.2941247662045924
 40
0.4190131343703088
 40
0.5346399020775131
 40
0.6456767424937826
 40
0.7570057606629097
 40
0.873750914043657
 40
1.0
 40
1.0
 40
1.0
 40
1.0
 10
156.5309090909091
 20
212.9608129121727
 30
0.0
 10
156.5254073081868
 20
213.0005744738462
 30
0.0
 10
156.5150036470239
 20
213.075762069546
 30
0.0
 10
156.4829594884208
 20
213.1794277974334
 30
0.0
 10
156.4391470744551
 20
213.2673821395109
 30
0.0
 10
156.3819929472862
 20
213.3386464821402
 30
0.0
 10
156.3137131394797
 20
213.3937330411884
 30
0.0
 10
156.2353416561282
 20
213.4338658183247
 30
0.0
 10
156.1460291489085
 20
213.456553359455
 30
0.0
 10
156.0833570908486
 20
213.4593565158065
 30
0.0
 10
156.0507954545455
 20
213.4608129121727
 30
0.0
  0
LINE
  5
1BC
330
1F
100
AcDbEntity
  8
0
  6
Continuous
 62
     7
370
    25
100
AcDbLine
 10
156.8490909091
 20
213.0062674576
 30
0.0
 11
156.5309090909
 21
212.9608129122
 31
0.0
  0
SPLINE
  5
1BD
330
1F
100
AcDbEntity
  8
0
  6
Continuous
 62
     7
370
    25
100
AcDbSpline
210
0.0
220
0.0
230
1.0
 70
     8
 71
     3
 72
    23
 73
    19
 74
     0
 42
0.000000001
 43
0.00000001
 40
0.0
 40
0.0
 40
0.0
 40
0.0
 40
0.0650583079318771
 40
0.1266305141833308
 40
0.1861784727427861
 40
0.2433911603167956
 40
0.2990748799455731
 40
0.3543437316461277
 40
0.4088467230880553
 40
0.4648395764645839
 40
0.5213806544919292
 40
0.5803460118935531
 40
0.6413575701834319
 40
0.705652276801338
 40
0.7730846599530082
 40
0.8446898584428081
 40
0.9198751042775388
 40
0.9999999999999999
 40
0.9999999999999999
 40
0.9999999999999999
 40
0.9999999999999999
 10
156.0728125000001
 20
213.8244492758091
 30
0.0
 10
156.1000801928518
 20
213.8240909644103
 30
0.0
 10
156.1531544592473
 20
213.8233935414659
 30
0.0
 10
156.2304798027564
 20
213.812531514383
 30
0.0
 10
156.3038210650365
 20
213.7978642300965
 30
0.0
 10
156.372271289857
 20
213.7744145403184
 30
0.0
 10
156.4369941586529
 20
213.7463631622713
 30
0.0
 10
156.4965003287383
 20
213.7105334013446
 30
0.0
 10
156.5521395481032
 20
213.6688281291615
 30
0.0
 10
156.6029617063072
 20
213.6205665965569
 30
0.0
 10
156.649828627798
 20
213.5659608367515
 30
0.0
 10
156.6912458266823
 20
213.5046154744163
 30
0.0
 10
156.7296133937782
 20
213.4375259752972
 30
0.0
 10
156.7613888022222
 20
213.3632295665858
 30
0.0
 10
156.7912886466321
 20
213.2834430954697
 30
0.0
 10
156.8146464804654
 20
213.1967373316005
 30
0.0
 10
156.8349928888229
 20
213.10387102199
 30
0.0
 10
156.8442929723993
 20
213.0394845841309
 30
0.0
 10
156.8490909090909
 20
213.0062674576273
 30
0.0
  0
SPLINE
  5
1BE
330
1F
100
AcDbEntity
  8
0
  6
Continuous
 62
     7
370
    25
100
AcDbSpline
210
0.0
220
0.0
230
1.0
 70
     8
 71
     3
 72
    31
 73
    27
 74
     0
 42
0.000000001
 43
0.00000001
 40
0.0
 40
0.0
 40
0.0
 40
0.0
 40
0.0600146686512147
 40
0.1180632243206466
 40
0.1736112481814754
 40
0.2273480732113707
 40
0.2787957782707443
 40
0.3286447324858103
 40
0.3764527930657435
 40
0.4229248385111832
 40
0.4674437840351637
 40
0.509478867473954
 40
0.5491706570762999
 40
0.5869330764944717
 40
0.6227040356379098
 40
0.6567128713833552
 40
0.6892156866119732
 40
0.7207171031619536
 40
0.7519013924558366
 40
0.783845789879745
 40
0.8164065518265722
 40
0.8501091436336218
 40
0.8852578676166849
 40
0.9216898465026333
 40
0.9598798403630362
 40
1.0
 40
1.0
 40
1.0
 40
1.0
 10
160.5309090909091
 20
212.0098185939909
 30
0.0
 10
160.5311718132372
 20
212.0583638402925
 30
0.0
 10
160.5316886509681
 20
212.1538639643891
 30
0.0
 10
160.5400887176434
 20
212.2940735262529
 30
0.0
 10
160.551809838632
 20
212.4289152839015
 30
0.0
 10
160.568701226165
 20
212.557859183723
 30
0.0
 10
160.5908091937184
 20
212.6813215267043
 30
0.0
 10
160.6175010201208
 20
212.7989731944151
 30
0.0
 10
160.6495945798421
 20
212.9111013587219
 30
0.0
 10
160.6864867577419
 20
213.0171734686754
 30
0.0
 10
160.7266837895311
 20
213.1170137651238
 30
0.0
 10
160.7698928307502
 20
213.2095896139135
 30
0.0
 10
160.8162127069078
 20
213.294474976064
 30
0.0
 10
160.8650044550705
 20
213.3720399242173
 30
0.0
 10
160.9168038700781
 20
213.4420547861331
 30
0.0
 10
160.971874030866
 20
213.5038762771227
 30
0.0
 10
161.0285671477632
 20
213.5594548572874
 30
0.0
 10
161.089696166205
 20
213.606520418385
 30
0.0
 10
161.1544618630596
 20
213.6474639636952
 30
0.0
 10
161.2233504415346
 20
213.6829468705315
 30
0.0
 10
161.296994406152
 20
213.7130021454749
 30
0.0
 10
161.3755506918014
 20
213.736878536248
 30
0.0
 10
161.4585646579802
 20
213.7561320859784
 30
0.0
 10
161.5464069845289
 20
213.7695255663085
 30
0.0
 10
161.638959658748
 20
213.7772698518283
 30
0.0
 10
161.7022957353355
 20
213.7784104002114
 30
0.0
 10
161.7347443181818
 20
213.7789947303546
 30
0.0
  0
SPLINE
  5
1BF
330
1F
100
AcDbEntity
  8
0
  6
Continuous
 62
     7
370
    25
100
AcDbSpline
210
0.0
220
0.0
230
1.0
 70
     8
 71
     3
 72
    19
 73
    15
 74
     0
 42
0.000000001
 43
0.00000001
 40
0.0
 40
0.0
 40
0.0
 40
0.0
 40
0.0623640400735977
 40
0.1255007566719701
 40
0.1911061941901555
 40
0.2605141750850599
 40
0.3340557159649651
 40
0.4115279921742333
 40
0.4938220724186535
 40
0.5812913505930908
 40
0.6752318168145623
 40
0.7759740931165834
 40
0.8841187899401617
 40
1.0
 40
1.0
 40
1.0
 40
1.0
 10
161.2723863636364
 20
210.3436254121727
 30
0.0
 10
161.2353322658741
 20
210.3592760088805
 30
0.0
 10
161.1607649783558
 20
210.3907711096929
 30
0.0
 10
161.0582393871335
 20
210.4601554948577
 30
0.0
 10
160.9639983151795
 20
210.5465856614283
 30
0.0
 10
160.8771866095678
 20
210.6494829056822
 30
0.0
 10
160.7994578326494
 20
210.7685669611159
 30
0.0
 10
160.7307493137838
 20
210.9023502842236
 30
0.0
 10
160.6702114985611
 20
211.0497681896604
 30
0.0
 10
160.6200920245933
 20
211.2121499085538
 30
0.0
 10
160.5792892061941
 20
211.3893510166805
 30
0.0
 10
160.5520834266168
 20
211.5825404283651
 30
0.0
 10
160.5335890649007
 20
211.7909460406584
 30
0.0
 10
160.5318227482396
 20
211.9352005143309
 30
0.0
 10
160.5309090909091
 20
212.0098185939909
 30
0.0
  0
SPLINE
  5
1C0
330
1F
100
AcDbEntity
  8
0
  6
Continuous
 62
     7
370
    25
100
AcDbSpline
210
0.0
220
0.0
230
1.0
 70
     8
 71
     3
 72
    15
 73
    11
 74
     0
 42
0.000000001
 43
0.00000001
 40
0.0
 40
0.0
 40
0.0
 40
0.0
 40
0.1575667473574129
 40
0.3055312710975083
 40
0.4439157034432863
 40
0.5729506810152674
 40
0.6928478267623408
 40
0.8035992676273503
 40
0.906080988927765
 40
1.0
 40
1.0
 40
1.0
 40
1.0
 10
161.7752272727273
 20
210.2789947303546
 30
0.0
 10
161.7484691186744
 20
210.2789809666499
 30
0.0
 10
161.6965834704832
 20
210.2789542780101
 30
0.0
 10
161.6212998255671
 20
210.2830210068419
 30
0.0
 10
161.550922041978
 20
210.2876267462466
 30
0.0
 10
161.4854998921726
 20
210.2946108243179
 30
0.0
 10
161.4251630080449
 20
210.304077740245
 30
0.0
 10
161.3694726138093
 20
210.3141523862954
 30
0.0
 10
161.3190696688573
 20
210.3277869762698
 30
0.0
 10
161.2874885051853
 20
210.3385016468398
 30
0.0
 10
161.2723863636364
 20
210.3436254121727
 30
0.0
  0
LINE
  5
1C1
330
1F
100
AcDbEntity
  8
0
  6
Continuous
 62
     7
370
    25
100
AcDbLine
 10
162.6672727273
 20
210.2789947304
 30
0.0
 11
161.7752272727
 21
210.2789947304
 31
0.0
  0
LINE
  5
1C2
330
1F
100
AcDbEntity
  8
0
  6
Continuous
 62
     7
370
    25
100
AcDbLine
 10
162.6672727273
 20
213.7789947304
 30
0.0
 11
162.6672727273
 21
210.2789947304
 31
0.0
  0
LINE
  5
1C3
330
1F
100
AcDbEntity
  8
0
  6
Continuous
 62
     7
370
    25
100
AcDbLine
 10
161.7347443182
 20
213.7789947304
 30
0.0
 11
162.6672727273
 21
213.7789947304
 31
0.0
  0
SPLINE
  5
1C4
330
1F
100
AcDbEntity
  8
0
  6
Continuous
 62
     7
370
    25
100
AcDbSpline
210
0.0
220
0.0
230
1.0
 70
     8
 71
     3
 72
    23
 73
    19
 74
     0
 42
0.000000001
 43
0.00000001
 40
0.0
 40
0.0
 40
0.0
 40
0.0
 40
0.0968192816718758
 40
0.1879688264533211
 40
0.2754194753544074
 40
0.3598337273088537
 40
0.4399412145866806
 40
0.5152097928626765
 40
0.5867202398916698
 40
0.6563463397493262
 40
0.6917361708376777
 40
0.7292083367414259
 40
0.7682863087763633
 40
0.8098729623450034
 40
0.8531673973810607
 40
0.8996294221862325
 40
0.9485553412259712
 40
0.9999999999999999
 40
0.9999999999999999
 40
0.9999999999999999
 40
0.9999999999999999
 10
165.94
 20
212.7512958667182
 30
0.0
 10
165.9412141198495
 20
212.8034631539854
 30
0.0
 10
165.9435712606933
 20
212.9047428123091
 30
0.0
 10
165.9661333343707
 20
213.0517508619724
 30
0.0
 10
166.0028486221885
 20
213.1888428711706
 30
0.0
 10
166.0537568253447
 20
213.314972932568
 30
0.0
 10
166.1163798235403
 20
213.4283490650211
 30
0.0
 10
166.1907629371285
 20
213.5258222052594
 30
0.0
 10
166.2744164549172
 20
213.6076175104452
 30
0.0
 10
166.3534366821283
 20
213.6615240047146
 30
0.0
 10
166.4222683548055
 20
213.695562036116
 30
0.0
 10
166.4781121923057
 20
213.7184805001037
 30
0.0
 10
166.5391788897692
 20
213.7365700972082
 30
0.0
 10
166.6041015091496
 20
213.7521784980742
 30
0.0
 10
166.673827480223
 20
213.7644131538443
 30
0.0
 10
166.7481031821872
 20
213.7723617181955
 30
0.0
 10
166.826968582584
 20
213.7786490267455
 30
0.0
 10
166.8810372538516
 20
213.7788775839824
 30
0.0
 10
166.9087500000001
 20
213.7789947303546
 30
0.0
  0
SPLINE
  5
1C5
330
1F
100
AcDbEntity
  8
0
  6
Continuous
 62
     7
370
    25
100
AcDbSpline
210
0.0
220
0.0
230
1.0
 70
     8
 71
     3
 72
    15
 73
    11
 74
     0
 42
0.000000001
 43
0.00000001
 40
0.0
 40
0.0
 40
0.0
 40
0.0
 40
0.1075455009599656
 40
0.2161484786361862
 40
0.3275339862401762
 40
0.4466741092290036
 40
0.5723517132400952
 40
0.7049746126034377
 40
0.8469541779204319
 40
1.0
 40
1.0
 40
1.0
 40
1.0
 10
166.3746590909091
 20
211.8926310939909
 30
0.0
 10
166.3422200829006
 20
211.9094956459672
 30
0.0
 10
166.2770230996059
 20
211.9433905762061
 30
0.0
 10
166.1913680476406
 20
212.0154634206433
 30
0.0
 10
166.1163791607644
 20
212.1031793028709
 30
0.0
 10
166.0528627187129
 20
212.206462410949
 30
0.0
 10
166.0015009537882
 20
212.3242002376137
 30
0.0
 10
165.9659807692874
 20
212.4555762986124
 30
0.0
 10
165.9434432199011
 20
212.5992402547338
 30
0.0
 10
165.9411760863212
 20
212.6993588628541
 30
0.0
 10
165.94
 20
212.7512958667182
 30
0.0
  0
SPLINE
  5
1C6
330
1F
100
AcDbEntity
  8
0
  6
Continuous
 62
     7
370
    25
100
AcDbSpline
210
0.0
220
0.0
230
1.0
 70
     8
 71
     3
 72
    19
 73
    15
 74
     0
 42
0.000000001
 43
0.00000001
 40
0.0
 40
0.0
 40
0.0
 40
0.0
 40
0.1010806791914289
 40
0.1924048240394078
 40
0.2742410221319962
 40
0.3492460202577995
 40
0.4212246326965184
 40
0.4951685410591022
 40
0.5724434811404174
 40
0.6547053216758505
 40
0.7394460711456413
 40
0.8244151355839414
 40
0.9104915248380964
 40
1.0
 40
1.0
 40
1.0
 40
1.0
 10
166.9059090909091
 20
210.2789947303546
 30
0.0
 10
166.8584990647842
 20
210.2801686781549
 30
0.0
 10
166.7682551348143
 20
210.2824032616753
 30
0.0
 10
166.6405809014104
 20
210.3004108934788
 30
0.0
 10
166.5279791975915
 20
210.3312300763117
 30
0.0
 10
166.4298241124114
 20
210.3758529765093
 30
0.0
 10
166.3438911866516
 20
210.4344847443967
 30
0.0
 10
166.2670983262434
 20
210.5062401407902
 30
0.0
 10
166.1997549607851
 20
210.5929790952819
 30
0.0
 10
166.1396791296744
 20
210.6907678261893
 30
0.0
 10
166.0909313512416
 20
210.7987944871441
 30
0.0
 10
166.0561566195529
 20
210.9138651553224
 30
0.0
 10
166.0349362035537
 20
211.0346048364532
 30
0.0
 10
166.0322688410737
 20
211.1169758024072
 30
0.0
 10
166.0309090909091
 20
211.1589663212636
 30
0.0
  0
LINE
  5
1C7
330
1F
100
AcDbEntity
  8
0
  6
Continuous
 62
     7
370
    25
100
AcDbLine
 10
167.8945454545
 20
210.2789947304
 30
0.0
 11
166.9059090909
 21
210.2789947304
 31
0.0
  0
LINE
  5
1C8
330
1F
100
AcDbEntity
  8
0
  6
Continuous
 62
     7
370
    25
100
AcDbLine
 10
167.8945454545
 20
213.7789947304
 30
0.0
 11
167.8945454545
 21
210.2789947304
 31
0.0
  0
LINE
  5
1C9
330
1F
100
AcDbEntity
  8
0
  6
Continuous
 62
     7
370
    25
100
AcDbLine
 10
166.90875
 20
213.7789947304
 30
0.0
 11
167.8945454545
 21
213.7789947304
 31
0.0
  0
LINE
  5
1CA
330
1F
100
AcDbEntity
  8
0
  6
Continuous
 62
     7
370
    25
100
AcDbLine
 10
171.0159943182
 20
210.2789947304
 30
0.0
 11
172.0152840909
 21
213.7789947304
 31
0.0
  0
LINE
  5
1CB
330
1F
100
AcDbEntity
  8
0
  6
Continuous
 62
     7
370
    25
100
AcDbLine
 10
171.3490909091
 20
210.2789947304
 30
0.0
 11
171.0159943182
 21
210.2789947304
 31
0.0
  0
LINE
  5
1CC
330
1F
100
AcDbEntity
  8
0
  6
Continuous
 62
     7
370
    25
100
AcDbLine
 10
172.0515056818
 20
212.8180572304
 30
0.0
 11
171.3490909091
 21
210.2789947304
 31
0.0
  0
SPLINE
  5
1CD
330
1F
100
AcDbEntity
  8
0
  6
Continuous
 62
     7
370
    25
100
AcDbSpline
210
0.0
220
0.0
230
1.0
 70
     8
 71
     3
 72
     9
 73
     5
 74
     0
 42
0.000000001
 43
0.00000001
 40
0.0
 40
0.0
 40
0.0
 40
0.0
 40
0.4901564748819405
 40
1.0
 40
1.0
 40
1.0
 40
1.0
 10
172.19
 20
213.3699038212637
 30
0.0
 10
172.1689777037307
 20
213.2793375246169
 30
0.0
 10
172.1260887542897
 20
213.0945673516458
 30
0.0
 10
172.076690872171
 20
212.9114290881826
 30
0.0
 10
172.0515056818182
 20
212.8180572303546
 30
0.0
  0
SPLINE
  5
1CE
330
1F
100
AcDbEntity
  8
0
  6
Continuous
 62
     7
370
    25
100
AcDbSpline
210
0.0
220
0.0
230
1.0
 70
     8
 71
     3
 72
    11
 73
     7
 74
     0
 42
0.000000001
 43
0.00000001
 40
0.0
 40
0.0
 40
0.0
 40
0.0
 40
0.2644827939617729
 40
0.519552554454923
 40
0.7649478036282251
 40
1.0
 40
1.0
 40
1.0
 40
1.0
 10
172.3157102272728
 20
212.8180572303546
 30
0.0
 10
172.3040672615036
 20
212.8665790015197
 30
0.0
 10
172.2811957071156
 20
212.9618956373504
 30
0.0
 10
172.2482473314726
 20
213.1024099648878
 30
0.0
 10
172.2188750689592
 20
213.2380371470082
 30
0.0
 10
172.1994858864794
 20
213.3265836718238
 30
0.0
 10
172.19
 20
213.3699038212637
 30
0.0
  0
LINE
  5
1CF
330
1F
100
AcDbEntity
  8
0
  6
Continuous
 62
     7
370
    25
100
AcDbLine
 10
172.94
 20
210.2789947304
 30
0.0
 11
172.3157102273
 21
212.8180572304
 31
0.0
  0
LINE
  5
1D0
330
1F
100
AcDbEntity
  8
0
  6
Continuous
 62
     7
370
    25
100
AcDbLine
 10
173.2695454545
 20
210.2789947304
 30
0.0
 11
172.94
 21
210.2789947304
 31
0.0
  0
LINE
  5
1D1
330
1F
100
AcDbEntity
  8
0
  6
Continuous
 62
     7
370
    25
100
AcDbLine
 10
172.3263636364
 20
213.7789947304
 30
0.0
 11
173.2695454545
 21
210.2789947304
 31
0.0
  0
LINE
  5
1D2
330
1F
100
AcDbEntity
  8
0
  6
Continuous
 62
     7
370
    25
100
AcDbLine
 10
172.0152840909
 20
213.7789947304
 30
0.0
 11
172.3263636364
 21
213.7789947304
 31
0.0
  0
LINE
  5
1D3
330
1F
100
AcDbEntity
  8
0
  6
Continuous
 62
     7
370
    25
100
AcDbLine
 10
178.8036363636
 20
210.9778583667
 30
0.0
 11
178.8036363636
 21
213.7789947304
 31
0.0
  0
LINE
  5
1D4
330
1F
100
AcDbEntity
  8
0
  6
Continuous
 62
     7
370
    25
100
AcDbLine
 10
177.4634375
 20
213.7789947304
 30
0.0
 11
178.8036363636
 21
210.9778583667
 31
0.0
  0
LINE
  5
1D5
330
1F
100
AcDbEntity
  8
0
  6
Continuous
 62
     7
370
    25
100
AcDbLine
 10
177.1218181818
 20
213.7789947304
 30
0.0
 11
177.4634375
 21
213.7789947304
 31
0.0
  0
LINE
  5
1D6
330
1F
100
AcDbEntity
  8
0
  6
Continuous
 62
     7
370
    25
100
AcDbLine
 10
177.1218181818
 20
210.2789947304
 30
0.0
 11
177.1218181818
 21
213.7789947304
 31
0.0
  0
LINE
  5
1D7
330
1F
100
AcDbEntity
  8
0
  6
Continuous
 62
     7
370
    25
100
AcDbLine
 10
177.44
 20
210.2789947304
 30
0.0
 11
177.1218181818
 21
210.2789947304
 31
0.0
  0
LINE
  5
1D8
330
1F
100
AcDbEntity
  8
0
  6
Continuous
 62
     7
370
    25
100
AcDbLine
 10
177.44
 20
213.0851026849
 30
0.0
 11
177.44
 21
210.2789947304
 31
0.0
  0
LINE
  5
1D9
330
1F
100
AcDbEntity
  8
0
  6
Continuous
 62
     7
370
    25
100
AcDbLine
 10
178.7823295455
 20
210.2789947304
 30
0.0
 11
177.44
 21
213.0851026849
 31
0.0
  0
LINE
  5
1DA
330
1F
100
AcDbEntity
  8
0
  6
Continuous
 62
     7
370
    25
100
AcDbLine
 10
179.1218181818
 20
210.2789947304
 30
0.0
 11
178.7823295455
 21
210.2789947304
 31
0.0
  0
LINE
  5
1DB
330
1F
100
AcDbEntity
  8
0
  6
Continuous
 62
     7
370
    25
100
AcDbLine
 10
179.1218181818
 20
213.7789947304
 30
0.0
 11
179.1218181818
 21
210.2789947304
 31
0.0
  0
LINE
  5
1DC
330
1F
100
AcDbEntity
  8
0
  6
Continuous
 62
     7
370
    25
100
AcDbLine
 10
178.8036363636
 20
213.7789947304
 30
0.0
 11
179.1218181818
 21
213.7789947304
 31
0.0
  0
SPLINE
  5
1DD
330
1F
100
AcDbEntity
  8
0
  6
Continuous
 62
     7
370
    25
100
AcDbSpline
210
0.0
220
0.0
230
1.0
 70
     8
 71
     3
 72
    15
 73
    11
 74
     0
 42
0.000000001
 43
0.00000001
 40
0.0
 40
0.0
 40
0.0
 40
0.0
 40
0.1393215392862103
 40
0.2716012228177646
 40
0.3968894546682078
 40
0.5172934503899382
 40
0.636026818922791
 40
0.7552113132249846
 40
0.8752184670120041
 40
1.0
 40
1.0
 40
1.0
 40
1.0
 10
182.8426988636364
 20
213.8244492758091
 30
0.0
 10
182.8697425910241
 20
213.8239424522195
 30
0.0
 10
182.9224631499964
 20
213.8229544218876
 30
0.0
 10
182.9985855889634
 20
213.810233369467
 30
0.0
 10
183.0695917194878
 20
213.7915256307106
 30
0.0
 10
183.1349860684755
 20
213.7641580691411
 30
0.0
 10
183.1952446873075
 20
213.7291328689693
 30
0.0
 10
183.2499550596557
 20
213.6861814513026
 30
0.0
 10
183.3001938187274
 20
213.6361582295379
 30
0.0
 10
183.3274066253443
 20
213.5971663666406
 30
0.0
 10
183.341278409091
 20
213.5772901849
 30
0.0
  0
SPLINE
  5
1DE
330
1F
100
AcDbEntity
  8
0
  6
Continuous
 62
     7
370
    25
100
AcDbSpline
210
0.0
220
0.0
230
1.0
 70
     8
 71
     3
 72
    23
 73
    19
 74
     0
 42
0.000000001
 43
0.00000001
 40
0.0
 40
0.0
 40
0.0
 40
0.0
 40
0.0994431688498002
 40
0.1913077015538613
 40
0.2757215482566733
 40
0.3534769429097846
 40
0.4244929843969385
 40
0.4889624360411804
 40
0.5481480844568248
 40
0.6021993962054076
 40
0.6531279306542433
 40
0.7024715583656373
 40
0.7502734845581447
 40
0.7980754107506531
 40
0.8461052506998795
 40
0.8953476000127794
 40
0.9461124950813905
 40
1.0
 40
1.0
 40
1.0
 40
1.0
 10
182.1218181818182
 20
212.6547049576273
 30
0.0
 10
182.1222245679166
 20
212.7063333328661
 30
0.0
 10
182.1230063691337
 20
212.8056554473575
 30
0.0
 10
182.1327835609171
 20
212.9485066283097
 30
0.0
 10
182.1462717313985
 20
213.0797147095489
 30
0.0
 10
182.1664611164283
 20
213.1991898441687
 30
0.0
 10
182.1935740826175
 20
213.3065958436382
 30
0.0
 10
182.2249957572474
 20
213.4027723735928
 30
0.0
 10
182.2631610150406
 20
213.4869837228153
 30
0.0
 10
182.3076023146958
 20
213.5599756015807
 30
0.0
 10
182.3581448867001
 20
213.6223844455803
 30
0.0
 10
182.4128252199458
 20
213.6765937158007
 30
0.0
 10
182.4723498320724
 20
213.7230287271645
 30
0.0
 10
182.5375298481731
 20
213.7596535226474
 30
0.0
 10
182.6069224602362
 20
213.7893611034397
 30
0.0
 10
182.6812337207603
 20
213.8097169253213
 30
0.0
 10
182.7603743554087
 20
213.8220333495829
 30
0.0
 10
182.8147168716914
 20
213.823628105666
 30
0.0
 10
182.8426988636364
 20
213.8244492758091
 30
0.0
  0
LINE
  5
1DF
330
1F
100
AcDbEntity
  8
0
  6
Continuous
 62
     7
370
    25
100
AcDbLine
 10
182.1218181818
 20
210.2789947304
 30
0.0
 11
182.1218181818
 21
212.6547049576
 31
0.0
  0
LINE
  5
1E0
330
1F
100
AcDbEntity
  8
0
  6
Continuous
 62
     7
370
    25
100
AcDbLine
 10
182.44
 20
210.2789947304
 30
0.0
 11
182.1218181818
 21
210.2789947304
 31
0.0
  0
LINE
  5
1E1
330
1F
100
AcDbEntity
  8
0
  6
Continuous
 62
     7
370
    25
100
AcDbLine
 10
182.44
 20
212.6824038213
 30
0.0
 11
182.44
 21
210.2789947304
 31
0.0
  0
SPLINE
  5
1E2
330
1F
100
AcDbEntity
  8
0
  6
Continuous
 62
     7
370
    25
100
AcDbSpline
210
0.0
220
0.0
230
1.0
 70
     8
 71
     3
 72
    11
 73
     7
 74
     0
 42
0.000000001
 43
0.00000001
 40
0.0
 40
0.0
 40
0.0
 40
0.0
 40
0.1897211885864214
 40
0.4188043445050498
 40
0.6886196378243379
 40
1.0
 40
1.0
 40
1.0
 40
1.0
 10
182.4854545454546
 20
213.1511538212636
 30
0.0
 10
182.4782632542718
 20
213.122142034857
 30
0.0
 10
182.4623886753045
 20
213.0580993083725
 30
0.0
 10
182.449807765098
 20
212.9502122237788
 30
0.0
 10
182.4412567432191
 20
212.8229392283425
 30
0.0
 10
182.4404384222195
 20
212.731430419658
 30
0.0
 10
182.4400000000001
 20
212.6824038212636
 30
0.0
  0
SPLINE
  5
1E3
330
1F
100
AcDbEntity
  8
0
  6
Continuous
 62
     7
370
    25
100
AcDbSpline
210
0.0
220
0.0
230
1.0
 70
     8
 71
     3
 72
    15
 73
    11
 74
     0
 42
0.000000001
 43
0.00000001
 40
0.0
 40
0.0
 40
0.0
 40
0.0
 40
0.1289478034479484
 40
0.2532473852373883
 40
0.3764406309892795
 40
0.5033025917821633
 40
0.6299799454329872
 40
0.7520759981192225
 40
0.8746598439576752
 40
1.0
 40
1.0
 40
1.0
 40
1.0
 10
182.8277840909091
 20
213.4153583667182
 30
0.0
 10
182.807840228024
 20
213.4142872357582
 30
0.0
 10
182.7686714248949
 20
213.4121835852298
 30
0.0
 10
182.7114377958713
 20
213.3989761218376
 30
0.0
 10
182.659003505585
 20
213.3735796582499
 30
0.0
 10
182.6102900116303
 20
213.3412944309098
 30
0.0
 10
182.5670361747619
 20
213.3019764053226
 30
0.0
 10
182.5319448302485
 20
213.2562246393547
 30
0.0
 10
182.5033497509318
 20
213.2062193019285
 30
0.0
 10
182.4914636620529
 20
213.1696445222661
 30
0.0
 10
182.4854545454546
 20
213.1511538212636
 30
0.0
  0
SPLINE
  5
1E4
330
1F
100
AcDbEntity
  8
0
  6
Continuous
 62
     7
370
    25
100
AcDbSpline
210
0.0
220
0.0
230
1.0
 70
     8
 71
     3
 72
    23
 73
    19
 74
     0
 42
0.000000001
 43
0.00000001
 40
0.0
 40
0.0
 40
0.0
 40
0.0
 40
0.1092372335715481
 40
0.2102209308448991
 40
0.3021972615310228
 40
0.3860574403282928
 40
0.4615364433605463
 40
0.5288594026150175
 40
0.588940417074211
 40
0.6419432213395108
 40
0.6902628885277928
 40
0.7362901207039032
 40
0.7807076703864043
 40
0.8236437590948548
 40
0.8662436383458302
 40
0.9093259936573101
 40
0.9535000835603565
 40
1.0
 40
1.0
 40
1.0
 40
1.0
 10
183.2127272727273
 20
212.6880856394455
 30
0.0
 10
183.2116263164763
 20
212.7214842766214
 30
0.0
 10
183.2095075879043
 20
212.785758081134
 30
0.0
 10
183.2013589939273
 20
212.8778663295779
 30
0.0
 10
183.191471042216
 20
212.9619543038204
 30
0.0
 10
183.1800342418496
 20
213.0380041819139
 30
0.0
 10
183.1644991922766
 20
213.1056589978842
 30
0.0
 10
183.1458704458032
 20
213.1648762198816
 30
0.0
 10
183.125958309215
 20
213.2164622452882
 30
0.0
 10
183.1019334077227
 20
213.2597271074199
 30
0.0
 10
183.0761476595727
 20
213.2968140598584
 30
0.0
 10
183.0473598688612
 20
213.3281478731186
 30
0.0
 10
183.0168882347258
 20
213.3553565704549
 30
0.0
 10
182.9840035090142
 20
213.3780125825552
 30
0.0
 10
182.9479084556625
 20
213.3940796066839
 30
0.0
 10
182.9100475090763
 20
213.4061443198327
 30
0.0
 10
182.8698210351629
 20
213.4146243713094
 30
0.0
 10
182.8420339888163
 20
213.4151095532084
 30
0.0
 10
182.8277840909091
 20
213.4153583667182
 30
0.0
  0
LINE
  5
1E5
330
1F
100
AcDbEntity
  8
0
  6
Continuous
 62
     7
370
    25
100
AcDbLine
 10
183.5309090909
 20
212.7335401849
 30
0.0
 11
183.2127272727
 21
212.6880856394
 31
0.0
  0
SPLINE
  5
1E6
330
1F
100
AcDbEntity
  8
0
  6
Continuous
 62
     7
370
    25
100
AcDbSpline
210
0.0
220
0.0
230
1.0
 70
     8
 71
     3
 72
    15
 73
    11
 74
     0
 42
0.000000001
 43
0.00000001
 40
0.0
 40
0.0
 40
0.0
 40
0.0
 40
0.0991998587249313
 40
0.204329054948701
 40
0.3160441565315407
 40
0.4349229997989102
 40
0.5626713396712538
 40
0.6990277588033684
 40
0.8444221531856683
 40
0.9999999999999999
 40
0.9999999999999999
 40
0.9999999999999999
 40
0.9999999999999999
 10
183.341278409091
 20
213.5772901849
 30
0.0
 10
183.3568073941287
 20
213.5527684696806
 30
0.0
 10
183.3887935569908
 20
213.5022593362914
 30
0.0
 10
183.4261759431045
 20
213.417515275985
 30
0.0
 10
183.4591545092539
 20
213.3250460216799
 30
0.0
 10
183.4850501934907
 20
213.223438803946
 30
0.0
 10
183.5054723585698
 20
213.1133337811666
 30
0.0
 10
183.5200658376475
 20
212.994505084158
 30
0.0
 10
183.5296302528369
 20
212.8669829901002
 30
0.0
 10
183.5304733032947
 20
212.7790132772311
 30
0.0
 10
183.5309090909091
 20
212.7335401849001
 30
0.0
  0
LINE
  5
1E7
330
1F
100
AcDbEntity
  8
0
  6
Continuous
 62
     7
370
    25
100
AcDbLine
 10
185.94
 20
253.2789947304
 30
0.0
 11
147.94
 21
253.2789947304
 31
0.0
  0
LINE
  5
1E8
330
1F
100
AcDbEntity
  8
0
  6
Continuous
 62
     7
370
    25
100
AcDbLine
 10
185.94
 20
253.2789947304
 30
0.0
 11
185.94
 21
209.2789947304
 31
0.0
  0
LINE
  5
1E9
330
1F
100
AcDbEntity
  8
0
  6
Continuous
 62
     7
370
    25
100
AcDbLine
 10
147.94
 20
209.2789947304
 30
0.0
 11
185.94
 21
209.2789947304
 31
0.0
  0
LINE
  5
1EA
330
1F
100
AcDbEntity
  8
0
  6
Continuous
 62
     7
370
    25
100
AcDbLine
 10
147.94
 20
253.2789947304
 30
0.0
 11
147.94
 21
209.2789947304
 31
0.0
  0
LINE
  5
1EB
330
1F
100
AcDbEntity
  8
0
  6
Continuous
 62
     7
370
    25
100
AcDbLine
 10
181.1949715909
 20
212.7335401849
 30
0.0
 11
181.4698295455
 21
213.7789947304
 31
0.0
  0
LINE
  5
1EC
330
1F
100
AcDbEntity
  8
0
  6
Continuous
 62
     7
370
    25
100
AcDbLine
 10
180.0941193182
 20
212.7335401849
 30
0.0
 11
181.1949715909
 21
212.7335401849
 31
0.0
  0
LINE
  5
1ED
330
1F
100
AcDbEntity
  8
0
  6
Continuous
 62
     7
370
    25
100
AcDbLine
 10
179.8185511364
 20
213.7789947304
 30
0.0
 11
180.0941193182
 21
212.7335401849
 31
0.0
  0
LINE
  5
1EE
330
1F
100
AcDbEntity
  8
0
  6
Continuous
 62
     7
370
    25
100
AcDbLine
 10
179.4854545455
 20
213.7789947304
 30
0.0
 11
179.8185511364
 21
213.7789947304
 31
0.0
  0
LINE
  5
1EF
330
1F
100
AcDbEntity
  8
0
  6
Continuous
 62
     7
370
    25
100
AcDbLine
 10
180.5010795455
 20
210.2789947304
 30
0.0
 11
179.4854545455
 21
213.7789947304
 31
0.0
  0
LINE
  5
1F0
330
1F
100
AcDbEntity
  8
0
  6
Continuous
 62
     7
370
    25
100
AcDbLine
 10
180.8355965909
 20
210.2789947304
 30
0.0
 11
180.5010795455
 21
210.2789947304
 31
0.0
  0
LINE
  5
1F1
330
1F
100
AcDbEntity
  8
0
  6
Continuous
 62
     7
370
    25
100
AcDbLine
 10
181.8036363636
 20
213.7789947304
 30
0.0
 11
180.8355965909
 21
210.2789947304
 31
0.0
  0
LINE
  5
1F2
330
1F
100
AcDbEntity
  8
0
  6
Continuous
 62
     7
370
    25
100
AcDbLine
 10
181.4698295455
 20
213.7789947304
 30
0.0
 11
181.8036363636
 21
213.7789947304
 31
0.0
  0
SPLINE
  5
1F3
330
1F
100
AcDbEntity
  8
0
  6
Continuous
 62
     7
370
    25
100
AcDbSpline
210
0.0
220
0.0
230
1.0
 70
     8
 71
     3
 72
    19
 73
    15
 74
     0
 42
0.000000001
 43
0.00000001
 40
0.0
 40
0.0
 40
0.0
 40
0.0
 40
0.0886619328966461
 40
0.1748887269201074
 40
0.2591738099539836
 40
0.3430068706248758
 40
0.4254833967761644
 40
0.5048291987789572
 40
0.5819745958328189
 40
0.6598298721495325
 40
0.7392218021747288
 40
0.8211192259217948
 40
0.9077844165653723
 40
1.0
 40
1.0
 40
1.0
 40
1.0
 10
173.5763636363637
 20
212.8095345030818
 30
0.0
 10
173.5778456222327
 20
212.8567378990913
 30
0.0
 10
173.5807688905788
 20
212.9498482291361
 30
0.0
 10
173.6045126434828
 20
213.0862462930788
 30
0.0
 10
173.6448645378443
 20
213.2157571983774
 30
0.0
 10
173.6991516304084
 20
213.3379434908851
 30
0.0
 10
173.7676478291587
 20
213.4497484074294
 30
0.0
 10
173.8481794856516
 20
213.5487088512648
 30
0.0
 10
173.9405547672653
 20
213.6331767176476
 30
0.0
 10
174.0442767672413
 20
213.7032322579767
 30
0.0
 10
174.1595121103009
 20
213.7584942333669
 30
0.0
 10
174.2863237055374
 20
213.7963242284735
 30
0.0
 10
174.4234615126667
 20
213.8203977313561
 30
0.0
 10
174.5187291084037
 20
213.8230711107206
 30
0.0
 10
174.5678409090909
 20
213.8244492758091
 30
0.0
  0
SPLINE
  5
1F4
330
1F
100
AcDbEntity
  8
0
  6
Continuous
 62
     7
370
    25
100
AcDbSpline
210
0.0
220
0.0
230
1.0
 70
     8
 71
     3
 72
    15
 73
    11
 74
     0
 42
0.000000001
 43
0.00000001
 40
0.0
 40
0.0
 40
0.0
 40
0.0
 40
0.1284468823105382
 40
0.2509512281717665
 40
0.3695993612597431
 40
0.4873459931406895
 40
0.6075091423425156
 40
0.73143645106075
 40
0.8612952611733194
 40
1.0
 40
1.0
 40
1.0
 40
1.0
 10
174.0593181818182
 20
211.9764379121727
 30
0.0
 10
174.0207662119042
 20
211.9971379058434
 30
0.0
 10
173.9454458613879
 20
212.037580217415
 30
0.0
 10
173.84586796396
 20
212.1153631608728
 30
0.0
 10
173.7614639375034
 20
212.2042085875911
 30
0.0
 10
173.6932481317629
 20
212.305166737879
 30
0.0
 10
173.6406725858605
 20
212.4169386368922
 30
0.0
 10
173.6028723122448
 20
212.5387920830124
 30
0.0
 10
173.5808475160829
 20
212.6709562784673
 30
0.0
 10
173.5778907264516
 20
212.7623384482216
 30
0.0
 10
173.5763636363637
 20
212.8095345030818
 30
0.0
  0
SPLINE
  5
1F5
330
1F
100
AcDbEntity
  8
0
  6
Continuous
 62
     7
370
    25
100
AcDbSpline
210
0.0
220
0.0
230
1.0
 70
     8
 71
     3
 72
    15
 73
    11
 74
     0
 42
0.000000001
 43
0.00000001
 40
0.0
 40
0.0
 40
0.0
 40
0.0
 40
0.1682248166822133
 40
0.3246971115483568
 40
0.4684230130816667
 40
0.5993115057484886
 40
0.7178407301013316
 40
0.824871019298163
 40
0.9180531695307871
 40
1.0
 40
1.0
 40
1.0
 40
1.0
 10
174.6111647727273
 20
211.7946197303546
 30
0.0
 10
174.5796215834666
 20
211.8029440573733
 30
0.0
 10
174.5187388751719
 20
211.8190111572927
 30
0.0
 10
174.4318167924292
 20
211.8453891910129
 30
0.0
 10
174.351268284321
 20
211.8678101140597
 30
0.0
 10
174.2789660082327
 20
211.8919986981157
 30
0.0
 10
174.2131772065415
 20
211.9132651856617
 30
0.0
 10
174.1556370769449
 20
211.9358483499105
 30
0.0
 10
174.1043606807146
 20
211.9550292869504
 30
0.0
 10
174.0736761644077
 20
211.969613586797
 30
0.0
 10
174.0593181818182
 20
211.9764379121727
 30
0.0
  0
SPLINE
  5
1F6
330
1F
100
AcDbEntity
  8
0
  6
Continuous
 62
     7
370
    25
100
AcDbSpline
210
0.0
220
0.0
230
1.0
 70
     8
 71
     3
 72
    15
 73
    11
 74
     0
 42
0.000000001
 43
0.00000001
 40
0.0
 40
0.0
 40
0.0
 40
0.0
 40
0.0771004015863225
 40
0.1663775667591672
 40
0.2676842814794534
 40
0.3844615905691921
 40
0.515114849649479
 40
0.6610947405362045
 40
0.8222347294061976
 40
1.0
 40
1.0
 40
1.0
 40
1.0
 10
175.1125852272728
 20
211.5609549576273
 30
0.0
 10
175.1029098440925
 20
211.5716477512031
 30
0.0
 10
175.0820310071749
 20
211.5947220924569
 30
0.0
 10
175.0424199864427
 20
211.6256399962955
 30
0.0
 10
174.9932123000986
 20
211.6552933542145
 30
0.0
 10
174.9352212054517
 20
211.6851126045767
 30
0.0
 10
174.8671637284002
 20
211.7129550315721
 30
0.0
 10
174.7905262909584
 20
211.7414739577439
 30
0.0
 10
174.7042626200895
 20
211.7691897839575
 30
0.0
 10
174.6431959474611
 20
211.7858703222899
 30
0.0
 10
174.6111647727273
 20
211.7946197303546
 30
0.0
  0
SPLINE
  5
1F7
330
1F
100
AcDbEntity
  8
0
  6
Continuous
 62
     7
370
    25
100
AcDbSpline
210
0.0
220
0.0
230
1.0
 70
     8
 71
     3
 72
    11
 73
     7
 74
     0
 42
0.000000001
 43
0.00000001
 40
0.0
 40
0.0
 40
0.0
 40
0.0
 40
0.288755805743898
 40
0.5477747969496818
 40
0.7815167905798178
 40
1.0
 40
1.0
 40
1.0
 40
1.0
 10
175.2127272727273
 20
211.2044208667182
 30
0.0
 10
175.2115907341608
 20
211.2407415835447
 30
0.0
 10
175.2094347006885
 20
211.30964261649
 30
0.0
 10
175.1910460553084
 20
211.4064177178508
 30
0.0
 10
175.1608229530114
 20
211.4914535945202
 30
0.0
 10
175.1282986624088
 20
211.5383148943921
 30
0.0
 10
175.1125852272728
 20
211.5609549576273
 30
0.0
  0
SPLINE
  5
1F8
330
1F
100
AcDbEntity
  8
0
  6
Continuous
 62
     7
370
    25
100
AcDbSpline
210
0.0
220
0.0
230
1.0
 70
     8
 71
     3
 72
    23
 73
    19
 74
     0
 42
0.000000001
 43
0.00000001
 40
0.0
 40
0.0
 40
0.0
 40
0.0
 40
0.0757464277983989
 40
0.1481248213654864
 40
0.2159176359181009
 40
0.2805255174643423
 40
0.3425893393403915
 40
0.4028312233486518
 40
0.4615987758002673
 40
0.5206046968589725
 40
0.5790979244191365
 40
0.6372401393001653
 40
0.6944391982372702
 40
0.7519797775595645
 40
0.8114743177404232
 40
0.8717792746522142
 40
0.9349545526564582
 40
1.0
 40
1.0
 40
1.0
 40
1.0
 10
174.6154261363637
 20
210.642631093991
 30
0.0
 10
174.6388911114065
 20
210.6428881206767
 30
0.0
 10
174.6847777008814
 20
210.6433907454607
 30
0.0
 10
174.7512059054146
 20
210.6517022591962
 30
0.0
 10
174.8135679333683
 20
210.6633958714117
 30
0.0
 10
174.8713990319706
 20
210.68049712835
 30
0.0
 10
174.9250706885821
 20
210.7024519067152
 30
0.0
 10
174.9741410136275
 20
210.7297272671108
 30
0.0
 10
175.0197577691315
 20
210.7609198640822
 30
0.0
 10
175.0597482451512
 20
210.7982448532638
 30
0.0
 10
175.0963581861251
 20
210.838565218266
 30
0.0
 10
175.1273081038227
 20
210.8827270954536
 30
0.0
 10
175.1540404592779
 20
210.9291918574139
 30
0.0
 10
175.1753636067678
 20
210.9788482355332
 30
0.0
 10
175.1923686456216
 20
211.0311276686722
 30
0.0
 10
175.2045232184879
 20
211.0865337554079
 30
0.0
 10
175.2116808285436
 20
211.1445700651521
 30
0.0
 10
175.212375082641
 20
211.1842775477529
 30
0.0
 10
175.2127272727273
 20
211.2044208667182
 30
0.0
  0
SPLINE
  5
1F9
330
1F
100
AcDbEntity
  8
0
  6
Continuous
 62
     7
370
    25
100
AcDbSpline
210
0.0
220
0.0
230
1.0
 70
     8
 71
     3
 72
    23
 73
    19
 74
     0
 42
0.000000001
 43
0.00000001
 40
0.0
 40
0.0
 40
0.0
 40
0.0
 40
0.0804477882082772
 40
0.156718420251967
 40
0.2276382366420956
 40
0.2952096785152854
 40
0.3581859219298966
 40
0.4185551117576314
 40
0.4763070988559077
 40
0.532147523305355
 40
0.5868560422685104
 40
0.6411170575345251
 40
0.695800343879394
 40
0.751997999585488
 40
0.8096981858086504
 40
0.8699567778300638
 40
0.9334749109575676
 40
1.0
 40
1.0
 40
1.0
 40
1.0
 10
173.9854545454546
 20
211.3244492758091
 30
0.0
 10
173.9879303972389
 20
211.2964688543495
 30
0.0
 10
173.9927535451346
 20
211.24196086169
 30
0.0
 10
174.0057962875602
 20
211.1635274717233
 30
0.0
 10
174.0216795568011
 20
211.0902012065884
 30
0.0
 10
174.0430667550159
 20
211.023112005876
 30
0.0
 10
174.0679674772595
 20
210.9612320086754
 30
0.0
 10
174.0969598320792
 20
210.9049334800794
 30
0.0
 10
174.1304585838486
 20
210.8541522724754
 30
0.0
 10
174.168224836473
 20
210.8089472986231
 30
0.0
 10
174.2106100827509
 20
210.7698874990886
 30
0.0
 10
174.2561633441389
 20
210.7352164803387
 30
0.0
 10
174.3065036345986
 20
210.7067998384451
 30
0.0
 10
174.3606131687688
 20
210.6834897912034
 30
0.0
 10
174.4185449729596
 20
210.6646656203221
 30
0.0
 10
174.4807701898909
 20
210.6522929847464
 30
0.0
 10
174.546800893144
 20
210.6443090816501
 30
0.0
 10
174.5922011293034
 20
210.6431989794133
 30
0.0
 10
174.6154261363637
 20
210.642631093991
 30
0.0
  0
LINE
  5
1FA
330
1F
100
AcDbEntity
  8
0
  6
Continuous
 62
     7
370
    25
100
AcDbLine
 10
173.6672727273
 20
211.2789947304
 30
0.0
 11
173.9854545455
 21
211.3244492758
 31
0.0
  0
SPLINE
  5
1FB
330
1F
100
AcDbEntity
  8
0
  6
Continuous
 62
     7
370
    25
100
AcDbSpline
210
0.0
220
0.0
230
1.0
 70
     8
 71
     3
 72
    19
 73
    15
 74
     0
 42
0.000000001
 43
0.00000001
 40
0.0
 40
0.0
 40
0.0
 40
0.0
 40
0.0865775949512845
 40
0.169072510824957
 40
0.2486833552258015
 40
0.3267938260044196
 40
0.403922154292445
 40
0.4805132303931602
 40
0.5585181541663289
 40
0.6395967169939386
 40
0.7236708257947458
 40
0.81082320753598
 40
0.9026065276165641
 40
1.0
 40
1.0
 40
1.0
 40
1.0
 10
174.6253693181819
 20
210.2335401849001
 30
0.0
 10
174.5793175131542
 20
210.2348667048251
 30
0.0
 10
174.4893855358519
 20
210.2374571909032
 30
0.0
 10
174.3591903320499
 20
210.2627675666151
 30
0.0
 10
174.2371098149247
 20
210.3011738763423
 30
0.0
 10
174.1249914797714
 20
210.3571268985767
 30
0.0
 10
174.0234986400561
 20
210.4276953941342
 30
0.0
 10
173.9338112082057
 20
210.5126877229303
 30
0.0
 10
173.8555783461949
 20
210.6109967707796
 30
0.0
 10
173.7903441645666
 20
210.7230213633408
 30
0.0
 10
173.7387902424264
 20
210.8471549954921
 30
0.0
 10
173.7005140906863
 20
210.9818168454596
 30
0.0
 10
173.6753129002598
 20
211.1268347330643
 30
0.0
 10
173.6700052521081
 20
211.2272817918128
 30
0.0
 10
173.6672727272728
 20
211.2789947303546
 30
0.0
  0
SPLINE
  5
1FC
330
1F
100
AcDbEntity
  8
0
  6
Continuous
 62
     7
370
    25
100
AcDbSpline
210
0.0
220
0.0
230
1.0
 70
     8
 71
     3
 72
    23
 73
    19
 74
     0
 42
0.000000001
 43
0.00000001
 40
0.0
 40
0.0
 40
0.0
 40
0.0
 40
0.0693710964658172
 40
0.1363273747438182
 40
0.2007482635856145
 40
0.2630787212596505
 40
0.3241699842583327
 40
0.3842746986192582
 40
0.4446128818247918
 40
0.5054040324133603
 40
0.5655885696712176
 40
0.6248042707666295
 40
0.6838498558897412
 40
0.7435270449451904
 40
0.8041600418760241
 40
0.8664464704951085
 40
0.9315662257217269
 40
1.0
 40
1.0
 40
1.0
 40
1.0
 10
175.5309090909091
 20
211.1923470030818
 30
0.0
 10
175.5303804205704
 20
211.1579792133189
 30
0.0
 10
175.5293414829862
 20
211.0904399816672
 30
0.0
 10
175.5166360732001
 20
210.9916701793515
 30
0.0
 10
175.4976125697066
 20
210.8976116274213
 30
0.0
 10
175.4717107127634
 20
210.8080984469286
 30
0.0
 10
175.436432526364
 20
210.7241759082578
 30
0.0
 10
175.3943778745756
 20
210.6445979635366
 30
0.0
 10
175.3444956702873
 20
210.5698144093066
 30
0.0
 10
175.287284639295
 20
210.5004079651773
 30
0.0
 10
175.2232754084043
 20
210.4380383307851
 30
0.0
 10
175.1541744802817
 20
210.3827014512702
 30
0.0
 10
175.0790262201514
 20
210.336281681935
 30
0.0
 10
174.9984015458884
 20
210.2986362033227
 30
0.0
 10
174.9126647906797
 20
210.2693456458527
 30
0.0
 10
174.8216704348849
 20
210.2490613177833
 30
0.0
 10
174.725428308457
 20
210.2357733221902
 30
0.0
 10
174.6592695397639
 20
210.2342967770738
 30
0.0
 10
174.6253693181819
 20
210.2335401849001
 30
0.0
  0
SPLINE
  5
1FD
330
1F
100
AcDbEntity
  8
0
  6
Continuous
 62
     7
370
    25
100
AcDbSpline
210
0.0
220
0.0
230
1.0
 70
     8
 71
     3
 72
    23
 73
    19
 74
     0
 42
0.000000001
 43
0.00000001
 40
0.0
 40
0.0
 40
0.0
 40
0.0
 40
0.0671079261495148
 40
0.1293963874838163
 40
0.1869096036358238
 40
0.2403683257358322
 40
0.2894097904625869
 40
0.3341423274745948
 40
0.3747151530239249
 40
0.4113670673199488
 40
0.4803794914761895
 40
0.549098168773305
 40
0.6192181813141132
 40
0.6907390952448611
 40
0.7641781433278048
 40
0.8396522635915741
 40
0.918193318702388
 40
1.0
 40
1.0
 40
1.0
 40
1.0
 10
174.6871590909091
 20
212.1539947303546
 30
0.0
 10
174.7170387482959
 20
212.1446799371288
 30
0.0
 10
174.7746522068981
 20
212.126719307696
 30
0.0
 10
174.8570659368103
 20
212.0982799789336
 30
0.0
 10
174.9327263401345
 20
212.06990133346
 30
0.0
 10
175.0016426582076
 20
212.041170518978
 30
0.0
 10
175.0632859274077
 20
212.0108835558743
 30
0.0
 10
175.1190627774129
 20
211.9823118832557
 30
0.0
 10
175.1676575542712
 20
211.9525903078881
 30
0.0
 10
175.222313585434
 20
211.9117032468985
 30
0.0
 10
175.2829283404622
 20
211.857170808409
 30
0.0
 10
175.3466945002596
 20
211.7838794527676
 30
0.0
 10
175.4023548323036
 20
211.7027921516844
 30
0.0
 10
175.4483786537106
 20
211.6134293290025
 30
0.0
 10
175.4857021649416
 20
211.5173785014586
 30
0.0
 10
175.511442118237
 20
211.414286108915
 30
0.0
 10
175.5286109990138
 20
211.3053747367405
 30
0.0
 10
175.5301327298043
 20
211.230531001015
 30
0.0
 10
175.5309090909091
 20
211.1923470030818
 30
0.0
  0
SPLINE
  5
1FE
330
1F
100
AcDbEntity
  8
0
  6
Continuous
 62
     7
370
    25
100
AcDbSpline
210
0.0
220
0.0
230
1.0
 70
     8
 71
     3
 72
    23
 73
    19
 74
     0
 42
0.000000001
 43
0.00000001
 40
0.0
 40
0.0
 40
0.0
 40
0.0
 40
0.0665937809649165
 40
0.1296300901791007
 40
0.1904016394759201
 40
0.2488308065797676
 40
0.3069728175292986
 40
0.36530754814341
 40
0.4257607325073126
 40
0.4885936730267207
 40
0.524806907018971
 40
0.5683297976887668
 40
0.6200785222672108
 40
0.6804534838021157
 40
0.7477414589828897
 40
0.8237470338929962
 40
0.9080929728108434
 40
1.0
 40
1.0
 40
1.0
 40
1.0
 10
173.8945454545455
 20
212.8159265485364
 30
0.0
 10
173.8950402835777
 20
212.790770697663
 30
0.0
 10
173.8960035076376
 20
212.7418028335472
 30
0.0
 10
173.9089203664952
 20
212.6708995387969
 30
0.0
 10
173.9275090743084
 20
212.6045912471679
 30
0.0
 10
173.9547486918092
 20
212.5431539252357
 30
0.0
 10
173.9908257503839
 20
212.4876673978987
 30
0.0
 10
174.0337858925007
 20
212.4363135807537
 30
0.0
 10
174.0854213816965
 20
212.3909346403442
 30
0.0
 10
174.1353507920735
 20
212.3570115913744
 30
0.0
 10
174.1830623633882
 20
212.3320844323073
 30
0.0
 10
174.2282709320272
 20
212.3116516016146
 30
0.0
 10
174.2823250786099
 20
212.2886831864458
 30
0.0
 10
174.3458295208848
 20
212.2652292844932
 30
0.0
 10
174.4181089011492
 20
212.2391581674701
 30
0.0
 10
174.4998095936757
 20
212.2126724855483
 30
0.0
 10
174.5903600024414
 20
212.1833990033381
 30
0.0
 10
174.6539829398124
 20
212.1640725174374
 30
0.0
 10
174.6871590909091
 20
212.1539947303546
 30
0.0
  0
SPLINE
  5
1FF
330
1F
100
AcDbEntity
  8
0
  6
Continuous
 62
     7
370
    25
100
AcDbSpline
210
0.0
220
0.0
230
1.0
 70
     8
 71
     3
 72
    23
 73
    19
 74
     0
 42
0.000000001
 43
0.00000001
 40
0.0
 40
0.0
 40
0.0
 40
0.0
 40
0.0750222036375235
 40
0.1454315668675447
 40
0.2130639118137917
 40
0.2778946462649219
 40
0.3403423292469203
 40
0.4004015265856908
 40
0.460414023237334
 40
0.5201242094585463
 40
0.579246695359335
 40
0.6369378121232351
 40
0.6942432680149927
 40
0.7520932165419404
 40
0.8117008665921023
 40
0.8716411178864532
 40
0.9342518499265965
 40
1.0
 40
1.0
 40
1.0
 40
1.0
 10
174.5394318181819
 20
213.4153583667182
 30
0.0
 10
174.5145494924425
 20
213.4148085549981
 30
0.0
 10
174.4663147640004
 20
213.413742737466
 30
0.0
 10
174.3960511954047
 20
213.405621724324
 30
0.0
 10
174.3298280190079
 20
213.3933082680008
 30
0.0
 10
174.2678465707193
 20
213.3746067431146
 30
0.0
 10
174.2101228543889
 20
213.3513948566677
 30
0.0
 10
174.1567475624318
 20
213.3225791987013
 30
0.0
 10
174.1077374185042
 20
213.2884299135977
 30
0.0
 10
174.0629591577244
 20
213.249375171246
 30
0.0
 10
174.0232779583554
 20
213.2061682781121
 30
0.0
 10
173.9890869261292
 20
213.1595534173803
 30
0.0
 10
173.959354402291
 20
213.1103896478894
 30
0.0
 10
173.9363307506348
 20
213.0571025285118
 30
0.0
 10
173.9166756422065
 20
213.0015510576134
 30
0.0
 10
173.9042796768337
 20
212.9423063571958
 30
0.0
 10
173.8962024426093
 20
212.8803087910515
 30
0.0
 10
173.8951067113875
 20
212.8377341734083
 30
0.0
 10
173.8945454545455
 20
212.8159265485364
 30
0.0
  0
SPLINE
  5
200
330
1F
100
AcDbEntity
  8
0
  6
Continuous
 62
     7
370
    25
100
AcDbSpline
210
0.0
220
0.0
230
1.0
 70
     8
 71
     3
 72
    19
 73
    15
 74
     0
 42
0.000000001
 43
0.00000001
 40
0.0
 40
0.0
 40
0.0
 40
0.0
 40
0.1115386988604617
 40
0.2111858982479951
 40
0.3000555850404698
 40
0.3790407121108799
 40
0.453367330377601
 40
0.5273876160435258
 40
0.602209080692007
 40
0.6792044111390662
 40
0.7576572873552987
 40
0.8361101635715313
 40
0.9163904141621705
 40
1.0
 40
1.0
 40
1.0
 40
1.0
 10
175.3036363636364
 20
212.5971765485364
 30
0.0
 10
175.2986687746773
 20
212.6434375674061
 30
0.0
 10
175.2892632073972
 20
212.7310275691156
 30
0.0
 10
175.2649859000823
 20
212.8540058607496
 30
0.0
 10
175.2312505337714
 20
212.9606299526879
 30
0.0
 10
175.1885512343262
 20
213.0524464937665
 30
0.0
 10
175.1373457849423
 20
213.1326546269822
 30
0.0
 10
175.075306814168
 20
213.2024331353551
 30
0.0
 10
175.0045713680665
 20
213.2649913685979
 30
0.0
 10
174.9241310225176
 20
213.3179762359295
 30
0.0
 10
174.8364396638932
 20
213.3612824492109
 30
0.0
 10
174.742419050138
 20
213.3929099721894
 30
0.0
 10
174.6426880430791
 20
213.4116883155238
 30
0.0
 10
174.5743135569745
 20
213.4141185599439
 30
0.0
 10
174.5394318181819
 20
213.4153583667182
 30
0.0
  0
LINE
  5
201
330
1F
100
AcDbEntity
  8
0
  6
Continuous
 62
     7
370
    25
100
AcDbLine
 10
175.6218181818
 20
212.642631094
 30
0.0
 11
175.3036363636
 21
212.5971765485
 31
0.0
  0
SPLINE
  5
202
330
1F
100
AcDbEntity
  8
0
  6
Continuous
 62
     7
370
    25
100
AcDbSpline
210
0.0
220
0.0
230
1.0
 70
     8
 71
     3
 72
    15
 73
    11
 74
     0
 42
0.000000001
 43
0.00000001
 40
0.0
 40
0.0
 40
0.0
 40
0.0
 40
0.1242932805988096
 40
0.2441976065026622
 40
0.3621020961546607
 40
0.4804622735820425
 40
0.6015356061300517
 40
0.727182686401953
 40
0.8593297437366207
 40
1.0
 40
1.0
 40
1.0
 40
1.0
 10
169.5763636363637
 20
213.8244492758091
 30
0.0
 10
169.6226435945975
 20
213.8228592299371
 30
0.0
 10
169.7135693065533
 20
213.8197352847463
 30
0.0
 10
169.846418280462
 20
213.7936243124034
 30
0.0
 10
169.9717765942704
 20
213.74954993759
 30
0.0
 10
170.0910089466009
 20
213.689711712701
 30
0.0
 10
170.202428491865
 20
213.6111642832451
 30
0.0
 10
170.3065797516746
 20
213.5157003701644
 30
0.0
 10
170.4039718644049
 20
213.4033408582336
 30
0.0
 10
170.4605454149378
 20
213.3189547954097
 30
0.0
 10
170.489715909091
 20
213.2754435939909
 30
0.0
  0
SPLINE
  5
203
330
1F
100
AcDbEntity
  8
0
  6
Continuous
 62
     7
370
    25
100
AcDbSpline
210
0.0
220
0.0
230
1.0
 70
     8
 71
     3
 72
    15
 73
    11
 74
     0
 42
0.000000001
 43
0.00000001
 40
0.0
 40
0.0
 40
0.0
 40
0.0
 40
0.1394697222340735
 40
0.2714440392482559
 40
0.3970670061204161
 40
0.5182664351085486
 40
0.6366686768362153
 40
0.754735629397616
 40
0.8750956945676504
 40
1.0
 40
1.0
 40
1.0
 40
1.0
 10
168.6651420454546
 20
213.2896481394455
 30
0.0
 10
168.6942905259415
 20
213.3320197850291
 30
0.0
 10
168.751020984385
 20
213.414485932108
 30
0.0
 10
168.8492625949568
 20
213.5233982476405
 30
0.0
 10
168.953112873927
 20
213.6170611334729
 30
0.0
 10
169.064721595346
 20
213.6930163605213
 30
0.0
 10
169.1830891086572
 20
213.7518143049403
 30
0.0
 10
169.3079086151738
 20
213.7941977934884
 30
0.0
 10
169.4399197072403
 20
213.8196000145844
 30
0.0
 10
169.5303239920043
 20
213.8228130120074
 30
0.0
 10
169.5763636363637
 20
213.8244492758091
 30
0.0
  0
SPLINE
  5
204
330
1F
100
AcDbEntity
  8
0
  6
Continuous
 62
     7
370
    25
100
AcDbSpline
210
0.0
220
0.0
230
1.0
 70
     8
 71
     3
 72
    15
 73
    11
 74
     0
 42
0.000000001
 43
0.00000001
 40
0.0
 40
0.0
 40
0.0
 40
0.0
 40
0.1432681464111887
 40
0.2804711964080575
 40
0.4115502426899766
 40
0.5374730003684051
 40
0.6585546162302272
 40
0.7751958344968015
 40
0.8890505039341879
 40
1.0
 40
1.0
 40
1.0
 40
1.0
 10
168.349090909091
 20
212.0325458667182
 30
0.0
 10
168.3500123523101
 20
212.0953114970564
 30
0.0
 10
168.3518162304822
 20
212.2181856451154
 30
0.0
 10
168.3668758371895
 20
212.3979980317219
 30
0.0
 10
168.391847757747
 20
212.5689392156794
 30
0.0
 10
168.4251909578753
 20
212.7313229064403
 30
0.0
 10
168.4703362880993
 20
212.884264465166
 30
0.0
 10
168.5241473955097
 20
213.0286918365189
 30
0.0
 10
168.5884042086738
 20
213.1640873099631
 30
0.0
 10
168.6397840961765
 20
213.2481566760566
 30
0.0
 10
168.6651420454546
 20
213.2896481394455
 30
0.0
  0
SPLINE
  5
205
330
1F
100
AcDbEntity
  8
0
  6
Continuous
 62
     7
370
    25
100
AcDbSpline
210
0.0
220
0.0
230
1.0
 70
     8
 71
     3
 72
    31
 73
    27
 74
     0
 42
0.000000001
 43
0.00000001
 40
0.0
 40
0.0
 40
0.0
 40
0.0
 40
0.0346106073731405
 40
0.0688507703645529
 40
0.1026440893565841
 40
0.1362986261647414
 40
0.170256723579117
 40
0.2045933114684095
 40
0.2394215822067731
 40
0.2751925605013182
 40
0.3116260095862319
 40
0.3485127347950798
 40
0.3862828791584584
 40
0.4249662291362319
 40
0.4648734148785802
 40
0.5058382372382716
 40
0.5484310226595471
 40
0.5927974506220496
 40
0.6384150381181923
 40
0.6855992891843626
 40
0.7338596464824908
 40
0.7836888862914274
 40
0.834955410680541
 40
0.8882586071008144
 40
0.9431367460011173
 40
1.0
 40
1.0
 40
1.0
 40
1.0
 10
169.5742329545455
 20
210.2335401849001
 30
0.0
 10
169.5462666442634
 20
210.2342623850153
 30
0.0
 10
169.4906333528155
 20
210.2356990553907
 30
0.0
 10
169.4082375723381
 20
210.2460091134319
 30
0.0
 10
169.3275587023015
 20
210.2620090445854
 30
0.0
 10
169.2491129906747
 20
210.2859832510291
 30
0.0
 10
169.1721413828469
 20
210.3155373166273
 30
0.0
 10
169.0975046586268
 20
210.352816567121
 30
0.0
 10
169.0247579184877
 20
210.3964748067882
 30
0.0
 10
168.9538345534041
 20
210.4460504660487
 30
0.0
 10
168.8854946277372
 20
210.5019028537774
 30
0.0
 10
168.8217585466622
 20
210.5651943812941
 30
0.0
 10
168.7601340319528
 20
210.6330342275285
 30
0.0
 10
168.7037418310072
 20
210.7083599248595
 30
0.0
 10
168.649442147327
 20
210.7882924418931
 30
0.0
 10
168.5997304779615
 20
210.8748660660675
 30
0.0
 10
168.5535460379909
 20
210.967373291162
 30
0.0
 10
168.511213408791
 20
211.0658127372191
 30
0.0
 10
168.4726209960495
 20
211.1697468746068
 30
0.0
 10
168.4394070303278
 20
211.2788314266785
 30
0.0
 10
168.4117396321067
 20
211.3929493313969
 30
0.0
 10
168.3894147456744
 20
211.5115568966544
 30
0.0
 10
168.3704506501286
 20
211.6348814312643
 30
0.0
 10
168.3579549585023
 20
211.7631489343315
 30
0.0
 10
168.3510264705691
 20
211.8963416434103
 30
0.0
 10
168.3497436925461
 20
211.9866099124716
 30
0.0
 10
168.349090909091
 20
212.0325458667182
 30
0.0
  0
SPLINE
  5
206
330
1F
100
AcDbEntity
  8
0
  6
Continuous
 62
     7
370
    25
100
AcDbSpline
210
0.0
220
0.0
230
1.0
 70
     8
 71
     3
 72
    23
 73
    19
 74
     0
 42
0.000000001
 43
0.00000001
 40
0.0
 40
0.0
 40
0.0
 40
0.0
 40
0.0871129335663629
 40
0.1695750657123388
 40
0.2471254948848621
 40
0.320351933203372
 40
0.3899979855710987
 40
0.4559088171547084
 40
0.5190233411238224
 40
0.5798445404000919
 40
0.6380622781156956
 40
0.6933405345429061
 40
0.7460800388808004
 40
0.7971995082749458
 40
0.8473425891371634
 40
0.8973371953428841
 40
0.9479010371482659
 40
1.0
 40
1.0
 40
1.0
 40
1.0
 10
170.8036363636364
 20
212.0751595030818
 30
0.0
 10
170.8025302477176
 20
212.0033971284634
 30
0.0
 10
170.8003770694014
 20
211.8637036421646
 30
0.0
 10
170.7841875744196
 20
211.6606126270281
 30
0.0
 10
170.756578184519
 20
211.4703580425258
 30
0.0
 10
170.718627402689
 20
211.292624526732
 30
0.0
 10
170.6690914885798
 20
211.1277299305146
 30
0.0
 10
170.6088904478264
 20
210.9752952337469
 30
0.0
 10
170.53692800737
 20
210.8361582758829
 30
0.0
 10
170.4547975574662
 20
210.710227590064
 30
0.0
 10
170.3635227246628
 20
210.599110167496
 30
0.0
 10
170.267968022343
 20
210.5007182945477
 30
0.0
 10
170.1656091121661
 20
210.4182299348135
 30
0.0
 10
170.0576071670208
 20
210.3512241172216
 30
0.0
 10
169.9447582337573
 20
210.2974813907021
 30
0.0
 10
169.8257437428234
 20
210.2611791885241
 30
0.0
 10
169.7018688287486
 20
210.2370173708742
 30
0.0
 10
169.6172002634338
 20
210.23471074392
 30
0.0
 10
169.5742329545455
 20
210.2335401849001
 30
0.0
  0
SPLINE
  5
207
330
1F
100
AcDbEntity
  8
0
  6
Continuous
 62
     7
370
    25
100
AcDbSpline
210
0.0
220
0.0
230
1.0
 70
     8
 71
     3
 72
    15
 73
    11
 74
     0
 42
0.000000001
 43
0.00000001
 40
0.0
 40
0.0
 40
0.0
 40
0.0
 40
0.1174320155698719
 40
0.2349305867975016
 40
0.3547353147139727
 40
0.4764229971975784
 40
0.6014157797204314
 40
0.7299590806802131
 40
0.862674678805605
 40
0.9999999999999999
 40
0.9999999999999999
 40
0.9999999999999999
 40
0.9999999999999999
 10
170.489715909091
 20
213.2754435939909
 30
0.0
 10
170.5150941190461
 20
213.2332430857608
 30
0.0
 10
170.5658649222867
 20
213.1488181517805
 30
0.0
 10
170.6288025078188
 20
213.0138501322037
 30
0.0
 10
170.682600245837
 20
212.8732668413868
 30
0.0
 10
170.7279572505907
 20
212.726361954447
 30
0.0
 10
170.7616639868945
 20
212.5725872127858
 30
0.0
 10
170.7854374215813
 20
212.4123922195685
 30
0.0
 10
170.800953853479
 20
212.2459181521616
 30
0.0
 10
170.8027320752287
 20
212.1327231497453
 30
0.0
 10
170.8036363636364
 20
212.0751595030818
 30
0.0
  0
SPLINE
  5
208
330
1F
100
AcDbEntity
  8
0
  6
Continuous
 62
     7
370
    25
100
AcDbSpline
210
0.0
220
0.0
230
1.0
 70
     8
 71
     3
 72
    15
 73
    11
 74
     0
 42
0.000000001
 43
0.00000001
 40
0.0
 40
0.0
 40
0.0
 40
0.0
 40
0.1242932805988096
 40
0.2441976065026622
 40
0.3621020961546607
 40
0.4804622735820425
 40
0.6015356061300517
 40
0.727182686401953
 40
0.8593297437366207
 40
1.0
 40
1.0
 40
1.0
 40
1.0
 10
164.3490909090909
 20
213.8244492758091
 30
0.0
 10
164.3953708673248
 20
213.8228592299371
 30
0.0
 10
164.4862965792805
 20
213.8197352847463
 30
0.0
 10
164.6191455531893
 20
213.7936243124034
 30
0.0
 10
164.7445038669977
 20
213.74954993759
 30
0.0
 10
164.8637362193281
 20
213.689711712701
 30
0.0
 10
164.9751557645923
 20
213.6111642832451
 30
0.0
 10
165.0793070244018
 20
213.5157003701644
 30
0.0
 10
165.1766991371321
 20
213.4033408582336
 30
0.0
 10
165.2332726876651
 20
213.3189547954097
 30
0.0
 10
165.2624431818182
 20
213.2754435939909
 30
0.0
  0
SPLINE
  5
209
330
1F
100
AcDbEntity
  8
0
  6
Continuous
 62
     7
370
    25
100
AcDbSpline
210
0.0
220
0.0
230
1.0
 70
     8
 71
     3
 72
    15
 73
    11
 74
     0
 42
0.000000001
 43
0.00000001
 40
0.0
 40
0.0
 40
0.0
 40
0.0
 40
0.1394697222340735
 40
0.2714440392482559
 40
0.3970670061204161
 40
0.5182664351085486
 40
0.6366686768362153
 40
0.754735629397616
 40
0.8750956945676504
 40
1.0
 40
1.0
 40
1.0
 40
1.0
 10
163.4378693181818
 20
213.2896481394455
 30
0.0
 10
163.4670177986688
 20
213.3320197850291
 30
0.0
 10
163.5237482571123
 20
213.414485932108
 30
0.0
 10
163.6219898676841
 20
213.5233982476405
 30
0.0
 10
163.7258401466542
 20
213.6170611334729
 30
0.0
 10
163.8374488680733
 20
213.6930163605213
 30
0.0
 10
163.9558163813844
 20
213.7518143049403
 30
0.0
 10
164.0806358879011
 20
213.7941977934884
 30
0.0
 10
164.2126469799675
 20
213.8196000145844
 30
0.0
 10
164.3030512647316
 20
213.8228130120074
 30
0.0
 10
164.3490909090909
 20
213.8244492758091
 30
0.0
  0
SPLINE
  5
20A
330
1F
100
AcDbEntity
  8
0
  6
Continuous
 62
     7
370
    25
100
AcDbSpline
210
0.0
220
0.0
230
1.0
 70
     8
 71
     3
 72
    15
 73
    11
 74
     0
 42
0.000000001
 43
0.00000001
 40
0.0
 40
0.0
 40
0.0
 40
0.0
 40
0.1432681464111887
 40
0.2804711964080575
 40
0.4115502426899766
 40
0.5374730003684051
 40
0.6585546162302272
 40
0.7751958344968015
 40
0.8890505039341879
 40
1.0
 40
1.0
 40
1.0
 40
1.0
 10
163.1218181818182
 20
212.0325458667182
 30
0.0
 10
163.1227396250373
 20
212.0953114970564
 30
0.0
 10
163.1245435032095
 20
212.2181856451154
 30
0.0
 10
163.1396031099168
 20
212.3979980317219
 30
0.0
 10
163.1645750304743
 20
212.5689392156794
 30
0.0
 10
163.1979182306026
 20
212.7313229064403
 30
0.0
 10
163.2430635608266
 20
212.884264465166
 30
0.0
 10
163.296874668237
 20
213.0286918365189
 30
0.0
 10
163.3611314814011
 20
213.1640873099631
 30
0.0
 10
163.4125113689038
 20
213.2481566760566
 30
0.0
 10
163.4378693181818
 20
213.2896481394455
 30
0.0
  0
SPLINE
  5
20B
330
1F
100
AcDbEntity
  8
0
  6
Continuous
 62
     7
370
    25
100
AcDbSpline
210
0.0
220
0.0
230
1.0
 70
     8
 71
     3
 72
    31
 73
    27
 74
     0
 42
0.000000001
 43
0.00000001
 40
0.0
 40
0.0
 40
0.0
 40
0.0
 40
0.0346106073731405
 40
0.0688507703645529
 40
0.1026440893565841
 40
0.1362986261647414
 40
0.170256723579117
 40
0.2045933114684095
 40
0.2394215822067731
 40
0.2751925605013182
 40
0.3116260095862319
 40
0.3485127347950798
 40
0.3862828791584584
 40
0.4249662291362319
 40
0.4648734148785802
 40
0.5058382372382716
 40
0.5484310226595471
 40
0.5927974506220496
 40
0.6384150381181923
 40
0.6855992891843626
 40
0.7338596464824908
 40
0.7836888862914274
 40
0.834955410680541
 40
0.8882586071008144
 40
0.9431367460011173
 40
1.0
 40
1.0
 40
1.0
 40
1.0
 10
164.3469602272727
 20
210.2335401849001
 30
0.0
 10
164.3189939169906
 20
210.2342623850153
 30
0.0
 10
164.2633606255428
 20
210.2356990553907
 30
0.0
 10
164.1809648450653
 20
210.2460091134319
 30
0.0
 10
164.1002859750288
 20
210.2620090445854
 30
0.0
 10
164.0218402634019
 20
210.2859832510291
 30
0.0
 10
163.9448686555741
 20
210.3155373166273
 30
0.0
 10
163.8702319313541
 20
210.352816567121
 30
0.0
 10
163.7974851912149
 20
210.3964748067882
 30
0.0
 10
163.7265618261314
 20
210.4460504660487
 30
0.0
 10
163.6582219004644
 20
210.5019028537774
 30
0.0
 10
163.5944858193895
 20
210.5651943812941
 30
0.0
 10
163.53286130468
 20
210.6330342275285
 30
0.0
 10
163.4764691037345
 20
210.7083599248595
 30
0.0
 10
163.4221694200543
 20
210.7882924418931
 30
0.0
 10
163.3724577506887
 20
210.8748660660675
 30
0.0
 10
163.3262733107182
 20
210.967373291162
 30
0.0
 10
163.2839406815183
 20
211.0658127372191
 30
0.0
 10
163.2453482687767
 20
211.1697468746068
 30
0.0
 10
163.2121343030551
 20
211.2788314266785
 30
0.0
 10
163.184466904834
 20
211.3929493313969
 30
0.0
 10
163.1621420184016
 20
211.5115568966544
 30
0.0
 10
163.1431779228559
 20
211.6348814312643
 30
0.0
 10
163.1306822312296
 20
211.7631489343315
 30
0.0
 10
163.1237537432964
 20
211.8963416434103
 30
0.0
 10
163.1224709652734
 20
211.9866099124716
 30
0.0
 10
163.1218181818182
 20
212.0325458667182
 30
0.0
  0
SPLINE
  5
20C
330
1F
100
AcDbEntity
  8
0
  6
Continuous
 62
     7
370
    25
100
AcDbSpline
210
0.0
220
0.0
230
1.0
 70
     8
 71
     3
 72
    23
 73
    19
 74
     0
 42
0.000000001
 43
0.00000001
 40
0.0
 40
0.0
 40
0.0
 40
0.0
 40
0.0871129335663629
 40
0.1695750657123388
 40
0.2471254948848621
 40
0.320351933203372
 40
0.3899979855710987
 40
0.4559088171547084
 40
0.5190233411238224
 40
0.5798445404000919
 40
0.6380622781156956
 40
0.6933405345429061
 40
0.7460800388808004
 40
0.7971995082749458
 40
0.8473425891371634
 40
0.8973371953428841
 40
0.9479010371482659
 40
1.0
 40
1.0
 40
1.0
 40
1.0
 10
165.5763636363637
 20
212.0751595030818
 30
0.0
 10
165.5752575204449
 20
212.0033971284634
 30
0.0
 10
165.5731043421286
 20
211.8637036421646
 30
0.0
 10
165.5569148471469
 20
211.6606126270281
 30
0.0
 10
165.5293054572462
 20
211.4703580425258
 30
0.0
 10
165.4913546754163
 20
211.292624526732
 30
0.0
 10
165.4418187613071
 20
211.1277299305146
 30
0.0
 10
165.3816177205536
 20
210.9752952337469
 30
0.0
 10
165.3096552800973
 20
210.8361582758829
 30
0.0
 10
165.2275248301935
 20
210.710227590064
 30
0.0
 10
165.1362499973901
 20
210.599110167496
 30
0.0
 10
165.0406952950702
 20
210.5007182945477
 30
0.0
 10
164.9383363848933
 20
210.4182299348135
 30
0.0
 10
164.830334439748
 20
210.3512241172216
 30
0.0
 10
164.7174855064846
 20
210.2974813907021
 30
0.0
 10
164.5984710155507
 20
210.2611791885241
 30
0.0
 10
164.4745961014759
 20
210.2370173708742
 30
0.0
 10
164.3899275361611
 20
210.23471074392
 30
0.0
 10
164.3469602272727
 20
210.2335401849001
 30
0.0
  0
SPLINE
  5
20D
330
1F
100
AcDbEntity
  8
0
  6
Continuous
 62
     7
370
    25
100
AcDbSpline
210
0.0
220
0.0
230
1.0
 70
     8
 71
     3
 72
    15
 73
    11
 74
     0
 42
0.000000001
 43
0.00000001
 40
0.0
 40
0.0
 40
0.0
 40
0.0
 40
0.1174320155698719
 40
0.2349305867975016
 40
0.3547353147139727
 40
0.4764229971975784
 40
0.6014157797204314
 40
0.7299590806802131
 40
0.862674678805605
 40
0.9999999999999999
 40
0.9999999999999999
 40
0.9999999999999999
 40
0.9999999999999999
 10
165.2624431818182
 20
213.2754435939909
 30
0.0
 10
165.2878213917734
 20
213.2332430857608
 30
0.0
 10
165.3385921950139
 20
213.1488181517805
 30
0.0
 10
165.4015297805461
 20
213.0138501322037
 30
0.0
 10
165.4553275185642
 20
212.8732668413868
 30
0.0
 10
165.500684523318
 20
212.726361954447
 30
0.0
 10
165.5343912596217
 20
212.5725872127858
 30
0.0
 10
165.5581646943086
 20
212.4123922195685
 30
0.0
 10
165.5736811262063
 20
212.2459181521616
 30
0.0
 10
165.575459347956
 20
212.1327231497453
 30
0.0
 10
165.5763636363637
 20
212.0751595030818
 30
0.0
  0
LINE
  5
20E
330
1F
100
AcDbEntity
  8
0
  6
Continuous
 62
     7
370
    25
100
AcDbLine
 10
159.7404261364
 20
212.7335401849
 30
0.0
 11
160.0152840909
 21
213.7789947304
 31
0.0
  0
LINE
  5
20F
330
1F
100
AcDbEntity
  8
0
  6
Continuous
 62
     7
370
    25
100
AcDbLine
 10
158.6395738636
 20
212.7335401849
 30
0.0
 11
159.7404261364
 21
212.7335401849
 31
0.0
  0
LINE
  5
210
330
1F
100
AcDbEntity
  8
0
  6
Continuous
 62
     7
370
    25
100
AcDbLine
 10
158.3640056818
 20
213.7789947304
 30
0.0
 11
158.6395738636
 21
212.7335401849
 31
0.0
  0
LINE
  5
211
330
1F
100
AcDbEntity
  8
0
  6
Continuous
 62
     7
370
    25
100
AcDbLine
 10
158.0309090909
 20
213.7789947304
 30
0.0
 11
158.3640056818
 21
213.7789947304
 31
0.0
  0
LINE
  5
212
330
1F
100
AcDbEntity
  8
0
  6
Continuous
 62
     7
370
    25
100
AcDbLine
 10
159.0465340909
 20
210.2789947304
 30
0.0
 11
158.0309090909
 21
213.7789947304
 31
0.0
  0
LINE
  5
213
330
1F
100
AcDbEntity
  8
0
  6
Continuous
 62
     7
370
    25
100
AcDbLine
 10
159.3810511364
 20
210.2789947304
 30
0.0
 11
159.0465340909
 21
210.2789947304
 31
0.0
  0
LINE
  5
214
330
1F
100
AcDbEntity
  8
0
  6
Continuous
 62
     7
370
    25
100
AcDbLine
 10
160.3490909091
 20
213.7789947304
 30
0.0
 11
159.3810511364
 21
210.2789947304
 31
0.0
  0
LINE
  5
215
330
1F
100
AcDbEntity
  8
0
  6
Continuous
 62
     7
370
    25
100
AcDbLine
 10
160.0152840909
 20
213.7789947304
 30
0.0
 11
160.3490909091
 21
213.7789947304
 31
0.0
  0
LINE
  5
216
330
1F
100
AcDbEntity
  8
0
  6
Continuous
 62
     7
370
    25
100
AcDbLine
 10
154.4854545455
 20
213.2789947304
 30
0.0
 11
154.4854545455
 21
213.7789947304
 31
0.0
  0
LINE
  5
217
330
1F
100
AcDbEntity
  8
0
  6
Continuous
 62
     7
370
    25
100
AcDbLine
 10
154.8036363636
 20
213.2789947304
 30
0.0
 11
154.4854545455
 21
213.2789947304
 31
0.0
  0
LINE
  5
218
330
1F
100
AcDbEntity
  8
0
  6
Continuous
 62
     7
370
    25
100
AcDbLine
 10
154.8036363636
 20
213.7789947304
 30
0.0
 11
154.8036363636
 21
213.2789947304
 31
0.0
  0
LINE
  5
219
330
1F
100
AcDbEntity
  8
0
  6
Continuous
 62
     7
370
    25
100
AcDbLine
 10
154.4854545455
 20
213.7789947304
 30
0.0
 11
154.8036363636
 21
213.7789947304
 31
0.0
  0
LINE
  5
21A
330
1F
100
AcDbEntity
  8
0
  6
Continuous
 62
     7
370
    25
100
AcDbLine
 10
152.3036363636
 20
213.2789947304
 30
0.0
 11
152.3036363636
 21
213.7789947304
 31
0.0
  0
LINE
  5
21B
330
1F
100
AcDbEntity
  8
0
  6
Continuous
 62
     7
370
    25
100
AcDbLine
 10
152.6218181818
 20
213.2789947304
 30
0.0
 11
152.3036363636
 21
213.2789947304
 31
0.0
  0
LINE
  5
21C
330
1F
100
AcDbEntity
  8
0
  6
Continuous
 62
     7
370
    25
100
AcDbLine
 10
152.6218181818
 20
213.7789947304
 30
0.0
 11
152.6218181818
 21
213.2789947304
 31
0.0
  0
LINE
  5
21D
330
1F
100
AcDbEntity
  8
0
  6
Continuous
 62
     7
370
    25
100
AcDbLine
 10
152.3036363636
 20
213.7789947304
 30
0.0
 11
152.6218181818
 21
213.7789947304
 31
0.0
  0
SPLINE
  5
21E
330
1F
100
AcDbEntity
  8
0
  6
Continuous
 62
     7
370
    25
100
AcDbSpline
210
0.0
220
0.0
230
1.0
 70
     8
 71
     3
 72
    23
 73
    19
 74
     0
 42
0.000000001
 43
0.00000001
 40
0.0
 40
0.0
 40
0.0
 40
0.0
 40
0.0848796314697548
 40
0.1619397066732114
 40
0.2312102305654509
 40
0.2932914147883929
 40
0.3471249254879922
 40
0.3936264181688776
 40
0.4324011008917226
 40
0.4640970294341338
 40
0.5205483819505613
 40
0.5786113586040899
 40
0.6391667976871437
 40
0.70300674053522
 40
0.7704894571118593
 40
0.842224747123592
 40
0.9183328229940649
 40
1.0
 40
1.0
 40
1.0
 40
1.0
 10
156.0195454545455
 20
212.2179151849
 30
0.0
 10
155.9880205990084
 20
212.228456113467
 30
0.0
 10
155.9278751227593
 20
212.2485668850462
 30
0.0
 10
155.842596339096
 20
212.2790338270069
 30
0.0
 10
155.7664181646958
 20
212.3083193199691
 30
0.0
 10
155.6991012948693
 20
212.3353800488019
 30
0.0
 10
155.6414722989524
 20
212.3622794459864
 30
0.0
 10
155.5920788188079
 20
212.3854055066099
 30
0.0
 10
155.5529567964978
 20
212.4093234121121
 30
0.0
 10
155.511733619683
 20
212.4372161670807
 30
0.0
 10
155.4704254476402
 20
212.4774039042044
 30
0.0
 10
155.4277546060246
 20
212.5311698573913
 30
0.0
 10
155.389603010761
 20
212.5918336842321
 30
0.0
 10
155.3586905908135
 20
212.6605312850475
 30
0.0
 10
155.333678690761
 20
212.7361724841942
 30
0.0
 10
155.316332549502
 20
212.8188343347724
 30
0.0
 10
155.3054668789387
 20
212.9082031690406
 30
0.0
 10
155.3042607016758
 20
212.9700125159131
 30
0.0
 10
155.3036363636364
 20
213.002006093991
 30
0.0
  0
SPLINE
  5
21F
330
1F
100
AcDbEntity
  8
0
  6
Continuous
 62
     7
370
    25
100
AcDbSpline
210
0.0
220
0.0
230
1.0
 70
     8
 71
     3
 72
    23
 73
    19
 74
     0
 42
0.000000001
 43
0.00000001
 40
0.0
 40
0.0
 40
0.0
 40
0.0
 40
0.0654269295587578
 40
0.1277715422625292
 40
0.1876132577745473
 40
0.2459820182855675
 40
0.3035615681224861
 40
0.360942119255933
 40
0.4184609369781223
 40
0.4773661465012354
 40
0.5371866198896648
 40
0.5974410600249312
 40
0.6585814788279104
 40
0.7215687515434951
 40
0.786776779980817
 40
0.8543149312294026
 40
0.9253587099779004
 40
0.9999999999999999
 40
0.9999999999999999
 40
0.9999999999999999
 40
0.9999999999999999
 10
174.5678409090909
 20
213.8244492758091
 30
0.0
 10
174.6067169561819
 20
213.8235441998107
 30
0.0
 10
174.6826375675781
 20
213.821776686694
 30
0.0
 10
174.7932706888854
 20
213.8065458279032
 30
0.0
 10
174.8977936968669
 20
213.7817864315421
 30
0.0
 10
174.9963678241037
 20
213.7467740549689
 30
0.0
 10
175.0894183248148
 20
213.7021467114981
 30
0.0
 10
175.1755076755923
 20
213.6461598817248
 30
0.0
 10
175.255807312041
 20
213.5809906477486
 30
0.0
 10
175.3295043698925
 20
213.5063514364132
 30
0.0
 10
175.3961539922408
 20
213.4233161225106
 30
0.0
 10
175.4548377208736
 20
213.3328177240364
 30
0.0
 10
175.5036549413571
 20
213.2345825663355
 30
0.0
 10
175.5451315318139
 20
213.1298989695824
 30
0.0
 10
175.5774976141703
 20
213.0180756313801
 30
0.0
 10
175.6019141847586
 20
212.8993891647879
 30
0.0
 10
175.6164934788627
 20
212.7734143442082
 30
0.0
 10
175.6200143000686
 20
212.6869373248159
 30
0.0
 10
175.6218181818182
 20
212.6426310939909
 30
0.0
  0
SPLINE
  5
220
330
1F
100
AcDbEntity
  8
0
  6
Continuous
 62
     7
370
    25
100
AcDbSpline
210
0.0
220
0.0
230
1.0
 70
     8
 71
     3
 72
    15
 73
    11
 74
     0
 42
0.000000001
 43
0.00000001
 40
0.0
 40
0.0
 40
0.0
 40
0.0
 40
0.137631948103129
 40
0.2699093307690262
 40
0.3973560729775332
 40
0.5229561724864144
 40
0.6459932020845038
 40
0.764917887213427
 40
0.8818553540181845
 40
1.0
 40
1.0
 40
1.0
 40
1.0
 10
166.0309090909091
 20
211.1589663212636
 30
0.0
 10
166.0319327954263
 20
211.1976267829454
 30
0.0
 10
166.0339403772772
 20
211.2734436225932
 30
0.0
 10
166.0516773541783
 20
211.3838463646058
 30
0.0
 10
166.0788487465744
 20
211.4887902662271
 30
0.0
 10
166.1191740449941
 20
211.5866391037912
 30
0.0
 10
166.1681969448705
 20
211.6777356806746
 30
0.0
 10
166.2279874774327
 20
211.75909789448
 30
0.0
 10
166.2955481037454
 20
211.832560216469
 30
0.0
 10
166.3481986392596
 20
211.8725390358938
 30
0.0
 10
166.3746590909091
 20
211.8926310939909
 30
0.0
  0
SPLINE
  5
221
330
1F
100
AcDbEntity
  8
0
  6
Continuous
 62
     7
370
    25
100
AcDbSpline
210
0.0
220
0.0
230
1.0
 70
     8
 71
     3
 72
    15
 73
    11
 74
     0
 42
0.000000001
 43
0.00000001
 40
0.0
 40
0.0
 40
0.0
 40
0.0
 40
0.1358591900611207
 40
0.2658381844998451
 40
0.3936804328607577
 40
0.5207812248526659
 40
0.6453735379026104
 40
0.7646193444758987
 40
0.8816097600038513
 40
1.0
 40
1.0
 40
1.0
 40
1.0
 10
168.8022159090909
 20
211.2306992758091
 30
0.0
 10
168.820386007385
 20
211.1876846747139
 30
0.0
 10
168.8559397740496
 20
211.1035172109083
 30
0.0
 10
168.9297311367119
 20
210.9897208040581
 30
0.0
 10
169.0139572137966
 20
210.887498142442
 30
0.0
 10
169.1123092296163
 20
210.801441428861
 30
0.0
 10
169.2185857612246
 20
210.7304518470088
 30
0.0
 10
169.3324095346996
 20
210.6806753844128
 30
0.0
 10
169.4504932697347
 20
210.6479551316202
 30
0.0
 10
169.5314055415029
 20
210.6444127953707
 30
0.0
 10
169.5721022727273
 20
210.642631093991
 30
0.0
  0
SPLINE
  5
222
330
1F
100
AcDbEntity
  8
0
  6
Continuous
 62
     7
370
    25
100
AcDbSpline
210
0.0
220
0.0
230
1.0
 70
     8
 71
     3
 72
    11
 73
     7
 74
     0
 42
0.000000001
 43
0.00000001
 40
0.0
 40
0.0
 40
0.0
 40
0.0
 40
0.266916864786617
 40
0.5215207175380596
 40
0.7647891370300757
 40
1.0
 40
1.0
 40
1.0
 40
1.0
 10
168.6672727272728
 20
212.0218924576273
 30
0.0
 10
168.6687881512597
 20
211.9500678425667
 30
0.0
 10
168.6717490919469
 20
211.8097319188204
 30
0.0
 10
168.698352842364
 20
211.6054743834401
 30
0.0
 10
168.7385855872364
 20
211.4120012369092
 30
0.0
 10
168.7812452637622
 20
211.2904509635709
 30
0.0
 10
168.8022159090909
 20
211.2306992758091
 30
0.0
  0
SPLINE
  5
223
330
1F
100
AcDbEntity
  8
0
  6
Continuous
 62
     7
370
    25
100
AcDbSpline
210
0.0
220
0.0
230
1.0
 70
     8
 71
     3
 72
    23
 73
    19
 74
     0
 42
0.000000001
 43
0.00000001
 40
0.0
 40
0.0
 40
0.0
 40
0.0
 40
0.0509180019820862
 40
0.1006167904141337
 40
0.1499276525903502
 40
0.1991718333808552
 40
0.2495259930923005
 40
0.3014493889625802
 40
0.3560342047157338
 40
0.4136288738645705
 40
0.4738344013366614
 40
0.5365596415325549
 40
0.6027689603453955
 40
0.6729018153132624
 40
0.7471021992056438
 40
0.826223233692779
 40
0.9105471764055557
 40
1.0
 40
1.0
 40
1.0
 40
1.0
 10
169.5784943181818
 20
213.4153583667182
 30
0.0
 10
169.5469403012343
 20
213.4142302047478
 30
0.0
 10
169.4845878171158
 20
213.4120008942463
 30
0.0
 10
169.3928515709896
 20
213.3953120500186
 30
0.0
 10
169.3051750108694
 20
213.3673544736399
 30
0.0
 10
169.2209221194436
 20
213.329016284082
 30
0.0
 10
169.1421630148279
 20
213.2774850740275
 30
0.0
 10
169.0660476446836
 20
213.2168312033535
 30
0.0
 10
168.9942767323711
 20
213.1445247671492
 30
0.0
 10
168.926834826107
 20
213.0614998937756
 30
0.0
 10
168.8657624849748
 20
212.9675526322308
 30
0.0
 10
168.8123736009035
 20
212.8630364620463
 30
0.0
 10
168.7669003521873
 20
212.7482090306813
 30
0.0
 10
168.730257859161
 20
212.6228542450442
 30
0.0
 10
168.7021734904112
 20
212.4871852125545
 30
0.0
 10
168.6816540742256
 20
212.3413083493306
 30
0.0
 10
168.6697526112911
 20
212.1849696620766
 30
0.0
 10
168.6681154616618
 20
212.0773106817233
 30
0.0
 10
168.6672727272728
 20
212.0218924576273
 30
0.0
  0
SPLINE
  5
224
330
1F
100
AcDbEntity
  8
0
  6
Continuous
 62
     7
370
    25
100
AcDbSpline
210
0.0
220
0.0
230
1.0
 70
     8
 71
     3
 72
    23
 73
    19
 74
     0
 42
0.000000001
 43
0.00000001
 40
0.0
 40
0.0
 40
0.0
 40
0.0
 40
0.0510700504509139
 40
0.1005660900124698
 40
0.1488296696138369
 40
0.1976155264965224
 40
0.2465699945136573
 40
0.2971331471789168
 40
0.3497617125489744
 40
0.4053241194824198
 40
0.4637501237503584
 40
0.5256608702399913
 40
0.5916042736391877
 40
0.6623011091677773
 40
0.7382031055661143
 40
0.8196269972046535
 40
0.906566137671779
 40
1.0
 40
1.0
 40
1.0
 40
1.0
 10
169.5721022727273
 20
210.642631093991
 30
0.0
 10
169.6046088779095
 20
210.643732783044
 30
0.0
 10
169.6686202143757
 20
210.6459022064046
 30
0.0
 10
169.7620968891156
 20
210.6627520809658
 30
0.0
 10
169.8516372982686
 20
210.6896151173026
 30
0.0
 10
169.9359389148777
 20
210.7292590193618
 30
0.0
 10
170.016615972108
 20
210.7785777080021
 30
0.0
 10
170.0920105094105
 20
210.8396761371794
 30
0.0
 10
170.1634448774703
 20
210.9112939962107
 30
0.0
 10
170.230320578231
 20
210.9937907971769
 30
0.0
 10
170.2909903962729
 20
211.0880953556651
 30
0.0
 10
170.343570914415
 20
211.1945734877903
 30
0.0
 10
170.3872668056552
 20
211.3132899940932
 30
0.0
 10
170.4232330892399
 20
211.4437588182376
 30
0.0
 10
170.4515966671616
 20
211.586157553393
 30
0.0
 10
170.4707952828115
 20
211.7404527519372
 30
0.0
 10
170.4831115381328
 20
211.9066360293082
 30
0.0
 10
170.4846550175704
 20
212.0213955025547
 30
0.0
 10
170.4854545454546
 20
212.0808413212637
 30
0.0
  0
SPLINE
  5
225
330
1F
100
AcDbEntity
  8
0
  6
Continuous
 62
     7
370
    25
100
AcDbSpline
210
0.0
220
0.0
230
1.0
 70
     8
 71
     3
 72
    23
 73
    19
 74
     0
 42
0.000000001
 43
0.00000001
 40
0.0
 40
0.0
 40
0.0
 40
0.0
 40
0.0857830521953997
 40
0.1670694454186727
 40
0.2438012276375994
 40
0.3163671090895925
 40
0.3854844221054513
 40
0.4517504887817393
 40
0.5153949770372919
 40
0.5768805476262304
 40
0.6363810632650599
 40
0.6922654913508519
 40
0.745710408640008
 40
0.7972333055607409
 40
0.847795589241432
 40
0.8979127368709202
 40
0.948137263504926
 40
1.0
 40
1.0
 40
1.0
 40
1.0
 10
170.4854545454546
 20
212.0808413212637
 30
0.0
 10
170.4846147171998
 20
212.1322379489272
 30
0.0
 10
170.4829790836197
 20
212.2323370461309
 30
0.0
 10
170.4709506622763
 20
212.378019145703
 30
0.0
 10
170.4507146702599
 20
212.5147915075255
 30
0.0
 10
170.4214315932808
 20
212.642453392941
 30
0.0
 10
170.384790619293
 20
212.7616621423016
 30
0.0
 10
170.3394751659253
 20
212.8721629282317
 30
0.0
 10
170.2853584440526
 20
212.9734793449433
 30
0.0
 10
170.2234116469432
 20
213.0653672715827
 30
0.0
 10
170.1556026958121
 20
213.1469466363434
 30
0.0
 10
170.0845586168022
 20
213.2192498060239
 30
0.0
 10
170.0085005085705
 20
213.27873761945
 30
0.0
 10
169.9302131685908
 20
213.3296046243371
 30
0.0
 10
169.8472018922191
 20
213.3681548214126
 30
0.0
 10
169.760684651563
 20
213.3949964858807
 30
0.0
 10
169.6707846446828
 20
213.412121450795
 30
0.0
 10
169.6095851197151
 20
213.4142679132074
 30
0.0
 10
169.5784943181818
 20
213.4153583667182
 30
0.0
  0
SPLINE
  5
226
330
1F
100
AcDbEntity
  8
0
  6
Continuous
 62
     7
370
    25
100
AcDbSpline
210
0.0
220
0.0
230
1.0
 70
     8
 71
     3
 72
    23
 73
    19
 74
     0
 42
0.000000001
 43
0.00000001
 40
0.0
 40
0.0
 40
0.0
 40
0.0
 40
0.0939000732089475
 40
0.1817019718777174
 40
0.2636319288039774
 40
0.3405307205795952
 40
0.4123196216204676
 40
0.4793162932096568
 40
0.5420447274823751
 40
0.6019300876275353
 40
0.6582575692032175
 40
0.71129263274894
 40
0.7616435407157208
 40
0.8103808947028349
 40
0.8574842038333343
 40
0.9040030950564574
 40
0.9512626460128842
 40
1.0
 40
1.0
 40
1.0
 40
1.0
 10
150.3945454545454
 20
212.5048470030818
 30
0.0
 10
150.3951085387533
 20
212.466007810286
 30
0.0
 10
150.3961981386587
 20
212.3908517675274
 30
0.0
 10
150.4040357914405
 20
212.282026616273
 30
0.0
 10
150.416735604855
 20
212.1807745809077
 30
0.0
 10
150.4340036731572
 20
212.0868801577608
 30
0.0
 10
150.4574876091412
 20
212.0007088643742
 30
0.0
 10
150.4857602209035
 20
211.9222119370155
 30
0.0
 10
150.5190821472721
 20
211.8510418797061
 30
0.0
 10
150.5582469215429
 20
211.7880749194671
 30
0.0
 10
150.6007898301778
 20
211.7323279344791
 30
0.0
 10
150.6465767979787
 20
211.6845453300565
 30
0.0
 10
150.6943831095363
 20
211.643463194472
 30
0.0
 10
150.744848589052
 20
211.6098345879063
 30
0.0
 10
150.7979849896592
 20
211.5840500805934
 30
0.0
 10
150.8533141464442
 20
211.565419919696
 30
0.0
 10
150.9113170096002
 20
211.5534840708836
 30
0.0
 10
150.9510683554454
 20
211.5523153561887
 30
0.0
 10
150.97125
 20
211.5517220030818
 30
0.0
  0
SPLINE
  5
227
330
1F
100
AcDbEntity
  8
0
  6
Continuous
 62
     7
370
    25
100
AcDbSpline
210
0.0
220
0.0
230
1.0
 70
     8
 71
     3
 72
    23
 73
    19
 74
     0
 42
0.000000001
 43
0.00000001
 40
0.0
 40
0.0
 40
0.0
 40
0.0
 40
0.0463763493574501
 40
0.0913119611971417
 40
0.1366923441388065
 40
0.1830145260461642
 40
0.2308407070677061
 40
0.2812432292427614
 40
0.3348762673578873
 40
0.3919239229234037
 40
0.4521541540374943
 40
0.5160834673904653
 40
0.5838039861901099
 40
0.6563685107735778
 40
0.7340981345083638
 40
0.8169132812413274
 40
0.9056638115050191
 40
1.0
 40
1.0
 40
1.0
 40
1.0
 10
150.9542045454546
 20
213.4608129121727
 30
0.0
 10
150.9351967293312
 20
213.4602369413392
 30
0.0
 10
150.8977715979368
 20
213.4591028929044
 30
0.0
 10
150.8429380909237
 20
213.4468244373083
 30
0.0
 10
150.7899144596865
 20
213.4286455094018
 30
0.0
 10
150.7393251264439
 20
213.4017652664182
 30
0.0
 10
150.6904393933036
 20
213.3682017692143
 30
0.0
 10
150.6444288891364
 20
213.3262441303019
 30
0.0
 10
150.5993071136448
 20
213.2780661382703
 30
0.0
 10
150.5577324317456
 20
213.2216687141306
 30
0.0
 10
150.5189527793924
 20
213.1583321014122
 30
0.0
 10
150.4859108996529
 20
213.0869391906184
 30
0.0
 10
150.4574645330811
 20
213.0082850422557
 30
0.0
 10
150.4340105142525
 20
212.9221006135643
 30
0.0
 10
150.4167336328697
 20
212.8282100860833
 30
0.0
 10
150.4040361837492
 20
212.7269568968607
 30
0.0
 10
150.3962158294972
 20
212.6183683077153
 30
0.0
 10
150.3951134566902
 20
212.5434493207423
 30
0.0
 10
150.3945454545455
 20
212.5048470030818
 30
0.0
  0
SPLINE
  5
228
330
1F
100
AcDbEntity
  8
0
  6
Continuous
 62
     7
370
    25
100
AcDbSpline
210
0.0
220
0.0
230
1.0
 70
     8
 71
     3
 72
    23
 73
    19
 74
     0
 42
0.000000001
 43
0.00000001
 40
0.0
 40
0.0
 40
0.0
 40
0.0
 40
0.0942870310003996
 40
0.1824865538417556
 40
0.2648226075690481
 40
0.341570597488589
 40
0.4132187173900846
 40
0.4802813817548032
 40
0.5434033429972457
 40
0.6026860635697675
 40
0.6589030845182591
 40
0.7118588003809554
 40
0.7621109680398429
 40
0.8107527459681944
 40
0.8577636834725472
 40
0.9041913491383227
 40
0.951358222071647
 40
1.0
 40
1.0
 40
1.0
 40
1.0
 10
151.5309090909091
 20
212.5048470030818
 30
0.0
 10
151.5303476090007
 20
212.5439233066504
 30
0.0
 10
151.5292608964653
 20
212.6195530077816
 30
0.0
 10
151.5213972985372
 20
212.7290809412563
 30
0.0
 10
151.508809661536
 20
212.8308317310895
 30
0.0
 10
151.4913597865631
 20
212.9249107605011
 30
0.0
 10
151.4682353917633
 20
213.0113064473205
 30
0.0
 10
151.4385845972698
 20
213.0895897518486
 30
0.0
 10
151.4061073208736
 20
213.161246832996
 30
0.0
 10
151.3663206129482
 20
213.2239093649748
 30
0.0
 10
151.3236948890615
 20
213.2792540552294
 30
0.0
 10
151.2791280880402
 20
213.3282141783578
 30
0.0
 10
151.2310100778863
 20
213.3690132240198
 30
0.0
 10
151.1806215711389
 20
213.4027152139328
 30
0.0
 10
151.1274654931433
 20
213.4284809614602
 30
0.0
 10
151.0721414947432
 20
213.4471160401948
 30
0.0
 10
151.014137250045
 20
213.4590505718897
 30
0.0
 10
150.9743860937667
 20
213.4602194673114
 30
0.0
 10
150.9542045454546
 20
213.4608129121727
 30
0.0
  0
SPLINE
  5
229
330
1F
100
AcDbEntity
  8
0
  6
Continuous
 62
     7
370
    25
100
AcDbSpline
210
0.0
220
0.0
230
1.0
 70
     8
 71
     3
 72
    23
 73
    19
 74
     0
 42
0.000000001
 43
0.00000001
 40
0.0
 40
0.0
 40
0.0
 40
0.0
 40
0.0464338675617924
 40
0.091992234095731
 40
0.1379758408203245
 40
0.184355473750918
 40
0.2319139838421257
 40
0.2823790176768955
 40
0.3356865669521327
 40
0.3923418977363426
 40
0.4526468293128257
 40
0.51613163520545
 40
0.5839361442866167
 40
0.6564403988768442
 40
0.7338080119846788
 40
0.8167258700909715
 40
0.9055468111752839
 40
1.0
 40
1.0
 40
1.0
 40
1.0
 10
150.97125
 20
211.5517220030818
 30
0.0
 10
150.990257007767
 20
211.5523101866897
 30
0.0
 10
151.0279126500768
 20
211.5534754638242
 30
0.0
 10
151.0831968910407
 20
211.565740619168
 30
0.0
 10
151.1368119862735
 20
211.5836821982715
 30
0.0
 10
151.1873216435023
 20
211.6108807500566
 30
0.0
 10
151.236628775667
 20
211.6435507465424
 30
0.0
 10
151.2824512521398
 20
211.6853853075327
 30
0.0
 10
151.3265734872654
 20
211.73395245409
 30
0.0
 10
151.3687268113223
 20
211.7894597638482
 30
0.0
 10
151.4069779255443
 20
211.8526764829713
 30
0.0
 10
151.4403860699689
 20
211.9236188572229
 30
0.0
 10
151.4689288956978
 20
212.0020076724107
 30
0.0
 10
151.4908993360276
 20
212.0882988771818
 30
0.0
 10
151.5097988283671
 20
212.1815913843367
 30
0.0
 10
151.5222424935512
 20
212.2827292816652
 30
0.0
 10
151.5290121074104
 20
212.3913530011593
 30
0.0
 10
151.5302639396096
 20
212.4662484581388
 30
0.0
 10
151.5309090909091
 20
212.5048470030818
 30
0.0
  0
LINE
  5
22A
330
1F
100
AcDbEntity
  8
0
  6
Continuous
 62
     7
370
    25
100
AcDbLine
 10
166.9485227273
 20
212.142631094
 30
0.0
 11
167.5763636364
 21
212.142631094
 31
0.0
  0
SPLINE
  5
22B
330
1F
100
AcDbEntity
  8
0
  6
Continuous
 62
     7
370
    25
100
AcDbSpline
210
0.0
220
0.0
230
1.0
 70
     8
 71
     3
 72
    19
 73
    15
 74
     0
 42
0.000000001
 43
0.00000001
 40
0.0
 40
0.0
 40
0.0
 40
0.0
 40
0.0915283846851323
 40
0.1766505977910763
 40
0.25666416060453
 40
0.3328120607590833
 40
0.4057346604470967
 40
0.474778231707628
 40
0.542444342237739
 40
0.6100709666077718
 40
0.6844173621205095
 40
0.773797454076039
 40
0.8784999863466296
 40
1.0
 40
1.0
 40
1.0
 40
1.0
 10
166.2581818181818
 20
212.7541367758091
 30
0.0
 10
166.2591327882383
 20
212.7216516308901
 30
0.0
 10
166.2609681689187
 20
212.6589550118138
 30
0.0
 10
166.2751014713717
 20
212.5686951586122
 30
0.0
 10
166.299249310841
 20
212.4863097202667
 30
0.0
 10
166.3326225722395
 20
212.41189544543
 30
0.0
 10
166.3744569222738
 20
212.3464247139912
 30
0.0
 10
166.423556515686
 20
212.2902491576996
 30
0.0
 10
166.4784833725647
 20
212.2424577293
 30
0.0
 10
166.5427567858861
 20
212.2042360192422
 30
0.0
 10
166.619906644833
 20
212.1749872908439
 30
0.0
 10
166.7136567567927
 20
212.156673344917
 30
0.0
 10
166.8251066975517
 20
212.1447073230777
 30
0.0
 10
166.9053966446969
 20
212.143356604504
 30
0.0
 10
166.9485227272727
 20
212.1426310939909
 30
0.0
  0
SPLINE
  5
22C
330
1F
100
AcDbEntity
  8
0
  6
Continuous
 62
     7
370
    25
100
AcDbSpline
210
0.0
220
0.0
230
1.0
 70
     8
 71
     3
 72
    11
 73
     7
 74
     0
 42
0.000000001
 43
0.00000001
 40
0.0
 40
0.0
 40
0.0
 40
0.0
 40
0.3124900160920083
 40
0.5812578930334278
 40
0.8104818180009542
 40
1.0
 40
1.0
 40
1.0
 40
1.0
 10
166.9016477272727
 20
213.3699038212637
 30
0.0
 10
166.8668280494716
 20
213.3693645932552
 30
0.0
 10
166.8020605000697
 20
213.3683615834952
 30
0.0
 10
166.7120196761686
 20
213.3610617484569
 30
0.0
 10
166.63625262422
 20
213.3479724828871
 30
0.0
 10
166.5920898639116
 20
213.3327563766688
 30
0.0
 10
166.5721022727273
 20
213.3258697303546
 30
0.0
  0
LINE
  5
22D
330
1F
100
AcDbEntity
  8
0
  6
Continuous
 62
     7
370
    25
100
AcDbLine
 10
167.5763636364
 20
213.3699038213
 30
0.0
 11
166.9016477273
 21
213.3699038213
 31
0.0
  0
LINE
  5
22E
330
1F
100
AcDbEntity
  8
0
  6
Continuous
 62
     7
370
    25
100
AcDbLine
 10
167.5763636364
 20
212.142631094
 30
0.0
 11
167.5763636364
 21
213.3699038213
 31
0.0
  0
SPLINE
  5
22F
330
1F
100
AcDbEntity
  8
0
  6
Continuous
 62
     7
370
    25
100
AcDbSpline
210
0.0
220
0.0
230
1.0
 70
     8
 71
     3
 72
    15
 73
    11
 74
     0
 42
0.000000001
 43
0.00000001
 40
0.0
 40
0.0
 40
0.0
 40
0.0
 40
0.1170149010310911
 40
0.2294406109021508
 40
0.3422188405735007
 40
0.4587237923636717
 40
0.579935012105845
 40
0.7099406575914694
 40
0.8485672211185685
 40
1.0
 40
1.0
 40
1.0
 40
1.0
 10
166.5721022727273
 20
213.3258697303546
 30
0.0
 10
166.5474466233913
 20
213.3144378564841
 30
0.0
 10
166.499102291208
 20
213.2920224538177
 30
0.0
 10
166.4357329613828
 20
213.2434719418482
 30
0.0
 10
166.3807434339155
 20
213.1861105923187
 30
0.0
 10
166.3359573777528
 20
213.1178509554724
 30
0.0
 10
166.3010692999553
 20
213.0398324229627
 30
0.0
 10
166.2756321418141
 20
212.9529228222372
 30
0.0
 10
166.2607316827462
 20
212.856445901744
 30
0.0
 10
166.2590564273949
 20
212.7892290334014
 30
0.0
 10
166.2581818181818
 20
212.7541367758091
 30
0.0
  0
LINE
  5
230
330
1F
100
AcDbEntity
  8
0
  6
Continuous
 62
     7
370
    25
100
AcDbLine
 10
167.0223863636
 20
210.6880856394
 30
0.0
 11
167.5763636364
 21
210.6880856394
 31
0.0
  0
SPLINE
  5
231
330
1F
100
AcDbEntity
  8
0
  6
Continuous
 62
     7
370
    25
100
AcDbSpline
210
0.0
220
0.0
230
1.0
 70
     8
 71
     3
 72
    23
 73
    19
 74
     0
 42
0.000000001
 43
0.00000001
 40
0.0
 40
0.0
 40
0.0
 40
0.0
 40
0.0895178427956147
 40
0.1715344284982311
 40
0.2483478135858504
 40
0.3210588788121112
 40
0.3895543666070057
 40
0.453855525687233
 40
0.5165948010499235
 40
0.5781714246136648
 40
0.6118333134916898
 40
0.6507350923846008
 40
0.6954208184408694
 40
0.7448017883141285
 40
0.8004452515257786
 40
0.8608701913016518
 40
0.9276117187282887
 40
1.0
 40
1.0
 40
1.0
 40
1.0
 10
166.3490909090909
 20
211.2164947303546
 30
0.0
 10
166.3497264729322
 20
211.1865971471933
 30
0.0
 10
166.3509443427654
 20
211.1293072854085
 30
0.0
 10
166.3652252283665
 20
211.0474480179725
 30
0.0
 10
166.3857680455144
 20
210.9728081373229
 30
0.0
 10
166.4162795201401
 20
210.9063438507418
 30
0.0
 10
166.4550499602533
 20
210.8495489205626
 30
0.0
 10
166.4986040026695
 20
210.8005877109098
 30
0.0
 10
166.5488314679762
 20
210.76219917619
 30
0.0
 10
166.5956106061214
 20
210.7370674704365
 30
0.0
 10
166.6383508425841
 20
210.7235917124641
 30
0.0
 10
166.6760971593399
 20
210.7132328055057
 30
0.0
 10
166.7199312539641
 20
210.7060403282174
 30
0.0
 10
166.7694653500246
 20
210.6997565283464
 30
0.0
 10
166.824360038357
 20
210.6938105669686
 30
0.0
 10
166.8852814968182
 20
210.6906348886182
 30
0.0
 10
166.9518201868656
 20
210.6884328024566
 30
0.0
 10
166.9982363523864
 20
210.6882044497737
 30
0.0
 10
167.0223863636364
 20
210.6880856394455
 30
0.0
  0
SPLINE
  5
232
330
1F
100
AcDbEntity
  8
0
  6
Continuous
 62
     7
370
    25
100
AcDbSpline
210
0.0
220
0.0
230
1.0
 70
     8
 71
     3
 72
    15
 73
    11
 74
     0
 42
0.000000001
 43
0.00000001
 40
0.0
 40
0.0
 40
0.0
 40
0.0
 40
0.1187245559887875
 40
0.2331742428431078
 40
0.3451302772580698
 40
0.4585783656324808
 40
0.5755493760739353
 40
0.7038163917799697
 40
0.844055493014582
 40
1.0
 40
1.0
 40
1.0
 40
1.0
 10
166.6452556818182
 20
211.7001595030819
 30
0.0
 10
166.6226134602397
 20
211.6914807286854
 30
0.0
 10
166.5781442867913
 20
211.6744356731631
 30
0.0
 10
166.5189767798317
 20
211.63565979046
 30
0.0
 10
166.4665655966448
 20
211.5900090735367
 30
0.0
 10
166.4236992500011
 20
211.5344414119169
 30
0.0
 10
166.3894191580652
 20
211.4695040067006
 30
0.0
 10
166.3658169912326
 20
211.3942374830133
 30
0.0
 10
166.3517225185148
 20
211.3086397346764
 30
0.0
 10
166.3499985833106
 20
211.2482766673474
 30
0.0
 10
166.3490909090909
 20
211.2164947303546
 30
0.0
  0
LINE
  5
233
330
1F
100
AcDbEntity
  8
0
  6
Continuous
 62
     7
370
    25
100
AcDbLine
 10
167.5763636364
 20
211.7335401849
 30
0.0
 11
166.9790625
 21
211.7335401849
 31
0.0
  0
LINE
  5
234
330
1F
100
AcDbEntity
  8
0
  6
Continuous
 62
     7
370
    25
100
AcDbLine
 10
167.5763636364
 20
210.6880856394
 30
0.0
 11
167.5763636364
 21
211.7335401849
 31
0.0
  0
SPLINE
  5
235
330
1F
100
AcDbEntity
  8
0
  6
Continuous
 62
     7
370
    25
100
AcDbSpline
210
0.0
220
0.0
230
1.0
 70
     8
 71
     3
 72
    11
 73
     7
 74
     0
 42
0.000000001
 43
0.00000001
 40
0.0
 40
0.0
 40
0.0
 40
0.0
 40
0.3229082780190941
 40
0.5957736263814191
 40
0.8213872836918699
 40
1.0
 40
1.0
 40
1.0
 40
1.0
 10
166.9790625
 20
211.7335401849001
 30
0.0
 10
166.9428169944857
 20
211.7332679310691
 30
0.0
 10
166.8759431552868
 20
211.7327656161296
 30
0.0
 10
166.7840815553934
 20
211.7259065625736
 30
0.0
 10
166.7082730031068
 20
211.7180107104101
 30
0.0
 10
166.6645675212681
 20
211.7056300569369
 30
0.0
 10
166.6452556818182
 20
211.7001595030819
 30
0.0
  0
SPLINE
  5
236
330
1F
100
AcDbEntity
  8
0
  6
Continuous
 62
     7
370
    25
100
AcDbSpline
210
0.0
220
0.0
230
1.0
 70
     8
 71
     3
 72
     9
 73
     5
 74
     0
 42
0.000000001
 43
0.00000001
 40
0.0
 40
0.0
 40
0.0
 40
0.0
 40
0.4981500763365856
 40
1.0
 40
1.0
 40
1.0
 40
1.0
 10
159.19
 20
210.6433413212637
 30
0.0
 10
159.2091156322242
 20
210.7545158235736
 30
0.0
 10
159.2474888718004
 20
210.9776905405736
 30
0.0
 10
159.3066279009284
 20
211.1962828386268
 30
0.0
 10
159.3363068181818
 20
211.3059833667182
 30
0.0
  0
SPLINE
  5
237
330
1F
100
AcDbEntity
  8
0
  6
Continuous
 62
     7
370
    25
100
AcDbSpline
210
0.0
220
0.0
230
1.0
 70
     8
 71
     3
 72
    15
 73
    11
 74
     0
 42
0.000000001
 43
0.00000001
 40
0.0
 40
0.0
 40
0.0
 40
0.0
 40
0.1510411693611118
 40
0.2946121881085175
 40
0.4302855204201264
 40
0.559677198219813
 40
0.6809401468628592
 40
0.7940822557068472
 40
0.9011932675821683
 40
1.0
 40
1.0
 40
1.0
 40
1.0
 10
159.0110227272727
 20
211.3628015485364
 30
0.0
 10
159.0211058839416
 20
211.3268542928881
 30
0.0
 10
159.0407735074234
 20
211.2567376505989
 30
0.0
 10
159.0671649728158
 20
211.1537045665914
 30
0.0
 10
159.0932888797653
 20
211.0561356598347
 30
0.0
 10
159.1164213319021
 20
210.9634876697253
 30
0.0
 10
159.1378698593539
 20
210.8761606788678
 30
0.0
 10
159.1569419110738
 20
210.7939308240057
 30
0.0
 10
159.1750389086085
 20
210.717164963259
 30
0.0
 10
159.1851488749124
 20
210.6672785937777
 30
0.0
 10
159.19
 20
210.6433413212637
 30
0.0
  0
LINE
  5
238
330
1F
100
AcDbEntity
  8
0
  6
Continuous
 62
     7
370
    25
100
AcDbLine
 10
158.7475284091
 20
212.3244492758
 30
0.0
 11
159.0110227273
 21
211.3628015485
 31
0.0
  0
LINE
  5
239
330
1F
100
AcDbEntity
  8
0
  6
Continuous
 62
     7
370
    25
100
AcDbLine
 10
159.6331818182
 20
212.3244492758
 30
0.0
 11
158.7475284091
 21
212.3244492758
 31
0.0
  0
LINE
  5
23A
330
1F
100
AcDbEntity
  8
0
  6
Continuous
 62
     7
370
    25
100
AcDbLine
 10
159.3363068182
 20
211.3059833667
 30
0.0
 11
159.6331818182
 21
212.3244492758
 31
0.0
  0
SPLINE
  5
23B
330
1F
100
AcDbEntity
  8
0
  6
Continuous
 62
     7
370
    25
100
AcDbSpline
210
0.0
220
0.0
230
1.0
 70
     8
 71
     3
 72
     9
 73
     5
 74
     0
 42
0.000000001
 43
0.00000001
 40
0.0
 40
0.0
 40
0.0
 40
0.0
 40
0.4981500763365856
 40
1.0
 40
1.0
 40
1.0
 40
1.0
 10
180.6445454545455
 20
210.6433413212637
 30
0.0
 10
180.6636610867696
 20
210.7545158235736
 30
0.0
 10
180.7020343263458
 20
210.9776905405736
 30
0.0
 10
180.7611733554738
 20
211.1962828386268
 30
0.0
 10
180.7908522727273
 20
211.3059833667182
 30
0.0
  0
LINE
  5
23C
330
1F
100
AcDbEntity
  8
0
  6
Continuous
 62
     7
370
    25
100
AcDbLine
 10
180.2020738636
 20
212.3244492758
 30
0.0
 11
180.4655681818
 21
211.3628015485
 31
0.0
  0
LINE
  5
23D
330
1F
100
AcDbEntity
  8
0
  6
Continuous
 62
     7
370
    25
100
AcDbLine
 10
181.0877272727
 20
212.3244492758
 30
0.0
 11
180.2020738636
 21
212.3244492758
 31
0.0
  0
LINE
  5
23E
330
1F
100
AcDbEntity
  8
0
  6
Continuous
 62
     7
370
    25
100
AcDbLine
 10
180.7908522727
 20
211.3059833667
 30
0.0
 11
181.0877272727
 21
212.3244492758
 31
0.0
  0
SPLINE
  5
23F
330
1F
100
AcDbEntity
  8
0
  6
Continuous
 62
     7
370
    25
100
AcDbSpline
210
0.0
220
0.0
230
1.0
 70
     8
 71
     3
 72
    15
 73
    11
 74
     0
 42
0.000000001
 43
0.00000001
 40
0.0
 40
0.0
 40
0.0
 40
0.0
 40
0.1510411693611118
 40
0.2946121881085175
 40
0.4302855204201264
 40
0.559677198219813
 40
0.6809401468628592
 40
0.7940822557068472
 40
0.9011932675821683
 40
1.0
 40
1.0
 40
1.0
 40
1.0
 10
180.4655681818182
 20
211.3628015485364
 30
0.0
 10
180.475651338487
 20
211.3268542928881
 30
0.0
 10
180.4953189619688
 20
211.2567376505989
 30
0.0
 10
180.5217104273613
 20
211.1537045665914
 30
0.0
 10
180.5478343343108
 20
211.0561356598347
 30
0.0
 10
180.5709667864475
 20
210.9634876697253
 30
0.0
 10
180.5924153138993
 20
210.8761606788678
 30
0.0
 10
180.6114873656193
 20
210.7939308240057
 30
0.0
 10
180.629584363154
 20
210.717164963259
 30
0.0
 10
180.6396943294578
 20
210.6672785937777
 30
0.0
 10
180.6445454545455
 20
210.6433413212637
 30
0.0
  0
LINE
  5
240
330
1F
100
AcDbEntity
  8
0
  6
Continuous
 62
     7
370
    25
100
AcDbLine
 10
185.94
 20
208.7789947304
 30
0.0
 11
147.94
 21
208.7789947304
 31
0.0
  0
LINE
  5
241
330
1F
100
AcDbEntity
  8
0
  6
Continuous
 62
     7
370
    25
100
AcDbLine
 10
147.94
 20
208.7789947304
 30
0.0
 11
147.94
 21
209.2789947304
 31
0.0
  0
LINE
  5
242
330
1F
100
AcDbEntity
  8
0
  6
Continuous
 62
     7
370
    25
100
AcDbLine
 10
185.94
 20
209.2789947304
 30
0.0
 11
185.94
 21
208.7789947304
 31
0.0
  0
LINE
  5
243
330
1F
100
AcDbEntity
  8
0
  6
Continuous
 62
     7
370
    25
100
AcDbLine
 10
147.94
 20
253.7789947304
 30
0.0
 11
185.94
 21
253.7789947304
 31
0.0
  0
LINE
  5
244
330
1F
100
AcDbEntity
  8
0
  6
Continuous
 62
     7
370
    25
100
AcDbLine
 10
147.94
 20
253.2789947304
 30
0.0
 11
147.94
 21
253.7789947304
 31
0.0
  0
LINE
  5
245
330
1F
100
AcDbEntity
  8
0
  6
Continuous
 62
     7
370
    25
100
AcDbLine
 10
185.94
 20
253.7789947304
 30
0.0
 11
185.94
 21
253.2789947304
 31
0.0
  0
LINE
  5
246
330
1F
100
AcDbEntity
  8
0
  6
Continuous
 62
     7
370
    25
100
AcDbLine
 10
100.94
 20
253.2789947304
 30
0.0
 11
75.94
 21
253.2789947304
 31
0.0
  0
LINE
  5
247
330
1F
100
AcDbEntity
  8
0
  6
Continuous
 62
     7
370
    25
100
AcDbLine
 10
100.94
 20
253.2789947304
 30
0.0
 11
100.94
 21
209.2789947304
 31
0.0
  0
LINE
  5
248
330
1F
100
AcDbEntity
  8
0
  6
Continuous
 62
     7
370
    25
100
AcDbLine
 10
75.94
 20
209.2789947304
 30
0.0
 11
100.94
 21
209.2789947304
 31
0.0
  0
LINE
  5
249
330
1F
100
AcDbEntity
  8
0
  6
Continuous
 62
     7
370
    25
100
AcDbLine
 10
75.94
 20
253.2789947304
 30
0.0
 11
75.94
 21
209.2789947304
 31
0.0
  0
LINE
  5
24A
330
1F
100
AcDbEntity
  8
0
  6
Continuous
 62
     7
370
    25
100
AcDbLine
 10
75.94
 20
253.7789947304
 30
0.0
 11
100.94
 21
253.7789947304
 31
0.0
  0
LINE
  5
24B
330
1F
100
AcDbEntity
  8
0
  6
Continuous
 62
     7
370
    25
100
AcDbLine
 10
100.94
 20
253.7789947304
 30
0.0
 11
100.94
 21
253.2789947304
 31
0.0
  0
LINE
  5
24C
330
1F
100
AcDbEntity
  8
0
  6
Continuous
 62
     7
370
    25
100
AcDbLine
 10
75.94
 20
253.2789947304
 30
0.0
 11
75.94
 21
253.7789947304
 31
0.0
  0
LINE
  5
24D
330
1F
100
AcDbEntity
  8
0
  6
Continuous
 62
     7
370
    25
100
AcDbLine
 10
100.94
 20
208.7789947304
 30
0.0
 11
75.94
 21
208.7789947304
 31
0.0
  0
LINE
  5
24E
330
1F
100
AcDbEntity
  8
0
  6
Continuous
 62
     7
370
    25
100
AcDbLine
 10
100.94
 20
209.2789947304
 30
0.0
 11
100.94
 21
208.7789947304
 31
0.0
  0
LINE
  5
24F
330
1F
100
AcDbEntity
  8
0
  6
Continuous
 62
     7
370
    25
100
AcDbLine
 10
75.94
 20
208.7789947304
 30
0.0
 11
75.94
 21
209.2789947304
 31
0.0
  0
LINE
  5
250
330
1F
100
AcDbEntity
  8
0
  6
Continuous
 62
     7
370
    25
100
AcDbLine
 10
195.94
 20
252.2789947304
 30
0.0
 11
195.94
 21
210.2789947304
 31
0.0
  0
LINE
  5
251
330
1F
100
AcDbEntity
  8
0
  6
Continuous
 62
     8
370
    25
100
AcDbLine
 10
66.24
 20
219.1789947304
 30
0.0
 11
66.24
 21
210.1789947304
 31
0.0
  0
LINE
  5
252
330
1F
100
AcDbEntity
  8
0
  6
Continuous
 62
     8
370
    25
100
AcDbLine
 10
66.24
 20
252.3789947304
 30
0.0
 11
66.24
 21
243.3789947304
 31
0.0
  0
DIMENSION
  5
253
330
1F
100
AcDbEntity
  8
0
  6
Continuous
 62
     7
370
    18
100
AcDbDimension
  2
_D
 10
213.94
 20
191.7789947304
 30
0.0
 11
204.94
 21
191.7789947304
 31
0.0
 70
   160
  1
<>
 71
     2
 42
-1.0
  3
SLDDIMSTYLE0
100
AcDbAlignedDimension
 13
195.94
 23
210.2789947304
 33
0.0
 14
213.94
 24
225.7789947304
 34
0.0
100
AcDbRotatedDimension
  0
DIMENSION
  5
25E
330
1F
100
AcDbEntity
  8
0
  6
Continuous
 62
     7
370
    18
100
AcDbDimension
  2
_D_1
 10
185.94
 20
264.06
 30
0.0
 11
166.94
 21
264.06
 31
0.0
 70
   160
  1
<>
 71
     2
 42
-1.0
  3
SLDDIMSTYLE1
100
AcDbAlignedDimension
 13
147.94
 23
253.7789947304
 33
0.0
 14
185.94
 24
253.7789947304
 34
0.0
100
AcDbRotatedDimension
  0
DIMENSION
  5
269
330
1F
100
AcDbEntity
  8
0
  6
Continuous
 62
     7
370
    18
100
AcDbDimension
  2
_D_2
 10
75.94
 20
185.7789947304
 30
0.0
 11
144.94
 21
185.7789947304
 31
0.0
 70
   160
  1
<>
 71
     2
 42
-1.0
  3
SLDDIMSTYLE1
100
AcDbAlignedDimension
 13
213.94
 23
225.7789947304
 33
0.0
 14
75.94
 24
208.7789947304
 34
0.0
100
AcDbRotatedDimension
  0
DIMENSION
  5
273
330
1F
100
AcDbEntity
  8
0
  6
Continuous
 62
     7
370
    18
100
AcDbDimension
  2
_D_3
 10
75.94
 20
191.7789947304
 30
0.0
 11
70.94
 21
191.7789947304
 31
0.0
 70
   160
  1
<>
 71
     2
 42
-1.0
  3
SLDDIMSTYLE0
100
AcDbAlignedDimension
 13
65.94
 23
210.4789947304
 33
0.0
 14
75.94
 24
208.7789947304
 34
0.0
100
AcDbRotatedDimension
  0
DIMENSION
  5
27F
330
1F
100
AcDbEntity
  8
0
  6
Continuous
 62
     7
370
    18
100
AcDbDimension
  2
_D_4
 10
185.94
 20
270.06
 30
0.0
 11
190.94
 21
270.06
 31
0.0
 70
   160
  1
<>
 71
     2
 42
-1.0
  3
SLDDIMSTYLE0
100
AcDbAlignedDimension
 13
195.94
 23
252.2789947304
 33
0.0
 14
185.94
 24
253.7789947304
 34
0.0
100
AcDbRotatedDimension
  0
DIMENSION
  5
28B
330
1F
100
AcDbEntity
  8
0
  6
Continuous
 62
     7
370
    18
100
AcDbDimension
  2
_D_5
 10
223.94
 20
238.2789947304
 30
0.0
 11
223.94
 21
231.2789947304
 31
0.0
 70
   160
  1
%%c<>
 71
     2
 42
-1.0
  3
SLDDIMSTYLE0
100
AcDbAlignedDimension
 13
205.44
 23
224.2789947304
 33
0.0
 14
205.44
 24
238.2789947304
 34
0.0
 50
90.0
100
AcDbRotatedDimension
  0
DIMENSION
  5
298
330
1F
100
AcDbEntity
  8
0
  6
Continuous
 62
     7
370
    18
100
AcDbDimension
  2
_D_6
 10
235.94
 20
218.2789947304
 30
0.0
 11
235.94
 21
231.2789947304
 31
0.0
 70
   160
  1
%%c<> f9
 71
     2
 42
-1.0
  3
SLDDIMSTYLE2
100
AcDbAlignedDimension
 13
203.44
 23
244.2789947304
 33
0.0
 14
203.44
 24
218.2789947304
 34
0.0
 50
90.0
100
AcDbRotatedDimension
  0
DIMENSION
  5
2A7
330
1F
100
AcDbEntity
  8
0
  6
Continuous
 62
     7
370
    18
100
AcDbDimension
  2
_D_7
 10
195.94
 20
264.06
 30
0.0
 11
199.94
 21
264.06
 31
0.0
 70
   160
  1
<>
 71
     2
 42
-1.0
  3
SLDDIMSTYLE0
100
AcDbAlignedDimension
 13
203.94
 23
243.7789947304
 33
0.0
 14
195.94
 24
252.2789947304
 34
0.0
100
AcDbRotatedDimension
  0
LINE
  5
2B3
330
1F
100
AcDbEntity
  8
0
  6
CENTERX2
 62
     7
370
    18
100
AcDbLine
 10
207.44
 20
231.2789947304
 30
0.0
 11
125.94
 21
231.2789947304
 31
0.0
  0
LINE
  5
2B4
330
1F
100
AcDbEntity
  8
0
  6
CENTERX2
 62
     7
370
    18
100
AcDbLine
 10
203.94
 20
231.2789947304
 30
0.0
 11
215.44
 21
231.2789947304
 31
0.0
  0
LINE
  5
2B5
330
1F
100
AcDbEntity
  8
0
  6
CENTERX2
 62
     7
370
    18
100
AcDbLine
 10
99.94
 20
231.2789947304
 30
0.0
 11
149.94
 21
231.2789947304
 31
0.0
  0
LINE
  5
2B6
330
1F
100
AcDbEntity
  8
0
  6
CENTERX2
 62
     7
370
    18
100
AcDbLine
 10
67.44
 20
247.8789947304
 30
0.0
 11
164.44
 21
247.8789947304
 31
0.0
  0
LINE
  5
2B7
330
1F
100
AcDbEntity
  8
0
  6
CENTERX2
 62
     7
370
    18
100
AcDbLine
 10
67.44
 20
214.6789947304
 30
0.0
 11
164.44
 21
214.6789947304
 31
0.0
  0
LINE
  5
2B8
330
1F
100
AcDbEntity
  8
0
  6
CENTERX2
 62
     7
370
    18
100
AcDbLine
 10
99.94
 20
231.2789947304
 30
0.0
 11
73.94
 21
231.2789947304
 31
0.0
  0
LINE
  5
2B9
330
1F
100
AcDbEntity
  8
0
  6
Continuous
 62
     7
370
    25
100
AcDbLine
 10
107.94
 20
54.6789947304
 30
0.0
 11
109.0229037687
 21
55.761898499
 31
0.0
  0
LINE
  5
2BA
330
1F
100
AcDbEntity
  8
0
  6
Continuous
 62
     7
370
    25
100
AcDbLine
 10
109.0229037687
 20
57.8960909617
 30
0.0
 11
108.14
 21
58.7789947304
 31
0.0
  0
LINE
  5
2BB
330
1F
100
AcDbEntity
  8
0
  6
Continuous
 62
     7
370
    25
100
AcDbLine
 10
93.74
 20
58.7789947304
 30
0.0
 11
92.8570962314
 21
57.8960909617
 31
0.0
  0
LINE
  5
2BC
330
1F
100
AcDbEntity
  8
0
  6
Continuous
 62
     7
370
    25
100
AcDbLine
 10
92.8570962314
 20
55.761898499
 30
0.0
 11
93.94
 21
54.6789947304
 31
0.0
  0
LINE
  5
2BD
330
1F
100
AcDbEntity
  8
0
  6
Continuous
 62
     7
370
    25
100
AcDbLine
 10
102.44
 20
51.7789947304
 30
0.0
 11
102.94
 21
52.2789947304
 31
0.0
  0
LINE
  5
2BE
330
1F
100
AcDbEntity
  8
0
  6
Continuous
 62
     7
370
    25
100
AcDbLine
 10
98.94
 20
52.2789947304
 30
0.0
 11
99.44
 21
51.7789947304
 31
0.0
  0
LINE
  5
2BF
330
1F
100
AcDbEntity
  8
0
  6
Continuous
 62
     7
370
    25
100
AcDbLine
 10
104.44
 20
52.2789947304
 30
0.0
 11
104.9814518843
 21
52.8204466147
 31
0.0
  0
LINE
  5
2C0
330
1F
100
AcDbEntity
  8
0
  6
Continuous
 62
     7
370
    25
100
AcDbLine
 10
96.8985481157
 20
52.8204466147
 30
0.0
 11
97.44
 21
52.2789947304
 31
0.0
  0
SPLINE
  5
2C1
330
1F
100
AcDbEntity
  8
0
  6
Continuous
 62
     7
370
    25
100
AcDbSpline
210
0.0
220
0.0
230
1.0
 70
     8
 71
     3
 72
    11
 73
     7
 74
     0
 42
0.000000001
 43
0.00000001
 40
0.0
 40
0.0
 40
0.0
 40
0.0
 40
0.2016186384057697
 40
0.5317069160962216
 40
0.869760762171265
 40
1.0
 40
1.0
 40
1.0
 40
1.0
 10
104.9814518843383
 20
55.76189849900931
 30
0.0
 10
104.7256609078672
 20
55.63927291120014
 30
0.0
 10
104.0510911739373
 20
55.31588577971245
 30
0.0
 10
102.8934622154779
 20
54.90978181568217
 30
0.0
 10
101.7819708902765
 20
54.69916894758174
 30
0.0
 10
101.1232109028152
 20
54.68338459299031
 30
0.0
 10
100.9400000000109
 20
54.67899473035456
 30
0.0
  0
SPLINE
  5
2C2
330
1F
100
AcDbEntity
  8
0
  6
Continuous
 62
     7
370
    25
100
AcDbSpline
210
0.0
220
0.0
230
1.0
 70
     8
 71
     3
 72
    11
 73
     7
 74
     0
 42
0.000000001
 43
0.00000001
 40
0.0
 40
0.0
 40
0.0
 40
0.0
 40
0.2495752731476862
 40
0.5043586713351473
 40
0.7510441660612339
 40
1.0
 40
1.0
 40
1.0
 40
1.0
 10
107.002177826502
 20
54.67899473035456
 30
0.0
 10
106.8264644630909
 20
54.69443612084613
 30
0.0
 10
106.4713709580809
 20
54.72564113203843
 30
0.0
 10
105.9545143012299
 20
54.96696454051435
 30
0.0
 10
105.4547501320713
 20
55.31156960144919
 30
0.0
 10
105.1396990089367
 20
55.61133116962711
 30
0.0
 10
104.9814518843383
 20
55.76189849900931
 30
0.0
  0
LINE
  5
2C3
330
1F
100
AcDbEntity
  8
0
  6
Continuous
 62
     7
370
    25
100
AcDbLine
 10
107.0021778265
 20
54.6789947304
 30
0.0
 11
100.94
 21
54.6789947304
 31
0.0
  0
SPLINE
  5
2C4
330
1F
100
AcDbEntity
  8
0
  6
Continuous
 62
     7
370
    25
100
AcDbSpline
210
0.0
220
0.0
230
1.0
 70
     8
 71
     3
 72
    10
 73
     6
 74
     0
 42
0.000000001
 43
0.00000001
 40
0.0
 40
0.0
 40
0.0
 40
0.0
 40
0.1950175574550615
 40
0.5956651237505038
 40
1.0
 40
1.0
 40
1.0
 40
1.0
 10
107.805029429371
 20
58.77899473035455
 30
0.0
 10
107.887888185169
 20
58.74564244902771
 30
0.0
 10
108.1409734543639
 20
58.64377064300583
 30
0.0
 10
108.5491491899588
 20
58.34172653884532
 30
0.0
 10
108.8645040699455
 20
58.0450890808346
 30
0.0
 10
109.0229037686656
 20
57.8960909616998
 30
0.0
  0
LINE
  5
2C5
330
1F
100
AcDbEntity
  8
0
  6
Continuous
 62
     7
370
    25
100
AcDbLine
 10
109.0229037687
 20
55.761898499
 30
0.0
 11
109.0229037687
 21
57.8960909617
 31
0.0
  0
SPLINE
  5
2C6
330
1F
100
AcDbEntity
  8
0
  6
Continuous
 62
     7
370
    25
100
AcDbSpline
210
0.0
220
0.0
230
1.0
 70
     8
 71
     3
 72
    11
 73
     7
 74
     0
 42
0.000000001
 43
0.00000001
 40
0.0
 40
0.0
 40
0.0
 40
0.0
 40
0.4320422031140932
 40
0.6543442600016725
 40
0.8796464766064765
 40
1.0
 40
1.0
 40
1.0
 40
1.0
 10
109.0229037686656
 20
55.76189849900932
 30
0.0
 10
108.7460968530339
 20
55.5072846671489
 30
0.0
 10
108.3268623081982
 20
55.12166238720953
 30
0.0
 10
107.726511845521
 20
54.80995492506118
 30
0.0
 10
107.3299892253208
 20
54.69325159985165
 30
0.0
 10
107.08683978487
 20
54.68267676977165
 30
0.0
 10
107.002177826502
 20
54.67899473035456
 30
0.0
  0
LINE
  5
2C7
330
1F
100
AcDbEntity
  8
0
  6
Continuous
 62
     7
370
    25
100
AcDbLine
 10
104.9814518843
 20
55.761898499
 30
0.0
 11
104.9814518843
 21
57.8960909617
 31
0.0
  0
SPLINE
  5
2C8
330
1F
100
AcDbEntity
  8
0
  6
Continuous
 62
     7
370
    25
100
AcDbSpline
210
0.0
220
0.0
230
1.0
 70
     8
 71
     3
 72
     9
 73
     5
 74
     0
 42
0.000000001
 43
0.00000001
 40
0.0
 40
0.0
 40
0.0
 40
0.0
 40
0.7127891091173485
 40
1.0
 40
1.0
 40
1.0
 40
1.0
 10
104.9814518843383
 20
57.8960909616998
 30
0.0
 10
105.2575433560249
 20
58.15627707768063
 30
0.0
 10
105.6448829886808
 20
58.52130245847387
 30
0.0
 10
106.0599144295686
 20
58.72149674963931
 30
0.0
 10
106.1791159794502
 20
58.77899473035455
 30
0.0
  0
SPLINE
  5
2C9
330
1F
100
AcDbEntity
  8
0
  6
Continuous
 62
     7
370
    25
100
AcDbSpline
210
0.0
220
0.0
230
1.0
 70
     8
 71
     3
 72
     9
 73
     5
 74
     0
 42
0.000000001
 43
0.00000001
 40
0.0
 40
0.0
 40
0.0
 40
0.0
 40
0.2638268981264405
 40
1.0
 40
1.0
 40
1.0
 40
1.0
 10
102.5359464185509
 20
58.77899473035455
 30
0.0
 10
102.7604985377801
 20
58.73103576092124
 30
0.0
 10
103.6116328262997
 20
58.54925380550315
 30
0.0
 10
104.4006204316026
 20
58.17304544062381
 30
0.0
 10
104.9814518843383
 20
57.8960909616998
 30
0.0
  0
SPLINE
  5
2CA
330
1F
100
AcDbEntity
  8
0
  6
Continuous
 62
     7
370
    25
100
AcDbSpline
210
0.0
220
0.0
230
1.0
 70
     8
 71
     3
 72
    10
 73
     6
 74
     0
 42
0.000000001
 43
0.00000001
 40
0.0
 40
0.0
 40
0.0
 40
0.0
 40
0.2693617427969185
 40
0.5451824849164212
 40
1.0
 40
1.0
 40
1.0
 40
1.0
 10
100.9400000000109
 20
54.67899473035456
 30
0.0
 10
100.561044734918
 20
54.6974871766369
 30
0.0
 10
99.79404727287965
 20
54.73491549779231
 30
0.0
 10
98.41894706401625
 20
55.07079701369288
 30
0.0
 10
97.48187149879253
 20
55.49674726555935
 30
0.0
 10
96.89854811568351
 20
55.76189849900931
 30
0.0
  0
LINE
  5
2CB
330
1F
100
AcDbEntity
  8
0
  6
Continuous
 62
     7
370
    25
100
AcDbLine
 10
96.8985481157
 20
55.761898499
 30
0.0
 11
96.8985481157
 21
57.8960909617
 31
0.0
  0
SPLINE
  5
2CC
330
1F
100
AcDbEntity
  8
0
  6
Continuous
 62
     7
370
    25
100
AcDbSpline
210
0.0
220
0.0
230
1.0
 70
     8
 71
     3
 72
    10
 73
     6
 74
     0
 42
0.000000001
 43
0.00000001
 40
0.0
 40
0.0
 40
0.0
 40
0.0
 40
0.3227983778963179
 40
0.8512810689986431
 40
1.0
 40
1.0
 40
1.0
 40
1.0
 10
96.89854811568351
 20
57.8960909616998
 30
0.0
 10
97.15465259284323
 20
58.01693366731769
 30
0.0
 10
97.83004908805707
 20
58.3356189974284
 30
0.0
 10
98.65465788470742
 20
58.66542610667791
 30
0.0
 10
99.24280920775722
 20
58.75854505847632
 30
0.0
 10
99.37197197579562
 20
58.77899473035455
 30
0.0
  0
SPLINE
  5
2CD
330
1F
100
AcDbEntity
  8
0
  6
Continuous
 62
     7
370
    25
100
AcDbSpline
210
0.0
220
0.0
230
1.0
 70
     8
 71
     3
 72
    11
 73
     7
 74
     0
 42
0.000000001
 43
0.00000001
 40
0.0
 40
0.0
 40
0.0
 40
0.0
 40
0.4320422031140939
 40
0.6543442600016736
 40
0.8796464766064753
 40
1.0
 40
1.0
 40
1.0
 40
1.0
 10
96.89854811568351
 20
55.76189849900931
 30
0.0
 10
96.62174120005179
 20
55.50728466714889
 30
0.0
 10
96.20250665521604
 20
55.1216623872095
 30
0.0
 10
95.60215619253886
 20
54.80995492506119
 30
0.0
 10
95.2056335723387
 20
54.69325159985165
 30
0.0
 10
94.96248413188788
 20
54.68267676977165
 30
0.0
 10
94.87782217351982
 20
54.67899473035456
 30
0.0
  0
LINE
  5
2CE
330
1F
100
AcDbEntity
  8
0
  6
Continuous
 62
     7
370
    25
100
AcDbLine
 10
100.94
 20
54.6789947304
 30
0.0
 11
94.8778221735
 21
54.6789947304
 31
0.0
  0
SPLINE
  5
2CF
330
1F
100
AcDbEntity
  8
0
  6
Continuous
 62
     7
370
    25
100
AcDbSpline
210
0.0
220
0.0
230
1.0
 70
     8
 71
     3
 72
    10
 73
     6
 74
     0
 42
0.000000001
 43
0.00000001
 40
0.0
 40
0.0
 40
0.0
 40
0.0
 40
0.1950175574550682
 40
0.5956651237505096
 40
1.0
 40
1.0
 40
1.0
 40
1.0
 10
95.68067377638886
 20
58.77899473035455
 30
0.0
 10
95.76353253218689
 20
58.7456424490277
 30
0.0
 10
96.01661780138181
 20
58.64377064300583
 30
0.0
 10
96.42479353697664
 20
58.34172653884534
 30
0.0
 10
96.74014841696338
 20
58.04508908083461
 30
0.0
 10
96.89854811568351
 20
57.8960909616998
 30
0.0
  0
SPLINE
  5
2D0
330
1F
100
AcDbEntity
  8
0
  6
Continuous
 62
     7
370
    25
100
AcDbSpline
210
0.0
220
0.0
230
1.0
 70
     8
 71
     3
 72
    11
 73
     7
 74
     0
 42
0.000000001
 43
0.00000001
 40
0.0
 40
0.0
 40
0.0
 40
0.0
 40
0.2495752731476852
 40
0.5043586713351456
 40
0.7510441660612345
 40
1.0
 40
1.0
 40
1.0
 40
1.0
 10
94.87782217351982
 20
54.67899473035456
 30
0.0
 10
94.70210881010875
 20
54.69443612084613
 30
0.0
 10
94.34701530509875
 20
54.72564113203843
 30
0.0
 10
93.83015864824775
 20
54.96696454051434
 30
0.0
 10
93.33039447908918
 20
55.31156960144919
 30
0.0
 10
93.01534335595451
 20
55.61133116962709
 30
0.0
 10
92.85709623135612
 20
55.76189849900932
 30
0.0
  0
LINE
  5
2D1
330
1F
100
AcDbEntity
  8
0
  6
Continuous
 62
     7
370
    25
100
AcDbLine
 10
92.8570962314
 20
55.761898499
 30
0.0
 11
92.8570962314
 21
57.8960909617
 31
0.0
  0
SPLINE
  5
2D2
330
1F
100
AcDbEntity
  8
0
  6
Continuous
 62
     7
370
    25
100
AcDbSpline
210
0.0
220
0.0
230
1.0
 70
     8
 71
     3
 72
     9
 73
     5
 74
     0
 42
0.000000001
 43
0.00000001
 40
0.0
 40
0.0
 40
0.0
 40
0.0
 40
0.7127891091173405
 40
1.0
 40
1.0
 40
1.0
 40
1.0
 10
92.85709623135612
 20
57.8960909616998
 30
0.0
 10
93.13318770304276
 20
58.15627707768063
 30
0.0
 10
93.52052733569867
 20
58.52130245847388
 30
0.0
 10
93.9355587765864
 20
58.72149674963931
 30
0.0
 10
94.05476032646808
 20
58.77899473035455
 30
0.0
  0
LINE
  5
2D3
330
1F
100
AcDbEntity
  8
0
  6
Continuous
 62
     7
370
    25
100
AcDbLine
 10
107.94
 20
54.6789947304
 30
0.0
 11
107.0021778265
 21
54.6789947304
 31
0.0
  0
SPLINE
  5
2D4
330
1F
100
AcDbEntity
  8
0
  6
Continuous
 62
     7
370
    25
100
AcDbSpline
210
0.0
220
0.0
230
1.0
 70
     8
 71
     3
 72
     9
 73
     5
 74
     0
 42
0.000000001
 43
0.00000001
 40
0.0
 40
0.0
 40
0.0
 40
0.0
 40
0.503990215754397
 40
1.0
 40
1.0
 40
1.0
 40
1.0
 10
103.9710889132564
 20
52.27899473035456
 30
0.0
 10
103.7933285631777
 20
52.3102987073688
 30
0.0
 10
103.4406226087325
 20
52.37241097867029
 30
0.0
 10
103.1198381649343
 20
52.67189808144843
 30
0.0
 10
102.9607259421766
 20
52.82044661468176
 30
0.0
  0
LINE
  5
2D5
330
1F
100
AcDbEntity
  8
0
  6
Continuous
 62
     7
370
    25
100
AcDbLine
 10
102.9607259422
 20
52.8204466147
 30
0.0
 11
102.9607259422
 21
54.6789947304
 31
0.0
  0
LINE
  5
2D6
330
1F
100
AcDbEntity
  8
0
  6
Continuous
 62
     7
370
    25
100
AcDbLine
 10
104.9814518843
 20
52.8204466147
 30
0.0
 11
104.9814518843
 21
54.6789947304
 31
0.0
  0
SPLINE
  5
2D7
330
1F
100
AcDbEntity
  8
0
  6
Continuous
 62
     7
370
    25
100
AcDbSpline
210
0.0
220
0.0
230
1.0
 70
     8
 71
     3
 72
    10
 73
     6
 74
     0
 42
0.000000001
 43
0.00000001
 40
0.0
 40
0.0
 40
0.0
 40
0.0
 40
0.4323791861032129
 40
0.8795414153548171
 40
1.0
 40
1.0
 40
1.0
 40
1.0
 10
104.9814518843383
 20
52.82044661468193
 30
0.0
 10
104.8431134676823
 20
52.69397005566626
 30
0.0
 10
104.5617068442965
 20
52.43669270444036
 30
0.0
 10
104.2128170405555
 20
52.29014685989673
 30
0.0
 10
104.0134070354747
 20
52.28094707734138
 30
0.0
 10
103.9710889132564
 20
52.27899473035456
 30
0.0
  0
SPLINE
  5
2D8
330
1F
100
AcDbEntity
  8
0
  6
Continuous
 62
     7
370
    25
100
AcDbSpline
210
0.0
220
0.0
230
1.0
 70
     8
 71
     3
 72
     9
 73
     5
 74
     0
 42
0.000000001
 43
0.00000001
 40
0.0
 40
0.0
 40
0.0
 40
0.0
 40
0.5088623606180956
 40
1.0
 40
1.0
 40
1.0
 40
1.0
 10
100.9400000000109
 20
52.27899473035456
 30
0.0
 10
100.5810487817684
 20
52.31089796232006
 30
0.0
 10
99.87564935350957
 20
52.37359317115163
 30
0.0
 10
99.23427643768754
 20
52.67326600599171
 30
0.0
 10
98.9192740578472
 20
52.82044661468193
 30
0.0
  0
LINE
  5
2D9
330
1F
100
AcDbEntity
  8
0
  6
Continuous
 62
     7
370
    25
100
AcDbLine
 10
98.9192740578
 20
52.8204466147
 30
0.0
 11
98.9192740578
 21
54.6789947304
 31
0.0
  0
SPLINE
  5
2DA
330
1F
100
AcDbEntity
  8
0
  6
Continuous
 62
     7
370
    25
100
AcDbSpline
210
0.0
220
0.0
230
1.0
 70
     8
 71
     3
 72
    11
 73
     7
 74
     0
 42
0.000000001
 43
0.00000001
 40
0.0
 40
0.0
 40
0.0
 40
0.0
 40
0.1599319724360634
 40
0.4914647762085493
 40
0.8304998079163797
 40
1.0
 40
1.0
 40
1.0
 40
1.0
 10
102.9607259421766
 20
52.82044661468176
 30
0.0
 10
102.8594448817626
 20
52.77148694889134
 30
0.0
 10
102.5482120936447
 20
52.62103578628496
 30
0.0
 10
101.9991130412784
 20
52.41800463962456
 30
0.0
 10
101.417000095197
 20
52.29371791759232
 30
0.0
 10
101.0592439301434
 20
52.28267533907567
 30
0.0
 10
100.9400000000109
 20
52.27899473035456
 30
0.0
  0
LINE
  5
2DB
330
1F
100
AcDbEntity
  8
0
  6
Continuous
 62
     7
370
    25
100
AcDbLine
 10
103.9710889133
 20
52.2789947304
 30
0.0
 11
100.94
 21
52.2789947304
 31
0.0
  0
SPLINE
  5
2DC
330
1F
100
AcDbEntity
  8
0
  6
Continuous
 62
     7
370
    25
100
AcDbSpline
210
0.0
220
0.0
230
1.0
 70
     8
 71
     3
 72
     9
 73
     5
 74
     0
 42
0.000000001
 43
0.00000001
 40
0.0
 40
0.0
 40
0.0
 40
0.0
 40
0.5039902157541695
 40
1.0
 40
1.0
 40
1.0
 40
1.0
 10
97.90891108676536
 20
52.27899473035456
 30
0.0
 10
97.73115073668677
 20
52.31029870736882
 30
0.0
 10
97.37844478224163
 20
52.37241097867037
 30
0.0
 10
97.05766033844199
 20
52.67189808144854
 30
0.0
 10
96.89854811568352
 20
52.82044661468193
 30
0.0
  0
LINE
  5
2DD
330
1F
100
AcDbEntity
  8
0
  6
Continuous
 62
     7
370
    25
100
AcDbLine
 10
96.8985481157
 20
52.8204466147
 30
0.0
 11
96.8985481157
 21
54.6789947304
 31
0.0
  0
SPLINE
  5
2DE
330
1F
100
AcDbEntity
  8
0
  6
Continuous
 62
     7
370
    25
100
AcDbSpline
210
0.0
220
0.0
230
1.0
 70
     8
 71
     3
 72
    10
 73
     6
 74
     0
 42
0.000000001
 43
0.00000001
 40
0.0
 40
0.0
 40
0.0
 40
0.0
 40
0.4323791861032187
 40
0.8795414153548226
 40
1.0
 40
1.0
 40
1.0
 40
1.0
 10
98.9192740578472
 20
52.82044661468193
 30
0.0
 10
98.78093564119118
 20
52.69397005566626
 30
0.0
 10
98.49952901780543
 20
52.43669270444036
 30
0.0
 10
98.15063921406438
 20
52.29014685989676
 30
0.0
 10
97.95122920898362
 20
52.28094707734138
 30
0.0
 10
97.90891108676536
 20
52.27899473035456
 30
0.0
  0
LINE
  5
2DF
330
1F
100
AcDbEntity
  8
0
  6
Continuous
 62
     7
370
    25
100
AcDbLine
 10
100.94
 20
52.2789947304
 30
0.0
 11
97.9089110868
 21
52.2789947304
 31
0.0
  0
LINE
  5
2E0
330
1F
100
AcDbEntity
  8
0
  6
Continuous
 62
     7
370
    25
100
AcDbLine
 10
94.8778221735
 20
54.6789947304
 30
0.0
 11
93.94
 21
54.6789947304
 31
0.0
  0
LINE
  5
2E1
330
1F
100
AcDbEntity
  8
0
  6
Continuous
 62
     7
370
    25
100
AcDbLine
 10
102.44
 20
51.7789947304
 30
0.0
 11
101.44
 21
51.7789947304
 31
0.0
  0
LINE
  5
2E2
330
1F
100
AcDbEntity
  8
0
  6
Continuous
 62
     7
370
    25
100
AcDbLine
 10
101.44
 20
51.7789947304
 30
0.0
 11
101.44
 21
52.2789947304
 31
0.0
  0
LINE
  5
2E3
330
1F
100
AcDbEntity
  8
0
  6
Continuous
 62
     7
370
    25
100
AcDbLine
 10
100.44
 20
51.7789947304
 30
0.0
 11
99.44
 21
51.7789947304
 31
0.0
  0
LINE
  5
2E4
330
1F
100
AcDbEntity
  8
0
  6
Continuous
 62
     7
370
    25
100
AcDbLine
 10
100.44
 20
52.2789947304
 30
0.0
 11
100.44
 21
51.7789947304
 31
0.0
  0
LINE
  5
2E5
330
1F
100
AcDbEntity
  8
0
  6
Continuous
 62
     7
370
    25
100
AcDbLine
 10
104.44
 20
52.2789947304
 30
0.0
 11
103.9710889133
 21
52.2789947304
 31
0.0
  0
LINE
  5
2E6
330
1F
100
AcDbEntity
  8
0
  6
Continuous
 62
     7
370
    25
100
AcDbLine
 10
97.9089110868
 20
52.2789947304
 30
0.0
 11
97.44
 21
52.2789947304
 31
0.0
  0
ARC
  5
2E7
330
1F
100
AcDbEntity
  8
0
  6
Continuous
 62
     7
370
    25
100
AcDbCircle
 10
100.94
 20
81.2789947304
 30
0.0
 40
6.499999999999986
100
AcDbArc
 50
32.204227504
 51
57.795772496
  0
LINE
  5
2E8
330
1F
100
AcDbEntity
  8
0
  6
Continuous
 62
     7
370
    25
100
AcDbLine
 10
106.44
 20
84.7430963455
 30
0.0
 11
106.44
 21
83.676910492
 31
0.0
  0
ARC
  5
2E9
330
1F
100
AcDbEntity
  8
0
  6
Continuous
 62
     7
370
    25
100
AcDbCircle
 10
100.94
 20
81.2789947304
 30
0.0
 40
5.999999999999955
100
AcDbArc
 50
23.5564643091
 51
66.4435356909
  0
LINE
  5
2EA
330
1F
100
AcDbEntity
  8
0
  6
Continuous
 62
     7
370
    25
100
AcDbLine
 10
103.3379157617
 20
86.7789947304
 30
0.0
 11
104.4041016151
 21
86.7789947304
 31
0.0
  0
ARC
  5
2EB
330
1F
100
AcDbEntity
  8
0
  6
Continuous
 62
     7
370
    25
100
AcDbCircle
 10
100.94
 20
81.2789947304
 30
0.0
 40
6.000000000000004
100
AcDbArc
 50
203.5564643091
 51
246.4435356909
  0
LINE
  5
2EC
330
1F
100
AcDbEntity
  8
0
  6
Continuous
 62
     7
370
    25
100
AcDbLine
 10
95.44
 20
83.676910492
 30
0.0
 11
95.44
 21
78.8810789687
 31
0.0
  0
ARC
  5
2ED
330
1F
100
AcDbEntity
  8
0
  6
Continuous
 62
     7
370
    25
100
AcDbCircle
 10
100.94
 20
81.2789947304
 30
0.0
 40
5.999999999999985
100
AcDbArc
 50
113.5564643091
 51
156.4435356909
  0
LINE
  5
2EE
330
1F
100
AcDbEntity
  8
0
  6
Continuous
 62
     7
370
    25
100
AcDbLine
 10
103.3379157617
 20
86.7789947304
 30
0.0
 11
98.5420842384
 21
86.7789947304
 31
0.0
  0
ARC
  5
2EF
330
1F
100
AcDbEntity
  8
0
  6
Continuous
 62
     7
370
    25
100
AcDbCircle
 10
100.94
 20
81.2789947304
 30
0.0
 40
5.999999999999997
100
AcDbArc
 50
293.5564643091
 51
336.4435356909
  0
LINE
  5
2F0
330
1F
100
AcDbEntity
  8
0
  6
Continuous
 62
     7
370
    25
100
AcDbLine
 10
98.5420842384
 20
75.7789947304
 30
0.0
 11
103.3379157617
 21
75.7789947304
 31
0.0
  0
CIRCLE
  5
2F1
330
1F
100
AcDbEntity
  8
0
  6
Continuous
 62
     7
370
    25
100
AcDbCircle
 10
100.94
 20
81.2789947304
 30
0.0
 40
3.550000000000026
  0
LINE
  5
2F2
330
1F
100
AcDbEntity
  8
0
  6
Continuous
 62
     7
370
    25
100
AcDbLine
 10
106.44
 20
78.8810789687
 30
0.0
 11
106.44
 21
83.676910492
 31
0.0
  0
ARC
  5
2F3
330
1F
100
AcDbEntity
  8
0
  6
Continuous
 62
     7
370
    25
100
AcDbCircle
 10
100.94
 20
81.2789947304
 30
0.0
 40
6.50000000000001
100
AcDbArc
 50
302.204227504
 51
327.795772496
  0
LINE
  5
2F4
330
1F
100
AcDbEntity
  8
0
  6
Continuous
 62
     7
370
    25
100
AcDbLine
 10
104.4041016151
 20
75.7789947304
 30
0.0
 11
103.3379157617
 21
75.7789947304
 31
0.0
  0
LINE
  5
2F5
330
1F
100
AcDbEntity
  8
0
  6
Continuous
 62
     7
370
    25
100
AcDbLine
 10
106.44
 20
78.8810789687
 30
0.0
 11
106.44
 21
77.8148931152
 31
0.0
  0
CIRCLE
  5
2F6
330
1F
100
AcDbEntity
  8
0
  6
Continuous
 62
     7
370
    25
100
AcDbCircle
 10
100.94
 20
81.2789947304
 30
0.0
 40
3.250000000000014
  0
ARC
  5
2F7
330
1F
100
AcDbEntity
  8
0
  6
Continuous
 62
     7
370
    25
100
AcDbCircle
 10
100.94
 20
81.2789947304
 30
0.0
 40
6.500000000000017
100
AcDbArc
 50
212.204227504
 51
237.795772496
  0
LINE
  5
2F8
330
1F
100
AcDbEntity
  8
0
  6
Continuous
 62
     7
370
    25
100
AcDbLine
 10
95.44
 20
77.8148931152
 30
0.0
 11
95.44
 21
78.8810789687
 31
0.0
  0
LINE
  5
2F9
330
1F
100
AcDbEntity
  8
0
  6
Continuous
 62
     7
370
    25
100
AcDbLine
 10
98.5420842384
 20
75.7789947304
 30
0.0
 11
97.4758983849
 21
75.7789947304
 31
0.0
  0
ARC
  5
2FA
330
1F
100
AcDbEntity
  8
0
  6
Continuous
 62
     7
370
    25
100
AcDbCircle
 10
100.94
 20
81.2789947304
 30
0.0
 40
6.499999999999993
100
AcDbArc
 50
122.204227504
 51
147.795772496
  0
LINE
  5
2FB
330
1F
100
AcDbEntity
  8
0
  6
Continuous
 62
     7
370
    25
100
AcDbLine
 10
95.44
 20
83.676910492
 30
0.0
 11
95.44
 21
84.7430963455
 31
0.0
  0
LINE
  5
2FC
330
1F
100
AcDbEntity
  8
0
  6
Continuous
 62
     7
370
    25
100
AcDbLine
 10
97.4758983849
 20
86.7789947304
 30
0.0
 11
98.5420842384
 21
86.7789947304
 31
0.0
  0
CIRCLE
  5
2FD
330
1F
100
AcDbEntity
  8
0
  6
Continuous
 62
     7
370
    25
100
AcDbCircle
 10
100.94
 20
81.2789947304
 30
0.0
 40
7.000000000000014
  0
ARC
  5
2FE
330
1F
100
AcDbEntity
  8
0
  6
Continuous
 62
     7
370
    25
100
AcDbCircle
 10
100.94
 20
81.2789947304
 30
0.0
 40
6.499999999999993
100
AcDbArc
 50
57.795772496
 51
122.204227504
  0
ARC
  5
2FF
330
1F
100
AcDbEntity
  8
0
  6
Continuous
 62
     7
370
    25
100
AcDbCircle
 10
100.94
 20
81.2789947304
 30
0.0
 40
6.500000000000005
100
AcDbArc
 50
147.795772496
 51
212.204227504
  0
ARC
  5
300
330
1F
100
AcDbEntity
  8
0
  6
Continuous
 62
     7
370
    25
100
AcDbCircle
 10
100.94
 20
81.2789947304
 30
0.0
 40
6.500000000000017
100
AcDbArc
 50
237.795772496
 51
302.204227504
  0
ARC
  5
301
330
1F
100
AcDbEntity
  8
0
  6
Continuous
 62
     7
370
    25
100
AcDbCircle
 10
100.94
 20
81.2789947304
 30
0.0
 40
6.500000000000005
100
AcDbArc
 50
327.795772496
 51
32.204227504
  0
CIRCLE
  5
302
330
1F
100
AcDbEntity
  8
0
  6
Continuous
 62
     7
370
    25
100
AcDbCircle
 10
100.94
 20
81.2789947304
 30
0.0
 40
12.49999999999999
  0
CIRCLE
  5
303
330
1F
100
AcDbEntity
  8
0
  6
Continuous
 62
     7
370
    25
100
AcDbCircle
 10
100.94
 20
81.2789947304
 30
0.0
 40
13.00000000000001
  0
CIRCLE
  5
304
330
1F
100
AcDbEntity
  8
0
  6
Continuous
 62
     7
370
    25
100
AcDbCircle
 10
100.94
 20
81.2789947304
 30
0.0
 40
8.500000000000014
  0
CIRCLE
  5
305
330
1F
100
AcDbEntity
  8
0
  6
Continuous
 62
     7
370
    25
100
AcDbCircle
 10
100.94
 20
81.2789947304
 30
0.0
 40
16.50000000000001
  0
CIRCLE
  5
306
330
1F
100
AcDbEntity
  8
0
  6
Continuous
 62
     7
370
    25
100
AcDbCircle
 10
100.94
 20
81.2789947304
 30
0.0
 40
21.0
  0
LINE
  5
307
330
1F
100
AcDbEntity
  8
0
  6
Continuous
 62
     7
370
    25
100
AcDbLine
 10
65.94
 20
59.2789947304
 30
0.0
 11
66.44
 21
58.7789947304
 31
0.0
  0
LINE
  5
308
330
1F
100
AcDbEntity
  8
0
  6
Continuous
 62
     7
370
    25
100
AcDbLine
 10
65.94
 20
103.2789947304
 30
0.0
 11
65.94
 21
59.2789947304
 31
0.0
  0
LINE
  5
309
330
1F
100
AcDbEntity
  8
0
  6
Continuous
 62
     7
370
    25
100
AcDbLine
 10
66.44
 20
103.7789947304
 30
0.0
 11
65.94
 21
103.2789947304
 31
0.0
  0
LINE
  5
30A
330
1F
100
AcDbEntity
  8
0
  6
Continuous
 62
     7
370
    25
100
AcDbLine
 10
66.44
 20
103.7789947304
 30
0.0
 11
135.44
 21
103.7789947304
 31
0.0
  0
LINE
  5
30B
330
1F
100
AcDbEntity
  8
0
  6
Continuous
 62
     7
370
    25
100
AcDbLine
 10
135.94
 20
103.2789947304
 30
0.0
 11
135.44
 21
103.7789947304
 31
0.0
  0
LINE
  5
30C
330
1F
100
AcDbEntity
  8
0
  6
Continuous
 62
     7
370
    25
100
AcDbLine
 10
135.44
 20
58.7789947304
 30
0.0
 11
135.94
 21
59.2789947304
 31
0.0
  0
CIRCLE
  5
30D
330
1F
100
AcDbEntity
  8
0
  6
Continuous
 62
     7
370
    25
100
AcDbCircle
 10
71.94
 20
97.7789947304
 30
0.0
 40
3.750000000000114
  0
CIRCLE
  5
30E
330
1F
100
AcDbEntity
  8
0
  6
Continuous
 62
     7
370
    25
100
AcDbCircle
 10
129.94
 20
97.7789947304
 30
0.0
 40
3.750000000000114
  0
CIRCLE
  5
30F
330
1F
100
AcDbEntity
  8
0
  6
Continuous
 62
     7
370
    25
100
AcDbCircle
 10
129.94
 20
64.7789947304
 30
0.0
 40
3.750000000000114
  0
CIRCLE
  5
310
330
1F
100
AcDbEntity
  8
0
  6
Continuous
 62
     7
370
    25
100
AcDbCircle
 10
71.94
 20
64.7789947304
 30
0.0
 40
3.750000000000057
  0
LINE
  5
311
330
1F
100
AcDbEntity
  8
0
  6
Continuous
 62
     7
370
    25
100
AcDbLine
 10
66.44
 20
58.7789947304
 30
0.0
 11
135.44
 21
58.7789947304
 31
0.0
  0
LINE
  5
312
330
1F
100
AcDbEntity
  8
0
  6
Continuous
 62
     7
370
    25
100
AcDbLine
 10
135.94
 20
103.2789947304
 30
0.0
 11
135.94
 21
59.2789947304
 31
0.0
  0
CIRCLE
  5
313
330
1F
100
AcDbEntity
  8
0
  6
Continuous
 62
     7
370
    25
100
AcDbCircle
 10
129.94
 20
64.7789947304
 30
0.0
 40
3.249999999999972
  0
CIRCLE
  5
314
330
1F
100
AcDbEntity
  8
0
  6
Continuous
 62
     7
370
    25
100
AcDbCircle
 10
129.94
 20
97.7789947304
 30
0.0
 40
3.249999999999972
  0
CIRCLE
  5
315
330
1F
100
AcDbEntity
  8
0
  6
Continuous
 62
     7
370
    25
100
AcDbCircle
 10
71.94
 20
97.7789947304
 30
0.0
 40
3.25
  0
CIRCLE
  5
316
330
1F
100
AcDbEntity
  8
0
  6
Continuous
 62
     7
370
    25
100
AcDbCircle
 10
71.94
 20
64.7789947304
 30
0.0
 40
3.25
  0
DIMENSION
  5
317
330
1F
100
AcDbEntity
  8
0
  6
Continuous
 62
     7
370
    18
100
AcDbDimension
  2
_D_8
 10
98.6639551199
 20
84.0033514808
 30
0.0
 11
133.94001
 21
41.7790047304
 31
0.0
 70
   163
  1
M12x1.25
 71
     1
 42
-1.0
  3
SLDDIMSTYLE3
100
AcDbDiametricDimension
 15
103.2160448801
 25
78.5546379799
 35
0.0
 40
0.0
  0
DIMENSION
  5
323
330
1F
100
AcDbEntity
  8
0
  6
Continuous
 62
     7
370
    18
100
AcDbDimension
  2
_D_9
 10
114.4039274599
 20
97.394907902
 30
0.0
 11
67.94001
 21
41.7790047304
 31
0.0
 70
   163
  1
<>
 71
     1
 42
-1.0
  3
SLDDIMSTYLE4
100
AcDbDiametricDimension
 15
87.4760725402
 25
65.1630815587
 35
0.0
 40
0.0
  0
DIMENSION
  5
32D
330
1F
100
AcDbEntity
  8
0
  6
Continuous
 62
     7
370
    18
100
AcDbDimension
  2
_D_10
 10
145.94
 20
64.7789947304
 30
0.0
 11
145.94
 21
81.2789947304
 31
0.0
 70
   160
  1
<>
 71
     2
 42
-1.0
  3
SLDDIMSTYLE1
100
AcDbAlignedDimension
 13
136.19
 23
97.7789947304
 33
0.0
 14
135.69
 24
64.7789947304
 34
0.0
 50
90.0
100
AcDbRotatedDimension
  0
DIMENSION
  5
337
330
1F
100
AcDbEntity
  8
0
  6
Continuous
 62
     7
370
    18
100
AcDbDimension
  2
_D_11
 10
151.94
 20
103.7789947304
 30
0.0
 11
151.94
 21
81.2789947304
 31
0.0
 70
   160
  1
<>
 71
     2
 42
-1.0
  3
SLDDIMSTYLE1
100
AcDbAlignedDimension
 13
135.44
 23
58.7789947304
 33
0.0
 14
135.44
 24
103.7789947304
 34
0.0
 50
90.0
100
AcDbRotatedDimension
  0
DIMENSION
  5
341
330
1F
100
AcDbEntity
  8
0
  6
Continuous
 62
     7
370
    18
100
AcDbDimension
  2
_D_12
 10
129.94
 20
114.06
 30
0.0
 11
100.94
 21
114.06
 31
0.0
 70
   160
  1
<>
 71
     2
 42
-1.0
  3
SLDDIMSTYLE1
100
AcDbAlignedDimension
 13
71.94
 23
104.0289947304
 33
0.0
 14
129.94
 24
104.0289947304
 34
0.0
100
AcDbRotatedDimension
  0
DIMENSION
  5
34B
330
1F
100
AcDbEntity
  8
0
  6
Continuous
 62
     7
370
    18
100
AcDbDimension
  2
_D_13
 10
135.94
 20
120.06
 30
0.0
 11
100.94
 21
120.06
 31
0.0
 70
   160
  1
<>
 71
     2
 42
-1.0
  3
SLDDIMSTYLE1
100
AcDbAlignedDimension
 13
65.94
 23
103.2789947304
 33
0.0
 14
135.94
 24
103.2789947304
 34
0.0
100
AcDbRotatedDimension
  0
DIMENSION
  5
355
330
1F
100
AcDbEntity
  8
0
  6
Continuous
 62
     7
370
    18
100
AcDbDimension
  2
_D_14
 10
74.5218878666
 20
100.4986187934
 30
0.0
 11
55.94001
 21
80.9254513398
 31
0.0
 70
   163
  1
M6x1
 71
     1
 42
-1.0
  3
SLDDIMSTYLE3
100
AcDbDiametricDimension
 15
69.3581121334
 25
95.0593706673
 35
0.0
 40
0.0
  0
INSERT
  5
368
330
1F
100
AcDbEntity
  8
0
  6
Continuous
 62
     7
370
     0
100
AcDbBlockReference
  2
SW_CENTERMARKSYMBOL_0
 10
71.94
 20
97.7789947304
 30
0.0
  0
INSERT
  5
374
330
1F
100
AcDbEntity
  8
0
  6
Continuous
 62
     7
370
     0
100
AcDbBlockReference
  2
SW_CENTERMARKSYMBOL_1
 10
129.94
 20
97.7789947304
 30
0.0
  0
INSERT
  5
380
330
1F
100
AcDbEntity
  8
0
  6
Continuous
 62
     7
370
     0
100
AcDbBlockReference
  2
SW_CENTERMARKSYMBOL_2
 10
129.94
 20
64.7789947304
 30
0.0
  0
INSERT
  5
38C
330
1F
100
AcDbEntity
  8
0
  6
Continuous
 62
     7
370
     0
100
AcDbBlockReference
  2
SW_CENTERMARKSYMBOL_3
 10
71.94
 20
64.7789947304
 30
0.0
  0
ENDSEC
  0
SECTION
  2
OBJECTS
  0
DICTIONARY
  5
C
330
0
100
AcDbDictionary
281
     1
  3
ACAD_GROUP
350
D
  3
ACAD_LAYOUT
350
1A
  3
ACAD_MLINESTYLE
350
17
  3
ACAD_PLOTSETTINGS
350
19
  3
ACAD_PLOTSTYLENAME
350
E
  3
ACAD_SCALELIST
350
47
  0
DICTIONARY
  5
D
102
{ACAD_REACTORS
330
C
102
}
330
C
100
AcDbDictionary
281
     1
  0
DICTIONARY
  5
1A
102
{ACAD_REACTORS
330
C
102
}
330
C
100
AcDbDictionary
281
     1
  3
Layout1
350
1E
  3
Layout2
350
26
  3
Model
350
22
  0
DICTIONARY
  5
17
102
{ACAD_REACTORS
330
C
102
}
330
C
100
AcDbDictionary
281
     1
  3
Standard
350
18
  0
DICTIONARY
  5
19
102
{ACAD_REACTORS
330
C
102
}
330
C
100
AcDbDictionary
281
     1
  0
ACDBDICTIONARYWDFLT
  5
E
102
{ACAD_REACTORS
330
C
102
}
330
C
100
AcDbDictionary
281
     1
  3
Normal
350
F
100
AcDbDictionaryWithDefault
340
F
  0
DICTIONARY
  5
47
102
{ACAD_REACTORS
330
C
102
}
330
C
100
AcDbDictionary
281
     1
  3
A0
350
48
  3
A1
350
49
  3
A2
350
4A
  3
A3
350
4B
  3
A4
350
4C
  3
A5
350
4D
  3
A6
350
4E
  3
A7
350
4F
  3
A8
350
50
  3
A9
350
51
  3
B0
350
52
  3
B1
350
53
  3
B2
350
54
  3
B3
350
55
  3
B4
350
56
  3
B5
350
57
  3
B6
350
58
  3
B7
350
59
  3
B8
350
5A
  3
B9
350
5B
  3
C0
350
5C
  3
C1
350
5D
  3
C2
350
5E
  3
C3
350
5F
  3
C4
350
60
  3
C5
350
61
  3
C6
350
62
  3
C7
350
63
  3
C8
350
64
  3
C9
350
65
  3
D0
350
66
  3
D1
350
67
  3
D2
350
68
  0
LAYOUT
  5
1E
102
{ACAD_REACTORS
330
1A
102
}
330
1A
100
AcDbPlotSettings
  1

  2
none_device
  4

  6

 40
0.0
 41
0.0
 42
0.0
 43
0.0
 44
0.0
 45
0.0
 46
0.0
 47
0.0
 48
0.0
 49
0.0
140
0.0
141
0.0
142
1.0
143
1.0
 70
   688
 72
     1
 73
     0
 74
     5
  7

 75
    16
147
1.0
148
0.0
149
0.0
100
AcDbLayout
  1
Layout1
 70
     1
 71
     1
 10
0.0
 20
0.0
 11
420.0
 21
297.0
 12
0.0
 22
0.0
 32
0.0
 14
1.0000000000E+20
 24
1.0000000000E+20
 34
1.0000000000E+20
 15
-1.0000000000E+20
 25
-1.0000000000E+20
 35
-1.0000000000E+20
146
0.0
 13
0.0
 23
0.0
 33
0.0
 16
1.0
 26
0.0
 36
0.0
 17
0.0
 27
1.0
 37
0.0
 76
     0
330
1B
  0
LAYOUT
  5
26
102
{ACAD_REACTORS
330
1A
102
}
330
1A
100
AcDbPlotSettings
  1

  2
none_device
  4

  6

 40
0.0
 41
0.0
 42
0.0
 43
0.0
 44
0.0
 45
0.0
 46
0.0
 47
0.0
 48
0.0
 49
0.0
140
0.0
141
0.0
142
1.0
143
1.0
 70
   688
 72
     1
 73
     0
 74
     5
  7

 75
    16
147
1.0
148
0.0
149
0.0
100
AcDbLayout
  1
Layout2
 70
     1
 71
     2
 10
0.0
 20
0.0
 11
0.0
 21
0.0
 12
0.0
 22
0.0
 32
0.0
 14
0.0
 24
0.0
 34
0.0
 15
0.0
 25
0.0
 35
0.0
146
0.0
 13
0.0
 23
0.0
 33
0.0
 16
1.0
 26
0.0
 36
0.0
 17
0.0
 27
1.0
 37
0.0
 76
     0
330
23
  0
LAYOUT
  5
22
102
{ACAD_REACTORS
330
1A
102
}
330
1A
100
AcDbPlotSettings
  1

  2
none_device
  4
Letter_(8.50_x_11.00_Inches)
  6

 40
6.35
 41
6.35
 42
6.35000508
 43
6.35000508
 44
215.9
 45
279.4
 46
0.0
 47
0.0
 48
0.0
 49
0.0
140
0.0
141
0.0
142
1.0
143
1.0
 70
  1712
 72
     1
 73
     0
 74
     0
  7

 75
     0
147
1.0
148
0.0
149
0.0
100
AcDbLayout
  1
Model
 70
     1
 71
     0
 10
0.0
 20
0.0
 11
420.0
 21
297.0
 12
0.0
 22
0.0
 32
0.0
 14
0.0
 24
0.0
 34
0.0
 15
420.0
 25
297.0
 35
0.0
146
0.0
 13
0.0
 23
0.0
 33
0.0
 16
1.0
 26
0.0
 36
0.0
 17
0.0
 27
1.0
 37
0.0
 76
     0
330
1F
331
29
  0
MLINESTYLE
  5
18
102
{ACAD_REACTORS
330
17
102
}
330
17
100
AcDbMlineStyle
  2
Standard
 70
     0
  3

 62
   256
 51
90.0
 52
90.0
 71
     2
 49
0.5
 62
   256
  6
BYLAYER
 49
-0.5
 62
   256
  6
BYLAYER
  0
ACDBPLACEHOLDER
  5
F
102
{ACAD_REACTORS
330
E
102
}
330
E
  0
SCALE
  5
48
102
{ACAD_REACTORS
330
47
102
}
330
47
100
AcDbScale
 70
     0
300
1:1
140
1.0
141
1.0
290
     1
  0
SCALE
  5
49
102
{ACAD_REACTORS
330
47
102
}
330
47
100
AcDbScale
 70
     0
300
1:2
140
1.0
141
2.0
290
     0
  0
SCALE
  5
4A
102
{ACAD_REACTORS
330
47
102
}
330
47
100
AcDbScale
 70
     0
300
1:4
140
1.0
141
4.0
290
     0
  0
SCALE
  5
4B
102
{ACAD_REACTORS
330
47
102
}
330
47
100
AcDbScale
 70
     0
300
1:5
140
1.0
141
5.0
290
     0
  0
SCALE
  5
4C
102
{ACAD_REACTORS
330
47
102
}
330
47
100
AcDbScale
 70
     0
300
1:8
140
1.0
141
8.0
290
     0
  0
SCALE
  5
4D
102
{ACAD_REACTORS
330
47
102
}
330
47
100
AcDbScale
 70
     0
300
1:10
140
1.0
141
10.0
290
     0
  0
SCALE
  5
4E
102
{ACAD_REACTORS
330
47
102
}
330
47
100
AcDbScale
 70
     0
300
1:16
140
1.0
141
16.0
290
     0
  0
SCALE
  5
4F
102
{ACAD_REACTORS
330
47
102
}
330
47
100
AcDbScale
 70
     0
300
1:20
140
1.0
141
20.0
290
     0
  0
SCALE
  5
50
102
{ACAD_REACTORS
330
47
102
}
330
47
100
AcDbScale
 70
     0
300
1:30
140
1.0
141
30.0
290
     0
  0
SCALE
  5
51
102
{ACAD_REACTORS
330
47
102
}
330
47
100
AcDbScale
 70
     0
300
1:40
140
1.0
141
40.0
290
     0
  0
SCALE
  5
52
102
{ACAD_REACTORS
330
47
102
}
330
47
100
AcDbScale
 70
     0
300
1:50
140
1.0
141
50.0
290
     0
  0
SCALE
  5
53
102
{ACAD_REACTORS
330
47
102
}
330
47
100
AcDbScale
 70
     0
300
1:100
140
1.0
141
100.0
290
     0
  0
SCALE
  5
54
102
{ACAD_REACTORS
330
47
102
}
330
47
100
AcDbScale
 70
     0
300
2:1
140
2.0
141
1.0
290
     0
  0
SCALE
  5
55
102
{ACAD_REACTORS
330
47
102
}
330
47
100
AcDbScale
 70
     0
300
4:1
140
4.0
141
1.0
290
     0
  0
SCALE
  5
56
102
{ACAD_REACTORS
330
47
102
}
330
47
100
AcDbScale
 70
     0
300
8:1
140
8.0
141
1.0
290
     0
  0
SCALE
  5
57
102
{ACAD_REACTORS
330
47
102
}
330
47
100
AcDbScale
 70
     0
300
10:1
140
10.0
141
1.0
290
     0
  0
SCALE
  5
58
102
{ACAD_REACTORS
330
47
102
}
330
47
100
AcDbScale
 70
     0
300
100:1
140
100.0
141
1.0
290
     0
  0
SCALE
  5
59
102
{ACAD_REACTORS
330
47
102
}
330
47
100
AcDbScale
 70
     0
300
1/128" = 1'-0"
140
0.0078125
141
12.0
290
     0
  0
SCALE
  5
5A
102
{ACAD_REACTORS
330
47
102
}
330
47
100
AcDbScale
 70
     0
300
1/64" = 1'-0"
140
0.015625
141
12.0
290
     0
  0
SCALE
  5
5B
102
{ACAD_REACTORS
330
47
102
}
330
47
100
AcDbScale
 70
     0
300
1/32" = 1'-0"
140
0.03125
141
12.0
290
     0
  0
SCALE
  5
5C
102
{ACAD_REACTORS
330
47
102
}
330
47
100
AcDbScale
 70
     0
300
1/16" = 1'-0"
140
0.0625
141
12.0
290
     0
  0
SCALE
  5
5D
102
{ACAD_REACTORS
330
47
102
}
330
47
100
AcDbScale
 70
     0
300
3/32" = 1'-0"
140
0.09375
141
12.0
290
     0
  0
SCALE
  5
5E
102
{ACAD_REACTORS
330
47
102
}
330
47
100
AcDbScale
 70
     0
300
1/8" = 1'-0"
140
0.125
141
12.0
290
     0
  0
SCALE
  5
5F
102
{ACAD_REACTORS
330
47
102
}
330
47
100
AcDbScale
 70
     0
300
3/16" = 1'-0"
140
0.1875
141
12.0
290
     0
  0
SCALE
  5
60
102
{ACAD_REACTORS
330
47
102
}
330
47
100
AcDbScale
 70
     0
300
1/4" = 1'-0"
140
0.25
141
12.0
290
     0
  0
SCALE
  5
61
102
{ACAD_REACTORS
330
47
102
}
330
47
100
AcDbScale
 70
     0
300
3/8" = 1'-0"
140
0.375
141
12.0
290
     0
  0
SCALE
  5
62
102
{ACAD_REACTORS
330
47
102
}
330
47
100
AcDbScale
 70
     0
300
1/2" = 1'-0"
140
0.5
141
12.0
290
     0
  0
SCALE
  5
63
102
{ACAD_REACTORS
330
47
102
}
330
47
100
AcDbScale
 70
     0
300
3/4" = 1'-0"
140
0.75
141
12.0
290
     0
  0
SCALE
  5
64
102
{ACAD_REACTORS
330
47
102
}
330
47
100
AcDbScale
 70
     0
300
1" = 1'-0"
140
1.0
141
12.0
290
     0
  0
SCALE
  5
65
102
{ACAD_REACTORS
330
47
102
}
330
47
100
AcDbScale
 70
     0
300
1-1/2" = 1'-0"
140
1.5
141
12.0
290
     0
  0
SCALE
  5
66
102
{ACAD_REACTORS
330
47
102
}
330
47
100
AcDbScale
 70
     0
300
3" = 1'-0"
140
3.0
141
12.0
290
     0
  0
SCALE
  5
67
102
{ACAD_REACTORS
330
47
102
}
330
47
100
AcDbScale
 70
     0
300
6" = 1'-0"
140
6.0
141
12.0
290
     0
  0
SCALE
  5
68
102
{ACAD_REACTORS
330
47
102
}
330
47
100
AcDbScale
 70
     0
300
1'-0" = 1'-0"
140
12.0
141
12.0
290
     0
  0
ENDSEC
  0
EOF
