  0
SECTION
  2
HEADER
  9
$ACADVER
  1
AC1015
  9
$ACADMAINTVER
 70
     6
  9
$DWGCODEPAGE
  3
ANSI_1250
  9
$INSBASE
 10
0.0
 20
0.0
 30
0.0
  9
$EXTMIN
 10
0.0
 20
0.0
 30
0.0
  9
$EXTMAX
 10
594.0
 20
420.0
 30
0.0
  9
$LIMMIN
 10
0.0
 20
0.0
  9
$LIMMAX
 10
594.0
 20
420.0
  9
$ORTHOMODE
 70
     0
  9
$REGENMODE
 70
     1
  9
$FILLMODE
 70
     1
  9
$QTEXTMODE
 70
     0
  9
$MIRRTEXT
 70
     1
  9
$LTSCALE
 40
1.0
  9
$ATTMODE
 70
     1
  9
$TEXTSIZE
 40
3.5
  9
$TRACEWID
 40
1.0
  9
$TEXTSTYLE
  7
Standard
  9
$CLAYER
  8
0
  9
$CELTYPE
  6
ByLayer
  9
$CECOLOR
 62
   256
  9
$CELTSCALE
 40
1.0
  9
$DISPSILH
 70
     0
  9
$DIMSCALE
 40
1.0
  9
$DIMASZ
 40
3.302
  9
$DIMEXO
 40
1.0
  9
$DIMDLI
 40
3.75
  9
$DIMRND
 40
0.0
  9
$DIMDLE
 40
0.0
  9
$DIMEXE
 40
1.0
  9
$DIMTP
 40
0.0
  9
$DIMTM
 40
0.0
  9
$DIMTXT
 40
3.5
  9
$DIMCEN
 40
2.5
  9
$DIMTSZ
 40
0.0
  9
$DIMTOL
 70
     0
  9
$DIMLIM
 70
     0
  9
$DIMTIH
 70
     1
  9
$DIMTOH
 70
     1
  9
$DIMSE1
 70
     0
  9
$DIMSE2
 70
     0
  9
$DIMTAD
 70
     1
  9
$DIMZIN
 70
     1
  9
$DIMBLK
  1

  9
$DIMASO
 70
     1
  9
$DIMSHO
 70
     1
  9
$DIMPOST
  1

  9
$DIMAPOST
  1

  9
$DIMALT
 70
     0
  9
$DIMALTD
 70
     3
  9
$DIMALTF
 40
0.0393700787
  9
$DIMLFAC
 40
1.0
  9
$DIMTOFL
 70
     1
  9
$DIMTVP
 40
0.0
  9
$DIMTIX
 70
     0
  9
$DIMSOXD
 70
     0
  9
$DIMSAH
 70
     0
  9
$DIMBLK1
  1

  9
$DIMBLK2
  1

  9
$DIMSTYLE
  2
ISO-25
  9
$DIMCLRD
 70
     0
  9
$DIMCLRE
 70
     0
  9
$DIMCLRT
 70
     0
  9
$DIMTFAC
 40
1.0
  9
$DIMGAP
 40
1.524
  9
$DIMJUST
 70
     0
  9
$DIMSD1
 70
     0
  9
$DIMSD2
 70
     0
  9
$DIMTOLJ
 70
     0
  9
$DIMTZIN
 70
     1
  9
$DIMALTZ
 70
     0
  9
$DIMALTTZ
 70
     0
  9
$DIMUPT
 70
     0
  9
$DIMDEC
 70
     2
  9
$DIMTDEC
 70
     2
  9
$DIMALTU
 70
     2
  9
$DIMALTTD
 70
     3
  9
$DIMTXSTY
  7
Standard
  9
$DIMAUNIT
 70
     0
  9
$DIMADEC
 70
     2
  9
$DIMALTRND
 40
0.0
  9
$DIMAZIN
 70
     0
  9
$DIMDSEP
 70
    44
  9
$DIMATFIT
 70
     3
  9
$DIMFRAC
 70
     0
  9
$DIMLDRBLK
  1

  9
$DIMLUNIT
 70
     2
  9
$DIMLWD
 70
    -2
  9
$DIMLWE
 70
    -2
  9
$DIMTMOVE
 70
     0
  9
$LUNITS
 70
     2
  9
$LUPREC
 70
     4
  9
$SKETCHINC
 40
1.0
  9
$FILLETRAD
 40
10.0
  9
$AUNITS
 70
     0
  9
$AUPREC
 70
     2
  9
$MENU
  1
.
  9
$ELEVATION
 40
0.0
  9
$PELEVATION
 40
0.0
  9
$THICKNESS
 40
0.0
  9
$LIMCHECK
 70
     0
  9
$CHAMFERA
 40
0.0
  9
$CHAMFERB
 40
0.0
  9
$CHAMFERC
 40
0.0
  9
$CHAMFERD
 40
0.0
  9
$SKPOLY
 70
     0
  9
$TDCREATE
 40
2460707.529811597
  9
$TDUCREATE
 40
2460707.48814493
  9
$TDUPDATE
 40
2460707.529814306
  9
$TDUUPDATE
 40
2460707.488147639
  9
$TDINDWG
 40
0.0000000116
  9
$TDUSRTIMER
 40
0.0000000116
  9
$USRTIMER
 70
     1
  9
$ANGBASE
 50
0.0
  9
$ANGDIR
 70
     0
  9
$PDMODE
 70
     0
  9
$PDSIZE
 40
-1.0
  9
$PLINEWID
 40
0.0
  9
$SPLFRAME
 70
     0
  9
$SPLINETYPE
 70
     6
  9
$SPLINESEGS
 70
     8
  9
$HANDSEED
  5
322
  9
$SURFTAB1
 70
     6
  9
$SURFTAB2
 70
     6
  9
$SURFTYPE
 70
     6
  9
$SURFU
 70
     6
  9
$SURFV
 70
     6
  9
$UCSBASE
  2

  9
$UCSNAME
  2

  9
$UCSORG
 10
0.0
 20
0.0
 30
0.0
  9
$UCSXDIR
 10
1.0
 20
0.0
 30
0.0
  9
$UCSYDIR
 10
0.0
 20
1.0
 30
0.0
  9
$UCSORTHOREF
  2

  9
$UCSORTHOVIEW
 70
     0
  9
$UCSORGTOP
 10
0.0
 20
0.0
 30
0.0
  9
$UCSORGBOTTOM
 10
0.0
 20
0.0
 30
0.0
  9
$UCSORGLEFT
 10
0.0
 20
0.0
 30
0.0
  9
$UCSORGRIGHT
 10
0.0
 20
0.0
 30
0.0
  9
$UCSORGFRONT
 10
0.0
 20
0.0
 30
0.0
  9
$UCSORGBACK
 10
0.0
 20
0.0
 30
0.0
  9
$PUCSBASE
  2

  9
$PUCSNAME
  2

  9
$PUCSORG
 10
0.0
 20
0.0
 30
0.0
  9
$PUCSXDIR
 10
1.0
 20
0.0
 30
0.0
  9
$PUCSYDIR
 10
0.0
 20
1.0
 30
0.0
  9
$PUCSORTHOREF
  2

  9
$PUCSORTHOVIEW
 70
     0
  9
$PUCSORGTOP
 10
0.0
 20
0.0
 30
0.0
  9
$PUCSORGBOTTOM
 10
0.0
 20
0.0
 30
0.0
  9
$PUCSORGLEFT
 10
0.0
 20
0.0
 30
0.0
  9
$PUCSORGRIGHT
 10
0.0
 20
0.0
 30
0.0
  9
$PUCSORGFRONT
 10
0.0
 20
0.0
 30
0.0
  9
$PUCSORGBACK
 10
0.0
 20
0.0
 30
0.0
  9
$USERI1
 70
     0
  9
$USERI2
 70
     0
  9
$USERI3
 70
     0
  9
$USERI4
 70
     0
  9
$USERI5
 70
     0
  9
$USERR1
 40
0.0
  9
$USERR2
 40
0.0
  9
$USERR3
 40
0.0
  9
$USERR4
 40
0.0
  9
$USERR5
 40
0.0
  9
$WORLDVIEW
 70
     1
  9
$SHADEDGE
 70
     3
  9
$SHADEDIF
 70
    70
  9
$TILEMODE
 70
     1
  9
$MAXACTVP
 70
    64
  9
$PINSBASE
 10
0.0
 20
0.0
 30
0.0
  9
$PLIMCHECK
 70
     0
  9
$PEXTMIN
 10
1.0000000000E+20
 20
1.0000000000E+20
 30
1.0000000000E+20
  9
$PEXTMAX
 10
-1.0000000000E+20
 20
-1.0000000000E+20
 30
-1.0000000000E+20
  9
$PLIMMIN
 10
0.0
 20
0.0
  9
$PLIMMAX
 10
420.0
 20
297.0
  9
$UNITMODE
 70
     0
  9
$VISRETAIN
 70
     1
  9
$PLINEGEN
 70
     0
  9
$PSLTSCALE
 70
     1
  9
$TREEDEPTH
 70
  3020
  9
$CMLSTYLE
  2
Standard
  9
$CMLJUST
 70
     0
  9
$CMLSCALE
 40
20.0
  9
$PROXYGRAPHICS
 70
     1
  9
$MEASUREMENT
 70
     1
  9
$CELWEIGHT
370
    -1
  9
$ENDCAPS
280
     0
  9
$JOINSTYLE
280
     0
  9
$LWDISPLAY
290
     1
  9
$INSUNITS
 70
     4
  9
$HYPERLINKBASE
  1

  9
$STYLESHEET
  1

  9
$XEDIT
290
     1
  9
$CEPSNTYPE
380
     0
  9
$PSTYLEMODE
290
     1
  9
$FINGERPRINTGUID
  2
{54d8f1ea-ad73-41e3-b658-989afd613725}
  9
$VERSIONGUID
  2
{FAEB1C32-E019-11D5-929B-00C0DF256EC4}
  9
$EXTNAMES
290
     1
  9
$PSVPSCALE
 40
0.0
  9
$OLESTARTUP
290
     0
  0
ENDSEC
  0
SECTION
  2
CLASSES
  0
CLASS
  1
ACDBDICTIONARYWDFLT
  2
AcDbDictionaryWithDefault
  3
ObjectDBX Classes
 90
        0
280
     0
281
     0
  0
CLASS
  1
VISUALSTYLE
  2
AcDbVisualStyle
  3
ObjectDBX Classes
 90
     4095
280
     0
281
     0
  0
CLASS
  1
MATERIAL
  2
AcDbMaterial
  3
ObjectDBX Classes
 90
     1153
280
     0
281
     0
  0
CLASS
  1
SCALE
  2
AcDbScale
  3
ObjectDBX Classes
 90
     1153
280
     0
281
     0
  0
CLASS
  1
TABLESTYLE
  2
AcDbTableStyle
  3
ObjectDBX Classes
 90
     4095
280
     0
281
     0
  0
CLASS
  1
MLEADERSTYLE
  2
AcDbMLeaderStyle
  3
ACDB_MLEADERSTYLE_CLASS
 90
     4095
280
     0
281
     0
  0
CLASS
  1
SUN
  2
AcDbSun
  3
SCENEOE
 90
     1153
280
     0
281
     0
  0
CLASS
  1
ACDBPLACEHOLDER
  2
AcDbPlaceHolder
  3
ObjectDBX Classes
 90
        0
280
     0
281
     0
  0
CLASS
  1
LAYOUT
  2
AcDbLayout
  3
ObjectDBX Classes
 90
        0
280
     0
281
     0
  0
ENDSEC
  0
SECTION
  2
TABLES
  0
TABLE
  2
VPORT
  5
8
330
0
100
AcDbSymbolTable
 70
     1
  0
VPORT
  5
29
330
8
100
AcDbSymbolTableRecord
100
AcDbViewportTableRecord
  2
*Active
 70
     0
 10
0.0
 20
0.0
 11
1.0
 21
1.0
 12
297.0
 22
210.0
 13
0.0
 23
0.0
 14
10.0
 24
10.0
 15
10.0
 25
10.0
 16
0.0
 26
0.0
 36
1.0
 17
0.0
 27
0.0
 37
0.0
 40
420.0
 41
1.4142857143
 42
50.0
 43
0.0
 44
0.0
 50
0.0
 51
0.0
 71
     0
 72
  2000
 73
     1
 74
     3
 75
     0
 76
     0
 77
     0
 78
     0
281
     0
 65
     1
110
0.0
120
0.0
130
0.0
111
1.0
121
0.0
131
0.0
112
0.0
122
1.0
132
0.0
 79
     0
146
0.0
  0
ENDTAB
  0
TABLE
  2
LTYPE
  5
5
330
0
100
AcDbSymbolTable
 70
     6
  0
LTYPE
  5
14
330
5
100
AcDbSymbolTableRecord
100
AcDbLinetypeTableRecord
  2
ByBlock
 70
     0
  3

 72
    65
 73
     0
 40
0.0
  0
LTYPE
  5
15
330
5
100
AcDbSymbolTableRecord
100
AcDbLinetypeTableRecord
  2
ByLayer
 70
     0
  3

 72
    65
 73
     0
 40
0.0
  0
LTYPE
  5
16
330
5
100
AcDbSymbolTableRecord
100
AcDbLinetypeTableRecord
  2
Continuous
 70
     0
  3
Solid line
 72
    65
 73
     0
 40
0.0
  0
LTYPE
  5
6E
330
5
100
AcDbSymbolTableRecord
100
AcDbLinetypeTableRecord
  2
HIDDEN
 70
     0
  3
Hidden __ __ __ __ __ __ __ __ __ __ __ __ __ __
 72
    65
 73
     2
 40
1.905
 49
1.27
 74
     0
 49
-0.635
 74
     0
  0
LTYPE
  5
6F
330
5
100
AcDbSymbolTableRecord
100
AcDbLinetypeTableRecord
  2
PHANTOM
 70
     0
  3
Phantom ______  __  __  ______  __  __  ______
 72
    65
 73
     6
 40
12.7
 49
6.35
 74
     0
 49
-1.27
 74
     0
 49
1.27
 74
     0
 49
-1.27
 74
     0
 49
1.27
 74
     0
 49
-1.27
 74
     0
  0
LTYPE
  5
70
330
5
100
AcDbSymbolTableRecord
100
AcDbLinetypeTableRecord
  2
CENTER
 70
     0
  3
Center ____ _ ____ _ ____ _ ____ _ ____ _ ____
 72
    65
 73
     4
 40
10.16
 49
6.35
 74
     0
 49
-1.27
 74
     0
 49
1.27
 74
     0
 49
-1.27
 74
     0
  0
LTYPE
  5
71
330
5
100
AcDbSymbolTableRecord
100
AcDbLinetypeTableRecord
  2
CENTERX2
 70
     0
  3
Center (2x) ________  __  ________  __  _____
 72
    65
 73
     4
 40
20.32
 49
12.7
 74
     0
 49
-2.54
 74
     0
 49
2.54
 74
     0
 49
-2.54
 74
     0
  0
LTYPE
  5
72
330
5
100
AcDbSymbolTableRecord
100
AcDbLinetypeTableRecord
  2
DOT2
 70
     0
  3
Dot (.5x) ........................................
 72
    65
 73
     2
 40
0.635
 49
0.0
 74
     0
 49
-0.635
 74
     0
  0
ENDTAB
  0
TABLE
  2
LAYER
  5
2
330
0
100
AcDbSymbolTable
 70
     2
  0
LAYER
  5
10
330
2
100
AcDbSymbolTableRecord
100
AcDbLayerTableRecord
  2
0
 70
     0
 62
     7
  6
Continuous
370
    -3
390
F
  0
LAYER
  5
73
330
2
100
AcDbSymbolTableRecord
100
AcDbLayerTableRecord
  2
FORMAT
 70
     0
 62
     7
  6
Continuous
370
    -3
390
F
  0
ENDTAB
  0
TABLE
  2
STYLE
  5
3
330
0
100
AcDbSymbolTable
 70
     4
  0
STYLE
  5
11
330
3
100
AcDbSymbolTableRecord
100
AcDbTextStyleTableRecord
  2
Standard
 70
     0
 40
0.0
 41
1.0
 50
0.0
 71
     0
 42
3.5
  3
txt
  4

  0
STYLE
  5
BD
330
3
100
AcDbSymbolTableRecord
100
AcDbTextStyleTableRecord
  2
SLDTEXTSTYLE0
 70
     0
 40
0.0
 41
0.75
 50
0.0
 71
     0
 42
3.5
  3
TXT
  4

  0
STYLE
  5
E9
330
3
100
AcDbSymbolTableRecord
100
AcDbTextStyleTableRecord
  2
SLDTEXTSTYLE1
 70
     0
 40
0.0
 41
0.6875
 50
0.0
 71
     0
 42
3.5
  3
TXT
  4
bigfont
  0
STYLE
  5
EB
330
3
100
AcDbSymbolTableRecord
100
AcDbTextStyleTableRecord
  2
SLDTEXTSTYLE2
 70
     0
 40
0.0
 41
0.75
 50
0.0
 71
     0
 42
3.5
  3
TXT
  4
bigfont
  0
ENDTAB
  0
TABLE
  2
VIEW
  5
6
330
0
100
AcDbSymbolTable
 70
     0
  0
ENDTAB
  0
TABLE
  2
UCS
  5
7
330
0
100
AcDbSymbolTable
 70
     0
  0
ENDTAB
  0
TABLE
  2
APPID
  5
9
330
0
100
AcDbSymbolTable
 70
     1
  0
APPID
  5
12
330
9
100
AcDbSymbolTableRecord
100
AcDbRegAppTableRecord
  2
ACAD
 70
     0
  0
ENDTAB
  0
TABLE
  2
DIMSTYLE
  5
A
330
0
100
AcDbSymbolTable
 70
     6
100
AcDbDimStyleTable
  0
DIMSTYLE
105
27
330
A
100
AcDbSymbolTableRecord
100
AcDbDimStyleTableRecord
  2
ISO-25
 70
     0
 41
2.5
 42
0.625
 43
3.75
 44
1.25
 73
     0
 74
     0
 77
     1
 78
     8
140
2.5
141
2.5
143
0.0393700787
147
0.625
171
     3
172
     1
178
     0
271
     2
272
     2
274
     3
278
    44
283
     0
284
     8
340
11
  0
DIMSTYLE
105
229
102
{ACAD_REACTORS
330
228
330
2A8
330
2BD
102
}
330
A
100
AcDbSymbolTableRecord
100
AcDbDimStyleTableRecord
  2
SLDDIMSTYLE0
 70
     0
 41
3.302
 44
0.0
 45
0.000000001
 73
     0
 74
     0
 77
     1
 78
    12
 79
     3
140
3.5
147
0.875
173
     1
178
     0
271
     0
272
     0
276
     2
284
    12
340
BD
  0
DIMSTYLE
105
234
102
{ACAD_REACTORS
330
233
330
240
330
24D
330
259
330
265
102
}
330
A
100
AcDbSymbolTableRecord
100
AcDbDimStyleTableRecord
  2
SLDDIMSTYLE1
 70
     0
 41
3.302
 44
0.0
 45
0.000000001
 73
     0
 74
     0
 77
     1
 78
    12
 79
     3
140
3.5
147
0.875
172
     1
173
     1
178
     0
271
     0
272
     0
276
     2
284
    12
289
     0
340
BD
  0
DIMSTYLE
105
2B3
102
{ACAD_REACTORS
330
2B2
330
2C7
102
}
330
A
100
AcDbSymbolTableRecord
100
AcDbDimStyleTableRecord
  2
SLDDIMSTYLE2
 70
     0
 41
3.302
 44
0.0
 45
0.000000001
 73
     0
 74
     0
 77
     1
 78
    12
 79
     3
140
3.5
147
0.875
173
     1
178
     0
271
     2
272
     2
276
     2
284
    12
340
BD
  0
DIMSTYLE
105
2D2
102
{ACAD_REACTORS
330
2D1
102
}
330
A
100
AcDbSymbolTableRecord
100
AcDbDimStyleTableRecord
  2
SLDDIMSTYLE3
 70
     0
  3
<>
 41
3.302
 44
0.0
 45
0.000000001
 73
     0
 74
     0
 77
     1
 78
    12
 79
     3
140
3.5
141
0.0
147
0.875
172
     1
173
     1
178
     0
271
     0
272
     2
276
     2
284
    12
340
BD
341
2D3
343
2D3
  0
DIMSTYLE
105
2DE
102
{ACAD_REACTORS
330
2DD
102
}
330
A
100
AcDbSymbolTableRecord
100
AcDbDimStyleTableRecord
  2
SLDDIMSTYLE4
 70
     0
  3
<>
 41
3.302
 44
0.0
 45
0.000000001
 73
     0
 74
     0
 77
     1
 78
    12
 79
     3
140
3.5
141
0.0
147
0.875
172
     1
173
     1
178
     0
271
     0
272
     0
276
     2
284
    12
340
BD
341
2D3
343
2D3
  0
ENDTAB
  0
TABLE
  2
BLOCK_RECORD
  5
1
330
0
100
AcDbSymbolTable
 70
    21
  0
BLOCK_RECORD
  5
1F
330
1
100
AcDbSymbolTableRecord
100
AcDbBlockTableRecord
  2
*Model_Space
340
22
  0
BLOCK_RECORD
  5
1B
330
1
100
AcDbSymbolTableRecord
100
AcDbBlockTableRecord
  2
*Paper_Space
340
1E
  0
BLOCK_RECORD
  5
23
330
1
100
AcDbSymbolTableRecord
100
AcDbBlockTableRecord
  2
*Paper_Space0
340
26
  0
BLOCK_RECORD
  5
F5
330
1
100
AcDbSymbolTableRecord
100
AcDbBlockTableRecord
  2
SW_NOTE_0
340
0
102
{BLKREFS
331
FA
102
}
  0
BLOCK_RECORD
  5
FC
330
1
100
AcDbSymbolTableRecord
100
AcDbBlockTableRecord
  2
SW_NOTE_0_1
340
0
102
{BLKREFS
331
105
102
}
  0
BLOCK_RECORD
  5
22A
330
1
100
AcDbSymbolTableRecord
100
AcDbBlockTableRecord
  2
_D
340
0
  0
BLOCK_RECORD
  5
235
330
1
100
AcDbSymbolTableRecord
100
AcDbBlockTableRecord
  2
_D_1
340
0
  0
BLOCK_RECORD
  5
241
330
1
100
AcDbSymbolTableRecord
100
AcDbBlockTableRecord
  2
_D_2
340
0
  0
BLOCK_RECORD
  5
24E
330
1
100
AcDbSymbolTableRecord
100
AcDbBlockTableRecord
  2
_D_3
340
0
  0
BLOCK_RECORD
  5
25A
330
1
100
AcDbSymbolTableRecord
100
AcDbBlockTableRecord
  2
_D_4
340
0
  0
BLOCK_RECORD
  5
266
330
1
100
AcDbSymbolTableRecord
100
AcDbBlockTableRecord
  2
_D_5
340
0
  0
BLOCK_RECORD
  5
2A9
330
1
100
AcDbSymbolTableRecord
100
AcDbBlockTableRecord
  2
_D_6
340
0
  0
BLOCK_RECORD
  5
2B4
330
1
100
AcDbSymbolTableRecord
100
AcDbBlockTableRecord
  2
_D_7
340
0
  0
BLOCK_RECORD
  5
2BE
330
1
100
AcDbSymbolTableRecord
100
AcDbBlockTableRecord
  2
_D_8
340
0
  0
BLOCK_RECORD
  5
2C8
330
1
100
AcDbSymbolTableRecord
100
AcDbBlockTableRecord
  2
_D_9
340
0
  0
BLOCK_RECORD
  5
2D3
330
1
100
AcDbSymbolTableRecord
100
AcDbBlockTableRecord
  2
_None
340
0
  0
BLOCK_RECORD
  5
2D6
330
1
100
AcDbSymbolTableRecord
100
AcDbBlockTableRecord
  2
_D_10
340
0
  0
BLOCK_RECORD
  5
2DF
330
1
100
AcDbSymbolTableRecord
100
AcDbBlockTableRecord
  2
_D_11
340
0
  0
BLOCK_RECORD
  5
2E6
330
1
100
AcDbSymbolTableRecord
100
AcDbBlockTableRecord
  2
SW_CENTERMARKSYMBOL_0
340
0
102
{BLKREFS
331
2F1
102
}
  0
BLOCK_RECORD
  5
2F2
330
1
100
AcDbSymbolTableRecord
100
AcDbBlockTableRecord
  2
SW_CENTERMARKSYMBOL_1
340
0
102
{BLKREFS
331
2FD
102
}
  0
BLOCK_RECORD
  5
2FE
330
1
100
AcDbSymbolTableRecord
100
AcDbBlockTableRecord
  2
SW_CENTERMARKSYMBOL_2
340
0
102
{BLKREFS
331
309
102
}
  0
BLOCK_RECORD
  5
30A
330
1
100
AcDbSymbolTableRecord
100
AcDbBlockTableRecord
  2
SW_CENTERMARKSYMBOL_3
340
0
102
{BLKREFS
331
315
102
}
  0
BLOCK_RECORD
  5
316
330
1
100
AcDbSymbolTableRecord
100
AcDbBlockTableRecord
  2
SW_CENTERMARKSYMBOL_4
340
0
102
{BLKREFS
331
321
102
}
  0
ENDTAB
  0
ENDSEC
  0
SECTION
  2
BLOCKS
  0
BLOCK
  5
20
330
1F
100
AcDbEntity
  8
0
100
AcDbBlockBegin
  2
*Model_Space
 70
     0
 10
0.0
 20
0.0
 30
0.0
  3
*Model_Space
  1

  0
ENDBLK
  5
21
330
1F
100
AcDbEntity
  8
0
100
AcDbBlockEnd
  0
BLOCK
  5
1C
330
1B
100
AcDbEntity
 67
     1
  8
0
100
AcDbBlockBegin
  2
*Paper_Space
 70
     0
 10
0.0
 20
0.0
 30
0.0
  3
*Paper_Space
  1

  0
ENDBLK
  5
1D
330
1B
100
AcDbEntity
 67
     1
  8
0
100
AcDbBlockEnd
  0
BLOCK
  5
24
330
23
100
AcDbEntity
  8
0
100
AcDbBlockBegin
  2
*Paper_Space0
 70
     0
 10
0.0
 20
0.0
 30
0.0
  3
*Paper_Space0
  1

  0
ENDBLK
  5
25
330
23
100
AcDbEntity
  8
0
100
AcDbBlockEnd
  0
BLOCK
  5
F6
330
F5
100
AcDbEntity
  8
0
100
AcDbBlockBegin
  2
SW_NOTE_0
 70
     0
 10
0.0
 20
0.0
 30
0.0
  3
SW_NOTE_0
  1

  0
MTEXT
  5
F8
330
F5
100
AcDbEntity
  8
0
  6
Continuous
 62
     0
370
     0
100
AcDbMText
 10
0.0
 20
1.9336016097
 30
0.0
 40
1.5
 41
0.0
 71
     1
 72
     1
  1
ODSTRANIT
  7
SLDTEXTSTYLE0
 73
     1
 44
1.0
  0
MTEXT
  5
F9
330
F5
100
AcDbEntity
  8
0
  6
Continuous
 62
     0
370
     0
100
AcDbMText
 10
0.0
 20
-0.5663983345
 30
0.0
 40
1.5
 41
0.0
 71
     1
 72
     1
  1
OSTRÉ HRANY
  7
SLDTEXTSTYLE0
 73
     1
 44
1.0
  0
ENDBLK
  5
F7
330
F5
100
AcDbEntity
  8
0
100
AcDbBlockEnd
  0
BLOCK
  5
FD
330
FC
100
AcDbEntity
  8
0
100
AcDbBlockBegin
  2
SW_NOTE_0_1
 70
     0
 10
0.0
 20
0.0
 30
0.0
  3
SW_NOTE_0_1
  1

  0
MTEXT
  5
FF
330
FC
100
AcDbEntity
  8
0
  6
Continuous
 62
     0
370
     0
100
AcDbMText
 10
0.0
 20
1.9336016097
 30
0.0
 40
1.5
 41
0.0
 71
     1
 72
     1
  1
POKUD NENÍ UVEDENO JINAK:
  7
SLDTEXTSTYLE0
 73
     1
 44
1.0
  0
MTEXT
  5
100
330
FC
100
AcDbEntity
  8
0
  6
Continuous
 62
     0
370
     0
100
AcDbMText
 10
0.0
 20
-0.5663983345
 30
0.0
 40
1.5
 41
0.0
 71
     1
 72
     1
  1
JEDNOTKY JSOU V MILIMETRECH
  7
SLDTEXTSTYLE0
 73
     1
 44
1.0
  0
MTEXT
  5
101
330
FC
100
AcDbEntity
  8
0
  6
Continuous
 62
     0
370
     0
100
AcDbMText
 10
0.0
 20
-3.0663982786
 30
0.0
 40
1.5
 41
0.0
 71
     1
 72
     1
  1
DRSNOST:
  7
SLDTEXTSTYLE0
 73
     1
 44
1.0
  0
MTEXT
  5
102
330
FC
100
AcDbEntity
  8
0
  6
Continuous
 62
     0
370
     0
100
AcDbMText
 10
0.0
 20
-5.5663982227
 30
0.0
 40
1.5
 41
0.0
 71
     1
 72
     1
  1
TOLERANCE:
  7
SLDTEXTSTYLE0
 73
     1
 44
1.0
  0
MTEXT
  5
103
330
FC
100
AcDbEntity
  8
0
  6
Continuous
 62
     0
370
     0
100
AcDbMText
 10
1.6875
 20
-8.0663981668
 30
0.0
 40
1.5
 41
0.0
 71
     1
 72
     1
  1
LINEÁRNÍ:
  7
SLDTEXTSTYLE0
 73
     1
 44
1.0
  0
MTEXT
  5
104
330
FC
100
AcDbEntity
  8
0
  6
Continuous
 62
     0
370
     0
100
AcDbMText
 10
1.6875
 20
-10.5663981109
 30
0.0
 40
1.5
 41
0.0
 71
     1
 72
     1
  1
ÚHLOVÁ:
  7
SLDTEXTSTYLE0
 73
     1
 44
1.0
  0
ENDBLK
  5
FE
330
FC
100
AcDbEntity
  8
0
100
AcDbBlockEnd
  0
BLOCK
  5
22B
330
22A
100
AcDbEntity
  8
0
100
AcDbBlockBegin
  2
_D
 70
     0
 10
0.0
 20
0.0
 30
0.0
  3
_D
  1

  0
SOLID
  5
22D
330
22A
100
AcDbEntity
  8
0
  6
Continuous
 62
     7
370
    18
100
AcDbTrace
 10
80.4
 20
275.6
 30
0.0
 11
83.702
 21
275.092
 31
0.0
 12
83.702
 22
276.108
 32
0.0
 13
83.702
 23
276.108
 33
0.0
  0
SOLID
  5
22E
330
22A
100
AcDbEntity
  8
0
  6
Continuous
 62
     7
370
    18
100
AcDbTrace
 10
228.4
 20
275.6
 30
0.0
 11
225.098
 21
276.108
 31
0.0
 12
225.098
 22
275.092
 32
0.0
 13
225.098
 23
275.092
 33
0.0
  0
LINE
  5
22F
330
22A
100
AcDbEntity
  8
0
  6
Continuous
 62
     7
370
     0
100
AcDbLine
 10
80.4
 20
290.6
 30
0.0
 11
80.4
 21
274.6
 31
0.0
  0
LINE
  5
230
330
22A
100
AcDbEntity
  8
0
  6
Continuous
 62
     7
370
     0
100
AcDbLine
 10
228.4
 20
313.1
 30
0.0
 11
228.4
 21
274.6
 31
0.0
  0
LINE
  5
231
330
22A
100
AcDbEntity
  8
0
  6
Continuous
 62
     7
370
     0
100
AcDbLine
 10
80.4
 20
275.6
 30
0.0
 11
228.4
 21
275.6
 31
0.0
  0
MTEXT
  5
232
330
22A
100
AcDbEntity
  8
0
  6
Continuous
 62
     7
370
    18
100
AcDbMText
 10
150.5208333261
 20
280.1117369146
 30
0.0
 40
3.5
 41
0.0
 71
     1
 72
     1
  1
148
  7
SLDTEXTSTYLE0
 73
     1
 44
1.0
  0
ENDBLK
  5
22C
330
22A
100
AcDbEntity
  8
0
100
AcDbBlockEnd
  0
BLOCK
  5
236
330
235
100
AcDbEntity
  8
0
100
AcDbBlockBegin
  2
_D_1
 70
     0
 10
0.0
 20
0.0
 30
0.0
  3
_D_1
  1

  0
SOLID
  5
238
330
235
100
AcDbEntity
  8
0
  6
Continuous
 62
     7
370
    18
100
AcDbTrace
 10
217.4
 20
281.6
 30
0.0
 11
214.098
 21
282.108
 31
0.0
 12
214.098
 22
281.092
 32
0.0
 13
214.098
 23
281.092
 33
0.0
  0
SOLID
  5
239
330
235
100
AcDbEntity
  8
0
  6
Continuous
 62
     7
370
    18
100
AcDbTrace
 10
228.4
 20
281.6
 30
0.0
 11
231.702
 21
281.092
 31
0.0
 12
231.702
 22
282.108
 32
0.0
 13
231.702
 23
282.108
 33
0.0
  0
LINE
  5
23A
330
235
100
AcDbEntity
  8
0
  6
Continuous
 62
     7
370
     0
100
AcDbLine
 10
217.4
 20
290.6
 30
0.0
 11
217.4
 21
280.6
 31
0.0
  0
LINE
  5
23B
330
235
100
AcDbEntity
  8
0
  6
Continuous
 62
     7
370
     0
100
AcDbLine
 10
228.4
 20
313.1
 30
0.0
 11
228.4
 21
280.6
 31
0.0
  0
LINE
  5
23C
330
235
100
AcDbEntity
  8
0
  6
Continuous
 62
     7
370
     0
100
AcDbLine
 10
217.4
 20
281.6
 30
0.0
 11
211.05
 21
281.6
 31
0.0
  0
LINE
  5
23D
330
235
100
AcDbEntity
  8
0
  6
Continuous
 62
     7
370
     0
100
AcDbLine
 10
217.4
 20
281.6
 30
0.0
 11
228.4
 21
281.6
 31
0.0
  0
LINE
  5
23E
330
235
100
AcDbEntity
  8
0
  6
Continuous
 62
     7
370
     0
100
AcDbLine
 10
228.4
 20
281.6
 30
0.0
 11
234.75
 21
281.6
 31
0.0
  0
MTEXT
  5
23F
330
235
100
AcDbEntity
  8
0
  6
Continuous
 62
     7
370
    18
100
AcDbMText
 10
220.3138888065
 20
286.1117369146
 30
0.0
 40
3.5
 41
0.0
 71
     1
 72
     1
  1
11
  7
SLDTEXTSTYLE0
 73
     1
 44
1.0
  0
ENDBLK
  5
237
330
235
100
AcDbEntity
  8
0
100
AcDbBlockEnd
  0
BLOCK
  5
242
330
241
100
AcDbEntity
  8
0
100
AcDbBlockBegin
  2
_D_2
 70
     0
 10
0.0
 20
0.0
 30
0.0
  3
_D_2
  1

  0
SOLID
  5
244
330
241
100
AcDbEntity
  8
0
  6
Continuous
 62
     7
370
    18
100
AcDbTrace
 10
238.4
 20
312.6
 30
0.0
 11
237.892
 21
309.298
 31
0.0
 12
238.908
 22
309.298
 32
0.0
 13
238.908
 23
309.298
 33
0.0
  0
SOLID
  5
245
330
241
100
AcDbEntity
  8
0
  6
Continuous
 62
     7
370
    18
100
AcDbTrace
 10
238.4
 20
330.6
 30
0.0
 11
238.908
 21
333.902
 31
0.0
 12
237.892
 22
333.902
 32
0.0
 13
237.892
 23
333.902
 33
0.0
  0
LINE
  5
246
330
241
100
AcDbEntity
  8
0
  6
Continuous
 62
     7
370
     0
100
AcDbLine
 10
222.9
 20
312.6
 30
0.0
 11
239.4
 21
312.6
 31
0.0
  0
LINE
  5
247
330
241
100
AcDbEntity
  8
0
  6
Continuous
 62
     7
370
     0
100
AcDbLine
 10
222.9
 20
330.6
 30
0.0
 11
239.4
 21
330.6
 31
0.0
  0
LINE
  5
248
330
241
100
AcDbEntity
  8
0
  6
Continuous
 62
     7
370
     0
100
AcDbLine
 10
238.4
 20
312.6
 30
0.0
 11
238.4
 21
306.25
 31
0.0
  0
LINE
  5
249
330
241
100
AcDbEntity
  8
0
  6
Continuous
 62
     7
370
     0
100
AcDbLine
 10
238.4
 20
312.6
 30
0.0
 11
238.4
 21
330.6
 31
0.0
  0
LINE
  5
24A
330
241
100
AcDbEntity
  8
0
  6
Continuous
 62
     7
370
     0
100
AcDbLine
 10
238.4
 20
330.6
 30
0.0
 11
238.4
 21
336.95
 31
0.0
  0
MTEXT
  5
24B
330
241
100
AcDbEntity
  8
0
  6
Continuous
 62
     7
370
    18
100
AcDbMText
 10
233.8882629108
 20
316.3746698745
 30
0.0
 40
3.5
 41
0.0
 71
     1
 72
     1
  1
%%c
  7
SLDTEXTSTYLE0
 11
6.123233995736766E-17
 21
1.0
 31
0.0
 73
     1
 44
1.0
  0
MTEXT
  5
24C
330
241
100
AcDbEntity
  8
0
  6
Continuous
 62
     7
370
    18
100
AcDbMText
 10
233.8347907341
 20
321.6531072728
 30
0.0
 40
3.5
 41
0.0
 71
     1
 72
     1
  1
18
  7
SLDTEXTSTYLE0
 11
6.123233995736766E-17
 21
1.0
 31
0.0
 73
     1
 44
1.0
  0
ENDBLK
  5
243
330
241
100
AcDbEntity
  8
0
100
AcDbBlockEnd
  0
BLOCK
  5
24F
330
24E
100
AcDbEntity
  8
0
100
AcDbBlockBegin
  2
_D_3
 70
     0
 10
0.0
 20
0.0
 30
0.0
  3
_D_3
  1

  0
SOLID
  5
251
330
24E
100
AcDbEntity
  8
0
  6
Continuous
 62
     7
370
    18
100
AcDbTrace
 10
68.4
 20
281.6
 30
0.0
 11
65.098
 21
282.108
 31
0.0
 12
65.098
 22
281.092
 32
0.0
 13
65.098
 23
281.092
 33
0.0
  0
SOLID
  5
252
330
24E
100
AcDbEntity
  8
0
  6
Continuous
 62
     7
370
    18
100
AcDbTrace
 10
80.4
 20
281.6
 30
0.0
 11
83.702
 21
281.092
 31
0.0
 12
83.702
 22
282.108
 32
0.0
 13
83.702
 23
282.108
 33
0.0
  0
LINE
  5
253
330
24E
100
AcDbEntity
  8
0
  6
Continuous
 62
     7
370
     0
100
AcDbLine
 10
68.4
 20
294.55
 30
0.0
 11
68.4
 21
280.6
 31
0.0
  0
LINE
  5
254
330
24E
100
AcDbEntity
  8
0
  6
Continuous
 62
     7
370
     0
100
AcDbLine
 10
80.4
 20
290.6
 30
0.0
 11
80.4
 21
280.6
 31
0.0
  0
LINE
  5
255
330
24E
100
AcDbEntity
  8
0
  6
Continuous
 62
     7
370
     0
100
AcDbLine
 10
68.4
 20
281.6
 30
0.0
 11
62.05
 21
281.6
 31
0.0
  0
LINE
  5
256
330
24E
100
AcDbEntity
  8
0
  6
Continuous
 62
     7
370
     0
100
AcDbLine
 10
68.4
 20
281.6
 30
0.0
 11
80.4
 21
281.6
 31
0.0
  0
LINE
  5
257
330
24E
100
AcDbEntity
  8
0
  6
Continuous
 62
     7
370
     0
100
AcDbLine
 10
80.4
 20
281.6
 30
0.0
 11
86.75
 21
281.6
 31
0.0
  0
MTEXT
  5
258
330
24E
100
AcDbEntity
  8
0
  6
Continuous
 62
     7
370
    18
100
AcDbMText
 10
71.8138888065
 20
286.1117369146
 30
0.0
 40
3.5
 41
0.0
 71
     1
 72
     1
  1
12
  7
SLDTEXTSTYLE0
 73
     1
 44
1.0
  0
ENDBLK
  5
250
330
24E
100
AcDbEntity
  8
0
100
AcDbBlockEnd
  0
BLOCK
  5
25B
330
25A
100
AcDbEntity
  8
0
100
AcDbBlockBegin
  2
_D_4
 70
     0
 10
0.0
 20
0.0
 30
0.0
  3
_D_4
  1

  0
SOLID
  5
25D
330
25A
100
AcDbEntity
  8
0
  6
Continuous
 62
     7
370
    18
100
AcDbTrace
 10
225.4
 20
361.6
 30
0.0
 11
228.702
 21
361.092
 31
0.0
 12
228.702
 22
362.108
 32
0.0
 13
228.702
 23
362.108
 33
0.0
  0
SOLID
  5
25E
330
25A
100
AcDbEntity
  8
0
  6
Continuous
 62
     7
370
    18
100
AcDbTrace
 10
217.4
 20
361.6
 30
0.0
 11
214.098
 21
362.108
 31
0.0
 12
214.098
 22
361.092
 32
0.0
 13
214.098
 23
361.092
 33
0.0
  0
LINE
  5
25F
330
25A
100
AcDbEntity
  8
0
  6
Continuous
 62
     7
370
     0
100
AcDbLine
 10
225.4
 20
337.1
 30
0.0
 11
225.4
 21
362.6
 31
0.0
  0
LINE
  5
260
330
25A
100
AcDbEntity
  8
0
  6
Continuous
 62
     7
370
     0
100
AcDbLine
 10
217.4
 20
352.6
 30
0.0
 11
217.4
 21
362.6
 31
0.0
  0
LINE
  5
261
330
25A
100
AcDbEntity
  8
0
  6
Continuous
 62
     7
370
     0
100
AcDbLine
 10
225.4
 20
361.6
 30
0.0
 11
231.75
 21
361.6
 31
0.0
  0
LINE
  5
262
330
25A
100
AcDbEntity
  8
0
  6
Continuous
 62
     7
370
     0
100
AcDbLine
 10
225.4
 20
361.6
 30
0.0
 11
217.4
 21
361.6
 31
0.0
  0
LINE
  5
263
330
25A
100
AcDbEntity
  8
0
  6
Continuous
 62
     7
370
     0
100
AcDbLine
 10
217.4
 20
361.6
 30
0.0
 11
211.05
 21
361.6
 31
0.0
  0
MTEXT
  5
264
330
25A
100
AcDbEntity
  8
0
  6
Continuous
 62
     7
370
    18
100
AcDbMText
 10
220.1069444032
 20
366.1117369146
 30
0.0
 40
3.5
 41
0.0
 71
     1
 72
     1
  1
8
  7
SLDTEXTSTYLE0
 73
     1
 44
1.0
  0
ENDBLK
  5
25C
330
25A
100
AcDbEntity
  8
0
100
AcDbBlockEnd
  0
BLOCK
  5
267
330
266
100
AcDbEntity
  8
0
100
AcDbBlockBegin
  2
_D_5
 70
     0
 10
0.0
 20
0.0
 30
0.0
  3
_D_5
  1

  0
SOLID
  5
269
330
266
100
AcDbEntity
  8
0
  6
Continuous
 62
     7
370
    18
100
AcDbTrace
 10
250.4
 20
306.6
 30
0.0
 11
250.908
 21
309.902
 31
0.0
 12
249.892
 22
309.902
 32
0.0
 13
249.892
 23
309.902
 33
0.0
  0
SOLID
  5
26A
330
266
100
AcDbEntity
  8
0
  6
Continuous
 62
     7
370
    18
100
AcDbTrace
 10
250.4
 20
336.6
 30
0.0
 11
249.892
 21
333.298
 31
0.0
 12
250.908
 22
333.298
 32
0.0
 13
250.908
 23
333.298
 33
0.0
  0
LINE
  5
26B
330
266
100
AcDbEntity
  8
0
  6
Continuous
 62
     7
370
     0
100
AcDbLine
 10
225.9
 20
306.6
 30
0.0
 11
251.4
 21
306.6
 31
0.0
  0
LINE
  5
26C
330
266
100
AcDbEntity
  8
0
  6
Continuous
 62
     7
370
     0
100
AcDbLine
 10
225.9
 20
336.6
 30
0.0
 11
251.4
 21
336.6
 31
0.0
  0
LINE
  5
26D
330
266
100
AcDbEntity
  8
0
  6
Continuous
 62
     7
370
     0
100
AcDbLine
 10
250.4
 20
306.6
 30
0.0
 11
250.4
 21
336.6
 31
0.0
  0
MTEXT
  5
26E
330
266
100
AcDbEntity
  8
0
  6
Continuous
 62
     7
370
    18
100
AcDbMText
 10
245.8882629108
 20
313.7034891158
 30
0.0
 40
3.5
 41
0.0
 71
     1
 72
     1
  1
%%c
  7
SLDTEXTSTYLE0
 11
-1.608122649676637E-16
 21
1.0
 31
0.0
 73
     1
 44
1.0
  0
MTEXT
  5
26F
330
266
100
AcDbEntity
  8
0
  6
Continuous
 62
     7
370
    18
100
AcDbMText
 10
245.8347907341
 20
318.9819265142
 30
0.0
 40
3.5
 41
0.0
 71
     1
 72
     1
  1
30
  7
SLDTEXTSTYLE0
 11
-1.608122649676637E-16
 21
1.0
 31
0.0
 73
     1
 44
1.0
  0
MTEXT
  5
270
330
266
100
AcDbEntity
  8
0
  6
Continuous
 62
     7
370
    18
100
AcDbMText
 10
245.8347907341
 20
325.4666484356
 30
0.0
 40
3.5
 41
0.0
 71
     1
 72
     1
  1
f9
  7
SLDTEXTSTYLE0
 11
-1.608122649676637E-16
 21
1.0
 31
0.0
 73
     1
 44
1.0
  0
ENDBLK
  5
268
330
266
100
AcDbEntity
  8
0
100
AcDbBlockEnd
  0
BLOCK
  5
2AA
330
2A9
100
AcDbEntity
  8
0
100
AcDbBlockBegin
  2
_D_6
 70
     0
 10
0.0
 20
0.0
 30
0.0
  3
_D_6
  1

  0
SOLID
  5
2AC
330
2A9
100
AcDbEntity
  8
0
  6
Continuous
 62
     7
370
    18
100
AcDbTrace
 10
144.4
 20
91.6
 30
0.0
 11
144.908
 21
94.902
 31
0.0
 12
143.892
 22
94.902
 32
0.0
 13
143.892
 23
94.902
 33
0.0
  0
SOLID
  5
2AD
330
2A9
100
AcDbEntity
  8
0
  6
Continuous
 62
     7
370
    18
100
AcDbTrace
 10
144.4
 20
151.6
 30
0.0
 11
143.892
 21
148.298
 31
0.0
 12
144.908
 22
148.298
 32
0.0
 13
144.908
 23
148.298
 33
0.0
  0
LINE
  5
2AE
330
2A9
100
AcDbEntity
  8
0
  6
Continuous
 62
     7
370
     0
100
AcDbLine
 10
128.9
 20
91.6
 30
0.0
 11
145.4
 21
91.6
 31
0.0
  0
LINE
  5
2AF
330
2A9
100
AcDbEntity
  8
0
  6
Continuous
 62
     7
370
     0
100
AcDbLine
 10
128.9
 20
151.6
 30
0.0
 11
145.4
 21
151.6
 31
0.0
  0
LINE
  5
2B0
330
2A9
100
AcDbEntity
  8
0
  6
Continuous
 62
     7
370
     0
100
AcDbLine
 10
144.4
 20
91.6
 30
0.0
 11
144.4
 21
151.6
 31
0.0
  0
MTEXT
  5
2B1
330
2A9
100
AcDbEntity
  8
0
  6
Continuous
 62
     7
370
    18
100
AcDbMText
 10
139.8882630854
 20
119.0138888065
 30
0.0
 40
3.5
 41
0.0
 71
     1
 72
     1
  1
60
  7
SLDTEXTSTYLE0
 11
6.123233995736766E-17
 21
1.0
 31
0.0
 73
     1
 44
1.0
  0
ENDBLK
  5
2AB
330
2A9
100
AcDbEntity
  8
0
100
AcDbBlockEnd
  0
BLOCK
  5
2B5
330
2B4
100
AcDbEntity
  8
0
100
AcDbBlockBegin
  2
_D_7
 70
     0
 10
0.0
 20
0.0
 30
0.0
  3
_D_7
  1

  0
SOLID
  5
2B7
330
2B4
100
AcDbEntity
  8
0
  6
Continuous
 62
     7
370
    18
100
AcDbTrace
 10
138.4
 20
100.75
 30
0.0
 11
138.908
 21
104.052
 31
0.0
 12
137.892
 22
104.052
 32
0.0
 13
137.892
 23
104.052
 33
0.0
  0
SOLID
  5
2B8
330
2B4
100
AcDbEntity
  8
0
  6
Continuous
 62
     7
370
    18
100
AcDbTrace
 10
138.4
 20
142.45
 30
0.0
 11
137.892
 21
139.148
 31
0.0
 12
138.908
 22
139.148
 32
0.0
 13
138.908
 23
139.148
 33
0.0
  0
LINE
  5
2B9
330
2B4
100
AcDbEntity
  8
0
  6
Continuous
 62
     7
370
     0
100
AcDbLine
 10
127.25
 20
100.75
 30
0.0
 11
139.4
 21
100.75
 31
0.0
  0
LINE
  5
2BA
330
2B4
100
AcDbEntity
  8
0
  6
Continuous
 62
     7
370
     0
100
AcDbLine
 10
127.25
 20
142.45
 30
0.0
 11
139.4
 21
142.45
 31
0.0
  0
LINE
  5
2BB
330
2B4
100
AcDbEntity
  8
0
  6
Continuous
 62
     7
370
     0
100
AcDbLine
 10
138.4
 20
100.75
 30
0.0
 11
138.4
 21
142.45
 31
0.0
  0
MTEXT
  5
2BC
330
2B4
100
AcDbEntity
  8
0
  6
Continuous
 62
     7
370
    18
100
AcDbMText
 10
133.8882630854
 20
115.7812497564
 30
0.0
 40
3.5
 41
0.0
 71
     1
 72
     1
  1
41,70
  7
SLDTEXTSTYLE0
 11
6.123233995736766E-17
 21
1.0
 31
0.0
 73
     1
 44
1.0
  0
ENDBLK
  5
2B6
330
2B4
100
AcDbEntity
  8
0
100
AcDbBlockEnd
  0
BLOCK
  5
2BF
330
2BE
100
AcDbEntity
  8
0
100
AcDbBlockBegin
  2
_D_8
 70
     0
 10
0.0
 20
0.0
 30
0.0
  3
_D_8
  1

  0
SOLID
  5
2C1
330
2BE
100
AcDbEntity
  8
0
  6
Continuous
 62
     7
370
    18
100
AcDbTrace
 10
68.4
 20
167.6
 30
0.0
 11
71.702
 21
167.092
 31
0.0
 12
71.702
 22
168.108
 32
0.0
 13
71.702
 23
168.108
 33
0.0
  0
SOLID
  5
2C2
330
2BE
100
AcDbEntity
  8
0
  6
Continuous
 62
     7
370
    18
100
AcDbTrace
 10
128.4
 20
167.6
 30
0.0
 11
125.098
 21
168.108
 31
0.0
 12
125.098
 22
167.092
 32
0.0
 13
125.098
 23
167.092
 33
0.0
  0
LINE
  5
2C3
330
2BE
100
AcDbEntity
  8
0
  6
Continuous
 62
     7
370
     0
100
AcDbLine
 10
68.4
 20
152.1
 30
0.0
 11
68.4
 21
168.6
 31
0.0
  0
LINE
  5
2C4
330
2BE
100
AcDbEntity
  8
0
  6
Continuous
 62
     7
370
     0
100
AcDbLine
 10
128.4
 20
152.1
 30
0.0
 11
128.4
 21
168.6
 31
0.0
  0
LINE
  5
2C5
330
2BE
100
AcDbEntity
  8
0
  6
Continuous
 62
     7
370
     0
100
AcDbLine
 10
68.4
 20
167.6
 30
0.0
 11
128.4
 21
167.6
 31
0.0
  0
MTEXT
  5
2C6
330
2BE
100
AcDbEntity
  8
0
  6
Continuous
 62
     7
370
    18
100
AcDbMText
 10
95.8138888065
 20
172.1117369146
 30
0.0
 40
3.5
 41
0.0
 71
     1
 72
     1
  1
60
  7
SLDTEXTSTYLE0
 73
     1
 44
1.0
  0
ENDBLK
  5
2C0
330
2BE
100
AcDbEntity
  8
0
100
AcDbBlockEnd
  0
BLOCK
  5
2C9
330
2C8
100
AcDbEntity
  8
0
100
AcDbBlockBegin
  2
_D_9
 70
     0
 10
0.0
 20
0.0
 30
0.0
  3
_D_9
  1

  0
SOLID
  5
2CB
330
2C8
100
AcDbEntity
  8
0
  6
Continuous
 62
     7
370
    18
100
AcDbTrace
 10
77.55
 20
161.6
 30
0.0
 11
80.852
 21
161.092
 31
0.0
 12
80.852
 22
162.108
 32
0.0
 13
80.852
 23
162.108
 33
0.0
  0
SOLID
  5
2CC
330
2C8
100
AcDbEntity
  8
0
  6
Continuous
 62
     7
370
    18
100
AcDbTrace
 10
119.25
 20
161.6
 30
0.0
 11
115.948
 21
162.108
 31
0.0
 12
115.948
 22
161.092
 32
0.0
 13
115.948
 23
161.092
 33
0.0
  0
LINE
  5
2CD
330
2C8
100
AcDbEntity
  8
0
  6
Continuous
 62
     7
370
     0
100
AcDbLine
 10
77.55
 20
150.45
 30
0.0
 11
77.55
 21
162.6
 31
0.0
  0
LINE
  5
2CE
330
2C8
100
AcDbEntity
  8
0
  6
Continuous
 62
     7
370
     0
100
AcDbLine
 10
119.25
 20
150.45
 30
0.0
 11
119.25
 21
162.6
 31
0.0
  0
LINE
  5
2CF
330
2C8
100
AcDbEntity
  8
0
  6
Continuous
 62
     7
370
     0
100
AcDbLine
 10
77.55
 20
161.6
 30
0.0
 11
119.25
 21
161.6
 31
0.0
  0
MTEXT
  5
2D0
330
2C8
100
AcDbEntity
  8
0
  6
Continuous
 62
     7
370
    18
100
AcDbMText
 10
92.5812497564
 20
166.1117369146
 30
0.0
 40
3.5
 41
0.0
 71
     1
 72
     1
  1
41,70
  7
SLDTEXTSTYLE0
 73
     1
 44
1.0
  0
ENDBLK
  5
2CA
330
2C8
100
AcDbEntity
  8
0
100
AcDbBlockEnd
  0
BLOCK
  5
2D4
330
2D3
100
AcDbEntity
  8
0
100
AcDbBlockBegin
  2
_None
 70
     0
 10
0.0
 20
0.0
 30
0.0
  3
_None
  1

  0
ENDBLK
  5
2D5
330
2D3
100
AcDbEntity
  8
0
100
AcDbBlockEnd
  0
BLOCK
  5
2D7
330
2D6
100
AcDbEntity
  8
0
100
AcDbBlockBegin
  2
_D_10
 70
     0
 10
0.0
 20
0.0
 30
0.0
  3
_D_10
  1

  0
SOLID
  5
2D9
330
2D6
100
AcDbEntity
  8
0
  6
Continuous
 62
     7
370
    18
100
AcDbTrace
 10
95.1826641456
 20
118.3826641456
 30
0.0
 11
92.4885873093
 21
116.407007799
 31
0.0
 12
93.207007799
 22
115.6885873093
 32
0.0
 13
93.207007799
 23
115.6885873093
 33
0.0
  0
LINE
  5
2DA
330
2D6
100
AcDbEntity
  8
0
  6
Continuous
 62
     7
370
     0
100
AcDbLine
 10
95.1826641456
 20
118.3826641456
 30
0.0
 11
52.0255086017
 21
75.2255086017
 31
0.0
  0
LINE
  5
2DB
330
2D6
100
AcDbEntity
  8
0
  6
Continuous
 62
     7
370
     0
100
AcDbLine
 10
95.1826641456
 20
118.3826641456
 30
0.0
 11
101.6173358544
 21
124.8173358544
 31
0.0
  0
MTEXT
  5
2DC
330
2D6
100
AcDbEntity
  8
0
  6
Continuous
 62
     7
370
    18
100
AcDbMText
 10
48.8375935323
 20
78.4134236712
 30
0.0
 40
3.5
 41
0.0
 71
     1
 72
     1
  1
M14x1.5
  7
SLDTEXTSTYLE0
 11
0.7071067811865378
 21
0.7071067811865572
 31
0.0
 73
     1
 44
1.0
  0
ENDBLK
  5
2D8
330
2D6
100
AcDbEntity
  8
0
100
AcDbBlockEnd
  0
BLOCK
  5
2E0
330
2DF
100
AcDbEntity
  8
0
100
AcDbBlockBegin
  2
_D_11
 70
     0
 10
0.0
 20
0.0
 30
0.0
  3
_D_11
  1

  0
SOLID
  5
2E2
330
2DF
100
AcDbEntity
  8
0
  6
Continuous
 62
     7
370
    18
100
AcDbTrace
 10
73.05
 20
142.45
 30
0.0
 11
69.748
 21
142.958
 31
0.0
 12
69.748
 22
141.942
 32
0.0
 13
69.748
 23
141.942
 33
0.0
  0
LINE
  5
2E3
330
2DF
100
AcDbEntity
  8
0
  6
Continuous
 62
     7
370
     0
100
AcDbLine
 10
73.05
 20
142.45
 30
0.0
 11
45.763019289
 21
142.45
 31
0.0
  0
LINE
  5
2E4
330
2DF
100
AcDbEntity
  8
0
  6
Continuous
 62
     7
370
     0
100
AcDbLine
 10
73.05
 20
142.45
 30
0.0
 11
82.05
 21
142.45
 31
0.0
  0
MTEXT
  5
2E5
330
2DF
100
AcDbEntity
  8
0
  6
Continuous
 62
     7
370
    18
100
AcDbMText
 10
45.763019289
 20
146.941465416
 30
0.0
 40
3.5
 41
0.0
 71
     1
 72
     1
  1
M8x1.25
  7
SLDTEXTSTYLE0
 73
     1
 44
1.0
  0
ENDBLK
  5
2E1
330
2DF
100
AcDbEntity
  8
0
100
AcDbBlockEnd
  0
BLOCK
  5
2E7
330
2E6
100
AcDbEntity
  8
0
100
AcDbBlockBegin
  2
SW_CENTERMARKSYMBOL_0
 70
     0
 10
0.0
 20
0.0
 30
0.0
  3
SW_CENTERMARKSYMBOL_0
  1

  0
LINE
  5
2E9
330
2E6
100
AcDbEntity
  8
0
  6
Continuous
 62
     0
370
    18
100
AcDbLine
 10
0.0
 20
0.0
 30
0.0
 11
0.0
 21
2.5
 31
0.0
  0
LINE
  5
2EA
330
2E6
100
AcDbEntity
  8
0
  6
Continuous
 62
     0
370
    18
100
AcDbLine
 10
0.0
 20
0.0
 30
0.0
 11
-2.5
 21
0.0
 31
0.0
  0
LINE
  5
2EB
330
2E6
100
AcDbEntity
  8
0
  6
Continuous
 62
     0
370
    18
100
AcDbLine
 10
0.0
 20
0.0
 30
0.0
 11
0.0
 21
-2.5
 31
0.0
  0
LINE
  5
2EC
330
2E6
100
AcDbEntity
  8
0
  6
Continuous
 62
     0
370
    18
100
AcDbLine
 10
0.0
 20
0.0
 30
0.0
 11
2.5
 21
0.0
 31
0.0
  0
LINE
  5
2ED
330
2E6
100
AcDbEntity
  8
0
  6
Continuous
 62
     0
370
    18
100
AcDbLine
 10
0.0
 20
5.0
 30
0.0
 11
0.0
 21
17.0
 31
0.0
  0
LINE
  5
2EE
330
2E6
100
AcDbEntity
  8
0
  6
Continuous
 62
     0
370
    18
100
AcDbLine
 10
-5.0
 20
0.0
 30
0.0
 11
-17.0
 21
0.0
 31
0.0
  0
LINE
  5
2EF
330
2E6
100
AcDbEntity
  8
0
  6
Continuous
 62
     0
370
    18
100
AcDbLine
 10
0.0
 20
-5.0
 30
0.0
 11
0.0
 21
-17.0
 31
0.0
  0
LINE
  5
2F0
330
2E6
100
AcDbEntity
  8
0
  6
Continuous
 62
     0
370
    18
100
AcDbLine
 10
5.0
 20
0.0
 30
0.0
 11
17.0
 21
0.0
 31
0.0
  0
ENDBLK
  5
2E8
330
2E6
100
AcDbEntity
  8
0
100
AcDbBlockEnd
  0
BLOCK
  5
2F3
330
2F2
100
AcDbEntity
  8
0
100
AcDbBlockBegin
  2
SW_CENTERMARKSYMBOL_1
 70
     0
 10
0.0
 20
0.0
 30
0.0
  3
SW_CENTERMARKSYMBOL_1
  1

  0
LINE
  5
2F5
330
2F2
100
AcDbEntity
  8
0
  6
Continuous
 62
     0
370
    18
100
AcDbLine
 10
0.0
 20
0.0
 30
0.0
 11
0.0
 21
2.5
 31
0.0
  0
LINE
  5
2F6
330
2F2
100
AcDbEntity
  8
0
  6
Continuous
 62
     0
370
    18
100
AcDbLine
 10
0.0
 20
0.0
 30
0.0
 11
-2.5
 21
0.0
 31
0.0
  0
LINE
  5
2F7
330
2F2
100
AcDbEntity
  8
0
  6
Continuous
 62
     0
370
    18
100
AcDbLine
 10
0.0
 20
0.0
 30
0.0
 11
0.0
 21
-2.5
 31
0.0
  0
LINE
  5
2F8
330
2F2
100
AcDbEntity
  8
0
  6
Continuous
 62
     0
370
    18
100
AcDbLine
 10
0.0
 20
0.0
 30
0.0
 11
2.5
 21
0.0
 31
0.0
  0
LINE
  5
2F9
330
2F2
100
AcDbEntity
  8
0
  6
Continuous
 62
     0
370
    18
100
AcDbLine
 10
0.0
 20
5.0
 30
0.0
 11
0.0
 21
7.0
 31
0.0
  0
LINE
  5
2FA
330
2F2
100
AcDbEntity
  8
0
  6
Continuous
 62
     0
370
    18
100
AcDbLine
 10
-5.0
 20
0.0
 30
0.0
 11
-7.0
 21
0.0
 31
0.0
  0
LINE
  5
2FB
330
2F2
100
AcDbEntity
  8
0
  6
Continuous
 62
     0
370
    18
100
AcDbLine
 10
0.0
 20
-5.0
 30
0.0
 11
0.0
 21
-7.0
 31
0.0
  0
LINE
  5
2FC
330
2F2
100
AcDbEntity
  8
0
  6
Continuous
 62
     0
370
    18
100
AcDbLine
 10
5.0
 20
0.0
 30
0.0
 11
7.0
 21
0.0
 31
0.0
  0
ENDBLK
  5
2F4
330
2F2
100
AcDbEntity
  8
0
100
AcDbBlockEnd
  0
BLOCK
  5
2FF
330
2FE
100
AcDbEntity
  8
0
100
AcDbBlockBegin
  2
SW_CENTERMARKSYMBOL_2
 70
     0
 10
0.0
 20
0.0
 30
0.0
  3
SW_CENTERMARKSYMBOL_2
  1

  0
LINE
  5
301
330
2FE
100
AcDbEntity
  8
0
  6
Continuous
 62
     0
370
    18
100
AcDbLine
 10
0.0
 20
0.0
 30
0.0
 11
0.0
 21
2.5
 31
0.0
  0
LINE
  5
302
330
2FE
100
AcDbEntity
  8
0
  6
Continuous
 62
     0
370
    18
100
AcDbLine
 10
0.0
 20
0.0
 30
0.0
 11
-2.5
 21
0.0
 31
0.0
  0
LINE
  5
303
330
2FE
100
AcDbEntity
  8
0
  6
Continuous
 62
     0
370
    18
100
AcDbLine
 10
0.0
 20
0.0
 30
0.0
 11
0.0
 21
-2.5
 31
0.0
  0
LINE
  5
304
330
2FE
100
AcDbEntity
  8
0
  6
Continuous
 62
     0
370
    18
100
AcDbLine
 10
0.0
 20
0.0
 30
0.0
 11
2.5
 21
0.0
 31
0.0
  0
LINE
  5
305
330
2FE
100
AcDbEntity
  8
0
  6
Continuous
 62
     0
370
    18
100
AcDbLine
 10
0.0
 20
5.0
 30
0.0
 11
0.0
 21
7.0
 31
0.0
  0
LINE
  5
306
330
2FE
100
AcDbEntity
  8
0
  6
Continuous
 62
     0
370
    18
100
AcDbLine
 10
-5.0
 20
0.0
 30
0.0
 11
-7.0
 21
0.0
 31
0.0
  0
LINE
  5
307
330
2FE
100
AcDbEntity
  8
0
  6
Continuous
 62
     0
370
    18
100
AcDbLine
 10
0.0
 20
-5.0
 30
0.0
 11
0.0
 21
-7.0
 31
0.0
  0
LINE
  5
308
330
2FE
100
AcDbEntity
  8
0
  6
Continuous
 62
     0
370
    18
100
AcDbLine
 10
5.0
 20
0.0
 30
0.0
 11
7.0
 21
0.0
 31
0.0
  0
ENDBLK
  5
300
330
2FE
100
AcDbEntity
  8
0
100
AcDbBlockEnd
  0
BLOCK
  5
30B
330
30A
100
AcDbEntity
  8
0
100
AcDbBlockBegin
  2
SW_CENTERMARKSYMBOL_3
 70
     0
 10
0.0
 20
0.0
 30
0.0
  3
SW_CENTERMARKSYMBOL_3
  1

  0
LINE
  5
30D
330
30A
100
AcDbEntity
  8
0
  6
Continuous
 62
     0
370
    18
100
AcDbLine
 10
0.0
 20
0.0
 30
0.0
 11
0.0
 21
2.5
 31
0.0
  0
LINE
  5
30E
330
30A
100
AcDbEntity
  8
0
  6
Continuous
 62
     0
370
    18
100
AcDbLine
 10
0.0
 20
0.0
 30
0.0
 11
-2.5
 21
0.0
 31
0.0
  0
LINE
  5
30F
330
30A
100
AcDbEntity
  8
0
  6
Continuous
 62
     0
370
    18
100
AcDbLine
 10
0.0
 20
0.0
 30
0.0
 11
0.0
 21
-2.5
 31
0.0
  0
LINE
  5
310
330
30A
100
AcDbEntity
  8
0
  6
Continuous
 62
     0
370
    18
100
AcDbLine
 10
0.0
 20
0.0
 30
0.0
 11
2.5
 21
0.0
 31
0.0
  0
LINE
  5
311
330
30A
100
AcDbEntity
  8
0
  6
Continuous
 62
     0
370
    18
100
AcDbLine
 10
0.0
 20
5.0
 30
0.0
 11
0.0
 21
7.0
 31
0.0
  0
LINE
  5
312
330
30A
100
AcDbEntity
  8
0
  6
Continuous
 62
     0
370
    18
100
AcDbLine
 10
-5.0
 20
0.0
 30
0.0
 11
-7.0
 21
0.0
 31
0.0
  0
LINE
  5
313
330
30A
100
AcDbEntity
  8
0
  6
Continuous
 62
     0
370
    18
100
AcDbLine
 10
0.0
 20
-5.0
 30
0.0
 11
0.0
 21
-7.0
 31
0.0
  0
LINE
  5
314
330
30A
100
AcDbEntity
  8
0
  6
Continuous
 62
     0
370
    18
100
AcDbLine
 10
5.0
 20
0.0
 30
0.0
 11
7.0
 21
0.0
 31
0.0
  0
ENDBLK
  5
30C
330
30A
100
AcDbEntity
  8
0
100
AcDbBlockEnd
  0
BLOCK
  5
317
330
316
100
AcDbEntity
  8
0
100
AcDbBlockBegin
  2
SW_CENTERMARKSYMBOL_4
 70
     0
 10
0.0
 20
0.0
 30
0.0
  3
SW_CENTERMARKSYMBOL_4
  1

  0
LINE
  5
319
330
316
100
AcDbEntity
  8
0
  6
Continuous
 62
     0
370
    18
100
AcDbLine
 10
0.0
 20
0.0
 30
0.0
 11
0.0
 21
2.5
 31
0.0
  0
LINE
  5
31A
330
316
100
AcDbEntity
  8
0
  6
Continuous
 62
     0
370
    18
100
AcDbLine
 10
0.0
 20
0.0
 30
0.0
 11
-2.5
 21
0.0
 31
0.0
  0
LINE
  5
31B
330
316
100
AcDbEntity
  8
0
  6
Continuous
 62
     0
370
    18
100
AcDbLine
 10
0.0
 20
0.0
 30
0.0
 11
0.0
 21
-2.5
 31
0.0
  0
LINE
  5
31C
330
316
100
AcDbEntity
  8
0
  6
Continuous
 62
     0
370
    18
100
AcDbLine
 10
0.0
 20
0.0
 30
0.0
 11
2.5
 21
0.0
 31
0.0
  0
LINE
  5
31D
330
316
100
AcDbEntity
  8
0
  6
Continuous
 62
     0
370
    18
100
AcDbLine
 10
0.0
 20
5.0
 30
0.0
 11
0.0
 21
7.0
 31
0.0
  0
LINE
  5
31E
330
316
100
AcDbEntity
  8
0
  6
Continuous
 62
     0
370
    18
100
AcDbLine
 10
-5.0
 20
0.0
 30
0.0
 11
-7.0
 21
0.0
 31
0.0
  0
LINE
  5
31F
330
316
100
AcDbEntity
  8
0
  6
Continuous
 62
     0
370
    18
100
AcDbLine
 10
0.0
 20
-5.0
 30
0.0
 11
0.0
 21
-7.0
 31
0.0
  0
LINE
  5
320
330
316
100
AcDbEntity
  8
0
  6
Continuous
 62
     0
370
    18
100
AcDbLine
 10
5.0
 20
0.0
 30
0.0
 11
7.0
 21
0.0
 31
0.0
  0
ENDBLK
  5
318
330
316
100
AcDbEntity
  8
0
100
AcDbBlockEnd
  0
ENDSEC
  0
SECTION
  2
ENTITIES
  0
LINE
  5
74
330
1F
100
AcDbEntity
  8
0
  6
Continuous
 62
     7
370
    50
100
AcDbLine
 10
404.0
 20
14.25
 30
0.0
 11
584.0
 21
14.25
 31
0.0
  0
LINE
  5
75
330
1F
100
AcDbEntity
  8
0
  6
Continuous
 62
     7
370
    50
100
AcDbLine
 10
584.0
 20
48.25
 30
0.0
 11
404.0
 21
48.25
 31
0.0
  0
LINE
  5
76
330
1F
100
AcDbEntity
  8
0
  6
Continuous
 62
     7
370
    50
100
AcDbLine
 10
404.0
 20
65.25
 30
0.0
 11
584.0
 21
65.25
 31
0.0
  0
LINE
  5
77
330
1F
100
AcDbEntity
  8
0
  6
Continuous
 62
     7
370
    50
100
AcDbLine
 10
430.9909524338
 20
48.25
 30
0.0
 11
430.9909524338
 21
10.0
 31
0.0
  0
LINE
  5
78
330
1F
100
AcDbEntity
  8
0
  6
Continuous
 62
     7
370
    50
100
AcDbLine
 10
502.8
 20
31.25
 30
0.0
 11
404.0
 21
31.25
 31
0.0
  0
LINE
  5
79
330
1F
100
AcDbEntity
  8
0
  6
Continuous
 62
     7
370
    50
100
AcDbLine
 10
502.8
 20
35.5
 30
0.0
 11
404.0
 21
35.5
 31
0.0
  0
LINE
  5
7A
330
1F
100
AcDbEntity
  8
0
  6
Continuous
 62
     7
370
    50
100
AcDbLine
 10
502.8
 20
39.75
 30
0.0
 11
404.0
 21
39.75
 31
0.0
  0
LINE
  5
7B
330
1F
100
AcDbEntity
  8
0
  6
Continuous
 62
     7
370
    50
100
AcDbLine
 10
502.8
 20
44.0
 30
0.0
 11
404.0
 21
44.0
 31
0.0
  0
LINE
  5
7C
330
1F
100
AcDbEntity
  8
0
  6
Continuous
 62
     7
370
    50
100
AcDbLine
 10
458.6
 20
10.0
 30
0.0
 11
458.6
 21
48.25
 31
0.0
  0
LINE
  5
7D
330
1F
100
AcDbEntity
  8
0
  6
Continuous
 62
     7
370
    50
100
AcDbLine
 10
404.0
 20
65.25
 30
0.0
 11
404.0
 21
10.0
 31
0.0
  0
LINE
  5
7E
330
1F
100
AcDbEntity
  8
0
  6
Continuous
 62
     7
370
    50
100
AcDbLine
 10
416.0703737145
 20
48.25
 30
0.0
 11
416.0703737145
 21
10.0
 31
0.0
  0
LINE
  5
7F
330
1F
100
AcDbEntity
  8
0
  6
Continuous
 62
     7
370
    50
100
AcDbLine
 10
437.8
 20
48.25
 30
0.0
 11
437.8
 21
65.25
 31
0.0
  0
LINE
  5
80
330
1F
100
AcDbEntity
  8
0
  6
Continuous
 62
     7
370
    50
100
AcDbLine
 10
448.3989261635
 20
48.25
 30
0.0
 11
448.3989261635
 21
10.0
 31
0.0
  0
LINE
  5
81
330
1F
100
AcDbEntity
  8
0
  6
Continuous
 62
     7
370
    50
100
AcDbLine
 10
469.0
 20
31.25
 30
0.0
 11
469.0
 21
48.25
 31
0.0
  0
LINE
  5
82
330
1F
100
AcDbEntity
  8
0
  6
Continuous
 62
     7
370
    50
100
AcDbLine
 10
458.6
 20
18.5
 30
0.0
 11
404.0
 21
18.5
 31
0.0
  0
LINE
  5
83
330
1F
100
AcDbEntity
  8
0
  6
Continuous
 62
     7
370
    50
100
AcDbLine
 10
484.6
 20
65.25
 30
0.0
 11
484.6
 21
27.0
 31
0.0
  0
LINE
  5
84
330
1F
100
AcDbEntity
  8
0
  6
Continuous
 62
     7
370
    50
100
AcDbLine
 10
458.6
 20
22.749928
 30
0.0
 11
404.0
 21
22.749928
 31
0.0
  0
LINE
  5
85
330
1F
100
AcDbEntity
  8
0
  6
Continuous
 62
     7
370
    50
100
AcDbLine
 10
458.6
 20
27.0
 30
0.0
 11
404.0
 21
27.0
 31
0.0
  0
LINE
  5
86
330
1F
100
AcDbEntity
  8
0
  6
Continuous
 62
     7
370
    50
100
AcDbLine
 10
458.6
 20
27.0
 30
0.0
 11
584.0
 21
27.0
 31
0.0
  0
LINE
  5
87
330
1F
100
AcDbEntity
  8
0
  6
Continuous
 62
     7
370
    50
100
AcDbLine
 10
502.8
 20
65.25
 30
0.0
 11
502.8
 21
10.0
 31
0.0
  0
LINE
  5
88
330
1F
100
AcDbEntity
  8
0
  6
Continuous
 62
     7
370
    50
100
AcDbLine
 10
547.0
 20
10.0
 30
0.0
 11
547.0
 21
14.25
 31
0.0
  0
LINE
  5
89
330
1F
100
AcDbEntity
  8
0
  6
Continuous
 62
     7
370
    50
100
AcDbLine
 10
554.8
 20
58.875
 30
0.0
 11
554.8
 21
65.25
 31
0.0
  0
LINE
  5
8A
330
1F
100
AcDbEntity
  8
0
  6
Continuous
 62
     7
370
    50
100
AcDbLine
 10
571.0
 20
14.25
 30
0.0
 11
571.0
 21
27.0
 31
0.0
  0
LINE
  5
8B
330
1F
100
AcDbEntity
  8
0
  6
Continuous
 62
     7
370
    50
100
AcDbLine
 10
584.0
 20
58.875
 30
0.0
 11
502.8
 21
58.875
 31
0.0
  0
LINE
  5
8C
330
1F
100
AcDbEntity
  8
0
  6
Continuous
 62
     7
370
    50
100
AcDbLine
 10
584.0
 20
18.5
 30
0.0
 11
571.0
 21
18.5
 31
0.0
  0
LINE
  5
8D
330
1F
100
AcDbEntity
  8
0
  6
Continuous
 62
     7
370
    70
100
AcDbLine
 10
20.0
 20
10.0
 30
0.0
 11
20.0
 21
410.0
 31
0.0
  0
LINE
  5
8E
330
1F
100
AcDbEntity
  8
0
  6
Continuous
 62
     7
370
    70
100
AcDbLine
 10
20.0
 20
410.0
 30
0.0
 11
584.0
 21
410.0
 31
0.0
  0
LINE
  5
8F
330
1F
100
AcDbEntity
  8
0
  6
Continuous
 62
     7
370
    70
100
AcDbLine
 10
584.0
 20
410.0
 30
0.0
 11
584.0
 21
10.0
 31
0.0
  0
LINE
  5
90
330
1F
100
AcDbEntity
  8
0
  6
Continuous
 62
     7
370
    70
100
AcDbLine
 10
584.0
 20
10.0
 30
0.0
 11
20.0
 21
10.0
 31
0.0
  0
LINE
  5
91
330
1F
100
AcDbEntity
  8
0
  6
Continuous
 62
     7
370
    70
100
AcDbLine
 10
15.0
 20
5.0
 30
0.0
 11
15.0
 21
415.0
 31
0.0
  0
LINE
  5
92
330
1F
100
AcDbEntity
  8
0
  6
Continuous
 62
     7
370
    70
100
AcDbLine
 10
15.0
 20
415.0
 30
0.0
 11
589.0
 21
415.0
 31
0.0
  0
LINE
  5
93
330
1F
100
AcDbEntity
  8
0
  6
Continuous
 62
     7
370
    70
100
AcDbLine
 10
589.0
 20
415.0
 30
0.0
 11
589.0
 21
5.0
 31
0.0
  0
LINE
  5
94
330
1F
100
AcDbEntity
  8
0
  6
Continuous
 62
     7
370
    70
100
AcDbLine
 10
589.0
 20
5.0
 30
0.0
 11
15.0
 21
5.0
 31
0.0
  0
LINE
  5
95
330
1F
100
AcDbEntity
  8
0
  6
Continuous
 62
     7
370
    35
100
AcDbLine
 10
15.0
 20
210.0
 30
0.0
 11
25.0
 21
210.0
 31
0.0
  0
LINE
  5
96
330
1F
100
AcDbEntity
  8
0
  6
Continuous
 62
     7
370
    35
100
AcDbLine
 10
302.0
 20
415.0
 30
0.0
 11
302.0
 21
405.0
 31
0.0
  0
LINE
  5
97
330
1F
100
AcDbEntity
  8
0
  6
Continuous
 62
     7
370
    35
100
AcDbLine
 10
589.0
 20
210.0
 30
0.0
 11
579.0
 21
210.0
 31
0.0
  0
LINE
  5
98
330
1F
100
AcDbEntity
  8
0
  6
Continuous
 62
     7
370
    35
100
AcDbLine
 10
302.0
 20
5.0
 30
0.0
 11
302.0
 21
15.0
 31
0.0
  0
LINE
  5
99
330
1F
100
AcDbEntity
  8
0
  6
Continuous
 62
     7
370
    35
100
AcDbLine
 10
20.0
 20
60.0
 30
0.0
 11
15.0
 21
60.0
 31
0.0
  0
LINE
  5
9A
330
1F
100
AcDbEntity
  8
0
  6
Continuous
 62
     7
370
    35
100
AcDbLine
 10
584.0
 20
60.0
 30
0.0
 11
589.0
 21
60.0
 31
0.0
  0
LINE
  5
9B
330
1F
100
AcDbEntity
  8
0
  6
Continuous
 62
     7
370
    35
100
AcDbLine
 10
20.0
 20
110.0
 30
0.0
 11
15.0
 21
110.0
 31
0.0
  0
LINE
  5
9C
330
1F
100
AcDbEntity
  8
0
  6
Continuous
 62
     7
370
    35
100
AcDbLine
 10
584.0
 20
110.0
 30
0.0
 11
589.0
 21
110.0
 31
0.0
  0
LINE
  5
9D
330
1F
100
AcDbEntity
  8
0
  6
Continuous
 62
     7
370
    35
100
AcDbLine
 10
20.0
 20
160.0
 30
0.0
 11
15.0
 21
160.0
 31
0.0
  0
LINE
  5
9E
330
1F
100
AcDbEntity
  8
0
  6
Continuous
 62
     7
370
    35
100
AcDbLine
 10
584.0
 20
160.0
 30
0.0
 11
589.0
 21
160.0
 31
0.0
  0
LINE
  5
9F
330
1F
100
AcDbEntity
  8
0
  6
Continuous
 62
     7
370
    35
100
AcDbLine
 10
20.0
 20
210.0
 30
0.0
 11
15.0
 21
210.0
 31
0.0
  0
LINE
  5
A0
330
1F
100
AcDbEntity
  8
0
  6
Continuous
 62
     7
370
    35
100
AcDbLine
 10
584.0
 20
210.0
 30
0.0
 11
589.0
 21
210.0
 31
0.0
  0
LINE
  5
A1
330
1F
100
AcDbEntity
  8
0
  6
Continuous
 62
     7
370
    35
100
AcDbLine
 10
20.0
 20
260.0
 30
0.0
 11
15.0
 21
260.0
 31
0.0
  0
LINE
  5
A2
330
1F
100
AcDbEntity
  8
0
  6
Continuous
 62
     7
370
    35
100
AcDbLine
 10
584.0
 20
260.0
 30
0.0
 11
589.0
 21
260.0
 31
0.0
  0
LINE
  5
A3
330
1F
100
AcDbEntity
  8
0
  6
Continuous
 62
     7
370
    35
100
AcDbLine
 10
20.0
 20
310.0
 30
0.0
 11
15.0
 21
310.0
 31
0.0
  0
LINE
  5
A4
330
1F
100
AcDbEntity
  8
0
  6
Continuous
 62
     7
370
    35
100
AcDbLine
 10
584.0
 20
310.0
 30
0.0
 11
589.0
 21
310.0
 31
0.0
  0
LINE
  5
A5
330
1F
100
AcDbEntity
  8
0
  6
Continuous
 62
     7
370
    35
100
AcDbLine
 10
20.0
 20
360.0
 30
0.0
 11
15.0
 21
360.0
 31
0.0
  0
LINE
  5
A6
330
1F
100
AcDbEntity
  8
0
  6
Continuous
 62
     7
370
    35
100
AcDbLine
 10
584.0
 20
360.0
 30
0.0
 11
589.0
 21
360.0
 31
0.0
  0
LINE
  5
A7
330
1F
100
AcDbEntity
  8
0
  6
Continuous
 62
     7
370
    35
100
AcDbLine
 10
52.0
 20
410.0
 30
0.0
 11
52.0
 21
415.0
 31
0.0
  0
LINE
  5
A8
330
1F
100
AcDbEntity
  8
0
  6
Continuous
 62
     7
370
    35
100
AcDbLine
 10
52.0
 20
10.0
 30
0.0
 11
52.0
 21
5.0
 31
0.0
  0
LINE
  5
A9
330
1F
100
AcDbEntity
  8
0
  6
Continuous
 62
     7
370
    35
100
AcDbLine
 10
102.0
 20
410.0
 30
0.0
 11
102.0
 21
415.0
 31
0.0
  0
LINE
  5
AA
330
1F
100
AcDbEntity
  8
0
  6
Continuous
 62
     7
370
    35
100
AcDbLine
 10
102.0
 20
10.0
 30
0.0
 11
102.0
 21
5.0
 31
0.0
  0
LINE
  5
AB
330
1F
100
AcDbEntity
  8
0
  6
Continuous
 62
     7
370
    35
100
AcDbLine
 10
152.0
 20
410.0
 30
0.0
 11
152.0
 21
415.0
 31
0.0
  0
LINE
  5
AC
330
1F
100
AcDbEntity
  8
0
  6
Continuous
 62
     7
370
    35
100
AcDbLine
 10
152.0
 20
10.0
 30
0.0
 11
152.0
 21
5.0
 31
0.0
  0
LINE
  5
AD
330
1F
100
AcDbEntity
  8
0
  6
Continuous
 62
     7
370
    35
100
AcDbLine
 10
202.0
 20
410.0
 30
0.0
 11
202.0
 21
415.0
 31
0.0
  0
LINE
  5
AE
330
1F
100
AcDbEntity
  8
0
  6
Continuous
 62
     7
370
    35
100
AcDbLine
 10
202.0
 20
10.0
 30
0.0
 11
202.0
 21
5.0
 31
0.0
  0
LINE
  5
AF
330
1F
100
AcDbEntity
  8
0
  6
Continuous
 62
     7
370
    35
100
AcDbLine
 10
252.0
 20
410.0
 30
0.0
 11
252.0
 21
415.0
 31
0.0
  0
LINE
  5
B0
330
1F
100
AcDbEntity
  8
0
  6
Continuous
 62
     7
370
    35
100
AcDbLine
 10
252.0
 20
10.0
 30
0.0
 11
252.0
 21
5.0
 31
0.0
  0
LINE
  5
B1
330
1F
100
AcDbEntity
  8
0
  6
Continuous
 62
     7
370
    35
100
AcDbLine
 10
302.0
 20
410.0
 30
0.0
 11
302.0
 21
415.0
 31
0.0
  0
LINE
  5
B2
330
1F
100
AcDbEntity
  8
0
  6
Continuous
 62
     7
370
    35
100
AcDbLine
 10
302.0
 20
10.0
 30
0.0
 11
302.0
 21
5.0
 31
0.0
  0
LINE
  5
B3
330
1F
100
AcDbEntity
  8
0
  6
Continuous
 62
     7
370
    35
100
AcDbLine
 10
352.0
 20
410.0
 30
0.0
 11
352.0
 21
415.0
 31
0.0
  0
LINE
  5
B4
330
1F
100
AcDbEntity
  8
0
  6
Continuous
 62
     7
370
    35
100
AcDbLine
 10
352.0
 20
10.0
 30
0.0
 11
352.0
 21
5.0
 31
0.0
  0
LINE
  5
B5
330
1F
100
AcDbEntity
  8
0
  6
Continuous
 62
     7
370
    35
100
AcDbLine
 10
402.0
 20
410.0
 30
0.0
 11
402.0
 21
415.0
 31
0.0
  0
LINE
  5
B6
330
1F
100
AcDbEntity
  8
0
  6
Continuous
 62
     7
370
    35
100
AcDbLine
 10
402.0
 20
10.0
 30
0.0
 11
402.0
 21
5.0
 31
0.0
  0
LINE
  5
B7
330
1F
100
AcDbEntity
  8
0
  6
Continuous
 62
     7
370
    35
100
AcDbLine
 10
452.0
 20
410.0
 30
0.0
 11
452.0
 21
415.0
 31
0.0
  0
LINE
  5
B8
330
1F
100
AcDbEntity
  8
0
  6
Continuous
 62
     7
370
    35
100
AcDbLine
 10
452.0
 20
10.0
 30
0.0
 11
452.0
 21
5.0
 31
0.0
  0
LINE
  5
B9
330
1F
100
AcDbEntity
  8
0
  6
Continuous
 62
     7
370
    35
100
AcDbLine
 10
502.0
 20
410.0
 30
0.0
 11
502.0
 21
415.0
 31
0.0
  0
LINE
  5
BA
330
1F
100
AcDbEntity
  8
0
  6
Continuous
 62
     7
370
    35
100
AcDbLine
 10
502.0
 20
10.0
 30
0.0
 11
502.0
 21
5.0
 31
0.0
  0
LINE
  5
BB
330
1F
100
AcDbEntity
  8
0
  6
Continuous
 62
     7
370
    35
100
AcDbLine
 10
552.0
 20
410.0
 30
0.0
 11
552.0
 21
415.0
 31
0.0
  0
LINE
  5
BC
330
1F
100
AcDbEntity
  8
0
  6
Continuous
 62
     7
370
    35
100
AcDbLine
 10
552.0
 20
10.0
 30
0.0
 11
552.0
 21
5.0
 31
0.0
  0
MTEXT
  5
BE
330
1F
100
AcDbEntity
  8
0
  6
Continuous
 62
     7
370
     0
100
AcDbMText
 10
17.3396881428
 20
36.9462239326
 30
0.0
 40
3.96875
 41
0.0
 71
     2
 72
     1
  1
A
  7
SLDTEXTSTYLE0
 73
     1
 44
1.0
  0
MTEXT
  5
BF
330
1F
100
AcDbEntity
  8
0
  6
Continuous
 62
     7
370
     0
100
AcDbMText
 10
586.3396881428
 20
36.9462239326
 30
0.0
 40
3.96875
 41
0.0
 71
     2
 72
     1
  1
A
  7
SLDTEXTSTYLE0
 73
     1
 44
1.0
  0
MTEXT
  5
C0
330
1F
100
AcDbEntity
  8
0
  6
Continuous
 62
     7
370
     0
100
AcDbMText
 10
17.4706018241
 20
86.9957779464
 30
0.0
 40
3.96875
 41
0.0
 71
     2
 72
     1
  1
B
  7
SLDTEXTSTYLE0
 73
     1
 44
1.0
  0
MTEXT
  5
C1
330
1F
100
AcDbEntity
  8
0
  6
Continuous
 62
     7
370
     0
100
AcDbMText
 10
586.4706018241
 20
86.9957779464
 30
0.0
 40
3.96875
 41
0.0
 71
     2
 72
     1
  1
B
  7
SLDTEXTSTYLE0
 73
     1
 44
1.0
  0
MTEXT
  5
C2
330
1F
100
AcDbEntity
  8
0
  6
Continuous
 62
     7
370
     0
100
AcDbMText
 10
17.458658902
 20
136.9462239326
 30
0.0
 40
3.96875
 41
0.0
 71
     2
 72
     1
  1
C
  7
SLDTEXTSTYLE0
 73
     1
 44
1.0
  0
MTEXT
  5
C3
330
1F
100
AcDbEntity
  8
0
  6
Continuous
 62
     7
370
     0
100
AcDbMText
 10
586.458658902
 20
136.9462239326
 30
0.0
 40
3.96875
 41
0.0
 71
     2
 72
     1
  1
C
  7
SLDTEXTSTYLE0
 73
     1
 44
1.0
  0
MTEXT
  5
C4
330
1F
100
AcDbEntity
  8
0
  6
Continuous
 62
     7
370
     0
100
AcDbMText
 10
17.4526872821
 20
186.9957779464
 30
0.0
 40
3.96875
 41
0.0
 71
     2
 72
     1
  1
D
  7
SLDTEXTSTYLE0
 73
     1
 44
1.0
  0
MTEXT
  5
C5
330
1F
100
AcDbEntity
  8
0
  6
Continuous
 62
     7
370
     0
100
AcDbMText
 10
586.4526872821
 20
186.9957779464
 30
0.0
 40
3.96875
 41
0.0
 71
     2
 72
     1
  1
D
  7
SLDTEXTSTYLE0
 73
     1
 44
1.0
  0
MTEXT
  5
C6
330
1F
100
AcDbEntity
  8
0
  6
Continuous
 62
     7
370
     0
100
AcDbMText
 10
17.5078089051
 20
236.9462239326
 30
0.0
 40
3.96875
 41
0.0
 71
     2
 72
     1
  1
E
  7
SLDTEXTSTYLE0
 73
     1
 44
1.0
  0
MTEXT
  5
C7
330
1F
100
AcDbEntity
  8
0
  6
Continuous
 62
     7
370
     0
100
AcDbMText
 10
586.5078089051
 20
236.9462239326
 30
0.0
 40
3.96875
 41
0.0
 71
     2
 72
     1
  1
E
  7
SLDTEXTSTYLE0
 73
     1
 44
1.0
  0
MTEXT
  5
C8
330
1F
100
AcDbEntity
  8
0
  6
Continuous
 62
     7
370
     0
100
AcDbMText
 10
17.4577402091
 20
286.9957779464
 30
0.0
 40
3.96875
 41
0.0
 71
     2
 72
     1
  1
F
  7
SLDTEXTSTYLE0
 73
     1
 44
1.0
  0
MTEXT
  5
C9
330
1F
100
AcDbEntity
  8
0
  6
Continuous
 62
     7
370
     0
100
AcDbMText
 10
586.4577402091
 20
286.9957779464
 30
0.0
 40
3.96875
 41
0.0
 71
     2
 72
     1
  1
F
  7
SLDTEXTSTYLE0
 73
     1
 44
1.0
  0
MTEXT
  5
CA
330
1F
100
AcDbEntity
  8
0
  6
Continuous
 62
     7
370
     0
100
AcDbMText
 10
17.4866788853
 20
336.9462239326
 30
0.0
 40
3.96875
 41
0.0
 71
     2
 72
     1
  1
G
  7
SLDTEXTSTYLE0
 73
     1
 44
1.0
  0
MTEXT
  5
CB
330
1F
100
AcDbEntity
  8
0
  6
Continuous
 62
     7
370
     0
100
AcDbMText
 10
586.4866788853
 20
336.9462239326
 30
0.0
 40
3.96875
 41
0.0
 71
     2
 72
     1
  1
G
  7
SLDTEXTSTYLE0
 73
     1
 44
1.0
  0
MTEXT
  5
CC
330
1F
100
AcDbEntity
  8
0
  6
Continuous
 62
     7
370
     0
100
AcDbMText
 10
17.4903537836
 20
386.9957779464
 30
0.0
 40
3.96875
 41
0.0
 71
     2
 72
     1
  1
H
  7
SLDTEXTSTYLE0
 73
     1
 44
1.0
  0
MTEXT
  5
CD
330
1F
100
AcDbEntity
  8
0
  6
Continuous
 62
     7
370
     0
100
AcDbMText
 10
586.4903537836
 20
386.9957779464
 30
0.0
 40
3.96875
 41
0.0
 71
     2
 72
     1
  1
H
  7
SLDTEXTSTYLE0
 73
     1
 44
1.0
  0
MTEXT
  5
CE
330
1F
100
AcDbEntity
  8
0
  6
Continuous
 62
     7
370
     0
100
AcDbMText
 10
35.9200738929
 20
9.4957779464
 30
0.0
 40
3.96875
 41
0.0
 71
     2
 72
     1
  1
12
  7
SLDTEXTSTYLE0
 73
     1
 44
1.0
  0
MTEXT
  5
CF
330
1F
100
AcDbEntity
  8
0
  6
Continuous
 62
     7
370
     0
100
AcDbMText
 10
35.9200738929
 20
414.4462239326
 30
0.0
 40
3.96875
 41
0.0
 71
     2
 72
     1
  1
12
  7
SLDTEXTSTYLE0
 73
     1
 44
1.0
  0
MTEXT
  5
D0
330
1F
100
AcDbEntity
  8
0
  6
Continuous
 62
     7
370
     0
100
AcDbMText
 10
76.9200738929
 20
9.4957779464
 30
0.0
 40
3.96875
 41
0.0
 71
     2
 72
     1
  1
11
  7
SLDTEXTSTYLE0
 73
     1
 44
1.0
  0
MTEXT
  5
D1
330
1F
100
AcDbEntity
  8
0
  6
Continuous
 62
     7
370
     0
100
AcDbMText
 10
76.9200738929
 20
414.4462239326
 30
0.0
 40
3.96875
 41
0.0
 71
     2
 72
     1
  1
11
  7
SLDTEXTSTYLE0
 73
     1
 44
1.0
  0
MTEXT
  5
D2
330
1F
100
AcDbEntity
  8
0
  6
Continuous
 62
     7
370
     0
100
AcDbMText
 10
126.9200738929
 20
9.4957779464
 30
0.0
 40
3.96875
 41
0.0
 71
     2
 72
     1
  1
10
  7
SLDTEXTSTYLE0
 73
     1
 44
1.0
  0
MTEXT
  5
D3
330
1F
100
AcDbEntity
  8
0
  6
Continuous
 62
     7
370
     0
100
AcDbMText
 10
126.9200738929
 20
414.4462239326
 30
0.0
 40
3.96875
 41
0.0
 71
     2
 72
     1
  1
10
  7
SLDTEXTSTYLE0
 73
     1
 44
1.0
  0
MTEXT
  5
D4
330
1F
100
AcDbEntity
  8
0
  6
Continuous
 62
     7
370
     0
100
AcDbMText
 10
176.9600369465
 20
9.4957779464
 30
0.0
 40
3.96875
 41
0.0
 71
     2
 72
     1
  1
9
  7
SLDTEXTSTYLE0
 73
     1
 44
1.0
  0
MTEXT
  5
D5
330
1F
100
AcDbEntity
  8
0
  6
Continuous
 62
     7
370
     0
100
AcDbMText
 10
176.9600369465
 20
414.4462239326
 30
0.0
 40
3.96875
 41
0.0
 71
     2
 72
     1
  1
9
  7
SLDTEXTSTYLE0
 73
     1
 44
1.0
  0
MTEXT
  5
D6
330
1F
100
AcDbEntity
  8
0
  6
Continuous
 62
     7
370
     0
100
AcDbMText
 10
226.9600369465
 20
9.4957779464
 30
0.0
 40
3.96875
 41
0.0
 71
     2
 72
     1
  1
8
  7
SLDTEXTSTYLE0
 73
     1
 44
1.0
  0
MTEXT
  5
D7
330
1F
100
AcDbEntity
  8
0
  6
Continuous
 62
     7
370
     0
100
AcDbMText
 10
226.9600369465
 20
414.4462239326
 30
0.0
 40
3.96875
 41
0.0
 71
     2
 72
     1
  1
8
  7
SLDTEXTSTYLE0
 73
     1
 44
1.0
  0
MTEXT
  5
D8
330
1F
100
AcDbEntity
  8
0
  6
Continuous
 62
     7
370
     0
100
AcDbMText
 10
276.9600369465
 20
9.4957779464
 30
0.0
 40
3.96875
 41
0.0
 71
     2
 72
     1
  1
7
  7
SLDTEXTSTYLE0
 73
     1
 44
1.0
  0
MTEXT
  5
D9
330
1F
100
AcDbEntity
  8
0
  6
Continuous
 62
     7
370
     0
100
AcDbMText
 10
276.9600369465
 20
414.4462239326
 30
0.0
 40
3.96875
 41
0.0
 71
     2
 72
     1
  1
7
  7
SLDTEXTSTYLE0
 73
     1
 44
1.0
  0
MTEXT
  5
DA
330
1F
100
AcDbEntity
  8
0
  6
Continuous
 62
     7
370
     0
100
AcDbMText
 10
326.9600369465
 20
9.4957779464
 30
0.0
 40
3.96875
 41
0.0
 71
     2
 72
     1
  1
6
  7
SLDTEXTSTYLE0
 73
     1
 44
1.0
  0
MTEXT
  5
DB
330
1F
100
AcDbEntity
  8
0
  6
Continuous
 62
     7
370
     0
100
AcDbMText
 10
326.9600369465
 20
414.4462239326
 30
0.0
 40
3.96875
 41
0.0
 71
     2
 72
     1
  1
6
  7
SLDTEXTSTYLE0
 73
     1
 44
1.0
  0
MTEXT
  5
DC
330
1F
100
AcDbEntity
  8
0
  6
Continuous
 62
     7
370
     0
100
AcDbMText
 10
376.9600369465
 20
9.4957779464
 30
0.0
 40
3.96875
 41
0.0
 71
     2
 72
     1
  1
5
  7
SLDTEXTSTYLE0
 73
     1
 44
1.0
  0
MTEXT
  5
DD
330
1F
100
AcDbEntity
  8
0
  6
Continuous
 62
     7
370
     0
100
AcDbMText
 10
376.9600369465
 20
414.4462239326
 30
0.0
 40
3.96875
 41
0.0
 71
     2
 72
     1
  1
5
  7
SLDTEXTSTYLE0
 73
     1
 44
1.0
  0
MTEXT
  5
DE
330
1F
100
AcDbEntity
  8
0
  6
Continuous
 62
     7
370
     0
100
AcDbMText
 10
426.9600369465
 20
9.4957779464
 30
0.0
 40
3.96875
 41
0.0
 71
     2
 72
     1
  1
4
  7
SLDTEXTSTYLE0
 73
     1
 44
1.0
  0
MTEXT
  5
DF
330
1F
100
AcDbEntity
  8
0
  6
Continuous
 62
     7
370
     0
100
AcDbMText
 10
426.9600369465
 20
414.4462239326
 30
0.0
 40
3.96875
 41
0.0
 71
     2
 72
     1
  1
4
  7
SLDTEXTSTYLE0
 73
     1
 44
1.0
  0
MTEXT
  5
E0
330
1F
100
AcDbEntity
  8
0
  6
Continuous
 62
     7
370
     0
100
AcDbMText
 10
476.9600369465
 20
9.4957779464
 30
0.0
 40
3.96875
 41
0.0
 71
     2
 72
     1
  1
3
  7
SLDTEXTSTYLE0
 73
     1
 44
1.0
  0
MTEXT
  5
E1
330
1F
100
AcDbEntity
  8
0
  6
Continuous
 62
     7
370
     0
100
AcDbMText
 10
476.9600369465
 20
414.4462239326
 30
0.0
 40
3.96875
 41
0.0
 71
     2
 72
     1
  1
3
  7
SLDTEXTSTYLE0
 73
     1
 44
1.0
  0
MTEXT
  5
E2
330
1F
100
AcDbEntity
  8
0
  6
Continuous
 62
     7
370
     0
100
AcDbMText
 10
526.9600369465
 20
9.4957779464
 30
0.0
 40
3.96875
 41
0.0
 71
     2
 72
     1
  1
2
  7
SLDTEXTSTYLE0
 73
     1
 44
1.0
  0
MTEXT
  5
E3
330
1F
100
AcDbEntity
  8
0
  6
Continuous
 62
     7
370
     0
100
AcDbMText
 10
526.9600369465
 20
414.4462239326
 30
0.0
 40
3.96875
 41
0.0
 71
     2
 72
     1
  1
2
  7
SLDTEXTSTYLE0
 73
     1
 44
1.0
  0
MTEXT
  5
E4
330
1F
100
AcDbEntity
  8
0
  6
Continuous
 62
     7
370
     0
100
AcDbMText
 10
567.9600369465
 20
9.4957779464
 30
0.0
 40
3.96875
 41
0.0
 71
     2
 72
     1
  1
1
  7
SLDTEXTSTYLE0
 73
     1
 44
1.0
  0
MTEXT
  5
E5
330
1F
100
AcDbEntity
  8
0
  6
Continuous
 62
     7
370
     0
100
AcDbMText
 10
567.9600369465
 20
414.4462239326
 30
0.0
 40
3.96875
 41
0.0
 71
     2
 72
     1
  1
1
  7
SLDTEXTSTYLE0
 73
     1
 44
1.0
  0
MTEXT
  5
E6
330
1F
100
AcDbEntity
  8
0
  6
Continuous
 62
     7
370
     0
100
AcDbMText
 10
538.7745198651
 20
23.347828666
 30
0.0
 40
4.2333333333
 41
0.0
 71
     2
 72
     1
  1
CR040018C0GEGM_#_#_##Svoboda
  7
SLDTEXTSTYLE0
 73
     1
 44
1.0
  0
MTEXT
  5
E7
330
1F
100
AcDbEntity
  8
0
  6
Continuous
 62
     7
370
     0
100
AcDbMText
 10
459.6178111281
 20
12.9493119036
 30
0.0
 40
1.4986
 41
0.0
 71
     1
 72
     1
  1
HMOTNOST:
  7
SLDTEXTSTYLE0
 73
     1
 44
1.0
  0
MTEXT
  5
E8
330
1F
100
AcDbEntity
  8
0
  6
Continuous
 62
     7
370
     0
100
AcDbMText
 10
574.8711564346
 20
24.406388569
 30
0.0
 40
2.9104166667
 41
0.0
 71
     1
 72
     1
  1
A2
  7
SLDTEXTSTYLE0
 73
     1
 44
1.0
  0
MTEXT
  5
EA
330
1F
100
AcDbEntity
  8
0
  6
Continuous
 62
     7
370
     0
100
AcDbMText
 10
548.4782944278
 20
12.9000872745
 30
0.0
 40
1.5
 41
0.0
 71
     1
 72
     1
  1
LIST 1 Z 1 LISTŮ
  7
SLDTEXTSTYLE1
 73
     1
 44
1.0
  0
MTEXT
  5
EC
330
1F
100
AcDbEntity
  8
0
  6
Continuous
 62
     7
370
     0
100
AcDbMText
 10
504.0739661175
 20
12.9000872745
 30
0.0
 40
1.5
 41
0.0
 71
     1
 72
     1
  1
MĚŘÍTKO:1:1
  7
SLDTEXTSTYLE2
 73
     1
 44
1.0
  0
MTEXT
  5
ED
330
1F
100
AcDbEntity
  8
0
  6
Continuous
 62
     7
370
     0
100
AcDbMText
 10
504.2786531243
 20
25.9860562892
 30
0.0
 40
1.5
 41
0.0
 71
     1
 72
     1
  1
Č. VÝKRESU
  7
SLDTEXTSTYLE2
 73
     1
 44
1.0
  0
MTEXT
  5
EE
330
1F
100
AcDbEntity
  8
0
  6
Continuous
 62
     7
370
     0
100
AcDbMText
 10
503.9561869366
 20
46.5761792212
 30
0.0
 40
1.5
 41
0.0
 71
     1
 72
     1
  1
NÁZEV:
  7
SLDTEXTSTYLE0
 73
     1
 44
1.0
  0
MTEXT
  5
EF
330
1F
100
AcDbEntity
  8
0
  6
Continuous
 62
     7
370
     0
100
AcDbMText
 10
557.3275816993
 20
62.3349086805
 30
0.0
 40
1.5
 41
0.0
 71
     1
 72
     1
  1
ZMĚNA
  7
SLDTEXTSTYLE2
 73
     1
 44
1.0
  0
MTEXT
  5
F0
330
1F
100
AcDbEntity
  8
0
  6
Continuous
 62
     7
370
     0
100
AcDbMText
 10
516.6146405229
 20
62.5329935751
 30
0.0
 40
1.5
 41
0.0
 71
     1
 72
     1
  1
NEUPRAVOVAT MĚŘÍTKO VÝKRESU
  7
SLDTEXTSTYLE2
 73
     1
 44
1.0
  0
MTEXT
  5
F1
330
1F
100
AcDbEntity
  8
0
  6
Continuous
 62
     7
370
     0
100
AcDbMText
 10
459.6458623088
 20
25.9860562892
 30
0.0
 40
1.5
 41
0.0
 71
     1
 72
     1
  1
MATERIÁL:
  7
SLDTEXTSTYLE0
 73
     1
 44
1.0
  0
MTEXT
  5
F2
330
1F
100
AcDbEntity
  8
0
  6
Continuous
 62
     7
370
     0
100
AcDbMText
 10
451.2147019657
 20
46.5761792212
 30
0.0
 40
1.5
 41
0.0
 71
     1
 72
     1
  1
DATUM
  7
SLDTEXTSTYLE0
 73
     1
 44
1.0
  0
MTEXT
  5
F3
330
1F
100
AcDbEntity
  8
0
  6
Continuous
 62
     7
370
     0
100
AcDbMText
 10
434.0335875632
 20
46.5617563795
 30
0.0
 40
1.5
 41
0.0
 71
     1
 72
     1
  1
PODPIS
  7
SLDTEXTSTYLE0
 73
     1
 44
1.0
  0
MTEXT
  5
F4
330
1F
100
AcDbEntity
  8
0
  6
Continuous
 62
     7
370
     0
100
AcDbMText
 10
418.3222392177
 20
46.5014826335
 30
0.0
 40
1.5
 41
0.0
 71
     1
 72
     1
  1
JMÉNO
  7
SLDTEXTSTYLE0
 73
     1
 44
1.0
  0
INSERT
  5
FA
330
1F
100
AcDbEntity
  8
0
  6
Continuous
 62
     7
370
     0
100
AcDbBlockReference
  2
SW_NOTE_0
 10
485.3092156863
 20
62.069489643
 30
0.0
  0
MTEXT
  5
FB
330
1F
100
AcDbEntity
  8
0
  6
Continuous
 62
     7
370
     0
100
AcDbMText
 10
438.3712921668
 20
63.9192719951
 30
0.0
 40
1.5
 41
0.0
 71
     1
 72
     1
  1
OPRACOVÁNÍ:
  7
SLDTEXTSTYLE0
 73
     1
 44
1.0
  0
INSERT
  5
105
330
1F
100
AcDbEntity
  8
0
  6
Continuous
 62
     7
370
     0
100
AcDbBlockReference
  2
SW_NOTE_0_1
 10
404.5936687456
 20
61.9873698743
 30
0.0
  0
MTEXT
  5
106
330
1F
100
AcDbEntity
  8
0
  6
Continuous
 62
     7
370
     0
100
AcDbMText
 10
404.6690428622
 20
25.3496492073
 30
0.0
 40
1.5
 41
0.0
 71
     1
 72
     1
  1
Z. JAKOSTI
  7
SLDTEXTSTYLE0
 73
     1
 44
1.0
  0
MTEXT
  5
107
330
1F
100
AcDbEntity
  8
0
  6
Continuous
 62
     7
370
     0
100
AcDbMText
 10
404.4551864991
 20
29.7337046506
 30
0.0
 40
1.5
 41
0.0
 71
     1
 72
     1
  1
VÝROBA
  7
SLDTEXTSTYLE0
 73
     1
 44
1.0
  0
MTEXT
  5
108
330
1F
100
AcDbEntity
  8
0
  6
Continuous
 62
     7
370
     0
100
AcDbMText
 10
404.4017224083
 20
34.0642960031
 30
0.0
 40
1.5
 41
0.0
 71
     1
 72
     1
  1
SCHVÁLIL
  7
SLDTEXTSTYLE0
 73
     1
 44
1.0
  0
MTEXT
  5
109
330
1F
100
AcDbEntity
  8
0
  6
Continuous
 62
     7
370
     0
100
AcDbMText
 10
404.4104688676
 20
38.15440716
 30
0.0
 40
1.5
 41
0.0
 71
     1
 72
     1
  1
PŘEZKOUŠEL
  7
SLDTEXTSTYLE2
 73
     1
 44
1.0
  0
MTEXT
  5
10A
330
1F
100
AcDbEntity
  8
0
  6
Continuous
 62
     7
370
     0
100
AcDbMText
 10
404.2121492441
 20
42.4297148859
 30
0.0
 40
1.5
 41
0.0
 71
     1
 72
     1
  1
NAVRHL
  7
SLDTEXTSTYLE0
 73
     1
 44
1.0
  0
LINE
  5
10B
330
1F
100
AcDbEntity
  8
0
  6
Continuous
 62
     7
370
    25
100
AcDbLine
 10
117.4
 20
338.45
 30
0.0
 11
161.9
 21
338.45
 31
0.0
  0
LINE
  5
10C
330
1F
100
AcDbEntity
  8
0
  6
Continuous
 62
     7
370
    25
100
AcDbLine
 10
161.9
 20
346.45
 30
0.0
 11
117.4
 21
346.45
 31
0.0
  0
LINE
  5
10D
330
1F
100
AcDbEntity
  8
0
  6
Continuous
 62
     7
370
    25
100
AcDbLine
 10
161.9
 20
338.45
 30
0.0
 11
162.4
 21
338.95
 31
0.0
  0
LINE
  5
10E
330
1F
100
AcDbEntity
  8
0
  6
Continuous
 62
     7
370
    25
100
AcDbLine
 10
162.4
 20
345.95
 30
0.0
 11
161.9
 21
346.45
 31
0.0
  0
LINE
  5
10F
330
1F
100
AcDbEntity
  8
0
  6
Continuous
 62
     7
370
    25
100
AcDbLine
 10
161.9
 20
296.75
 30
0.0
 11
162.4
 21
297.25
 31
0.0
  0
LINE
  5
110
330
1F
100
AcDbEntity
  8
0
  6
Continuous
 62
     7
370
    25
100
AcDbLine
 10
162.4
 20
304.25
 30
0.0
 11
161.9
 21
304.75
 31
0.0
  0
LINE
  5
111
330
1F
100
AcDbEntity
  8
0
  6
Continuous
 62
     7
370
    25
100
AcDbLine
 10
161.9
 20
304.75
 30
0.0
 11
117.4
 21
304.75
 31
0.0
  0
LINE
  5
112
330
1F
100
AcDbEntity
  8
0
  6
Continuous
 62
     7
370
    25
100
AcDbLine
 10
117.4
 20
296.75
 30
0.0
 11
161.9
 21
296.75
 31
0.0
  0
LINE
  5
113
330
1F
100
AcDbEntity
  8
0
  6
Continuous
 62
     7
370
    25
100
AcDbLine
 10
70.4
 20
347.95
 30
0.0
 11
68.7
 21
347.95
 31
0.0
  0
LINE
  5
114
330
1F
100
AcDbEntity
  8
0
  6
Continuous
 62
     7
370
    25
100
AcDbLine
 10
68.7
 20
336.95
 30
0.0
 11
70.4
 21
336.95
 31
0.0
  0
ARC
  5
115
330
1F
100
AcDbEntity
  8
0
  6
Continuous
 62
     7
370
    25
100
AcDbCircle
 10
68.7
 20
337.25
 30
0.0
 40
0.3000000000000114
100
AcDbArc
 50
180.0
 51
270.0
  0
ARC
  5
116
330
1F
100
AcDbEntity
  8
0
  6
Continuous
 62
     7
370
    25
100
AcDbCircle
 10
68.7
 20
347.65
 30
0.0
 40
0.2999999999999972
100
AcDbArc
 50
90.0
 51
180.0
  0
ARC
  5
117
330
1F
100
AcDbEntity
  8
0
  6
Continuous
 62
     7
370
    25
100
AcDbCircle
 10
68.7
 20
295.55
 30
0.0
 40
0.2999999999999972
100
AcDbArc
 50
180.0
 51
270.0
  0
ARC
  5
118
330
1F
100
AcDbEntity
  8
0
  6
Continuous
 62
     7
370
    25
100
AcDbCircle
 10
68.7
 20
305.95
 30
0.0
 40
0.3000000000000114
100
AcDbArc
 50
90.0
 51
180.0
  0
LINE
  5
119
330
1F
100
AcDbEntity
  8
0
  6
Continuous
 62
     7
370
    25
100
AcDbLine
 10
70.4
 20
306.25
 30
0.0
 11
68.7
 21
306.25
 31
0.0
  0
LINE
  5
11A
330
1F
100
AcDbEntity
  8
0
  6
Continuous
 62
     7
370
    25
100
AcDbLine
 10
68.7
 20
295.25
 30
0.0
 11
70.4
 21
295.25
 31
0.0
  0
LINE
  5
11B
330
1F
100
AcDbEntity
  8
0
  6
Continuous
 62
     7
370
    25
100
AcDbLine
 10
217.4
 20
306.6
 30
0.0
 11
224.9
 21
306.6
 31
0.0
  0
LINE
  5
11C
330
1F
100
AcDbEntity
  8
0
  6
Continuous
 62
     7
370
    25
100
AcDbLine
 10
224.9
 20
336.6
 30
0.0
 11
217.4
 21
336.6
 31
0.0
  0
LINE
  5
11D
330
1F
100
AcDbEntity
  8
0
  6
Continuous
 62
     7
370
    25
100
AcDbLine
 10
224.9
 20
306.6
 30
0.0
 11
225.4
 21
307.1
 31
0.0
  0
LINE
  5
11E
330
1F
100
AcDbEntity
  8
0
  6
Continuous
 62
     7
370
    25
100
AcDbLine
 10
225.4
 20
336.1
 30
0.0
 11
224.9
 21
336.6
 31
0.0
  0
LINE
  5
11F
330
1F
100
AcDbEntity
  8
0
  6
Continuous
 62
     7
370
    25
100
AcDbLine
 10
162.4
 20
298.6
 30
0.0
 11
164.4
 21
298.6
 31
0.0
  0
LINE
  5
120
330
1F
100
AcDbEntity
  8
0
  6
Continuous
 62
     7
370
    25
100
AcDbLine
 10
164.4
 20
344.6
 30
0.0
 11
162.4
 21
344.6
 31
0.0
  0
LINE
  5
121
330
1F
100
AcDbEntity
  8
0
  6
Continuous
 62
     7
370
    25
100
AcDbLine
 10
227.9
 20
325.6
 30
0.0
 11
227.9
 21
329.1
 31
0.0
  0
LINE
  5
122
330
1F
100
AcDbEntity
  8
0
  6
Continuous
 62
     7
370
    25
100
AcDbLine
 10
227.9
 20
329.1
 30
0.0
 11
228.4
 21
329.1
 31
0.0
  0
LINE
  5
123
330
1F
100
AcDbEntity
  8
0
  6
Continuous
 62
     7
370
    25
100
AcDbLine
 10
228.4
 20
324.3838821814
 30
0.0
 11
227.9
 21
325.6
 31
0.0
  0
LINE
  5
124
330
1F
100
AcDbEntity
  8
0
  6
Continuous
 62
     7
370
    25
100
AcDbLine
 10
228.4
 20
329.1
 30
0.0
 11
228.4
 21
324.3838821814
 31
0.0
  0
LINE
  5
125
330
1F
100
AcDbEntity
  8
0
  6
Continuous
 62
     7
370
    25
100
AcDbLine
 10
225.4
 20
329.1
 30
0.0
 11
227.9
 21
329.1
 31
0.0
  0
LINE
  5
126
330
1F
100
AcDbEntity
  8
0
  6
Continuous
 62
     7
370
    25
100
AcDbLine
 10
225.4
 20
325.6
 30
0.0
 11
227.9
 21
325.6
 31
0.0
  0
LINE
  5
127
330
1F
100
AcDbEntity
  8
0
  6
Continuous
 62
     7
370
    25
100
AcDbLine
 10
227.9
 20
317.6
 30
0.0
 11
228.4
 21
318.8161178186
 31
0.0
  0
LINE
  5
128
330
1F
100
AcDbEntity
  8
0
  6
Continuous
 62
     7
370
    25
100
AcDbLine
 10
225.4
 20
317.6
 30
0.0
 11
227.9
 21
317.6
 31
0.0
  0
LINE
  5
129
330
1F
100
AcDbEntity
  8
0
  6
Continuous
 62
     7
370
    25
100
AcDbLine
 10
228.4
 20
324.3838821814
 30
0.0
 11
228.4
 21
318.8161178186
 31
0.0
  0
LINE
  5
12A
330
1F
100
AcDbEntity
  8
0
  6
Continuous
 62
     7
370
    25
100
AcDbLine
 10
227.9
 20
314.1
 30
0.0
 11
227.9
 21
317.6
 31
0.0
  0
LINE
  5
12B
330
1F
100
AcDbEntity
  8
0
  6
Continuous
 62
     7
370
    25
100
AcDbLine
 10
228.4
 20
314.1
 30
0.0
 11
227.9
 21
314.1
 31
0.0
  0
LINE
  5
12C
330
1F
100
AcDbEntity
  8
0
  6
Continuous
 62
     7
370
    25
100
AcDbLine
 10
228.4
 20
318.8161178186
 30
0.0
 11
228.4
 21
314.1
 31
0.0
  0
LINE
  5
12D
330
1F
100
AcDbEntity
  8
0
  6
Continuous
 62
     7
370
    25
100
AcDbLine
 10
225.4
 20
314.1
 30
0.0
 11
227.9
 21
314.1
 31
0.0
  0
LINE
  5
12E
330
1F
100
AcDbEntity
  8
0
  6
Continuous
 62
     7
370
    25
100
AcDbLine
 10
161.9
 20
338.45
 30
0.0
 11
161.9
 21
346.45
 31
0.0
  0
LINE
  5
12F
330
1F
100
AcDbEntity
  8
0
  6
Continuous
 62
     7
370
    25
100
AcDbLine
 10
162.4
 20
345.95
 30
0.0
 11
162.4
 21
338.95
 31
0.0
  0
LINE
  5
130
330
1F
100
AcDbEntity
  8
0
  6
Continuous
 62
     7
370
    25
100
AcDbLine
 10
161.9
 20
296.75
 30
0.0
 11
161.9
 21
304.75
 31
0.0
  0
LINE
  5
131
330
1F
100
AcDbEntity
  8
0
  6
Continuous
 62
     7
370
    25
100
AcDbLine
 10
162.4
 20
304.25
 30
0.0
 11
162.4
 21
297.25
 31
0.0
  0
SPLINE
  5
132
330
1F
100
AcDbEntity
  8
0
  6
Continuous
 62
     7
370
    25
100
AcDbSpline
210
0.0
220
0.0
230
1.0
 70
     8
 71
     3
 72
    10
 73
     6
 74
     0
 42
0.000000001
 43
0.00000001
 40
0.0
 40
0.0
 40
0.0
 40
0.0
 40
0.2497048596850048
 40
0.5046205397540219
 40
1.0
 40
1.0
 40
1.0
 40
1.0
 10
80.40000000000003
 20
339.1504432115811
 30
0.0
 10
80.38503727997346
 20
338.8636896840287
 30
0.0
 10
80.35479959911483
 20
338.2841986799991
 30
0.0
 10
80.06026665886876
 20
337.1578117638472
 30
0.0
 10
79.64999430762349
 20
336.3706240573397
 30
0.0
 10
79.37911357683745
 20
335.8508864231625
 30
0.0
  0
LINE
  5
133
330
1F
100
AcDbEntity
  8
0
  6
Continuous
 62
     7
370
    25
100
AcDbLine
 10
79.3791135768
 20
335.8508864232
 30
0.0
 11
71.4208864232
 21
335.8508864232
 31
0.0
  0
SPLINE
  5
134
330
1F
100
AcDbEntity
  8
0
  6
Continuous
 62
     7
370
    25
100
AcDbSpline
210
0.0
220
0.0
230
1.0
 70
     8
 71
     3
 72
    10
 73
     6
 74
     0
 42
0.000000001
 43
0.00000001
 40
0.0
 40
0.0
 40
0.0
 40
0.0
 40
0.4323835470369954
 40
0.8795507089861018
 40
1.0
 40
1.0
 40
1.0
 40
1.0
 10
71.4208864231626
 20
335.8508864231625
 30
0.0
 10
71.18241751038636
 20
336.3026647791786
 30
0.0
 10
70.69732620027332
 20
337.2216682335458
 30
0.0
 10
70.42102492681246
 20
338.3610439341059
 30
0.0
 10
70.40368051679707
 20
339.0122549873728
 30
0.0
 10
70.40000000000003
 20
339.1504432115811
 30
0.0
  0
SPLINE
  5
135
330
1F
100
AcDbEntity
  8
0
  6
Continuous
 62
     7
370
    25
100
AcDbSpline
210
0.0
220
0.0
230
1.0
 70
     8
 71
     3
 72
    10
 73
     6
 74
     0
 42
0.000000001
 43
0.00000001
 40
0.0
 40
0.0
 40
0.0
 40
0.0
 40
0.249704859685004
 40
0.5046205397540208
 40
1.0
 40
1.0
 40
1.0
 40
1.0
 10
70.40000000000003
 20
339.1504432115811
 30
0.0
 10
70.41496272002661
 20
339.4371967391337
 30
0.0
 10
70.44520040088521
 20
340.0166877431633
 30
0.0
 10
70.73973334113128
 20
341.1430746593151
 30
0.0
 10
71.15000569237658
 20
341.9302623658226
 30
0.0
 10
71.4208864231626
 20
342.4499999999999
 30
0.0
  0
LINE
  5
136
330
1F
100
AcDbEntity
  8
0
  6
Continuous
 62
     7
370
    25
100
AcDbLine
 10
79.3791135768
 20
342.45
 30
0.0
 11
71.4208864232
 21
342.45
 31
0.0
  0
SPLINE
  5
137
330
1F
100
AcDbEntity
  8
0
  6
Continuous
 62
     7
370
    25
100
AcDbSpline
210
0.0
220
0.0
230
1.0
 70
     8
 71
     3
 72
    10
 73
     6
 74
     0
 42
0.000000001
 43
0.00000001
 40
0.0
 40
0.0
 40
0.0
 40
0.0
 40
0.4323835470369959
 40
0.8795507089861023
 40
1.0
 40
1.0
 40
1.0
 40
1.0
 10
79.37911357683745
 20
342.4499999999999
 30
0.0
 10
79.61758248961371
 20
341.9982216439838
 30
0.0
 10
80.10267379972673
 20
341.0792181896165
 30
0.0
 10
80.3789750731876
 20
339.9398424890564
 30
0.0
 10
80.39631948320299
 20
339.2886314357895
 30
0.0
 10
80.40000000000003
 20
339.1504432115811
 30
0.0
  0
SPLINE
  5
138
330
1F
100
AcDbEntity
  8
0
  6
Continuous
 62
     7
370
    25
100
AcDbSpline
210
0.0
220
0.0
230
1.0
 70
     8
 71
     3
 72
    10
 73
     6
 74
     0
 42
0.000000001
 43
0.00000001
 40
0.0
 40
0.0
 40
0.0
 40
0.0
 40
0.2497048596850028
 40
0.5046205397540204
 40
1.0
 40
1.0
 40
1.0
 40
1.0
 10
80.40000000000003
 20
345.7495567884185
 30
0.0
 10
80.38503727997346
 20
345.4628032608661
 30
0.0
 10
80.35479959911483
 20
344.8833122568365
 30
0.0
 10
80.06026665886876
 20
343.7569253406846
 30
0.0
 10
79.64999430762349
 20
342.9697376341771
 30
0.0
 10
79.37911357683745
 20
342.4499999999999
 30
0.0
  0
SPLINE
  5
139
330
1F
100
AcDbEntity
  8
0
  6
Continuous
 62
     7
370
    25
100
AcDbSpline
210
0.0
220
0.0
230
1.0
 70
     8
 71
     3
 72
    10
 73
     6
 74
     0
 42
0.000000001
 43
0.00000001
 40
0.0
 40
0.0
 40
0.0
 40
0.0
 40
0.4323835470369947
 40
0.8795507089861007
 40
1.0
 40
1.0
 40
1.0
 40
1.0
 10
71.4208864231626
 20
342.4499999999999
 30
0.0
 10
71.18241751038636
 20
342.901778356016
 30
0.0
 10
70.69732620027332
 20
343.8207818103833
 30
0.0
 10
70.42102492681246
 20
344.9601575109433
 30
0.0
 10
70.40368051679707
 20
345.6113685642102
 30
0.0
 10
70.40000000000003
 20
345.7495567884185
 30
0.0
  0
SPLINE
  5
13A
330
1F
100
AcDbEntity
  8
0
  6
Continuous
 62
     7
370
    25
100
AcDbSpline
210
0.0
220
0.0
230
1.0
 70
     8
 71
     3
 72
    10
 73
     6
 74
     0
 42
0.000000001
 43
0.00000001
 40
0.0
 40
0.0
 40
0.0
 40
0.0
 40
0.2497048596850036
 40
0.5046205397540197
 40
1.0
 40
1.0
 40
1.0
 40
1.0
 10
70.40000000000003
 20
345.7495567884185
 30
0.0
 10
70.41496272002661
 20
346.0363103159711
 30
0.0
 10
70.44520040088521
 20
346.6158013200007
 30
0.0
 10
70.7397333411313
 20
347.7421882361525
 30
0.0
 10
71.15000569237658
 20
348.5293759426601
 30
0.0
 10
71.4208864231626
 20
349.0491135768373
 30
0.0
  0
LINE
  5
13B
330
1F
100
AcDbEntity
  8
0
  6
Continuous
 62
     7
370
    25
100
AcDbLine
 10
79.3791135768
 20
349.0491135768
 30
0.0
 11
71.4208864232
 21
349.0491135768
 31
0.0
  0
SPLINE
  5
13C
330
1F
100
AcDbEntity
  8
0
  6
Continuous
 62
     7
370
    25
100
AcDbSpline
210
0.0
220
0.0
230
1.0
 70
     8
 71
     3
 72
    10
 73
     6
 74
     0
 42
0.000000001
 43
0.00000001
 40
0.0
 40
0.0
 40
0.0
 40
0.0
 40
0.4323835470369942
 40
0.8795507089861003
 40
1.0
 40
1.0
 40
1.0
 40
1.0
 10
79.37911357683745
 20
349.0491135768373
 30
0.0
 10
79.61758248961371
 20
348.5973352208212
 30
0.0
 10
80.10267379972673
 20
347.6783317664539
 30
0.0
 10
80.3789750731876
 20
346.5389560658939
 30
0.0
 10
80.39631948320299
 20
345.887745012627
 30
0.0
 10
80.40000000000003
 20
345.7495567884185
 30
0.0
  0
LINE
  5
13D
330
1F
100
AcDbEntity
  8
0
  6
Continuous
 62
     7
370
    25
100
AcDbLine
 10
70.4
 20
345.7495567884
 30
0.0
 11
70.4
 21
339.1504432116
 31
0.0
  0
SPLINE
  5
13E
330
1F
100
AcDbEntity
  8
0
  6
Continuous
 62
     7
370
    25
100
AcDbSpline
210
0.0
220
0.0
230
1.0
 70
    24
 71
     3
 72
    11
 73
     7
 74
     0
 42
0.000000001
 43
0.00000001
 40
0.0
 40
0.0
 40
0.0
 40
0.0
 40
0.0474679324021228
 40
0.3983995169030823
 40
0.7620165632204967
 40
1.0
 40
1.0
 40
1.0
 40
1.0
 10
80.40000000000003
 20
349.0491135768373
 30
0.0
 10
80.39943065263213
 20
349.0491135768373
 30
0.0
 10
80.39465210625697
 20
349.0491135768373
 30
0.0
 10
80.25200926915704
 20
349.0491135768373
 30
0.0
 10
79.85740918546553
 20
349.0491135768373
 30
0.0
 10
79.51468838960257
 20
349.0491135768373
 30
0.0
 10
79.37911357683745
 20
349.0491135768373
 30
0.0
  0
SPLINE
  5
13F
330
1F
100
AcDbEntity
  8
0
  6
Continuous
 62
     7
370
    25
100
AcDbSpline
210
0.0
220
0.0
230
1.0
 70
    24
 71
     3
 72
    11
 73
     7
 74
     0
 42
0.000000001
 43
0.00000001
 40
0.0
 40
0.0
 40
0.0
 40
0.0
 40
0.0474679324021228
 40
0.3983995169030813
 40
0.7620165632204966
 40
1.0
 40
1.0
 40
1.0
 40
1.0
 10
70.40000000000003
 20
335.8508864231625
 30
0.0
 10
70.40056934736792
 20
335.8508864231625
 30
0.0
 10
70.40534789374307
 20
335.8508864231625
 30
0.0
 10
70.54799073084301
 20
335.8508864231625
 30
0.0
 10
70.94259081453453
 20
335.8508864231625
 30
0.0
 10
71.28531161039747
 20
335.8508864231625
 30
0.0
 10
71.4208864231626
 20
335.8508864231625
 30
0.0
  0
LINE
  5
140
330
1F
100
AcDbEntity
  8
0
  6
Continuous
 62
     7
370
    25
100
AcDbLine
 10
70.4
 20
339.1504432116
 30
0.0
 11
70.4
 21
335.8508864232
 31
0.0
  0
SPLINE
  5
141
330
1F
100
AcDbEntity
  8
0
  6
Continuous
 62
     7
370
    25
100
AcDbSpline
210
0.0
220
0.0
230
1.0
 70
    24
 71
     3
 72
    10
 73
     6
 74
     0
 42
0.000000001
 43
0.00000001
 40
0.0
 40
0.0
 40
0.0
 40
0.0
 40
0.3347296570906379
 40
0.6625464182105122
 40
1.0
 40
1.0
 40
1.0
 40
1.0
 10
71.4208864231626
 20
349.0491135768373
 30
0.0
 10
71.23395537643776
 20
349.0491135768373
 30
0.0
 10
70.86395381596549
 20
349.0491135768373
 30
0.0
 10
70.4813565589473
 20
349.0491135768373
 30
0.0
 10
70.42737948257003
 20
349.0491135768373
 30
0.0
 10
70.40000000000003
 20
349.0491135768373
 30
0.0
  0
LINE
  5
142
330
1F
100
AcDbEntity
  8
0
  6
Continuous
 62
     7
370
    25
100
AcDbLine
 10
70.4
 20
345.7495567884
 30
0.0
 11
70.4
 21
349.0491135768
 31
0.0
  0
SPLINE
  5
143
330
1F
100
AcDbEntity
  8
0
  6
Continuous
 62
     7
370
    25
100
AcDbSpline
210
0.0
220
0.0
230
1.0
 70
    24
 71
     3
 72
    10
 73
     6
 74
     0
 42
0.000000001
 43
0.00000001
 40
0.0
 40
0.0
 40
0.0
 40
0.0
 40
0.3347296570906379
 40
0.6625464182105122
 40
1.0
 40
1.0
 40
1.0
 40
1.0
 10
79.37911357683745
 20
335.8508864231625
 30
0.0
 10
79.5660446235623
 20
335.8508864231625
 30
0.0
 10
79.93604618403458
 20
335.8508864231625
 30
0.0
 10
80.31864344105276
 20
335.8508864231625
 30
0.0
 10
80.37262051743002
 20
335.8508864231625
 30
0.0
 10
80.40000000000003
 20
335.8508864231625
 30
0.0
  0
LINE
  5
144
330
1F
100
AcDbEntity
  8
0
  6
Continuous
 62
     7
370
    25
100
AcDbLine
 10
68.4
 20
342.45
 30
0.0
 11
68.4
 21
347.65
 31
0.0
  0
LINE
  5
145
330
1F
100
AcDbEntity
  8
0
  6
Continuous
 62
     7
370
    25
100
AcDbLine
 10
68.4
 20
337.25
 30
0.0
 11
68.4
 21
342.45
 31
0.0
  0
SPLINE
  5
146
330
1F
100
AcDbEntity
  8
0
  6
Continuous
 62
     7
370
    25
100
AcDbSpline
210
0.0
220
0.0
230
1.0
 70
     8
 71
     3
 72
    10
 73
     6
 74
     0
 42
0.000000001
 43
0.00000001
 40
0.0
 40
0.0
 40
0.0
 40
0.0
 40
0.2497048596850036
 40
0.5046205397540202
 40
1.0
 40
1.0
 40
1.0
 40
1.0
 10
80.40000000000003
 20
304.0495567884186
 30
0.0
 10
80.38503727997346
 20
303.7628032608661
 30
0.0
 10
80.35479959911483
 20
303.1833122568365
 30
0.0
 10
80.06026665886877
 20
302.0569253406847
 30
0.0
 10
79.64999430762349
 20
301.2697376341771
 30
0.0
 10
79.37911357683745
 20
300.7499999999999
 30
0.0
  0
LINE
  5
147
330
1F
100
AcDbEntity
  8
0
  6
Continuous
 62
     7
370
    25
100
AcDbLine
 10
79.3791135768
 20
300.75
 30
0.0
 11
71.4208864232
 21
300.75
 31
0.0
  0
SPLINE
  5
148
330
1F
100
AcDbEntity
  8
0
  6
Continuous
 62
     7
370
    25
100
AcDbSpline
210
0.0
220
0.0
230
1.0
 70
     8
 71
     3
 72
    10
 73
     6
 74
     0
 42
0.000000001
 43
0.00000001
 40
0.0
 40
0.0
 40
0.0
 40
0.0
 40
0.4323835470369955
 40
0.879550708986102
 40
1.0
 40
1.0
 40
1.0
 40
1.0
 10
71.4208864231626
 20
300.7499999999999
 30
0.0
 10
71.18241751038636
 20
301.201778356016
 30
0.0
 10
70.69732620027332
 20
302.1207818103833
 30
0.0
 10
70.42102492681245
 20
303.2601575109433
 30
0.0
 10
70.40368051679707
 20
303.9113685642102
 30
0.0
 10
70.40000000000003
 20
304.0495567884186
 30
0.0
  0
SPLINE
  5
149
330
1F
100
AcDbEntity
  8
0
  6
Continuous
 62
     7
370
    25
100
AcDbSpline
210
0.0
220
0.0
230
1.0
 70
     8
 71
     3
 72
    10
 73
     6
 74
     0
 42
0.000000001
 43
0.00000001
 40
0.0
 40
0.0
 40
0.0
 40
0.0
 40
0.2497048596850041
 40
0.5046205397540208
 40
1.0
 40
1.0
 40
1.0
 40
1.0
 10
70.40000000000003
 20
304.0495567884186
 30
0.0
 10
70.41496272002661
 20
304.3363103159712
 30
0.0
 10
70.44520040088523
 20
304.9158013200008
 30
0.0
 10
70.73973334113128
 20
306.0421882361525
 30
0.0
 10
71.15000569237658
 20
306.8293759426601
 30
0.0
 10
71.4208864231626
 20
307.3491135768373
 30
0.0
  0
LINE
  5
14A
330
1F
100
AcDbEntity
  8
0
  6
Continuous
 62
     7
370
    25
100
AcDbLine
 10
79.3791135768
 20
307.3491135768
 30
0.0
 11
71.4208864232
 21
307.3491135768
 31
0.0
  0
SPLINE
  5
14B
330
1F
100
AcDbEntity
  8
0
  6
Continuous
 62
     7
370
    25
100
AcDbSpline
210
0.0
220
0.0
230
1.0
 70
     8
 71
     3
 72
    10
 73
     6
 74
     0
 42
0.000000001
 43
0.00000001
 40
0.0
 40
0.0
 40
0.0
 40
0.0
 40
0.4323835470369951
 40
0.8795507089861012
 40
1.0
 40
1.0
 40
1.0
 40
1.0
 10
79.37911357683745
 20
307.3491135768373
 30
0.0
 10
79.61758248961371
 20
306.8973352208212
 30
0.0
 10
80.10267379972673
 20
305.9783317664539
 30
0.0
 10
80.3789750731876
 20
304.8389560658939
 30
0.0
 10
80.39631948320299
 20
304.187745012627
 30
0.0
 10
80.40000000000003
 20
304.0495567884186
 30
0.0
  0
SPLINE
  5
14C
330
1F
100
AcDbEntity
  8
0
  6
Continuous
 62
     7
370
    25
100
AcDbSpline
210
0.0
220
0.0
230
1.0
 70
     8
 71
     3
 72
    10
 73
     6
 74
     0
 42
0.000000001
 43
0.00000001
 40
0.0
 40
0.0
 40
0.0
 40
0.0
 40
0.2497048596850035
 40
0.5046205397540201
 40
1.0
 40
1.0
 40
1.0
 40
1.0
 10
70.40000000000003
 20
297.4504432115812
 30
0.0
 10
70.41496272002661
 20
297.7371967391337
 30
0.0
 10
70.44520040088521
 20
298.3166877431634
 30
0.0
 10
70.7397333411313
 20
299.4430746593151
 30
0.0
 10
71.15000569237658
 20
300.2302623658227
 30
0.0
 10
71.4208864231626
 20
300.7499999999999
 30
0.0
  0
LINE
  5
14D
330
1F
100
AcDbEntity
  8
0
  6
Continuous
 62
     7
370
    25
100
AcDbLine
 10
70.4
 20
304.0495567884
 30
0.0
 11
70.4
 21
297.4504432116
 31
0.0
  0
SPLINE
  5
14E
330
1F
100
AcDbEntity
  8
0
  6
Continuous
 62
     7
370
    25
100
AcDbSpline
210
0.0
220
0.0
230
1.0
 70
     8
 71
     3
 72
    10
 73
     6
 74
     0
 42
0.000000001
 43
0.00000001
 40
0.0
 40
0.0
 40
0.0
 40
0.0
 40
0.2497048596850026
 40
0.504620539754019
 40
1.0
 40
1.0
 40
1.0
 40
1.0
 10
80.40000000000003
 20
297.4504432115812
 30
0.0
 10
80.38503727997346
 20
297.1636896840286
 30
0.0
 10
80.35479959911483
 20
296.584198679999
 30
0.0
 10
80.06026665886877
 20
295.4578117638473
 30
0.0
 10
79.64999430762349
 20
294.6706240573397
 30
0.0
 10
79.37911357683745
 20
294.1508864231624
 30
0.0
  0
LINE
  5
14F
330
1F
100
AcDbEntity
  8
0
  6
Continuous
 62
     7
370
    25
100
AcDbLine
 10
79.3791135768
 20
294.1508864232
 30
0.0
 11
71.4208864232
 21
294.1508864232
 31
0.0
  0
SPLINE
  5
150
330
1F
100
AcDbEntity
  8
0
  6
Continuous
 62
     7
370
    25
100
AcDbSpline
210
0.0
220
0.0
230
1.0
 70
     8
 71
     3
 72
    10
 73
     6
 74
     0
 42
0.000000001
 43
0.00000001
 40
0.0
 40
0.0
 40
0.0
 40
0.0
 40
0.4323835470369955
 40
0.8795507089861003
 40
1.0
 40
1.0
 40
1.0
 40
1.0
 10
71.4208864231626
 20
294.1508864231624
 30
0.0
 10
71.18241751038636
 20
294.6026647791786
 30
0.0
 10
70.69732620027332
 20
295.5216682335459
 30
0.0
 10
70.42102492681245
 20
296.6610439341059
 30
0.0
 10
70.40368051679707
 20
297.3122549873728
 30
0.0
 10
70.40000000000003
 20
297.4504432115812
 30
0.0
  0
SPLINE
  5
151
330
1F
100
AcDbEntity
  8
0
  6
Continuous
 62
     7
370
    25
100
AcDbSpline
210
0.0
220
0.0
230
1.0
 70
     8
 71
     3
 72
    10
 73
     6
 74
     0
 42
0.000000001
 43
0.00000001
 40
0.0
 40
0.0
 40
0.0
 40
0.0
 40
0.4323835470369948
 40
0.8795507089861003
 40
1.0
 40
1.0
 40
1.0
 40
1.0
 10
79.37911357683745
 20
300.7499999999999
 30
0.0
 10
79.61758248961371
 20
300.2982216439838
 30
0.0
 10
80.10267379972673
 20
299.3792181896166
 30
0.0
 10
80.3789750731876
 20
298.2398424890565
 30
0.0
 10
80.39631948320299
 20
297.5886314357896
 30
0.0
 10
80.40000000000003
 20
297.4504432115812
 30
0.0
  0
SPLINE
  5
152
330
1F
100
AcDbEntity
  8
0
  6
Continuous
 62
     7
370
    25
100
AcDbSpline
210
0.0
220
0.0
230
1.0
 70
    24
 71
     3
 72
    11
 73
     7
 74
     0
 42
0.000000001
 43
0.00000001
 40
0.0
 40
0.0
 40
0.0
 40
0.0
 40
0.0474679324021236
 40
0.3983995169030818
 40
0.7620165632204969
 40
1.0
 40
1.0
 40
1.0
 40
1.0
 10
80.40000000000003
 20
307.3491135768373
 30
0.0
 10
80.39943065263213
 20
307.3491135768373
 30
0.0
 10
80.39465210625697
 20
307.3491135768373
 30
0.0
 10
80.25200926915704
 20
307.3491135768373
 30
0.0
 10
79.85740918546554
 20
307.3491135768373
 30
0.0
 10
79.51468838960258
 20
307.3491135768373
 30
0.0
 10
79.37911357683745
 20
307.3491135768373
 30
0.0
  0
SPLINE
  5
153
330
1F
100
AcDbEntity
  8
0
  6
Continuous
 62
     7
370
    25
100
AcDbSpline
210
0.0
220
0.0
230
1.0
 70
    24
 71
     3
 72
    11
 73
     7
 74
     0
 42
0.000000001
 43
0.00000001
 40
0.0
 40
0.0
 40
0.0
 40
0.0
 40
0.0474679324021237
 40
0.3983995169030826
 40
0.7620165632204992
 40
1.0
 40
1.0
 40
1.0
 40
1.0
 10
70.40000000000003
 20
294.1508864231624
 30
0.0
 10
70.40056934736792
 20
294.1508864231624
 30
0.0
 10
70.40534789374307
 20
294.1508864231624
 30
0.0
 10
70.54799073084303
 20
294.1508864231624
 30
0.0
 10
70.94259081453453
 20
294.1508864231624
 30
0.0
 10
71.28531161039747
 20
294.1508864231624
 30
0.0
 10
71.4208864231626
 20
294.1508864231624
 30
0.0
  0
LINE
  5
154
330
1F
100
AcDbEntity
  8
0
  6
Continuous
 62
     7
370
    25
100
AcDbLine
 10
70.4
 20
297.4504432116
 30
0.0
 11
70.4
 21
294.1508864232
 31
0.0
  0
SPLINE
  5
155
330
1F
100
AcDbEntity
  8
0
  6
Continuous
 62
     7
370
    25
100
AcDbSpline
210
0.0
220
0.0
230
1.0
 70
    24
 71
     3
 72
    10
 73
     6
 74
     0
 42
0.000000001
 43
0.00000001
 40
0.0
 40
0.0
 40
0.0
 40
0.0
 40
0.3347296570906375
 40
0.6625464182105115
 40
1.0
 40
1.0
 40
1.0
 40
1.0
 10
71.4208864231626
 20
307.3491135768373
 30
0.0
 10
71.23395537643776
 20
307.3491135768373
 30
0.0
 10
70.86395381596549
 20
307.3491135768373
 30
0.0
 10
70.4813565589473
 20
307.3491135768373
 30
0.0
 10
70.42737948257003
 20
307.3491135768373
 30
0.0
 10
70.40000000000003
 20
307.3491135768373
 30
0.0
  0
LINE
  5
156
330
1F
100
AcDbEntity
  8
0
  6
Continuous
 62
     7
370
    25
100
AcDbLine
 10
70.4
 20
307.3491135768
 30
0.0
 11
70.4
 21
304.0495567884
 31
0.0
  0
SPLINE
  5
157
330
1F
100
AcDbEntity
  8
0
  6
Continuous
 62
     7
370
    25
100
AcDbSpline
210
0.0
220
0.0
230
1.0
 70
    24
 71
     3
 72
    10
 73
     6
 74
     0
 42
0.000000001
 43
0.00000001
 40
0.0
 40
0.0
 40
0.0
 40
0.0
 40
0.3347296570906371
 40
0.6625464182105117
 40
1.0
 40
1.0
 40
1.0
 40
1.0
 10
79.37911357683745
 20
294.1508864231624
 30
0.0
 10
79.5660446235623
 20
294.1508864231624
 30
0.0
 10
79.93604618403458
 20
294.1508864231624
 30
0.0
 10
80.31864344105276
 20
294.1508864231624
 30
0.0
 10
80.37262051743002
 20
294.1508864231624
 30
0.0
 10
80.40000000000003
 20
294.1508864231624
 30
0.0
  0
LINE
  5
158
330
1F
100
AcDbEntity
  8
0
  6
Continuous
 62
     7
370
    25
100
AcDbLine
 10
68.4
 20
295.55
 30
0.0
 11
68.4
 21
305.95
 31
0.0
  0
LINE
  5
159
330
1F
100
AcDbEntity
  8
0
  6
Continuous
 62
     7
370
    25
100
AcDbLine
 10
224.9
 20
306.6
 30
0.0
 11
224.9
 21
336.6
 31
0.0
  0
LINE
  5
15A
330
1F
100
AcDbEntity
  8
0
  6
Continuous
 62
     7
370
    25
100
AcDbLine
 10
225.4
 20
336.1
 30
0.0
 11
225.4
 21
307.1
 31
0.0
  0
LINE
  5
15B
330
1F
100
AcDbEntity
  8
0
  6
Continuous
 62
     7
370
    25
100
AcDbLine
 10
180.4802556818
 20
293.5090909091
 30
0.0
 11
181.009375
 21
293.5090909091
 31
0.0
  0
SPLINE
  5
15C
330
1F
100
AcDbEntity
  8
0
  6
Continuous
 62
     7
370
    25
100
AcDbSpline
210
0.0
220
0.0
230
1.0
 70
     8
 71
     3
 72
    15
 73
    11
 74
     0
 42
0.000000001
 43
0.00000001
 40
0.0
 40
0.0
 40
0.0
 40
0.0
 40
0.0888850639833435
 40
0.1885604992980149
 40
0.2964207560055922
 40
0.416745848836607
 40
0.5457914368464766
 40
0.6867289581444844
 40
0.8380762687167772
 40
1.0
 40
1.0
 40
1.0
 40
1.0
 10
180.0214488636364
 20
293.5680397727272
 30
0.0
 10
180.0344067921635
 20
293.5633398883242
 30
0.0
 10
180.0618957015871
 20
293.5533695681155
 30
0.0
 10
180.1064438780705
 20
293.5419785335106
 30
0.0
 10
180.1560038740555
 20
293.5306019687561
 30
0.0
 10
180.2109963311665
 20
293.5236973709483
 30
0.0
 10
180.2711156954143
 20
293.5170930115125
 30
0.0
 10
180.3362470872889
 20
293.5121455133028
 30
0.0
 10
180.4066026515865
 20
293.5093135644689
 30
0.0
 10
180.4551582393597
 20
293.5091667794321
 30
0.0
 10
180.4802556818182
 20
293.5090909090908
 30
0.0
  0
SPLINE
  5
15D
330
1F
100
AcDbEntity
  8
0
  6
Continuous
 62
     7
370
    25
100
AcDbSpline
210
0.0
220
0.0
230
1.0
 70
     8
 71
     3
 72
    23
 73
    19
 74
     0
 42
0.000000001
 43
0.00000001
 40
0.0
 40
0.0
 40
0.0
 40
0.0
 40
0.0874471253209927
 40
0.1698532365731059
 40
0.2487233605391757
 40
0.3230176537768682
 40
0.3933723588794129
 40
0.460128455138331
 40
0.5231789542235915
 40
0.5838819851265967
 40
0.641701607834617
 40
0.6973283864639704
 40
0.7504393443940258
 40
0.8013819101248645
 40
0.8519376935375632
 40
0.9015653905945169
 40
0.9505224122680793
 40
0.9999999999999999
 40
0.9999999999999999
 40
0.9999999999999999
 40
0.9999999999999999
 10
179.5818181818182
 20
294.5105113636363
 30
0.0
 10
179.5823313442859
 20
294.4783091492152
 30
0.0
 10
179.5833280872403
 20
294.4157610628813
 30
0.0
 10
179.5880537618964
 20
294.324256148996
 30
0.0
 10
179.597002509894
 20
294.2379039916448
 30
0.0
 10
179.6108708902745
 20
294.1567234038521
 30
0.0
 10
179.6269372294867
 20
294.0805251154732
 30
0.0
 10
179.6464307706218
 20
294.0093518372674
 30
0.0
 10
179.6709645282376
 20
293.9435331873534
 30
0.0
 10
179.6985879367065
 20
293.8825972069724
 30
0.0
 10
179.7289430940466
 20
293.8260049957669
 30
0.0
 10
179.7632333511499
 20
293.7750443374809
 30
0.0
 10
179.7994481435864
 20
293.7286642169378
 30
0.0
 10
179.8380959742033
 20
293.6867041198034
 30
0.0
 10
179.8801748525187
 20
293.6501744073149
 30
0.0
 10
179.9239842789557
 20
293.6169076432528
 30
0.0
 10
179.9714873289059
 20
293.5897939771988
 30
0.0
 10
180.0047364067485
 20
293.5753166949899
 30
0.0
 10
180.0214488636364
 20
293.5680397727272
 30
0.0
  0
SPLINE
  5
15E
330
1F
100
AcDbEntity
  8
0
  6
Continuous
 62
     7
370
    25
100
AcDbSpline
210
0.0
220
0.0
230
1.0
 70
     8
 71
     3
 72
    23
 73
    19
 74
     0
 42
0.000000001
 43
0.00000001
 40
0.0
 40
0.0
 40
0.0
 40
0.0
 40
0.0629146460526536
 40
0.1209315349946725
 40
0.174541112455372
 40
0.2241494446847019
 40
0.2716638272153918
 40
0.3194602966361597
 40
0.3688676139482364
 40
0.4205642567138742
 40
0.4757378977585195
 40
0.5360113800178269
 40
0.6020247859115534
 40
0.674156272859234
 40
0.7505794982871676
 40
0.8296454383855258
 40
0.9126786760714769
 40
1.0
 40
1.0
 40
1.0
 40
1.0
 10
180.9951704545454
 20
296.190909090909
 30
0.0
 10
180.9425821391363
 20
296.1901861465854
 30
0.0
 10
180.8414993848936
 20
296.1887965374522
 30
0.0
 10
180.6961100010603
 20
296.1756324124307
 30
0.0
 10
180.5627394091625
 20
296.1557914712232
 30
0.0
 10
180.4400673433814
 20
296.1262424772109
 30
0.0
 10
180.3261256661104
 20
296.0841384442049
 30
0.0
 10
180.2197308029252
 20
296.025680444997
 30
0.0
 10
180.1199426547469
 20
295.9507999030722
 30
0.0
 10
180.0251427181667
 20
295.8604995409847
 30
0.0
 10
179.9371819962292
 20
295.7515206514987
 30
0.0
 10
179.855709190474
 20
295.6233201058251
 30
0.0
 10
179.7800101688699
 20
295.4755730928649
 30
0.0
 10
179.7109964863076
 20
295.309900576787
 30
0.0
 10
179.6524320993893
 20
295.1285844011393
 30
0.0
 10
179.6118910626478
 20
294.93312334461
 30
0.0
 10
179.5865297063058
 20
294.7259059574642
 30
0.0
 10
179.5834148254277
 20
294.5835043837649
 30
0.0
 10
179.5818181818182
 20
294.5105113636363
 30
0.0
  0
LINE
  5
15F
330
1F
100
AcDbEntity
  8
0
  6
Continuous
 62
     7
370
    25
100
AcDbLine
 10
181.4625
 20
296.1909090909
 30
0.0
 11
180.9951704545
 21
296.1909090909
 31
0.0
  0
LINE
  5
160
330
1F
100
AcDbEntity
  8
0
  6
Continuous
 62
     7
370
    25
100
AcDbLine
 10
181.009375
 20
293.5090909091
 30
0.0
 11
181.4625
 21
296.1909090909
 31
0.0
  0
LINE
  5
161
330
1F
100
AcDbEntity
  8
0
  6
Continuous
 62
     7
370
    25
100
AcDbLine
 10
166.8609375
 20
296.1
 30
0.0
 11
166.9454545455
 21
296.6
 31
0.0
  0
LINE
  5
162
330
1F
100
AcDbEntity
  8
0
  6
Continuous
 62
     7
370
    25
100
AcDbLine
 10
167.2330965909
 20
296.1
 30
0.0
 11
166.8609375
 21
296.1
 31
0.0
  0
LINE
  5
163
330
1F
100
AcDbEntity
  8
0
  6
Continuous
 62
     7
370
    25
100
AcDbLine
 10
167.3090909091
 20
296.6
 30
0.0
 11
167.2330965909
 21
296.1
 31
0.0
  0
LINE
  5
164
330
1F
100
AcDbEntity
  8
0
  6
Continuous
 62
     7
370
    25
100
AcDbLine
 10
166.9454545455
 20
296.6
 30
0.0
 11
167.3090909091
 21
296.6
 31
0.0
  0
LINE
  5
165
330
1F
100
AcDbEntity
  8
0
  6
Continuous
 62
     7
370
    25
100
AcDbLine
 10
171.5264204545
 20
295.5822443182
 30
0.0
 11
171.7110795455
 21
296.6
 31
0.0
  0
SPLINE
  5
166
330
1F
100
AcDbEntity
  8
0
  6
Continuous
 62
     7
370
    25
100
AcDbSpline
210
0.0
220
0.0
230
1.0
 70
     8
 71
     3
 72
    23
 73
    19
 74
     0
 42
0.000000001
 43
0.00000001
 40
0.0
 40
0.0
 40
0.0
 40
0.0
 40
0.0320567278470601
 40
0.0655625139072248
 40
0.1004001713750867
 40
0.1382027864917003
 40
0.1790139694266631
 40
0.2234514353430781
 40
0.2718664104837576
 40
0.3249281433599477
 40
0.3834483706024137
 40
0.4487951489475843
 40
0.520956828283837
 40
0.6014006472289718
 40
0.6888140269502951
 40
0.7846110948905115
 40
0.8883046448542178
 40
1.0
 40
1.0
 40
1.0
 40
1.0
 10
170.8644886363637
 20
294.4181818181817
 30
0.0
 10
170.8797103096759
 20
294.419095970575
 30
0.0
 10
170.9108417206228
 20
294.4209655977335
 30
0.0
 10
170.9571670990088
 20
294.4335580049953
 30
0.0
 10
171.0032706461899
 20
294.4541477479481
 30
0.0
 10
171.0496929538046
 20
294.4817958851986
 30
0.0
 10
171.0950704376778
 20
294.51882065686
 30
0.0
 10
171.1405893856983
 20
294.5631044960445
 30
0.0
 10
171.1861739738793
 20
294.6153663588786
 30
0.0
 10
171.2317847713447
 20
294.6761528894433
 30
0.0
 10
171.2774315714444
 20
294.746841517203
 30
0.0
 10
171.3182173742582
 20
294.8306367834207
 30
0.0
 10
171.3593094389701
 20
294.9256234783228
 30
0.0
 10
171.3970227423321
 20
295.0332459451788
 30
0.0
 10
171.4322999922108
 20
295.1533598586266
 30
0.0
 10
171.466295975598
 20
295.2852725830019
 30
0.0
 10
171.4982336536115
 20
295.4295418796201
 30
0.0
 10
171.5167949998132
 20
295.5300982653773
 30
0.0
 10
171.5264204545455
 20
295.5822443181817
 30
0.0
  0
SPLINE
  5
167
330
1F
100
AcDbEntity
  8
0
  6
Continuous
 62
     7
370
    25
100
AcDbSpline
210
0.0
220
0.0
230
1.0
 70
     8
 71
     3
 72
    11
 73
     7
 74
     0
 42
0.000000001
 43
0.00000001
 40
0.0
 40
0.0
 40
0.0
 40
0.0
 40
0.2760027940161311
 40
0.5287745356601948
 40
0.7665659864569059
 40
1.0
 40
1.0
 40
1.0
 40
1.0
 10
170.68125
 20
294.4991477272726
 30
0.0
 10
170.6954905233875
 20
294.4866825517158
 30
0.0
 10
170.722772950613
 20
294.4628013897859
 30
0.0
 10
170.7693082855972
 20
294.4382064280022
 30
0.0
 10
170.8161552660484
 20
294.4208284756501
 30
0.0
 10
170.8484771400667
 20
294.4190585819161
 30
0.0
 10
170.8644886363637
 20
294.4181818181817
 30
0.0
  0
LINE
  5
168
330
1F
100
AcDbEntity
  8
0
  6
Continuous
 62
     7
370
    25
100
AcDbLine
 10
170.5363636364
 20
294.1014204545
 30
0.0
 11
170.68125
 21
294.4991477273
 31
0.0
  0
SPLINE
  5
169
330
1F
100
AcDbEntity
  8
0
  6
Continuous
 62
     7
370
    25
100
AcDbSpline
210
0.0
220
0.0
230
1.0
 70
     8
 71
     3
 72
    11
 73
     7
 74
     0
 42
0.000000001
 43
0.00000001
 40
0.0
 40
0.0
 40
0.0
 40
0.0
 40
0.2007338374434091
 40
0.4314288553531213
 40
0.6959759948133428
 40
1.0
 40
1.0
 40
1.0
 40
1.0
 10
170.7835227272728
 20
294.0090909090908
 30
0.0
 10
170.7656369803261
 20
294.0102746597381
 30
0.0
 10
170.7271958912173
 20
294.012818845578
 30
0.0
 10
170.6680908400969
 20
294.0327996896438
 30
0.0
 10
170.6027510987286
 20
294.0609565577161
 30
0.0
 10
170.5594939301846
 20
294.0873222831519
 30
0.0
 10
170.5363636363637
 20
294.1014204545453
 30
0.0
  0
SPLINE
  5
16A
330
1F
100
AcDbEntity
  8
0
  6
Continuous
 62
     7
370
    25
100
AcDbSpline
210
0.0
220
0.0
230
1.0
 70
     8
 71
     3
 72
    15
 73
    11
 74
     0
 42
0.000000001
 43
0.00000001
 40
0.0
 40
0.0
 40
0.0
 40
0.0
 40
0.1784706993996117
 40
0.337989084936838
 40
0.4816100177309083
 40
0.608663237189117
 40
0.7213717501697172
 40
0.8219672142332529
 40
0.9132902838278592
 40
1.0
 40
1.0
 40
1.0
 40
1.0
 10
171.3737215909091
 20
294.5808238636363
 30
0.0
 10
171.3496572020252
 20
294.5357632092665
 30
0.0
 10
171.3040838905191
 20
294.4504270202543
 30
0.0
 10
171.2306082614459
 20
294.3336790374229
 30
0.0
 10
171.1574005907342
 20
294.2345127480325
 30
0.0
 10
171.0834035949498
 20
294.1532236256959
 30
0.0
 10
171.0093311844573
 20
294.0894716875863
 30
0.0
 10
170.93494592164
 20
294.043377997977
 30
0.0
 10
170.8593434362999
 20
294.0151015963577
 30
0.0
 10
170.8083558844408
 20
294.0110595578083
 30
0.0
 10
170.7835227272728
 20
294.0090909090908
 30
0.0
  0
LINE
  5
16B
330
1F
100
AcDbEntity
  8
0
  6
Continuous
 62
     7
370
    25
100
AcDbLine
 10
171.2813920455
 20
294.0545454545
 30
0.0
 11
171.3737215909
 21
294.5808238636
 31
0.0
  0
LINE
  5
16C
330
1F
100
AcDbEntity
  8
0
  6
Continuous
 62
     7
370
    25
100
AcDbLine
 10
171.65
 20
294.0545454545
 30
0.0
 11
171.2813920455
 21
294.0545454545
 31
0.0
  0
LINE
  5
16D
330
1F
100
AcDbEntity
  8
0
  6
Continuous
 62
     7
370
    25
100
AcDbLine
 10
172.0796875
 20
296.6
 30
0.0
 11
171.65
 21
294.0545454545
 31
0.0
  0
LINE
  5
16E
330
1F
100
AcDbEntity
  8
0
  6
Continuous
 62
     7
370
    25
100
AcDbLine
 10
171.7110795455
 20
296.6
 30
0.0
 11
172.0796875
 21
296.6
 31
0.0
  0
SPLINE
  5
16F
330
1F
100
AcDbEntity
  8
0
  6
Continuous
 62
     7
370
    25
100
AcDbSpline
210
0.0
220
0.0
230
1.0
 70
     8
 71
     3
 72
    31
 73
    27
 74
     0
 42
0.000000001
 43
0.00000001
 40
0.0
 40
0.0
 40
0.0
 40
0.0
 40
0.0538870009329434
 40
0.1062097883526475
 40
0.157124349060198
 40
0.2074378945814193
 40
0.2565128744512555
 40
0.3045440172282133
 40
0.3520997960827614
 40
0.3992345404108403
 40
0.4453573297882715
 40
0.4894323597456896
 40
0.5321724820733644
 40
0.5733586522160686
 40
0.6132624888996139
 40
0.6520672325236271
 40
0.6899720666216396
 40
0.7274523659398798
 40
0.7639343499078401
 40
0.7994376387565342
 40
0.8338806083483535
 40
0.8677656760356862
 40
0.9009092933980898
 40
0.9339654626070906
 40
0.9669240109615771
 40
1.0
 40
1.0
 40
1.0
 40
1.0
 10
167.5363636363637
 20
295.0730113636363
 30
0.0
 10
167.5370237220006
 20
295.1116090711489
 30
0.0
 10
167.5383247325333
 20
295.1876840850641
 30
0.0
 10
167.5451955725023
 20
295.3000778685384
 30
0.0
 10
167.5579881190708
 20
295.4093892701073
 30
0.0
 10
167.5766887887515
 20
295.5154610301669
 30
0.0
 10
167.5991628526136
 20
295.6186764416584
 30
0.0
 10
167.6268283112104
 20
295.7186127812068
 30
0.0
 10
167.6604130743247
 20
295.8152382614998
 30
0.0
 10
167.6985689698882
 20
295.9086588700557
 30
0.0
 10
167.7408127130809
 20
295.9975717279044
 30
0.0
 10
167.7867039381736
 20
296.0810465523737
 30
0.0
 10
167.8344338173605
 20
296.1594155308225
 30
0.0
 10
167.8866746284413
 20
296.2312035798726
 30
0.0
 10
167.9413275354333
 20
296.2975295497644
 30
0.0
 10
167.9990101126141
 20
296.35803766726
 30
0.0
 10
168.0594890540175
 20
296.4132621800676
 30
0.0
 10
168.1234184561755
 20
296.4616846842486
 30
0.0
 10
168.1885277627837
 20
296.5055454476768
 30
0.0
 10
168.2556460187999
 20
296.5418109587685
 30
0.0
 10
168.3223906147749
 20
296.5748240595091
 30
0.0
 10
168.3908106650493
 20
296.5996068861725
 30
0.0
 10
168.4592693945604
 20
296.6211401794813
 30
0.0
 10
168.5290656369733
 20
296.6348693234055
 30
0.0
 10
168.599574630234
 20
296.6438482586412
 30
0.0
 10
168.6468945516065
 20
296.644918482062
 30
0.0
 10
168.6705965909091
 20
296.6454545454544
 30
0.0
  0
SPLINE
  5
170
330
1F
100
AcDbEntity
  8
0
  6
Continuous
 62
     7
370
    25
100
AcDbSpline
210
0.0
220
0.0
230
1.0
 70
     8
 71
     3
 72
    23
 73
    19
 74
     0
 42
0.000000001
 43
0.00000001
 40
0.0
 40
0.0
 40
0.0
 40
0.0
 40
0.0589564899088125
 40
0.1156824852753099
 40
0.1713601759381955
 40
0.225959597210926
 40
0.2805137102049937
 40
0.3359456247695659
 40
0.3925292949255174
 40
0.4509085296751719
 40
0.5111012148065708
 40
0.5724964578048747
 40
0.6355555115349977
 40
0.7009661634926675
 40
0.76990898041365
 40
0.8424091104238256
 40
0.9188181387755304
 40
1.0
 40
1.0
 40
1.0
 40
1.0
 10
168.3850852272728
 20
294.0090909090908
 30
0.0
 10
168.3549769505231
 20
294.009892469611
 30
0.0
 10
168.2958994802201
 20
294.0114652652983
 30
0.0
 10
168.2091065769261
 20
294.0243839672515
 30
0.0
 10
168.1266978962503
 20
294.0467360333128
 30
0.0
 10
168.0476869196237
 20
294.0762620790608
 30
0.0
 10
167.9734478837326
 20
294.116065758842
 30
0.0
 10
167.9028076925857
 20
294.1636868336852
 30
0.0
 10
167.8365410681895
 20
294.2203098485319
 30
0.0
 10
167.7745289882426
 20
294.2849642901722
 30
0.0
 10
167.7186363787317
 20
294.3581219729039
 30
0.0
 10
167.669362147772
 20
294.4386944262035
 30
0.0
 10
167.6281028986114
 20
294.52662154137
 30
0.0
 10
167.5947685970874
 20
294.6218953194885
 30
0.0
 10
167.5687255513676
 20
294.7243622709506
 30
0.0
 10
167.5496031204699
 20
294.8340225346788
 30
0.0
 10
167.5380900905624
 20
294.9510782150038
 30
0.0
 10
167.5369506244714
 20
295.0315545394478
 30
0.0
 10
167.5363636363637
 20
295.0730113636363
 30
0.0
  0
SPLINE
  5
171
330
1F
100
AcDbEntity
  8
0
  6
Continuous
 62
     7
370
    25
100
AcDbSpline
210
0.0
220
0.0
230
1.0
 70
     8
 71
     3
 72
    23
 73
    19
 74
     0
 42
0.000000001
 43
0.00000001
 40
0.0
 40
0.0
 40
0.0
 40
0.0
 40
0.0753614946399934
 40
0.1481167448249837
 40
0.218523642980799
 40
0.2866370119183048
 40
0.3534497018101053
 40
0.4184500389317403
 40
0.4829584831181589
 40
0.546672806414845
 40
0.6085388288378337
 40
0.6672965788844327
 40
0.7232388053819302
 40
0.7779178132543884
 40
0.8319683982367007
 40
0.8865062890455158
 40
0.9422129217808194
 40
1.0
 40
1.0
 40
1.0
 40
1.0
 10
169.5363636363637
 20
295.6312499999999
 30
0.0
 10
169.5354645808273
 20
295.5755779172119
 30
0.0
 10
169.5336975620054
 20
295.4661590724878
 30
0.0
 10
169.5181285043641
 20
295.3053713511436
 30
0.0
 10
169.4945965686205
 20
295.1510125436146
 30
0.0
 10
169.4601846380301
 20
295.0031701631023
 30
0.0
 10
169.4166314844644
 20
294.861925448755
 30
0.0
 10
169.3620832852151
 20
294.7273932393426
 30
0.0
 10
169.2982126688031
 20
294.5996321293629
 30
0.0
 10
169.2257527103354
 20
294.4791736379691
 30
0.0
 10
169.1446801292944
 20
294.3695386637652
 30
0.0
 10
169.056810064937
 20
294.2727958106411
 30
0.0
 10
168.9612634374697
 20
294.1914832908396
 30
0.0
 10
168.8590473356873
 20
294.1250202207239
 30
0.0
 10
168.7501569664303
 20
294.0723174713609
 30
0.0
 10
168.634168236776
 20
294.0355712701554
 30
0.0
 10
168.5116905618603
 20
294.0127968808349
 30
0.0
 10
168.4277996052721
 20
294.0103412377475
 30
0.0
 10
168.3850852272728
 20
294.0090909090908
 30
0.0
  0
SPLINE
  5
172
330
1F
100
AcDbEntity
  8
0
  6
Continuous
 62
     7
370
    25
100
AcDbSpline
210
0.0
220
0.0
230
1.0
 70
     8
 71
     3
 72
    23
 73
    19
 74
     0
 42
0.000000001
 43
0.00000001
 40
0.0
 40
0.0
 40
0.0
 40
0.0
 40
0.0616654615849808
 40
0.1205692146008594
 40
0.1782617024584796
 40
0.2353851224625552
 40
0.2917547900932257
 40
0.3482696560285712
 40
0.4065140894219285
 40
0.4664906247742511
 40
0.5274695608460466
 40
0.5888521895165288
 40
0.6509421969372594
 40
0.715444359257617
 40
0.7817725446502836
 40
0.8507296521552313
 40
0.9236741286389617
 40
1.0
 40
1.0
 40
1.0
 40
1.0
 10
168.6705965909091
 20
296.6454545454544
 30
0.0
 10
168.7014203389248
 20
296.6446831582278
 30
0.0
 10
168.7616873829683
 20
296.6431749306126
 30
0.0
 10
168.8499913710523
 20
296.6299392174065
 30
0.0
 10
168.9342514905842
 20
296.6086332264725
 30
0.0
 10
169.0147043068176
 20
296.5790096665634
 30
0.0
 10
169.0903938278128
 20
296.540090589922
 30
0.0
 10
169.1623359022143
 20
296.4935989816675
 30
0.0
 10
169.2297960438781
 20
296.4378828811702
 30
0.0
 10
169.2927201893892
 20
296.3740162534341
 30
0.0
 10
169.3504129506279
 20
296.3032923953992
 30
0.0
 10
169.400145829653
 20
296.2254714671818
 30
0.0
 10
169.4423552574258
 20
296.1414214224251
 30
0.0
 10
169.4772455862437
 20
296.0513808131441
 30
0.0
 10
169.5031296122185
 20
295.9548147870805
 30
0.0
 10
169.522253784385
 20
295.8524931649654
 30
0.0
 10
169.5348138384086
 20
295.7440139819219
 30
0.0
 10
169.5358392938912
 20
295.6694013892769
 30
0.0
 10
169.5363636363637
 20
295.6312499999999
 30
0.0
  0
SPLINE
  5
173
330
1F
100
AcDbEntity
  8
0
  6
Continuous
 62
     7
370
    25
100
AcDbSpline
210
0.0
220
0.0
230
1.0
 70
     8
 71
     3
 72
    11
 73
     7
 74
     0
 42
0.000000001
 43
0.00000001
 40
0.0
 40
0.0
 40
0.0
 40
0.0
 40
0.2248248322031399
 40
0.4657331686667334
 40
0.7235704030057377
 40
0.9999999999999999
 40
0.9999999999999999
 40
0.9999999999999999
 40
0.9999999999999999
 10
180.3019886363637
 20
296.5161931818181
 30
0.0
 10
180.3427137683025
 20
296.5293826437417
 30
0.0
 10
180.4270774240267
 20
296.5567051144606
 30
0.0
 10
180.562772500586
 20
296.5815757825964
 30
0.0
 10
180.709500281847
 20
296.5976250834609
 30
0.0
 10
180.811172971286
 20
296.599190205854
 30
0.0
 10
180.8637784090909
 20
296.5999999999999
 30
0.0
  0
SPLINE
  5
174
330
1F
100
AcDbEntity
  8
0
  6
Continuous
 62
     7
370
    25
100
AcDbSpline
210
0.0
220
0.0
230
1.0
 70
     8
 71
     3
 72
    27
 73
    23
 74
     0
 42
0.000000001
 43
0.00000001
 40
0.0
 40
0.0
 40
0.0
 40
0.0
 40
0.0524522171021214
 40
0.1038152251651953
 40
0.1538474331226031
 40
0.2032510131134601
 40
0.2515402589622395
 40
0.2991142589917128
 40
0.3460004955355036
 40
0.3924805224706834
 40
0.4821221933891164
 40
0.5664026012726161
 40
0.6461463133959244
 40
0.7220037208448022
 40
0.7584976817432604
 40
0.7943252020270004
 40
0.8294199048812875
 40
0.8641461921101806
 40
0.8981688532014023
 40
0.9319844516704919
 40
0.966048374247162
 40
1.0
 40
1.0
 40
1.0
 40
1.0
 10
179.2181818181818
 20
294.5325284090908
 30
0.0
 10
179.2184509660625
 20
294.5744467834285
 30
0.0
 10
179.2189836727693
 20
294.6574130660921
 30
0.0
 10
179.2274548853538
 20
294.7801030855071
 30
0.0
 10
179.2392173921057
 20
294.9000349090659
 30
0.0
 10
179.2562117787207
 20
295.0168841175563
 30
0.0
 10
179.2781816884438
 20
295.1309056260882
 30
0.0
 10
179.3054721256854
 20
295.2416776058909
 30
0.0
 10
179.336218918537
 20
295.3500700899563
 30
0.0
 10
179.3854115881269
 20
295.4878424460054
 30
0.0
 10
179.4532951496062
 20
295.6504915919211
 30
0.0
 10
179.5455998449013
 20
295.8312042805249
 30
0.0
 10
179.6473310802917
 20
295.9938894932666
 30
0.0
 10
179.7402713913964
 20
296.1164634708265
 30
0.0
 10
179.8203526656953
 20
296.2037288933729
 30
0.0
 10
179.8810404623259
 20
296.2644907105192
 30
0.0
 10
179.945340038913
 20
296.3193332762515
 30
0.0
 10
180.0120762537103
 20
296.3686794374848
 30
0.0
 10
180.0803158039607
 20
296.4142141645017
 30
0.0
 10
180.1520226652268
 20
296.4529102931638
 30
0.0
 10
180.2253887693872
 20
296.4882954767909
 30
0.0
 10
180.2764834672766
 20
296.5069041880907
 30
0.0
 10
180.3019886363637
 20
296.5161931818181
 30
0.0
  0
SPLINE
  5
175
330
1F
100
AcDbEntity
  8
0
  6
Continuous
 62
     7
370
    25
100
AcDbSpline
210
0.0
220
0.0
230
1.0
 70
     8
 71
     3
 72
    19
 73
    15
 74
     0
 42
0.000000001
 43
0.00000001
 40
0.0
 40
0.0
 40
0.0
 40
0.0
 40
0.06839902430106
 40
0.1366600999988565
 40
0.2059933883539466
 40
0.2775885035156982
 40
0.3518830425212577
 40
0.4292788789734211
 40
0.5112997402475039
 40
0.5985757450851471
 40
0.6912951594049545
 40
0.7885288960444988
 40
0.8914047837864049
 40
0.9999999999999999
 40
0.9999999999999999
 40
0.9999999999999999
 40
0.9999999999999999
 10
179.9894886363636
 20
293.1454545454544
 30
0.0
 10
179.95239019003
 20
293.1574569290692
 30
0.0
 10
179.8782681182963
 20
293.1814374896367
 30
0.0
 10
179.7738223685403
 20
293.2359690536067
 30
0.0
 10
179.6760595932803
 20
293.3043119717267
 30
0.0
 10
179.583632031905
 20
293.3852429741677
 30
0.0
 10
179.5004423764742
 20
293.4818757417483
 30
0.0
 10
179.426826404669
 20
293.5930959655756
 30
0.0
 10
179.3639363542097
 20
293.7189797278007
 30
0.0
 10
179.3106798528689
 20
293.8585473005893
 30
0.0
 10
179.2692429823963
 20
294.0110940419402
 30
0.0
 10
179.2399765431215
 20
294.1753362007221
 30
0.0
 10
179.2208133799889
 20
294.3502571228166
 30
0.0
 10
179.2190746800839
 20
294.4706856330936
 30
0.0
 10
179.2181818181818
 20
294.5325284090908
 30
0.0
  0
SPLINE
  5
176
330
1F
100
AcDbEntity
  8
0
  6
Continuous
 62
     7
370
    25
100
AcDbSpline
210
0.0
220
0.0
230
1.0
 70
     8
 71
     3
 72
    11
 73
     7
 74
     0
 42
0.000000001
 43
0.00000001
 40
0.0
 40
0.0
 40
0.0
 40
0.0
 40
0.3060295612379224
 40
0.5748099443670448
 40
0.8056598864434013
 40
1.0
 40
1.0
 40
1.0
 40
1.0
 10
180.4362215909091
 20
293.0999999999999
 30
0.0
 10
180.390272619041
 20
293.1004508054172
 30
0.0
 10
180.3039674730399
 20
293.1012975453066
 30
0.0
 10
180.1833118951585
 20
293.1098446534388
 30
0.0
 10
180.0797065475764
 20
293.1225659017716
 30
0.0
 10
180.0177890484854
 20
293.1382746180938
 30
0.0
 10
179.9894886363636
 20
293.1454545454544
 30
0.0
  0
LINE
  5
177
330
1F
100
AcDbEntity
  8
0
  6
Continuous
 62
     7
370
    25
100
AcDbLine
 10
181.3083806818
 20
293.1
 30
0.0
 11
180.4362215909
 21
293.1
 31
0.0
  0
LINE
  5
178
330
1F
100
AcDbEntity
  8
0
  6
Continuous
 62
     7
370
    25
100
AcDbLine
 10
181.9
 20
296.6
 30
0.0
 11
181.3083806818
 21
293.1
 31
0.0
  0
LINE
  5
179
330
1F
100
AcDbEntity
  8
0
  6
Continuous
 62
     7
370
    25
100
AcDbLine
 10
180.8637784091
 20
296.6
 30
0.0
 11
181.9
 21
296.6
 31
0.0
  0
SPLINE
  5
17A
330
1F
100
AcDbEntity
  8
0
  6
Continuous
 62
     7
370
    25
100
AcDbSpline
210
0.0
220
0.0
230
1.0
 70
     8
 71
     3
 72
    23
 73
    19
 74
     0
 42
0.000000001
 43
0.00000001
 40
0.0
 40
0.0
 40
0.0
 40
0.0
 40
0.0710793448130197
 40
0.1389696679515754
 40
0.203111778329532
 40
0.2648853419759195
 40
0.3251480906719817
 40
0.3834706656666721
 40
0.4411629511826033
 40
0.4990923988995066
 40
0.5566033329710183
 40
0.6147644859063284
 40
0.6733350482991889
 40
0.7328543357475592
 40
0.7952630008979976
 40
0.860008919923905
 40
0.9278992430624574
 40
1.0
 40
1.0
 40
1.0
 40
1.0
 10
174.3495738636364
 20
296.6454545454544
 30
0.0
 10
174.3825082550005
 20
296.6447925824559
 30
0.0
 10
174.4468994145433
 20
296.6434983558651
 30
0.0
 10
174.5405548252886
 20
296.6328619447065
 30
0.0
 10
174.6285997556499
 20
296.6148534164352
 30
0.0
 10
174.7116275957392
 20
296.5910635520135
 30
0.0
 10
174.7891093768675
 20
296.5592274783572
 30
0.0
 10
174.8605879544439
 20
296.5194854257743
 30
0.0
 10
174.9274643532959
 20
296.4742212814709
 30
0.0
 10
174.9874445023867
 20
296.4206661004245
 30
0.0
 10
175.0419629586679
 20
296.3613859276286
 30
0.0
 10
175.0897739321201
 20
296.2960700723636
 30
0.0
 10
175.1293086141039
 20
296.2244603153298
 30
0.0
 10
175.1628814867243
 20
296.1476701581817
 30
0.0
 10
175.186740592189
 20
296.0643724819604
 30
0.0
 10
175.2057445465224
 20
295.9759605817076
 30
0.0
 10
175.216229266484
 20
295.8815020220705
 30
0.0
 10
175.2175180469714
 20
295.8166433377819
 30
0.0
 10
175.2181818181818
 20
295.7832386363635
 30
0.0
  0
SPLINE
  5
17B
330
1F
100
AcDbEntity
  8
0
  6
Continuous
 62
     7
370
    25
100
AcDbSpline
210
0.0
220
0.0
230
1.0
 70
     8
 71
     3
 72
    23
 73
    19
 74
     0
 42
0.000000001
 43
0.00000001
 40
0.0
 40
0.0
 40
0.0
 40
0.0
 40
0.058852162330221
 40
0.1160184704123139
 40
0.1720998041470446
 40
0.2277322106394028
 40
0.2840672758195408
 40
0.3412198746258962
 40
0.3998024571630721
 40
0.4603841198017514
 40
0.5223242329120862
 40
0.5844361635871893
 40
0.6470431981057345
 40
0.7123338100914474
 40
0.7793163777801734
 40
0.8489286852874395
 40
0.9226882961675745
 40
1.0
 40
1.0
 40
1.0
 40
1.0
 10
173.4909090909091
 20
295.9082386363635
 30
0.0
 10
173.491568176642
 20
295.9331361822262
 30
0.0
 10
173.4928674682157
 20
295.9822180693418
 30
0.0
 10
173.5038678805614
 20
296.0543405911757
 30
0.0
 10
173.5215471783244
 20
296.1236517682141
 30
0.0
 10
173.5467508557266
 20
296.1902430301844
 30
0.0
 10
173.5787339886427
 20
296.2543467400324
 30
0.0
 10
173.6180934570282
 20
296.3157059410035
 30
0.0
 10
173.6645693070094
 20
296.3741602826075
 30
0.0
 10
173.7177931377063
 20
296.4293581858483
 30
0.0
 10
173.7769106266256
 20
296.4805827794723
 30
0.0
 10
173.8426233139943
 20
296.5246816649941
 30
0.0
 10
173.9140169126223
 20
296.5617755799015
 30
0.0
 10
173.9903292769523
 20
296.5933061591576
 30
0.0
 10
174.0727182699983
 20
296.6162282450662
 30
0.0
 10
174.160035891636
 20
296.6336123669813
 30
0.0
 10
174.2530016139897
 20
296.6433007446954
 30
0.0
 10
174.3168824437108
 20
296.644725445684
 30
0.0
 10
174.3495738636364
 20
296.6454545454544
 30
0.0
  0
SPLINE
  5
17C
330
1F
100
AcDbEntity
  8
0
  6
Continuous
 62
     7
370
    25
100
AcDbSpline
210
0.0
220
0.0
230
1.0
 70
     8
 71
     3
 72
    15
 73
    11
 74
     0
 42
0.000000001
 43
0.00000001
 40
0.0
 40
0.0
 40
0.0
 40
0.0
 40
0.1272562319668493
 40
0.2516804312228808
 40
0.3738979488418199
 40
0.4947208349720988
 40
0.6170808988273496
 40
0.7413181579012902
 40
0.8690605083175109
 40
1.0
 40
1.0
 40
1.0
 40
1.0
 10
173.6741477272728
 20
295.4458806818181
 30
0.0
 10
173.6596872233469
 20
295.4619976908791
 30
0.0
 10
173.6310880277908
 20
295.4938730318963
 30
0.0
 10
173.5930629500274
 20
295.5450313699877
 30
0.0
 10
173.5618596808702
 20
295.5993455726523
 30
0.0
 10
173.536187238139
 20
295.6560199384962
 30
0.0
 10
173.5151385904636
 20
295.7150055686902
 30
0.0
 10
173.5012842635676
 20
295.7772761259774
 30
0.0
 10
173.4924806336509
 20
295.841933603526
 30
0.0
 10
173.4914372370601
 20
295.8859555975692
 30
0.0
 10
173.4909090909091
 20
295.9082386363635
 30
0.0
  0
SPLINE
  5
17D
330
1F
100
AcDbEntity
  8
0
  6
Continuous
 62
     7
370
    25
100
AcDbSpline
210
0.0
220
0.0
230
1.0
 70
     8
 71
     3
 72
    15
 73
    11
 74
     0
 42
0.000000001
 43
0.00000001
 40
0.0
 40
0.0
 40
0.0
 40
0.0
 40
0.1751042941891373
 40
0.336641097137676
 40
0.4835451996908676
 40
0.6154622123321241
 40
0.7325072955940695
 40
0.835765982591481
 40
0.9245279673430019
 40
1.0
 40
1.0
 40
1.0
 40
1.0
 10
174.2004261363636
 20
295.109943181818
 30
0.0
 10
174.1681336892351
 20
295.127051654102
 30
0.0
 10
174.1060508894902
 20
295.1599429941271
 30
0.0
 10
174.0183969374372
 20
295.2099544212879
 30
0.0
 10
173.9386894872136
 20
295.2556961529746
 30
0.0
 10
173.8682876414174
 20
295.2989518390534
 30
0.0
 10
173.8069897548337
 20
295.3395419816972
 30
0.0
 10
173.7543904665605
 20
295.3768812464834
 30
0.0
 10
173.7105497137325
 20
295.4115424166274
 30
0.0
 10
173.6856089812132
 20
295.4350691955366
 30
0.0
 10
173.6741477272728
 20
295.4458806818181
 30
0.0
  0
SPLINE
  5
17E
330
1F
100
AcDbEntity
  8
0
  6
Continuous
 62
     7
370
    25
100
AcDbSpline
210
0.0
220
0.0
230
1.0
 70
     8
 71
     3
 72
    15
 73
    11
 74
     0
 42
0.000000001
 43
0.00000001
 40
0.0
 40
0.0
 40
0.0
 40
0.0
 40
0.068489530256882
 40
0.1509491867215957
 40
0.248595201438235
 40
0.3639657509556166
 40
0.4964639046939432
 40
0.6449737887028733
 40
0.8138957703902583
 40
1.0
 40
1.0
 40
1.0
 40
1.0
 10
174.5001420454546
 20
294.8833806818181
 30
0.0
 10
174.4960810326047
 20
294.8910769887345
 30
0.0
 10
174.4871306633345
 20
294.9080394538797
 30
0.0
 10
174.4675822243674
 20
294.9330815137238
 30
0.0
 10
174.4396936773455
 20
294.9582612048094
 30
0.0
 10
174.4057435279692
 20
294.9860324780107
 30
0.0
 10
174.3644023916288
 20
295.0147706453315
 30
0.0
 10
174.3163000947079
 20
295.0455369621981
 30
0.0
 10
174.2613180496304
 20
295.0781633582749
 30
0.0
 10
174.2213679310795
 20
295.0990135442842
 30
0.0
 10
174.2004261363636
 20
295.109943181818
 30
0.0
  0
SPLINE
  5
17F
330
1F
100
AcDbEntity
  8
0
  6
Continuous
 62
     7
370
    25
100
AcDbSpline
210
0.0
220
0.0
230
1.0
 70
     8
 71
     3
 72
    11
 73
     7
 74
     0
 42
0.000000001
 43
0.00000001
 40
0.0
 40
0.0
 40
0.0
 40
0.0
 40
0.2769740499280725
 40
0.532375006548156
 40
0.7747519076052273
 40
1.0
 40
1.0
 40
1.0
 40
1.0
 10
174.5363636363637
 20
294.6774147727272
 30
0.0
 10
174.5360772244933
 20
294.6968590454734
 30
0.0
 10
174.5355267089435
 20
294.7342331057268
 30
0.0
 10
174.5278895876804
 20
294.7881162603655
 30
0.0
 10
174.5172834381779
 20
294.8378412686841
 30
0.0
 10
174.505714589822
 20
294.8685761438057
 30
0.0
 10
174.5001420454546
 20
294.8833806818181
 30
0.0
  0
SPLINE
  5
180
330
1F
100
AcDbEntity
  8
0
  6
Continuous
 62
     7
370
    25
100
AcDbSpline
210
0.0
220
0.0
230
1.0
 70
     8
 71
     3
 72
    15
 73
    11
 74
     0
 42
0.000000001
 43
0.00000001
 40
0.0
 40
0.0
 40
0.0
 40
0.0
 40
0.1408251251502952
 40
0.2722704465591965
 40
0.3983991200086373
 40
0.525336799063821
 40
0.6502269619441295
 40
0.7687625601639593
 40
0.882485919438784
 40
1.0
 40
1.0
 40
1.0
 40
1.0
 10
174.1542613636364
 20
294.3272727272726
 30
0.0
 10
174.1813807772754
 20
294.3283506324714
 30
0.0
 10
174.233813287838
 20
294.3304346478734
 30
0.0
 10
174.3083891282144
 20
294.350758999675
 30
0.0
 10
174.3746121973584
 20
294.384825227445
 30
0.0
 10
174.4309191483409
 20
294.4314073188256
 30
0.0
 10
174.4780223348804
 20
294.4853709114248
 30
0.0
 10
174.5115949582436
 20
294.545699141285
 30
0.0
 10
174.5331298561677
 20
294.6101652825582
 30
0.0
 10
174.5352739932102
 20
294.6547546220376
 30
0.0
 10
174.5363636363637
 20
294.6774147727272
 30
0.0
  0
SPLINE
  5
181
330
1F
100
AcDbEntity
  8
0
  6
Continuous
 62
     7
370
    25
100
AcDbSpline
210
0.0
220
0.0
230
1.0
 70
     8
 71
     3
 72
    15
 73
    11
 74
     0
 42
0.000000001
 43
0.00000001
 40
0.0
 40
0.0
 40
0.0
 40
0.0
 40
0.1450584102998438
 40
0.2765042470335488
 40
0.3983062803534597
 40
0.5152629788256099
 40
0.6300974426092953
 40
0.745793306508971
 40
0.8680005598004559
 40
1.0
 40
1.0
 40
1.0
 40
1.0
 10
173.6727272727273
 20
294.8272727272726
 30
0.0
 10
173.6752611135608
 20
294.7894527429395
 30
0.0
 10
173.6800910144974
 20
294.7173618778235
 30
0.0
 10
173.7067393976346
 20
294.6163084804995
 30
0.0
 10
173.7477032147992
 20
294.5280984698168
 30
0.0
 10
173.8057394402902
 20
294.4554172101704
 30
0.0
 10
173.8762746598408
 20
294.3973181257536
 30
0.0
 10
173.9594880086026
 20
294.3566184374058
 30
0.0
 10
174.0533049095739
 20
294.3308569025683
 30
0.0
 10
174.1197559680502
 20
294.3284977444107
 30
0.0
 10
174.1542613636364
 20
294.3272727272726
 30
0.0
  0
LINE
  5
182
330
1F
100
AcDbEntity
  8
0
  6
Continuous
 62
     7
370
    25
100
AcDbLine
 10
173.3090909091
 20
294.7818181818
 30
0.0
 11
173.6727272727
 21
294.8272727273
 31
0.0
  0
SPLINE
  5
183
330
1F
100
AcDbEntity
  8
0
  6
Continuous
 62
     7
370
    25
100
AcDbSpline
210
0.0
220
0.0
230
1.0
 70
     8
 71
     3
 72
    23
 73
    19
 74
     0
 42
0.000000001
 43
0.00000001
 40
0.0
 40
0.0
 40
0.0
 40
0.0
 40
0.0722496157943982
 40
0.1410177031229171
 40
0.2060590598673139
 40
0.2691643413366461
 40
0.330026828660746
 40
0.3894059563906476
 40
0.4479529554362032
 40
0.5063469039677879
 40
0.5644866421929455
 40
0.6223710537099799
 40
0.6801994622357587
 40
0.7395993737001887
 40
0.800735037886667
 40
0.8641938531108233
 40
0.9304200142882305
 40
1.0
 40
1.0
 40
1.0
 40
1.0
 10
174.1372159090909
 20
294.0090909090908
 30
0.0
 10
174.1064047638806
 20
294.0094673384411
 30
0.0
 10
174.0462671855646
 20
294.0102020579518
 30
0.0
 10
173.9589707744138
 20
294.0208036538555
 30
0.0
 10
173.8763086293616
 20
294.0358357321778
 30
0.0
 10
173.7990055993644
 20
294.0589468191441
 30
0.0
 10
173.7260113563806
 20
294.0871086011181
 30
0.0
 10
173.65816031537
 20
294.1221144211237
 30
0.0
 10
173.5952456097148
 20
294.1634785407849
 30
0.0
 10
173.5377410976871
 20
294.2112192274626
 30
0.0
 10
173.4854417314214
 20
294.2643071080144
 30
0.0
 10
173.4409654336318
 20
294.3237758221821
 30
0.0
 10
173.4019257995007
 20
294.3875268832379
 30
0.0
 10
173.3701332456172
 20
294.4567588349337
 30
0.0
 10
173.3445547111507
 20
294.530998397485
 30
0.0
 10
173.3253110670965
 20
294.6101340270376
 30
0.0
 10
173.3132785403964
 20
294.6943539357269
 30
0.0
 10
173.3105095799754
 20
294.7521873546719
 30
0.0
 10
173.3090909090909
 20
294.7818181818181
 30
0.0
  0
SPLINE
  5
184
330
1F
100
AcDbEntity
  8
0
  6
Continuous
 62
     7
370
    25
100
AcDbSpline
210
0.0
220
0.0
230
1.0
 70
     8
 71
     3
 72
    23
 73
    19
 74
     0
 42
0.000000001
 43
0.00000001
 40
0.0
 40
0.0
 40
0.0
 40
0.0
 40
0.0655747665767033
 40
0.1285621902141084
 40
0.189781682367955
 40
0.2494566609341837
 40
0.3085996986050904
 40
0.3673475360838253
 40
0.4278071718735577
 40
0.4886122941086499
 40
0.5499526075395524
 40
0.6111514478316471
 40
0.6716827253596929
 40
0.7330760071689797
 40
0.7967477868676152
 40
0.8618083203469528
 40
0.9290446411000328
 40
1.0
 40
1.0
 40
1.0
 40
1.0
 10
174.9
 20
294.7335227272726
 30
0.0
 10
174.8991871793633
 20
294.707701519228
 30
0.0
 10
174.8975936090501
 20
294.6570779145474
 30
0.0
 10
174.888927819733
 20
294.5826252529798
 30
0.0
 10
174.8711411166584
 20
294.5122868900993
 30
0.0
 10
174.8489567841002
 20
294.4447881079019
 30
0.0
 10
174.8184978926882
 20
294.3816627816647
 30
0.0
 10
174.7829966247892
 20
294.3208909721774
 30
0.0
 10
174.7394852129872
 20
294.2646940232509
 30
0.0
 10
174.690559594463
 20
294.2118135832371
 30
0.0
 10
174.6358012380875
 20
294.1645191538991
 30
0.0
 10
174.5771076404815
 20
294.1224123507602
 30
0.0
 10
174.5138899752764
 20
294.0873088129184
 30
0.0
 10
174.4464144936585
 20
294.0589095517765
 30
0.0
 10
174.3749716287643
 20
294.035930765677
 30
0.0
 10
174.2991462900378
 20
294.0209662268704
 30
0.0
 10
174.2196756161713
 20
294.0101630839301
 30
0.0
 10
174.1651912423835
 20
294.0094546558168
 30
0.0
 10
174.1372159090909
 20
294.0090909090908
 30
0.0
  0
SPLINE
  5
185
330
1F
100
AcDbEntity
  8
0
  6
Continuous
 62
     7
370
    25
100
AcDbSpline
210
0.0
220
0.0
230
1.0
 70
     8
 71
     3
 72
    23
 73
    19
 74
     0
 42
0.000000001
 43
0.00000001
 40
0.0
 40
0.0
 40
0.0
 40
0.0
 40
0.08188141377706
 40
0.1573351785435873
 40
0.2254411081666432
 40
0.2871576233194377
 40
0.3421523217630223
 40
0.3902440800104294
 40
0.4320813267652572
 40
0.4673281748426355
 40
0.5305865620795177
 40
0.5936688200565845
 40
0.65779321534984
 40
0.7230302273948167
 40
0.7892290163085306
 40
0.856822063877748
 40
0.9269825182991669
 40
1.0
 40
1.0
 40
1.0
 40
1.0
 10
174.2792613636364
 20
295.4742897727272
 30
0.0
 10
174.3041649528809
 20
295.4611163985614
 30
0.0
 10
174.3520172123794
 20
295.4358037533496
 30
0.0
 10
174.4198590786953
 20
295.3981976034355
 30
0.0
 10
174.4813572925524
 20
295.3634536135195
 30
0.0
 10
174.5358215532139
 20
295.3306293306364
 30
0.0
 10
174.5842952081372
 20
295.3011975513082
 30
0.0
 10
174.6257064386733
 20
295.2733850030773
 30
0.0
 10
174.660399620188
 20
295.2478549778149
 30
0.0
 10
174.6983548814656
 20
295.2179706727618
 30
0.0
 10
174.7382597960665
 20
295.1790031110619
 30
0.0
 10
174.7796114589291
 20
295.1280465557625
 30
0.0
 10
174.816261734449
 20
295.0727065512993
 30
0.0
 10
174.8456483411426
 20
295.0120076725978
 30
0.0
 10
174.8700146675292
 20
294.9479310079827
 30
0.0
 10
174.8881719019493
 20
294.8799745858496
 30
0.0
 10
174.8978000344015
 20
294.8079015704827
 30
0.0
 10
174.899256987269
 20
294.7586433143679
 30
0.0
 10
174.9
 20
294.7335227272726
 30
0.0
  0
SPLINE
  5
186
330
1F
100
AcDbEntity
  8
0
  6
Continuous
 62
     7
370
    25
100
AcDbSpline
210
0.0
220
0.0
230
1.0
 70
     8
 71
     3
 72
    15
 73
    11
 74
     0
 42
0.000000001
 43
0.00000001
 40
0.0
 40
0.0
 40
0.0
 40
0.0
 40
0.0802826659629706
 40
0.1711029575925202
 40
0.2765324386878241
 40
0.393563529492824
 40
0.5243923414753581
 40
0.6687491845825904
 40
0.8277322108393497
 40
1.0
 40
1.0
 40
1.0
 40
1.0
 10
173.9305397727273
 20
295.7150568181817
 30
0.0
 10
173.9379384311021
 20
295.706363388932
 30
0.0
 10
173.9537068702161
 20
295.6878354609116
 30
0.0
 10
173.9830917368612
 20
295.6616504854895
 30
0.0
 10
174.0174012399114
 20
295.6333005703387
 30
0.0
 10
174.0585430587561
 20
295.6045168442841
 30
0.0
 10
174.1043881940741
 20
295.5728513421077
 30
0.0
 10
174.1573571488012
 20
295.5412073317682
 30
0.0
 10
174.2161368464441
 20
295.5079155385129
 30
0.0
 10
174.2576647018255
 20
295.485794087122
 30
0.0
 10
174.2792613636364
 20
295.4742897727272
 30
0.0
  0
SPLINE
  5
187
330
1F
100
AcDbEntity
  8
0
  6
Continuous
 62
     7
370
    25
100
AcDbSpline
210
0.0
220
0.0
230
1.0
 70
     8
 71
     3
 72
    11
 73
     7
 74
     0
 42
0.000000001
 43
0.00000001
 40
0.0
 40
0.0
 40
0.0
 40
0.0
 40
0.2511722015286921
 40
0.4968941709300532
 40
0.7437877536505091
 40
1.0
 40
1.0
 40
1.0
 40
1.0
 10
173.8545454545454
 20
295.9366477272726
 30
0.0
 10
173.8555129009256
 20
295.9166665743042
 30
0.0
 10
173.8574268008877
 20
295.8771378431069
 30
0.0
 10
173.8724139138122
 20
295.8196342359796
 30
0.0
 10
173.8956359997351
 20
295.7644635826048
 30
0.0
 10
173.9187623972454
 20
295.7317278530319
 30
0.0
 10
173.9305397727273
 20
295.7150568181817
 30
0.0
  0
SPLINE
  5
188
330
1F
100
AcDbEntity
  8
0
  6
Continuous
 62
     7
370
    25
100
AcDbSpline
210
0.0
220
0.0
230
1.0
 70
     8
 71
     3
 72
    15
 73
    11
 74
     0
 42
0.000000001
 43
0.00000001
 40
0.0
 40
0.0
 40
0.0
 40
0.0
 40
0.1511226330693675
 40
0.2887389660723133
 40
0.4165538257356571
 40
0.5397415730312484
 40
0.6565289389082599
 40
0.7692831913413738
 40
0.881509055085998
 40
1.0
 40
1.0
 40
1.0
 40
1.0
 10
174.3325284090909
 20
296.3272727272726
 30
0.0
 10
174.2976100841264
 20
296.3260050256915
 30
0.0
 10
174.2308941935781
 20
296.323582920965
 30
0.0
 10
174.1364969630356
 20
296.3027137487177
 30
0.0
 10
174.0528388954498
 20
296.2688166077656
 30
0.0
 10
173.9825155004461
 20
296.2201789012476
 30
0.0
 10
173.9251392469479
 20
296.1615682344281
 30
0.0
 10
173.8839567182372
 20
296.0935676184853
 30
0.0
 10
173.8584487809954
 20
296.0174785408857
 30
0.0
 10
173.85586990635
 20
295.9640747227651
 30
0.0
 10
173.8545454545454
 20
295.9366477272726
 30
0.0
  0
SPLINE
  5
189
330
1F
100
AcDbEntity
  8
0
  6
Continuous
 62
     7
370
    25
100
AcDbSpline
210
0.0
220
0.0
230
1.0
 70
     8
 71
     3
 72
    23
 73
    19
 74
     0
 42
0.000000001
 43
0.00000001
 40
0.0
 40
0.0
 40
0.0
 40
0.0
 40
0.0826389746764203
 40
0.1602582429913979
 40
0.233163054839304
 40
0.3017426108260474
 40
0.365991923929294
 40
0.4277235313826884
 40
0.4862244481077647
 40
0.5429348833670169
 40
0.5986795944062567
 40
0.6536144118732411
 40
0.7080923284160734
 40
0.762680881526359
 40
0.8190253736075341
 40
0.8765806286752716
 40
0.9370425800248706
 40
1.0
 40
1.0
 40
1.0
 40
1.0
 10
174.8545454545454
 20
295.690909090909
 30
0.0
 10
174.8544631703736
 20
295.7167287854187
 30
0.0
 10
174.8543036001848
 20
295.7667998190068
 30
0.0
 10
174.8476500174679
 20
295.8394067597067
 30
0.0
 10
174.8371139504655
 20
295.9070455121797
 30
0.0
 10
174.8226949569802
 20
295.9697786017398
 30
0.0
 10
174.8023185050124
 20
296.0271245863242
 30
0.0
 10
174.7786262489903
 20
296.0797554065263
 30
0.0
 10
174.749869223769
 20
296.1270898970018
 30
0.0
 10
174.7171551239237
 20
296.1694834815469
 30
0.0
 10
174.6797433781598
 20
296.2061293488285
 30
0.0
 10
174.6402243925905
 20
296.2394464671997
 30
0.0
 10
174.59641276035
 20
296.2663209050544
 30
0.0
 10
174.5496739680438
 20
296.288442853492
 30
0.0
 10
174.5001075827334
 20
296.3065354708448
 30
0.0
 10
174.4468007637268
 20
296.3180662220843
 30
0.0
 10
174.3908004514418
 20
296.326523918081
 30
0.0
 10
174.3522124986039
 20
296.3270197821799
 30
0.0
 10
174.3325284090909
 20
296.3272727272726
 30
0.0
  0
LINE
  5
18A
330
1F
100
AcDbEntity
  8
0
  6
Continuous
 62
     7
370
    25
100
AcDbLine
 10
175.2181818182
 20
295.7363636364
 30
0.0
 11
174.8545454545
 21
295.6909090909
 31
0.0
  0
LINE
  5
18B
330
1F
100
AcDbEntity
  8
0
  6
Continuous
 62
     7
370
    25
100
AcDbLine
 10
175.2181818182
 20
295.7832386364
 30
0.0
 11
175.2181818182
 21
295.7363636364
 31
0.0
  0
SPLINE
  5
18C
330
1F
100
AcDbEntity
  8
0
  6
Continuous
 62
     7
370
    25
100
AcDbSpline
210
0.0
220
0.0
230
1.0
 70
     8
 71
     3
 72
    31
 73
    27
 74
     0
 42
0.000000001
 43
0.00000001
 40
0.0
 40
0.0
 40
0.0
 40
0.0
 40
0.0517952777530688
 40
0.1027059929816704
 40
0.1523631572913477
 40
0.2014101515657457
 40
0.2497463249649669
 40
0.2974554366623605
 40
0.3448452138587226
 40
0.392008953055648
 40
0.4383222843616497
 40
0.4829040335041052
 40
0.5259902873728431
 40
0.5675157157543348
 40
0.6078447330163521
 40
0.6469627677216186
 40
0.6854328466641008
 40
0.7231187995704224
 40
0.7601799669682293
 40
0.79602298339578
 40
0.8308293117986164
 40
0.8653586757878794
 40
0.8990131680465293
 40
0.9327972666946309
 40
0.9663824943586458
 40
1.0
 40
1.0
 40
1.0
 40
1.0
 10
187.9
 20
294.612784090909
 30
0.0
 10
187.9006754140451
 20
294.6613353289011
 30
0.0
 10
187.902014707378
 20
294.7576086442456
 30
0.0
 10
187.9128963121025
 20
294.9000957968825
 30
0.0
 10
187.9306564457718
 20
295.0392480877636
 30
0.0
 10
187.9553584949015
 20
295.1749175442495
 30
0.0
 10
187.9876054880641
 20
295.3070903347759
 30
0.0
 10
188.0255784177099
 20
295.4361307996488
 30
0.0
 10
188.0719648018739
 20
295.5612599824262
 30
0.0
 10
188.1253508631646
 20
295.6820697475195
 30
0.0
 10
188.182832427246
 20
295.7980769069158
 30
0.0
 10
188.2457006901254
 20
295.9068636080698
 30
0.0
 10
188.3114437127205
 20
296.0086315331129
 30
0.0
 10
188.3813680253062
 20
296.1026640832162
 30
0.0
 10
188.4543369885755
 20
296.1895547326501
 30
0.0
 10
188.5314563458371
 20
296.2688600411632
 30
0.0
 10
188.6122967326183
 20
296.3407067956476
 30
0.0
 10
188.6971232004955
 20
296.4046375072818
 30
0.0
 10
188.7840797552829
 20
296.4611885365155
 30
0.0
 10
188.8722927895262
 20
296.5104585687167
 30
0.0
 10
188.961785710846
 20
296.5520250662701
 30
0.0
 10
189.0522377061018
 20
296.5860058944175
 30
0.0
 10
189.1441420726747
 20
296.6125974678856
 30
0.0
 10
189.2369574650789
 20
296.6317244564325
 30
0.0
 10
189.3310369958072
 20
296.6435583784738
 30
0.0
 10
189.39404769831
 20
296.6448222874393
 30
0.0
 10
189.4255681818182
 20
296.6454545454544
 30
0.0
  0
SPLINE
  5
18D
330
1F
100
AcDbEntity
  8
0
  6
Continuous
 62
     7
370
    25
100
AcDbSpline
210
0.0
220
0.0
230
1.0
 70
     8
 71
     3
 72
    23
 73
    19
 74
     0
 42
0.000000001
 43
0.00000001
 40
0.0
 40
0.0
 40
0.0
 40
0.0
 40
0.0572634327750009
 40
0.1125680570640923
 40
0.1669845284142369
 40
0.2207415784534418
 40
0.2751039573987254
 40
0.3304580237118293
 40
0.3875842853978116
 40
0.4471512336609398
 40
0.5081971405965227
 40
0.5705729247016903
 40
0.6343933180777902
 40
0.7008523166253902
 40
0.770128303681998
 40
0.8428097211193443
 40
0.9193141925768288
 40
1.0
 40
1.0
 40
1.0
 40
1.0
 10
189.1088068181818
 20
293.0545454545453
 30
0.0
 10
189.066596262822
 20
293.0557419335798
 30
0.0
 10
188.9836190472729
 20
293.0580939637271
 30
0.0
 10
188.8617406045492
 20
293.0776486656513
 30
0.0
 10
188.7456783127965
 20
293.1106384955987
 30
0.0
 10
188.6342662946025
 20
293.1553877061515
 30
0.0
 10
188.5290264261605
 20
293.2145072915314
 30
0.0
 10
188.427916819981
 20
293.2848699226374
 30
0.0
 10
188.3334360775285
 20
293.3697874840491
 30
0.0
 10
188.2441119430764
 20
293.4657991092451
 30
0.0
 10
188.162946115128
 20
293.5738341739469
 30
0.0
 10
188.0928481885535
 20
293.6929555383531
 30
0.0
 10
188.0327432288695
 20
293.8217899163851
 30
0.0
 10
187.9838065981732
 20
293.960697870386
 30
0.0
 10
187.946469721103
 20
294.1098602278385
 30
0.0
 10
187.9197783995782
 20
294.2687291427205
 30
0.0
 10
187.903193636487
 20
294.4374809178424
 30
0.0
 10
187.9010832578532
 20
294.5533225524143
 30
0.0
 10
187.9
 20
294.612784090909
 30
0.0
  0
SPLINE
  5
18E
330
1F
100
AcDbEntity
  8
0
  6
Continuous
 62
     7
370
    25
100
AcDbSpline
210
0.0
220
0.0
230
1.0
 70
     8
 71
     3
 72
    15
 73
    11
 74
     0
 42
0.000000001
 43
0.00000001
 40
0.0
 40
0.0
 40
0.0
 40
0.0
 40
0.1366486092688848
 40
0.2673174602160044
 40
0.3924622863728368
 40
0.5145038537149257
 40
0.6343492826296394
 40
0.7539910928012371
 40
0.8757134371801416
 40
1.0
 40
1.0
 40
1.0
 40
1.0
 10
190.1478693181818
 20
293.5829545454544
 30
0.0
 10
190.1122665966664
 20
293.5409586235184
 30
0.0
 10
190.0426191326841
 20
293.4588045258556
 30
0.0
 10
189.9259445871765
 20
293.3517203518612
 30
0.0
 10
189.8046957465922
 20
293.2594774130395
 30
0.0
 10
189.6770063789362
 20
293.1843693341282
 30
0.0
 10
189.543103199084
 20
293.1264033294623
 30
0.0
 10
189.4034018837494
 20
293.0850430027026
 30
0.0
 10
189.2579419144177
 20
293.0594814724926
 30
0.0
 10
189.1588627600113
 20
293.0562021874907
 30
0.0
 10
189.1088068181818
 20
293.0545454545453
 30
0.0
  0
SPLINE
  5
18F
330
1F
100
AcDbEntity
  8
0
  6
Continuous
 62
     7
370
    25
100
AcDbSpline
210
0.0
220
0.0
230
1.0
 70
     8
 71
     3
 72
    15
 73
    11
 74
     0
 42
0.000000001
 43
0.00000001
 40
0.0
 40
0.0
 40
0.0
 40
0.0
 40
0.1409754907900348
 40
0.2756587093978882
 40
0.4052540319038679
 40
0.5296609519050449
 40
0.6505885197244335
 40
0.7685867380843178
 40
0.8846940504466452
 40
0.9999999999999999
 40
0.9999999999999999
 40
0.9999999999999999
 40
0.9999999999999999
 10
190.6272727272728
 20
295.1319602272726
 30
0.0
 10
190.6257126468267
 20
295.0542581528229
 30
0.0
 10
190.6226621182567
 20
294.9023221429512
 30
0.0
 10
190.6005710909917
 20
294.6798090934867
 30
0.0
 10
190.5632410164844
 20
294.4686544854424
 30
0.0
 10
190.5105523314005
 20
294.2686096515806
 30
0.0
 10
190.4432573974879
 20
294.0797078513357
 30
0.0
 10
190.3604333596965
 20
293.9021896942708
 30
0.0
 10
190.2636115958988
 20
293.7351936351874
 30
0.0
 10
190.1863609067474
 20
293.6335836199912
 30
0.0
 10
190.1478693181818
 20
293.5829545454544
 30
0.0
  0
SPLINE
  5
190
330
1F
100
AcDbEntity
  8
0
  6
Continuous
 62
     7
370
    25
100
AcDbSpline
210
0.0
220
0.0
230
1.0
 70
     8
 71
     3
 72
    31
 73
    27
 74
     0
 42
0.000000001
 43
0.00000001
 40
0.0
 40
0.0
 40
0.0
 40
0.0
 40
0.0378713464109286
 40
0.0752373637875362
 40
0.111710005335761
 40
0.1480293779298885
 40
0.183727577942137
 40
0.2198555742787955
 40
0.2560644308236263
 40
0.2926970928545353
 40
0.329694590012915
 40
0.3673249162395028
 40
0.4054911409512013
 40
0.4446574501178597
 40
0.4850732355790509
 40
0.5267893868923015
 40
0.569693424013283
 40
0.6144400279784297
 40
0.660120949823431
 40
0.7064610481271778
 40
0.7528957169671189
 40
0.8002348284767892
 40
0.8487179112267822
 40
0.8978269804014998
 40
0.9483118590111305
 40
1.0
 40
1.0
 40
1.0
 40
1.0
 10
189.4255681818182
 20
296.6454545454544
 30
0.0
 10
189.4528058583957
 20
296.6448246602495
 30
0.0
 10
189.5069177708467
 20
296.6435732945919
 30
0.0
 10
189.5870451906265
 20
296.6361408780627
 30
0.0
 10
189.6649758818169
 20
296.6213530907517
 30
0.0
 10
189.7407201985475
 20
296.6024202819252
 30
0.0
 10
189.8147785746001
 20
296.5782843483909
 30
0.0
 10
189.8861931868737
 20
296.5474291110771
 30
0.0
 10
189.9561463377157
 20
296.5119633153201
 30
0.0
 10
190.0237495446871
 20
296.470846433952
 30
0.0
 10
190.088224947064
 20
296.4233699799903
 30
0.0
 10
190.1513861441473
 20
296.3722467186807
 30
0.0
 10
190.2090786186133
 20
296.31286198819
 30
0.0
 10
190.266055403318
 20
296.2500980256209
 30
0.0
 10
190.3178013771641
 20
296.1797400045622
 30
0.0
 10
190.3689839724847
 20
296.1057139319809
 30
0.0
 10
190.4145909036434
 20
296.0244978602067
 30
0.0
 10
190.4587576120618
 20
295.9393421334227
 30
0.0
 10
190.4983816900468
 20
295.8492109309482
 30
0.0
 10
190.5330634251636
 20
295.7557963592142
 30
0.0
 10
190.5624857077356
 20
295.6593235724465
 30
0.0
 10
190.5857121069443
 20
295.5595982940247
 30
0.0
 10
190.6040069952541
 20
295.4569262831186
 30
0.0
 10
190.6177624148205
 20
295.3512546575683
 30
0.0
 10
190.6254726577452
 20
295.2426349150053
 30
0.0
 10
190.6266680116501
 20
295.1691402981988
 30
0.0
 10
190.6272727272728
 20
295.1319602272726
 30
0.0
  0
SPLINE
  5
191
330
1F
100
AcDbEntity
  8
0
  6
Continuous
 62
     7
370
    25
100
AcDbSpline
210
0.0
220
0.0
230
1.0
 70
     8
 71
     3
 72
    23
 73
    19
 74
     0
 42
0.000000001
 43
0.00000001
 40
0.0
 40
0.0
 40
0.0
 40
0.0
 40
0.0640634305032991
 40
0.1261069565219178
 40
0.1862559074707002
 40
0.2452488267937813
 40
0.3040053971388869
 40
0.3631423702007591
 40
0.4231851342172772
 40
0.4845391386303158
 40
0.5466026607212827
 40
0.6079292120606165
 40
0.669555636425024
 40
0.7315848755882635
 40
0.7951036667408262
 40
0.8609141306758215
 40
0.9288021642004831
 40
1.0
 40
1.0
 40
1.0
 40
1.0
 10
193.9454545454546
 20
295.6170454545453
 30
0.0
 10
193.9464254277168
 20
295.6530797345076
 30
0.0
 10
193.9483365805582
 20
295.7240121422915
 30
0.0
 10
193.9629427638102
 20
295.8279283220604
 30
0.0
 10
193.9860047326149
 20
295.927335195448
 30
0.0
 10
194.0198748435478
 20
296.021689163211
 30
0.0
 10
194.0627032609215
 20
296.1116177623915
 30
0.0
 10
194.1146047208774
 20
296.1973955030907
 30
0.0
 10
194.1769142801687
 20
296.27779210542
 30
0.0
 10
194.2478766461308
 20
296.3528706394739
 30
0.0
 10
194.3261157629557
 20
296.4214494222277
 30
0.0
 10
194.4111612618736
 20
296.4817696674885
 30
0.0
 10
194.5025434968036
 20
296.5317962037568
 30
0.0
 10
194.5988996442881
 20
296.5745567179397
 30
0.0
 10
194.7019728629497
 20
296.6063139697404
 30
0.0
 10
194.8107171938688
 20
296.6284717463345
 30
0.0
 10
194.9251473273911
 20
296.6435877992001
 30
0.0
 10
195.0034056155606
 20
296.6448225026948
 30
0.0
 10
195.0434659090909
 20
296.6454545454544
 30
0.0
  0
SPLINE
  5
192
330
1F
100
AcDbEntity
  8
0
  6
Continuous
 62
     7
370
    25
100
AcDbSpline
210
0.0
220
0.0
230
1.0
 70
     8
 71
     3
 72
    23
 73
    19
 74
     0
 42
0.000000001
 43
0.00000001
 40
0.0
 40
0.0
 40
0.0
 40
0.0
 40
0.0759971182937074
 40
0.145861505244197
 40
0.2093459961738562
 40
0.2665927078770803
 40
0.3183132692296928
 40
0.3636868813396826
 40
0.4037158194105159
 40
0.4377558664540008
 40
0.5011824643789086
 40
0.5653456709679936
 40
0.6311669200577752
 40
0.6996974428134068
 40
0.7706078368709512
 40
0.8439607273006238
 40
0.9202774201976764
 40
1.0
 40
1.0
 40
1.0
 40
1.0
 10
194.6365056818182
 20
294.6383522727272
 30
0.0
 10
194.6077783915499
 20
294.6535934302919
 30
0.0
 10
194.5526420140896
 20
294.6828458313564
 30
0.0
 10
194.4748001757696
 20
294.727163156081
 30
0.0
 10
194.4040098487433
 20
294.7677058388005
 30
0.0
 10
194.3422193050404
 20
294.8080651770132
 30
0.0
 10
194.2874396994715
 20
294.8449997348844
 30
0.0
 10
194.2410924926682
 20
294.8810018261335
 30
0.0
 10
194.2017252210368
 20
294.913676681119
 30
0.0
 10
194.1606968191386
 20
294.9559688826617
 30
0.0
 10
194.1181858784474
 20
295.0107318730892
 30
0.0
 10
194.0739446576873
 20
295.0807978227874
 30
0.0
 10
194.0354443766564
 20
295.1566406920027
 30
0.0
 10
194.0026631430513
 20
295.2382589080237
 30
0.0
 10
193.9772727882403
 20
295.3258508020626
 30
0.0
 10
193.9589969599891
 20
295.4185250150271
 30
0.0
 10
193.9471809174894
 20
295.516125314239
 30
0.0
 10
193.9460383160301
 20
295.5829194335039
 30
0.0
 10
193.9454545454546
 20
295.6170454545453
 30
0.0
  0
SPLINE
  5
193
330
1F
100
AcDbEntity
  8
0
  6
Continuous
 62
     7
370
    25
100
AcDbSpline
210
0.0
220
0.0
230
1.0
 70
     8
 71
     3
 72
    15
 73
    11
 74
     0
 42
0.000000001
 43
0.00000001
 40
0.0
 40
0.0
 40
0.0
 40
0.0
 40
0.068475416635401
 40
0.1523118016416684
 40
0.2524779237969348
 40
0.3687380718314044
 40
0.5019629055857925
 40
0.6512336726315756
 40
0.8175311130318154
 40
1.0
 40
1.0
 40
1.0
 40
1.0
 10
195.2636363636364
 20
294.274005681818
 30
0.0
 10
195.2504734459172
 20
294.2840792628481
 30
0.0
 10
195.2211947965685
 20
294.3064862134161
 30
0.0
 10
195.1703323936487
 20
294.3404204745345
 30
0.0
 10
195.1083928047667
 20
294.3784226324642
 30
0.0
 10
195.0357746702356
 20
294.4218661473992
 30
0.0
 10
194.9522701128658
 20
294.4702623156461
 30
0.0
 10
194.8566255512397
 20
294.5217518276944
 30
0.0
 10
194.7502964644286
 20
294.5785097494875
 30
0.0
 10
194.6755905859997
 20
294.6177975385638
 30
0.0
 10
194.6365056818182
 20
294.6383522727272
 30
0.0
  0
SPLINE
  5
194
330
1F
100
AcDbEntity
  8
0
  6
Continuous
 62
     7
370
    25
100
AcDbSpline
210
0.0
220
0.0
230
1.0
 70
     8
 71
     3
 72
    15
 73
    11
 74
     0
 42
0.000000001
 43
0.00000001
 40
0.0
 40
0.0
 40
0.0
 40
0.0
 40
0.1388331307871753
 40
0.2727325342737673
 40
0.3990061069977597
 40
0.5211149485155224
 40
0.6406823640987516
 40
0.7594359250803724
 40
0.877626710221191
 40
1.0
 40
1.0
 40
1.0
 40
1.0
 10
195.4
 20
293.961505681818
 30
0.0
 10
195.3995994525092
 20
293.9778610920891
 30
0.0
 10
195.3988125918252
 20
294.0099906887281
 30
0.0
 10
195.3924161913256
 20
294.0566542499549
 30
0.0
 10
195.3817575087966
 20
294.100475866682
 30
0.0
 10
195.3668126063592
 20
294.1412614921045
 30
0.0
 10
195.3474978525377
 20
294.179168767568
 30
0.0
 10
195.3241064162908
 20
294.2141730231162
 30
0.0
 10
195.295857908085
 20
294.2458792927628
 30
0.0
 10
195.2745006525729
 20
294.2645221755906
 30
0.0
 10
195.2636363636364
 20
294.274005681818
 30
0.0
  0
SPLINE
  5
195
330
1F
100
AcDbEntity
  8
0
  6
Continuous
 62
     7
370
    25
100
AcDbSpline
210
0.0
220
0.0
230
1.0
 70
     8
 71
     3
 72
    23
 73
    19
 74
     0
 42
0.000000001
 43
0.00000001
 40
0.0
 40
0.0
 40
0.0
 40
0.0
 40
0.0788743244917973
 40
0.1532382342519451
 40
0.2234665353502316
 40
0.2915613871494086
 40
0.3556867428150681
 40
0.4182903149954608
 40
0.4785821349530764
 40
0.5382752558173561
 40
0.5968907653170945
 40
0.6534382912727889
 40
0.7096644566546528
 40
0.7654283230060935
 40
0.8214527019602369
 40
0.8786205534584054
 40
0.93800933741932
 40
1.0
 40
1.0
 40
1.0
 40
1.0
 10
194.7963068181818
 20
293.4636363636363
 30
0.0
 10
194.8195224929849
 20
293.4640229571169
 30
0.0
 10
194.8646262582053
 20
293.4647740367962
 30
0.0
 10
194.9301545187361
 20
293.4712135416054
 30
0.0
 10
194.9918699575577
 20
293.4819379884019
 30
0.0
 10
195.0497089934155
 20
293.4965007269319
 30
0.0
 10
195.1038425715477
 20
293.515742621109
 30
0.0
 10
195.1533285173141
 20
293.5400380557895
 30
0.0
 10
195.1994140592448
 20
293.5678386273312
 30
0.0
 10
195.2411947517251
 20
293.599867253805
 30
0.0
 10
195.2789775501443
 20
293.6349964648493
 30
0.0
 10
195.3109945340362
 20
293.6740804558441
 30
0.0
 10
195.3392500170794
 20
293.7150113596913
 30
0.0
 10
195.3607678697342
 20
293.7596446786526
 30
0.0
 10
195.3793254683811
 20
293.8058988040036
 30
0.0
 10
195.3907073609628
 20
293.8555112596522
 30
0.0
 10
195.3992729400267
 20
293.9074679361611
 30
0.0
 10
195.3997542078712
 20
293.9432375154649
 30
0.0
 10
195.4
 20
293.961505681818
 30
0.0
  0
SPLINE
  5
196
330
1F
100
AcDbEntity
  8
0
  6
Continuous
 62
     7
370
    25
100
AcDbSpline
210
0.0
220
0.0
230
1.0
 70
     8
 71
     3
 72
    19
 73
    15
 74
     0
 42
0.000000001
 43
0.00000001
 40
0.0
 40
0.0
 40
0.0
 40
0.0
 40
0.0821801282358588
 40
0.1628997848937298
 40
0.2433293951352167
 40
0.3249845876517196
 40
0.4061546472060675
 40
0.4855842939332307
 40
0.5655973110383351
 40
0.6479223453123698
 40
0.7317774646712776
 40
0.8174304321967997
 40
0.9068975010635277
 40
1.0
 40
1.0
 40
1.0
 40
1.0
 10
194.1251420454546
 20
294.1014204545453
 30
0.0
 10
194.1260071367258
 20
294.0729325633585
 30
0.0
 10
194.1277219452207
 20
294.0164630561183
 30
0.0
 10
194.144230579852
 20
293.9334999698586
 30
0.0
 10
194.1696415875789
 20
293.8531524013671
 30
0.0
 10
194.2060310420599
 20
293.7769429873174
 30
0.0
 10
194.2506999616284
 20
293.7055774185432
 30
0.0
 10
194.3065737867699
 20
293.6433135917958
 30
0.0
 10
194.3702440954924
 20
293.5885701974067
 30
0.0
 10
194.4428549682006
 20
293.543270957344
 30
0.0
 10
194.5228111942507
 20
293.5078018080546
 30
0.0
 10
194.6089613997006
 20
293.4822276272231
 30
0.0
 10
194.7007743046294
 20
293.4661677926867
 30
0.0
 10
194.7640427014485
 20
293.4644913010743
 30
0.0
 10
194.7963068181818
 20
293.4636363636363
 30
0.0
  0
LINE
  5
197
330
1F
100
AcDbEntity
  8
0
  6
Continuous
 62
     7
370
    25
100
AcDbLine
 10
194.1272727273
 20
294.1816761364
 30
0.0
 11
194.1251420455
 21
294.1014204545
 31
0.0
  0
LINE
  5
198
330
1F
100
AcDbEntity
  8
0
  6
Continuous
 62
     7
370
    25
100
AcDbLine
 10
193.7636363636
 20
294.1454545455
 30
0.0
 11
194.1272727273
 21
294.1816761364
 31
0.0
  0
LINE
  5
199
330
1F
100
AcDbEntity
  8
0
  6
Continuous
 62
     7
370
    25
100
AcDbLine
 10
193.7615056818
 20
294.06875
 30
0.0
 11
193.7636363636
 21
294.1454545455
 31
0.0
  0
SPLINE
  5
19A
330
1F
100
AcDbEntity
  8
0
  6
Continuous
 62
     7
370
    25
100
AcDbSpline
210
0.0
220
0.0
230
1.0
 70
     8
 71
     3
 72
    19
 73
    15
 74
     0
 42
0.000000001
 43
0.00000001
 40
0.0
 40
0.0
 40
0.0
 40
0.0
 40
0.093704771103123
 40
0.1814612720743209
 40
0.2647014142339197
 40
0.3446980461374627
 40
0.423292571607724
 40
0.5019938573241789
 40
0.5818721705960285
 40
0.665000932926417
 40
0.7493238967177925
 40
0.8324096915429386
 40
0.9154815461882091
 40
1.0
 40
1.0
 40
1.0
 40
1.0
 10
194.7842329545455
 20
293.0545454545453
 30
0.0
 10
194.7337163171022
 20
293.0559594273656
 30
0.0
 10
194.6358897797393
 20
293.0586976156524
 30
0.0
 10
194.4946733540729
 20
293.0822242758532
 30
0.0
 10
194.3650940484695
 20
293.1221977382099
 30
0.0
 10
194.2463356962404
 20
293.1769712997911
 30
0.0
 10
194.1395326618085
 20
293.2481633812146
 30
0.0
 10
194.0442371211281
 20
293.3340371657272
 30
0.0
 10
193.9613962807235
 20
293.4350708565719
 30
0.0
 10
193.8900266522623
 20
293.5480278037152
 30
0.0
 10
193.833069690946
 20
293.6708350682545
 30
0.0
 10
193.7913461719667
 20
293.7995217695915
 30
0.0
 10
193.7666790990897
 20
293.9328652692002
 30
0.0
 10
193.7632400492585
 20
294.023195187702
 30
0.0
 10
193.7615056818182
 20
294.0687499999999
 30
0.0
  0
SPLINE
  5
19B
330
1F
100
AcDbEntity
  8
0
  6
Continuous
 62
     7
370
    25
100
AcDbSpline
210
0.0
220
0.0
230
1.0
 70
     8
 71
     3
 72
    23
 73
    19
 74
     0
 42
0.000000001
 43
0.00000001
 40
0.0
 40
0.0
 40
0.0
 40
0.0
 40
0.0666934546844498
 40
0.1310220238068357
 40
0.1926333827530883
 40
0.2524602873052746
 40
0.311271412182165
 40
0.3697697244766111
 40
0.4280169499381786
 40
0.4873847897951772
 40
0.5468257337801713
 40
0.6064162608590412
 40
0.6668857463861678
 40
0.7280727309168268
 40
0.7917635617125143
 40
0.8578355336719182
 40
0.9272537158237348
 40
1.0
 40
1.0
 40
1.0
 40
1.0
 10
195.7636363636364
 20
293.9835227272726
 30
0.0
 10
195.7627721171769
 20
293.9496365440787
 30
0.0
 10
195.7610742696035
 20
293.8830657490558
 30
0.0
 10
195.749109819737
 20
293.7857359362296
 30
0.0
 10
195.728300439461
 20
293.6935492579553
 30
0.0
 10
195.7000591577173
 20
293.6062690730849
 30
0.0
 10
195.6628847268815
 20
293.5241061844869
 30
0.0
 10
195.6173756592564
 20
293.4471704419413
 30
0.0
 10
195.5633018743244
 20
293.3757042900883
 30
0.0
 10
195.5027767674434
 20
293.3089476942075
 30
0.0
 10
195.434339984955
 20
293.2492138267242
 30
0.0
 10
195.3593324526986
 20
293.1969983246811
 30
0.0
 10
195.2781235304178
 20
293.1532681823683
 30
0.0
 10
195.1913521602896
 20
293.1162336414938
 30
0.0
 10
195.0980030455745
 20
293.0891109602795
 30
0.0
 10
194.9986963879259
 20
293.069215943558
 30
0.0
 10
194.8934357461318
 20
293.057015401011
 30
0.0
 10
194.8211975888923
 20
293.0553815198751
 30
0.0
 10
194.7842329545455
 20
293.0545454545453
 30
0.0
  0
SPLINE
  5
19C
330
1F
100
AcDbEntity
  8
0
  6
Continuous
 62
     7
370
    25
100
AcDbSpline
210
0.0
220
0.0
230
1.0
 70
     8
 71
     3
 72
    15
 73
    11
 74
     0
 42
0.000000001
 43
0.00000001
 40
0.0
 40
0.0
 40
0.0
 40
0.0
 40
0.1395177794906481
 40
0.2704089020153897
 40
0.3947415535738342
 40
0.5131308878526171
 40
0.6303609990347095
 40
0.748690562372754
 40
0.8719598426545041
 40
1.0
 40
1.0
 40
1.0
 40
1.0
 10
195.3517045454546
 20
294.7484374999999
 30
0.0
 10
195.3852109186947
 20
294.7228677489153
 30
0.0
 10
195.4501519006359
 20
294.6733092744268
 30
0.0
 10
195.5350952869109
 20
294.5893058314782
 30
0.0
 10
195.6067905945896
 20
294.5019817581653
 30
0.0
 10
195.6647576093762
 20
294.4096843883642
 30
0.0
 10
195.7089043992047
 20
294.3120925233728
 30
0.0
 10
195.7416719993469
 20
294.2085549422206
 30
0.0
 10
195.7598484026117
 20
294.0980378167209
 30
0.0
 10
195.7623578302412
 20
294.0221744887763
 30
0.0
 10
195.7636363636364
 20
293.9835227272726
 30
0.0
  0
SPLINE
  5
19D
330
1F
100
AcDbEntity
  8
0
  6
Continuous
 62
     7
370
    25
100
AcDbSpline
210
0.0
220
0.0
230
1.0
 70
     8
 71
     3
 72
    15
 73
    11
 74
     0
 42
0.000000001
 43
0.00000001
 40
0.0
 40
0.0
 40
0.0
 40
0.0
 40
0.1726418875523937
 40
0.3309193384753024
 40
0.4766517779054588
 40
0.6080914625119102
 40
0.727004216846914
 40
0.8309993185236266
 40
0.9224993359265322
 40
1.0
 40
1.0
 40
1.0
 40
1.0
 10
194.9142045454546
 20
295.0019886363635
 30
0.0
 10
194.9400806531008
 20
294.9886269447854
 30
0.0
 10
194.9896798815732
 20
294.9630153032503
 30
0.0
 10
195.0599918083917
 20
294.9240190040498
 30
0.0
 10
195.1246986867544
 20
294.8892430294351
 30
0.0
 10
195.1822117486039
 20
294.8552353799533
 30
0.0
 10
195.2339735134408
 20
294.825332668838
 30
0.0
 10
195.2788347893747
 20
294.7970547350585
 30
0.0
 10
195.3181038372505
 20
294.7729544455522
 30
0.0
 10
195.3411403954158
 20
294.7561456914384
 30
0.0
 10
195.3517045454546
 20
294.7484374999999
 30
0.0
  0
SPLINE
  5
19E
330
1F
100
AcDbEntity
  8
0
  6
Continuous
 62
     7
370
    25
100
AcDbSpline
210
0.0
220
0.0
230
1.0
 70
     8
 71
     3
 72
    15
 73
    11
 74
     0
 42
0.000000001
 43
0.00000001
 40
0.0
 40
0.0
 40
0.0
 40
0.0
 40
0.0716554735848559
 40
0.1570520993964978
 40
0.2575314687216433
 40
0.3738636975007326
 40
0.5061246569992688
 40
0.6544903653502862
 40
0.8190851814102
 40
1.0
 40
1.0
 40
1.0
 40
1.0
 10
194.4035511363637
 20
295.344318181818
 30
0.0
 10
194.4129846354747
 20
295.3329273764156
 30
0.0
 10
194.4336606671291
 20
295.3079613855041
 30
0.0
 10
194.4740149529388
 20
295.2732592606682
 30
0.0
 10
194.5219970543655
 20
295.2335729340252
 30
0.0
 10
194.5815303774936
 20
295.193046327413
 30
0.0
 10
194.6504227477147
 20
295.1489642510949
 30
0.0
 10
194.7294163875182
 20
295.1022630823343
 30
0.0
 10
194.8182193999844
 20
295.0525364041191
 30
0.0
 10
194.8812175991355
 20
295.0193602462447
 30
0.0
 10
194.9142045454546
 20
295.0019886363635
 30
0.0
  0
SPLINE
  5
19F
330
1F
100
AcDbEntity
  8
0
  6
Continuous
 62
     7
370
    25
100
AcDbSpline
210
0.0
220
0.0
230
1.0
 70
     8
 71
     3
 72
    11
 73
     7
 74
     0
 42
0.000000001
 43
0.00000001
 40
0.0
 40
0.0
 40
0.0
 40
0.0
 40
0.2623513372930009
 40
0.5126828216524114
 40
0.7553307468634723
 40
1.0
 40
1.0
 40
1.0
 40
1.0
 10
194.3090909090909
 20
295.6504261363635
 30
0.0
 10
194.3100681342212
 20
295.6219156749724
 30
0.0
 10
194.3119778120691
 20
295.5662009835841
 30
0.0
 10
194.3302643253171
 20
295.4858280646485
 30
0.0
 10
194.3601816251909
 20
295.4110675515549
 30
0.0
 10
194.3890547120433
 20
295.3666294129262
 30
0.0
 10
194.4035511363637
 20
295.344318181818
 30
0.0
  0
SPLINE
  5
1A0
330
1F
100
AcDbEntity
  8
0
  6
Continuous
 62
     7
370
    25
100
AcDbSpline
210
0.0
220
0.0
230
1.0
 70
     8
 71
     3
 72
    23
 73
    19
 74
     0
 42
0.000000001
 43
0.00000001
 40
0.0
 40
0.0
 40
0.0
 40
0.0
 40
0.0771040173472259
 40
0.1511069390552306
 40
0.2210116082551458
 40
0.2881109265279214
 40
0.3536580073187806
 40
0.4164274427866967
 40
0.4788528299699055
 40
0.5405268348779395
 40
0.6008585062634261
 40
0.6589152508298259
 40
0.7153975198825786
 40
0.7714085341165391
 40
0.8267308098742302
 40
0.8829695292380709
 40
0.9407688871594057
 40
1.0
 40
1.0
 40
1.0
 40
1.0
 10
195.0193181818182
 20
296.2363636363635
 30
0.0
 10
194.9927829557094
 20
296.2357882243389
 30
0.0
 10
194.9407797406709
 20
296.2346605431528
 30
0.0
 10
194.8650572528057
 20
296.2267494669949
 30
0.0
 10
194.7934572553246
 20
296.2142475696987
 30
0.0
 10
194.7261482412143
 20
296.1956864265021
 30
0.0
 10
194.663293851924
 20
296.1715384656582
 30
0.0
 10
194.6041283536882
 20
296.1429394637001
 30
0.0
 10
194.5492745763542
 20
296.1090755741593
 30
0.0
 10
194.4998581556299
 20
296.0690347804646
 30
0.0
 10
194.4553291954767
 20
296.0258788184638
 30
0.0
 10
194.4156737219544
 20
295.9804540444903
 30
0.0
 10
194.382901170889
 20
295.931609633807
 30
0.0
 10
194.3557085019017
 20
295.8805377930628
 30
0.0
 10
194.3349732494122
 20
295.8265747755956
 30
0.0
 10
194.3201462468724
 20
295.7701381777507
 30
0.0
 10
194.3104866110577
 20
295.711126488078
 30
0.0
 10
194.3095599221282
 20
295.6708239411964
 30
0.0
 10
194.3090909090909
 20
295.6504261363635
 30
0.0
  0
SPLINE
  5
1A1
330
1F
100
AcDbEntity
  8
0
  6
Continuous
 62
     7
370
    25
100
AcDbSpline
210
0.0
220
0.0
230
1.0
 70
     8
 71
     3
 72
    15
 73
    11
 74
     0
 42
0.000000001
 43
0.00000001
 40
0.0
 40
0.0
 40
0.0
 40
0.0
 40
0.1016325882549056
 40
0.2071784412693483
 40
0.3190021679967157
 40
0.4408272229545648
 40
0.5695581242190477
 40
0.7044896318148142
 40
0.8478065612669246
 40
1.0
 40
1.0
 40
1.0
 40
1.0
 10
195.6705965909091
 20
295.9338068181817
 30
0.0
 10
195.6574159052016
 20
295.955696788617
 30
0.0
 10
195.6305470241996
 20
296.0003195816807
 30
0.0
 10
195.5740668696501
 20
296.0578336013132
 30
0.0
 10
195.5062499579029
 20
296.1094173177268
 30
0.0
 10
195.4269908475101
 20
296.1543411779153
 30
0.0
 10
195.3374555624199
 20
296.1914666283834
 30
0.0
 10
195.2384895702441
 20
296.2171218755611
 30
0.0
 10
195.1316485438628
 20
296.2341487353181
 30
0.0
 10
195.0575040176533
 20
296.2356106979222
 30
0.0
 10
195.0193181818182
 20
296.2363636363635
 30
0.0
  0
SPLINE
  5
1A2
330
1F
100
AcDbEntity
  8
0
  6
Continuous
 62
     7
370
    25
100
AcDbSpline
210
0.0
220
0.0
230
1.0
 70
     8
 71
     3
 72
    11
 73
     7
 74
     0
 42
0.000000001
 43
0.00000001
 40
0.0
 40
0.0
 40
0.0
 40
0.0
 40
0.2636440923137342
 40
0.5155515481879305
 40
0.7605841254471137
 40
1.0
 40
1.0
 40
1.0
 40
1.0
 10
195.7664772727273
 20
295.5311079545453
 30
0.0
 10
195.7656011416172
 20
295.5679031339477
 30
0.0
 10
195.7638878821003
 20
295.6398554828139
 30
0.0
 10
195.7441348935251
 20
295.7443113568093
 30
0.0
 10
195.7156302341677
 20
295.8433110425648
 30
0.0
 10
195.6854913283514
 20
295.90387562186
 30
0.0
 10
195.6705965909091
 20
295.9338068181817
 30
0.0
  0
LINE
  5
1A3
330
1F
100
AcDbEntity
  8
0
  6
Continuous
 62
     7
370
    25
100
AcDbLine
 10
195.7636363636
 20
295.4181818182
 30
0.0
 11
195.7664772727
 21
295.5311079545
 31
0.0
  0
LINE
  5
1A4
330
1F
100
AcDbEntity
  8
0
  6
Continuous
 62
     7
370
    25
100
AcDbLine
 10
196.1272727273
 20
295.4607954545
 30
0.0
 11
195.7636363636
 21
295.4181818182
 31
0.0
  0
SPLINE
  5
1A5
330
1F
100
AcDbEntity
  8
0
  6
Continuous
 62
     7
370
    25
100
AcDbSpline
210
0.0
220
0.0
230
1.0
 70
     8
 71
     3
 72
    23
 73
    19
 74
     0
 42
0.000000001
 43
0.00000001
 40
0.0
 40
0.0
 40
0.0
 40
0.0
 40
0.0698134016162514
 40
0.1357560403050074
 40
0.1982791963763492
 40
0.2578008330946319
 40
0.3144991381795982
 40
0.3697276476210712
 40
0.4238622803433946
 40
0.4773340150096274
 40
0.5317766027442767
 40
0.5878065351004028
 40
0.6465971391529167
 40
0.7085484232541984
 40
0.7742800124540355
 40
0.8446267329969528
 40
0.9197710936592457
 40
0.9999999999999999
 40
0.9999999999999999
 40
0.9999999999999999
 40
0.9999999999999999
 10
195.0434659090909
 20
296.6454545454544
 30
0.0
 10
195.0863529584795
 20
296.6447352558125
 30
0.0
 10
195.1697492100668
 20
296.6433365571191
 30
0.0
 10
195.2909464701952
 20
296.6296765159399
 30
0.0
 10
195.4042927211507
 20
296.6070505203276
 30
0.0
 10
195.509717698436
 20
296.575951851219
 30
0.0
 10
195.6075360592402
 20
296.5363415383564
 30
0.0
 10
195.6965669133371
 20
296.4861051798847
 30
0.0
 10
195.7780960682318
 20
296.4278461752257
 30
0.0
 10
195.8515125466618
 20
296.3602606051922
 30
0.0
 10
195.9165133936663
 20
296.2830203444971
 30
0.0
 10
195.9730276585995
 20
296.1954526994538
 30
0.0
 10
196.0204538972645
 20
296.0975335458648
 30
0.0
 10
196.0593555651552
 20
295.9896492025184
 30
0.0
 10
196.0900829004518
 20
295.871777926884
 30
0.0
 10
196.1104386175036
 20
295.7435444239928
 30
0.0
 10
196.1244307873994
 20
295.6055124436803
 30
0.0
 10
196.1263049699525
 20
295.5100754998116
 30
0.0
 10
196.1272727272728
 20
295.4607954545453
 30
0.0
  0
LINE
  5
1A6
330
1F
100
AcDbEntity
  8
0
  6
Continuous
 62
     7
370
    25
100
AcDbLine
 10
202.3509943182
 20
295.6454545455
 30
0.0
 11
202.7806818182
 21
296.6
 31
0.0
  0
LINE
  5
1A7
330
1F
100
AcDbEntity
  8
0
  6
Continuous
 62
     7
370
    25
100
AcDbLine
 10
201.1080965909
 20
295.6454545455
 30
0.0
 11
202.3509943182
 21
295.6454545455
 31
0.0
  0
LINE
  5
1A8
330
1F
100
AcDbEntity
  8
0
  6
Continuous
 62
     7
370
    25
100
AcDbLine
 10
200.9909090909
 20
296.6
 30
0.0
 11
201.1080965909
 21
295.6454545455
 31
0.0
  0
LINE
  5
1A9
330
1F
100
AcDbEntity
  8
0
  6
Continuous
 62
     7
370
    25
100
AcDbLine
 10
200.6251420455
 20
296.6
 30
0.0
 11
200.9909090909
 21
296.6
 31
0.0
  0
LINE
  5
1AA
330
1F
100
AcDbEntity
  8
0
  6
Continuous
 62
     7
370
    25
100
AcDbLine
 10
201.1045454545
 20
293.1
 30
0.0
 11
200.6251420455
 21
296.6
 31
0.0
  0
LINE
  5
1AB
330
1F
100
AcDbEntity
  8
0
  6
Continuous
 62
     7
370
    25
100
AcDbLine
 10
201.5491477273
 20
293.1
 30
0.0
 11
201.1045454545
 21
293.1
 31
0.0
  0
LINE
  5
1AC
330
1F
100
AcDbEntity
  8
0
  6
Continuous
 62
     7
370
    25
100
AcDbLine
 10
203.1748579545
 20
296.6
 30
0.0
 11
201.5491477273
 21
293.1
 31
0.0
  0
LINE
  5
1AD
330
1F
100
AcDbEntity
  8
0
  6
Continuous
 62
     7
370
    25
100
AcDbLine
 10
202.7806818182
 20
296.6
 30
0.0
 11
203.1748579545
 21
296.6
 31
0.0
  0
LINE
  5
1AE
330
1F
100
AcDbEntity
  8
0
  6
Continuous
 62
     7
370
    25
100
AcDbLine
 10
217.4
 20
351.1
 30
0.0
 11
164.4
 21
351.1
 31
0.0
  0
LINE
  5
1AF
330
1F
100
AcDbEntity
  8
0
  6
Continuous
 62
     7
370
    25
100
AcDbLine
 10
217.4
 20
351.1
 30
0.0
 11
217.4
 21
292.1
 31
0.0
  0
LINE
  5
1B0
330
1F
100
AcDbEntity
  8
0
  6
Continuous
 62
     7
370
    25
100
AcDbLine
 10
164.4
 20
292.1
 30
0.0
 11
217.4
 21
292.1
 31
0.0
  0
LINE
  5
1B1
330
1F
100
AcDbEntity
  8
0
  6
Continuous
 62
     7
370
    25
100
AcDbLine
 10
164.4
 20
351.1
 30
0.0
 11
164.4
 21
292.1
 31
0.0
  0
LINE
  5
1B2
330
1F
100
AcDbEntity
  8
0
  6
Continuous
 62
     7
370
    25
100
AcDbLine
 10
199.5214488636
 20
294.4643465909
 30
0.0
 11
199.8957386364
 21
296.6
 31
0.0
  0
SPLINE
  5
1B3
330
1F
100
AcDbEntity
  8
0
  6
Continuous
 62
     7
370
    25
100
AcDbSpline
210
0.0
220
0.0
230
1.0
 70
     8
 71
     3
 72
    11
 73
     7
 74
     0
 42
0.000000001
 43
0.00000001
 40
0.0
 40
0.0
 40
0.0
 40
0.0
 40
0.2155138168373283
 40
0.4547053244133465
 40
0.7153144235925746
 40
1.0
 40
1.0
 40
1.0
 40
1.0
 10
199.4085227272728
 20
293.6348011363635
 30
0.0
 10
199.4138875258841
 20
293.694729522985
 30
0.0
 10
199.4252065333093
 20
293.8211704021833
 30
0.0
 10
199.4496730505334
 20
294.0193955088581
 30
0.0
 10
199.4818196029934
 20
294.2360485464852
 30
0.0
 10
199.5078559150311
 20
294.3860397152775
 30
0.0
 10
199.5214488636364
 20
294.464346590909
 30
0.0
  0
SPLINE
  5
1B4
330
1F
100
AcDbEntity
  8
0
  6
Continuous
 62
     7
370
    25
100
AcDbSpline
210
0.0
220
0.0
230
1.0
 70
     8
 71
     3
 72
    11
 73
     7
 74
     0
 42
0.000000001
 43
0.00000001
 40
0.0
 40
0.0
 40
0.0
 40
0.0
 40
0.2791352987209258
 40
0.5384445167415965
 40
0.7791571478745466
 40
1.0
 40
1.0
 40
1.0
 40
1.0
 10
199.1279829545455
 20
294.5879261363635
 30
0.0
 10
199.1563806086085
 20
294.4999292807603
 30
0.0
 10
199.2111589228835
 20
294.3301857026203
 30
0.0
 10
199.286786586081
 20
294.0834057950491
 30
0.0
 10
199.3524273317328
 20
293.853785890296
 30
0.0
 10
199.3903687158988
 20
293.7056706199522
 30
0.0
 10
199.4085227272728
 20
293.6348011363635
 30
0.0
  0
LINE
  5
1B5
330
1F
100
AcDbEntity
  8
0
  6
Continuous
 62
     7
370
    25
100
AcDbLine
 10
198.4
 20
296.6
 30
0.0
 11
199.1279829545
 21
294.5879261364
 31
0.0
  0
LINE
  5
1B6
330
1F
100
AcDbEntity
  8
0
  6
Continuous
 62
     7
370
    25
100
AcDbLine
 10
198.0164772727
 20
296.6
 30
0.0
 11
198.4
 21
296.6
 31
0.0
  0
LINE
  5
1B7
330
1F
100
AcDbEntity
  8
0
  6
Continuous
 62
     7
370
    25
100
AcDbLine
 10
197.4241477273
 20
293.1
 30
0.0
 11
198.0164772727
 21
296.6
 31
0.0
  0
LINE
  5
1B8
330
1F
100
AcDbEntity
  8
0
  6
Continuous
 62
     7
370
    25
100
AcDbLine
 10
197.7934659091
 20
293.1
 30
0.0
 11
197.4241477273
 21
293.1
 31
0.0
  0
LINE
  5
1B9
330
1F
100
AcDbEntity
  8
0
  6
Continuous
 62
     7
370
    25
100
AcDbLine
 10
198.1492897727
 20
295.1511363636
 30
0.0
 11
197.7934659091
 21
293.1
 31
0.0
  0
SPLINE
  5
1BA
330
1F
100
AcDbEntity
  8
0
  6
Continuous
 62
     7
370
    25
100
AcDbSpline
210
0.0
220
0.0
230
1.0
 70
     8
 71
     3
 72
     9
 73
     5
 74
     0
 42
0.000000001
 43
0.00000001
 40
0.0
 40
0.0
 40
0.0
 40
0.0
 40
0.4961591109685697
 40
1.0
 40
1.0
 40
1.0
 40
1.0
 10
198.2806818181818
 20
296.0701704545453
 30
0.0
 10
198.2613501326743
 20
295.917831993409
 30
0.0
 10
198.2223874590477
 20
295.6107964925613
 30
0.0
 10
198.1737801317343
 20
295.3051390707705
 30
0.0
 10
198.1492897727273
 20
295.1511363636363
 30
0.0
  0
SPLINE
  5
1BB
330
1F
100
AcDbEntity
  8
0
  6
Continuous
 62
     7
370
    25
100
AcDbSpline
210
0.0
220
0.0
230
1.0
 70
     8
 71
     3
 72
    11
 73
     7
 74
     0
 42
0.000000001
 43
0.00000001
 40
0.0
 40
0.0
 40
0.0
 40
0.0
 40
0.2121774586276838
 40
0.4489009667349215
 40
0.7114906539182634
 40
1.0
 40
1.0
 40
1.0
 40
1.0
 10
198.4674715909091
 20
295.3848011363635
 30
0.0
 10
198.4525549517885
 20
295.4327892611964
 30
0.0
 10
198.4209960210474
 20
295.5343170849745
 30
0.0
 10
198.3760547620286
 20
295.6967370978907
 30
0.0
 10
198.3283583033549
 20
295.8771210721558
 30
0.0
 10
198.2970645888867
 20
296.003834109596
 30
0.0
 10
198.2806818181818
 20
296.0701704545453
 30
0.0
  0
SPLINE
  5
1BC
330
1F
100
AcDbEntity
  8
0
  6
Continuous
 62
     7
370
    25
100
AcDbSpline
210
0.0
220
0.0
230
1.0
 70
     8
 71
     3
 72
    15
 73
    11
 74
     0
 42
0.000000001
 43
0.00000001
 40
0.0
 40
0.0
 40
0.0
 40
0.0
 40
0.1473319395763573
 40
0.2884946194558141
 40
0.4226039186233329
 40
0.5507849952645089
 40
0.6725801496860199
 40
0.7884487574136453
 40
0.8972927867977993
 40
1.0
 40
1.0
 40
1.0
 40
1.0
 10
198.8055397727273
 20
294.4188920454545
 30
0.0
 10
198.7879917253537
 20
294.465992771399
 30
0.0
 10
198.7536304234947
 20
294.5582219651948
 30
0.0
 10
198.7037864318065
 20
294.6935103501893
 30
0.0
 10
198.6579429896454
 20
294.823294011578
 30
0.0
 10
198.6133642124894
 20
294.946517175168
 30
0.0
 10
198.5733802647742
 20
295.064754789298
 30
0.0
 10
198.5346918857471
 20
295.1764604134902
 30
0.0
 10
198.4999178783575
 20
295.2826168159614
 30
0.0
 10
198.4780758171478
 20
295.3514048455457
 30
0.0
 10
198.4674715909091
 20
295.3848011363635
 30
0.0
  0
LINE
  5
1BD
330
1F
100
AcDbEntity
  8
0
  6
Continuous
 62
     7
370
    25
100
AcDbLine
 10
199.2821022727
 20
293.1
 30
0.0
 11
198.8055397727
 21
294.4188920455
 31
0.0
  0
LINE
  5
1BE
330
1F
100
AcDbEntity
  8
0
  6
Continuous
 62
     7
370
    25
100
AcDbLine
 10
199.665625
 20
293.1
 30
0.0
 11
199.2821022727
 21
293.1
 31
0.0
  0
LINE
  5
1BF
330
1F
100
AcDbEntity
  8
0
  6
Continuous
 62
     7
370
    25
100
AcDbLine
 10
200.2636363636
 20
296.6
 30
0.0
 11
199.665625
 21
293.1
 31
0.0
  0
LINE
  5
1C0
330
1F
100
AcDbEntity
  8
0
  6
Continuous
 62
     7
370
    25
100
AcDbLine
 10
199.8957386364
 20
296.6
 30
0.0
 11
200.2636363636
 21
296.6
 31
0.0
  0
SPLINE
  5
1C1
330
1F
100
AcDbEntity
  8
0
  6
Continuous
 62
     7
370
    25
100
AcDbSpline
210
0.0
220
0.0
230
1.0
 70
     8
 71
     3
 72
    23
 73
    19
 74
     0
 42
0.000000001
 43
0.00000001
 40
0.0
 40
0.0
 40
0.0
 40
0.0
 40
0.068129972908923
 40
0.1325358139356432
 40
0.1943163794817933
 40
0.2536925314478429
 40
0.3112245777777533
 40
0.3676988690880725
 40
0.4240706464046157
 40
0.4802274715617588
 40
0.5368722072480017
 40
0.5945107860407391
 40
0.6538278689989584
 40
0.7160607141225829
 40
0.7811272007047757
 40
0.8497595684802658
 40
0.922401829661727
 40
1.0
 40
1.0
 40
1.0
 40
1.0
 10
204.275
 20
296.6454545454544
 30
0.0
 10
204.3022495998075
 20
296.6449855675982
 30
0.0
 10
204.3552592772771
 20
296.6440732472312
 30
0.0
 10
204.4325758519959
 20
296.6347794139875
 30
0.0
 10
204.5050560629754
 20
296.6187174103289
 30
0.0
 10
204.5738794445109
 20
296.5989758900445
 30
0.0
 10
204.6373011973647
 20
296.5705463885542
 30
0.0
 10
204.6968528640671
 20
296.5372532574173
 30
0.0
 10
204.7515950179641
 20
296.4973302007724
 30
0.0
 10
204.8015257796626
 20
296.4515403782855
 30
0.0
 10
204.846870346131
 20
296.4004075075607
 30
0.0
 10
204.8850580596574
 20
296.3422066673269
 30
0.0
 10
204.918015060506
 20
296.2784616442121
 30
0.0
 10
204.9449659412177
 20
296.2087113272002
 30
0.0
 10
204.965322483954
 20
296.1329326496622
 30
0.0
 10
204.9800386830271
 20
296.0516886857166
 30
0.0
 10
204.9896259502651
 20
295.9645749412878
 30
0.0
 10
204.9904720738038
 20
295.9044774494886
 30
0.0
 10
204.9909090909091
 20
295.8734374999999
 30
0.0
  0
SPLINE
  5
1C2
330
1F
100
AcDbEntity
  8
0
  6
Continuous
 62
     7
370
    25
100
AcDbSpline
210
0.0
220
0.0
230
1.0
 70
     8
 71
     3
 72
    23
 73
    19
 74
     0
 42
0.000000001
 43
0.00000001
 40
0.0
 40
0.0
 40
0.0
 40
0.0
 40
0.0911126537636147
 40
0.1765800696039823
 40
0.2556845860823224
 40
0.3297893522729347
 40
0.3981379158075915
 40
0.4620790670543463
 40
0.5214380676844869
 40
0.5768138317737715
 40
0.6303117502478066
 40
0.6822058483736746
 40
0.7332336985795438
 40
0.7847403808678607
 40
0.836474195240922
 40
0.8892249475537715
 40
0.9436036705254428
 40
1.0
 40
1.0
 40
1.0
 40
1.0
 10
203.4184659090909
 20
295.6653409090908
 30
0.0
 10
203.4263428438562
 20
295.7082724958319
 30
0.0
 10
203.4416086673358
 20
295.7914756763103
 30
0.0
 10
203.4703872954975
 20
295.9106273229596
 30
0.0
 10
203.5044556207756
 20
296.0197975248482
 30
0.0
 10
203.5396313151139
 20
296.1200016861191
 30
0.0
 10
203.580431955553
 20
296.2101997279955
 30
0.0
 10
203.6249668896762
 20
296.2905878789262
 30
0.0
 10
203.6731746253067
 20
296.3615010822573
 30
0.0
 10
203.7257895916008
 20
296.4227470977078
 30
0.0
 10
203.7819941152261
 20
296.4756385265989
 30
0.0
 10
203.8422538411513
 20
296.5203823216729
 30
0.0
 10
203.9052537886016
 20
296.5593285659174
 30
0.0
 10
203.9719752090432
 20
296.5914839677573
 30
0.0
 10
204.0428789436681
 20
296.6156223971099
 30
0.0
 10
204.1171904162002
 20
296.6323877942401
 30
0.0
 10
204.1948816693258
 20
296.6435637520218
 30
0.0
 10
204.2479715713196
 20
296.644816674258
 30
0.0
 10
204.275
 20
296.6454545454544
 30
0.0
  0
LINE
  5
1C3
330
1F
100
AcDbEntity
  8
0
  6
Continuous
 62
     7
370
    25
100
AcDbLine
 10
202.9852272727
 20
293.1
 30
0.0
 11
203.4184659091
 21
295.6653409091
 31
0.0
  0
LINE
  5
1C4
330
1F
100
AcDbEntity
  8
0
  6
Continuous
 62
     7
370
    25
100
AcDbLine
 10
203.3538352273
 20
293.1
 30
0.0
 11
202.9852272727
 21
293.1
 31
0.0
  0
LINE
  5
1C5
330
1F
100
AcDbEntity
  8
0
  6
Continuous
 62
     7
370
    25
100
AcDbLine
 10
203.7735795455
 20
295.5779829545
 30
0.0
 11
203.3538352273
 21
293.1
 31
0.0
  0
SPLINE
  5
1C6
330
1F
100
AcDbEntity
  8
0
  6
Continuous
 62
     7
370
    25
100
AcDbSpline
210
0.0
220
0.0
230
1.0
 70
     8
 71
     3
 72
    23
 73
    19
 74
     0
 42
0.000000001
 43
0.00000001
 40
0.0
 40
0.0
 40
0.0
 40
0.0
 40
0.0631846891658383
 40
0.1250224895901014
 40
0.1851019433709106
 40
0.2460898383242764
 40
0.3071184733589745
 40
0.3701258983966838
 40
0.4358744649828313
 40
0.506577541468201
 40
0.5457221382137281
 40
0.591114475792938
 40
0.6432179052634478
 40
0.7013632099082903
 40
0.7663656625718466
 40
0.8373319027826921
 40
0.915247170850333
 40
1.0
 40
1.0
 40
1.0
 40
1.0
 10
204.2515625
 20
296.2363636363635
 30
0.0
 10
204.232576201539
 20
296.2356868542535
 30
0.0
 10
204.1950083297485
 20
296.234347716791
 30
0.0
 10
204.1402029124583
 20
296.2235496041613
 30
0.0
 10
204.088231960928
 20
296.2053689839517
 30
0.0
 10
204.0391194703332
 20
296.1808198710065
 30
0.0
 10
203.9939777539928
 20
296.1481075047147
 30
0.0
 10
203.952161488232
 20
296.1090412813243
 30
0.0
 10
203.916052837186
 20
296.0609789503059
 30
0.0
 10
203.8887310904438
 20
296.0157563343315
 30
0.0
 10
203.8688900571433
 20
295.9734953741485
 30
0.0
 10
203.8550588587657
 20
295.9348187831628
 30
0.0
 10
203.8409814756399
 20
295.8902436135122
 30
0.0
 10
203.8267916287844
 20
295.83954983322
 30
0.0
 10
203.8125591319537
 20
295.7830031876053
 30
0.0
 10
203.7993264632275
 20
295.7201372713208
 30
0.0
 10
203.7855733587602
 20
295.6513234162764
 30
0.0
 10
203.7776879675871
 20
295.6031053712872
 30
0.0
 10
203.7735795454546
 20
295.5779829545453
 30
0.0
  0
SPLINE
  5
1C7
330
1F
100
AcDbEntity
  8
0
  6
Continuous
 62
     7
370
    25
100
AcDbSpline
210
0.0
220
0.0
230
1.0
 70
     8
 71
     3
 72
    15
 73
    11
 74
     0
 42
0.000000001
 43
0.00000001
 40
0.0
 40
0.0
 40
0.0
 40
0.0
 40
0.1484990052884186
 40
0.2825157645263493
 40
0.4071628118033744
 40
0.5265829692207976
 40
0.6434294538395922
 40
0.7566073868398503
 40
0.8747372118289286
 40
1.0
 40
1.0
 40
1.0
 40
1.0
 10
204.6272727272728
 20
295.8137784090908
 30
0.0
 10
204.626271582382
 20
295.8453924968744
 30
0.0
 10
204.6243669284508
 20
295.9055375339581
 30
0.0
 10
204.6039458769462
 20
295.9902259738407
 30
0.0
 10
204.5714705671211
 20
296.0642943353837
 30
0.0
 10
204.5251750940638
 20
296.1262684312734
 30
0.0
 10
204.4689132235674
 20
296.1755489521719
 30
0.0
 10
204.4037016309345
 20
296.2117274408003
 30
0.0
 10
204.3299723597707
 20
296.2323735856064
 30
0.0
 10
204.2782048267352
 20
296.2350078854889
 30
0.0
 10
204.2515625
 20
296.2363636363635
 30
0.0
  0
SPLINE
  5
1C8
330
1F
100
AcDbEntity
  8
0
  6
Continuous
 62
     7
370
    25
100
AcDbSpline
210
0.0
220
0.0
230
1.0
 70
     8
 71
     3
 72
    11
 73
     7
 74
     0
 42
0.000000001
 43
0.00000001
 40
0.0
 40
0.0
 40
0.0
 40
0.0
 40
0.3140156463087511
 40
0.5868196412658935
 40
0.8146583949753017
 40
1.0
 40
1.0
 40
1.0
 40
1.0
 10
204.5938920454546
 20
295.5090909090908
 30
0.0
 10
204.5991620731803
 20
295.5407737230855
 30
0.0
 10
204.6090104862
 20
295.5999812745602
 30
0.0
 10
204.6183420318453
 20
295.6827683034089
 30
0.0
 10
204.6257054962167
 20
295.7525724816628
 30
0.0
 10
204.6267874098794
 20
295.794825044781
 30
0.0
 10
204.6272727272728
 20
295.8137784090908
 30
0.0
  0
LINE
  5
1C9
330
1F
100
AcDbEntity
  8
0
  6
Continuous
 62
     7
370
    25
100
AcDbLine
 10
204.9589488636
 20
295.5545454545
 30
0.0
 11
204.5938920455
 21
295.5090909091
 31
0.0
  0
SPLINE
  5
1CA
330
1F
100
AcDbEntity
  8
0
  6
Continuous
 62
     7
370
    25
100
AcDbSpline
210
0.0
220
0.0
230
1.0
 70
     8
 71
     3
 72
     9
 73
     5
 74
     0
 42
0.000000001
 43
0.00000001
 40
0.0
 40
0.0
 40
0.0
 40
0.0
 40
0.500764093397043
 40
1.0
 40
1.0
 40
1.0
 40
1.0
 10
204.9909090909091
 20
295.8734374999999
 30
0.0
 10
204.9896744426547
 20
295.8197963466544
 30
0.0
 10
204.9872089139342
 20
295.7126777372078
 30
0.0
 10
204.968359278481
 20
295.6072024868046
 30
0.0
 10
204.9589488636364
 20
295.5545454545453
 30
0.0
  0
LINE
  5
1CB
330
1F
100
AcDbEntity
  8
0
  6
Continuous
 62
     7
370
    25
100
AcDbLine
 10
190.6741477273
 20
293.1
 30
0.0
 11
192.2032670455
 21
296.6
 31
0.0
  0
LINE
  5
1CC
330
1F
100
AcDbEntity
  8
0
  6
Continuous
 62
     7
370
    25
100
AcDbLine
 10
191.0661931818
 20
293.1
 30
0.0
 11
190.6741477273
 21
293.1
 31
0.0
  0
LINE
  5
1CD
330
1F
100
AcDbEntity
  8
0
  6
Continuous
 62
     7
370
    25
100
AcDbLine
 10
192.0811079545
 20
295.3890625
 30
0.0
 11
191.0661931818
 21
293.1
 31
0.0
  0
SPLINE
  5
1CE
330
1F
100
AcDbEntity
  8
0
  6
Continuous
 62
     7
370
    25
100
AcDbSpline
210
0.0
220
0.0
230
1.0
 70
     8
 71
     3
 72
    15
 73
    11
 74
     0
 42
0.000000001
 43
0.00000001
 40
0.0
 40
0.0
 40
0.0
 40
0.0
 40
0.1551393386909351
 40
0.301202496928837
 40
0.4388836879579272
 40
0.5686907597159446
 40
0.6885671642288537
 40
0.8009304254617186
 40
0.9050612981926014
 40
1.0
 40
1.0
 40
1.0
 40
1.0
 10
192.3772727272728
 20
296.0999999999999
 30
0.0
 10
192.3623100701964
 20
296.0630875579853
 30
0.0
 10
192.3332601225164
 20
295.9914221777128
 30
0.0
 10
192.2917202998076
 20
295.8866789217218
 30
0.0
 10
192.2509173369614
 20
295.7886559683934
 30
0.0
 10
192.212706867444
 20
295.696841000987
 30
0.0
 10
192.177329047087
 20
295.610882364927
 30
0.0
 10
192.142739778499
 20
295.5317504416334
 30
0.0
 10
192.1122863248185
 20
295.4578109416255
 30
0.0
 10
192.0911758139778
 20
295.4112621736973
 30
0.0
 10
192.0811079545455
 20
295.3890624999999
 30
0.0
  0
SPLINE
  5
1CF
330
1F
100
AcDbEntity
  8
0
  6
Continuous
 62
     7
370
    25
100
AcDbSpline
210
0.0
220
0.0
230
1.0
 70
     8
 71
     3
 72
    15
 73
    11
 74
     0
 42
0.000000001
 43
0.00000001
 40
0.0
 40
0.0
 40
0.0
 40
0.0
 40
0.1519285434785132
 40
0.2959003752522401
 40
0.4325740366344286
 40
0.5614202412368956
 40
0.6823405234676714
 40
0.7961128507033484
 40
0.901992096623007
 40
1.0
 40
1.0
 40
1.0
 40
1.0
 10
192.4987215909091
 20
295.1845170454545
 30
0.0
 10
192.4911038749555
 20
295.2306745508164
 30
0.0
 10
192.4762673935568
 20
295.3205722280045
 30
0.0
 10
192.4552760967454
 20
295.452113715097
 30
0.0
 10
192.4380428082916
 20
295.5770263698196
 30
0.0
 10
192.4213877225935
 20
295.6948486787622
 30
0.0
 10
192.4071454960107
 20
295.8058849807174
 30
0.0
 10
192.3950975583211
 20
295.9100616799973
 30
0.0
 10
192.3849925442698
 20
296.0073587303839
 30
0.0
 10
192.3797789063957
 20
296.0699247254274
 30
0.0
 10
192.3772727272728
 20
296.0999999999999
 30
0.0
  0
LINE
  5
1D0
330
1F
100
AcDbEntity
  8
0
  6
Continuous
 62
     7
370
    25
100
AcDbLine
 10
192.8360795455
 20
293.1
 30
0.0
 11
192.4987215909
 21
295.1845170455
 31
0.0
  0
LINE
  5
1D1
330
1F
100
AcDbEntity
  8
0
  6
Continuous
 62
     7
370
    25
100
AcDbLine
 10
193.2032670455
 20
293.1
 30
0.0
 11
192.8360795455
 21
293.1
 31
0.0
  0
LINE
  5
1D2
330
1F
100
AcDbEntity
  8
0
  6
Continuous
 62
     7
370
    25
100
AcDbLine
 10
192.6677556818
 20
296.6
 30
0.0
 11
193.2032670455
 21
293.1
 31
0.0
  0
LINE
  5
1D3
330
1F
100
AcDbEntity
  8
0
  6
Continuous
 62
     7
370
    25
100
AcDbLine
 10
192.2032670455
 20
296.6
 30
0.0
 11
192.6677556818
 21
296.6
 31
0.0
  0
SPLINE
  5
1D4
330
1F
100
AcDbEntity
  8
0
  6
Continuous
 62
     7
370
    25
100
AcDbSpline
210
0.0
220
0.0
230
1.0
 70
     8
 71
     3
 72
    19
 73
    15
 74
     0
 42
0.000000001
 43
0.00000001
 40
0.0
 40
0.0
 40
0.0
 40
0.0
 40
0.0885780588079881
 40
0.1763653486433825
 40
0.2640477241599676
 40
0.3539282721747511
 40
0.4424674853295916
 40
0.5267236542612338
 40
0.6072594672863046
 40
0.6865691352123094
 40
0.765062182443555
 40
0.8422521071387927
 40
0.9200562976820019
 40
0.9999999999999999
 40
0.9999999999999999
 40
0.9999999999999999
 40
0.9999999999999999
 10
185.3090909090909
 20
295.511221590909
 30
0.0
 10
185.3109136541414
 20
295.5598750910132
 30
0.0
 10
185.3145428719257
 20
295.656747743497
 30
0.0
 10
185.342321178447
 20
295.7996220068483
 30
0.0
 10
185.3882424538985
 20
295.9382762238723
 30
0.0
 10
185.4521473402877
 20
296.0700092297819
 30
0.0
 10
185.5280971006853
 20
296.1930088702752
 30
0.0
 10
185.6167947732124
 20
296.3006061771813
 30
0.0
 10
185.7140078034114
 20
296.3935047078721
 30
0.0
 10
185.8222312270472
 20
296.4678916688635
 30
0.0
 10
185.9372104969863
 20
296.5272061738092
 30
0.0
 10
186.0586179426874
 20
296.5695078773518
 30
0.0
 10
186.1856222465825
 20
296.5950991486283
 30
0.0
 10
186.2722777713048
 20
296.5983516783465
 30
0.0
 10
186.3161931818182
 20
296.5999999999999
 30
0.0
  0
SPLINE
  5
1D5
330
1F
100
AcDbEntity
  8
0
  6
Continuous
 62
     7
370
    25
100
AcDbSpline
210
0.0
220
0.0
230
1.0
 70
     8
 71
     3
 72
    15
 73
    11
 74
     0
 42
0.000000001
 43
0.00000001
 40
0.0
 40
0.0
 40
0.0
 40
0.0
 40
0.1266079463577309
 40
0.2474347576742206
 40
0.365969468094178
 40
0.4846668520267472
 40
0.6055442235070001
 40
0.7298140232730589
 40
0.8602232911045051
 40
1.0
 40
1.0
 40
1.0
 40
1.0
 10
185.7458806818182
 20
294.8045454545453
 30
0.0
 10
185.7119191875184
 20
294.820311816841
 30
0.0
 10
185.6455469387453
 20
294.8511246224053
 30
0.0
 10
185.5572220742768
 20
294.9143636311011
 30
0.0
 10
185.4808556369334
 20
294.9879866470556
 30
0.0
 10
185.4178183808154
 20
295.0734805558362
 30
0.0
 10
185.3685859971421
 20
295.1694489692385
 30
0.0
 10
185.3338105276742
 20
295.2751106365236
 30
0.0
 10
185.3129674178702
 20
295.3901381882076
 30
0.0
 10
185.310412604109
 20
295.4699382250686
 30
0.0
 10
185.3090909090909
 20
295.511221590909
 30
0.0
  0
SPLINE
  5
1D6
330
1F
100
AcDbEntity
  8
0
  6
Continuous
 62
     7
370
    25
100
AcDbSpline
210
0.0
220
0.0
230
1.0
 70
     8
 71
     3
 72
    15
 73
    11
 74
     0
 42
0.000000001
 43
0.00000001
 40
0.0
 40
0.0
 40
0.0
 40
0.0
 40
0.1397365641356361
 40
0.2708504146265294
 40
0.3965724511891148
 40
0.5186775119245499
 40
0.6381937934848859
 40
0.7563043459892576
 40
0.8756267044711668
 40
1.0
 40
1.0
 40
1.0
 40
1.0
 10
185.2636363636364
 20
293.9508522727272
 30
0.0
 10
185.2650693966787
 20
293.9992478893219
 30
0.0
 10
185.2678470347014
 20
294.0930527778409
 30
0.0
 10
185.2912407689763
 20
294.2287466288907
 30
0.0
 10
185.3284122499681
 20
294.3548978081363
 30
0.0
 10
185.3820196247659
 20
294.4706777952759
 30
0.0
 10
185.4501854177196
 20
294.5755163756597
 30
0.0
 10
185.5345411917943
 20
294.6664536444987
 30
0.0
 10
185.6330309285742
 20
294.7449300340973
 30
0.0
 10
185.7077478924913
 20
294.7844009508736
 30
0.0
 10
185.7458806818182
 20
294.8045454545453
 30
0.0
  0
SPLINE
  5
1D7
330
1F
100
AcDbEntity
  8
0
  6
Continuous
 62
     7
370
    25
100
AcDbSpline
210
0.0
220
0.0
230
1.0
 70
     8
 71
     3
 72
    15
 73
    11
 74
     0
 42
0.000000001
 43
0.00000001
 40
0.0
 40
0.0
 40
0.0
 40
0.0
 40
0.1199282258095543
 40
0.2352687333574131
 40
0.3505073832312435
 40
0.467979539489162
 40
0.5897309334995223
 40
0.7176240374819272
 40
0.8533080888327768
 40
1.0
 40
1.0
 40
1.0
 40
1.0
 10
185.7458806818182
 20
293.1582386363635
 30
0.0
 10
185.7090039356738
 20
293.1732931400339
 30
0.0
 10
185.6366611214849
 20
293.2028262544108
 30
0.0
 10
185.5401525246793
 20
293.2688542163066
 30
0.0
 10
185.4559085257734
 20
293.3482422620617
 30
0.0
 10
185.3856396476755
 20
293.4431749997807
 30
0.0
 10
185.3310547546141
 20
293.5524499917944
 30
0.0
 10
185.2912260208284
 20
293.6741718395402
 30
0.0
 10
185.2676947305221
 20
293.8086144570132
 30
0.0
 10
185.2650238587885
 20
293.902223283453
 30
0.0
 10
185.2636363636364
 20
293.9508522727272
 30
0.0
  0
SPLINE
  5
1D8
330
1F
100
AcDbEntity
  8
0
  6
Continuous
 62
     7
370
    25
100
AcDbSpline
210
0.0
220
0.0
230
1.0
 70
     8
 71
     3
 72
    15
 73
    11
 74
     0
 42
0.000000001
 43
0.00000001
 40
0.0
 40
0.0
 40
0.0
 40
0.0
 40
0.1606672447813236
 40
0.3113075093114039
 40
0.4506262229304806
 40
0.5801012520897199
 40
0.6998506863181598
 40
0.8088578036716968
 40
0.9089061274206214
 40
1.0
 40
1.0
 40
1.0
 40
1.0
 10
186.2309659090909
 20
293.0999999999999
 30
0.0
 10
186.2046852539789
 20
293.1000798082063
 30
0.0
 10
186.1537640765034
 20
293.1002344439191
 30
0.0
 10
186.0800908821771
 20
293.103016811935
 30
0.0
 10
186.0116627340692
 20
293.108095609188
 30
0.0
 10
185.9484272212144
 20
293.1144572080999
 30
0.0
 10
185.890288015774
 20
293.1219113429607
 30
0.0
 10
185.8374059866684
 20
293.1318604500188
 30
0.0
 10
185.7897368273472
 20
293.1437883759062
 30
0.0
 10
185.760035591742
 20
293.1535747031181
 30
0.0
 10
185.7458806818182
 20
293.1582386363635
 30
0.0
  0
LINE
  5
1D9
330
1F
100
AcDbEntity
  8
0
  6
Continuous
 62
     7
370
    25
100
AcDbLine
 10
187.1265625
 20
293.1
 30
0.0
 11
186.2309659091
 21
293.1
 31
0.0
  0
LINE
  5
1DA
330
1F
100
AcDbEntity
  8
0
  6
Continuous
 62
     7
370
    25
100
AcDbLine
 10
187.7181818182
 20
296.6
 30
0.0
 11
187.1265625
 21
293.1
 31
0.0
  0
LINE
  5
1DB
330
1F
100
AcDbEntity
  8
0
  6
Continuous
 62
     7
370
    25
100
AcDbLine
 10
186.3161931818
 20
296.6
 30
0.0
 11
187.7181818182
 21
296.6
 31
0.0
  0
LINE
  5
1DC
330
1F
100
AcDbEntity
  8
0
  6
Continuous
 62
     7
370
    25
100
AcDbLine
 10
178.3964488636
 20
295.6454545455
 30
0.0
 11
178.8261363636
 21
296.6
 31
0.0
  0
LINE
  5
1DD
330
1F
100
AcDbEntity
  8
0
  6
Continuous
 62
     7
370
    25
100
AcDbLine
 10
177.1535511364
 20
295.6454545455
 30
0.0
 11
178.3964488636
 21
295.6454545455
 31
0.0
  0
LINE
  5
1DE
330
1F
100
AcDbEntity
  8
0
  6
Continuous
 62
     7
370
    25
100
AcDbLine
 10
177.0363636364
 20
296.6
 30
0.0
 11
177.1535511364
 21
295.6454545455
 31
0.0
  0
LINE
  5
1DF
330
1F
100
AcDbEntity
  8
0
  6
Continuous
 62
     7
370
    25
100
AcDbLine
 10
176.6705965909
 20
296.6
 30
0.0
 11
177.0363636364
 21
296.6
 31
0.0
  0
LINE
  5
1E0
330
1F
100
AcDbEntity
  8
0
  6
Continuous
 62
     7
370
    25
100
AcDbLine
 10
177.15
 20
293.1
 30
0.0
 11
176.6705965909
 21
296.6
 31
0.0
  0
LINE
  5
1E1
330
1F
100
AcDbEntity
  8
0
  6
Continuous
 62
     7
370
    25
100
AcDbLine
 10
177.5946022727
 20
293.1
 30
0.0
 11
177.15
 21
293.1
 31
0.0
  0
LINE
  5
1E2
330
1F
100
AcDbEntity
  8
0
  6
Continuous
 62
     7
370
    25
100
AcDbLine
 10
179.2203125
 20
296.6
 30
0.0
 11
177.5946022727
 21
293.1
 31
0.0
  0
LINE
  5
1E3
330
1F
100
AcDbEntity
  8
0
  6
Continuous
 62
     7
370
    25
100
AcDbLine
 10
178.8261363636
 20
296.6
 30
0.0
 11
179.2203125
 21
296.6
 31
0.0
  0
SPLINE
  5
1E4
330
1F
100
AcDbEntity
  8
0
  6
Continuous
 62
     7
370
    25
100
AcDbSpline
210
0.0
220
0.0
230
1.0
 70
     8
 71
     3
 72
    31
 73
    27
 74
     0
 42
0.000000001
 43
0.00000001
 40
0.0
 40
0.0
 40
0.0
 40
0.0
 40
0.0517952777530688
 40
0.1027059929816704
 40
0.1523631572913477
 40
0.2014101515657457
 40
0.2497463249649669
 40
0.2974554366623605
 40
0.3448452138587226
 40
0.392008953055648
 40
0.4383222843616497
 40
0.4829040335041052
 40
0.5259902873728431
 40
0.5675157157543348
 40
0.6078447330163521
 40
0.6469627677216186
 40
0.6854328466641008
 40
0.7231187995704224
 40
0.7601799669682293
 40
0.79602298339578
 40
0.8308293117986164
 40
0.8653586757878794
 40
0.8990131680465293
 40
0.9327972666946309
 40
0.9663824943586458
 40
1.0
 40
1.0
 40
1.0
 40
1.0
 10
182.0818181818182
 20
294.612784090909
 30
0.0
 10
182.0824935958633
 20
294.6613353289011
 30
0.0
 10
182.0838328891962
 20
294.7576086442456
 30
0.0
 10
182.0947144939207
 20
294.9000957968825
 30
0.0
 10
182.11247462759
 20
295.0392480877636
 30
0.0
 10
182.1371766767196
 20
295.1749175442495
 30
0.0
 10
182.1694236698823
 20
295.3070903347759
 30
0.0
 10
182.2073965995281
 20
295.4361307996488
 30
0.0
 10
182.2537829836921
 20
295.5612599824262
 30
0.0
 10
182.3071690449828
 20
295.6820697475195
 30
0.0
 10
182.3646506090642
 20
295.7980769069158
 30
0.0
 10
182.4275188719436
 20
295.9068636080697
 30
0.0
 10
182.4932618945387
 20
296.0086315331129
 30
0.0
 10
182.5631862071244
 20
296.1026640832162
 30
0.0
 10
182.6361551703936
 20
296.1895547326501
 30
0.0
 10
182.7132745276552
 20
296.2688600411632
 30
0.0
 10
182.7941149144365
 20
296.3407067956476
 30
0.0
 10
182.8789413823137
 20
296.4046375072818
 30
0.0
 10
182.9658979371011
 20
296.4611885365155
 30
0.0
 10
183.0541109713444
 20
296.5104585687167
 30
0.0
 10
183.1436038926641
 20
296.5520250662701
 30
0.0
 10
183.23405588792
 20
296.5860058944175
 30
0.0
 10
183.3259602544928
 20
296.6125974678856
 30
0.0
 10
183.4187756468971
 20
296.6317244564325
 30
0.0
 10
183.5128551776253
 20
296.6435583784738
 30
0.0
 10
183.5758658801282
 20
296.6448222874393
 30
0.0
 10
183.6073863636364
 20
296.6454545454544
 30
0.0
  0
SPLINE
  5
1E5
330
1F
100
AcDbEntity
  8
0
  6
Continuous
 62
     7
370
    25
100
AcDbSpline
210
0.0
220
0.0
230
1.0
 70
     8
 71
     3
 72
    23
 73
    19
 74
     0
 42
0.000000001
 43
0.00000001
 40
0.0
 40
0.0
 40
0.0
 40
0.0
 40
0.0572634327750009
 40
0.1125680570640923
 40
0.1669845284142369
 40
0.2207415784534418
 40
0.2751039573987254
 40
0.3304580237118293
 40
0.3875842853978116
 40
0.4471512336609398
 40
0.5081971405965227
 40
0.5705729247016903
 40
0.6343933180777902
 40
0.7008523166253902
 40
0.770128303681998
 40
0.8428097211193443
 40
0.9193141925768288
 40
1.0
 40
1.0
 40
1.0
 40
1.0
 10
183.290625
 20
293.0545454545453
 30
0.0
 10
183.2484144446402
 20
293.0557419335798
 30
0.0
 10
183.165437229091
 20
293.0580939637271
 30
0.0
 10
183.0435587863674
 20
293.0776486656513
 30
0.0
 10
182.9274964946146
 20
293.1106384955987
 30
0.0
 10
182.8160844764207
 20
293.1553877061515
 30
0.0
 10
182.7108446079787
 20
293.2145072915314
 30
0.0
 10
182.6097350017992
 20
293.2848699226374
 30
0.0
 10
182.5152542593467
 20
293.3697874840491
 30
0.0
 10
182.4259301248946
 20
293.4657991092451
 30
0.0
 10
182.3447642969461
 20
293.5738341739469
 30
0.0
 10
182.2746663703716
 20
293.6929555383531
 30
0.0
 10
182.2145614106877
 20
293.8217899163851
 30
0.0
 10
182.1656247799914
 20
293.960697870386
 30
0.0
 10
182.1282879029211
 20
294.1098602278385
 30
0.0
 10
182.1015965813964
 20
294.2687291427205
 30
0.0
 10
182.0850118183052
 20
294.4374809178424
 30
0.0
 10
182.0829014396714
 20
294.5533225524143
 30
0.0
 10
182.0818181818182
 20
294.612784090909
 30
0.0
  0
SPLINE
  5
1E6
330
1F
100
AcDbEntity
  8
0
  6
Continuous
 62
     7
370
    25
100
AcDbSpline
210
0.0
220
0.0
230
1.0
 70
     8
 71
     3
 72
    15
 73
    11
 74
     0
 42
0.000000001
 43
0.00000001
 40
0.0
 40
0.0
 40
0.0
 40
0.0
 40
0.1366486092688848
 40
0.2673174602160044
 40
0.3924622863728368
 40
0.5145038537149257
 40
0.6343492826296394
 40
0.7539910928012371
 40
0.8757134371801416
 40
1.0
 40
1.0
 40
1.0
 40
1.0
 10
184.3296875
 20
293.5829545454544
 30
0.0
 10
184.2940847784846
 20
293.5409586235184
 30
0.0
 10
184.2244373145022
 20
293.4588045258556
 30
0.0
 10
184.1077627689947
 20
293.3517203518612
 30
0.0
 10
183.9865139284104
 20
293.2594774130395
 30
0.0
 10
183.8588245607544
 20
293.1843693341282
 30
0.0
 10
183.7249213809021
 20
293.1264033294623
 30
0.0
 10
183.5852200655676
 20
293.0850430027026
 30
0.0
 10
183.4397600962359
 20
293.0594814724926
 30
0.0
 10
183.3406809418295
 20
293.0562021874907
 30
0.0
 10
183.290625
 20
293.0545454545453
 30
0.0
  0
SPLINE
  5
1E7
330
1F
100
AcDbEntity
  8
0
  6
Continuous
 62
     7
370
    25
100
AcDbSpline
210
0.0
220
0.0
230
1.0
 70
     8
 71
     3
 72
    15
 73
    11
 74
     0
 42
0.000000001
 43
0.00000001
 40
0.0
 40
0.0
 40
0.0
 40
0.0
 40
0.1409754907900348
 40
0.2756587093978882
 40
0.4052540319038679
 40
0.5296609519050449
 40
0.6505885197244335
 40
0.7685867380843178
 40
0.8846940504466452
 40
0.9999999999999999
 40
0.9999999999999999
 40
0.9999999999999999
 40
0.9999999999999999
 10
184.8090909090909
 20
295.1319602272726
 30
0.0
 10
184.8075308286449
 20
295.0542581528229
 30
0.0
 10
184.8044803000749
 20
294.9023221429512
 30
0.0
 10
184.7823892728098
 20
294.6798090934867
 30
0.0
 10
184.7450591983026
 20
294.4686544854424
 30
0.0
 10
184.6923705132187
 20
294.2686096515806
 30
0.0
 10
184.6250755793061
 20
294.0797078513357
 30
0.0
 10
184.5422515415146
 20
293.9021896942708
 30
0.0
 10
184.445429777717
 20
293.7351936351874
 30
0.0
 10
184.3681790885656
 20
293.6335836199912
 30
0.0
 10
184.3296875
 20
293.5829545454544
 30
0.0
  0
SPLINE
  5
1E8
330
1F
100
AcDbEntity
  8
0
  6
Continuous
 62
     7
370
    25
100
AcDbSpline
210
0.0
220
0.0
230
1.0
 70
     8
 71
     3
 72
    31
 73
    27
 74
     0
 42
0.000000001
 43
0.00000001
 40
0.0
 40
0.0
 40
0.0
 40
0.0
 40
0.0378713464109286
 40
0.0752373637875362
 40
0.111710005335761
 40
0.1480293779298885
 40
0.183727577942137
 40
0.2198555742787955
 40
0.2560644308236263
 40
0.2926970928545353
 40
0.329694590012915
 40
0.3673249162395028
 40
0.4054911409512013
 40
0.4446574501178597
 40
0.4850732355790509
 40
0.5267893868923015
 40
0.569693424013283
 40
0.6144400279784297
 40
0.660120949823431
 40
0.7064610481271778
 40
0.7528957169671189
 40
0.8002348284767892
 40
0.8487179112267822
 40
0.8978269804014998
 40
0.9483118590111305
 40
1.0
 40
1.0
 40
1.0
 40
1.0
 10
183.6073863636364
 20
296.6454545454544
 30
0.0
 10
183.6346240402139
 20
296.6448246602495
 30
0.0
 10
183.6887359526648
 20
296.6435732945919
 30
0.0
 10
183.7688633724446
 20
296.6361408780627
 30
0.0
 10
183.8467940636351
 20
296.6213530907517
 30
0.0
 10
183.9225383803656
 20
296.6024202819252
 30
0.0
 10
183.9965967564183
 20
296.5782843483909
 30
0.0
 10
184.0680113686918
 20
296.5474291110771
 30
0.0
 10
184.1379645195339
 20
296.5119633153201
 30
0.0
 10
184.2055677265053
 20
296.470846433952
 30
0.0
 10
184.2700431288822
 20
296.4233699799903
 30
0.0
 10
184.3332043259655
 20
296.3722467186807
 30
0.0
 10
184.3908968004314
 20
296.31286198819
 30
0.0
 10
184.4478735851361
 20
296.2500980256209
 30
0.0
 10
184.4996195589823
 20
296.1797400045622
 30
0.0
 10
184.5508021543029
 20
296.1057139319809
 30
0.0
 10
184.5964090854616
 20
296.0244978602067
 30
0.0
 10
184.6405757938799
 20
295.9393421334227
 30
0.0
 10
184.680199871865
 20
295.8492109309482
 30
0.0
 10
184.7148816069818
 20
295.7557963592142
 30
0.0
 10
184.7443038895538
 20
295.6593235724465
 30
0.0
 10
184.7675302887625
 20
295.5595982940247
 30
0.0
 10
184.7858251770723
 20
295.4569262831186
 30
0.0
 10
184.7995805966386
 20
295.3512546575683
 30
0.0
 10
184.8072908395633
 20
295.2426349150053
 30
0.0
 10
184.8084861934683
 20
295.1691402981988
 30
0.0
 10
184.8090909090909
 20
295.1319602272726
 30
0.0
  0
LINE
  5
1E9
330
1F
100
AcDbEntity
  8
0
  6
Continuous
 62
     7
370
    25
100
AcDbLine
 10
170.2245738636
 20
296.1
 30
0.0
 11
170.3090909091
 21
296.6
 31
0.0
  0
LINE
  5
1EA
330
1F
100
AcDbEntity
  8
0
  6
Continuous
 62
     7
370
    25
100
AcDbLine
 10
170.5967329545
 20
296.1
 30
0.0
 11
170.2245738636
 21
296.1
 31
0.0
  0
LINE
  5
1EB
330
1F
100
AcDbEntity
  8
0
  6
Continuous
 62
     7
370
    25
100
AcDbLine
 10
170.6727272727
 20
296.6
 30
0.0
 11
170.5967329545
 21
296.1
 31
0.0
  0
LINE
  5
1EC
330
1F
100
AcDbEntity
  8
0
  6
Continuous
 62
     7
370
    25
100
AcDbLine
 10
170.3090909091
 20
296.6
 30
0.0
 11
170.6727272727
 21
296.6
 31
0.0
  0
LINE
  5
1ED
330
1F
100
AcDbEntity
  8
0
  6
Continuous
 62
     7
370
    25
100
AcDbLine
 10
172.6791193182
 20
296.1
 30
0.0
 11
172.7636363636
 21
296.6
 31
0.0
  0
LINE
  5
1EE
330
1F
100
AcDbEntity
  8
0
  6
Continuous
 62
     7
370
    25
100
AcDbLine
 10
173.0512784091
 20
296.1
 30
0.0
 11
172.6791193182
 21
296.1
 31
0.0
  0
LINE
  5
1EF
330
1F
100
AcDbEntity
  8
0
  6
Continuous
 62
     7
370
    25
100
AcDbLine
 10
173.1272727273
 20
296.6
 30
0.0
 11
173.0512784091
 21
296.1
 31
0.0
  0
LINE
  5
1F0
330
1F
100
AcDbEntity
  8
0
  6
Continuous
 62
     7
370
    25
100
AcDbLine
 10
172.7636363636
 20
296.6
 30
0.0
 11
173.1272727273
 21
296.6
 31
0.0
  0
SPLINE
  5
1F1
330
1F
100
AcDbEntity
  8
0
  6
Continuous
 62
     7
370
    25
100
AcDbSpline
210
0.0
220
0.0
230
1.0
 70
     8
 71
     3
 72
    23
 73
    19
 74
     0
 42
0.000000001
 43
0.00000001
 40
0.0
 40
0.0
 40
0.0
 40
0.0
 40
0.088578627365613
 40
0.1717665497732648
 40
0.2498123554470599
 40
0.323733375020209
 40
0.3932168337134456
 40
0.4589936296702756
 40
0.5214195023544687
 40
0.5821336346096065
 40
0.6394591842730619
 40
0.6945708264409699
 40
0.7470134211878542
 40
0.7981624927207642
 40
0.8482356651202855
 40
0.8977697234125945
 40
0.9482073959699505
 40
1.0
 40
1.0
 40
1.0
 40
1.0
 10
167.9000000000001
 20
295.0715909090908
 30
0.0
 10
167.9003142450861
 20
295.0419812575158
 30
0.0
 10
167.9009236109773
 20
294.9845639341469
 30
0.0
 10
167.9083065359368
 20
294.9013342474512
 30
0.0
 10
167.9194993589891
 20
294.8235077122436
 30
0.0
 10
167.9350172894914
 20
294.751092812385
 30
0.0
 10
167.9545796782806
 20
294.6838769981496
 30
0.0
 10
167.9796114014901
 20
294.6226292234032
 30
0.0
 10
168.0087398625774
 20
294.5664831710334
 30
0.0
 10
168.042732133662
 20
294.5165262258416
 30
0.0
 10
168.0798142163934
 20
294.4719484962091
 30
0.0
 10
168.1197485389731
 20
294.4339036846454
 30
0.0
 10
168.1609164339797
 20
294.4002007486892
 30
0.0
 10
168.2055344543681
 20
294.3745731371937
 30
0.0
 10
168.2508309105169
 20
294.3521384789983
 30
0.0
 10
168.2993089082866
 20
294.3387084223248
 30
0.0
 10
168.3491510477638
 20
294.3285704979452
 30
0.0
 10
168.3833726462736
 20
294.327709122971
 30
0.0
 10
168.4007102272728
 20
294.3272727272726
 30
0.0
  0
SPLINE
  5
1F2
330
1F
100
AcDbEntity
  8
0
  6
Continuous
 62
     7
370
    25
100
AcDbSpline
210
0.0
220
0.0
230
1.0
 70
     8
 71
     3
 72
    23
 73
    19
 74
     0
 42
0.000000001
 43
0.00000001
 40
0.0
 40
0.0
 40
0.0
 40
0.0
 40
0.053424878812051
 40
0.1094776745490436
 40
0.1691115031767313
 40
0.2346182880819572
 40
0.2697522345685139
 40
0.3067365855413125
 40
0.3457606475791339
 40
0.3871708766523057
 40
0.4313131166952671
 40
0.4778805983088644
 40
0.5274191677239694
 40
0.5798297631974514
 40
0.6861612429797431
 40
0.7910273572963177
 40
0.8953390052638516
 40
1.0
 40
1.0
 40
1.0
 40
1.0
 10
168.6677556818182
 20
296.3272727272726
 30
0.0
 10
168.6391565264942
 20
296.3256079122227
 30
0.0
 10
168.5805514516946
 20
296.3221963915179
 30
0.0
 10
168.4937220444043
 20
296.2940403085279
 30
0.0
 10
168.4075623594719
 20
296.2494290198272
 30
0.0
 10
168.3370384067949
 20
296.2002263998098
 30
0.0
 10
168.2821368822625
 20
296.1511217073214
 30
0.0
 10
168.242005505699
 20
296.1072741348631
 30
0.0
 10
168.2015507301492
 20
296.0592126900564
 30
0.0
 10
168.1645134590197
 20
296.0037975168976
 30
0.0
 10
168.1272063276603
 20
295.9438189377354
 30
0.0
 10
168.0928403830104
 20
295.8771489838745
 30
0.0
 10
168.0585785847584
 20
295.8055463030444
 30
0.0
 10
168.0153750279731
 20
295.7029253784369
 30
0.0
 10
167.9693915144016
 20
295.5695236252177
 30
0.0
 10
167.9296603372282
 20
295.4054820689394
 30
0.0
 10
167.9042859665051
 20
295.2392866638829
 30
0.0
 10
167.9014302468367
 20
295.1275517577193
 30
0.0
 10
167.9000000000001
 20
295.0715909090908
 30
0.0
  0
SPLINE
  5
1F3
330
1F
100
AcDbEntity
  8
0
  6
Continuous
 62
     7
370
    25
100
AcDbSpline
210
0.0
220
0.0
230
1.0
 70
     8
 71
     3
 72
    23
 73
    19
 74
     0
 42
0.000000001
 43
0.00000001
 40
0.0
 40
0.0
 40
0.0
 40
0.0
 40
0.0881844926297955
 40
0.1716697626267751
 40
0.2492911852220304
 40
0.322781605915886
 40
0.3920406632923368
 40
0.4573946107644651
 40
0.5194151872373396
 40
0.5791736687483022
 40
0.6361612253081215
 40
0.6909787473269143
 40
0.7431699809285582
 40
0.7945018801205307
 40
0.8448193721053728
 40
0.8954173539747735
 40
0.9473123613877378
 40
1.0
 40
1.0
 40
1.0
 40
1.0
 10
169.1727272727273
 20
295.5921874999999
 30
0.0
 10
169.1724019447855
 20
295.6215592011135
 30
0.0
 10
169.1717686251522
 20
295.6787374283477
 30
0.0
 10
169.1644943980787
 20
295.7615108848078
 30
0.0
 10
169.1531536464444
 20
295.8388326664814
 30
0.0
 10
169.1379504163623
 20
295.9107061573034
 30
0.0
 10
169.1172525913282
 20
295.9769481366683
 30
0.0
 10
169.0924251830809
 20
296.0376062624909
 30
0.0
 10
169.0634779889723
 20
296.0929655952468
 30
0.0
 10
169.0290546377431
 20
296.141678422971
 30
0.0
 10
168.992203451899
 20
296.1854553938245
 30
0.0
 10
168.9523014619693
 20
296.2228872701365
 30
0.0
 10
168.9108090991008
 20
296.2555469799687
 30
0.0
 10
168.8667497505226
 20
296.2820475309706
 30
0.0
 10
168.8199155978592
 20
296.3017289390639
 30
0.0
 10
168.7713394590023
 20
296.3172295767345
 30
0.0
 10
168.7201281240958
 20
296.3255844921464
 30
0.0
 10
168.6853011470555
 20
296.3267071460351
 30
0.0
 10
168.6677556818182
 20
296.3272727272726
 30
0.0
  0
SPLINE
  5
1F4
330
1F
100
AcDbEntity
  8
0
  6
Continuous
 62
     7
370
    25
100
AcDbSpline
210
0.0
220
0.0
230
1.0
 70
     8
 71
     3
 72
    23
 73
    19
 74
     0
 42
0.000000001
 43
0.00000001
 40
0.0
 40
0.0
 40
0.0
 40
0.0
 40
0.0565773340948678
 40
0.114643471483666
 40
0.1753838366757026
 40
0.240789567867563
 40
0.2754624472849138
 40
0.3122204355087029
 40
0.3504134675726098
 40
0.3908758971688491
 40
0.4337902850947111
 40
0.4791060516064612
 40
0.52659589575588
 40
0.5773601131623444
 40
0.6816250494067014
 40
0.7858790107796628
 40
0.8920470796367247
 40
1.0
 40
1.0
 40
1.0
 40
1.0
 10
168.4007102272728
 20
294.3272727272726
 30
0.0
 10
168.4314106072223
 20
294.3289727622492
 30
0.0
 10
168.4936192317464
 20
294.3324175677437
 30
0.0
 10
168.5857607115333
 20
294.3591862344019
 30
0.0
 10
168.6752891566427
 20
294.4040853310677
 30
0.0
 10
168.7479237595383
 20
294.4528463812069
 30
0.0
 10
168.804223248827
 20
294.5013204473223
 30
0.0
 10
168.8449852619457
 20
294.5446917919732
 30
0.0
 10
168.884317243692
 20
294.5934154860676
 30
0.0
 10
168.9218842558114
 20
294.6476244959734
 30
0.0
 10
168.958178968817
 20
294.7072631433993
 30
0.0
 10
168.9920111732743
 20
294.7726539004055
 30
0.0
 10
169.0241658248831
 20
294.8435694401026
 30
0.0
 10
169.0645542901183
 20
294.9456796966071
 30
0.0
 10
169.1088459713368
 20
295.079334467039
 30
0.0
 10
169.145206632249
 20
295.2462176113169
 30
0.0
 10
169.1691251265334
 20
295.4174854292108
 30
0.0
 10
169.1715199032707
 20
295.5336307582893
 30
0.0
 10
169.1727272727273
 20
295.5921874999999
 30
0.0
  0
SPLINE
  5
1F5
330
1F
100
AcDbEntity
  8
0
  6
Continuous
 62
     7
370
    25
100
AcDbSpline
210
0.0
220
0.0
230
1.0
 70
     8
 71
     3
 72
    15
 73
    11
 74
     0
 42
0.000000001
 43
0.00000001
 40
0.0
 40
0.0
 40
0.0
 40
0.0
 40
0.1177275761199053
 40
0.2337686221826907
 40
0.3509645643764772
 40
0.4701001219487888
 40
0.5935383012539037
 40
0.7220435396388002
 40
0.8569583974414975
 40
1.0
 40
1.0
 40
1.0
 40
1.0
 10
183.3026988636364
 20
293.4636363636363
 30
0.0
 10
183.3366256907662
 20
293.4649667283732
 30
0.0
 10
183.4039933194439
 20
293.4676083994395
 30
0.0
 10
183.5038442037882
 20
293.4857871221378
 30
0.0
 10
183.6008444943393
 20
293.5165923017931
 30
0.0
 10
183.6953205714201
 20
293.559812955806
 30
0.0
 10
183.7872690209945
 20
293.6148022587964
 30
0.0
 10
183.8762810549013
 20
293.6821958092071
 30
0.0
 10
183.9627708417775
 20
293.761479711938
 30
0.0
 10
184.0160483203566
 20
293.8213303975716
 30
0.0
 10
184.0434659090909
 20
293.8521306818181
 30
0.0
  0
SPLINE
  5
1F6
330
1F
100
AcDbEntity
  8
0
  6
Continuous
 62
     7
370
    25
100
AcDbSpline
210
0.0
220
0.0
230
1.0
 70
     8
 71
     3
 72
    31
 73
    27
 74
     0
 42
0.000000001
 43
0.00000001
 40
0.0
 40
0.0
 40
0.0
 40
0.0
 40
0.0301756518175108
 40
0.0602932964483566
 40
0.0908028780173975
 40
0.1217410141489674
 40
0.1536658708313841
 40
0.1866556031144479
 40
0.2205936461813664
 40
0.2559100790264969
 40
0.2924251345961459
 40
0.3298624081485462
 40
0.3689121943544745
 40
0.4095877027264636
 40
0.4520232120824418
 40
0.4961916846599386
 40
0.5426783412182848
 40
0.5914668601692772
 40
0.6412571298571992
 40
0.6908580015722809
 40
0.7412132124616361
 40
0.791552078236256
 40
0.8426454606106213
 40
0.8940039102596157
 40
0.9467438101360458
 40
1.0
 40
1.0
 40
1.0
 40
1.0
 10
183.5811079545455
 20
296.2363636363635
 30
0.0
 10
183.5588148144703
 20
296.2359059550903
 30
0.0
 10
183.5142713888156
 20
296.2349914723526
 30
0.0
 10
183.4478979383967
 20
296.2247886988631
 30
0.0
 10
183.3816466234628
 20
296.2111772642951
 30
0.0
 10
183.315860551364
 20
296.1901733489872
 30
0.0
 10
183.2505156709874
 20
296.1629038213059
 30
0.0
 10
183.1851459878071
 20
296.1303309200592
 30
0.0
 10
183.1203535155747
 20
296.0915232535771
 30
0.0
 10
183.0556413434017
 20
296.0477578452133
 30
0.0
 10
182.9924730599193
 20
295.9974432301514
 30
0.0
 10
182.9318083287247
 20
295.9400769185817
 30
0.0
 10
182.8734285571179
 20
295.8761441345574
 30
0.0
 10
182.8183283468298
 20
295.8046755959368
 30
0.0
 10
182.7648970655774
 20
295.7273379728392
 30
0.0
 10
182.7144842743496
 20
295.6429486947105
 30
0.0
 10
182.6661281819958
 20
295.5520396078253
 30
0.0
 10
182.6211262746647
 20
295.454809392215
 30
0.0
 10
182.5804610314569
 20
295.3532385884342
 30
0.0
 10
182.543561784746
 20
295.2489857773653
 30
0.0
 10
182.5134805566775
 20
295.1421331338433
 30
0.0
 10
182.4883405115668
 20
295.0329047210254
 30
0.0
 10
182.4692919104865
 20
294.9216758448837
 30
0.0
 10
182.4559586856141
 20
294.8078716255497
 30
0.0
 10
182.4470401531536
 20
294.6919979718743
 30
0.0
 10
182.445984794848
 20
294.6137475844501
 30
0.0
 10
182.4454545454546
 20
294.5744318181817
 30
0.0
  0
SPLINE
  5
1F7
330
1F
100
AcDbEntity
  8
0
  6
Continuous
 62
     7
370
    25
100
AcDbSpline
210
0.0
220
0.0
230
1.0
 70
     8
 71
     3
 72
    23
 73
    19
 74
     0
 42
0.000000001
 43
0.00000001
 40
0.0
 40
0.0
 40
0.0
 40
0.0
 40
0.0780325357412824
 40
0.152298527071777
 40
0.2236497358165491
 40
0.2920865500904326
 40
0.3578578370732179
 40
0.4224800794262345
 40
0.4861311448502704
 40
0.5491776410002758
 40
0.6108387757840074
 40
0.6697010909339814
 40
0.7262272621469509
 40
0.7814770110557905
 40
0.8355720682872135
 40
0.8895736835765924
 40
0.9444009501337873
 40
1.0
 40
1.0
 40
1.0
 40
1.0
 10
184.4454545454546
 20
295.149005681818
 30
0.0
 10
184.4446288911158
 20
295.1892837589878
 30
0.0
 10
184.4430174358623
 20
295.2678957349789
 30
0.0
 10
184.4306693091008
 20
295.3828023384331
 30
0.0
 10
184.411000844598
 20
295.491597804998
 30
0.0
 10
184.3836460194248
 20
295.5942504044799
 30
0.0
 10
184.347174987664
 20
295.6903913454569
 30
0.0
 10
184.3019208074909
 20
295.7798426546993
 30
0.0
 10
184.2506841692671
 20
295.8644951174903
 30
0.0
 10
184.1896339160614
 20
295.9403666322388
 30
0.0
 10
184.1253404126232
 20
296.0101291119071
 30
0.0
 10
184.0557607210275
 20
296.0696034389494
 30
0.0
 10
183.9845902377957
 20
296.1216505888067
 30
0.0
 10
183.9098302675843
 20
296.1638686761137
 30
0.0
 10
183.8316025975569
 20
296.195716110451
 30
0.0
 10
183.7508696144444
 20
296.2198131041057
 30
0.0
 10
183.6667743997935
 20
296.2331285685685
 30
0.0
 10
183.6097961789274
 20
296.2352802676008
 30
0.0
 10
183.5811079545455
 20
296.2363636363635
 30
0.0
  0
SPLINE
  5
1F8
330
1F
100
AcDbEntity
  8
0
  6
Continuous
 62
     7
370
    25
100
AcDbSpline
210
0.0
220
0.0
230
1.0
 70
     8
 71
     3
 72
    15
 73
    11
 74
     0
 42
0.000000001
 43
0.00000001
 40
0.0
 40
0.0
 40
0.0
 40
0.0
 40
0.1130347842828604
 40
0.2268334822110524
 40
0.3435029415735574
 40
0.4639328931901981
 40
0.5883359110333789
 40
0.7189972985797175
 40
0.8559435506265441
 40
1.0
 40
1.0
 40
1.0
 40
1.0
 10
184.0434659090909
 20
293.8521306818181
 30
0.0
 10
184.0758645208575
 20
293.8931464710653
 30
0.0
 10
184.1408807012523
 20
293.9754552431803
 30
0.0
 10
184.2226545469717
 20
294.1120065461859
 30
0.0
 10
184.2913958298028
 20
294.2590445609847
 30
0.0
 10
184.3485827903812
 20
294.4162682428009
 30
0.0
 10
184.3912375520211
 20
294.5846522060735
 30
0.0
 10
184.4235559176669
 20
294.7630176977663
 30
0.0
 10
184.4417421203778
 20
294.9526052330933
 30
0.0
 10
184.4441963705061
 20
295.0824437662686
 30
0.0
 10
184.4454545454546
 20
295.149005681818
 30
0.0
  0
SPLINE
  5
1F9
330
1F
100
AcDbEntity
  8
0
  6
Continuous
 62
     7
370
    25
100
AcDbSpline
210
0.0
220
0.0
230
1.0
 70
     8
 71
     3
 72
    23
 73
    19
 74
     0
 42
0.000000001
 43
0.00000001
 40
0.0
 40
0.0
 40
0.0
 40
0.0
 40
0.0802326734030906
 40
0.1566863913389094
 40
0.2289346548216614
 40
0.2981581398344712
 40
0.3650796822572312
 40
0.4297252619193067
 40
0.4925024487413904
 40
0.5545694486634429
 40
0.61515556155024
 40
0.6729060019049435
 40
0.7287300999690444
 40
0.7826770297091762
 40
0.8362747229524131
 40
0.8900406382016057
 40
0.9441869325498208
 40
1.0
 40
1.0
 40
1.0
 40
1.0
 10
182.4454545454546
 20
294.5744318181817
 30
0.0
 10
182.4463829772571
 20
294.5325090586414
 30
0.0
 10
182.4481961117642
 20
294.4506380997323
 30
0.0
 10
182.4590704893877
 20
294.3313398375086
 30
0.0
 10
182.4794527750647
 20
294.2191924472883
 30
0.0
 10
182.505891933239
 20
294.1134295091167
 30
0.0
 10
182.541467176385
 20
294.0145078208993
 30
0.0
 10
182.5850094992431
 20
293.9226212530975
 30
0.0
 10
182.635331469501
 20
293.8371050007004
 30
0.0
 10
182.6945370004541
 20
293.7601269516479
 30
0.0
 10
182.7587713656784
 20
293.6909747680752
 30
0.0
 10
182.8264785089901
 20
293.6299498035024
 30
0.0
 10
182.897535568549
 20
293.5784674632245
 30
0.0
 10
182.9723438887712
 20
293.5369670477245
 30
0.0
 10
183.0500820066597
 20
293.5039288805148
 30
0.0
 10
183.1313402033445
 20
293.4803655889012
 30
0.0
 10
183.2160676530748
 20
293.4667542514522
 30
0.0
 10
183.2735314464713
 20
293.464686109265
 30
0.0
 10
183.3026988636364
 20
293.4636363636363
 30
0.0
  0
LINE
  5
1FA
330
1F
100
AcDbEntity
  8
0
  6
Continuous
 62
     7
370
    25
100
AcDbLine
 10
186.3098011364
 20
295.0090909091
 30
0.0
 11
187.0811079545
 21
295.0090909091
 31
0.0
  0
SPLINE
  5
1FB
330
1F
100
AcDbEntity
  8
0
  6
Continuous
 62
     7
370
    25
100
AcDbSpline
210
0.0
220
0.0
230
1.0
 70
     8
 71
     3
 72
    23
 73
    19
 74
     0
 42
0.000000001
 43
0.00000001
 40
0.0
 40
0.0
 40
0.0
 40
0.0
 40
0.0662661988515362
 40
0.1290617423589543
 40
0.1874385509259982
 40
0.2425684890684792
 40
0.2947445471778669
 40
0.3452673825337235
 40
0.3944888823328487
 40
0.4434743630314711
 40
0.4941803771812259
 40
0.5489940798001305
 40
0.6094961447347381
 40
0.6743257828968673
 40
0.7456865948809663
 40
0.8239599365103282
 40
0.9086240974616161
 40
1.0
 40
1.0
 40
1.0
 40
1.0
 10
185.6727272727273
 20
295.5012784090908
 30
0.0
 10
185.6731373188373
 20
295.4806683014421
 30
0.0
 10
185.6739359351203
 20
295.4405275290807
 30
0.0
 10
185.6800568679973
 20
295.382453797505
 30
0.0
 10
185.6914962679682
 20
295.3287256487691
 30
0.0
 10
185.707250185648
 20
295.2795956922023
 30
0.0
 10
185.7262001742986
 20
295.2342295191161
 30
0.0
 10
185.7502641527353
 20
295.1933047826175
 30
0.0
 10
185.7801705007452
 20
295.1578644184682
 30
0.0
 10
185.8129136389921
 20
295.1249787465739
 30
0.0
 10
185.8521303638839
 20
295.0967616643828
 30
0.0
 10
185.8984729081965
 20
295.0737162514388
 30
0.0
 10
185.9506523480021
 20
295.0531090383685
 30
0.0
 10
186.0097598787204
 20
295.0369487069655
 30
0.0
 10
186.0753011853585
 20
295.0243660872577
 30
0.0
 10
186.1476391434515
 20
295.0151256924272
 30
0.0
 10
186.2266477311719
 20
295.0106110760486
 30
0.0
 10
186.2813876591828
 20
295.0096103493839
 30
0.0
 10
186.3098011363636
 20
295.0090909090908
 30
0.0
  0
SPLINE
  5
1FC
330
1F
100
AcDbEntity
  8
0
  6
Continuous
 62
     7
370
    25
100
AcDbSpline
210
0.0
220
0.0
230
1.0
 70
     8
 71
     3
 72
    15
 73
    11
 74
     0
 42
0.000000001
 43
0.00000001
 40
0.0
 40
0.0
 40
0.0
 40
0.0
 40
0.1797515631756796
 40
0.3437483816151857
 40
0.4919479394321437
 40
0.6243514477431372
 40
0.7411611991481547
 40
0.8423840685814734
 40
0.9298562747864223
 40
0.9999999999999999
 40
0.9999999999999999
 40
0.9999999999999999
 40
0.9999999999999999
 10
186.5988636363636
 20
296.190909090909
 30
0.0
 10
186.5773185396868
 20
296.1910477127234
 30
0.0
 10
186.5361167165509
 20
296.1913128065201
 30
0.0
 10
186.4771757514573
 20
296.1895156464869
 30
0.0
 10
186.4239129442385
 20
296.1880498942116
 30
0.0
 10
186.3762851398447
 20
296.1870969724714
 30
0.0
 10
186.334364491822
 20
296.1842049412219
 30
0.0
 10
186.2979577783086
 20
296.1803681136179
 30
0.0
 10
186.2670535442907
 20
296.1774046262809
 30
0.0
 10
186.2484693684675
 20
296.1739711705857
 30
0.0
 10
186.2401988636364
 20
296.1724431818181
 30
0.0
  0
LINE
  5
1FD
330
1F
100
AcDbEntity
  8
0
  6
Continuous
 62
     7
370
    25
100
AcDbLine
 10
187.2806818182
 20
296.1909090909
 30
0.0
 11
186.5988636364
 21
296.1909090909
 31
0.0
  0
LINE
  5
1FE
330
1F
100
AcDbEntity
  8
0
  6
Continuous
 62
     7
370
    25
100
AcDbLine
 10
187.0811079545
 20
295.0090909091
 30
0.0
 11
187.2806818182
 21
296.1909090909
 31
0.0
  0
SPLINE
  5
1FF
330
1F
100
AcDbEntity
  8
0
  6
Continuous
 62
     7
370
    25
100
AcDbSpline
210
0.0
220
0.0
230
1.0
 70
     8
 71
     3
 72
    19
 73
    15
 74
     0
 42
0.000000001
 43
0.00000001
 40
0.0
 40
0.0
 40
0.0
 40
0.0
 40
0.0844041230911665
 40
0.1647797158497357
 40
0.2435568974014926
 40
0.3199880815852159
 40
0.3960935911781411
 40
0.4739401568396925
 40
0.55507287871102
 40
0.641871671357638
 40
0.7308444968531861
 40
0.8189541465401601
 40
0.9082362838842477
 40
0.9999999999999999
 40
0.9999999999999999
 40
0.9999999999999999
 40
0.9999999999999999
 10
186.2401988636364
 20
296.1724431818181
 30
0.0
 10
186.2137716156355
 20
296.1665824977622
 30
0.0
 10
186.1621784676138
 20
296.1551408546524
 30
0.0
 10
186.0884353317807
 20
296.129248996221
 30
0.0
 10
186.0186085527822
 20
296.1003162814658
 30
0.0
 10
185.9540666794562
 20
296.063527491936
 30
0.0
 10
185.8940657694667
 20
296.0201627467717
 30
0.0
 10
185.8404600203424
 20
295.9668128484966
 30
0.0
 10
185.7925544373105
 20
295.9040641200609
 30
0.0
 10
185.7505255167246
 20
295.8330794401625
 30
0.0
 10
185.7159221513861
 20
295.7556998830917
 30
0.0
 10
185.6908999279632
 20
295.6739143915323
 30
0.0
 10
185.6754777890233
 20
295.5887457174947
 30
0.0
 10
185.6736524514039
 20
295.5306993904379
 30
0.0
 10
185.6727272727273
 20
295.5012784090908
 30
0.0
  0
SPLINE
  5
200
330
1F
100
AcDbEntity
  8
0
  6
Continuous
 62
     7
370
    25
100
AcDbSpline
210
0.0
220
0.0
230
1.0
 70
     8
 71
     3
 72
    15
 73
    11
 74
     0
 42
0.000000001
 43
0.00000001
 40
0.0
 40
0.0
 40
0.0
 40
0.0
 40
0.1177275761199053
 40
0.2337686221826907
 40
0.3509645643764772
 40
0.4701001219487888
 40
0.5935383012539037
 40
0.7220435396388002
 40
0.8569583974414975
 40
1.0
 40
1.0
 40
1.0
 40
1.0
 10
189.1208806818182
 20
293.4636363636363
 30
0.0
 10
189.154807508948
 20
293.4649667283732
 30
0.0
 10
189.2221751376257
 20
293.4676083994395
 30
0.0
 10
189.3220260219701
 20
293.4857871221378
 30
0.0
 10
189.4190263125212
 20
293.5165923017931
 30
0.0
 10
189.5135023896019
 20
293.559812955806
 30
0.0
 10
189.6054508391764
 20
293.6148022587964
 30
0.0
 10
189.6944628730831
 20
293.6821958092071
 30
0.0
 10
189.7809526599594
 20
293.761479711938
 30
0.0
 10
189.8342301385385
 20
293.8213303975716
 30
0.0
 10
189.8616477272728
 20
293.8521306818181
 30
0.0
  0
SPLINE
  5
201
330
1F
100
AcDbEntity
  8
0
  6
Continuous
 62
     7
370
    25
100
AcDbSpline
210
0.0
220
0.0
230
1.0
 70
     8
 71
     3
 72
    31
 73
    27
 74
     0
 42
0.000000001
 43
0.00000001
 40
0.0
 40
0.0
 40
0.0
 40
0.0
 40
0.0301756518175108
 40
0.0602932964483566
 40
0.0908028780173975
 40
0.1217410141489674
 40
0.1536658708313841
 40
0.1866556031144479
 40
0.2205936461813664
 40
0.2559100790264969
 40
0.2924251345961459
 40
0.3298624081485462
 40
0.3689121943544745
 40
0.4095877027264636
 40
0.4520232120824418
 40
0.4961916846599386
 40
0.5426783412182848
 40
0.5914668601692772
 40
0.6412571298571992
 40
0.6908580015722809
 40
0.7412132124616361
 40
0.791552078236256
 40
0.8426454606106213
 40
0.8940039102596157
 40
0.9467438101360458
 40
1.0
 40
1.0
 40
1.0
 40
1.0
 10
189.3992897727273
 20
296.2363636363635
 30
0.0
 10
189.3769966326522
 20
296.2359059550903
 30
0.0
 10
189.3324532069975
 20
296.2349914723526
 30
0.0
 10
189.2660797565786
 20
296.2247886988631
 30
0.0
 10
189.1998284416446
 20
296.2111772642951
 30
0.0
 10
189.1340423695459
 20
296.1901733489872
 30
0.0
 10
189.0686974891692
 20
296.1629038213059
 30
0.0
 10
189.0033278059889
 20
296.1303309200592
 30
0.0
 10
188.9385353337565
 20
296.0915232535772
 30
0.0
 10
188.8738231615835
 20
296.0477578452133
 30
0.0
 10
188.8106548781011
 20
295.9974432301514
 30
0.0
 10
188.7499901469066
 20
295.9400769185818
 30
0.0
 10
188.6916103752997
 20
295.8761441345574
 30
0.0
 10
188.6365101650116
 20
295.8046755959368
 30
0.0
 10
188.5830788837592
 20
295.7273379728392
 30
0.0
 10
188.5326660925314
 20
295.6429486947105
 30
0.0
 10
188.4843100001777
 20
295.5520396078253
 30
0.0
 10
188.4393080928466
 20
295.4548093922151
 30
0.0
 10
188.3986428496387
 20
295.3532385884342
 30
0.0
 10
188.3617436029278
 20
295.2489857773653
 30
0.0
 10
188.3316623748593
 20
295.1421331338433
 30
0.0
 10
188.3065223297486
 20
295.0329047210254
 30
0.0
 10
188.2874737286683
 20
294.9216758448837
 30
0.0
 10
188.274140503796
 20
294.8078716255497
 30
0.0
 10
188.2652219713354
 20
294.6919979718743
 30
0.0
 10
188.2641666130298
 20
294.6137475844501
 30
0.0
 10
188.2636363636364
 20
294.5744318181817
 30
0.0
  0
SPLINE
  5
202
330
1F
100
AcDbEntity
  8
0
  6
Continuous
 62
     7
370
    25
100
AcDbSpline
210
0.0
220
0.0
230
1.0
 70
     8
 71
     3
 72
    23
 73
    19
 74
     0
 42
0.000000001
 43
0.00000001
 40
0.0
 40
0.0
 40
0.0
 40
0.0
 40
0.0780325357412824
 40
0.152298527071777
 40
0.2236497358165491
 40
0.2920865500904326
 40
0.3578578370732179
 40
0.4224800794262345
 40
0.4861311448502704
 40
0.5491776410002758
 40
0.6108387757840074
 40
0.6697010909339814
 40
0.7262272621469509
 40
0.7814770110557905
 40
0.8355720682872135
 40
0.8895736835765924
 40
0.9444009501337873
 40
1.0
 40
1.0
 40
1.0
 40
1.0
 10
190.2636363636364
 20
295.149005681818
 30
0.0
 10
190.2628107092976
 20
295.1892837589878
 30
0.0
 10
190.2611992540441
 20
295.2678957349789
 30
0.0
 10
190.2488511272826
 20
295.3828023384331
 30
0.0
 10
190.2291826627799
 20
295.4915978049981
 30
0.0
 10
190.2018278376066
 20
295.5942504044799
 30
0.0
 10
190.1653568058458
 20
295.6903913454569
 30
0.0
 10
190.1201026256728
 20
295.7798426546993
 30
0.0
 10
190.068865987449
 20
295.8644951174903
 30
0.0
 10
190.0078157342433
 20
295.9403666322388
 30
0.0
 10
189.943522230805
 20
296.0101291119071
 30
0.0
 10
189.8739425392093
 20
296.0696034389494
 30
0.0
 10
189.8027720559776
 20
296.1216505888067
 30
0.0
 10
189.7280120857661
 20
296.1638686761137
 30
0.0
 10
189.6497844157388
 20
296.195716110451
 30
0.0
 10
189.5690514326263
 20
296.2198131041057
 30
0.0
 10
189.4849562179753
 20
296.2331285685685
 30
0.0
 10
189.4279779971092
 20
296.2352802676008
 30
0.0
 10
189.3992897727273
 20
296.2363636363635
 30
0.0
  0
SPLINE
  5
203
330
1F
100
AcDbEntity
  8
0
  6
Continuous
 62
     7
370
    25
100
AcDbSpline
210
0.0
220
0.0
230
1.0
 70
     8
 71
     3
 72
    15
 73
    11
 74
     0
 42
0.000000001
 43
0.00000001
 40
0.0
 40
0.0
 40
0.0
 40
0.0
 40
0.1130347842828604
 40
0.2268334822110524
 40
0.3435029415735574
 40
0.4639328931901981
 40
0.5883359110333789
 40
0.7189972985797175
 40
0.8559435506265441
 40
1.0
 40
1.0
 40
1.0
 40
1.0
 10
189.8616477272728
 20
293.8521306818181
 30
0.0
 10
189.8940463390393
 20
293.8931464710653
 30
0.0
 10
189.9590625194342
 20
293.9754552431803
 30
0.0
 10
190.0408363651535
 20
294.1120065461859
 30
0.0
 10
190.1095776479846
 20
294.2590445609847
 30
0.0
 10
190.1667646085631
 20
294.4162682428009
 30
0.0
 10
190.2094193702029
 20
294.5846522060736
 30
0.0
 10
190.2417377358487
 20
294.7630176977663
 30
0.0
 10
190.2599239385596
 20
294.9526052330933
 30
0.0
 10
190.262378188688
 20
295.0824437662686
 30
0.0
 10
190.2636363636364
 20
295.149005681818
 30
0.0
  0
SPLINE
  5
204
330
1F
100
AcDbEntity
  8
0
  6
Continuous
 62
     7
370
    25
100
AcDbSpline
210
0.0
220
0.0
230
1.0
 70
     8
 71
     3
 72
    23
 73
    19
 74
     0
 42
0.000000001
 43
0.00000001
 40
0.0
 40
0.0
 40
0.0
 40
0.0
 40
0.0802326734030906
 40
0.1566863913389094
 40
0.2289346548216614
 40
0.2981581398344712
 40
0.3650796822572312
 40
0.4297252619193067
 40
0.4925024487413904
 40
0.5545694486634429
 40
0.61515556155024
 40
0.6729060019049435
 40
0.7287300999690444
 40
0.7826770297091762
 40
0.8362747229524131
 40
0.8900406382016057
 40
0.9441869325498208
 40
1.0
 40
1.0
 40
1.0
 40
1.0
 10
188.2636363636364
 20
294.5744318181817
 30
0.0
 10
188.2645647954389
 20
294.5325090586414
 30
0.0
 10
188.2663779299461
 20
294.4506380997323
 30
0.0
 10
188.2772523075696
 20
294.3313398375086
 30
0.0
 10
188.2976345932466
 20
294.2191924472883
 30
0.0
 10
188.3240737514208
 20
294.1134295091167
 30
0.0
 10
188.3596489945668
 20
294.0145078208993
 30
0.0
 10
188.403191317425
 20
293.9226212530976
 30
0.0
 10
188.4535132876829
 20
293.8371050007004
 30
0.0
 10
188.5127188186359
 20
293.7601269516479
 30
0.0
 10
188.5769531838602
 20
293.6909747680752
 30
0.0
 10
188.6446603271719
 20
293.6299498035024
 30
0.0
 10
188.7157173867308
 20
293.5784674632245
 30
0.0
 10
188.790525706953
 20
293.5369670477246
 30
0.0
 10
188.8682638248416
 20
293.5039288805148
 30
0.0
 10
188.9495220215263
 20
293.4803655889012
 30
0.0
 10
189.0342494712566
 20
293.4667542514522
 30
0.0
 10
189.0917132646531
 20
293.464686109265
 30
0.0
 10
189.1208806818182
 20
293.4636363636363
 30
0.0
  0
LINE
  5
205
330
1F
100
AcDbEntity
  8
0
  6
Continuous
 62
     7
370
    25
100
AcDbLine
 10
186.2039772727
 20
293.5090909091
 30
0.0
 11
186.8275568182
 21
293.5090909091
 31
0.0
  0
SPLINE
  5
206
330
1F
100
AcDbEntity
  8
0
  6
Continuous
 62
     7
370
    25
100
AcDbSpline
210
0.0
220
0.0
230
1.0
 70
     8
 71
     3
 72
    19
 73
    15
 74
     0
 42
0.000000001
 43
0.00000001
 40
0.0
 40
0.0
 40
0.0
 40
0.0
 40
0.0873835900090981
 40
0.1690669541682991
 40
0.2457953790143965
 40
0.3204904784763615
 40
0.3910116533399727
 40
0.4569074950221947
 40
0.5202336872758203
 40
0.581970124135839
 40
0.6534441996581809
 40
0.747012030458523
 40
0.8620356682386933
 40
1.0
 40
1.0
 40
1.0
 40
1.0
 10
185.6272727272728
 20
293.9657670454545
 30
0.0
 10
185.6281799692649
 20
293.9408745332636
 30
0.0
 10
185.6299352718372
 20
293.8927133027937
 30
0.0
 10
185.6408661722896
 20
293.823259048516
 30
0.0
 10
185.6612568191895
 20
293.75983752403
 30
0.0
 10
185.6883742410673
 20
293.7024031958047
 30
0.0
 10
185.7229527248104
 20
293.6529901421254
 30
0.0
 10
185.7604004431138
 20
293.6097955363947
 30
0.0
 10
185.8037803609142
 20
293.5765335680915
 30
0.0
 10
185.8526446288734
 20
293.5485276626785
 30
0.0
 10
185.9151365903304
 20
293.5303944805682
 30
0.0
 10
185.9939829493447
 20
293.5177501386353
 30
0.0
 10
186.0925856549153
 20
293.5105713272445
 30
0.0
 10
186.1646679501731
 20
293.5096133382992
 30
0.0
 10
186.2039772727273
 20
293.5090909090908
 30
0.0
  0
LINE
  5
207
330
1F
100
AcDbEntity
  8
0
  6
Continuous
 62
     7
370
    25
100
AcDbLine
 10
187.0115056818
 20
294.6
 30
0.0
 11
186.4198863636
 21
294.6
 31
0.0
  0
LINE
  5
208
330
1F
100
AcDbEntity
  8
0
  6
Continuous
 62
     7
370
    25
100
AcDbLine
 10
186.8275568182
 20
293.5090909091
 30
0.0
 11
187.0115056818
 21
294.6
 31
0.0
  0
SPLINE
  5
209
330
1F
100
AcDbEntity
  8
0
  6
Continuous
 62
     7
370
    25
100
AcDbSpline
210
0.0
220
0.0
230
1.0
 70
     8
 71
     3
 72
    15
 73
    11
 74
     0
 42
0.000000001
 43
0.00000001
 40
0.0
 40
0.0
 40
0.0
 40
0.0
 40
0.1234670095574962
 40
0.2449450005387674
 40
0.3642728934610237
 40
0.4854920854918582
 40
0.6070538929442207
 40
0.7328365362852279
 40
0.864397690344155
 40
1.0
 40
1.0
 40
1.0
 40
1.0
 10
185.8282670454546
 20
294.4551136363635
 30
0.0
 10
185.8123192171381
 20
294.4393173189658
 30
0.0
 10
185.7806804755053
 20
294.4079791583724
 30
0.0
 10
185.7392972805416
 20
294.3560682950644
 30
0.0
 10
185.7049386332546
 20
294.2998089666408
 30
0.0
 10
185.6766270204346
 20
294.2403005075596
 30
0.0
 10
185.654174648061
 20
294.1770394656217
 30
0.0
 10
185.6390202607785
 20
294.1097888316256
 30
0.0
 10
185.6284523523738
 20
294.0390169672211
 30
0.0
 10
185.627669880901
 20
293.9904286707225
 30
0.0
 10
185.6272727272728
 20
293.9657670454545
 30
0.0
  0
SPLINE
  5
20A
330
1F
100
AcDbEntity
  8
0
  6
Continuous
 62
     7
370
    25
100
AcDbSpline
210
0.0
220
0.0
230
1.0
 70
     8
 71
     3
 72
    15
 73
    11
 74
     0
 42
0.000000001
 43
0.00000001
 40
0.0
 40
0.0
 40
0.0
 40
0.0
 40
0.1647800076632271
 40
0.3173691270641174
 40
0.4581393300075245
 40
0.5864778876096104
 40
0.7034014452776745
 40
0.8106869453324185
 40
0.908475411250438
 40
1.0
 40
1.0
 40
1.0
 40
1.0
 10
186.4198863636364
 20
294.5999999999999
 30
0.0
 10
186.3857809065577
 20
294.5996926298585
 30
0.0
 10
186.320093210006
 20
294.5991006296829
 30
0.0
 10
186.2255032125176
 20
294.5917742391838
 30
0.0
 10
186.1389174089774
 20
294.5806834187931
 30
0.0
 10
186.0603929329266
 20
294.5655343356026
 30
0.0
 10
185.9903056713752
 20
294.5448328674116
 30
0.0
 10
185.9283450492218
 20
294.5201950365003
 30
0.0
 10
185.8737611298685
 20
294.4914525927173
 30
0.0
 10
185.8430935028905
 20
294.4669564505796
 30
0.0
 10
185.8282670454546
 20
294.4551136363635
 30
0.0
  0
SPLINE
  5
20B
330
1F
100
AcDbEntity
  8
0
  6
Continuous
 62
     7
370
    25
100
AcDbSpline
210
0.0
220
0.0
230
1.0
 70
     8
 71
     3
 72
    11
 73
     7
 74
     0
 42
0.000000001
 43
0.00000001
 40
0.0
 40
0.0
 40
0.0
 40
0.0
 40
0.2160703134542942
 40
0.4547988730342452
 40
0.7156038406523293
 40
0.9999999999999999
 40
0.9999999999999999
 40
0.9999999999999999
 40
0.9999999999999999
 10
201.3772727272728
 20
293.4828124999999
 30
0.0
 10
201.395104112588
 20
293.5355125225052
 30
0.0
 10
201.4326367741386
 20
293.6464389633528
 30
0.0
 10
201.5000115169765
 20
293.8179814281904
 30
0.0
 10
201.5792377471704
 20
294.0036257746173
 30
0.0
 10
201.6374106444579
 20
294.1313735914767
 30
0.0
 10
201.6677556818182
 20
294.1980113636363
 30
0.0
  0
SPLINE
  5
20C
330
1F
100
AcDbEntity
  8
0
  6
Continuous
 62
     7
370
    25
100
AcDbSpline
210
0.0
220
0.0
230
1.0
 70
     8
 71
     3
 72
    15
 73
    11
 74
     0
 42
0.000000001
 43
0.00000001
 40
0.0
 40
0.0
 40
0.0
 40
0.0
 40
0.14700353928029
 40
0.2872715534845759
 40
0.4217205364044849
 40
0.5494635590464956
 40
0.6714069658017919
 40
0.7875597556586433
 40
0.8970633487028926
 40
0.9999999999999999
 40
0.9999999999999999
 40
0.9999999999999999
 40
0.9999999999999999
 10
201.2849431818182
 20
294.3556818181817
 30
0.0
 10
201.2909763920567
 20
294.3130834996427
 30
0.0
 10
201.3027663781089
 20
294.2298386662025
 30
0.0
 10
201.3181461034725
 20
294.1073759218815
 30
0.0
 10
201.3326298054015
 20
293.9904819060066
 30
0.0
 10
201.3445444498838
 20
293.8786882173013
 30
0.0
 10
201.3552083337273
 20
293.7721535076647
 30
0.0
 10
201.3646646452954
 20
293.6708595651513
 30
0.0
 10
201.3716423765296
 20
293.5749401579452
 30
0.0
 10
201.3754350230556
 20
293.5128822759787
 30
0.0
 10
201.3772727272728
 20
293.4828124999999
 30
0.0
  0
LINE
  5
20D
330
1F
100
AcDbEntity
  8
0
  6
Continuous
 62
     7
370
    25
100
AcDbLine
 10
201.1592329545
 20
295.2363636364
 30
0.0
 11
201.2849431818
 21
294.3556818182
 31
0.0
  0
LINE
  5
20E
330
1F
100
AcDbEntity
  8
0
  6
Continuous
 62
     7
370
    25
100
AcDbLine
 10
202.1514204545
 20
295.2363636364
 30
0.0
 11
201.1592329545
 21
295.2363636364
 31
0.0
  0
LINE
  5
20F
330
1F
100
AcDbEntity
  8
0
  6
Continuous
 62
     7
370
    25
100
AcDbLine
 10
201.6677556818
 20
294.1980113636
 30
0.0
 11
202.1514204545
 21
295.2363636364
 31
0.0
  0
SPLINE
  5
210
330
1F
100
AcDbEntity
  8
0
  6
Continuous
 62
     7
370
    25
100
AcDbSpline
210
0.0
220
0.0
230
1.0
 70
     8
 71
     3
 72
    11
 73
     7
 74
     0
 42
0.000000001
 43
0.00000001
 40
0.0
 40
0.0
 40
0.0
 40
0.0
 40
0.2160703134542942
 40
0.4547988730342452
 40
0.7156038406523293
 40
0.9999999999999999
 40
0.9999999999999999
 40
0.9999999999999999
 40
0.9999999999999999
 10
177.4227272727273
 20
293.4828124999999
 30
0.0
 10
177.4405586580425
 20
293.5355125225052
 30
0.0
 10
177.4780913195931
 20
293.6464389633528
 30
0.0
 10
177.545466062431
 20
293.8179814281904
 30
0.0
 10
177.624692292625
 20
294.0036257746173
 30
0.0
 10
177.6828651899124
 20
294.1313735914767
 30
0.0
 10
177.7132102272727
 20
294.1980113636363
 30
0.0
  0
LINE
  5
211
330
1F
100
AcDbEntity
  8
0
  6
Continuous
 62
     7
370
    25
100
AcDbLine
 10
177.2046875
 20
295.2363636364
 30
0.0
 11
177.3303977273
 21
294.3556818182
 31
0.0
  0
LINE
  5
212
330
1F
100
AcDbEntity
  8
0
  6
Continuous
 62
     7
370
    25
100
AcDbLine
 10
178.196875
 20
295.2363636364
 30
0.0
 11
177.2046875
 21
295.2363636364
 31
0.0
  0
LINE
  5
213
330
1F
100
AcDbEntity
  8
0
  6
Continuous
 62
     7
370
    25
100
AcDbLine
 10
177.7132102273
 20
294.1980113636
 30
0.0
 11
178.196875
 21
295.2363636364
 31
0.0
  0
SPLINE
  5
214
330
1F
100
AcDbEntity
  8
0
  6
Continuous
 62
     7
370
    25
100
AcDbSpline
210
0.0
220
0.0
230
1.0
 70
     8
 71
     3
 72
    15
 73
    11
 74
     0
 42
0.000000001
 43
0.00000001
 40
0.0
 40
0.0
 40
0.0
 40
0.0
 40
0.14700353928029
 40
0.2872715534845759
 40
0.4217205364044849
 40
0.5494635590464956
 40
0.6714069658017919
 40
0.7875597556586433
 40
0.8970633487028926
 40
0.9999999999999999
 40
0.9999999999999999
 40
0.9999999999999999
 40
0.9999999999999999
 10
177.3303977272728
 20
294.3556818181817
 30
0.0
 10
177.3364309375113
 20
294.3130834996427
 30
0.0
 10
177.3482209235634
 20
294.2298386662025
 30
0.0
 10
177.363600648927
 20
294.1073759218815
 30
0.0
 10
177.378084350856
 20
293.9904819060066
 30
0.0
 10
177.3899989953383
 20
293.8786882173013
 30
0.0
 10
177.4006628791818
 20
293.7721535076647
 30
0.0
 10
177.41011919075
 20
293.6708595651513
 30
0.0
 10
177.4170969219841
 20
293.5749401579452
 30
0.0
 10
177.4208895685101
 20
293.5128822759787
 30
0.0
 10
177.4227272727273
 20
293.4828124999999
 30
0.0
  0
LINE
  5
215
330
1F
100
AcDbEntity
  8
0
  6
Continuous
 62
     7
370
    25
100
AcDbLine
 10
117.4
 20
351.1
 30
0.0
 11
80.4
 21
351.1
 31
0.0
  0
LINE
  5
216
330
1F
100
AcDbEntity
  8
0
  6
Continuous
 62
     7
370
    25
100
AcDbLine
 10
80.4
 20
351.1
 30
0.0
 11
80.4
 21
351.6
 31
0.0
  0
LINE
  5
217
330
1F
100
AcDbEntity
  8
0
  6
Continuous
 62
     7
370
    25
100
AcDbLine
 10
80.4
 20
351.6
 30
0.0
 11
117.4
 21
351.6
 31
0.0
  0
LINE
  5
218
330
1F
100
AcDbEntity
  8
0
  6
Continuous
 62
     7
370
    25
100
AcDbLine
 10
117.4
 20
351.6
 30
0.0
 11
117.4
 21
351.1
 31
0.0
  0
LINE
  5
219
330
1F
100
AcDbEntity
  8
0
  6
Continuous
 62
     7
370
    25
100
AcDbLine
 10
117.4
 20
351.1
 30
0.0
 11
117.4
 21
292.1
 31
0.0
  0
LINE
  5
21A
330
1F
100
AcDbEntity
  8
0
  6
Continuous
 62
     7
370
    25
100
AcDbLine
 10
80.4
 20
292.1
 30
0.0
 11
117.4
 21
292.1
 31
0.0
  0
LINE
  5
21B
330
1F
100
AcDbEntity
  8
0
  6
Continuous
 62
     7
370
    25
100
AcDbLine
 10
80.4
 20
351.1
 30
0.0
 11
80.4
 21
292.1
 31
0.0
  0
LINE
  5
21C
330
1F
100
AcDbEntity
  8
0
  6
Continuous
 62
     7
370
    25
100
AcDbLine
 10
164.4
 20
351.1
 30
0.0
 11
164.4
 21
351.6
 31
0.0
  0
LINE
  5
21D
330
1F
100
AcDbEntity
  8
0
  6
Continuous
 62
     7
370
    25
100
AcDbLine
 10
164.4
 20
351.6
 30
0.0
 11
217.4
 21
351.6
 31
0.0
  0
LINE
  5
21E
330
1F
100
AcDbEntity
  8
0
  6
Continuous
 62
     7
370
    25
100
AcDbLine
 10
217.4
 20
351.6
 30
0.0
 11
217.4
 21
351.1
 31
0.0
  0
LINE
  5
21F
330
1F
100
AcDbEntity
  8
0
  6
Continuous
 62
     7
370
    25
100
AcDbLine
 10
117.4
 20
291.6
 30
0.0
 11
80.4
 21
291.6
 31
0.0
  0
LINE
  5
220
330
1F
100
AcDbEntity
  8
0
  6
Continuous
 62
     7
370
    25
100
AcDbLine
 10
80.4
 20
291.6
 30
0.0
 11
80.4
 21
292.1
 31
0.0
  0
LINE
  5
221
330
1F
100
AcDbEntity
  8
0
  6
Continuous
 62
     7
370
    25
100
AcDbLine
 10
117.4
 20
292.1
 30
0.0
 11
117.4
 21
291.6
 31
0.0
  0
LINE
  5
222
330
1F
100
AcDbEntity
  8
0
  6
Continuous
 62
     7
370
    25
100
AcDbLine
 10
217.4
 20
291.6
 30
0.0
 11
164.4
 21
291.6
 31
0.0
  0
LINE
  5
223
330
1F
100
AcDbEntity
  8
0
  6
Continuous
 62
     7
370
    25
100
AcDbLine
 10
217.4
 20
292.1
 30
0.0
 11
217.4
 21
291.6
 31
0.0
  0
LINE
  5
224
330
1F
100
AcDbEntity
  8
0
  6
Continuous
 62
     7
370
    25
100
AcDbLine
 10
164.4
 20
291.6
 30
0.0
 11
164.4
 21
292.1
 31
0.0
  0
LINE
  5
225
330
1F
100
AcDbEntity
  8
0
  6
Continuous
 62
     8
370
    25
100
AcDbLine
 10
68.7
 20
342.45
 30
0.0
 11
68.7
 21
336.95
 31
0.0
  0
LINE
  5
226
330
1F
100
AcDbEntity
  8
0
  6
Continuous
 62
     8
370
    25
100
AcDbLine
 10
68.7
 20
347.95
 30
0.0
 11
68.7
 21
342.45
 31
0.0
  0
LINE
  5
227
330
1F
100
AcDbEntity
  8
0
  6
Continuous
 62
     8
370
    25
100
AcDbLine
 10
68.7
 20
306.25
 30
0.0
 11
68.7
 21
295.25
 31
0.0
  0
DIMENSION
  5
228
330
1F
100
AcDbEntity
  8
0
  6
Continuous
 62
     7
370
    18
100
AcDbDimension
  2
_D
 10
228.4
 20
275.6
 30
0.0
 11
154.4
 21
275.6
 31
0.0
 70
   160
  1
<>
 71
     2
 42
-1.0
  3
SLDDIMSTYLE0
100
AcDbAlignedDimension
 13
80.4
 23
291.6
 33
0.0
 14
228.4
 24
314.1
 34
0.0
100
AcDbRotatedDimension
  0
DIMENSION
  5
233
330
1F
100
AcDbEntity
  8
0
  6
Continuous
 62
     7
370
    18
100
AcDbDimension
  2
_D_1
 10
228.4
 20
281.6
 30
0.0
 11
222.9
 21
281.6
 31
0.0
 70
   160
  1
<>
 71
     2
 42
-1.0
  3
SLDDIMSTYLE1
100
AcDbAlignedDimension
 13
217.4
 23
291.6
 33
0.0
 14
228.4
 24
314.1
 34
0.0
100
AcDbRotatedDimension
  0
DIMENSION
  5
240
330
1F
100
AcDbEntity
  8
0
  6
Continuous
 62
     7
370
    18
100
AcDbDimension
  2
_D_2
 10
238.4
 20
330.6
 30
0.0
 11
238.4
 21
321.6
 31
0.0
 70
   160
  1
%%c<>
 71
     2
 42
-1.0
  3
SLDDIMSTYLE1
100
AcDbAlignedDimension
 13
221.9
 23
312.6
 33
0.0
 14
221.9
 24
330.6
 34
0.0
 50
90.0
100
AcDbRotatedDimension
  0
DIMENSION
  5
24D
330
1F
100
AcDbEntity
  8
0
  6
Continuous
 62
     7
370
    18
100
AcDbDimension
  2
_D_3
 10
80.4
 20
281.6
 30
0.0
 11
74.4
 21
281.6
 31
0.0
 70
   160
  1
<>
 71
     2
 42
-1.0
  3
SLDDIMSTYLE1
100
AcDbAlignedDimension
 13
68.4
 23
295.55
 33
0.0
 14
80.4
 24
291.6
 34
0.0
100
AcDbRotatedDimension
  0
DIMENSION
  5
259
330
1F
100
AcDbEntity
  8
0
  6
Continuous
 62
     7
370
    18
100
AcDbDimension
  2
_D_4
 10
217.4
 20
361.6
 30
0.0
 11
221.4
 21
361.6
 31
0.0
 70
   160
  1
<>
 71
     2
 42
-1.0
  3
SLDDIMSTYLE1
100
AcDbAlignedDimension
 13
225.4
 23
336.1
 33
0.0
 14
217.4
 24
351.6
 34
0.0
100
AcDbRotatedDimension
  0
DIMENSION
  5
265
330
1F
100
AcDbEntity
  8
0
  6
Continuous
 62
     7
370
    18
100
AcDbDimension
  2
_D_5
 10
250.4
 20
336.6
 30
0.0
 11
250.4
 21
321.6
 31
0.0
 70
   160
  1
%%c<> f9
 71
     2
 42
-1.0
  3
SLDDIMSTYLE1
100
AcDbAlignedDimension
 13
224.9
 23
306.6
 33
0.0
 14
224.9
 24
336.6
 34
0.0
 50
90.0
100
AcDbRotatedDimension
  0
LINE
  5
271
330
1F
100
AcDbEntity
  8
0
  6
CENTERX2
 62
     7
370
    18
100
AcDbLine
 10
104.4
 20
321.6
 30
0.0
 11
131.4
 21
321.6
 31
0.0
  0
LINE
  5
272
330
1F
100
AcDbEntity
  8
0
  6
CENTERX2
 62
     7
370
    18
100
AcDbLine
 10
223.9
 20
321.6
 30
0.0
 11
131.4
 21
321.6
 31
0.0
  0
LINE
  5
273
330
1F
100
AcDbEntity
  8
0
  6
CENTERX2
 62
     7
370
    18
100
AcDbLine
 10
226.9
 20
321.6
 30
0.0
 11
215.4
 21
321.6
 31
0.0
  0
LINE
  5
274
330
1F
100
AcDbEntity
  8
0
  6
CENTERX2
 62
     7
370
    18
100
AcDbLine
 10
220.4
 20
321.6
 30
0.0
 11
229.9
 21
321.6
 31
0.0
  0
LINE
  5
275
330
1F
100
AcDbEntity
  8
0
  6
CENTERX2
 62
     7
370
    18
100
AcDbLine
 10
78.4
 20
321.6
 30
0.0
 11
104.4
 21
321.6
 31
0.0
  0
LINE
  5
276
330
1F
100
AcDbEntity
  8
0
  6
CENTERX2
 62
     7
370
    18
100
AcDbLine
 10
66.9
 20
342.45
 30
0.0
 11
163.9
 21
342.45
 31
0.0
  0
LINE
  5
277
330
1F
100
AcDbEntity
  8
0
  6
CENTERX2
 62
     7
370
    18
100
AcDbLine
 10
66.9
 20
300.75
 30
0.0
 11
163.9
 21
300.75
 31
0.0
  0
ARC
  5
278
330
1F
100
AcDbEntity
  8
0
  6
Continuous
 62
     7
370
    25
100
AcDbCircle
 10
98.4
 20
121.6
 30
0.0
 40
8.499999999999988
100
AcDbArc
 50
28.0724869359
 51
61.9275130641
  0
LINE
  5
279
330
1F
100
AcDbEntity
  8
0
  6
Continuous
 62
     7
370
    25
100
AcDbLine
 10
105.9
 20
125.6
 30
0.0
 11
105.9
 21
124.3838821814
 31
0.0
  0
ARC
  5
27A
330
1F
100
AcDbEntity
  8
0
  6
Continuous
 62
     7
370
    25
100
AcDbCircle
 10
98.4
 20
121.6
 30
0.0
 40
8.0
100
AcDbArc
 50
20.3641348063
 51
69.6358651937
  0
LINE
  5
27B
330
1F
100
AcDbEntity
  8
0
  6
Continuous
 62
     7
370
    25
100
AcDbLine
 10
101.1838821814
 20
129.1
 30
0.0
 11
102.4
 21
129.1
 31
0.0
  0
CIRCLE
  5
27C
330
1F
100
AcDbEntity
  8
0
  6
Continuous
 62
     7
370
    25
100
AcDbCircle
 10
98.4
 20
121.6
 30
0.0
 40
4.250000000000014
  0
CIRCLE
  5
27D
330
1F
100
AcDbEntity
  8
0
  6
Continuous
 62
     7
370
    25
100
AcDbCircle
 10
98.4
 20
121.6
 30
0.0
 40
4.550000000000011
  0
ARC
  5
27E
330
1F
100
AcDbEntity
  8
0
  6
Continuous
 62
     7
370
    25
100
AcDbCircle
 10
98.4
 20
121.6
 30
0.0
 40
8.500000000000012
100
AcDbArc
 50
298.0724869359
 51
331.9275130641
  0
ARC
  5
27F
330
1F
100
AcDbEntity
  8
0
  6
Continuous
 62
     7
370
    25
100
AcDbCircle
 10
98.4
 20
121.6
 30
0.0
 40
8.000000000000037
100
AcDbArc
 50
290.3641348063
 51
339.6358651937
  0
LINE
  5
280
330
1F
100
AcDbEntity
  8
0
  6
Continuous
 62
     7
370
    25
100
AcDbLine
 10
105.9
 20
118.8161178186
 30
0.0
 11
105.9
 21
117.6
 31
0.0
  0
LINE
  5
281
330
1F
100
AcDbEntity
  8
0
  6
Continuous
 62
     7
370
    25
100
AcDbLine
 10
102.4
 20
114.1
 30
0.0
 11
101.1838821814
 21
114.1
 31
0.0
  0
ARC
  5
282
330
1F
100
AcDbEntity
  8
0
  6
Continuous
 62
     7
370
    25
100
AcDbCircle
 10
98.4
 20
121.6
 30
0.0
 40
8.000000000000043
100
AcDbArc
 50
200.3641348063
 51
249.6358651937
  0
LINE
  5
283
330
1F
100
AcDbEntity
  8
0
  6
Continuous
 62
     7
370
    25
100
AcDbLine
 10
90.9
 20
124.3838821814
 30
0.0
 11
90.9
 21
118.8161178186
 31
0.0
  0
ARC
  5
284
330
1F
100
AcDbEntity
  8
0
  6
Continuous
 62
     7
370
    25
100
AcDbCircle
 10
98.4
 20
121.6
 30
0.0
 40
8.000000000000027
100
AcDbArc
 50
110.3641348063
 51
159.6358651937
  0
LINE
  5
285
330
1F
100
AcDbEntity
  8
0
  6
Continuous
 62
     7
370
    25
100
AcDbLine
 10
101.1838821814
 20
129.1
 30
0.0
 11
95.6161178186
 21
129.1
 31
0.0
  0
LINE
  5
286
330
1F
100
AcDbEntity
  8
0
  6
Continuous
 62
     7
370
    25
100
AcDbLine
 10
105.9
 20
118.8161178186
 30
0.0
 11
105.9
 21
124.3838821814
 31
0.0
  0
LINE
  5
287
330
1F
100
AcDbEntity
  8
0
  6
Continuous
 62
     7
370
    25
100
AcDbLine
 10
95.6161178186
 20
114.1
 30
0.0
 11
101.1838821814
 21
114.1
 31
0.0
  0
ARC
  5
288
330
1F
100
AcDbEntity
  8
0
  6
Continuous
 62
     7
370
    25
100
AcDbCircle
 10
98.4
 20
121.6
 30
0.0
 40
8.500000000000012
100
AcDbArc
 50
208.0724869359
 51
241.9275130641
  0
LINE
  5
289
330
1F
100
AcDbEntity
  8
0
  6
Continuous
 62
     7
370
    25
100
AcDbLine
 10
90.9
 20
117.6
 30
0.0
 11
90.9
 21
118.8161178186
 31
0.0
  0
LINE
  5
28A
330
1F
100
AcDbEntity
  8
0
  6
Continuous
 62
     7
370
    25
100
AcDbLine
 10
95.6161178186
 20
114.1
 30
0.0
 11
94.4
 21
114.1
 31
0.0
  0
ARC
  5
28B
330
1F
100
AcDbEntity
  8
0
  6
Continuous
 62
     7
370
    25
100
AcDbCircle
 10
98.4
 20
121.6
 30
0.0
 40
8.500000000000005
100
AcDbArc
 50
118.0724869359
 51
151.9275130641
  0
LINE
  5
28C
330
1F
100
AcDbEntity
  8
0
  6
Continuous
 62
     7
370
    25
100
AcDbLine
 10
90.9
 20
124.3838821814
 30
0.0
 11
90.9
 21
125.6
 31
0.0
  0
LINE
  5
28D
330
1F
100
AcDbEntity
  8
0
  6
Continuous
 62
     7
370
    25
100
AcDbLine
 10
94.4
 20
129.1
 30
0.0
 11
95.6161178186
 21
129.1
 31
0.0
  0
ARC
  5
28E
330
1F
100
AcDbEntity
  8
0
  6
Continuous
 62
     7
370
    25
100
AcDbCircle
 10
98.4
 20
121.6
 30
0.0
 40
8.499999999999988
100
AcDbArc
 50
61.9275130641
 51
118.0724869359
  0
ARC
  5
28F
330
1F
100
AcDbEntity
  8
0
  6
Continuous
 62
     7
370
    25
100
AcDbCircle
 10
98.4
 20
121.6
 30
0.0
 40
8.500000000000007
100
AcDbArc
 50
151.9275130641
 51
208.0724869359
  0
ARC
  5
290
330
1F
100
AcDbEntity
  8
0
  6
Continuous
 62
     7
370
    25
100
AcDbCircle
 10
98.4
 20
121.6
 30
0.0
 40
8.500000000000012
100
AcDbArc
 50
241.9275130641
 51
298.0724869359
  0
ARC
  5
291
330
1F
100
AcDbEntity
  8
0
  6
Continuous
 62
     7
370
    25
100
AcDbCircle
 10
98.4
 20
121.6
 30
0.0
 40
8.500000000000488
100
AcDbArc
 50
331.9275130641
 51
28.0724869359
  0
CIRCLE
  5
292
330
1F
100
AcDbEntity
  8
0
  6
Continuous
 62
     7
370
    25
100
AcDbCircle
 10
98.4
 20
121.6
 30
0.0
 40
14.50000000000003
  0
CIRCLE
  5
293
330
1F
100
AcDbEntity
  8
0
  6
Continuous
 62
     7
370
    25
100
AcDbCircle
 10
98.4
 20
121.6
 30
0.0
 40
15.0
  0
CIRCLE
  5
294
330
1F
100
AcDbEntity
  8
0
  6
Continuous
 62
     7
370
    25
100
AcDbCircle
 10
98.4
 20
121.6
 30
0.0
 40
10.5
  0
CIRCLE
  5
295
330
1F
100
AcDbEntity
  8
0
  6
Continuous
 62
     7
370
    25
100
AcDbCircle
 10
98.4
 20
121.6
 30
0.0
 40
9.0
  0
CIRCLE
  5
296
330
1F
100
AcDbEntity
  8
0
  6
Continuous
 62
     7
370
    25
100
AcDbCircle
 10
98.4
 20
121.6
 30
0.0
 40
22.5
  0
LINE
  5
297
330
1F
100
AcDbEntity
  8
0
  6
Continuous
 62
     7
370
    25
100
AcDbLine
 10
68.4
 20
92.1
 30
0.0
 11
68.9
 21
91.6
 31
0.0
  0
LINE
  5
298
330
1F
100
AcDbEntity
  8
0
  6
Continuous
 62
     7
370
    25
100
AcDbLine
 10
68.4
 20
151.1
 30
0.0
 11
68.4
 21
92.1
 31
0.0
  0
LINE
  5
299
330
1F
100
AcDbEntity
  8
0
  6
Continuous
 62
     7
370
    25
100
AcDbLine
 10
68.9
 20
151.6
 30
0.0
 11
68.4
 21
151.1
 31
0.0
  0
CIRCLE
  5
29A
330
1F
100
AcDbEntity
  8
0
  6
Continuous
 62
     7
370
    25
100
AcDbCircle
 10
98.4
 20
121.6
 30
0.0
 40
24.00000000000004
  0
CIRCLE
  5
29B
330
1F
100
AcDbEntity
  8
0
  6
Continuous
 62
     7
370
    25
100
AcDbCircle
 10
119.25
 20
142.45
 30
0.0
 40
4.499999999999957
  0
CIRCLE
  5
29C
330
1F
100
AcDbEntity
  8
0
  6
Continuous
 62
     7
370
    25
100
AcDbCircle
 10
119.25
 20
100.75
 30
0.0
 40
4.499999999999957
  0
CIRCLE
  5
29D
330
1F
100
AcDbEntity
  8
0
  6
Continuous
 62
     7
370
    25
100
AcDbCircle
 10
77.55
 20
100.75
 30
0.0
 40
4.499999999999943
  0
CIRCLE
  5
29E
330
1F
100
AcDbEntity
  8
0
  6
Continuous
 62
     7
370
    25
100
AcDbCircle
 10
77.55
 20
142.45
 30
0.0
 40
4.499999999999943
  0
LINE
  5
29F
330
1F
100
AcDbEntity
  8
0
  6
Continuous
 62
     7
370
    25
100
AcDbLine
 10
128.4
 20
151.1
 30
0.0
 11
127.9
 21
151.6
 31
0.0
  0
LINE
  5
2A0
330
1F
100
AcDbEntity
  8
0
  6
Continuous
 62
     7
370
    25
100
AcDbLine
 10
127.9
 20
91.6
 30
0.0
 11
128.4
 21
92.1
 31
0.0
  0
LINE
  5
2A1
330
1F
100
AcDbEntity
  8
0
  6
Continuous
 62
     7
370
    25
100
AcDbLine
 10
68.9
 20
91.6
 30
0.0
 11
127.9
 21
91.6
 31
0.0
  0
LINE
  5
2A2
330
1F
100
AcDbEntity
  8
0
  6
Continuous
 62
     7
370
    25
100
AcDbLine
 10
68.9
 20
151.6
 30
0.0
 11
127.9
 21
151.6
 31
0.0
  0
LINE
  5
2A3
330
1F
100
AcDbEntity
  8
0
  6
Continuous
 62
     7
370
    25
100
AcDbLine
 10
128.4
 20
151.1
 30
0.0
 11
128.4
 21
92.1
 31
0.0
  0
CIRCLE
  5
2A4
330
1F
100
AcDbEntity
  8
0
  6
Continuous
 62
     7
370
    25
100
AcDbCircle
 10
119.25
 20
142.45
 30
0.0
 40
4.000000000000014
  0
CIRCLE
  5
2A5
330
1F
100
AcDbEntity
  8
0
  6
Continuous
 62
     7
370
    25
100
AcDbCircle
 10
119.25
 20
100.75
 30
0.0
 40
4.000000000000014
  0
CIRCLE
  5
2A6
330
1F
100
AcDbEntity
  8
0
  6
Continuous
 62
     7
370
    25
100
AcDbCircle
 10
77.55
 20
100.75
 30
0.0
 40
3.999999999999986
  0
CIRCLE
  5
2A7
330
1F
100
AcDbEntity
  8
0
  6
Continuous
 62
     7
370
    25
100
AcDbCircle
 10
77.55
 20
142.45
 30
0.0
 40
3.999999999999986
  0
DIMENSION
  5
2A8
330
1F
100
AcDbEntity
  8
0
  6
Continuous
 62
     7
370
    18
100
AcDbDimension
  2
_D_6
 10
144.4
 20
151.6
 30
0.0
 11
144.4
 21
121.6
 31
0.0
 70
   160
  1
<>
 71
     2
 42
-1.0
  3
SLDDIMSTYLE0
100
AcDbAlignedDimension
 13
127.9
 23
91.6
 33
0.0
 14
127.9
 24
151.6
 34
0.0
 50
90.0
100
AcDbRotatedDimension
  0
DIMENSION
  5
2B2
330
1F
100
AcDbEntity
  8
0
  6
Continuous
 62
     7
370
    18
100
AcDbDimension
  2
_D_7
 10
138.4
 20
142.45
 30
0.0
 11
138.4
 21
121.6
 31
0.0
 70
   160
  1
<>
 71
     2
 42
-1.0
  3
SLDDIMSTYLE2
100
AcDbAlignedDimension
 13
126.25
 23
100.75
 33
0.0
 14
126.25
 24
142.45
 34
0.0
 50
90.0
100
AcDbRotatedDimension
  0
DIMENSION
  5
2BD
330
1F
100
AcDbEntity
  8
0
  6
Continuous
 62
     7
370
    18
100
AcDbDimension
  2
_D_8
 10
128.4
 20
167.6
 30
0.0
 11
98.4
 21
167.6
 31
0.0
 70
   160
  1
<>
 71
     2
 42
-1.0
  3
SLDDIMSTYLE0
100
AcDbAlignedDimension
 13
68.4
 23
151.1
 33
0.0
 14
128.4
 24
151.1
 34
0.0
100
AcDbRotatedDimension
  0
DIMENSION
  5
2C7
330
1F
100
AcDbEntity
  8
0
  6
Continuous
 62
     7
370
    18
100
AcDbDimension
  2
_D_9
 10
119.25
 20
161.6
 30
0.0
 11
98.4
 21
161.6
 31
0.0
 70
   160
  1
<>
 71
     2
 42
-1.0
  3
SLDDIMSTYLE2
100
AcDbAlignedDimension
 13
77.55
 23
149.45
 33
0.0
 14
119.25
 24
149.45
 34
0.0
100
AcDbRotatedDimension
  0
DIMENSION
  5
2D1
330
1F
100
AcDbEntity
  8
0
  6
Continuous
 62
     7
370
    18
100
AcDbDimension
  2
_D_10
 10
101.6173358544
 20
124.8173358544
 30
0.0
 11
58.40001
 21
81.60001
 31
0.0
 70
   163
  1
M14x1.5
 71
     1
 42
-1.0
  3
SLDDIMSTYLE3
100
AcDbDiametricDimension
 15
95.1826641456
 25
118.3826641456
 35
0.0
 40
0.0
  0
DIMENSION
  5
2DD
330
1F
100
AcDbEntity
  8
0
  6
Continuous
 62
     7
370
    18
100
AcDbDimension
  2
_D_11
 10
82.05
 20
142.45
 30
0.0
 11
54.6791314083
 21
142.45001
 31
0.0
 70
   163
  1
M8x1.25
 71
     1
 42
-1.0
  3
SLDDIMSTYLE4
100
AcDbDiametricDimension
 15
73.05
 25
142.45
 35
0.0
 40
0.0
  0
INSERT
  5
2F1
330
1F
100
AcDbEntity
  8
0
  6
Continuous
 62
     7
370
     0
100
AcDbBlockReference
  2
SW_CENTERMARKSYMBOL_0
 10
98.4
 20
121.6
 30
0.0
  0
INSERT
  5
2FD
330
1F
100
AcDbEntity
  8
0
  6
Continuous
 62
     7
370
     0
100
AcDbBlockReference
  2
SW_CENTERMARKSYMBOL_1
 10
119.25
 20
142.45
 30
0.0
  0
INSERT
  5
309
330
1F
100
AcDbEntity
  8
0
  6
Continuous
 62
     7
370
     0
100
AcDbBlockReference
  2
SW_CENTERMARKSYMBOL_2
 10
77.55
 20
142.45
 30
0.0
  0
INSERT
  5
315
330
1F
100
AcDbEntity
  8
0
  6
Continuous
 62
     7
370
     0
100
AcDbBlockReference
  2
SW_CENTERMARKSYMBOL_3
 10
77.55
 20
100.75
 30
0.0
  0
INSERT
  5
321
330
1F
100
AcDbEntity
  8
0
  6
Continuous
 62
     7
370
     0
100
AcDbBlockReference
  2
SW_CENTERMARKSYMBOL_4
 10
119.25
 20
100.75
 30
0.0
  0
ENDSEC
  0
SECTION
  2
OBJECTS
  0
DICTIONARY
  5
C
330
0
100
AcDbDictionary
281
     1
  3
ACAD_GROUP
350
D
  3
ACAD_LAYOUT
350
1A
  3
ACAD_MLINESTYLE
350
17
  3
ACAD_PLOTSETTINGS
350
19
  3
ACAD_PLOTSTYLENAME
350
E
  3
ACAD_SCALELIST
350
47
  0
DICTIONARY
  5
D
102
{ACAD_REACTORS
330
C
102
}
330
C
100
AcDbDictionary
281
     1
  0
DICTIONARY
  5
1A
102
{ACAD_REACTORS
330
C
102
}
330
C
100
AcDbDictionary
281
     1
  3
Layout1
350
1E
  3
Layout2
350
26
  3
Model
350
22
  0
DICTIONARY
  5
17
102
{ACAD_REACTORS
330
C
102
}
330
C
100
AcDbDictionary
281
     1
  3
Standard
350
18
  0
DICTIONARY
  5
19
102
{ACAD_REACTORS
330
C
102
}
330
C
100
AcDbDictionary
281
     1
  0
ACDBDICTIONARYWDFLT
  5
E
102
{ACAD_REACTORS
330
C
102
}
330
C
100
AcDbDictionary
281
     1
  3
Normal
350
F
100
AcDbDictionaryWithDefault
340
F
  0
DICTIONARY
  5
47
102
{ACAD_REACTORS
330
C
102
}
330
C
100
AcDbDictionary
281
     1
  3
A0
350
48
  3
A1
350
49
  3
A2
350
4A
  3
A3
350
4B
  3
A4
350
4C
  3
A5
350
4D
  3
A6
350
4E
  3
A7
350
4F
  3
A8
350
50
  3
A9
350
51
  3
B0
350
52
  3
B1
350
53
  3
B2
350
54
  3
B3
350
55
  3
B4
350
56
  3
B5
350
57
  3
B6
350
58
  3
B7
350
59
  3
B8
350
5A
  3
B9
350
5B
  3
C0
350
5C
  3
C1
350
5D
  3
C2
350
5E
  3
C3
350
5F
  3
C4
350
60
  3
C5
350
61
  3
C6
350
62
  3
C7
350
63
  3
C8
350
64
  3
C9
350
65
  3
D0
350
66
  3
D1
350
67
  3
D2
350
68
  0
LAYOUT
  5
1E
102
{ACAD_REACTORS
330
1A
102
}
330
1A
100
AcDbPlotSettings
  1

  2
none_device
  4

  6

 40
0.0
 41
0.0
 42
0.0
 43
0.0
 44
0.0
 45
0.0
 46
0.0
 47
0.0
 48
0.0
 49
0.0
140
0.0
141
0.0
142
1.0
143
1.0
 70
   688
 72
     1
 73
     0
 74
     5
  7

 75
    16
147
1.0
148
0.0
149
0.0
100
AcDbLayout
  1
Layout1
 70
     1
 71
     1
 10
0.0
 20
0.0
 11
420.0
 21
297.0
 12
0.0
 22
0.0
 32
0.0
 14
1.0000000000E+20
 24
1.0000000000E+20
 34
1.0000000000E+20
 15
-1.0000000000E+20
 25
-1.0000000000E+20
 35
-1.0000000000E+20
146
0.0
 13
0.0
 23
0.0
 33
0.0
 16
1.0
 26
0.0
 36
0.0
 17
0.0
 27
1.0
 37
0.0
 76
     0
330
1B
  0
LAYOUT
  5
26
102
{ACAD_REACTORS
330
1A
102
}
330
1A
100
AcDbPlotSettings
  1

  2
none_device
  4

  6

 40
0.0
 41
0.0
 42
0.0
 43
0.0
 44
0.0
 45
0.0
 46
0.0
 47
0.0
 48
0.0
 49
0.0
140
0.0
141
0.0
142
1.0
143
1.0
 70
   688
 72
     1
 73
     0
 74
     5
  7

 75
    16
147
1.0
148
0.0
149
0.0
100
AcDbLayout
  1
Layout2
 70
     1
 71
     2
 10
0.0
 20
0.0
 11
0.0
 21
0.0
 12
0.0
 22
0.0
 32
0.0
 14
0.0
 24
0.0
 34
0.0
 15
0.0
 25
0.0
 35
0.0
146
0.0
 13
0.0
 23
0.0
 33
0.0
 16
1.0
 26
0.0
 36
0.0
 17
0.0
 27
1.0
 37
0.0
 76
     0
330
23
  0
LAYOUT
  5
22
102
{ACAD_REACTORS
330
1A
102
}
330
1A
100
AcDbPlotSettings
  1

  2
none_device
  4
Letter_(8.50_x_11.00_Inches)
  6

 40
6.35
 41
6.35
 42
6.35000508
 43
6.35000508
 44
215.9
 45
279.4
 46
0.0
 47
0.0
 48
0.0
 49
0.0
140
0.0
141
0.0
142
1.0
143
1.0
 70
  1712
 72
     1
 73
     0
 74
     0
  7

 75
     0
147
1.0
148
0.0
149
0.0
100
AcDbLayout
  1
Model
 70
     1
 71
     0
 10
0.0
 20
0.0
 11
594.0
 21
420.0
 12
0.0
 22
0.0
 32
0.0
 14
0.0
 24
0.0
 34
0.0
 15
594.0
 25
420.0
 35
0.0
146
0.0
 13
0.0
 23
0.0
 33
0.0
 16
1.0
 26
0.0
 36
0.0
 17
0.0
 27
1.0
 37
0.0
 76
     0
330
1F
331
29
  0
MLINESTYLE
  5
18
102
{ACAD_REACTORS
330
17
102
}
330
17
100
AcDbMlineStyle
  2
Standard
 70
     0
  3

 62
   256
 51
90.0
 52
90.0
 71
     2
 49
0.5
 62
   256
  6
BYLAYER
 49
-0.5
 62
   256
  6
BYLAYER
  0
ACDBPLACEHOLDER
  5
F
102
{ACAD_REACTORS
330
E
102
}
330
E
  0
SCALE
  5
48
102
{ACAD_REACTORS
330
47
102
}
330
47
100
AcDbScale
 70
     0
300
1:1
140
1.0
141
1.0
290
     1
  0
SCALE
  5
49
102
{ACAD_REACTORS
330
47
102
}
330
47
100
AcDbScale
 70
     0
300
1:2
140
1.0
141
2.0
290
     0
  0
SCALE
  5
4A
102
{ACAD_REACTORS
330
47
102
}
330
47
100
AcDbScale
 70
     0
300
1:4
140
1.0
141
4.0
290
     0
  0
SCALE
  5
4B
102
{ACAD_REACTORS
330
47
102
}
330
47
100
AcDbScale
 70
     0
300
1:5
140
1.0
141
5.0
290
     0
  0
SCALE
  5
4C
102
{ACAD_REACTORS
330
47
102
}
330
47
100
AcDbScale
 70
     0
300
1:8
140
1.0
141
8.0
290
     0
  0
SCALE
  5
4D
102
{ACAD_REACTORS
330
47
102
}
330
47
100
AcDbScale
 70
     0
300
1:10
140
1.0
141
10.0
290
     0
  0
SCALE
  5
4E
102
{ACAD_REACTORS
330
47
102
}
330
47
100
AcDbScale
 70
     0
300
1:16
140
1.0
141
16.0
290
     0
  0
SCALE
  5
4F
102
{ACAD_REACTORS
330
47
102
}
330
47
100
AcDbScale
 70
     0
300
1:20
140
1.0
141
20.0
290
     0
  0
SCALE
  5
50
102
{ACAD_REACTORS
330
47
102
}
330
47
100
AcDbScale
 70
     0
300
1:30
140
1.0
141
30.0
290
     0
  0
SCALE
  5
51
102
{ACAD_REACTORS
330
47
102
}
330
47
100
AcDbScale
 70
     0
300
1:40
140
1.0
141
40.0
290
     0
  0
SCALE
  5
52
102
{ACAD_REACTORS
330
47
102
}
330
47
100
AcDbScale
 70
     0
300
1:50
140
1.0
141
50.0
290
     0
  0
SCALE
  5
53
102
{ACAD_REACTORS
330
47
102
}
330
47
100
AcDbScale
 70
     0
300
1:100
140
1.0
141
100.0
290
     0
  0
SCALE
  5
54
102
{ACAD_REACTORS
330
47
102
}
330
47
100
AcDbScale
 70
     0
300
2:1
140
2.0
141
1.0
290
     0
  0
SCALE
  5
55
102
{ACAD_REACTORS
330
47
102
}
330
47
100
AcDbScale
 70
     0
300
4:1
140
4.0
141
1.0
290
     0
  0
SCALE
  5
56
102
{ACAD_REACTORS
330
47
102
}
330
47
100
AcDbScale
 70
     0
300
8:1
140
8.0
141
1.0
290
     0
  0
SCALE
  5
57
102
{ACAD_REACTORS
330
47
102
}
330
47
100
AcDbScale
 70
     0
300
10:1
140
10.0
141
1.0
290
     0
  0
SCALE
  5
58
102
{ACAD_REACTORS
330
47
102
}
330
47
100
AcDbScale
 70
     0
300
100:1
140
100.0
141
1.0
290
     0
  0
SCALE
  5
59
102
{ACAD_REACTORS
330
47
102
}
330
47
100
AcDbScale
 70
     0
300
1/128" = 1'-0"
140
0.0078125
141
12.0
290
     0
  0
SCALE
  5
5A
102
{ACAD_REACTORS
330
47
102
}
330
47
100
AcDbScale
 70
     0
300
1/64" = 1'-0"
140
0.015625
141
12.0
290
     0
  0
SCALE
  5
5B
102
{ACAD_REACTORS
330
47
102
}
330
47
100
AcDbScale
 70
     0
300
1/32" = 1'-0"
140
0.03125
141
12.0
290
     0
  0
SCALE
  5
5C
102
{ACAD_REACTORS
330
47
102
}
330
47
100
AcDbScale
 70
     0
300
1/16" = 1'-0"
140
0.0625
141
12.0
290
     0
  0
SCALE
  5
5D
102
{ACAD_REACTORS
330
47
102
}
330
47
100
AcDbScale
 70
     0
300
3/32" = 1'-0"
140
0.09375
141
12.0
290
     0
  0
SCALE
  5
5E
102
{ACAD_REACTORS
330
47
102
}
330
47
100
AcDbScale
 70
     0
300
1/8" = 1'-0"
140
0.125
141
12.0
290
     0
  0
SCALE
  5
5F
102
{ACAD_REACTORS
330
47
102
}
330
47
100
AcDbScale
 70
     0
300
3/16" = 1'-0"
140
0.1875
141
12.0
290
     0
  0
SCALE
  5
60
102
{ACAD_REACTORS
330
47
102
}
330
47
100
AcDbScale
 70
     0
300
1/4" = 1'-0"
140
0.25
141
12.0
290
     0
  0
SCALE
  5
61
102
{ACAD_REACTORS
330
47
102
}
330
47
100
AcDbScale
 70
     0
300
3/8" = 1'-0"
140
0.375
141
12.0
290
     0
  0
SCALE
  5
62
102
{ACAD_REACTORS
330
47
102
}
330
47
100
AcDbScale
 70
     0
300
1/2" = 1'-0"
140
0.5
141
12.0
290
     0
  0
SCALE
  5
63
102
{ACAD_REACTORS
330
47
102
}
330
47
100
AcDbScale
 70
     0
300
3/4" = 1'-0"
140
0.75
141
12.0
290
     0
  0
SCALE
  5
64
102
{ACAD_REACTORS
330
47
102
}
330
47
100
AcDbScale
 70
     0
300
1" = 1'-0"
140
1.0
141
12.0
290
     0
  0
SCALE
  5
65
102
{ACAD_REACTORS
330
47
102
}
330
47
100
AcDbScale
 70
     0
300
1-1/2" = 1'-0"
140
1.5
141
12.0
290
     0
  0
SCALE
  5
66
102
{ACAD_REACTORS
330
47
102
}
330
47
100
AcDbScale
 70
     0
300
3" = 1'-0"
140
3.0
141
12.0
290
     0
  0
SCALE
  5
67
102
{ACAD_REACTORS
330
47
102
}
330
47
100
AcDbScale
 70
     0
300
6" = 1'-0"
140
6.0
141
12.0
290
     0
  0
SCALE
  5
68
102
{ACAD_REACTORS
330
47
102
}
330
47
100
AcDbScale
 70
     0
300
1'-0" = 1'-0"
140
12.0
141
12.0
290
     0
  0
ENDSEC
  0
EOF
