  0
SECTION
  2
HEADER
  9
$ACADVER
  1
AC1015
  9
$ACADMAINTVER
 70
     6
  9
$DWGCODEPAGE
  3
ANSI_1250
  9
$INSBASE
 10
0.0
 20
0.0
 30
0.0
  9
$EXTMIN
 10
0.0
 20
0.0
 30
0.0
  9
$EXTMAX
 10
420.0
 20
297.0
 30
0.0
  9
$LIMMIN
 10
0.0
 20
0.0
  9
$LIMMAX
 10
420.0
 20
297.0
  9
$ORTHOMODE
 70
     0
  9
$REGENMODE
 70
     1
  9
$FILLMODE
 70
     1
  9
$QTEXTMODE
 70
     0
  9
$MIRRTEXT
 70
     1
  9
$LTSCALE
 40
1.0
  9
$ATTMODE
 70
     1
  9
$TEXTSIZE
 40
3.5
  9
$TRACEWID
 40
1.0
  9
$TEXTSTYLE
  7
Standard
  9
$CLAYER
  8
0
  9
$CELTYPE
  6
ByLayer
  9
$CECOLOR
 62
   256
  9
$CELTSCALE
 40
1.0
  9
$DISPSILH
 70
     0
  9
$DIMSCALE
 40
1.0
  9
$DIMASZ
 40
3.302
  9
$DIMEXO
 40
1.0
  9
$DIMDLI
 40
3.75
  9
$DIMRND
 40
0.0
  9
$DIMDLE
 40
0.0
  9
$DIMEXE
 40
1.0
  9
$DIMTP
 40
0.0
  9
$DIMTM
 40
0.0
  9
$DIMTXT
 40
3.5
  9
$DIMCEN
 40
2.5
  9
$DIMTSZ
 40
0.0
  9
$DIMTOL
 70
     0
  9
$DIMLIM
 70
     0
  9
$DIMTIH
 70
     1
  9
$DIMTOH
 70
     1
  9
$DIMSE1
 70
     0
  9
$DIMSE2
 70
     0
  9
$DIMTAD
 70
     1
  9
$DIMZIN
 70
     1
  9
$DIMBLK
  1

  9
$DIMASO
 70
     1
  9
$DIMSHO
 70
     1
  9
$DIMPOST
  1

  9
$DIMAPOST
  1

  9
$DIMALT
 70
     0
  9
$DIMALTD
 70
     3
  9
$DIMALTF
 40
0.0393700787
  9
$DIMLFAC
 40
1.0
  9
$DIMTOFL
 70
     1
  9
$DIMTVP
 40
0.0
  9
$DIMTIX
 70
     0
  9
$DIMSOXD
 70
     0
  9
$DIMSAH
 70
     0
  9
$DIMBLK1
  1

  9
$DIMBLK2
  1

  9
$DIMSTYLE
  2
ISO-25
  9
$DIMCLRD
 70
     0
  9
$DIMCLRE
 70
     0
  9
$DIMCLRT
 70
     0
  9
$DIMTFAC
 40
1.0
  9
$DIMGAP
 40
1.524
  9
$DIMJUST
 70
     0
  9
$DIMSD1
 70
     0
  9
$DIMSD2
 70
     0
  9
$DIMTOLJ
 70
     0
  9
$DIMTZIN
 70
     1
  9
$DIMALTZ
 70
     0
  9
$DIMALTTZ
 70
     0
  9
$DIMUPT
 70
     0
  9
$DIMDEC
 70
     2
  9
$DIMTDEC
 70
     2
  9
$DIMALTU
 70
     2
  9
$DIMALTTD
 70
     3
  9
$DIMTXSTY
  7
Standard
  9
$DIMAUNIT
 70
     0
  9
$DIMADEC
 70
     2
  9
$DIMALTRND
 40
0.0
  9
$DIMAZIN
 70
     0
  9
$DIMDSEP
 70
    44
  9
$DIMATFIT
 70
     3
  9
$DIMFRAC
 70
     0
  9
$DIMLDRBLK
  1

  9
$DIMLUNIT
 70
     2
  9
$DIMLWD
 70
    -2
  9
$DIMLWE
 70
    -2
  9
$DIMTMOVE
 70
     0
  9
$LUNITS
 70
     2
  9
$LUPREC
 70
     2
  9
$SKETCHINC
 40
1.0
  9
$FILLETRAD
 40
10.0
  9
$AUNITS
 70
     0
  9
$AUPREC
 70
     2
  9
$MENU
  1
.
  9
$ELEVATION
 40
0.0
  9
$PELEVATION
 40
0.0
  9
$THICKNESS
 40
0.0
  9
$LIMCHECK
 70
     0
  9
$CHAMFERA
 40
0.0
  9
$CHAMFERB
 40
0.0
  9
$CHAMFERC
 40
0.0
  9
$CHAMFERD
 40
0.0
  9
$SKPOLY
 70
     0
  9
$TDCREATE
 40
2460179.774875775
  9
$TDUCREATE
 40
2460179.691542442
  9
$TDUPDATE
 40
2460179.774878507
  9
$TDUUPDATE
 40
2460179.691545174
  9
$TDINDWG
 40
0.0000000116
  9
$TDUSRTIMER
 40
0.0000000116
  9
$USRTIMER
 70
     1
  9
$ANGBASE
 50
0.0
  9
$ANGDIR
 70
     0
  9
$PDMODE
 70
     0
  9
$PDSIZE
 40
-1.0
  9
$PLINEWID
 40
0.0
  9
$SPLFRAME
 70
     0
  9
$SPLINETYPE
 70
     6
  9
$SPLINESEGS
 70
     8
  9
$HANDSEED
  5
32C
  9
$SURFTAB1
 70
     6
  9
$SURFTAB2
 70
     6
  9
$SURFTYPE
 70
     6
  9
$SURFU
 70
     6
  9
$SURFV
 70
     6
  9
$UCSBASE
  2

  9
$UCSNAME
  2

  9
$UCSORG
 10
0.0
 20
0.0
 30
0.0
  9
$UCSXDIR
 10
1.0
 20
0.0
 30
0.0
  9
$UCSYDIR
 10
0.0
 20
1.0
 30
0.0
  9
$UCSORTHOREF
  2

  9
$UCSORTHOVIEW
 70
     0
  9
$UCSORGTOP
 10
0.0
 20
0.0
 30
0.0
  9
$UCSORGBOTTOM
 10
0.0
 20
0.0
 30
0.0
  9
$UCSORGLEFT
 10
0.0
 20
0.0
 30
0.0
  9
$UCSORGRIGHT
 10
0.0
 20
0.0
 30
0.0
  9
$UCSORGFRONT
 10
0.0
 20
0.0
 30
0.0
  9
$UCSORGBACK
 10
0.0
 20
0.0
 30
0.0
  9
$PUCSBASE
  2

  9
$PUCSNAME
  2

  9
$PUCSORG
 10
0.0
 20
0.0
 30
0.0
  9
$PUCSXDIR
 10
1.0
 20
0.0
 30
0.0
  9
$PUCSYDIR
 10
0.0
 20
1.0
 30
0.0
  9
$PUCSORTHOREF
  2

  9
$PUCSORTHOVIEW
 70
     0
  9
$PUCSORGTOP
 10
0.0
 20
0.0
 30
0.0
  9
$PUCSORGBOTTOM
 10
0.0
 20
0.0
 30
0.0
  9
$PUCSORGLEFT
 10
0.0
 20
0.0
 30
0.0
  9
$PUCSORGRIGHT
 10
0.0
 20
0.0
 30
0.0
  9
$PUCSORGFRONT
 10
0.0
 20
0.0
 30
0.0
  9
$PUCSORGBACK
 10
0.0
 20
0.0
 30
0.0
  9
$USERI1
 70
     0
  9
$USERI2
 70
     0
  9
$USERI3
 70
     0
  9
$USERI4
 70
     0
  9
$USERI5
 70
     0
  9
$USERR1
 40
0.0
  9
$USERR2
 40
0.0
  9
$USERR3
 40
0.0
  9
$USERR4
 40
0.0
  9
$USERR5
 40
0.0
  9
$WORLDVIEW
 70
     1
  9
$SHADEDGE
 70
     3
  9
$SHADEDIF
 70
    70
  9
$TILEMODE
 70
     1
  9
$MAXACTVP
 70
    64
  9
$PINSBASE
 10
0.0
 20
0.0
 30
0.0
  9
$PLIMCHECK
 70
     0
  9
$PEXTMIN
 10
1.0000000000E+20
 20
1.0000000000E+20
 30
1.0000000000E+20
  9
$PEXTMAX
 10
-1.0000000000E+20
 20
-1.0000000000E+20
 30
-1.0000000000E+20
  9
$PLIMMIN
 10
0.0
 20
0.0
  9
$PLIMMAX
 10
420.0
 20
297.0
  9
$UNITMODE
 70
     0
  9
$VISRETAIN
 70
     1
  9
$PLINEGEN
 70
     0
  9
$PSLTSCALE
 70
     1
  9
$TREEDEPTH
 70
  3020
  9
$CMLSTYLE
  2
Standard
  9
$CMLJUST
 70
     0
  9
$CMLSCALE
 40
20.0
  9
$PROXYGRAPHICS
 70
     1
  9
$MEASUREMENT
 70
     1
  9
$CELWEIGHT
370
    -1
  9
$ENDCAPS
280
     0
  9
$JOINSTYLE
280
     0
  9
$LWDISPLAY
290
     1
  9
$INSUNITS
 70
     4
  9
$HYPERLINKBASE
  1

  9
$STYLESHEET
  1

  9
$XEDIT
290
     1
  9
$CEPSNTYPE
380
     0
  9
$PSTYLEMODE
290
     1
  9
$FINGERPRINTGUID
  2
{f7b92e20-84a9-4104-883f-b411b4093b89}
  9
$VERSIONGUID
  2
{FAEB1C32-E019-11D5-929B-00C0DF256EC4}
  9
$EXTNAMES
290
     1
  9
$PSVPSCALE
 40
0.0
  9
$OLESTARTUP
290
     0
  0
ENDSEC
  0
SECTION
  2
CLASSES
  0
CLASS
  1
ACDBDICTIONARYWDFLT
  2
AcDbDictionaryWithDefault
  3
ObjectDBX Classes
 90
        0
280
     0
281
     0
  0
CLASS
  1
VISUALSTYLE
  2
AcDbVisualStyle
  3
ObjectDBX Classes
 90
     4095
280
     0
281
     0
  0
CLASS
  1
MATERIAL
  2
AcDbMaterial
  3
ObjectDBX Classes
 90
     1153
280
     0
281
     0
  0
CLASS
  1
SCALE
  2
AcDbScale
  3
ObjectDBX Classes
 90
     1153
280
     0
281
     0
  0
CLASS
  1
TABLESTYLE
  2
AcDbTableStyle
  3
ObjectDBX Classes
 90
     4095
280
     0
281
     0
  0
CLASS
  1
MLEADERSTYLE
  2
AcDbMLeaderStyle
  3
ACDB_MLEADERSTYLE_CLASS
 90
     4095
280
     0
281
     0
  0
CLASS
  1
SUN
  2
AcDbSun
  3
SCENEOE
 90
     1153
280
     0
281
     0
  0
CLASS
  1
ACDBPLACEHOLDER
  2
AcDbPlaceHolder
  3
ObjectDBX Classes
 90
        0
280
     0
281
     0
  0
CLASS
  1
LAYOUT
  2
AcDbLayout
  3
ObjectDBX Classes
 90
        0
280
     0
281
     0
  0
ENDSEC
  0
SECTION
  2
TABLES
  0
TABLE
  2
VPORT
  5
8
330
0
100
AcDbSymbolTable
 70
     1
  0
VPORT
  5
29
330
8
100
AcDbSymbolTableRecord
100
AcDbViewportTableRecord
  2
*Active
 70
     0
 10
0.0
 20
0.0
 11
1.0
 21
1.0
 12
210.0
 22
148.5
 13
0.0
 23
0.0
 14
10.0
 24
10.0
 15
10.0
 25
10.0
 16
0.0
 26
0.0
 36
1.0
 17
0.0
 27
0.0
 37
0.0
 40
297.0
 41
1.4141414141
 42
50.0
 43
0.0
 44
0.0
 50
0.0
 51
0.0
 71
     0
 72
  2000
 73
     1
 74
     3
 75
     0
 76
     0
 77
     0
 78
     0
281
     0
 65
     1
110
0.0
120
0.0
130
0.0
111
1.0
121
0.0
131
0.0
112
0.0
122
1.0
132
0.0
 79
     0
146
0.0
  0
ENDTAB
  0
TABLE
  2
LTYPE
  5
5
330
0
100
AcDbSymbolTable
 70
     6
  0
LTYPE
  5
14
330
5
100
AcDbSymbolTableRecord
100
AcDbLinetypeTableRecord
  2
ByBlock
 70
     0
  3

 72
    65
 73
     0
 40
0.0
  0
LTYPE
  5
15
330
5
100
AcDbSymbolTableRecord
100
AcDbLinetypeTableRecord
  2
ByLayer
 70
     0
  3

 72
    65
 73
     0
 40
0.0
  0
LTYPE
  5
16
330
5
100
AcDbSymbolTableRecord
100
AcDbLinetypeTableRecord
  2
Continuous
 70
     0
  3
Solid line
 72
    65
 73
     0
 40
0.0
  0
LTYPE
  5
6E
330
5
100
AcDbSymbolTableRecord
100
AcDbLinetypeTableRecord
  2
HIDDEN
 70
     0
  3
Hidden __ __ __ __ __ __ __ __ __ __ __ __ __ __
 72
    65
 73
     2
 40
1.905
 49
1.27
 74
     0
 49
-0.635
 74
     0
  0
LTYPE
  5
6F
330
5
100
AcDbSymbolTableRecord
100
AcDbLinetypeTableRecord
  2
PHANTOM
 70
     0
  3
Phantom ______  __  __  ______  __  __  ______
 72
    65
 73
     6
 40
12.7
 49
6.35
 74
     0
 49
-1.27
 74
     0
 49
1.27
 74
     0
 49
-1.27
 74
     0
 49
1.27
 74
     0
 49
-1.27
 74
     0
  0
LTYPE
  5
70
330
5
100
AcDbSymbolTableRecord
100
AcDbLinetypeTableRecord
  2
CENTER
 70
     0
  3
Center ____ _ ____ _ ____ _ ____ _ ____ _ ____
 72
    65
 73
     4
 40
10.16
 49
6.35
 74
     0
 49
-1.27
 74
     0
 49
1.27
 74
     0
 49
-1.27
 74
     0
  0
LTYPE
  5
71
330
5
100
AcDbSymbolTableRecord
100
AcDbLinetypeTableRecord
  2
CENTERX2
 70
     0
  3
Center (2x) ________  __  ________  __  _____
 72
    65
 73
     4
 40
20.32
 49
12.7
 74
     0
 49
-2.54
 74
     0
 49
2.54
 74
     0
 49
-2.54
 74
     0
  0
LTYPE
  5
72
330
5
100
AcDbSymbolTableRecord
100
AcDbLinetypeTableRecord
  2
DOT2
 70
     0
  3
Dot (.5x) ........................................
 72
    65
 73
     2
 40
0.635
 49
0.0
 74
     0
 49
-0.635
 74
     0
  0
ENDTAB
  0
TABLE
  2
LAYER
  5
2
330
0
100
AcDbSymbolTable
 70
     2
  0
LAYER
  5
10
330
2
100
AcDbSymbolTableRecord
100
AcDbLayerTableRecord
  2
0
 70
     0
 62
     7
  6
Continuous
370
    -3
390
F
  0
LAYER
  5
73
330
2
100
AcDbSymbolTableRecord
100
AcDbLayerTableRecord
  2
FORMAT
 70
     0
 62
     7
  6
Continuous
370
    -3
390
F
  0
ENDTAB
  0
TABLE
  2
STYLE
  5
3
330
0
100
AcDbSymbolTable
 70
     4
  0
STYLE
  5
11
330
3
100
AcDbSymbolTableRecord
100
AcDbTextStyleTableRecord
  2
Standard
 70
     0
 40
0.0
 41
1.0
 50
0.0
 71
     0
 42
3.5
  3
txt
  4

  0
STYLE
  5
B1
330
3
100
AcDbSymbolTableRecord
100
AcDbTextStyleTableRecord
  2
SLDTEXTSTYLE0
 70
     0
 40
0.0
 41
0.75
 50
0.0
 71
     0
 42
3.5
  3
TXT
  4

  0
STYLE
  5
D1
330
3
100
AcDbSymbolTableRecord
100
AcDbTextStyleTableRecord
  2
SLDTEXTSTYLE1
 70
     0
 40
0.0
 41
0.6875
 50
0.0
 71
     0
 42
3.5
  3
TXT
  4
bigfont
  0
STYLE
  5
D3
330
3
100
AcDbSymbolTableRecord
100
AcDbTextStyleTableRecord
  2
SLDTEXTSTYLE2
 70
     0
 40
0.0
 41
0.75
 50
0.0
 71
     0
 42
3.5
  3
TXT
  4
bigfont
  0
ENDTAB
  0
TABLE
  2
VIEW
  5
6
330
0
100
AcDbSymbolTable
 70
     0
  0
ENDTAB
  0
TABLE
  2
UCS
  5
7
330
0
100
AcDbSymbolTable
 70
     0
  0
ENDTAB
  0
TABLE
  2
APPID
  5
9
330
0
100
AcDbSymbolTable
 70
     1
  0
APPID
  5
12
330
9
100
AcDbSymbolTableRecord
100
AcDbRegAppTableRecord
  2
ACAD
 70
     0
  0
ENDTAB
  0
TABLE
  2
DIMSTYLE
  5
A
330
0
100
AcDbSymbolTable
 70
     6
100
AcDbDimStyleTable
  0
DIMSTYLE
105
27
330
A
100
AcDbSymbolTableRecord
100
AcDbDimStyleTableRecord
  2
ISO-25
 70
     0
 41
2.5
 42
0.625
 43
3.75
 44
1.25
 73
     0
 74
     0
 77
     1
 78
     8
140
2.5
141
2.5
143
0.0393700787
147
0.625
171
     3
172
     1
178
     0
271
     2
272
     2
274
     3
278
    44
283
     0
284
     8
340
11
  0
DIMSTYLE
105
20B
102
{ACAD_REACTORS
330
20A
330
22C
330
238
330
25C
102
}
330
A
100
AcDbSymbolTableRecord
100
AcDbDimStyleTableRecord
  2
SLDDIMSTYLE0
 70
     0
 41
3.302
 44
0.0
 45
0.000000001
 73
     0
 74
     0
 77
     1
 78
    12
 79
     3
140
3.5
147
0.875
172
     1
173
     1
178
     0
271
     0
272
     0
276
     2
284
    12
289
     0
340
B1
  0
DIMSTYLE
105
218
102
{ACAD_REACTORS
330
217
330
222
330
244
330
2CC
330
2D6
330
2E0
330
2EA
102
}
330
A
100
AcDbSymbolTableRecord
100
AcDbDimStyleTableRecord
  2
SLDDIMSTYLE1
 70
     0
 41
3.302
 44
0.0
 45
0.000000001
 73
     0
 74
     0
 77
     1
 78
    12
 79
     3
140
3.5
147
0.875
173
     1
178
     0
271
     0
272
     0
276
     2
284
    12
340
B1
  0
DIMSTYLE
105
250
102
{ACAD_REACTORS
330
24F
102
}
330
A
100
AcDbSymbolTableRecord
100
AcDbDimStyleTableRecord
  2
SLDDIMSTYLE2
 70
     0
 41
3.302
 44
0.0
 45
0.000000001
 73
     0
 74
     0
 77
     1
 78
    12
 79
     3
140
3.5
147
0.875
173
     1
178
     0
271
     0
272
     2
276
     2
284
    12
340
B1
  0
DIMSTYLE
105
2B7
102
{ACAD_REACTORS
330
2B6
330
2F4
102
}
330
A
100
AcDbSymbolTableRecord
100
AcDbDimStyleTableRecord
  2
SLDDIMSTYLE3
 70
     0
  3
<>
 41
3.302
 44
0.0
 45
0.000000001
 73
     0
 74
     0
 77
     1
 78
    12
 79
     3
140
3.5
141
0.0
147
0.875
172
     1
173
     1
178
     0
271
     2
272
     2
276
     2
284
    12
340
B1
341
2B8
343
2B8
  0
DIMSTYLE
105
2C3
102
{ACAD_REACTORS
330
2C2
102
}
330
A
100
AcDbSymbolTableRecord
100
AcDbDimStyleTableRecord
  2
SLDDIMSTYLE4
 70
     0
 41
3.302
 44
0.0
 45
0.000000001
 73
     0
 74
     0
 77
     1
 78
    12
 79
     3
140
3.5
141
0.0
147
0.875
172
     1
173
     1
178
     0
271
     0
272
     2
276
     2
284
    12
340
B1
341
2B8
343
2B8
  0
ENDTAB
  0
TABLE
  2
BLOCK_RECORD
  5
1
330
0
100
AcDbSymbolTable
 70
    25
  0
BLOCK_RECORD
  5
1F
330
1
100
AcDbSymbolTableRecord
100
AcDbBlockTableRecord
  2
*Model_Space
340
22
  0
BLOCK_RECORD
  5
1B
330
1
100
AcDbSymbolTableRecord
100
AcDbBlockTableRecord
  2
*Paper_Space
340
1E
  0
BLOCK_RECORD
  5
23
330
1
100
AcDbSymbolTableRecord
100
AcDbBlockTableRecord
  2
*Paper_Space0
340
26
  0
BLOCK_RECORD
  5
DD
330
1
100
AcDbSymbolTableRecord
100
AcDbBlockTableRecord
  2
SW_NOTE_0
340
0
102
{BLKREFS
331
E2
102
}
  0
BLOCK_RECORD
  5
E4
330
1
100
AcDbSymbolTableRecord
100
AcDbBlockTableRecord
  2
SW_NOTE_0_1
340
0
102
{BLKREFS
331
ED
102
}
  0
BLOCK_RECORD
  5
20C
330
1
100
AcDbSymbolTableRecord
100
AcDbBlockTableRecord
  2
_D
340
0
  0
BLOCK_RECORD
  5
219
330
1
100
AcDbSymbolTableRecord
100
AcDbBlockTableRecord
  2
_D_1
340
0
  0
BLOCK_RECORD
  5
223
330
1
100
AcDbSymbolTableRecord
100
AcDbBlockTableRecord
  2
_D_2
340
0
  0
BLOCK_RECORD
  5
22D
330
1
100
AcDbSymbolTableRecord
100
AcDbBlockTableRecord
  2
_D_3
340
0
  0
BLOCK_RECORD
  5
239
330
1
100
AcDbSymbolTableRecord
100
AcDbBlockTableRecord
  2
_D_4
340
0
  0
BLOCK_RECORD
  5
245
330
1
100
AcDbSymbolTableRecord
100
AcDbBlockTableRecord
  2
_D_5
340
0
  0
BLOCK_RECORD
  5
251
330
1
100
AcDbSymbolTableRecord
100
AcDbBlockTableRecord
  2
_D_6
340
0
  0
BLOCK_RECORD
  5
25D
330
1
100
AcDbSymbolTableRecord
100
AcDbBlockTableRecord
  2
_D_7
340
0
  0
BLOCK_RECORD
  5
268
330
1
100
AcDbSymbolTableRecord
100
AcDbBlockTableRecord
  2
SW_CENTERMARKSYMBOL_0
340
0
102
{BLKREFS
331
273
102
}
  0
BLOCK_RECORD
  5
274
330
1
100
AcDbSymbolTableRecord
100
AcDbBlockTableRecord
  2
SW_CENTERMARKSYMBOL_1
340
0
102
{BLKREFS
331
27F
102
}
  0
BLOCK_RECORD
  5
2B8
330
1
100
AcDbSymbolTableRecord
100
AcDbBlockTableRecord
  2
_None
340
0
  0
BLOCK_RECORD
  5
2BB
330
1
100
AcDbSymbolTableRecord
100
AcDbBlockTableRecord
  2
_D_8
340
0
  0
BLOCK_RECORD
  5
2C4
330
1
100
AcDbSymbolTableRecord
100
AcDbBlockTableRecord
  2
_D_9
340
0
  0
BLOCK_RECORD
  5
2CD
330
1
100
AcDbSymbolTableRecord
100
AcDbBlockTableRecord
  2
_D_10
340
0
  0
BLOCK_RECORD
  5
2D7
330
1
100
AcDbSymbolTableRecord
100
AcDbBlockTableRecord
  2
_D_11
340
0
  0
BLOCK_RECORD
  5
2E1
330
1
100
AcDbSymbolTableRecord
100
AcDbBlockTableRecord
  2
_D_12
340
0
  0
BLOCK_RECORD
  5
2EB
330
1
100
AcDbSymbolTableRecord
100
AcDbBlockTableRecord
  2
_D_13
340
0
  0
BLOCK_RECORD
  5
2F5
330
1
100
AcDbSymbolTableRecord
100
AcDbBlockTableRecord
  2
_D_14
340
0
  0
BLOCK_RECORD
  5
2FC
330
1
100
AcDbSymbolTableRecord
100
AcDbBlockTableRecord
  2
SW_CENTERMARKSYMBOL_2
340
0
102
{BLKREFS
331
307
102
}
  0
BLOCK_RECORD
  5
308
330
1
100
AcDbSymbolTableRecord
100
AcDbBlockTableRecord
  2
SW_CENTERMARKSYMBOL_3
340
0
102
{BLKREFS
331
313
102
}
  0
BLOCK_RECORD
  5
314
330
1
100
AcDbSymbolTableRecord
100
AcDbBlockTableRecord
  2
SW_CENTERMARKSYMBOL_4
340
0
102
{BLKREFS
331
31F
102
}
  0
BLOCK_RECORD
  5
320
330
1
100
AcDbSymbolTableRecord
100
AcDbBlockTableRecord
  2
SW_CENTERMARKSYMBOL_5
340
0
102
{BLKREFS
331
32B
102
}
  0
ENDTAB
  0
ENDSEC
  0
SECTION
  2
BLOCKS
  0
BLOCK
  5
20
330
1F
100
AcDbEntity
  8
0
100
AcDbBlockBegin
  2
*Model_Space
 70
     0
 10
0.0
 20
0.0
 30
0.0
  3
*Model_Space
  1

  0
ENDBLK
  5
21
330
1F
100
AcDbEntity
  8
0
100
AcDbBlockEnd
  0
BLOCK
  5
1C
330
1B
100
AcDbEntity
 67
     1
  8
0
100
AcDbBlockBegin
  2
*Paper_Space
 70
     0
 10
0.0
 20
0.0
 30
0.0
  3
*Paper_Space
  1

  0
ENDBLK
  5
1D
330
1B
100
AcDbEntity
 67
     1
  8
0
100
AcDbBlockEnd
  0
BLOCK
  5
24
330
23
100
AcDbEntity
  8
0
100
AcDbBlockBegin
  2
*Paper_Space0
 70
     0
 10
0.0
 20
0.0
 30
0.0
  3
*Paper_Space0
  1

  0
ENDBLK
  5
25
330
23
100
AcDbEntity
  8
0
100
AcDbBlockEnd
  0
BLOCK
  5
DE
330
DD
100
AcDbEntity
  8
0
100
AcDbBlockBegin
  2
SW_NOTE_0
 70
     0
 10
0.0
 20
0.0
 30
0.0
  3
SW_NOTE_0
  1

  0
MTEXT
  5
E0
330
DD
100
AcDbEntity
  8
0
  6
Continuous
 62
     0
370
     0
100
AcDbMText
 10
0.0
 20
1.9336016097
 30
0.0
 40
1.5
 41
0.0
 71
     1
 72
     1
  1
ODSTRANIT
  7
SLDTEXTSTYLE0
 73
     1
 44
1.0
  0
MTEXT
  5
E1
330
DD
100
AcDbEntity
  8
0
  6
Continuous
 62
     0
370
     0
100
AcDbMText
 10
0.0
 20
-0.5663983345
 30
0.0
 40
1.5
 41
0.0
 71
     1
 72
     1
  1
OSTRÉ HRANY
  7
SLDTEXTSTYLE0
 73
     1
 44
1.0
  0
ENDBLK
  5
DF
330
DD
100
AcDbEntity
  8
0
100
AcDbBlockEnd
  0
BLOCK
  5
E5
330
E4
100
AcDbEntity
  8
0
100
AcDbBlockBegin
  2
SW_NOTE_0_1
 70
     0
 10
0.0
 20
0.0
 30
0.0
  3
SW_NOTE_0_1
  1

  0
MTEXT
  5
E7
330
E4
100
AcDbEntity
  8
0
  6
Continuous
 62
     0
370
     0
100
AcDbMText
 10
0.0
 20
1.9336016097
 30
0.0
 40
1.5
 41
0.0
 71
     1
 72
     1
  1
POKUD NENÍ UVEDENO JINAK:
  7
SLDTEXTSTYLE0
 73
     1
 44
1.0
  0
MTEXT
  5
E8
330
E4
100
AcDbEntity
  8
0
  6
Continuous
 62
     0
370
     0
100
AcDbMText
 10
0.0
 20
-0.5663983345
 30
0.0
 40
1.5
 41
0.0
 71
     1
 72
     1
  1
JEDNOTKY JSOU V MILIMETRECH
  7
SLDTEXTSTYLE0
 73
     1
 44
1.0
  0
MTEXT
  5
E9
330
E4
100
AcDbEntity
  8
0
  6
Continuous
 62
     0
370
     0
100
AcDbMText
 10
0.0
 20
-3.0663982786
 30
0.0
 40
1.5
 41
0.0
 71
     1
 72
     1
  1
DRSNOST:
  7
SLDTEXTSTYLE0
 73
     1
 44
1.0
  0
MTEXT
  5
EA
330
E4
100
AcDbEntity
  8
0
  6
Continuous
 62
     0
370
     0
100
AcDbMText
 10
0.0
 20
-5.5663982227
 30
0.0
 40
1.5
 41
0.0
 71
     1
 72
     1
  1
TOLERANCE:
  7
SLDTEXTSTYLE0
 73
     1
 44
1.0
  0
MTEXT
  5
EB
330
E4
100
AcDbEntity
  8
0
  6
Continuous
 62
     0
370
     0
100
AcDbMText
 10
1.6875
 20
-8.0663981668
 30
0.0
 40
1.5
 41
0.0
 71
     1
 72
     1
  1
LINEÁRNÍ:
  7
SLDTEXTSTYLE0
 73
     1
 44
1.0
  0
MTEXT
  5
EC
330
E4
100
AcDbEntity
  8
0
  6
Continuous
 62
     0
370
     0
100
AcDbMText
 10
1.6875
 20
-10.5663981109
 30
0.0
 40
1.5
 41
0.0
 71
     1
 72
     1
  1
ÚHLOVÁ:
  7
SLDTEXTSTYLE0
 73
     1
 44
1.0
  0
ENDBLK
  5
E6
330
E4
100
AcDbEntity
  8
0
100
AcDbBlockEnd
  0
BLOCK
  5
20D
330
20C
100
AcDbEntity
  8
0
100
AcDbBlockBegin
  2
_D
 70
     0
 10
0.0
 20
0.0
 30
0.0
  3
_D
  1

  0
SOLID
  5
20F
330
20C
100
AcDbEntity
  8
0
  6
Continuous
 62
     7
370
    18
100
AcDbTrace
 10
225.94
 20
154.0599999999
 30
0.0
 11
222.638
 21
154.5679999999
 31
0.0
 12
222.638
 22
153.5519999999
 32
0.0
 13
222.638
 23
153.5519999999
 33
0.0
  0
SOLID
  5
210
330
20C
100
AcDbEntity
  8
0
  6
Continuous
 62
     7
370
    18
100
AcDbTrace
 10
231.94
 20
154.0599999999
 30
0.0
 11
235.242
 21
153.5519999999
 31
0.0
 12
235.242
 22
154.5679999999
 32
0.0
 13
235.242
 23
154.5679999999
 33
0.0
  0
LINE
  5
211
330
20C
100
AcDbEntity
  8
0
  6
Continuous
 62
     7
370
     0
100
AcDbLine
 10
225.94
 20
170.56
 30
0.0
 11
225.94
 21
153.0599999999
 31
0.0
  0
LINE
  5
212
330
20C
100
AcDbEntity
  8
0
  6
Continuous
 62
     7
370
     0
100
AcDbLine
 10
231.94
 20
196.06
 30
0.0
 11
231.94
 21
153.0599999999
 31
0.0
  0
LINE
  5
213
330
20C
100
AcDbEntity
  8
0
  6
Continuous
 62
     7
370
     0
100
AcDbLine
 10
225.94
 20
154.0599999999
 30
0.0
 11
219.59
 21
154.0599999999
 31
0.0
  0
LINE
  5
214
330
20C
100
AcDbEntity
  8
0
  6
Continuous
 62
     7
370
     0
100
AcDbLine
 10
225.94
 20
154.0599999999
 30
0.0
 11
231.94
 21
154.0599999999
 31
0.0
  0
LINE
  5
215
330
20C
100
AcDbEntity
  8
0
  6
Continuous
 62
     7
370
     0
100
AcDbLine
 10
231.94
 20
154.0599999999
 30
0.0
 11
238.29
 21
154.0599999999
 31
0.0
  0
MTEXT
  5
216
330
20C
100
AcDbEntity
  8
0
  6
Continuous
 62
     7
370
    18
100
AcDbMText
 10
227.6469444032
 20
158.5717369145
 30
0.0
 40
3.5
 41
0.0
 71
     1
 72
     1
  1
6
  7
SLDTEXTSTYLE0
 73
     1
 44
1.0
  0
ENDBLK
  5
20E
330
20C
100
AcDbEntity
  8
0
100
AcDbBlockEnd
  0
BLOCK
  5
21A
330
219
100
AcDbEntity
  8
0
100
AcDbBlockBegin
  2
_D_1
 70
     0
 10
0.0
 20
0.0
 30
0.0
  3
_D_1
  1

  0
SOLID
  5
21C
330
219
100
AcDbEntity
  8
0
  6
Continuous
 62
     7
370
    18
100
AcDbTrace
 10
165.94
 20
264.06
 30
0.0
 11
169.242
 21
263.552
 31
0.0
 12
169.242
 22
264.568
 32
0.0
 13
169.242
 23
264.568
 33
0.0
  0
SOLID
  5
21D
330
219
100
AcDbEntity
  8
0
  6
Continuous
 62
     7
370
    18
100
AcDbTrace
 10
209.94
 20
264.06
 30
0.0
 11
206.638
 21
264.568
 31
0.0
 12
206.638
 22
263.552
 32
0.0
 13
206.638
 23
263.552
 33
0.0
  0
LINE
  5
21E
330
219
100
AcDbEntity
  8
0
  6
Continuous
 62
     7
370
     0
100
AcDbLine
 10
165.94
 20
255.06
 30
0.0
 11
165.94
 21
265.06
 31
0.0
  0
LINE
  5
21F
330
219
100
AcDbEntity
  8
0
  6
Continuous
 62
     7
370
     0
100
AcDbLine
 10
209.94
 20
255.06
 30
0.0
 11
209.94
 21
265.06
 31
0.0
  0
LINE
  5
220
330
219
100
AcDbEntity
  8
0
  6
Continuous
 62
     7
370
     0
100
AcDbLine
 10
165.94
 20
264.06
 30
0.0
 11
209.94
 21
264.06
 31
0.0
  0
MTEXT
  5
221
330
219
100
AcDbEntity
  8
0
  6
Continuous
 62
     7
370
    18
100
AcDbMText
 10
185.3538888065
 20
268.5717369145
 30
0.0
 40
3.5
 41
0.0
 71
     1
 72
     1
  1
44
  7
SLDTEXTSTYLE0
 73
     1
 44
1.0
  0
ENDBLK
  5
21B
330
219
100
AcDbEntity
  8
0
100
AcDbBlockEnd
  0
BLOCK
  5
224
330
223
100
AcDbEntity
  8
0
100
AcDbBlockBegin
  2
_D_2
 70
     0
 10
0.0
 20
0.0
 30
0.0
  3
_D_2
  1

  0
SOLID
  5
226
330
223
100
AcDbEntity
  8
0
  6
Continuous
 62
     7
370
    18
100
AcDbTrace
 10
231.94
 20
148.0599999999
 30
0.0
 11
228.638
 21
148.5679999999
 31
0.0
 12
228.638
 22
147.5519999999
 32
0.0
 13
228.638
 23
147.5519999999
 33
0.0
  0
SOLID
  5
227
330
223
100
AcDbEntity
  8
0
  6
Continuous
 62
     7
370
    18
100
AcDbTrace
 10
81.94
 20
148.0599999999
 30
0.0
 11
85.242
 21
147.5519999999
 31
0.0
 12
85.242
 22
148.5679999999
 32
0.0
 13
85.242
 23
148.5679999999
 33
0.0
  0
LINE
  5
228
330
223
100
AcDbEntity
  8
0
  6
Continuous
 62
     7
370
     0
100
AcDbLine
 10
231.94
 20
196.06
 30
0.0
 11
231.94
 21
147.0599999999
 31
0.0
  0
LINE
  5
229
330
223
100
AcDbEntity
  8
0
  6
Continuous
 62
     7
370
     0
100
AcDbLine
 10
81.94
 20
163.06
 30
0.0
 11
81.94
 21
147.0599999999
 31
0.0
  0
LINE
  5
22A
330
223
100
AcDbEntity
  8
0
  6
Continuous
 62
     7
370
     0
100
AcDbLine
 10
231.94
 20
148.0599999999
 30
0.0
 11
81.94
 21
148.0599999999
 31
0.0
  0
MTEXT
  5
22B
330
223
100
AcDbEntity
  8
0
  6
Continuous
 62
     7
370
    18
100
AcDbMText
 10
153.0608333261
 20
152.5717369145
 30
0.0
 40
3.5
 41
0.0
 71
     1
 72
     1
  1
150
  7
SLDTEXTSTYLE0
 73
     1
 44
1.0
  0
ENDBLK
  5
225
330
223
100
AcDbEntity
  8
0
100
AcDbBlockEnd
  0
BLOCK
  5
22E
330
22D
100
AcDbEntity
  8
0
100
AcDbBlockBegin
  2
_D_3
 70
     0
 10
0.0
 20
0.0
 30
0.0
  3
_D_3
  1

  0
SOLID
  5
230
330
22D
100
AcDbEntity
  8
0
  6
Continuous
 62
     7
370
    18
100
AcDbTrace
 10
65.94
 20
154.0599999999
 30
0.0
 11
62.638
 21
154.5679999999
 31
0.0
 12
62.638
 22
153.5519999999
 32
0.0
 13
62.638
 23
153.5519999999
 33
0.0
  0
SOLID
  5
231
330
22D
100
AcDbEntity
  8
0
  6
Continuous
 62
     7
370
    18
100
AcDbTrace
 10
81.94
 20
154.0599999999
 30
0.0
 11
85.242
 21
153.5519999999
 31
0.0
 12
85.242
 22
154.5679999999
 32
0.0
 13
85.242
 23
154.5679999999
 33
0.0
  0
LINE
  5
232
330
22D
100
AcDbEntity
  8
0
  6
Continuous
 62
     7
370
     0
100
AcDbLine
 10
65.94
 20
168.71
 30
0.0
 11
65.94
 21
153.0599999999
 31
0.0
  0
LINE
  5
233
330
22D
100
AcDbEntity
  8
0
  6
Continuous
 62
     7
370
     0
100
AcDbLine
 10
81.94
 20
163.06
 30
0.0
 11
81.94
 21
153.0599999999
 31
0.0
  0
LINE
  5
234
330
22D
100
AcDbEntity
  8
0
  6
Continuous
 62
     7
370
     0
100
AcDbLine
 10
65.94
 20
154.0599999999
 30
0.0
 11
59.59
 21
154.0599999999
 31
0.0
  0
LINE
  5
235
330
22D
100
AcDbEntity
  8
0
  6
Continuous
 62
     7
370
     0
100
AcDbLine
 10
65.94
 20
154.0599999999
 30
0.0
 11
81.94
 21
154.0599999999
 31
0.0
  0
LINE
  5
236
330
22D
100
AcDbEntity
  8
0
  6
Continuous
 62
     7
370
     0
100
AcDbLine
 10
81.94
 20
154.0599999999
 30
0.0
 11
88.29
 21
154.0599999999
 31
0.0
  0
MTEXT
  5
237
330
22D
100
AcDbEntity
  8
0
  6
Continuous
 62
     7
370
    18
100
AcDbMText
 10
71.3538888065
 20
158.5717369145
 30
0.0
 40
3.5
 41
0.0
 71
     1
 72
     1
  1
16
  7
SLDTEXTSTYLE0
 73
     1
 44
1.0
  0
ENDBLK
  5
22F
330
22D
100
AcDbEntity
  8
0
100
AcDbBlockEnd
  0
BLOCK
  5
23A
330
239
100
AcDbEntity
  8
0
100
AcDbBlockBegin
  2
_D_4
 70
     0
 10
0.0
 20
0.0
 30
0.0
  3
_D_4
  1

  0
SOLID
  5
23C
330
239
100
AcDbEntity
  8
0
  6
Continuous
 62
     7
370
    18
100
AcDbTrace
 10
225.94
 20
270.06
 30
0.0
 11
229.242
 21
269.552
 31
0.0
 12
229.242
 22
270.568
 32
0.0
 13
229.242
 23
270.568
 33
0.0
  0
SOLID
  5
23D
330
239
100
AcDbEntity
  8
0
  6
Continuous
 62
     7
370
    18
100
AcDbTrace
 10
209.94
 20
270.06
 30
0.0
 11
206.638
 21
270.568
 31
0.0
 12
206.638
 22
269.552
 32
0.0
 13
206.638
 23
269.552
 33
0.0
  0
LINE
  5
23E
330
239
100
AcDbEntity
  8
0
  6
Continuous
 62
     7
370
     0
100
AcDbLine
 10
225.94
 20
247.56
 30
0.0
 11
225.94
 21
271.06
 31
0.0
  0
LINE
  5
23F
330
239
100
AcDbEntity
  8
0
  6
Continuous
 62
     7
370
     0
100
AcDbLine
 10
209.94
 20
255.06
 30
0.0
 11
209.94
 21
271.06
 31
0.0
  0
LINE
  5
240
330
239
100
AcDbEntity
  8
0
  6
Continuous
 62
     7
370
     0
100
AcDbLine
 10
225.94
 20
270.06
 30
0.0
 11
232.29
 21
270.06
 31
0.0
  0
LINE
  5
241
330
239
100
AcDbEntity
  8
0
  6
Continuous
 62
     7
370
     0
100
AcDbLine
 10
225.94
 20
270.06
 30
0.0
 11
209.94
 21
270.06
 31
0.0
  0
LINE
  5
242
330
239
100
AcDbEntity
  8
0
  6
Continuous
 62
     7
370
     0
100
AcDbLine
 10
209.94
 20
270.06
 30
0.0
 11
203.59
 21
270.06
 31
0.0
  0
MTEXT
  5
243
330
239
100
AcDbEntity
  8
0
  6
Continuous
 62
     7
370
    18
100
AcDbMText
 10
215.3538888065
 20
274.5717369146
 30
0.0
 40
3.5
 41
0.0
 71
     1
 72
     1
  1
16
  7
SLDTEXTSTYLE0
 73
     1
 44
1.0
  0
ENDBLK
  5
23B
330
239
100
AcDbEntity
  8
0
100
AcDbBlockEnd
  0
BLOCK
  5
246
330
245
100
AcDbEntity
  8
0
100
AcDbBlockBegin
  2
_D_5
 70
     0
 10
0.0
 20
0.0
 30
0.0
  3
_D_5
  1

  0
SOLID
  5
248
330
245
100
AcDbEntity
  8
0
  6
Continuous
 62
     7
370
    18
100
AcDbTrace
 10
269.94
 20
195.06
 30
0.0
 11
270.448
 21
198.362
 31
0.0
 12
269.432
 22
198.362
 32
0.0
 13
269.432
 23
198.362
 33
0.0
  0
SOLID
  5
249
330
245
100
AcDbEntity
  8
0
  6
Continuous
 62
     7
370
    18
100
AcDbTrace
 10
269.94
 20
223.06
 30
0.0
 11
269.432
 21
219.758
 31
0.0
 12
270.448
 22
219.758
 32
0.0
 13
270.448
 23
219.758
 33
0.0
  0
LINE
  5
24A
330
245
100
AcDbEntity
  8
0
  6
Continuous
 62
     7
370
     0
100
AcDbLine
 10
224.44
 20
195.06
 30
0.0
 11
270.94
 21
195.06
 31
0.0
  0
LINE
  5
24B
330
245
100
AcDbEntity
  8
0
  6
Continuous
 62
     7
370
     0
100
AcDbLine
 10
224.44
 20
223.06
 30
0.0
 11
270.94
 21
223.06
 31
0.0
  0
LINE
  5
24C
330
245
100
AcDbEntity
  8
0
  6
Continuous
 62
     7
370
     0
100
AcDbLine
 10
269.94
 20
195.06
 30
0.0
 11
269.94
 21
223.06
 31
0.0
  0
MTEXT
  5
24D
330
245
100
AcDbEntity
  8
0
  6
Continuous
 62
     7
370
    18
100
AcDbMText
 10
265.4282629108
 20
203.8346698744
 30
0.0
 40
3.5
 41
0.0
 71
     1
 72
     1
  1
%%c
  7
SLDTEXTSTYLE0
 11
6.123233995736766E-17
 21
1.0
 31
0.0
 73
     1
 44
1.0
  0
MTEXT
  5
24E
330
245
100
AcDbEntity
  8
0
  6
Continuous
 62
     7
370
    18
100
AcDbMText
 10
265.3747907341
 20
209.1131072728
 30
0.0
 40
3.5
 41
0.0
 71
     1
 72
     1
  1
28
  7
SLDTEXTSTYLE0
 11
6.123233995736766E-17
 21
1.0
 31
0.0
 73
     1
 44
1.0
  0
ENDBLK
  5
247
330
245
100
AcDbEntity
  8
0
100
AcDbBlockEnd
  0
BLOCK
  5
252
330
251
100
AcDbEntity
  8
0
100
AcDbBlockBegin
  2
_D_6
 70
     0
 10
0.0
 20
0.0
 30
0.0
  3
_D_6
  1

  0
SOLID
  5
254
330
251
100
AcDbEntity
  8
0
  6
Continuous
 62
     7
370
    18
100
AcDbTrace
 10
275.94
 20
230.06
 30
0.0
 11
275.432
 21
226.758
 31
0.0
 12
276.448
 22
226.758
 32
0.0
 13
276.448
 23
226.758
 33
0.0
  0
SOLID
  5
255
330
251
100
AcDbEntity
  8
0
  6
Continuous
 62
     7
370
    18
100
AcDbTrace
 10
275.94
 20
188.06
 30
0.0
 11
276.448
 21
191.362
 31
0.0
 12
275.432
 22
191.362
 32
0.0
 13
275.432
 23
191.362
 33
0.0
  0
LINE
  5
256
330
251
100
AcDbEntity
  8
0
  6
Continuous
 62
     7
370
     0
100
AcDbLine
 10
237.44
 20
230.06
 30
0.0
 11
276.94
 21
230.06
 31
0.0
  0
LINE
  5
257
330
251
100
AcDbEntity
  8
0
  6
Continuous
 62
     7
370
     0
100
AcDbLine
 10
237.44
 20
188.06
 30
0.0
 11
276.94
 21
188.06
 31
0.0
  0
LINE
  5
258
330
251
100
AcDbEntity
  8
0
  6
Continuous
 62
     7
370
     0
100
AcDbLine
 10
275.94
 20
230.06
 30
0.0
 11
275.94
 21
188.06
 31
0.0
  0
MTEXT
  5
259
330
251
100
AcDbEntity
  8
0
  6
Continuous
 62
     7
370
    18
100
AcDbMText
 10
271.4282629108
 20
201.1634891158
 30
0.0
 40
3.5
 41
0.0
 71
     1
 72
     1
  1
%%c
  7
SLDTEXTSTYLE0
 11
-6.156016597943509E-15
 21
1.0
 31
0.0
 73
     1
 44
1.0
  0
MTEXT
  5
25A
330
251
100
AcDbEntity
  8
0
  6
Continuous
 62
     7
370
    18
100
AcDbMText
 10
271.3747907341
 20
206.4419265142
 30
0.0
 40
3.5
 41
0.0
 71
     1
 72
     1
  1
42
  7
SLDTEXTSTYLE0
 11
-6.156016597943509E-15
 21
1.0
 31
0.0
 73
     1
 44
1.0
  0
MTEXT
  5
25B
330
251
100
AcDbEntity
  8
0
  6
Continuous
 62
     7
370
    18
100
AcDbMText
 10
271.3747907341
 20
212.9266484356
 30
0.0
 40
3.5
 41
0.0
 71
     1
 72
     1
  1
f9
  7
SLDTEXTSTYLE0
 11
-6.156016597943509E-15
 21
1.0
 31
0.0
 73
     1
 44
1.0
  0
ENDBLK
  5
253
330
251
100
AcDbEntity
  8
0
100
AcDbBlockEnd
  0
BLOCK
  5
25E
330
25D
100
AcDbEntity
  8
0
100
AcDbBlockBegin
  2
_D_7
 70
     0
 10
0.0
 20
0.0
 30
0.0
  3
_D_7
  1

  0
SOLID
  5
260
330
25D
100
AcDbEntity
  8
0
  6
Continuous
 62
     7
370
    18
100
AcDbTrace
 10
236.94
 20
264.06
 30
0.0
 11
240.242
 21
263.552
 31
0.0
 12
240.242
 22
264.568
 32
0.0
 13
240.242
 23
264.568
 33
0.0
  0
SOLID
  5
261
330
25D
100
AcDbEntity
  8
0
  6
Continuous
 62
     7
370
    18
100
AcDbTrace
 10
225.94
 20
264.06
 30
0.0
 11
222.638
 21
264.568
 31
0.0
 12
222.638
 22
263.552
 32
0.0
 13
222.638
 23
263.552
 33
0.0
  0
LINE
  5
262
330
25D
100
AcDbEntity
  8
0
  6
Continuous
 62
     7
370
     0
100
AcDbLine
 10
236.94
 20
230.56
 30
0.0
 11
236.94
 21
265.06
 31
0.0
  0
LINE
  5
263
330
25D
100
AcDbEntity
  8
0
  6
Continuous
 62
     7
370
     0
100
AcDbLine
 10
225.94
 20
247.56
 30
0.0
 11
225.94
 21
265.06
 31
0.0
  0
LINE
  5
264
330
25D
100
AcDbEntity
  8
0
  6
Continuous
 62
     7
370
     0
100
AcDbLine
 10
236.94
 20
264.06
 30
0.0
 11
243.29
 21
264.06
 31
0.0
  0
LINE
  5
265
330
25D
100
AcDbEntity
  8
0
  6
Continuous
 62
     7
370
     0
100
AcDbLine
 10
236.94
 20
264.06
 30
0.0
 11
225.94
 21
264.06
 31
0.0
  0
LINE
  5
266
330
25D
100
AcDbEntity
  8
0
  6
Continuous
 62
     7
370
     0
100
AcDbLine
 10
225.94
 20
264.06
 30
0.0
 11
219.59
 21
264.06
 31
0.0
  0
MTEXT
  5
267
330
25D
100
AcDbEntity
  8
0
  6
Continuous
 62
     7
370
    18
100
AcDbMText
 10
228.8538888065
 20
268.5717369146
 30
0.0
 40
3.5
 41
0.0
 71
     1
 72
     1
  1
11
  7
SLDTEXTSTYLE0
 73
     1
 44
1.0
  0
ENDBLK
  5
25F
330
25D
100
AcDbEntity
  8
0
100
AcDbBlockEnd
  0
BLOCK
  5
269
330
268
100
AcDbEntity
  8
0
100
AcDbBlockBegin
  2
SW_CENTERMARKSYMBOL_0
 70
     0
 10
0.0
 20
0.0
 30
0.0
  3
SW_CENTERMARKSYMBOL_0
  1

  0
LINE
  5
26B
330
268
100
AcDbEntity
  8
0
  6
Continuous
 62
     0
370
    18
100
AcDbLine
 10
0.0
 20
0.0
 30
0.0
 11
0.0
 21
2.5
 31
0.0
  0
LINE
  5
26C
330
268
100
AcDbEntity
  8
0
  6
Continuous
 62
     0
370
    18
100
AcDbLine
 10
0.0
 20
0.0
 30
0.0
 11
-2.5
 21
0.0
 31
0.0
  0
LINE
  5
26D
330
268
100
AcDbEntity
  8
0
  6
Continuous
 62
     0
370
    18
100
AcDbLine
 10
0.0
 20
0.0
 30
0.0
 11
0.0
 21
-2.5
 31
0.0
  0
LINE
  5
26E
330
268
100
AcDbEntity
  8
0
  6
Continuous
 62
     0
370
    18
100
AcDbLine
 10
0.0
 20
0.0
 30
0.0
 11
2.5
 21
0.0
 31
0.0
  0
LINE
  5
26F
330
268
100
AcDbEntity
  8
0
  6
Continuous
 62
     0
370
    18
100
AcDbLine
 10
0.0
 20
5.0
 30
0.0
 11
0.0
 21
17.5
 31
0.0
  0
LINE
  5
270
330
268
100
AcDbEntity
  8
0
  6
Continuous
 62
     0
370
    18
100
AcDbLine
 10
-5.0
 20
0.0
 30
0.0
 11
-17.5
 21
0.0
 31
0.0
  0
LINE
  5
271
330
268
100
AcDbEntity
  8
0
  6
Continuous
 62
     0
370
    18
100
AcDbLine
 10
0.0
 20
-5.0
 30
0.0
 11
0.0
 21
-17.5
 31
0.0
  0
LINE
  5
272
330
268
100
AcDbEntity
  8
0
  6
Continuous
 62
     0
370
    18
100
AcDbLine
 10
5.0
 20
0.0
 30
0.0
 11
17.5
 21
0.0
 31
0.0
  0
ENDBLK
  5
26A
330
268
100
AcDbEntity
  8
0
100
AcDbBlockEnd
  0
BLOCK
  5
275
330
274
100
AcDbEntity
  8
0
100
AcDbBlockBegin
  2
SW_CENTERMARKSYMBOL_1
 70
     0
 10
0.0
 20
0.0
 30
0.0
  3
SW_CENTERMARKSYMBOL_1
  1

  0
LINE
  5
277
330
274
100
AcDbEntity
  8
0
  6
Continuous
 62
     0
370
    18
100
AcDbLine
 10
0.0
 20
0.0
 30
0.0
 11
0.0
 21
2.5
 31
0.0
  0
LINE
  5
278
330
274
100
AcDbEntity
  8
0
  6
Continuous
 62
     0
370
    18
100
AcDbLine
 10
0.0
 20
0.0
 30
0.0
 11
-2.5
 21
0.0
 31
0.0
  0
LINE
  5
279
330
274
100
AcDbEntity
  8
0
  6
Continuous
 62
     0
370
    18
100
AcDbLine
 10
0.0
 20
0.0
 30
0.0
 11
0.0
 21
-2.5
 31
0.0
  0
LINE
  5
27A
330
274
100
AcDbEntity
  8
0
  6
Continuous
 62
     0
370
    18
100
AcDbLine
 10
0.0
 20
0.0
 30
0.0
 11
2.5
 21
0.0
 31
0.0
  0
LINE
  5
27B
330
274
100
AcDbEntity
  8
0
  6
Continuous
 62
     0
370
    18
100
AcDbLine
 10
0.0
 20
5.0
 30
0.0
 11
0.0
 21
17.5
 31
0.0
  0
LINE
  5
27C
330
274
100
AcDbEntity
  8
0
  6
Continuous
 62
     0
370
    18
100
AcDbLine
 10
-5.0
 20
0.0
 30
0.0
 11
-17.5
 21
0.0
 31
0.0
  0
LINE
  5
27D
330
274
100
AcDbEntity
  8
0
  6
Continuous
 62
     0
370
    18
100
AcDbLine
 10
0.0
 20
-5.0
 30
0.0
 11
0.0
 21
-17.5
 31
0.0
  0
LINE
  5
27E
330
274
100
AcDbEntity
  8
0
  6
Continuous
 62
     0
370
    18
100
AcDbLine
 10
5.0
 20
0.0
 30
0.0
 11
17.5
 21
0.0
 31
0.0
  0
ENDBLK
  5
276
330
274
100
AcDbEntity
  8
0
100
AcDbBlockEnd
  0
BLOCK
  5
2B9
330
2B8
100
AcDbEntity
  8
0
100
AcDbBlockBegin
  2
_None
 70
     0
 10
0.0
 20
0.0
 30
0.0
  3
_None
  1

  0
ENDBLK
  5
2BA
330
2B8
100
AcDbEntity
  8
0
100
AcDbBlockEnd
  0
BLOCK
  5
2BC
330
2BB
100
AcDbEntity
  8
0
100
AcDbBlockBegin
  2
_D_8
 70
     0
 10
0.0
 20
0.0
 30
0.0
  3
_D_8
  1

  0
SOLID
  5
2BE
330
2BB
100
AcDbEntity
  8
0
  6
Continuous
 62
     7
370
    18
100
AcDbTrace
 10
144.4078444382
 20
53.1073703754
 30
0.0
 11
146.673277578
 21
50.6519517371
 31
0.0
 12
147.3065625726
 22
51.4464365486
 32
0.0
 13
147.3065625726
 23
51.4464365486
 33
0.0
  0
LINE
  5
2BF
330
2BB
100
AcDbEntity
  8
0
  6
Continuous
 62
     7
370
     0
100
AcDbLine
 10
144.4078444382
 20
53.1073703754
 30
0.0
 11
213.0084795579
 21
-1.5742952999
 31
0.0
  0
LINE
  5
2C0
330
2BB
100
AcDbEntity
  8
0
  6
Continuous
 62
     7
370
     0
100
AcDbLine
 10
144.4078444382
 20
53.1073703754
 30
0.0
 11
129.4721555619
 21
65.0126296246
 31
0.0
  0
MTEXT
  5
2C1
330
2BB
100
AcDbEntity
  8
0
  6
Continuous
 62
     7
370
    18
100
AcDbMText
 10
201.6145362143
 20
13.2757559104
 30
0.0
 40
3.5
 41
0.0
 71
     1
 72
     1
  1
M20x1.5
  7
SLDTEXTSTYLE0
 11
0.7819732395957569
 21
-0.6233120025766526
 31
0.0
 73
     1
 44
1.0
  0
ENDBLK
  5
2BD
330
2BB
100
AcDbEntity
  8
0
100
AcDbBlockEnd
  0
BLOCK
  5
2C5
330
2C4
100
AcDbEntity
  8
0
100
AcDbBlockBegin
  2
_D_9
 70
     0
 10
0.0
 20
0.0
 30
0.0
  3
_D_9
  1

  0
SOLID
  5
2C7
330
2C4
100
AcDbEntity
  8
0
  6
Continuous
 62
     7
370
    18
100
AcDbTrace
 10
107.6160035152
 20
35.6857999033
 30
0.0
 11
104.7172853807
 21
34.0248660765
 31
0.0
 12
105.3505703753
 22
33.2303812651
 32
0.0
 13
105.3505703753
 23
33.2303812651
 33
0.0
  0
LINE
  5
2C8
330
2C4
100
AcDbEntity
  8
0
  6
Continuous
 62
     7
370
     0
100
AcDbLine
 10
107.6160035152
 20
35.6857999033
 30
0.0
 11
63.8887652825
 21
0.8307549352
 31
0.0
  0
LINE
  5
2C9
330
2C4
100
AcDbEntity
  8
0
  6
Continuous
 62
     7
370
     0
100
AcDbLine
 10
107.6160035152
 20
35.6857999033
 30
0.0
 11
166.2639964849
 21
82.4342000966
 31
0.0
  0
MTEXT
  5
2CA
330
2C4
100
AcDbEntity
  8
0
  6
Continuous
 62
     7
370
    18
100
AcDbMText
 10
61.077428007
 20
4.3577053354
 30
0.0
 40
3.5
 41
0.0
 71
     1
 72
     1
  1
%%c
  7
SLDTEXTSTYLE0
 11
0.7819732395957437
 21
0.6233120025766691
 31
0.0
 73
     1
 44
1.0
  0
MTEXT
  5
2CB
330
2C4
100
AcDbEntity
  8
0
  6
Continuous
 62
     7
370
    18
100
AcDbMText
 10
65.1716949499
 20
7.6896325318
 30
0.0
 40
3.5
 41
0.0
 71
     1
 72
     1
  1
75
  7
SLDTEXTSTYLE0
 11
0.7819732395957437
 21
0.6233120025766691
 31
0.0
 73
     1
 44
1.0
  0
ENDBLK
  5
2C6
330
2C4
100
AcDbEntity
  8
0
100
AcDbBlockEnd
  0
BLOCK
  5
2CE
330
2CD
100
AcDbEntity
  8
0
100
AcDbBlockBegin
  2
_D_10
 70
     0
 10
0.0
 20
0.0
 30
0.0
  3
_D_10
  1

  0
SOLID
  5
2D0
330
2CD
100
AcDbEntity
  8
0
  6
Continuous
 62
     7
370
    18
100
AcDbTrace
 10
217.94
 20
91.56
 30
0.0
 11
217.432
 21
88.258
 31
0.0
 12
218.448
 22
88.258
 32
0.0
 13
218.448
 23
88.258
 33
0.0
  0
SOLID
  5
2D1
330
2CD
100
AcDbEntity
  8
0
  6
Continuous
 62
     7
370
    18
100
AcDbTrace
 10
217.94
 20
26.56
 30
0.0
 11
218.448
 21
29.862
 31
0.0
 12
217.432
 22
29.862
 32
0.0
 13
217.432
 23
29.862
 33
0.0
  0
LINE
  5
2D2
330
2CD
100
AcDbEntity
  8
0
  6
Continuous
 62
     7
370
     0
100
AcDbLine
 10
206.44
 20
91.56
 30
0.0
 11
218.94
 21
91.56
 31
0.0
  0
LINE
  5
2D3
330
2CD
100
AcDbEntity
  8
0
  6
Continuous
 62
     7
370
     0
100
AcDbLine
 10
205.94
 20
26.56
 30
0.0
 11
218.94
 21
26.56
 31
0.0
  0
LINE
  5
2D4
330
2CD
100
AcDbEntity
  8
0
  6
Continuous
 62
     7
370
     0
100
AcDbLine
 10
217.94
 20
91.56
 30
0.0
 11
217.94
 21
26.56
 31
0.0
  0
MTEXT
  5
2D5
330
2CD
100
AcDbEntity
  8
0
  6
Continuous
 62
     7
370
    18
100
AcDbMText
 10
213.4282630855
 20
56.4738888064
 30
0.0
 40
3.5
 41
0.0
 71
     1
 72
     1
  1
65
  7
SLDTEXTSTYLE0
 11
-7.044195017643634E-15
 21
1.0
 31
0.0
 73
     1
 44
1.0
  0
ENDBLK
  5
2CF
330
2CD
100
AcDbEntity
  8
0
100
AcDbBlockEnd
  0
BLOCK
  5
2D8
330
2D7
100
AcDbEntity
  8
0
100
AcDbBlockBegin
  2
_D_11
 70
     0
 10
0.0
 20
0.0
 30
0.0
  3
_D_11
  1

  0
SOLID
  5
2DA
330
2D7
100
AcDbEntity
  8
0
  6
Continuous
 62
     7
370
    18
100
AcDbTrace
 10
223.94
 20
14.06
 30
0.0
 11
224.448
 21
17.362
 31
0.0
 12
223.432
 22
17.362
 32
0.0
 13
223.432
 23
17.362
 33
0.0
  0
SOLID
  5
2DB
330
2D7
100
AcDbEntity
  8
0
  6
Continuous
 62
     7
370
    18
100
AcDbTrace
 10
223.94
 20
104.06
 30
0.0
 11
223.432
 21
100.758
 31
0.0
 12
224.448
 22
100.758
 32
0.0
 13
224.448
 23
100.758
 33
0.0
  0
LINE
  5
2DC
330
2D7
100
AcDbEntity
  8
0
  6
Continuous
 62
     7
370
     0
100
AcDbLine
 10
208.44
 20
14.06
 30
0.0
 11
224.94
 21
14.06
 31
0.0
  0
LINE
  5
2DD
330
2D7
100
AcDbEntity
  8
0
  6
Continuous
 62
     7
370
     0
100
AcDbLine
 10
208.44
 20
104.06
 30
0.0
 11
224.94
 21
104.06
 31
0.0
  0
LINE
  5
2DE
330
2D7
100
AcDbEntity
  8
0
  6
Continuous
 62
     7
370
     0
100
AcDbLine
 10
223.94
 20
14.06
 30
0.0
 11
223.94
 21
104.06
 31
0.0
  0
MTEXT
  5
2DF
330
2D7
100
AcDbEntity
  8
0
  6
Continuous
 62
     7
370
    18
100
AcDbMText
 10
219.4282630854
 20
56.4738888064
 30
0.0
 40
3.5
 41
0.0
 71
     1
 72
     1
  1
90
  7
SLDTEXTSTYLE0
 11
6.123233995736766E-17
 21
1.0
 31
0.0
 73
     1
 44
1.0
  0
ENDBLK
  5
2D9
330
2D7
100
AcDbEntity
  8
0
100
AcDbBlockEnd
  0
BLOCK
  5
2E2
330
2E1
100
AcDbEntity
  8
0
100
AcDbBlockBegin
  2
_D_12
 70
     0
 10
0.0
 20
0.0
 30
0.0
  3
_D_12
  1

  0
SOLID
  5
2E4
330
2E1
100
AcDbEntity
  8
0
  6
Continuous
 62
     7
370
    18
100
AcDbTrace
 10
78.44
 20
114.06
 30
0.0
 11
81.742
 21
113.552
 31
0.0
 12
81.742
 22
114.568
 32
0.0
 13
81.742
 23
114.568
 33
0.0
  0
SOLID
  5
2E5
330
2E1
100
AcDbEntity
  8
0
  6
Continuous
 62
     7
370
    18
100
AcDbTrace
 10
195.44
 20
114.06
 30
0.0
 11
192.138
 21
114.568
 31
0.0
 12
192.138
 22
113.552
 32
0.0
 13
192.138
 23
113.552
 33
0.0
  0
LINE
  5
2E6
330
2E1
100
AcDbEntity
  8
0
  6
Continuous
 62
     7
370
     0
100
AcDbLine
 10
78.44
 20
102.56
 30
0.0
 11
78.44
 21
115.06
 31
0.0
  0
LINE
  5
2E7
330
2E1
100
AcDbEntity
  8
0
  6
Continuous
 62
     7
370
     0
100
AcDbLine
 10
195.44
 20
102.56
 30
0.0
 11
195.44
 21
115.06
 31
0.0
  0
LINE
  5
2E8
330
2E1
100
AcDbEntity
  8
0
  6
Continuous
 62
     7
370
     0
100
AcDbLine
 10
78.44
 20
114.06
 30
0.0
 11
195.44
 21
114.06
 31
0.0
  0
MTEXT
  5
2E9
330
2E1
100
AcDbEntity
  8
0
  6
Continuous
 62
     7
370
    18
100
AcDbMText
 10
133.0608333261
 20
118.5717369146
 30
0.0
 40
3.5
 41
0.0
 71
     1
 72
     1
  1
117
  7
SLDTEXTSTYLE0
 73
     1
 44
1.0
  0
ENDBLK
  5
2E3
330
2E1
100
AcDbEntity
  8
0
100
AcDbBlockEnd
  0
BLOCK
  5
2EC
330
2EB
100
AcDbEntity
  8
0
100
AcDbBlockBegin
  2
_D_13
 70
     0
 10
0.0
 20
0.0
 30
0.0
  3
_D_13
  1

  0
SOLID
  5
2EE
330
2EB
100
AcDbEntity
  8
0
  6
Continuous
 62
     7
370
    18
100
AcDbTrace
 10
65.94
 20
120.06
 30
0.0
 11
69.242
 21
119.552
 31
0.0
 12
69.242
 22
120.568
 32
0.0
 13
69.242
 23
120.568
 33
0.0
  0
SOLID
  5
2EF
330
2EB
100
AcDbEntity
  8
0
  6
Continuous
 62
     7
370
    18
100
AcDbTrace
 10
207.94
 20
120.06
 30
0.0
 11
204.638
 21
120.568
 31
0.0
 12
204.638
 22
119.552
 32
0.0
 13
204.638
 23
119.552
 33
0.0
  0
LINE
  5
2F0
330
2EB
100
AcDbEntity
  8
0
  6
Continuous
 62
     7
370
     0
100
AcDbLine
 10
65.94
 20
104.56
 30
0.0
 11
65.94
 21
121.06
 31
0.0
  0
LINE
  5
2F1
330
2EB
100
AcDbEntity
  8
0
  6
Continuous
 62
     7
370
     0
100
AcDbLine
 10
207.94
 20
104.56
 30
0.0
 11
207.94
 21
121.06
 31
0.0
  0
LINE
  5
2F2
330
2EB
100
AcDbEntity
  8
0
  6
Continuous
 62
     7
370
     0
100
AcDbLine
 10
65.94
 20
120.06
 30
0.0
 11
207.94
 21
120.06
 31
0.0
  0
MTEXT
  5
2F3
330
2EB
100
AcDbEntity
  8
0
  6
Continuous
 62
     7
370
    18
100
AcDbMText
 10
133.0608333261
 20
124.5717369145
 30
0.0
 40
3.5
 41
0.0
 71
     1
 72
     1
  1
142
  7
SLDTEXTSTYLE0
 73
     1
 44
1.0
  0
ENDBLK
  5
2ED
330
2EB
100
AcDbEntity
  8
0
100
AcDbBlockEnd
  0
BLOCK
  5
2F6
330
2F5
100
AcDbEntity
  8
0
100
AcDbBlockBegin
  2
_D_14
 70
     0
 10
0.0
 20
0.0
 30
0.0
  3
_D_14
  1

  0
SOLID
  5
2F8
330
2F5
100
AcDbEntity
  8
0
  6
Continuous
 62
     7
370
    18
100
AcDbTrace
 10
72.772980612
 20
86.6472725237
 30
0.0
 11
69.9452254684
 21
84.8682084867
 31
0.0
 12
70.6107362838
 22
84.1005162603
 32
0.0
 13
70.6107362838
 23
84.1005162603
 33
0.0
  0
LINE
  5
2F9
330
2F5
100
AcDbEntity
  8
0
  6
Continuous
 62
     7
370
     0
100
AcDbLine
 10
72.772980612
 20
86.6472725237
 30
0.0
 11
48.1971221531
 21
65.3425112663
 31
0.0
  0
LINE
  5
2FA
330
2F5
100
AcDbEntity
  8
0
  6
Continuous
 62
     7
370
     0
100
AcDbLine
 10
72.772980612
 20
86.6472725237
 30
0.0
 11
84.107019388
 21
96.4727274762
 31
0.0
  0
MTEXT
  5
2FB
330
2F5
100
AcDbEntity
  8
0
  6
Continuous
 62
     7
370
    18
100
AcDbMText
 10
45.2496660015
 20
68.7425148768
 30
0.0
 40
3.5
 41
0.0
 71
     1
 72
     1
  1
M12x1.75
  7
SLDTEXTSTYLE0
 11
0.7556025850692909
 21
0.6550303301654092
 31
0.0
 73
     1
 44
1.0
  0
ENDBLK
  5
2F7
330
2F5
100
AcDbEntity
  8
0
100
AcDbBlockEnd
  0
BLOCK
  5
2FD
330
2FC
100
AcDbEntity
  8
0
100
AcDbBlockBegin
  2
SW_CENTERMARKSYMBOL_2
 70
     0
 10
0.0
 20
0.0
 30
0.0
  3
SW_CENTERMARKSYMBOL_2
  1

  0
LINE
  5
2FF
330
2FC
100
AcDbEntity
  8
0
  6
Continuous
 62
     0
370
    18
100
AcDbLine
 10
0.0
 20
0.0
 30
0.0
 11
0.0
 21
2.5
 31
0.0
  0
LINE
  5
300
330
2FC
100
AcDbEntity
  8
0
  6
Continuous
 62
     0
370
    18
100
AcDbLine
 10
0.0
 20
0.0
 30
0.0
 11
-2.5
 21
0.0
 31
0.0
  0
LINE
  5
301
330
2FC
100
AcDbEntity
  8
0
  6
Continuous
 62
     0
370
    18
100
AcDbLine
 10
0.0
 20
0.0
 30
0.0
 11
0.0
 21
-2.5
 31
0.0
  0
LINE
  5
302
330
2FC
100
AcDbEntity
  8
0
  6
Continuous
 62
     0
370
    18
100
AcDbLine
 10
0.0
 20
0.0
 30
0.0
 11
2.5
 21
0.0
 31
0.0
  0
LINE
  5
303
330
2FC
100
AcDbEntity
  8
0
  6
Continuous
 62
     0
370
    18
100
AcDbLine
 10
0.0
 20
5.0
 30
0.0
 11
0.0
 21
10.0
 31
0.0
  0
LINE
  5
304
330
2FC
100
AcDbEntity
  8
0
  6
Continuous
 62
     0
370
    18
100
AcDbLine
 10
-5.0
 20
0.0
 30
0.0
 11
-10.0
 21
0.0
 31
0.0
  0
LINE
  5
305
330
2FC
100
AcDbEntity
  8
0
  6
Continuous
 62
     0
370
    18
100
AcDbLine
 10
0.0
 20
-5.0
 30
0.0
 11
0.0
 21
-10.0
 31
0.0
  0
LINE
  5
306
330
2FC
100
AcDbEntity
  8
0
  6
Continuous
 62
     0
370
    18
100
AcDbLine
 10
5.0
 20
0.0
 30
0.0
 11
10.0
 21
0.0
 31
0.0
  0
ENDBLK
  5
2FE
330
2FC
100
AcDbEntity
  8
0
100
AcDbBlockEnd
  0
BLOCK
  5
309
330
308
100
AcDbEntity
  8
0
100
AcDbBlockBegin
  2
SW_CENTERMARKSYMBOL_3
 70
     0
 10
0.0
 20
0.0
 30
0.0
  3
SW_CENTERMARKSYMBOL_3
  1

  0
LINE
  5
30B
330
308
100
AcDbEntity
  8
0
  6
Continuous
 62
     0
370
    18
100
AcDbLine
 10
0.0
 20
0.0
 30
0.0
 11
0.0
 21
2.5
 31
0.0
  0
LINE
  5
30C
330
308
100
AcDbEntity
  8
0
  6
Continuous
 62
     0
370
    18
100
AcDbLine
 10
0.0
 20
0.0
 30
0.0
 11
-2.5
 21
0.0
 31
0.0
  0
LINE
  5
30D
330
308
100
AcDbEntity
  8
0
  6
Continuous
 62
     0
370
    18
100
AcDbLine
 10
0.0
 20
0.0
 30
0.0
 11
0.0
 21
-2.5
 31
0.0
  0
LINE
  5
30E
330
308
100
AcDbEntity
  8
0
  6
Continuous
 62
     0
370
    18
100
AcDbLine
 10
0.0
 20
0.0
 30
0.0
 11
2.5
 21
0.0
 31
0.0
  0
LINE
  5
30F
330
308
100
AcDbEntity
  8
0
  6
Continuous
 62
     0
370
    18
100
AcDbLine
 10
0.0
 20
5.0
 30
0.0
 11
0.0
 21
10.0
 31
0.0
  0
LINE
  5
310
330
308
100
AcDbEntity
  8
0
  6
Continuous
 62
     0
370
    18
100
AcDbLine
 10
-5.0
 20
0.0
 30
0.0
 11
-10.0
 21
0.0
 31
0.0
  0
LINE
  5
311
330
308
100
AcDbEntity
  8
0
  6
Continuous
 62
     0
370
    18
100
AcDbLine
 10
0.0
 20
-5.0
 30
0.0
 11
0.0
 21
-10.0
 31
0.0
  0
LINE
  5
312
330
308
100
AcDbEntity
  8
0
  6
Continuous
 62
     0
370
    18
100
AcDbLine
 10
5.0
 20
0.0
 30
0.0
 11
10.0
 21
0.0
 31
0.0
  0
ENDBLK
  5
30A
330
308
100
AcDbEntity
  8
0
100
AcDbBlockEnd
  0
BLOCK
  5
315
330
314
100
AcDbEntity
  8
0
100
AcDbBlockBegin
  2
SW_CENTERMARKSYMBOL_4
 70
     0
 10
0.0
 20
0.0
 30
0.0
  3
SW_CENTERMARKSYMBOL_4
  1

  0
LINE
  5
317
330
314
100
AcDbEntity
  8
0
  6
Continuous
 62
     0
370
    18
100
AcDbLine
 10
0.0
 20
0.0
 30
0.0
 11
0.0
 21
2.5
 31
0.0
  0
LINE
  5
318
330
314
100
AcDbEntity
  8
0
  6
Continuous
 62
     0
370
    18
100
AcDbLine
 10
0.0
 20
0.0
 30
0.0
 11
-2.5
 21
0.0
 31
0.0
  0
LINE
  5
319
330
314
100
AcDbEntity
  8
0
  6
Continuous
 62
     0
370
    18
100
AcDbLine
 10
0.0
 20
0.0
 30
0.0
 11
0.0
 21
-2.5
 31
0.0
  0
LINE
  5
31A
330
314
100
AcDbEntity
  8
0
  6
Continuous
 62
     0
370
    18
100
AcDbLine
 10
0.0
 20
0.0
 30
0.0
 11
2.5
 21
0.0
 31
0.0
  0
LINE
  5
31B
330
314
100
AcDbEntity
  8
0
  6
Continuous
 62
     0
370
    18
100
AcDbLine
 10
0.0
 20
5.0
 30
0.0
 11
0.0
 21
9.5
 31
0.0
  0
LINE
  5
31C
330
314
100
AcDbEntity
  8
0
  6
Continuous
 62
     0
370
    18
100
AcDbLine
 10
-5.0
 20
0.0
 30
0.0
 11
-9.5
 21
0.0
 31
0.0
  0
LINE
  5
31D
330
314
100
AcDbEntity
  8
0
  6
Continuous
 62
     0
370
    18
100
AcDbLine
 10
0.0
 20
-5.0
 30
0.0
 11
0.0
 21
-9.5
 31
0.0
  0
LINE
  5
31E
330
314
100
AcDbEntity
  8
0
  6
Continuous
 62
     0
370
    18
100
AcDbLine
 10
5.0
 20
0.0
 30
0.0
 11
9.5
 21
0.0
 31
0.0
  0
ENDBLK
  5
316
330
314
100
AcDbEntity
  8
0
100
AcDbBlockEnd
  0
BLOCK
  5
321
330
320
100
AcDbEntity
  8
0
100
AcDbBlockBegin
  2
SW_CENTERMARKSYMBOL_5
 70
     0
 10
0.0
 20
0.0
 30
0.0
  3
SW_CENTERMARKSYMBOL_5
  1

  0
LINE
  5
323
330
320
100
AcDbEntity
  8
0
  6
Continuous
 62
     0
370
    18
100
AcDbLine
 10
0.0
 20
0.0
 30
0.0
 11
0.0
 21
2.5
 31
0.0
  0
LINE
  5
324
330
320
100
AcDbEntity
  8
0
  6
Continuous
 62
     0
370
    18
100
AcDbLine
 10
0.0
 20
0.0
 30
0.0
 11
-2.5
 21
0.0
 31
0.0
  0
LINE
  5
325
330
320
100
AcDbEntity
  8
0
  6
Continuous
 62
     0
370
    18
100
AcDbLine
 10
0.0
 20
0.0
 30
0.0
 11
0.0
 21
-2.5
 31
0.0
  0
LINE
  5
326
330
320
100
AcDbEntity
  8
0
  6
Continuous
 62
     0
370
    18
100
AcDbLine
 10
0.0
 20
0.0
 30
0.0
 11
2.5
 21
0.0
 31
0.0
  0
LINE
  5
327
330
320
100
AcDbEntity
  8
0
  6
Continuous
 62
     0
370
    18
100
AcDbLine
 10
0.0
 20
5.0
 30
0.0
 11
0.0
 21
10.0
 31
0.0
  0
LINE
  5
328
330
320
100
AcDbEntity
  8
0
  6
Continuous
 62
     0
370
    18
100
AcDbLine
 10
-5.0
 20
0.0
 30
0.0
 11
-10.0
 21
0.0
 31
0.0
  0
LINE
  5
329
330
320
100
AcDbEntity
  8
0
  6
Continuous
 62
     0
370
    18
100
AcDbLine
 10
0.0
 20
-5.0
 30
0.0
 11
0.0
 21
-10.0
 31
0.0
  0
LINE
  5
32A
330
320
100
AcDbEntity
  8
0
  6
Continuous
 62
     0
370
    18
100
AcDbLine
 10
5.0
 20
0.0
 30
0.0
 11
10.0
 21
0.0
 31
0.0
  0
ENDBLK
  5
322
330
320
100
AcDbEntity
  8
0
100
AcDbBlockEnd
  0
ENDSEC
  0
SECTION
  2
ENTITIES
  0
LINE
  5
74
330
1F
100
AcDbEntity
  8
0
  6
Continuous
 62
     7
370
    50
100
AcDbLine
 10
230.0
 20
14.25
 30
0.0
 11
410.0
 21
14.25
 31
0.0
  0
LINE
  5
75
330
1F
100
AcDbEntity
  8
0
  6
Continuous
 62
     7
370
    50
100
AcDbLine
 10
410.0
 20
48.25
 30
0.0
 11
230.0
 21
48.25
 31
0.0
  0
LINE
  5
76
330
1F
100
AcDbEntity
  8
0
  6
Continuous
 62
     7
370
    50
100
AcDbLine
 10
230.0
 20
65.25
 30
0.0
 11
410.0
 21
65.25
 31
0.0
  0
LINE
  5
77
330
1F
100
AcDbEntity
  8
0
  6
Continuous
 62
     7
370
    50
100
AcDbLine
 10
256.9909524338
 20
48.25
 30
0.0
 11
256.9909524338
 21
10.0
 31
0.0
  0
LINE
  5
78
330
1F
100
AcDbEntity
  8
0
  6
Continuous
 62
     7
370
    50
100
AcDbLine
 10
328.8
 20
31.25
 30
0.0
 11
230.0
 21
31.25
 31
0.0
  0
LINE
  5
79
330
1F
100
AcDbEntity
  8
0
  6
Continuous
 62
     7
370
    50
100
AcDbLine
 10
328.8
 20
35.5
 30
0.0
 11
230.0
 21
35.5
 31
0.0
  0
LINE
  5
7A
330
1F
100
AcDbEntity
  8
0
  6
Continuous
 62
     7
370
    50
100
AcDbLine
 10
328.8
 20
39.75
 30
0.0
 11
230.0
 21
39.75
 31
0.0
  0
LINE
  5
7B
330
1F
100
AcDbEntity
  8
0
  6
Continuous
 62
     7
370
    50
100
AcDbLine
 10
328.8
 20
44.0
 30
0.0
 11
230.0
 21
44.0
 31
0.0
  0
LINE
  5
7C
330
1F
100
AcDbEntity
  8
0
  6
Continuous
 62
     7
370
    50
100
AcDbLine
 10
284.6
 20
10.0
 30
0.0
 11
284.6
 21
48.25
 31
0.0
  0
LINE
  5
7D
330
1F
100
AcDbEntity
  8
0
  6
Continuous
 62
     7
370
    50
100
AcDbLine
 10
230.0
 20
65.25
 30
0.0
 11
230.0
 21
10.0
 31
0.0
  0
LINE
  5
7E
330
1F
100
AcDbEntity
  8
0
  6
Continuous
 62
     7
370
    50
100
AcDbLine
 10
242.0703737145
 20
48.25
 30
0.0
 11
242.0703737145
 21
10.0
 31
0.0
  0
LINE
  5
7F
330
1F
100
AcDbEntity
  8
0
  6
Continuous
 62
     7
370
    50
100
AcDbLine
 10
263.8
 20
48.25
 30
0.0
 11
263.8
 21
65.25
 31
0.0
  0
LINE
  5
80
330
1F
100
AcDbEntity
  8
0
  6
Continuous
 62
     7
370
    50
100
AcDbLine
 10
274.3989261635
 20
48.25
 30
0.0
 11
274.3989261635
 21
10.0
 31
0.0
  0
LINE
  5
81
330
1F
100
AcDbEntity
  8
0
  6
Continuous
 62
     7
370
    50
100
AcDbLine
 10
295.0
 20
31.25
 30
0.0
 11
295.0
 21
48.25
 31
0.0
  0
LINE
  5
82
330
1F
100
AcDbEntity
  8
0
  6
Continuous
 62
     7
370
    50
100
AcDbLine
 10
284.6
 20
18.5
 30
0.0
 11
230.0
 21
18.5
 31
0.0
  0
LINE
  5
83
330
1F
100
AcDbEntity
  8
0
  6
Continuous
 62
     7
370
    50
100
AcDbLine
 10
310.6
 20
65.25
 30
0.0
 11
310.6
 21
27.0
 31
0.0
  0
LINE
  5
84
330
1F
100
AcDbEntity
  8
0
  6
Continuous
 62
     7
370
    50
100
AcDbLine
 10
284.6
 20
22.749928
 30
0.0
 11
230.0
 21
22.749928
 31
0.0
  0
LINE
  5
85
330
1F
100
AcDbEntity
  8
0
  6
Continuous
 62
     7
370
    50
100
AcDbLine
 10
284.6
 20
27.0
 30
0.0
 11
230.0
 21
27.0
 31
0.0
  0
LINE
  5
86
330
1F
100
AcDbEntity
  8
0
  6
Continuous
 62
     7
370
    50
100
AcDbLine
 10
284.6
 20
27.0
 30
0.0
 11
410.0
 21
27.0
 31
0.0
  0
LINE
  5
87
330
1F
100
AcDbEntity
  8
0
  6
Continuous
 62
     7
370
    50
100
AcDbLine
 10
328.8
 20
65.25
 30
0.0
 11
328.8
 21
10.0
 31
0.0
  0
LINE
  5
88
330
1F
100
AcDbEntity
  8
0
  6
Continuous
 62
     7
370
    50
100
AcDbLine
 10
373.0
 20
10.0
 30
0.0
 11
373.0
 21
14.25
 31
0.0
  0
LINE
  5
89
330
1F
100
AcDbEntity
  8
0
  6
Continuous
 62
     7
370
    50
100
AcDbLine
 10
380.8
 20
58.875
 30
0.0
 11
380.8
 21
65.25
 31
0.0
  0
LINE
  5
8A
330
1F
100
AcDbEntity
  8
0
  6
Continuous
 62
     7
370
    50
100
AcDbLine
 10
397.0
 20
14.25
 30
0.0
 11
397.0
 21
27.0
 31
0.0
  0
LINE
  5
8B
330
1F
100
AcDbEntity
  8
0
  6
Continuous
 62
     7
370
    50
100
AcDbLine
 10
410.0
 20
58.875
 30
0.0
 11
328.8
 21
58.875
 31
0.0
  0
LINE
  5
8C
330
1F
100
AcDbEntity
  8
0
  6
Continuous
 62
     7
370
    50
100
AcDbLine
 10
410.0
 20
18.5
 30
0.0
 11
397.0
 21
18.5
 31
0.0
  0
LINE
  5
8D
330
1F
100
AcDbEntity
  8
0
  6
Continuous
 62
     7
370
    70
100
AcDbLine
 10
20.0
 20
10.0
 30
0.0
 11
20.0
 21
287.0
 31
0.0
  0
LINE
  5
8E
330
1F
100
AcDbEntity
  8
0
  6
Continuous
 62
     7
370
    70
100
AcDbLine
 10
20.0
 20
287.0
 30
0.0
 11
410.0
 21
287.0
 31
0.0
  0
LINE
  5
8F
330
1F
100
AcDbEntity
  8
0
  6
Continuous
 62
     7
370
    70
100
AcDbLine
 10
410.0
 20
287.0
 30
0.0
 11
410.0
 21
10.0
 31
0.0
  0
LINE
  5
90
330
1F
100
AcDbEntity
  8
0
  6
Continuous
 62
     7
370
    70
100
AcDbLine
 10
410.0
 20
10.0
 30
0.0
 11
20.0
 21
10.0
 31
0.0
  0
LINE
  5
91
330
1F
100
AcDbEntity
  8
0
  6
Continuous
 62
     7
370
    70
100
AcDbLine
 10
15.0
 20
5.0
 30
0.0
 11
15.0
 21
292.0
 31
0.0
  0
LINE
  5
92
330
1F
100
AcDbEntity
  8
0
  6
Continuous
 62
     7
370
    70
100
AcDbLine
 10
15.0
 20
292.0
 30
0.0
 11
415.0
 21
292.0
 31
0.0
  0
LINE
  5
93
330
1F
100
AcDbEntity
  8
0
  6
Continuous
 62
     7
370
    70
100
AcDbLine
 10
415.0
 20
292.0
 30
0.0
 11
415.0
 21
5.0
 31
0.0
  0
LINE
  5
94
330
1F
100
AcDbEntity
  8
0
  6
Continuous
 62
     7
370
    70
100
AcDbLine
 10
415.0
 20
5.0
 30
0.0
 11
15.0
 21
5.0
 31
0.0
  0
LINE
  5
95
330
1F
100
AcDbEntity
  8
0
  6
Continuous
 62
     7
370
    35
100
AcDbLine
 10
15.0
 20
148.5
 30
0.0
 11
25.0
 21
148.5
 31
0.0
  0
LINE
  5
96
330
1F
100
AcDbEntity
  8
0
  6
Continuous
 62
     7
370
    35
100
AcDbLine
 10
215.0
 20
292.0
 30
0.0
 11
215.0
 21
282.0
 31
0.0
  0
LINE
  5
97
330
1F
100
AcDbEntity
  8
0
  6
Continuous
 62
     7
370
    35
100
AcDbLine
 10
415.0
 20
148.5
 30
0.0
 11
405.0
 21
148.5
 31
0.0
  0
LINE
  5
98
330
1F
100
AcDbEntity
  8
0
  6
Continuous
 62
     7
370
    35
100
AcDbLine
 10
215.0
 20
5.0
 30
0.0
 11
215.0
 21
15.0
 31
0.0
  0
LINE
  5
99
330
1F
100
AcDbEntity
  8
0
  6
Continuous
 62
     7
370
    35
100
AcDbLine
 10
20.0
 20
48.5
 30
0.0
 11
15.0
 21
48.5
 31
0.0
  0
LINE
  5
9A
330
1F
100
AcDbEntity
  8
0
  6
Continuous
 62
     7
370
    35
100
AcDbLine
 10
410.0
 20
48.5
 30
0.0
 11
415.0
 21
48.5
 31
0.0
  0
LINE
  5
9B
330
1F
100
AcDbEntity
  8
0
  6
Continuous
 62
     7
370
    35
100
AcDbLine
 10
20.0
 20
98.5
 30
0.0
 11
15.0
 21
98.5
 31
0.0
  0
LINE
  5
9C
330
1F
100
AcDbEntity
  8
0
  6
Continuous
 62
     7
370
    35
100
AcDbLine
 10
410.0
 20
98.5
 30
0.0
 11
415.0
 21
98.5
 31
0.0
  0
LINE
  5
9D
330
1F
100
AcDbEntity
  8
0
  6
Continuous
 62
     7
370
    35
100
AcDbLine
 10
20.0
 20
148.5
 30
0.0
 11
15.0
 21
148.5
 31
0.0
  0
LINE
  5
9E
330
1F
100
AcDbEntity
  8
0
  6
Continuous
 62
     7
370
    35
100
AcDbLine
 10
410.0
 20
148.5
 30
0.0
 11
415.0
 21
148.5
 31
0.0
  0
LINE
  5
9F
330
1F
100
AcDbEntity
  8
0
  6
Continuous
 62
     7
370
    35
100
AcDbLine
 10
20.0
 20
198.5
 30
0.0
 11
15.0
 21
198.5
 31
0.0
  0
LINE
  5
A0
330
1F
100
AcDbEntity
  8
0
  6
Continuous
 62
     7
370
    35
100
AcDbLine
 10
410.0
 20
198.5
 30
0.0
 11
415.0
 21
198.5
 31
0.0
  0
LINE
  5
A1
330
1F
100
AcDbEntity
  8
0
  6
Continuous
 62
     7
370
    35
100
AcDbLine
 10
20.0
 20
248.5
 30
0.0
 11
15.0
 21
248.5
 31
0.0
  0
LINE
  5
A2
330
1F
100
AcDbEntity
  8
0
  6
Continuous
 62
     7
370
    35
100
AcDbLine
 10
410.0
 20
248.5
 30
0.0
 11
415.0
 21
248.5
 31
0.0
  0
LINE
  5
A3
330
1F
100
AcDbEntity
  8
0
  6
Continuous
 62
     7
370
    35
100
AcDbLine
 10
65.0
 20
287.0
 30
0.0
 11
65.0
 21
292.0
 31
0.0
  0
LINE
  5
A4
330
1F
100
AcDbEntity
  8
0
  6
Continuous
 62
     7
370
    35
100
AcDbLine
 10
65.0
 20
10.0
 30
0.0
 11
65.0
 21
5.0
 31
0.0
  0
LINE
  5
A5
330
1F
100
AcDbEntity
  8
0
  6
Continuous
 62
     7
370
    35
100
AcDbLine
 10
115.0
 20
287.0
 30
0.0
 11
115.0
 21
292.0
 31
0.0
  0
LINE
  5
A6
330
1F
100
AcDbEntity
  8
0
  6
Continuous
 62
     7
370
    35
100
AcDbLine
 10
115.0
 20
10.0
 30
0.0
 11
115.0
 21
5.0
 31
0.0
  0
LINE
  5
A7
330
1F
100
AcDbEntity
  8
0
  6
Continuous
 62
     7
370
    35
100
AcDbLine
 10
165.0
 20
287.0
 30
0.0
 11
165.0
 21
292.0
 31
0.0
  0
LINE
  5
A8
330
1F
100
AcDbEntity
  8
0
  6
Continuous
 62
     7
370
    35
100
AcDbLine
 10
165.0
 20
10.0
 30
0.0
 11
165.0
 21
5.0
 31
0.0
  0
LINE
  5
A9
330
1F
100
AcDbEntity
  8
0
  6
Continuous
 62
     7
370
    35
100
AcDbLine
 10
215.0
 20
287.0
 30
0.0
 11
215.0
 21
292.0
 31
0.0
  0
LINE
  5
AA
330
1F
100
AcDbEntity
  8
0
  6
Continuous
 62
     7
370
    35
100
AcDbLine
 10
215.0
 20
10.0
 30
0.0
 11
215.0
 21
5.0
 31
0.0
  0
LINE
  5
AB
330
1F
100
AcDbEntity
  8
0
  6
Continuous
 62
     7
370
    35
100
AcDbLine
 10
265.0
 20
287.0
 30
0.0
 11
265.0
 21
292.0
 31
0.0
  0
LINE
  5
AC
330
1F
100
AcDbEntity
  8
0
  6
Continuous
 62
     7
370
    35
100
AcDbLine
 10
265.0
 20
10.0
 30
0.0
 11
265.0
 21
5.0
 31
0.0
  0
LINE
  5
AD
330
1F
100
AcDbEntity
  8
0
  6
Continuous
 62
     7
370
    35
100
AcDbLine
 10
315.0
 20
287.0
 30
0.0
 11
315.0
 21
292.0
 31
0.0
  0
LINE
  5
AE
330
1F
100
AcDbEntity
  8
0
  6
Continuous
 62
     7
370
    35
100
AcDbLine
 10
315.0
 20
10.0
 30
0.0
 11
315.0
 21
5.0
 31
0.0
  0
LINE
  5
AF
330
1F
100
AcDbEntity
  8
0
  6
Continuous
 62
     7
370
    35
100
AcDbLine
 10
365.0
 20
287.0
 30
0.0
 11
365.0
 21
292.0
 31
0.0
  0
LINE
  5
B0
330
1F
100
AcDbEntity
  8
0
  6
Continuous
 62
     7
370
    35
100
AcDbLine
 10
365.0
 20
10.0
 30
0.0
 11
365.0
 21
5.0
 31
0.0
  0
MTEXT
  5
B2
330
1F
100
AcDbEntity
  8
0
  6
Continuous
 62
     7
370
     0
100
AcDbMText
 10
17.3396881428
 20
31.167684388
 30
0.0
 40
3.96875
 41
0.0
 71
     2
 72
     1
  1
A
  7
SLDTEXTSTYLE0
 73
     1
 44
1.0
  0
MTEXT
  5
B3
330
1F
100
AcDbEntity
  8
0
  6
Continuous
 62
     7
370
     0
100
AcDbMText
 10
412.3396881428
 20
31.167684388
 30
0.0
 40
3.96875
 41
0.0
 71
     2
 72
     1
  1
A
  7
SLDTEXTSTYLE0
 73
     1
 44
1.0
  0
MTEXT
  5
B4
330
1F
100
AcDbEntity
  8
0
  6
Continuous
 62
     7
370
     0
100
AcDbMText
 10
17.4706018241
 20
75.4739273576
 30
0.0
 40
3.96875
 41
0.0
 71
     2
 72
     1
  1
B
  7
SLDTEXTSTYLE0
 73
     1
 44
1.0
  0
MTEXT
  5
B5
330
1F
100
AcDbEntity
  8
0
  6
Continuous
 62
     7
370
     0
100
AcDbMText
 10
412.4706018241
 20
75.4739273576
 30
0.0
 40
3.96875
 41
0.0
 71
     2
 72
     1
  1
B
  7
SLDTEXTSTYLE0
 73
     1
 44
1.0
  0
MTEXT
  5
B6
330
1F
100
AcDbEntity
  8
0
  6
Continuous
 62
     7
370
     0
100
AcDbMText
 10
17.458658902
 20
125.4739273576
 30
0.0
 40
3.96875
 41
0.0
 71
     2
 72
     1
  1
C
  7
SLDTEXTSTYLE0
 73
     1
 44
1.0
  0
MTEXT
  5
B7
330
1F
100
AcDbEntity
  8
0
  6
Continuous
 62
     7
370
     0
100
AcDbMText
 10
412.458658902
 20
125.4739273576
 30
0.0
 40
3.96875
 41
0.0
 71
     2
 72
     1
  1
C
  7
SLDTEXTSTYLE0
 73
     1
 44
1.0
  0
MTEXT
  5
B8
330
1F
100
AcDbEntity
  8
0
  6
Continuous
 62
     7
370
     0
100
AcDbMText
 10
17.4526872821
 20
175.4739273576
 30
0.0
 40
3.96875
 41
0.0
 71
     2
 72
     1
  1
D
  7
SLDTEXTSTYLE0
 73
     1
 44
1.0
  0
MTEXT
  5
B9
330
1F
100
AcDbEntity
  8
0
  6
Continuous
 62
     7
370
     0
100
AcDbMText
 10
412.4526872821
 20
175.4739273576
 30
0.0
 40
3.96875
 41
0.0
 71
     2
 72
     1
  1
D
  7
SLDTEXTSTYLE0
 73
     1
 44
1.0
  0
MTEXT
  5
BA
330
1F
100
AcDbEntity
  8
0
  6
Continuous
 62
     7
370
     0
100
AcDbMText
 10
17.5078089051
 20
225.4739273576
 30
0.0
 40
3.96875
 41
0.0
 71
     2
 72
     1
  1
E
  7
SLDTEXTSTYLE0
 73
     1
 44
1.0
  0
MTEXT
  5
BB
330
1F
100
AcDbEntity
  8
0
  6
Continuous
 62
     7
370
     0
100
AcDbMText
 10
412.5078089051
 20
225.4739273576
 30
0.0
 40
3.96875
 41
0.0
 71
     2
 72
     1
  1
E
  7
SLDTEXTSTYLE0
 73
     1
 44
1.0
  0
MTEXT
  5
BC
330
1F
100
AcDbEntity
  8
0
  6
Continuous
 62
     7
370
     0
100
AcDbMText
 10
17.4577402091
 20
269.7239273576
 30
0.0
 40
3.96875
 41
0.0
 71
     2
 72
     1
  1
F
  7
SLDTEXTSTYLE0
 73
     1
 44
1.0
  0
MTEXT
  5
BD
330
1F
100
AcDbEntity
  8
0
  6
Continuous
 62
     7
370
     0
100
AcDbMText
 10
412.4577402091
 20
269.7239273576
 30
0.0
 40
3.96875
 41
0.0
 71
     2
 72
     1
  1
F
  7
SLDTEXTSTYLE0
 73
     1
 44
1.0
  0
MTEXT
  5
BE
330
1F
100
AcDbEntity
  8
0
  6
Continuous
 62
     7
370
     0
100
AcDbMText
 10
42.4600369465
 20
9.4739273576
 30
0.0
 40
3.96875
 41
0.0
 71
     2
 72
     1
  1
8
  7
SLDTEXTSTYLE0
 73
     1
 44
1.0
  0
MTEXT
  5
BF
330
1F
100
AcDbEntity
  8
0
  6
Continuous
 62
     7
370
     0
100
AcDbMText
 10
42.4600369465
 20
291.4739273576
 30
0.0
 40
3.96875
 41
0.0
 71
     2
 72
     1
  1
8
  7
SLDTEXTSTYLE0
 73
     1
 44
1.0
  0
MTEXT
  5
C0
330
1F
100
AcDbEntity
  8
0
  6
Continuous
 62
     7
370
     0
100
AcDbMText
 10
89.9600369465
 20
9.4739273576
 30
0.0
 40
3.96875
 41
0.0
 71
     2
 72
     1
  1
7
  7
SLDTEXTSTYLE0
 73
     1
 44
1.0
  0
MTEXT
  5
C1
330
1F
100
AcDbEntity
  8
0
  6
Continuous
 62
     7
370
     0
100
AcDbMText
 10
89.9600369465
 20
291.4739273576
 30
0.0
 40
3.96875
 41
0.0
 71
     2
 72
     1
  1
7
  7
SLDTEXTSTYLE0
 73
     1
 44
1.0
  0
MTEXT
  5
C2
330
1F
100
AcDbEntity
  8
0
  6
Continuous
 62
     7
370
     0
100
AcDbMText
 10
139.9600369465
 20
9.4739273576
 30
0.0
 40
3.96875
 41
0.0
 71
     2
 72
     1
  1
6
  7
SLDTEXTSTYLE0
 73
     1
 44
1.0
  0
MTEXT
  5
C3
330
1F
100
AcDbEntity
  8
0
  6
Continuous
 62
     7
370
     0
100
AcDbMText
 10
139.9600369465
 20
291.4739273576
 30
0.0
 40
3.96875
 41
0.0
 71
     2
 72
     1
  1
6
  7
SLDTEXTSTYLE0
 73
     1
 44
1.0
  0
MTEXT
  5
C4
330
1F
100
AcDbEntity
  8
0
  6
Continuous
 62
     7
370
     0
100
AcDbMText
 10
189.9600369465
 20
9.4739273576
 30
0.0
 40
3.96875
 41
0.0
 71
     2
 72
     1
  1
5
  7
SLDTEXTSTYLE0
 73
     1
 44
1.0
  0
MTEXT
  5
C5
330
1F
100
AcDbEntity
  8
0
  6
Continuous
 62
     7
370
     0
100
AcDbMText
 10
189.9600369465
 20
291.4739273576
 30
0.0
 40
3.96875
 41
0.0
 71
     2
 72
     1
  1
5
  7
SLDTEXTSTYLE0
 73
     1
 44
1.0
  0
MTEXT
  5
C6
330
1F
100
AcDbEntity
  8
0
  6
Continuous
 62
     7
370
     0
100
AcDbMText
 10
239.9600369465
 20
9.4739273576
 30
0.0
 40
3.96875
 41
0.0
 71
     2
 72
     1
  1
4
  7
SLDTEXTSTYLE0
 73
     1
 44
1.0
  0
MTEXT
  5
C7
330
1F
100
AcDbEntity
  8
0
  6
Continuous
 62
     7
370
     0
100
AcDbMText
 10
239.9600369465
 20
291.4739273576
 30
0.0
 40
3.96875
 41
0.0
 71
     2
 72
     1
  1
4
  7
SLDTEXTSTYLE0
 73
     1
 44
1.0
  0
MTEXT
  5
C8
330
1F
100
AcDbEntity
  8
0
  6
Continuous
 62
     7
370
     0
100
AcDbMText
 10
289.9600369465
 20
9.4739273576
 30
0.0
 40
3.96875
 41
0.0
 71
     2
 72
     1
  1
3
  7
SLDTEXTSTYLE0
 73
     1
 44
1.0
  0
MTEXT
  5
C9
330
1F
100
AcDbEntity
  8
0
  6
Continuous
 62
     7
370
     0
100
AcDbMText
 10
289.9600369465
 20
291.4739273576
 30
0.0
 40
3.96875
 41
0.0
 71
     2
 72
     1
  1
3
  7
SLDTEXTSTYLE0
 73
     1
 44
1.0
  0
MTEXT
  5
CA
330
1F
100
AcDbEntity
  8
0
  6
Continuous
 62
     7
370
     0
100
AcDbMText
 10
339.9600369465
 20
9.4739273576
 30
0.0
 40
3.96875
 41
0.0
 71
     2
 72
     1
  1
2
  7
SLDTEXTSTYLE0
 73
     1
 44
1.0
  0
MTEXT
  5
CB
330
1F
100
AcDbEntity
  8
0
  6
Continuous
 62
     7
370
     0
100
AcDbMText
 10
339.9600369465
 20
291.4739273576
 30
0.0
 40
3.96875
 41
0.0
 71
     2
 72
     1
  1
2
  7
SLDTEXTSTYLE0
 73
     1
 44
1.0
  0
MTEXT
  5
CC
330
1F
100
AcDbEntity
  8
0
  6
Continuous
 62
     7
370
     0
100
AcDbMText
 10
387.4600369465
 20
9.4739273576
 30
0.0
 40
3.96875
 41
0.0
 71
     2
 72
     1
  1
1
  7
SLDTEXTSTYLE0
 73
     1
 44
1.0
  0
MTEXT
  5
CD
330
1F
100
AcDbEntity
  8
0
  6
Continuous
 62
     7
370
     0
100
AcDbMText
 10
387.4600369465
 20
291.4739273576
 30
0.0
 40
3.96875
 41
0.0
 71
     2
 72
     1
  1
1
  7
SLDTEXTSTYLE0
 73
     1
 44
1.0
  0
MTEXT
  5
CE
330
1F
100
AcDbEntity
  8
0
  6
Continuous
 62
     7
370
     0
100
AcDbMText
 10
364.4565356557
 20
23.347828666
 30
0.0
 40
4.2333333333
 41
0.0
 71
     2
 72
     1
  1
CR063028D0GHAM_#_#_#020#Svoboda
  7
SLDTEXTSTYLE0
 73
     1
 44
1.0
  0
MTEXT
  5
CF
330
1F
100
AcDbEntity
  8
0
  6
Continuous
 62
     7
370
     0
100
AcDbMText
 10
285.6178111281
 20
12.9493119036
 30
0.0
 40
1.4986
 41
0.0
 71
     1
 72
     1
  1
HMOTNOST:
  7
SLDTEXTSTYLE0
 73
     1
 44
1.0
  0
MTEXT
  5
D0
330
1F
100
AcDbEntity
  8
0
  6
Continuous
 62
     7
370
     0
100
AcDbMText
 10
400.8711564346
 20
24.406388569
 30
0.0
 40
2.9104166667
 41
0.0
 71
     1
 72
     1
  1
A3
  7
SLDTEXTSTYLE0
 73
     1
 44
1.0
  0
MTEXT
  5
D2
330
1F
100
AcDbEntity
  8
0
  6
Continuous
 62
     7
370
     0
100
AcDbMText
 10
374.4782944278
 20
12.9000872745
 30
0.0
 40
1.5
 41
0.0
 71
     1
 72
     1
  1
LIST 1 Z 1 LISTŮ
  7
SLDTEXTSTYLE1
 73
     1
 44
1.0
  0
MTEXT
  5
D4
330
1F
100
AcDbEntity
  8
0
  6
Continuous
 62
     7
370
     0
100
AcDbMText
 10
330.0739661175
 20
12.9000872745
 30
0.0
 40
1.5
 41
0.0
 71
     1
 72
     1
  1
MĚŘÍTKO:1:1
  7
SLDTEXTSTYLE2
 73
     1
 44
1.0
  0
MTEXT
  5
D5
330
1F
100
AcDbEntity
  8
0
  6
Continuous
 62
     7
370
     0
100
AcDbMText
 10
330.2786531243
 20
25.9860562892
 30
0.0
 40
1.5
 41
0.0
 71
     1
 72
     1
  1
Č. VÝKRESU
  7
SLDTEXTSTYLE2
 73
     1
 44
1.0
  0
MTEXT
  5
D6
330
1F
100
AcDbEntity
  8
0
  6
Continuous
 62
     7
370
     0
100
AcDbMText
 10
329.9561869366
 20
46.5761792212
 30
0.0
 40
1.5
 41
0.0
 71
     1
 72
     1
  1
NÁZEV:
  7
SLDTEXTSTYLE0
 73
     1
 44
1.0
  0
MTEXT
  5
D7
330
1F
100
AcDbEntity
  8
0
  6
Continuous
 62
     7
370
     0
100
AcDbMText
 10
383.3275816993
 20
62.3349086805
 30
0.0
 40
1.5
 41
0.0
 71
     1
 72
     1
  1
ZMĚNA
  7
SLDTEXTSTYLE2
 73
     1
 44
1.0
  0
MTEXT
  5
D8
330
1F
100
AcDbEntity
  8
0
  6
Continuous
 62
     7
370
     0
100
AcDbMText
 10
342.6146405229
 20
62.5329935751
 30
0.0
 40
1.5
 41
0.0
 71
     1
 72
     1
  1
NEUPRAVOVAT MĚŘÍTKO VÝKRESU
  7
SLDTEXTSTYLE2
 73
     1
 44
1.0
  0
MTEXT
  5
D9
330
1F
100
AcDbEntity
  8
0
  6
Continuous
 62
     7
370
     0
100
AcDbMText
 10
285.6458623088
 20
25.9860562892
 30
0.0
 40
1.5
 41
0.0
 71
     1
 72
     1
  1
MATERIÁL:
  7
SLDTEXTSTYLE0
 73
     1
 44
1.0
  0
MTEXT
  5
DA
330
1F
100
AcDbEntity
  8
0
  6
Continuous
 62
     7
370
     0
100
AcDbMText
 10
277.2147019657
 20
46.5761792212
 30
0.0
 40
1.5
 41
0.0
 71
     1
 72
     1
  1
DATUM
  7
SLDTEXTSTYLE0
 73
     1
 44
1.0
  0
MTEXT
  5
DB
330
1F
100
AcDbEntity
  8
0
  6
Continuous
 62
     7
370
     0
100
AcDbMText
 10
260.0335875632
 20
46.5617563795
 30
0.0
 40
1.5
 41
0.0
 71
     1
 72
     1
  1
PODPIS
  7
SLDTEXTSTYLE0
 73
     1
 44
1.0
  0
MTEXT
  5
DC
330
1F
100
AcDbEntity
  8
0
  6
Continuous
 62
     7
370
     0
100
AcDbMText
 10
244.3222392177
 20
46.5014826335
 30
0.0
 40
1.5
 41
0.0
 71
     1
 72
     1
  1
JMÉNO
  7
SLDTEXTSTYLE0
 73
     1
 44
1.0
  0
INSERT
  5
E2
330
1F
100
AcDbEntity
  8
0
  6
Continuous
 62
     7
370
     0
100
AcDbBlockReference
  2
SW_NOTE_0
 10
311.3092156863
 20
62.069489643
 30
0.0
  0
MTEXT
  5
E3
330
1F
100
AcDbEntity
  8
0
  6
Continuous
 62
     7
370
     0
100
AcDbMText
 10
264.3712921668
 20
63.9192719951
 30
0.0
 40
1.5
 41
0.0
 71
     1
 72
     1
  1
OPRACOVÁNÍ:
  7
SLDTEXTSTYLE0
 73
     1
 44
1.0
  0
INSERT
  5
ED
330
1F
100
AcDbEntity
  8
0
  6
Continuous
 62
     7
370
     0
100
AcDbBlockReference
  2
SW_NOTE_0_1
 10
230.5936687456
 20
61.9873698743
 30
0.0
  0
MTEXT
  5
EE
330
1F
100
AcDbEntity
  8
0
  6
Continuous
 62
     7
370
     0
100
AcDbMText
 10
230.6690428622
 20
25.3496492073
 30
0.0
 40
1.5
 41
0.0
 71
     1
 72
     1
  1
Z. JAKOSTI
  7
SLDTEXTSTYLE0
 73
     1
 44
1.0
  0
MTEXT
  5
EF
330
1F
100
AcDbEntity
  8
0
  6
Continuous
 62
     7
370
     0
100
AcDbMText
 10
230.4551864991
 20
29.7337046506
 30
0.0
 40
1.5
 41
0.0
 71
     1
 72
     1
  1
VÝROBA
  7
SLDTEXTSTYLE0
 73
     1
 44
1.0
  0
MTEXT
  5
F0
330
1F
100
AcDbEntity
  8
0
  6
Continuous
 62
     7
370
     0
100
AcDbMText
 10
230.4017224083
 20
34.0642960031
 30
0.0
 40
1.5
 41
0.0
 71
     1
 72
     1
  1
SCHVÁLIL
  7
SLDTEXTSTYLE0
 73
     1
 44
1.0
  0
MTEXT
  5
F1
330
1F
100
AcDbEntity
  8
0
  6
Continuous
 62
     7
370
     0
100
AcDbMText
 10
230.4104688676
 20
38.15440716
 30
0.0
 40
1.5
 41
0.0
 71
     1
 72
     1
  1
PŘEZKOUŠEL
  7
SLDTEXTSTYLE2
 73
     1
 44
1.0
  0
MTEXT
  5
F2
330
1F
100
AcDbEntity
  8
0
  6
Continuous
 62
     7
370
     0
100
AcDbMText
 10
230.2121492441
 20
42.4297148859
 30
0.0
 40
1.5
 41
0.0
 71
     1
 72
     1
  1
NAVRHL
  7
SLDTEXTSTYLE0
 73
     1
 44
1.0
  0
LINE
  5
F3
330
1F
100
AcDbEntity
  8
0
  6
Continuous
 62
     7
370
    25
100
AcDbLine
 10
259.14
 20
219.06
 30
0.0
 11
236.94
 21
219.06
 31
0.0
  0
LINE
  5
F4
330
1F
100
AcDbEntity
  8
0
  6
Continuous
 62
     7
370
    25
100
AcDbLine
 10
236.94
 20
199.06
 30
0.0
 11
259.14
 21
199.06
 31
0.0
  0
LINE
  5
F5
330
1F
100
AcDbEntity
  8
0
  6
Continuous
 62
     7
370
    25
100
AcDbLine
 10
259.14
 20
199.06
 30
0.0
 11
259.94
 21
199.86
 31
0.0
  0
LINE
  5
F6
330
1F
100
AcDbEntity
  8
0
  6
Continuous
 62
     7
370
    25
100
AcDbLine
 10
259.94
 20
218.26
 30
0.0
 11
259.14
 21
219.06
 31
0.0
  0
LINE
  5
F7
330
1F
100
AcDbEntity
  8
0
  6
Continuous
 62
     7
370
    25
100
AcDbLine
 10
165.94
 20
182.91
 30
0.0
 11
118.94
 21
182.91
 31
0.0
  0
LINE
  5
F8
330
1F
100
AcDbEntity
  8
0
  6
Continuous
 62
     7
370
    25
100
AcDbLine
 10
118.94
 20
170.91
 30
0.0
 11
165.94
 21
170.91
 31
0.0
  0
LINE
  5
F9
330
1F
100
AcDbEntity
  8
0
  6
Continuous
 62
     7
370
    25
100
AcDbLine
 10
118.94
 20
235.21
 30
0.0
 11
165.94
 21
235.21
 31
0.0
  0
LINE
  5
FA
330
1F
100
AcDbEntity
  8
0
  6
Continuous
 62
     7
370
    25
100
AcDbLine
 10
165.94
 20
247.21
 30
0.0
 11
118.94
 21
247.21
 31
0.0
  0
ARC
  5
FB
330
1F
100
AcDbEntity
  8
0
  6
Continuous
 62
     7
370
    25
100
AcDbCircle
 10
66.24
 20
169.71
 30
0.0
 40
0.3000000000000114
100
AcDbArc
 50
180.0
 51
270.0
  0
ARC
  5
FC
330
1F
100
AcDbEntity
  8
0
  6
Continuous
 62
     7
370
    25
100
AcDbCircle
 10
66.24
 20
184.11
 30
0.0
 40
0.3000000000000114
100
AcDbArc
 50
90.0
 51
180.0
  0
LINE
  5
FD
330
1F
100
AcDbEntity
  8
0
  6
Continuous
 62
     7
370
    25
100
AcDbLine
 10
67.94
 20
184.41
 30
0.0
 11
66.24
 21
184.41
 31
0.0
  0
LINE
  5
FE
330
1F
100
AcDbEntity
  8
0
  6
Continuous
 62
     7
370
    25
100
AcDbLine
 10
66.24
 20
169.41
 30
0.0
 11
67.94
 21
169.41
 31
0.0
  0
LINE
  5
FF
330
1F
100
AcDbEntity
  8
0
  6
Continuous
 62
     7
370
    25
100
AcDbLine
 10
69.496784808
 20
188.53
 30
0.0
 11
67.94
 21
186.9732151919
 31
0.0
  0
LINE
  5
100
330
1F
100
AcDbEntity
  8
0
  6
Continuous
 62
     7
370
    25
100
AcDbLine
 10
81.94
 20
186.9732151919
 30
0.0
 11
80.383215192
 21
188.53
 31
0.0
  0
LINE
  5
101
330
1F
100
AcDbEntity
  8
0
  6
Continuous
 62
     7
370
    25
100
AcDbLine
 10
67.94
 20
166.846784808
 30
0.0
 11
69.496784808
 21
165.29
 31
0.0
  0
LINE
  5
102
330
1F
100
AcDbEntity
  8
0
  6
Continuous
 62
     7
370
    25
100
AcDbLine
 10
80.383215192
 20
165.29
 30
0.0
 11
81.94
 21
166.846784808
 31
0.0
  0
LINE
  5
103
330
1F
100
AcDbEntity
  8
0
  6
Continuous
 62
     7
370
    25
100
AcDbLine
 10
67.94
 20
248.71
 30
0.0
 11
66.24
 21
248.71
 31
0.0
  0
LINE
  5
104
330
1F
100
AcDbEntity
  8
0
  6
Continuous
 62
     7
370
    25
100
AcDbLine
 10
66.24
 20
233.71
 30
0.0
 11
67.94
 21
233.71
 31
0.0
  0
ARC
  5
105
330
1F
100
AcDbEntity
  8
0
  6
Continuous
 62
     7
370
    25
100
AcDbCircle
 10
66.24
 20
234.01
 30
0.0
 40
0.3000000000000114
100
AcDbArc
 50
180.0
 51
270.0
  0
ARC
  5
106
330
1F
100
AcDbEntity
  8
0
  6
Continuous
 62
     7
370
    25
100
AcDbCircle
 10
66.24
 20
248.41
 30
0.0
 40
0.3000000000000114
100
AcDbArc
 50
90.0
 51
180.0
  0
LINE
  5
107
330
1F
100
AcDbEntity
  8
0
  6
Continuous
 62
     7
370
    25
100
AcDbLine
 10
69.496784808
 20
252.83
 30
0.0
 11
67.94
 21
251.2732151919
 31
0.0
  0
LINE
  5
108
330
1F
100
AcDbEntity
  8
0
  6
Continuous
 62
     7
370
    25
100
AcDbLine
 10
81.94
 20
251.2732151919
 30
0.0
 11
80.383215192
 21
252.83
 31
0.0
  0
LINE
  5
109
330
1F
100
AcDbEntity
  8
0
  6
Continuous
 62
     7
370
    25
100
AcDbLine
 10
67.94
 20
231.146784808
 30
0.0
 11
69.496784808
 21
229.59
 31
0.0
  0
LINE
  5
10A
330
1F
100
AcDbEntity
  8
0
  6
Continuous
 62
     7
370
    25
100
AcDbLine
 10
80.383215192
 20
229.59
 30
0.0
 11
81.94
 21
231.146784808
 31
0.0
  0
LINE
  5
10B
330
1F
100
AcDbEntity
  8
0
  6
Continuous
 62
     7
370
    25
100
AcDbLine
 10
236.44
 20
188.06
 30
0.0
 11
236.94
 21
188.56
 31
0.0
  0
LINE
  5
10C
330
1F
100
AcDbEntity
  8
0
  6
Continuous
 62
     7
370
    25
100
AcDbLine
 10
236.94
 20
229.56
 30
0.0
 11
236.44
 21
230.06
 31
0.0
  0
LINE
  5
10D
330
1F
100
AcDbEntity
  8
0
  6
Continuous
 62
     7
370
    25
100
AcDbLine
 10
225.94
 20
188.06
 30
0.0
 11
236.44
 21
188.06
 31
0.0
  0
LINE
  5
10E
330
1F
100
AcDbEntity
  8
0
  6
Continuous
 62
     7
370
    25
100
AcDbLine
 10
236.44
 20
230.06
 30
0.0
 11
225.94
 21
230.06
 31
0.0
  0
LINE
  5
10F
330
1F
100
AcDbEntity
  8
0
  6
Continuous
 62
     7
370
    25
100
AcDbLine
 10
209.94
 20
171.56
 30
0.0
 11
225.94
 21
171.56
 31
0.0
  0
LINE
  5
110
330
1F
100
AcDbEntity
  8
0
  6
Continuous
 62
     7
370
    25
100
AcDbLine
 10
225.94
 20
246.56
 30
0.0
 11
209.94
 21
246.56
 31
0.0
  0
LINE
  5
111
330
1F
100
AcDbEntity
  8
0
  6
Continuous
 62
     7
370
    25
100
AcDbLine
 10
259.14
 20
209.06
 30
0.0
 11
259.14
 21
219.06
 31
0.0
  0
LINE
  5
112
330
1F
100
AcDbEntity
  8
0
  6
Continuous
 62
     7
370
    25
100
AcDbLine
 10
259.14
 20
199.06
 30
0.0
 11
259.14
 21
209.06
 31
0.0
  0
LINE
  5
113
330
1F
100
AcDbEntity
  8
0
  6
Continuous
 62
     7
370
    25
100
AcDbLine
 10
259.94
 20
209.06
 30
0.0
 11
259.94
 21
199.86
 31
0.0
  0
LINE
  5
114
330
1F
100
AcDbEntity
  8
0
  6
Continuous
 62
     7
370
    25
100
AcDbLine
 10
259.94
 20
218.26
 30
0.0
 11
259.94
 21
209.06
 31
0.0
  0
SPLINE
  5
115
330
1F
100
AcDbEntity
  8
0
  6
Continuous
 62
     7
370
    25
100
AcDbSpline
210
0.0
220
0.0
230
1.0
 70
     8
 71
     3
 72
    10
 73
     6
 74
     0
 42
0.000000001
 43
0.00000001
 40
0.0
 40
0.0
 40
0.0
 40
0.0
 40
0.2497062426312441
 40
0.5046233877767254
 40
0.9999999999999999
 40
0.9999999999999999
 40
0.9999999999999999
 40
0.9999999999999999
 10
81.94000000000001
 20
185.6249999999595
 30
0.0
 10
81.91718257899097
 20
185.3725346908824
 30
0.0
 10
81.87107158004844
 20
184.8623355936548
 30
0.0
 10
81.42192578486302
 20
183.870640807302
 30
0.0
 10
80.79628830276431
 20
183.1775853764294
 30
0.0
 10
80.3832151919752
 20
182.7199999999595
 30
0.0
  0
LINE
  5
116
330
1F
100
AcDbEntity
  8
0
  6
Continuous
 62
     7
370
    25
100
AcDbLine
 10
80.383215192
 20
182.72
 30
0.0
 11
69.496784808
 21
182.72
 31
0.0
  0
SPLINE
  5
117
330
1F
100
AcDbEntity
  8
0
  6
Continuous
 62
     7
370
    25
100
AcDbSpline
210
0.0
220
0.0
230
1.0
 70
     8
 71
     3
 72
    11
 73
     7
 74
     0
 42
0.000000001
 43
0.00000001
 40
0.0
 40
0.0
 40
0.0
 40
0.0
 40
0.4320489135257244
 40
0.6559242718413975
 40
0.879648011344044
 40
1.0
 40
1.0
 40
1.0
 40
1.0
 10
69.49678480802481
 20
182.7199999999595
 30
0.0
 10
69.13052682046369
 20
183.1179125056919
 30
0.0
 10
68.57448444591705
 20
183.7220118620569
 30
0.0
 10
68.12870946632503
 20
184.5853905998937
 30
0.0
 10
67.96028381241248
 20
185.1553311820735
 30
0.0
 10
67.94525635545206
 20
185.5032898302264
 30
0.0
 10
67.94000000000001
 20
185.6249999999595
 30
0.0
  0
SPLINE
  5
118
330
1F
100
AcDbEntity
  8
0
  6
Continuous
 62
     7
370
    25
100
AcDbSpline
210
0.0
220
0.0
230
1.0
 70
     8
 71
     3
 72
    10
 73
     6
 74
     0
 42
0.000000001
 43
0.00000001
 40
0.0
 40
0.0
 40
0.0
 40
0.0
 40
0.2497062426312442
 40
0.5046233877767243
 40
0.9999999999999999
 40
0.9999999999999999
 40
0.9999999999999999
 40
0.9999999999999999
 10
67.94000000000001
 20
185.6249999999595
 30
0.0
 10
67.96281742100905
 20
185.8774653090365
 30
0.0
 10
68.00892841995157
 20
186.3876644062641
 30
0.0
 10
68.45807421513702
 20
187.379359192617
 30
0.0
 10
69.08371169723571
 20
188.0724146234895
 30
0.0
 10
69.49678480802481
 20
188.5299999999595
 30
0.0
  0
LINE
  5
119
330
1F
100
AcDbEntity
  8
0
  6
Continuous
 62
     7
370
    25
100
AcDbLine
 10
80.383215192
 20
188.53
 30
0.0
 11
69.496784808
 21
188.53
 31
0.0
  0
SPLINE
  5
11A
330
1F
100
AcDbEntity
  8
0
  6
Continuous
 62
     7
370
    25
100
AcDbSpline
210
0.0
220
0.0
230
1.0
 70
     8
 71
     3
 72
    12
 73
     8
 74
     0
 42
0.000000001
 43
0.00000001
 40
0.0
 40
0.0
 40
0.0
 40
0.0
 40
0.2155169805765119
 40
0.4322262234987885
 40
0.6544575858718126
 40
0.8796881841288726
 40
1.0
 40
1.0
 40
1.0
 40
1.0
 10
80.3832151919752
 20
188.5299999999595
 30
0.0
 10
80.57141345064986
 20
188.3333022275574
 30
0.0
 10
80.94885110033482
 20
187.9388185302239
 30
0.0
 10
81.40845668198548
 20
187.3168522006301
 30
0.0
 10
81.7530816004151
 20
186.6666624038126
 30
0.0
 10
81.91934232750194
 20
186.0962130649125
 30
0.0
 10
81.93466493608975
 20
185.7466957920247
 30
0.0
 10
81.94000000000001
 20
185.6249999999595
 30
0.0
  0
SPLINE
  5
11B
330
1F
100
AcDbEntity
  8
0
  6
Continuous
 62
     7
370
    25
100
AcDbSpline
210
0.0
220
0.0
230
1.0
 70
     8
 71
     3
 72
    10
 73
     6
 74
     0
 42
0.000000001
 43
0.00000001
 40
0.0
 40
0.0
 40
0.0
 40
0.0
 40
0.3528678512836995
 40
0.6719287159605554
 40
1.0
 40
1.0
 40
1.0
 40
1.0
 10
80.3832151919752
 20
182.7199999999595
 30
0.0
 10
80.68296292422043
 20
182.0724614441106
 30
0.0
 10
81.25374064768525
 20
180.8394226484718
 30
0.0
 10
81.8227446480924
 20
178.8831050429621
 30
0.0
 10
81.90055375466417
 20
177.5737785340171
 30
0.0
 10
81.94000000000001
 20
176.9099999999595
 30
0.0
  0
SPLINE
  5
11C
330
1F
100
AcDbEntity
  8
0
  6
Continuous
 62
     7
370
    25
100
AcDbSpline
210
0.0
220
0.0
230
1.0
 70
     8
 71
     3
 72
    11
 73
     7
 74
     0
 42
0.000000001
 43
0.00000001
 40
0.0
 40
0.0
 40
0.0
 40
0.0
 40
0.0581237806725214
 40
0.4052923505119568
 40
0.7646176100441906
 40
1.0
 40
1.0
 40
1.0
 40
1.0
 10
67.94000000000001
 20
176.9099999999595
 30
0.0
 10
67.9412944993124
 20
177.0274995819138
 30
0.0
 10
67.95032093673593
 20
177.8468145198522
 30
0.0
 10
68.17709477178174
 20
179.3878758610498
 30
0.0
 10
68.77527724459465
 20
181.2042210034627
 30
0.0
 10
69.292192334219
 20
182.2901819490415
 30
0.0
 10
69.49678480802481
 20
182.7199999999595
 30
0.0
  0
LINE
  5
11D
330
1F
100
AcDbEntity
  8
0
  6
Continuous
 62
     7
370
    25
100
AcDbLine
 10
67.94
 20
185.625
 30
0.0
 11
67.94
 21
176.91
 31
0.0
  0
SPLINE
  5
11E
330
1F
100
AcDbEntity
  8
0
  6
Continuous
 62
     7
370
    25
100
AcDbSpline
210
0.0
220
0.0
230
1.0
 70
     8
 71
     3
 72
    10
 73
     6
 74
     0
 42
0.000000001
 43
0.00000001
 40
0.0
 40
0.0
 40
0.0
 40
0.0
 40
0.2497062426312447
 40
0.504623387776725
 40
1.0
 40
1.0
 40
1.0
 40
1.0
 10
67.94000000000001
 20
168.1949999999595
 30
0.0
 10
67.96281742100905
 20
168.4474653090365
 30
0.0
 10
68.00892841995157
 20
168.9576644062641
 30
0.0
 10
68.45807421513702
 20
169.949359192617
 30
0.0
 10
69.08371169723571
 20
170.6424146234896
 30
0.0
 10
69.49678480802481
 20
171.0999999999595
 30
0.0
  0
SPLINE
  5
11F
330
1F
100
AcDbEntity
  8
0
  6
Continuous
 62
     7
370
    25
100
AcDbSpline
210
0.0
220
0.0
230
1.0
 70
     8
 71
     3
 72
    10
 73
     6
 74
     0
 42
0.000000001
 43
0.00000001
 40
0.0
 40
0.0
 40
0.0
 40
0.0
 40
0.3528678512837001
 40
0.6719287159605555
 40
1.0
 40
1.0
 40
1.0
 40
1.0
 10
69.49678480802481
 20
171.0999999999595
 30
0.0
 10
69.19703707577959
 20
171.7475385558084
 30
0.0
 10
68.62625935231479
 20
172.9805773514472
 30
0.0
 10
68.05725535190761
 20
174.9368949569569
 30
0.0
 10
67.97944624533584
 20
176.2462214659018
 30
0.0
 10
67.94000000000001
 20
176.9099999999595
 30
0.0
  0
LINE
  5
120
330
1F
100
AcDbEntity
  8
0
  6
Continuous
 62
     7
370
    25
100
AcDbLine
 10
67.94
 20
176.91
 30
0.0
 11
67.94
 21
168.195
 31
0.0
  0
SPLINE
  5
121
330
1F
100
AcDbEntity
  8
0
  6
Continuous
 62
     7
370
    25
100
AcDbSpline
210
0.0
220
0.0
230
1.0
 70
     8
 71
     3
 72
    10
 73
     6
 74
     0
 42
0.000000001
 43
0.00000001
 40
0.0
 40
0.0
 40
0.0
 40
0.0
 40
0.2497062426312438
 40
0.5046233877767244
 40
1.0
 40
1.0
 40
1.0
 40
1.0
 10
81.94000000000001
 20
168.1949999999595
 30
0.0
 10
81.91718257899097
 20
167.9425346908824
 30
0.0
 10
81.87107158004845
 20
167.4323355936548
 30
0.0
 10
81.42192578486302
 20
166.440640807302
 30
0.0
 10
80.79628830276431
 20
165.7475853764294
 30
0.0
 10
80.38321519197521
 20
165.2899999999595
 30
0.0
  0
LINE
  5
122
330
1F
100
AcDbEntity
  8
0
  6
Continuous
 62
     7
370
    25
100
AcDbLine
 10
80.383215192
 20
165.29
 30
0.0
 11
69.496784808
 21
165.29
 31
0.0
  0
SPLINE
  5
123
330
1F
100
AcDbEntity
  8
0
  6
Continuous
 62
     7
370
    25
100
AcDbSpline
210
0.0
220
0.0
230
1.0
 70
     8
 71
     3
 72
    11
 73
     7
 74
     0
 42
0.000000001
 43
0.00000001
 40
0.0
 40
0.0
 40
0.0
 40
0.0
 40
0.4320489135257247
 40
0.6559242718413973
 40
0.8796480113440455
 40
1.0
 40
1.0
 40
1.0
 40
1.0
 10
69.49678480802481
 20
165.2899999999595
 30
0.0
 10
69.13052682046369
 20
165.6879125056919
 30
0.0
 10
68.57448444591704
 20
166.2920118620569
 30
0.0
 10
68.12870946632502
 20
167.1553905998937
 30
0.0
 10
67.96028381241247
 20
167.7253311820735
 30
0.0
 10
67.94525635545206
 20
168.0732898302263
 30
0.0
 10
67.94000000000001
 20
168.1949999999595
 30
0.0
  0
LINE
  5
124
330
1F
100
AcDbEntity
  8
0
  6
Continuous
 62
     7
370
    25
100
AcDbLine
 10
80.383215192
 20
171.1
 30
0.0
 11
69.496784808
 21
171.1
 31
0.0
  0
SPLINE
  5
125
330
1F
100
AcDbEntity
  8
0
  6
Continuous
 62
     7
370
    25
100
AcDbSpline
210
0.0
220
0.0
230
1.0
 70
     8
 71
     3
 72
    11
 73
     7
 74
     0
 42
0.000000001
 43
0.00000001
 40
0.0
 40
0.0
 40
0.0
 40
0.0
 40
0.4320489135257235
 40
0.6559242718413966
 40
0.8796480113440438
 40
0.9999999999999999
 40
0.9999999999999999
 40
0.9999999999999999
 40
0.9999999999999999
 10
80.3832151919752
 20
171.0999999999595
 30
0.0
 10
80.74947317953635
 20
170.7020874942271
 30
0.0
 10
81.30551555408299
 20
170.0979881378621
 30
0.0
 10
81.751290533675
 20
169.2346094000253
 30
0.0
 10
81.91971618758755
 20
168.6646688178455
 30
0.0
 10
81.93474364454796
 20
168.3167101696926
 30
0.0
 10
81.94000000000001
 20
168.1949999999595
 30
0.0
  0
SPLINE
  5
126
330
1F
100
AcDbEntity
  8
0
  6
Continuous
 62
     7
370
    25
100
AcDbSpline
210
0.0
220
0.0
230
1.0
 70
     8
 71
     3
 72
    11
 73
     7
 74
     0
 42
0.000000001
 43
0.00000001
 40
0.0
 40
0.0
 40
0.0
 40
0.0
 40
0.0581237806725213
 40
0.4052923505119559
 40
0.76461761004419
 40
1.0
 40
1.0
 40
1.0
 40
1.0
 10
81.94000000000001
 20
176.9099999999595
 30
0.0
 10
81.93870550068762
 20
176.7925004180051
 30
0.0
 10
81.92967906326409
 20
175.9731854800668
 30
0.0
 10
81.70290522821828
 20
174.4321241388692
 30
0.0
 10
81.10472275540536
 20
172.6157789964562
 30
0.0
 10
80.58780766578101
 20
171.5298180508775
 30
0.0
 10
80.3832151919752
 20
171.0999999999595
 30
0.0
  0
LINE
  5
127
330
1F
100
AcDbEntity
  8
0
  6
Continuous
 62
     7
370
    25
100
AcDbLine
 10
65.94
 20
184.11
 30
0.0
 11
65.94
 21
169.71
 31
0.0
  0
LINE
  5
128
330
1F
100
AcDbEntity
  8
0
  6
Continuous
 62
     7
370
    25
100
AcDbLine
 10
67.94
 20
186.9732151919
 30
0.0
 11
67.94
 21
185.625
 31
0.0
  0
LINE
  5
129
330
1F
100
AcDbEntity
  8
0
  6
Continuous
 62
     7
370
    25
100
AcDbLine
 10
67.94
 20
168.195
 30
0.0
 11
67.94
 21
166.846784808
 31
0.0
  0
SPLINE
  5
12A
330
1F
100
AcDbEntity
  8
0
  6
Continuous
 62
     7
370
    25
100
AcDbSpline
210
0.0
220
0.0
230
1.0
 70
     8
 71
     3
 72
    10
 73
     6
 74
     0
 42
0.000000001
 43
0.00000001
 40
0.0
 40
0.0
 40
0.0
 40
0.0
 40
0.3528678512837001
 40
0.6719287159605554
 40
1.0
 40
1.0
 40
1.0
 40
1.0
 10
80.3832151919752
 20
247.0199999999595
 30
0.0
 10
80.68296292422043
 20
246.3724614441106
 30
0.0
 10
81.25374064768525
 20
245.1394226484718
 30
0.0
 10
81.8227446480924
 20
243.1831050429621
 30
0.0
 10
81.90055375466417
 20
241.8737785340171
 30
0.0
 10
81.94000000000001
 20
241.2099999999595
 30
0.0
  0
SPLINE
  5
12B
330
1F
100
AcDbEntity
  8
0
  6
Continuous
 62
     7
370
    25
100
AcDbSpline
210
0.0
220
0.0
230
1.0
 70
     8
 71
     3
 72
    10
 73
     6
 74
     0
 42
0.000000001
 43
0.00000001
 40
0.0
 40
0.0
 40
0.0
 40
0.0
 40
0.249706242631244
 40
0.5046233877767257
 40
1.0
 40
1.0
 40
1.0
 40
1.0
 10
81.94000000000001
 20
249.9249999999595
 30
0.0
 10
81.91718257899097
 20
249.6725346908824
 30
0.0
 10
81.87107158004844
 20
249.1623355936548
 30
0.0
 10
81.42192578486302
 20
248.170640807302
 30
0.0
 10
80.79628830276431
 20
247.4775853764294
 30
0.0
 10
80.3832151919752
 20
247.0199999999595
 30
0.0
  0
SPLINE
  5
12C
330
1F
100
AcDbEntity
  8
0
  6
Continuous
 62
     7
370
    25
100
AcDbSpline
210
0.0
220
0.0
230
1.0
 70
     8
 71
     3
 72
    10
 73
     6
 74
     0
 42
0.000000001
 43
0.00000001
 40
0.0
 40
0.0
 40
0.0
 40
0.0
 40
0.2497062426312441
 40
0.5046233877767244
 40
1.0
 40
1.0
 40
1.0
 40
1.0
 10
81.94000000000001
 20
232.4949999999594
 30
0.0
 10
81.91718257899097
 20
232.2425346908824
 30
0.0
 10
81.87107158004845
 20
231.7323355936548
 30
0.0
 10
81.42192578486302
 20
230.740640807302
 30
0.0
 10
80.79628830276431
 20
230.0475853764294
 30
0.0
 10
80.38321519197521
 20
229.5899999999595
 30
0.0
  0
LINE
  5
12D
330
1F
100
AcDbEntity
  8
0
  6
Continuous
 62
     7
370
    25
100
AcDbLine
 10
80.383215192
 20
229.59
 30
0.0
 11
69.496784808
 21
229.59
 31
0.0
  0
SPLINE
  5
12E
330
1F
100
AcDbEntity
  8
0
  6
Continuous
 62
     7
370
    25
100
AcDbSpline
210
0.0
220
0.0
230
1.0
 70
     8
 71
     3
 72
    11
 73
     7
 74
     0
 42
0.000000001
 43
0.00000001
 40
0.0
 40
0.0
 40
0.0
 40
0.0
 40
0.4320489135257247
 40
0.6559242718413973
 40
0.8796480113440451
 40
1.0
 40
1.0
 40
1.0
 40
1.0
 10
69.49678480802481
 20
229.5899999999595
 30
0.0
 10
69.13052682046369
 20
229.9879125056919
 30
0.0
 10
68.57448444591704
 20
230.5920118620569
 30
0.0
 10
68.12870946632503
 20
231.4553905998936
 30
0.0
 10
67.96028381241247
 20
232.0253311820735
 30
0.0
 10
67.94525635545206
 20
232.3732898302263
 30
0.0
 10
67.94000000000001
 20
232.4949999999594
 30
0.0
  0
SPLINE
  5
12F
330
1F
100
AcDbEntity
  8
0
  6
Continuous
 62
     7
370
    25
100
AcDbSpline
210
0.0
220
0.0
230
1.0
 70
     8
 71
     3
 72
    10
 73
     6
 74
     0
 42
0.000000001
 43
0.00000001
 40
0.0
 40
0.0
 40
0.0
 40
0.0
 40
0.2497062426312449
 40
0.504623387776725
 40
1.0
 40
1.0
 40
1.0
 40
1.0
 10
67.94000000000001
 20
232.4949999999594
 30
0.0
 10
67.96281742100905
 20
232.7474653090365
 30
0.0
 10
68.00892841995157
 20
233.2576644062641
 30
0.0
 10
68.45807421513702
 20
234.2493591926169
 30
0.0
 10
69.08371169723571
 20
234.9424146234896
 30
0.0
 10
69.49678480802481
 20
235.3999999999595
 30
0.0
  0
LINE
  5
130
330
1F
100
AcDbEntity
  8
0
  6
Continuous
 62
     7
370
    25
100
AcDbLine
 10
80.383215192
 20
235.4
 30
0.0
 11
69.496784808
 21
235.4
 31
0.0
  0
SPLINE
  5
131
330
1F
100
AcDbEntity
  8
0
  6
Continuous
 62
     7
370
    25
100
AcDbSpline
210
0.0
220
0.0
230
1.0
 70
     8
 71
     3
 72
    11
 73
     7
 74
     0
 42
0.000000001
 43
0.00000001
 40
0.0
 40
0.0
 40
0.0
 40
0.0
 40
0.4320489135257238
 40
0.6559242718413966
 40
0.8796480113440438
 40
0.9999999999999999
 40
0.9999999999999999
 40
0.9999999999999999
 40
0.9999999999999999
 10
80.3832151919752
 20
235.3999999999595
 30
0.0
 10
80.74947317953635
 20
235.0020874942271
 30
0.0
 10
81.30551555408299
 20
234.397988137862
 30
0.0
 10
81.751290533675
 20
233.5346094000253
 30
0.0
 10
81.91971618758755
 20
232.9646688178454
 30
0.0
 10
81.93474364454796
 20
232.6167101696926
 30
0.0
 10
81.94000000000001
 20
232.4949999999594
 30
0.0
  0
SPLINE
  5
132
330
1F
100
AcDbEntity
  8
0
  6
Continuous
 62
     7
370
    25
100
AcDbSpline
210
0.0
220
0.0
230
1.0
 70
     8
 71
     3
 72
    11
 73
     7
 74
     0
 42
0.000000001
 43
0.00000001
 40
0.0
 40
0.0
 40
0.0
 40
0.0
 40
0.0581237806725213
 40
0.4052923505119559
 40
0.76461761004419
 40
1.0
 40
1.0
 40
1.0
 40
1.0
 10
81.94000000000001
 20
241.2099999999595
 30
0.0
 10
81.93870550068762
 20
241.0925004180051
 30
0.0
 10
81.92967906326409
 20
240.2731854800668
 30
0.0
 10
81.70290522821828
 20
238.7321241388692
 30
0.0
 10
81.10472275540536
 20
236.9157789964562
 30
0.0
 10
80.58780766578101
 20
235.8298180508775
 30
0.0
 10
80.3832151919752
 20
235.3999999999595
 30
0.0
  0
SPLINE
  5
133
330
1F
100
AcDbEntity
  8
0
  6
Continuous
 62
     7
370
    25
100
AcDbSpline
210
0.0
220
0.0
230
1.0
 70
     8
 71
     3
 72
    10
 73
     6
 74
     0
 42
0.000000001
 43
0.00000001
 40
0.0
 40
0.0
 40
0.0
 40
0.0
 40
0.3528678512837001
 40
0.6719287159605555
 40
1.0
 40
1.0
 40
1.0
 40
1.0
 10
69.49678480802481
 20
235.3999999999595
 30
0.0
 10
69.19703707577959
 20
236.0475385558084
 30
0.0
 10
68.62625935231479
 20
237.2805773514471
 30
0.0
 10
68.05725535190761
 20
239.2368949569569
 30
0.0
 10
67.97944624533584
 20
240.5462214659019
 30
0.0
 10
67.94000000000001
 20
241.2099999999595
 30
0.0
  0
SPLINE
  5
134
330
1F
100
AcDbEntity
  8
0
  6
Continuous
 62
     7
370
    25
100
AcDbSpline
210
0.0
220
0.0
230
1.0
 70
     8
 71
     3
 72
    11
 73
     7
 74
     0
 42
0.000000001
 43
0.00000001
 40
0.0
 40
0.0
 40
0.0
 40
0.0
 40
0.0581237806725213
 40
0.405292350511956
 40
0.7646176100441903
 40
1.0
 40
1.0
 40
1.0
 40
1.0
 10
67.94000000000001
 20
241.2099999999595
 30
0.0
 10
67.9412944993124
 20
241.3274995819138
 30
0.0
 10
67.95032093673593
 20
242.1468145198521
 30
0.0
 10
68.17709477178174
 20
243.6878758610497
 30
0.0
 10
68.77527724459465
 20
245.5042210034627
 30
0.0
 10
69.292192334219
 20
246.5901819490414
 30
0.0
 10
69.49678480802481
 20
247.0199999999595
 30
0.0
  0
LINE
  5
135
330
1F
100
AcDbEntity
  8
0
  6
Continuous
 62
     7
370
    25
100
AcDbLine
 10
80.383215192
 20
247.02
 30
0.0
 11
69.496784808
 21
247.02
 31
0.0
  0
LINE
  5
136
330
1F
100
AcDbEntity
  8
0
  6
Continuous
 62
     7
370
    25
100
AcDbLine
 10
67.94
 20
241.21
 30
0.0
 11
67.94
 21
232.495
 31
0.0
  0
SPLINE
  5
137
330
1F
100
AcDbEntity
  8
0
  6
Continuous
 62
     7
370
    25
100
AcDbSpline
210
0.0
220
0.0
230
1.0
 70
     8
 71
     3
 72
    11
 73
     7
 74
     0
 42
0.000000001
 43
0.00000001
 40
0.0
 40
0.0
 40
0.0
 40
0.0
 40
0.4320489135257239
 40
0.6559242718413972
 40
0.8796480113440437
 40
1.0
 40
1.0
 40
1.0
 40
1.0
 10
69.49678480802481
 20
247.0199999999595
 30
0.0
 10
69.13052682046369
 20
247.4179125056918
 30
0.0
 10
68.57448444591705
 20
248.0220118620568
 30
0.0
 10
68.12870946632502
 20
248.8853905998937
 30
0.0
 10
67.96028381241247
 20
249.4553311820735
 30
0.0
 10
67.94525635545206
 20
249.8032898302263
 30
0.0
 10
67.94000000000001
 20
249.9249999999595
 30
0.0
  0
SPLINE
  5
138
330
1F
100
AcDbEntity
  8
0
  6
Continuous
 62
     7
370
    25
100
AcDbSpline
210
0.0
220
0.0
230
1.0
 70
     8
 71
     3
 72
    10
 73
     6
 74
     0
 42
0.000000001
 43
0.00000001
 40
0.0
 40
0.0
 40
0.0
 40
0.0
 40
0.2497062426312439
 40
0.5046233877767244
 40
1.0
 40
1.0
 40
1.0
 40
1.0
 10
67.94000000000001
 20
249.9249999999595
 30
0.0
 10
67.96281742100905
 20
250.1774653090365
 30
0.0
 10
68.00892841995157
 20
250.6876644062641
 30
0.0
 10
68.45807421513702
 20
251.679359192617
 30
0.0
 10
69.08371169723571
 20
252.3724146234895
 30
0.0
 10
69.49678480802481
 20
252.8299999999595
 30
0.0
  0
LINE
  5
139
330
1F
100
AcDbEntity
  8
0
  6
Continuous
 62
     7
370
    25
100
AcDbLine
 10
80.383215192
 20
252.83
 30
0.0
 11
69.496784808
 21
252.83
 31
0.0
  0
SPLINE
  5
13A
330
1F
100
AcDbEntity
  8
0
  6
Continuous
 62
     7
370
    25
100
AcDbSpline
210
0.0
220
0.0
230
1.0
 70
     8
 71
     3
 72
    12
 73
     8
 74
     0
 42
0.000000001
 43
0.00000001
 40
0.0
 40
0.0
 40
0.0
 40
0.0
 40
0.2155169805765117
 40
0.4322262234987881
 40
0.6544575858718127
 40
0.8796881841288731
 40
1.0
 40
1.0
 40
1.0
 40
1.0
 10
80.3832151919752
 20
252.8299999999595
 30
0.0
 10
80.57141345064986
 20
252.6333022275574
 30
0.0
 10
80.94885110033482
 20
252.2388185302239
 30
0.0
 10
81.4084566819855
 20
251.6168522006301
 30
0.0
 10
81.7530816004151
 20
250.9666624038125
 30
0.0
 10
81.91934232750194
 20
250.3962130649125
 30
0.0
 10
81.93466493608975
 20
250.0466957920247
 30
0.0
 10
81.94000000000001
 20
249.9249999999595
 30
0.0
  0
LINE
  5
13B
330
1F
100
AcDbEntity
  8
0
  6
Continuous
 62
     7
370
    25
100
AcDbLine
 10
67.94
 20
249.925
 30
0.0
 11
67.94
 21
241.21
 31
0.0
  0
LINE
  5
13C
330
1F
100
AcDbEntity
  8
0
  6
Continuous
 62
     7
370
    25
100
AcDbLine
 10
65.94
 20
248.41
 30
0.0
 11
65.94
 21
234.01
 31
0.0
  0
LINE
  5
13D
330
1F
100
AcDbEntity
  8
0
  6
Continuous
 62
     7
370
    25
100
AcDbLine
 10
67.94
 20
251.2732151919
 30
0.0
 11
67.94
 21
249.925
 31
0.0
  0
LINE
  5
13E
330
1F
100
AcDbEntity
  8
0
  6
Continuous
 62
     7
370
    25
100
AcDbLine
 10
67.94
 20
232.495
 30
0.0
 11
67.94
 21
231.146784808
 31
0.0
  0
LINE
  5
13F
330
1F
100
AcDbEntity
  8
0
  6
Continuous
 62
     7
370
    25
100
AcDbLine
 10
182.68
 20
209.06
 30
0.0
 11
182.68
 21
199.0999397592
 31
0.0
  0
LINE
  5
140
330
1F
100
AcDbEntity
  8
0
  6
Continuous
 62
     7
370
    25
100
AcDbLine
 10
182.68
 20
219.0200602407
 30
0.0
 11
182.68
 21
209.06
 31
0.0
  0
LINE
  5
141
330
1F
100
AcDbEntity
  8
0
  6
Continuous
 62
     7
370
    25
100
AcDbLine
 10
236.94
 20
209.06
 30
0.0
 11
236.94
 21
188.56
 31
0.0
  0
LINE
  5
142
330
1F
100
AcDbEntity
  8
0
  6
Continuous
 62
     7
370
    25
100
AcDbLine
 10
236.94
 20
229.56
 30
0.0
 11
236.94
 21
209.06
 31
0.0
  0
LINE
  5
143
330
1F
100
AcDbEntity
  8
0
  6
Continuous
 62
     7
370
    25
100
AcDbLine
 10
236.44
 20
209.06
 30
0.0
 11
236.44
 21
230.06
 31
0.0
  0
LINE
  5
144
330
1F
100
AcDbEntity
  8
0
  6
Continuous
 62
     7
370
    25
100
AcDbLine
 10
236.44
 20
188.06
 30
0.0
 11
236.44
 21
209.06
 31
0.0
  0
LINE
  5
145
330
1F
100
AcDbEntity
  8
0
  6
Continuous
 62
     7
370
    25
100
AcDbLine
 10
184.9485227273
 20
167.4236363636
 30
0.0
 11
185.5763636364
 21
167.4236363636
 31
0.0
  0
SPLINE
  5
146
330
1F
100
AcDbEntity
  8
0
  6
Continuous
 62
     7
370
    25
100
AcDbSpline
210
0.0
220
0.0
230
1.0
 70
     8
 71
     3
 72
    19
 73
    15
 74
     0
 42
0.000000001
 43
0.00000001
 40
0.0
 40
0.0
 40
0.0
 40
0.0
 40
0.0915283846851322
 40
0.1766505977910729
 40
0.2566641606045297
 40
0.332812060759083
 40
0.4057346604470963
 40
0.4747782317076276
 40
0.5424443422377385
 40
0.6100709666077713
 40
0.6844173621205101
 40
0.7737974540760387
 40
0.8784999863466297
 40
1.0
 40
1.0
 40
1.0
 40
1.0
 10
184.2581818181818
 20
168.035142045414
 30
0.0
 10
184.2591327882383
 20
168.002656900495
 30
0.0
 10
184.2609681689187
 20
167.9399602814187
 30
0.0
 10
184.2751014713717
 20
167.8497004282171
 30
0.0
 10
184.299249310841
 20
167.7673149898717
 30
0.0
 10
184.3326225722395
 20
167.692900715035
 30
0.0
 10
184.3744569222738
 20
167.6274299835961
 30
0.0
 10
184.423556515686
 20
167.5712544273046
 30
0.0
 10
184.4784833725647
 20
167.5234629989049
 30
0.0
 10
184.542756785886
 20
167.4852412888471
 30
0.0
 10
184.619906644833
 20
167.4559925604489
 30
0.0
 10
184.7136567567927
 20
167.4376786145219
 30
0.0
 10
184.8251066975517
 20
167.4257125926826
 30
0.0
 10
184.9053966446969
 20
167.4243618741089
 30
0.0
 10
184.9485227272727
 20
167.4236363635959
 30
0.0
  0
SPLINE
  5
147
330
1F
100
AcDbEntity
  8
0
  6
Continuous
 62
     7
370
    25
100
AcDbSpline
210
0.0
220
0.0
230
1.0
 70
     8
 71
     3
 72
    15
 73
    11
 74
     0
 42
0.000000001
 43
0.00000001
 40
0.0
 40
0.0
 40
0.0
 40
0.0
 40
0.1170149010310911
 40
0.2294406109021506
 40
0.3422188405734969
 40
0.4587237923636678
 40
0.5799350121058454
 40
0.7099406575914746
 40
0.8485672211185736
 40
1.0
 40
1.0
 40
1.0
 40
1.0
 10
184.5721022727273
 20
168.6068749999595
 30
0.0
 10
184.5474466233913
 20
168.5954431260891
 30
0.0
 10
184.499102291208
 20
168.5730277234226
 30
0.0
 10
184.4357329613829
 20
168.5244772114531
 30
0.0
 10
184.3807434339155
 20
168.4671158619236
 30
0.0
 10
184.3359573777529
 20
168.3988562250774
 30
0.0
 10
184.3010692999553
 20
168.3208376925677
 30
0.0
 10
184.2756321418141
 20
168.2339280918422
 30
0.0
 10
184.2607316827462
 20
168.1374511713489
 30
0.0
 10
184.2590564273949
 20
168.0702343030063
 30
0.0
 10
184.2581818181818
 20
168.0351420454141
 30
0.0
  0
SPLINE
  5
148
330
1F
100
AcDbEntity
  8
0
  6
Continuous
 62
     7
370
    25
100
AcDbSpline
210
0.0
220
0.0
230
1.0
 70
     8
 71
     3
 72
    11
 73
     7
 74
     0
 42
0.000000001
 43
0.00000001
 40
0.0
 40
0.0
 40
0.0
 40
0.0
 40
0.3124900160920082
 40
0.5812578930334287
 40
0.810481818000951
 40
1.0
 40
1.0
 40
1.0
 40
1.0
 10
184.9016477272727
 20
168.6509090908686
 30
0.0
 10
184.8668280494716
 20
168.6503698628602
 30
0.0
 10
184.8020605000697
 20
168.6493668531002
 30
0.0
 10
184.7120196761686
 20
168.6420670180618
 30
0.0
 10
184.63625262422
 20
168.628977752492
 30
0.0
 10
184.5920898639116
 20
168.6137616462738
 30
0.0
 10
184.5721022727273
 20
168.6068749999595
 30
0.0
  0
LINE
  5
149
330
1F
100
AcDbEntity
  8
0
  6
Continuous
 62
     7
370
    25
100
AcDbLine
 10
185.5763636364
 20
168.6509090909
 30
0.0
 11
184.9016477273
 21
168.6509090909
 31
0.0
  0
LINE
  5
14A
330
1F
100
AcDbEntity
  8
0
  6
Continuous
 62
     7
370
    25
100
AcDbLine
 10
185.5763636364
 20
167.4236363636
 30
0.0
 11
185.5763636364
 21
168.6509090909
 31
0.0
  0
LINE
  5
14B
330
1F
100
AcDbEntity
  8
0
  6
Continuous
 62
     7
370
    25
100
AcDbLine
 10
185.0223863636
 20
165.9690909091
 30
0.0
 11
185.5763636364
 21
165.9690909091
 31
0.0
  0
SPLINE
  5
14C
330
1F
100
AcDbEntity
  8
0
  6
Continuous
 62
     7
370
    25
100
AcDbSpline
210
0.0
220
0.0
230
1.0
 70
     8
 71
     3
 72
    23
 73
    19
 74
     0
 42
0.000000001
 43
0.00000001
 40
0.0
 40
0.0
 40
0.0
 40
0.0
 40
0.0895178427956113
 40
0.1715344284982278
 40
0.248347813585847
 40
0.321058878812111
 40
0.3895543666069948
 40
0.453855525687234
 40
0.5165948010499225
 40
0.5781714246136654
 40
0.6118333134916892
 40
0.6507350923846013
 40
0.6954208184408687
 40
0.7448017883141286
 40
0.8004452515257783
 40
0.8608701913016517
 40
0.9276117187282885
 40
1.0
 40
1.0
 40
1.0
 40
1.0
 10
184.3490909090909
 20
166.4974999999595
 30
0.0
 10
184.3497264729321
 20
166.4676024167983
 30
0.0
 10
184.3509443427653
 20
166.4103125550135
 30
0.0
 10
184.3652252283665
 20
166.3284532875774
 30
0.0
 10
184.3857680455144
 20
166.2538134069278
 30
0.0
 10
184.4162795201401
 20
166.1873491203468
 30
0.0
 10
184.4550499602533
 20
166.1305541901675
 30
0.0
 10
184.4986040026695
 20
166.0815929805148
 30
0.0
 10
184.5488314679762
 20
166.0432044457949
 30
0.0
 10
184.5956106061214
 20
166.0180727400415
 30
0.0
 10
184.6383508425841
 20
166.0045969820691
 30
0.0
 10
184.67609715934
 20
165.9942380751106
 30
0.0
 10
184.7199312539641
 20
165.9870455978223
 30
0.0
 10
184.7694653500246
 20
165.9807617979514
 30
0.0
 10
184.824360038357
 20
165.9748158365735
 30
0.0
 10
184.8852814968182
 20
165.9716401582232
 30
0.0
 10
184.9518201868656
 20
165.9694380720616
 30
0.0
 10
184.9982363523864
 20
165.9692097193787
 30
0.0
 10
185.0223863636364
 20
165.9690909090504
 30
0.0
  0
SPLINE
  5
14D
330
1F
100
AcDbEntity
  8
0
  6
Continuous
 62
     7
370
    25
100
AcDbSpline
210
0.0
220
0.0
230
1.0
 70
     8
 71
     3
 72
    15
 73
    11
 74
     0
 42
0.000000001
 43
0.00000001
 40
0.0
 40
0.0
 40
0.0
 40
0.0
 40
0.1187245559887826
 40
0.2331742428431056
 40
0.3451302772580709
 40
0.4585783656324771
 40
0.5755493760739362
 40
0.7038163917799594
 40
0.844055493014577
 40
1.0
 40
1.0
 40
1.0
 40
1.0
 10
184.6452556818182
 20
166.9811647726868
 30
0.0
 10
184.6226134602397
 20
166.9724859982904
 30
0.0
 10
184.5781442867912
 20
166.9554409427681
 30
0.0
 10
184.5189767798317
 20
166.9166650600649
 30
0.0
 10
184.4665655966448
 20
166.8710143431417
 30
0.0
 10
184.4236992500011
 20
166.8154466815219
 30
0.0
 10
184.3894191580652
 20
166.7505092763055
 30
0.0
 10
184.3658169912325
 20
166.6752427526182
 30
0.0
 10
184.3517225185148
 20
166.5896450042813
 30
0.0
 10
184.3499985833107
 20
166.5292819369523
 30
0.0
 10
184.349090909091
 20
166.4974999999595
 30
0.0
  0
SPLINE
  5
14E
330
1F
100
AcDbEntity
  8
0
  6
Continuous
 62
     7
370
    25
100
AcDbSpline
210
0.0
220
0.0
230
1.0
 70
     8
 71
     3
 72
    11
 73
     7
 74
     0
 42
0.000000001
 43
0.00000001
 40
0.0
 40
0.0
 40
0.0
 40
0.0
 40
0.322908278019093
 40
0.5957736263814164
 40
0.8213872836918679
 40
1.0
 40
1.0
 40
1.0
 40
1.0
 10
184.9790625
 20
167.0145454545049
 30
0.0
 10
184.9428169944858
 20
167.014273200674
 30
0.0
 10
184.8759431552868
 20
167.0137708857345
 30
0.0
 10
184.7840815553935
 20
167.0069118321785
 30
0.0
 10
184.7082730031068
 20
166.9990159800151
 30
0.0
 10
184.6645675212682
 20
166.9866353265418
 30
0.0
 10
184.6452556818182
 20
166.9811647726868
 30
0.0
  0
LINE
  5
14F
330
1F
100
AcDbEntity
  8
0
  6
Continuous
 62
     7
370
    25
100
AcDbLine
 10
185.5763636364
 20
167.0145454545
 30
0.0
 11
184.9790625
 21
167.0145454545
 31
0.0
  0
LINE
  5
150
330
1F
100
AcDbEntity
  8
0
  6
Continuous
 62
     7
370
    25
100
AcDbLine
 10
185.5763636364
 20
165.9690909091
 30
0.0
 11
185.5763636364
 21
167.0145454545
 31
0.0
  0
SPLINE
  5
151
330
1F
100
AcDbEntity
  8
0
  6
Continuous
 62
     7
370
    25
100
AcDbSpline
210
0.0
220
0.0
230
1.0
 70
     8
 71
     3
 72
    23
 73
    19
 74
     0
 42
0.000000001
 43
0.00000001
 40
0.0
 40
0.0
 40
0.0
 40
0.0
 40
0.0912767643244942
 40
0.1764629232372357
 40
0.2562801431555522
 40
0.3309455529399324
 40
0.400638990444719
 40
0.4660089483284481
 40
0.5279263555437902
 40
0.5867234830687502
 40
0.6428721960916929
 40
0.6962716546317803
 40
0.7475656410401084
 40
0.7976820514592228
 40
0.8471601091351866
 40
0.8969249623901863
 40
0.9476183243460209
 40
1.0
 40
1.0
 40
1.0
 40
1.0
 10
168.0763636363637
 20
167.7609943181413
 30
0.0
 10
168.0772717689825
 20
167.8159337475204
 30
0.0
 10
168.0790274374464
 20
167.9221466745557
 30
0.0
 10
168.0899200311511
 20
168.0761542291117
 30
0.0
 10
168.1101361383647
 20
168.2190651494145
 30
0.0
 10
168.1361355751471
 20
168.351622105653
 30
0.0
 10
168.1721433661527
 20
168.4727689519229
 30
0.0
 10
168.2141202973717
 20
168.5838483169005
 30
0.0
 10
168.2655960219407
 20
168.6835878255103
 30
0.0
 10
168.3237977969899
 20
168.7729802295514
 30
0.0
 10
168.3886801118347
 20
168.8510671122992
 30
0.0
 10
168.4576825024756
 20
168.9192510796096
 30
0.0
 10
168.5314894346662
 20
168.9764722147844
 30
0.0
 10
168.6091781064731
 20
169.02395927402
 30
0.0
 10
168.6916926504644
 20
169.060291381834
 30
0.0
 10
168.7781514697055
 20
169.0867828532592
 30
0.0
 10
168.8690876992808
 20
169.1028704853872
 30
0.0
 10
168.931175095522
 20
169.1045838374764
 30
0.0
 10
168.9627272727273
 20
169.105454545414
 30
0.0
  0
SPLINE
  5
152
330
1F
100
AcDbEntity
  8
0
  6
Continuous
 62
     7
370
    25
100
AcDbSpline
210
0.0
220
0.0
230
1.0
 70
     8
 71
     3
 72
    23
 73
    19
 74
     0
 42
0.000000001
 43
0.00000001
 40
0.0
 40
0.0
 40
0.0
 40
0.0
 40
0.0527852402278165
 40
0.1042458293004915
 40
0.1551604530941803
 40
0.2054268083520251
 40
0.2570914424417255
 40
0.3099700308447287
 40
0.3653095312247657
 40
0.4234521060082713
 40
0.4838428220610418
 40
0.5467834342241119
 40
0.6120626180216412
 40
0.6811908593868685
 40
0.7539750279956062
 40
0.8310409578182189
 40
0.9131989722938649
 40
1.0
 40
1.0
 40
1.0
 40
1.0
 10
168.9627272727273
 20
166.4690909090504
 30
0.0
 10
168.9318822492232
 20
166.4699647990774
 30
0.0
 10
168.8709662613239
 20
166.4716906487692
 30
0.0
 10
168.7814914508103
 20
166.4879011023631
 30
0.0
 10
168.6960815294659
 20
166.5140531579832
 30
0.0
 10
168.6145739035922
 20
166.5509886076408
 30
0.0
 10
168.5371200921059
 20
166.5979962738367
 30
0.0
 10
168.463353355084
 20
166.6555293193174
 30
0.0
 10
168.3935477056824
 20
166.7233573784754
 30
0.0
 10
168.328592284189
 20
166.8015788203888
 30
0.0
 10
168.2683874451967
 20
166.8890091989
 30
0.0
 10
168.2168654046291
 20
166.9866037723072
 30
0.0
 10
168.1732728652268
 20
167.0934631827456
 30
0.0
 10
168.1384348775935
 20
167.2094509303878
 30
0.0
 10
168.10964286116
 20
167.3341372239783
 30
0.0
 10
168.090091927066
 20
167.4683286890397
 30
0.0
 10
168.0790397578363
 20
167.6116583011854
 30
0.0
 10
168.0772718707655
 20
167.7103119745253
 30
0.0
 10
168.0763636363637
 20
167.7609943181413
 30
0.0
  0
SPLINE
  5
153
330
1F
100
AcDbEntity
  8
0
  6
Continuous
 62
     7
370
    25
100
AcDbSpline
210
0.0
220
0.0
230
1.0
 70
     8
 71
     3
 72
    23
 73
    19
 74
     0
 42
0.000000001
 43
0.00000001
 40
0.0
 40
0.0
 40
0.0
 40
0.0
 40
0.0890390678183914
 40
0.1727021385026571
 40
0.250936452833334
 40
0.3247546437725811
 40
0.3939511538506414
 40
0.4596932424381905
 40
0.5218198132862305
 40
0.5813764206301941
 40
0.6383575883276247
 40
0.6925487413961094
 40
0.7446032068334275
 40
0.7954626376687939
 40
0.8456742516130858
 40
0.8957953612070874
 40
0.9472402973995027
 40
1.0
 40
1.0
 40
1.0
 40
1.0
 10
169.849090909091
 20
167.7872727272322
 30
0.0
 10
169.8481726211236
 20
167.7344639776051
 30
0.0
 10
169.8463914895416
 20
167.6320349628397
 30
0.0
 10
169.8355683944203
 20
167.4834545458647
 30
0.0
 10
169.815215496617
 20
167.3450553155688
 30
0.0
 10
169.7892156789382
 20
167.2162935521651
 30
0.0
 10
169.7532786424527
 20
167.0976262234171
 30
0.0
 10
169.7104438915336
 20
166.9887095965199
 30
0.0
 10
169.6591560005491
 20
166.8898091880141
 30
0.0
 10
169.5999384186306
 20
166.8016847571381
 30
0.0
 10
169.5354174179152
 20
166.7234361741795
 30
0.0
 10
169.4663360519674
 20
166.6553036906443
 30
0.0
 10
169.3925472897514
 20
166.5980753280267
 30
0.0
 10
169.3148602080399
 20
166.5505693988526
 30
0.0
 10
169.2325299542309
 20
166.5144097280628
 30
0.0
 10
169.146394166064
 20
166.4876402098292
 30
0.0
 10
169.0558840205001
 20
166.4717383882531
 30
0.0
 10
168.9940396221698
 20
166.4699807940659
 30
0.0
 10
168.9627272727273
 20
166.4690909090504
 30
0.0
  0
SPLINE
  5
154
330
1F
100
AcDbEntity
  8
0
  6
Continuous
 62
     7
370
    25
100
AcDbSpline
210
0.0
220
0.0
230
1.0
 70
     8
 71
     3
 72
    23
 73
    19
 74
     0
 42
0.000000001
 43
0.00000001
 40
0.0
 40
0.0
 40
0.0
 40
0.0
 40
0.0524221588341679
 40
0.1031397662365303
 40
0.1533192909396092
 40
0.2032243992953783
 40
0.2543512222751581
 40
0.3064663561075197
 40
0.3610010158153166
 40
0.4183041352387569
 40
0.4781533511349289
 40
0.5407068807815065
 40
0.6063044484403416
 40
0.6755816056093631
 40
0.7495689674650345
 40
0.8278944622592452
 40
0.9112566128591809
 40
0.9999999999999999
 40
0.9999999999999999
 40
0.9999999999999999
 40
0.9999999999999999
 10
168.9627272727273
 20
169.105454545414
 30
0.0
 10
168.9938080687934
 20
169.1045891196801
 30
0.0
 10
169.0549590421985
 20
169.1028864082719
 30
0.0
 10
169.1446952548833
 20
169.0866870064414
 30
0.0
 10
169.2302092674454
 20
169.0602706461883
 30
0.0
 10
169.3123963021922
 20
169.0239074305474
 30
0.0
 10
169.3894622753381
 20
168.9756271192138
 30
0.0
 10
169.4638007421355
 20
168.9186214868926
 30
0.0
 10
169.5323326168481
 20
168.8494625122904
 30
0.0
 10
169.5977924958389
 20
168.7715043568141
 30
0.0
 10
169.6580905267134
 20
168.6834119289203
 30
0.0
 10
169.7084239373895
 20
168.5838137710289
 30
0.0
 10
169.7530457133417
 20
168.475545207147
 30
0.0
 10
169.788174884263
 20
168.3566878431234
 30
0.0
 10
169.8155097021973
 20
168.2281888862233
 30
0.0
 10
169.8354342701643
 20
168.0898827306393
 30
0.0
 10
169.84642517902
 20
167.941807859293
 30
0.0
 10
169.848184001325
 20
167.8398471093485
 30
0.0
 10
169.849090909091
 20
167.7872727272322
 30
0.0
  0
LINE
  5
155
330
1F
100
AcDbEntity
  8
0
  6
Continuous
 62
     7
370
    25
100
AcDbLine
 10
171.5763636364
 20
167.7403977272
 30
0.0
 11
171.5763636364
 21
169.06
 31
0.0
  0
SPLINE
  5
156
330
1F
100
AcDbEntity
  8
0
  6
Continuous
 62
     7
370
    25
100
AcDbSpline
210
0.0
220
0.0
230
1.0
 70
     8
 71
     3
 72
    11
 73
     7
 74
     0
 42
0.000000001
 43
0.00000001
 40
0.0
 40
0.0
 40
0.0
 40
0.0
 40
0.2422089502770346
 40
0.4884794597618003
 40
0.7412752106879985
 40
1.0
 40
1.0
 40
1.0
 40
1.0
 10
171.5167045454546
 20
167.2205113635959
 30
0.0
 10
171.5260565665508
 20
167.2618306553459
 30
0.0
 10
171.544917431137
 20
167.3451621147686
 30
0.0
 10
171.5625669136392
 20
167.473667469323
 30
0.0
 10
171.574606640466
 20
167.6056955297186
 30
0.0
 10
171.5757734628488
 20
167.6951513669694
 30
0.0
 10
171.5763636363637
 20
167.7403977272322
 30
0.0
  0
SPLINE
  5
157
330
1F
100
AcDbEntity
  8
0
  6
Continuous
 62
     7
370
    25
100
AcDbSpline
210
0.0
220
0.0
230
1.0
 70
     8
 71
     3
 72
    15
 73
    11
 74
     0
 42
0.000000001
 43
0.00000001
 40
0.0
 40
0.0
 40
0.0
 40
0.0
 40
0.1080294790989981
 40
0.2159128736428842
 40
0.3274236087165067
 40
0.4471094889623537
 40
0.5750455314220732
 40
0.7081311642011745
 40
0.8482590320714908
 40
0.9999999999999999
 40
0.9999999999999999
 40
0.9999999999999999
 40
0.9999999999999999
 10
171.2148579545455
 20
166.9236363635959
 30
0.0
 10
171.2313165225979
 20
166.9245655685262
 30
0.0
 10
171.2642114023463
 20
166.9264227218551
 30
0.0
 10
171.3118537636934
 20
166.9424687802496
 30
0.0
 10
171.3574381940567
 20
166.966958847915
 30
0.0
 10
171.4000012233505
 20
167.0015914852262
 30
0.0
 10
171.4390215556471
 20
167.0446585139859
 30
0.0
 10
171.4715988381684
 20
167.0964945187059
 30
0.0
 10
171.4982602244138
 20
167.1555825857266
 30
0.0
 10
171.5103954893787
 20
167.1983018553354
 30
0.0
 10
171.5167045454546
 20
167.2205113635959
 30
0.0
  0
SPLINE
  5
158
330
1F
100
AcDbEntity
  8
0
  6
Continuous
 62
     7
370
    25
100
AcDbSpline
210
0.0
220
0.0
230
1.0
 70
     8
 71
     3
 72
    11
 73
     7
 74
     0
 42
0.000000001
 43
0.00000001
 40
0.0
 40
0.0
 40
0.0
 40
0.0
 40
0.2617400869703893
 40
0.5166989218434787
 40
0.7610587188810208
 40
1.0
 40
1.0
 40
1.0
 40
1.0
 10
170.9854545454546
 20
166.9690909090504
 30
0.0
 10
171.0047498829495
 20
166.9620789411739
 30
0.0
 10
171.0428406477061
 20
166.9482366738938
 30
0.0
 10
171.1009695610447
 20
166.9344464638121
 30
0.0
 10
171.1582231347037
 20
166.9252974702452
 30
0.0
 10
171.1961213127034
 20
166.9241859117437
 30
0.0
 10
171.2148579545455
 20
166.9236363635959
 30
0.0
  0
LINE
  5
159
330
1F
100
AcDbEntity
  8
0
  6
Continuous
 62
     7
370
    25
100
AcDbLine
 10
170.8945454545
 20
166.6054545454
 30
0.0
 11
170.9854545455
 21
166.9690909091
 31
0.0
  0
SPLINE
  5
15A
330
1F
100
AcDbEntity
  8
0
  6
Continuous
 62
     7
370
    25
100
AcDbSpline
210
0.0
220
0.0
230
1.0
 70
     8
 71
     3
 72
    11
 73
     7
 74
     0
 42
0.000000001
 43
0.00000001
 40
0.0
 40
0.0
 40
0.0
 40
0.0
 40
0.2215004838521578
 40
0.4561273429754458
 40
0.7132387558380799
 40
1.0
 40
1.0
 40
1.0
 40
1.0
 10
171.1971022727273
 20
166.4690909090504
 30
0.0
 10
171.1720320970236
 20
166.4708076835399
 30
0.0
 10
171.1204060579614
 20
166.474342970564
 30
0.0
 10
171.0439009216178
 20
166.5022330716102
 30
0.0
 10
170.9668740361988
 20
166.545386864454
 30
0.0
 10
170.919515581618
 20
166.5847172712654
 30
0.0
 10
170.8945454545455
 20
166.605454545414
 30
0.0
  0
SPLINE
  5
15B
330
1F
100
AcDbEntity
  8
0
  6
Continuous
 62
     7
370
    25
100
AcDbSpline
210
0.0
220
0.0
230
1.0
 70
     8
 71
     3
 72
    19
 73
    15
 74
     0
 42
0.000000001
 43
0.00000001
 40
0.0
 40
0.0
 40
0.0
 40
0.0
 40
0.1117631428826433
 40
0.2142806808058618
 40
0.3089378987489448
 40
0.3944457138045703
 40
0.471912192211814
 40
0.5403995933747349
 40
0.6010371244503135
 40
0.6540510379455227
 40
0.747811654685913
 40
0.8335660735218149
 40
0.9169214501301761
 40
1.0
 40
1.0
 40
1.0
 40
1.0
 10
171.5763636363637
 20
166.9207954545049
 30
0.0
 10
171.5678360820712
 20
166.8990198697005
 30
0.0
 10
171.551486415336
 20
166.8572700851429
 30
0.0
 10
171.5279911267145
 20
166.7970025647149
 30
0.0
 10
171.5025383503748
 20
166.7435873122002
 30
0.0
 10
171.4797309251979
 20
166.6946970351455
 30
0.0
 10
171.4558001865947
 20
166.6525873753392
 30
0.0
 10
171.4346564808377
 20
166.6147776117712
 30
0.0
 10
171.411225161042
 20
166.5846336532331
 30
0.0
 10
171.3840683796611
 20
166.5507272509346
 30
0.0
 10
171.3470682212361
 20
166.5185566560171
 30
0.0
 10
171.3000615988883
 20
166.4894769243497
 30
0.0
 10
171.2493523561724
 20
166.4725769317123
 30
0.0
 10
171.2144996438998
 20
166.4702516273912
 30
0.0
 10
171.1971022727273
 20
166.4690909090504
 30
0.0
  0
LINE
  5
15C
330
1F
100
AcDbEntity
  8
0
  6
Continuous
 62
     7
370
    25
100
AcDbLine
 10
171.5763636364
 20
166.5145454545
 30
0.0
 11
171.5763636364
 21
166.9207954545
 31
0.0
  0
LINE
  5
15D
330
1F
100
AcDbEntity
  8
0
  6
Continuous
 62
     7
370
    25
100
AcDbLine
 10
171.8945454545
 20
166.5145454545
 30
0.0
 11
171.5763636364
 21
166.5145454545
 31
0.0
  0
LINE
  5
15E
330
1F
100
AcDbEntity
  8
0
  6
Continuous
 62
     7
370
    25
100
AcDbLine
 10
171.8945454545
 20
169.06
 30
0.0
 11
171.8945454545
 21
166.5145454545
 31
0.0
  0
LINE
  5
15F
330
1F
100
AcDbEntity
  8
0
  6
Continuous
 62
     7
370
    25
100
AcDbLine
 10
171.5763636364
 20
169.06
 30
0.0
 11
171.8945454545
 21
169.06
 31
0.0
  0
SPLINE
  5
160
330
1F
100
AcDbEntity
  8
0
  6
Continuous
 62
     7
370
    25
100
AcDbSpline
210
0.0
220
0.0
230
1.0
 70
     8
 71
     3
 72
    23
 73
    19
 74
     0
 42
0.000000001
 43
0.00000001
 40
0.0
 40
0.0
 40
0.0
 40
0.0
 40
0.0704753344234586
 40
0.1384899825933952
 40
0.2034870202581009
 40
0.266440756706912
 40
0.3271541255849949
 40
0.3876484468101611
 40
0.447326609620125
 40
0.5072945563284812
 40
0.5669701020769063
 40
0.6258897472579776
 40
0.684362380003543
 40
0.7436177071928427
 40
0.803887002264719
 40
0.8663875953882733
 40
0.9317584026438588
 40
1.0
 40
1.0
 40
1.0
 40
1.0
 10
173.3036363636364
 20
168.2830113635958
 30
0.0
 10
173.3044341259366
 20
168.3128594366663
 30
0.0
 10
173.3060017962139
 20
168.3715134204153
 30
0.0
 10
173.3148747244382
 20
168.4573799101813
 30
0.0
 10
173.331387864867
 20
168.5388567061665
 30
0.0
 10
173.3541177058993
 20
168.6155673748079
 30
0.0
 10
173.3825995001116
 20
168.6883189853943
 30
0.0
 10
173.4180611796642
 20
168.7564183449905
 30
0.0
 10
173.4603701099653
 20
168.8200792107039
 30
0.0
 10
173.5085396797224
 20
168.8789696259156
 30
0.0
 10
173.5623514954754
 20
168.9323602858459
 30
0.0
 10
173.6216109336482
 20
168.9785966399698
 30
0.0
 10
173.6853166094281
 20
169.0181540648278
 30
0.0
 10
173.753825626723
 20
169.0500297772157
 30
0.0
 10
173.8268907448343
 20
169.0751179091566
 30
0.0
 10
173.9047541151251
 20
169.0926802472562
 30
0.0
 10
173.9872788254922
 20
169.1035250718191
 30
0.0
 10
174.0438957853486
 20
169.1048022404863
 30
0.0
 10
174.0728125
 20
169.105454545414
 30
0.0
  0
SPLINE
  5
161
330
1F
100
AcDbEntity
  8
0
  6
Continuous
 62
     7
370
    25
100
AcDbSpline
210
0.0
220
0.0
230
1.0
 70
     8
 71
     3
 72
    23
 73
    19
 74
     0
 42
0.000000001
 43
0.00000001
 40
0.0
 40
0.0
 40
0.0
 40
0.0
 40
0.0848796314697547
 40
0.1619397066732111
 40
0.2312102305654494
 40
0.2932914147883914
 40
0.3471249254879917
 40
0.3936264181688757
 40
0.4324011008917206
 40
0.4640970294341318
 40
0.5205483819505572
 40
0.578611358604088
 40
0.6391667976871416
 40
0.7030067405352206
 40
0.7704894571118569
 40
0.8422247471235923
 40
0.9183328229940622
 40
1.0
 40
1.0
 40
1.0
 40
1.0
 10
174.0195454545455
 20
167.498920454505
 30
0.0
 10
173.9880205990084
 20
167.509461383072
 30
0.0
 10
173.9278751227593
 20
167.5295721546511
 30
0.0
 10
173.8425963390959
 20
167.5600390966118
 30
0.0
 10
173.7664181646958
 20
167.589324589574
 30
0.0
 10
173.6991012948693
 20
167.6163853184068
 30
0.0
 10
173.6414722989524
 20
167.6432847155913
 30
0.0
 10
173.5920788188079
 20
167.6664107762148
 30
0.0
 10
173.5529567964977
 20
167.6903286817171
 30
0.0
 10
173.511733619683
 20
167.7182214366857
 30
0.0
 10
173.4704254476401
 20
167.7584091738093
 30
0.0
 10
173.4277546060246
 20
167.8121751269962
 30
0.0
 10
173.389603010761
 20
167.872838953837
 30
0.0
 10
173.3586905908134
 20
167.9415365546524
 30
0.0
 10
173.333678690761
 20
168.0171777537991
 30
0.0
 10
173.316332549502
 20
168.0998396043774
 30
0.0
 10
173.3054668789386
 20
168.1892084386456
 30
0.0
 10
173.3042607016757
 20
168.251017785518
 30
0.0
 10
173.3036363636364
 20
168.2830113635958
 30
0.0
  0
SPLINE
  5
162
330
1F
100
AcDbEntity
  8
0
  6
Continuous
 62
     7
370
    25
100
AcDbSpline
210
0.0
220
0.0
230
1.0
 70
     8
 71
     3
 72
    15
 73
    11
 74
     0
 42
0.000000001
 43
0.00000001
 40
0.0
 40
0.0
 40
0.0
 40
0.0
 40
0.0577637959166497
 40
0.1339095606009048
 40
0.2295030292916195
 40
0.3448176406847308
 40
0.4789606386437709
 40
0.6330175227221325
 40
0.8070638318754225
 40
1.0
 40
1.0
 40
1.0
 40
1.0
 10
174.3831818181818
 20
167.3540340908686
 30
0.0
 10
174.3768377257246
 20
167.3581382047265
 30
0.0
 10
174.3621306826733
 20
167.3676524701007
 30
0.0
 10
174.3355997535602
 20
167.3817621169637
 30
0.0
 10
174.3013898919396
 20
167.3972504221521
 30
0.0
 10
174.2594414393321
 20
167.4138862703786
 30
0.0
 10
174.2104045337983
 20
167.433374497136
 30
0.0
 10
174.1535100357837
 20
167.4538214396968
 30
0.0
 10
174.0889375908002
 20
167.4755613252831
 30
0.0
 10
174.0434565226567
 20
167.4908713907351
 30
0.0
 10
174.0195454545455
 20
167.498920454505
 30
0.0
  0
SPLINE
  5
163
330
1F
100
AcDbEntity
  8
0
  6
Continuous
 62
     7
370
    25
100
AcDbSpline
210
0.0
220
0.0
230
1.0
 70
     8
 71
     3
 72
    11
 73
     7
 74
     0
 42
0.000000001
 43
0.00000001
 40
0.0
 40
0.0
 40
0.0
 40
0.0
 40
0.2612018464440475
 40
0.50497920008016
 40
0.7479683367497256
 40
1.0
 40
1.0
 40
1.0
 40
1.0
 10
174.4854545454546
 20
167.1430965908686
 30
0.0
 10
174.4843611887386
 20
167.1643478739114
 30
0.0
 10
174.4822474119512
 20
167.2054327898786
 30
0.0
 10
174.4618882963869
 20
167.2632776627585
 30
0.0
 10
174.4297940133541
 20
167.3148227288204
 30
0.0
 10
174.3989072854766
 20
167.3408054285155
 30
0.0
 10
174.3831818181818
 20
167.3540340908686
 30
0.0
  0
SPLINE
  5
164
330
1F
100
AcDbEntity
  8
0
  6
Continuous
 62
     7
370
    25
100
AcDbSpline
210
0.0
220
0.0
230
1.0
 70
     8
 71
     3
 72
    15
 73
    11
 74
     0
 42
0.000000001
 43
0.00000001
 40
0.0
 40
0.0
 40
0.0
 40
0.0
 40
0.1679916647423591
 40
0.3151574940028694
 40
0.4449673626661164
 40
0.5641363972236315
 40
0.6758278916254677
 40
0.7812169892488665
 40
0.8880605774475784
 40
1.0
 40
1.0
 40
1.0
 40
1.0
 10
174.0749431818182
 20
166.8327272726868
 30
0.0
 10
174.1074597778174
 20
166.8337112622576
 30
0.0
 10
174.1684619050617
 20
166.8355572567464
 30
0.0
 10
174.2533545482447
 20
166.8517285717955
 30
0.0
 10
174.3258186759321
 20
166.8782083253685
 30
0.0
 10
174.3843249379274
 20
166.9173096365873
 30
0.0
 10
174.429873172933
 20
166.9645040961132
 30
0.0
 10
174.4619681418824
 20
167.0188269839736
 30
0.0
 10
174.482085079832
 20
167.0789768790056
 30
0.0
 10
174.4843140844573
 20
167.1213940306628
 30
0.0
 10
174.4854545454546
 20
167.1430965908686
 30
0.0
  0
SPLINE
  5
165
330
1F
100
AcDbEntity
  8
0
  6
Continuous
 62
     7
370
    25
100
AcDbSpline
210
0.0
220
0.0
230
1.0
 70
     8
 71
     3
 72
    15
 73
    11
 74
     0
 42
0.000000001
 43
0.00000001
 40
0.0
 40
0.0
 40
0.0
 40
0.0
 40
0.1502582195245586
 40
0.2850603007255584
 40
0.4068984126074031
 40
0.520987251139564
 40
0.6319879778142727
 40
0.7454829310191508
 40
0.8667103714755049
 40
1.0
 40
1.0
 40
1.0
 40
1.0
 10
173.6672727272727
 20
167.2418181817777
 30
0.0
 10
173.6714791155316
 20
167.2096503509803
 30
0.0
 10
173.679459206776
 20
167.1486235961724
 30
0.0
 10
173.7062923626548
 20
167.0647129396937
 30
0.0
 10
173.7413631203416
 20
166.9924571638219
 30
0.0
 10
173.7884701812495
 20
166.9335608868445
 30
0.0
 10
173.8459366813153
 20
166.8875767488415
 30
0.0
 10
173.9137289611608
 20
166.855364367825
 30
0.0
 10
173.9912476022913
 20
166.8358996591507
 30
0.0
 10
174.046176910436
 20
166.8338176257313
 30
0.0
 10
174.0749431818182
 20
166.8327272726868
 30
0.0
  0
LINE
  5
166
330
1F
100
AcDbEntity
  8
0
  6
Continuous
 62
     7
370
    25
100
AcDbLine
 10
173.3490909091
 20
167.1963636363
 30
0.0
 11
173.6672727273
 21
167.2418181818
 31
0.0
  0
SPLINE
  5
167
330
1F
100
AcDbEntity
  8
0
  6
Continuous
 62
     7
370
    25
100
AcDbSpline
210
0.0
220
0.0
230
1.0
 70
     8
 71
     3
 72
    19
 73
    15
 74
     0
 42
0.000000001
 43
0.00000001
 40
0.0
 40
0.0
 40
0.0
 40
0.0
 40
0.0890223283603136
 40
0.1734761019486486
 40
0.2547393000803043
 40
0.3337873141316962
 40
0.4103332026615519
 40
0.4835724380709335
 40
0.555574933524482
 40
0.6273395677255196
 40
0.7038289784086773
 40
0.791258299392563
 40
0.8895416060842852
 40
0.9999999999999999
 40
0.9999999999999999
 40
0.9999999999999999
 40
0.9999999999999999
 10
174.0863068181818
 20
166.4690909090504
 30
0.0
 10
174.051927330062
 20
166.4702622038441
 30
0.0
 10
173.9849326816871
 20
166.4725446835183
 30
0.0
 10
173.8874221923437
 20
166.4879851834818
 30
0.0
 10
173.7967555602471
 20
166.5154412899092
 30
0.0
 10
173.7124628958452
 20
166.5517656093322
 30
0.0
 10
173.6376061435442
 20
166.5992176716471
 30
0.0
 10
173.5702630574985
 20
166.6525216941033
 30
0.0
 10
173.5132121225938
 20
166.7143207398946
 30
0.0
 10
173.4640060728225
 20
166.7840773857357
 30
0.0
 10
173.4244274715836
 20
166.8664579560095
 30
0.0
 10
173.3926013357101
 20
166.962758100574
 30
0.0
 10
173.3662718044926
 20
167.0742398942777
 30
0.0
 10
173.3550363149497
 20
167.1541030210014
 30
0.0
 10
173.3490909090909
 20
167.1963636363231
 30
0.0
  0
SPLINE
  5
168
330
1F
100
AcDbEntity
  8
0
  6
Continuous
 62
     7
370
    25
100
AcDbSpline
210
0.0
220
0.0
230
1.0
 70
     8
 71
     3
 72
    23
 73
    19
 74
     0
 42
0.000000001
 43
0.00000001
 40
0.0
 40
0.0
 40
0.0
 40
0.0
 40
0.0684541638465215
 40
0.1336601907647524
 40
0.1972381692343305
 40
0.2578650826206743
 40
0.3180739285712212
 40
0.3770977210116653
 40
0.4360732295901454
 40
0.4959689880522543
 40
0.555686919673297
 40
0.6147300146026509
 40
0.6741322713623804
 40
0.734268525172835
 40
0.7964419763033059
 40
0.8613531697595954
 40
0.9290821631124683
 40
1.0
 40
1.0
 40
1.0
 40
1.0
 10
174.8036363636364
 20
167.1949431817777
 30
0.0
 10
174.8031959733767
 20
167.1686319887914
 30
0.0
 10
174.8023360892905
 20
167.1172580638731
 30
0.0
 10
174.7925172640148
 20
167.0420004857015
 30
0.0
 10
174.7780754995948
 20
166.9706175396948
 30
0.0
 10
174.7571992158242
 20
166.9027938052625
 30
0.0
 10
174.7303298779481
 20
166.8390085274495
 30
0.0
 10
174.6973163029048
 20
166.778921647492
 30
0.0
 10
174.6588455620752
 20
166.7222836085918
 30
0.0
 10
174.614091786508
 20
166.6701590145841
 30
0.0
 10
174.5648429841168
 20
166.6221149650239
 30
0.0
 10
174.5093378128949
 20
166.5817786583289
 30
0.0
 10
174.4503186560817
 20
166.546610066496
 30
0.0
 10
174.3864603409439
 20
166.5180366736899
 30
0.0
 10
174.3178589890498
 20
166.4959423720993
 30
0.0
 10
174.244483540356
 20
166.4808589722448
 30
0.0
 10
174.1668718110482
 20
166.4702112482392
 30
0.0
 10
174.1135704552312
 20
166.4694700379987
 30
0.0
 10
174.0863068181818
 20
166.4690909090504
 30
0.0
  0
SPLINE
  5
169
330
1F
100
AcDbEntity
  8
0
  6
Continuous
 62
     7
370
    25
100
AcDbSpline
210
0.0
220
0.0
230
1.0
 70
     8
 71
     3
 72
    23
 73
    19
 74
     0
 42
0.000000001
 43
0.00000001
 40
0.0
 40
0.0
 40
0.0
 40
0.0
 40
0.0775405969985331
 40
0.1491571696458426
 40
0.2143106706065599
 40
0.2737849970163068
 40
0.3276265935731645
 40
0.3751148465947307
 40
0.416832741644363
 40
0.4526482340629355
 40
0.5179942125506977
 40
0.5827052352963724
 40
0.6479405426656943
 40
0.7144426225795188
 40
0.7827618385493933
 40
0.8523782127499074
 40
0.9248045777620266
 40
1.0
 40
1.0
 40
1.0
 40
1.0
 10
174.0167045454545
 20
167.975482954505
 30
0.0
 10
174.0463204302734
 20
167.965369475957
 30
0.0
 10
174.1032895758196
 20
167.9459151785453
 30
0.0
 10
174.1847753278254
 20
167.9169032439644
 30
0.0
 10
174.2590064951551
 20
167.8892670694022
 30
0.0
 10
174.325822666903
 20
167.8623405347316
 30
0.0
 10
174.3852660130451
 20
167.8362539063543
 30
0.0
 10
174.4372883048955
 20
167.8112214114476
 30
0.0
 10
174.4822751050735
 20
167.7882967489136
 30
0.0
 10
174.5313650945427
 20
167.7579477783898
 30
0.0
 10
174.5850427557364
 20
167.7176770847434
 30
0.0
 10
174.6418639263449
 20
167.6626922556371
 30
0.0
 10
174.6903204734747
 20
167.5995948863869
 30
0.0
 10
174.7308206552264
 20
167.5295218126691
 30
0.0
 10
174.7635430541245
 20
167.4535636310133
 30
0.0
 10
174.7872516347353
 20
167.3718006387429
 30
0.0
 10
174.8005007863618
 20
167.2848639517418
 30
0.0
 10
174.8025781820998
 20
167.225289268065
 30
0.0
 10
174.8036363636364
 20
167.1949431817777
 30
0.0
  0
SPLINE
  5
16A
330
1F
100
AcDbEntity
  8
0
  6
Continuous
 62
     7
370
    25
100
AcDbSpline
210
0.0
220
0.0
230
1.0
 70
     8
 71
     3
 72
    15
 73
    11
 74
     0
 42
0.000000001
 43
0.00000001
 40
0.0
 40
0.0
 40
0.0
 40
0.0
 40
0.0642898394880095
 40
0.1476271262044786
 40
0.2461686922708317
 40
0.3603015254696308
 40
0.4940629204354134
 40
0.6446251559092339
 40
0.8132322161245422
 40
1.0
 40
1.0
 40
1.0
 40
1.0
 10
173.7034943181818
 20
168.116107954505
 30
0.0
 10
173.7090665803943
 20
168.1112282899782
 30
0.0
 10
173.7218620246423
 20
168.1000232402119
 30
0.0
 10
173.7460882931231
 20
168.0851586869341
 30
0.0
 10
173.7759601642888
 20
168.0688474871625
 30
0.0
 10
173.8119089538301
 20
168.0515526979835
 30
0.0
 10
173.8544407001337
 20
168.0344296225058
 30
0.0
 10
173.9027488628803
 20
168.0148967299194
 30
0.0
 10
173.957517180486
 20
167.9951507066268
 30
0.0
 10
173.9963145365927
 20
167.9822584823607
 30
0.0
 10
174.0167045454545
 20
167.975482954505
 30
0.0
  0
SPLINE
  5
16B
330
1F
100
AcDbEntity
  8
0
  6
Continuous
 62
     7
370
    25
100
AcDbSpline
210
0.0
220
0.0
230
1.0
 70
     8
 71
     3
 72
    11
 73
     7
 74
     0
 42
0.000000001
 43
0.00000001
 40
0.0
 40
0.0
 40
0.0
 40
0.0
 40
0.2808399984848051
 40
0.5347733217096201
 40
0.7701835190502123
 40
0.9999999999999999
 40
0.9999999999999999
 40
0.9999999999999999
 40
0.9999999999999999
 10
173.6218181818182
 20
168.3469318181413
 30
0.0
 10
173.622580133724
 20
168.3233808598129
 30
0.0
 10
173.6240310365649
 20
168.2785353097391
 30
0.0
 10
173.6401458400028
 20
168.2157259742043
 30
0.0
 10
173.6654607706895
 20
168.1604294524198
 30
0.0
 10
173.6909185005128
 20
168.1307628871459
 30
0.0
 10
173.7034943181818
 20
168.116107954505
 30
0.0
  0
SPLINE
  5
16C
330
1F
100
AcDbEntity
  8
0
  6
Continuous
 62
     7
370
    25
100
AcDbSpline
210
0.0
220
0.0
230
1.0
 70
     8
 71
     3
 72
    15
 73
    11
 74
     0
 42
0.000000001
 43
0.00000001
 40
0.0
 40
0.0
 40
0.0
 40
0.0
 40
0.1472807282839321
 40
0.280615335477235
 40
0.4047813093738554
 40
0.5247085089494833
 40
0.6421143683919478
 40
0.7566027311301562
 40
0.8742517544788387
 40
1.0
 40
1.0
 40
1.0
 40
1.0
 10
174.0507954545455
 20
168.7418181817777
 30
0.0
 10
174.0184765059827
 20
168.7405456958087
 30
0.0
 10
173.9568989139999
 20
168.7381212165082
 30
0.0
 10
173.8699908447976
 20
168.7174230704819
 30
0.0
 10
173.7941762172797
 20
168.6826259170418
 30
0.0
 10
173.7317997257322
 20
168.6326023793129
 30
0.0
 10
173.682467346285
 20
168.5726495017431
 30
0.0
 10
173.6467438213911
 20
168.5042704410496
 30
0.0
 10
173.6256976003466
 20
168.4279421347809
 30
0.0
 10
173.6231396934026
 20
168.3745277248757
 30
0.0
 10
173.6218181818182
 20
168.3469318181413
 30
0.0
  0
SPLINE
  5
16D
330
1F
100
AcDbEntity
  8
0
  6
Continuous
 62
     7
370
    25
100
AcDbSpline
210
0.0
220
0.0
230
1.0
 70
     8
 71
     3
 72
    15
 73
    11
 74
     0
 42
0.000000001
 43
0.00000001
 40
0.0
 40
0.0
 40
0.0
 40
0.0
 40
0.1555424125785241
 40
0.2941247662045888
 40
0.4190131343703056
 40
0.5346399020775103
 40
0.6456767424937829
 40
0.7570057606629105
 40
0.873750914043657
 40
1.0
 40
1.0
 40
1.0
 40
1.0
 10
174.5309090909091
 20
168.2418181817777
 30
0.0
 10
174.5254073081867
 20
168.2815797434511
 30
0.0
 10
174.5150036470238
 20
168.3567673391509
 30
0.0
 10
174.4829594884207
 20
168.4604330670383
 30
0.0
 10
174.4391470744551
 20
168.5483874091158
 30
0.0
 10
174.3819929472862
 20
168.6196517517452
 30
0.0
 10
174.3137131394796
 20
168.6747383107933
 30
0.0
 10
174.2353416561282
 20
168.7148710879297
 30
0.0
 10
174.1460291489084
 20
168.7375586290599
 30
0.0
 10
174.0833570908486
 20
168.7403617854115
 30
0.0
 10
174.0507954545455
 20
168.7418181817777
 30
0.0
  0
LINE
  5
16E
330
1F
100
AcDbEntity
  8
0
  6
Continuous
 62
     7
370
    25
100
AcDbLine
 10
174.8490909091
 20
168.2872727272
 30
0.0
 11
174.5309090909
 21
168.2418181818
 31
0.0
  0
SPLINE
  5
16F
330
1F
100
AcDbEntity
  8
0
  6
Continuous
 62
     7
370
    25
100
AcDbSpline
210
0.0
220
0.0
230
1.0
 70
     8
 71
     3
 72
    23
 73
    19
 74
     0
 42
0.000000001
 43
0.00000001
 40
0.0
 40
0.0
 40
0.0
 40
0.0
 40
0.0650583079318768
 40
0.1266305141833309
 40
0.1861784727427857
 40
0.2433911603167968
 40
0.2990748799455721
 40
0.3543437316461281
 40
0.4088467230880556
 40
0.4648395764645822
 40
0.5213806544919296
 40
0.5803460118935557
 40
0.6413575701834346
 40
0.7056522768013381
 40
0.7730846599530058
 40
0.8446898584428083
 40
0.9198751042775389
 40
1.0
 40
1.0
 40
1.0
 40
1.0
 10
174.0728125
 20
169.105454545414
 30
0.0
 10
174.1000801928518
 20
169.1050962340152
 30
0.0
 10
174.1531544592473
 20
169.1043988110709
 30
0.0
 10
174.2304798027564
 20
169.0935367839879
 30
0.0
 10
174.3038210650365
 20
169.0788694997014
 30
0.0
 10
174.372271289857
 20
169.0554198099233
 30
0.0
 10
174.4369941586528
 20
169.0273684318762
 30
0.0
 10
174.4965003287383
 20
168.9915386709495
 30
0.0
 10
174.5521395481031
 20
168.9498333987665
 30
0.0
 10
174.6029617063072
 20
168.9015718661618
 30
0.0
 10
174.6498286277979
 20
168.8469661063565
 30
0.0
 10
174.6912458266822
 20
168.7856207440212
 30
0.0
 10
174.7296133937781
 20
168.7185312449021
 30
0.0
 10
174.7613888022223
 20
168.6442348361907
 30
0.0
 10
174.7912886466321
 20
168.5644483650747
 30
0.0
 10
174.8146464804653
 20
168.4777426012054
 30
0.0
 10
174.8349928888229
 20
168.3848762915949
 30
0.0
 10
174.8442929723993
 20
168.3204898537358
 30
0.0
 10
174.8490909090909
 20
168.2872727272322
 30
0.0
  0
SPLINE
  5
170
330
1F
100
AcDbEntity
  8
0
  6
Continuous
 62
     7
370
    25
100
AcDbSpline
210
0.0
220
0.0
230
1.0
 70
     8
 71
     3
 72
    31
 73
    27
 74
     0
 42
0.000000001
 43
0.00000001
 40
0.0
 40
0.0
 40
0.0
 40
0.0
 40
0.0600146686512148
 40
0.1180632243206454
 40
0.1736112481814742
 40
0.2273480732113695
 40
0.2787957782707432
 40
0.3286447324858093
 40
0.3764527930657439
 40
0.4229248385111836
 40
0.4674437840351616
 40
0.5094788674739545
 40
0.5491706570762992
 40
0.5869330764944723
 40
0.6227040356379082
 40
0.6567128713833548
 40
0.6892156866119727
 40
0.7207171031619531
 40
0.7519013924558355
 40
0.7838457898797445
 40
0.8164065518265717
 40
0.8501091436336218
 40
0.8852578676166843
 40
0.9216898465026334
 40
0.9598798403630362
 40
1.0
 40
1.0
 40
1.0
 40
1.0
 10
178.5309090909091
 20
167.2908238635959
 30
0.0
 10
178.5311718132372
 20
167.3393691098974
 30
0.0
 10
178.5316886509681
 20
167.434869233994
 30
0.0
 10
178.5400887176435
 20
167.5750787958578
 30
0.0
 10
178.551809838632
 20
167.7099205535064
 30
0.0
 10
178.568701226165
 20
167.838864453328
 30
0.0
 10
178.5908091937184
 20
167.9623267963092
 30
0.0
 10
178.6175010201208
 20
168.0799784640199
 30
0.0
 10
178.649594579842
 20
168.1921066283269
 30
0.0
 10
178.6864867577419
 20
168.2981787382803
 30
0.0
 10
178.7266837895311
 20
168.3980190347287
 30
0.0
 10
178.7698928307501
 20
168.4905948835184
 30
0.0
 10
178.8162127069078
 20
168.5754802456689
 30
0.0
 10
178.8650044550705
 20
168.6530451938223
 30
0.0
 10
178.9168038700782
 20
168.723060055738
 30
0.0
 10
178.971874030866
 20
168.7848815467276
 30
0.0
 10
179.0285671477632
 20
168.8404601268923
 30
0.0
 10
179.089696166205
 20
168.8875256879899
 30
0.0
 10
179.1544618630596
 20
168.9284692333001
 30
0.0
 10
179.2233504415346
 20
168.9639521401364
 30
0.0
 10
179.296994406152
 20
168.9940074150798
 30
0.0
 10
179.3755506918014
 20
169.0178838058529
 30
0.0
 10
179.4585646579802
 20
169.0371373555834
 30
0.0
 10
179.5464069845289
 20
169.0505308359134
 30
0.0
 10
179.6389596587479
 20
169.0582751214332
 30
0.0
 10
179.7022957353354
 20
169.0594156698164
 30
0.0
 10
179.7347443181818
 20
169.0599999999595
 30
0.0
  0
SPLINE
  5
171
330
1F
100
AcDbEntity
  8
0
  6
Continuous
 62
     7
370
    25
100
AcDbSpline
210
0.0
220
0.0
230
1.0
 70
     8
 71
     3
 72
    19
 73
    15
 74
     0
 42
0.000000001
 43
0.00000001
 40
0.0
 40
0.0
 40
0.0
 40
0.0
 40
0.0623640400735977
 40
0.125500756671968
 40
0.1911061941901558
 40
0.2605141750850601
 40
0.3340557159649622
 40
0.4115279921742319
 40
0.4938220724186503
 40
0.581291350593091
 40
0.6752318168145591
 40
0.7759740931165818
 40
0.88411878994016
 40
1.0
 40
1.0
 40
1.0
 40
1.0
 10
179.2723863636363
 20
165.6246306817777
 30
0.0
 10
179.235332265874
 20
165.6402812784854
 30
0.0
 10
179.1607649783558
 20
165.6717763792978
 30
0.0
 10
179.0582393871335
 20
165.7411607644626
 30
0.0
 10
178.9639983151795
 20
165.8275909310332
 30
0.0
 10
178.8771866095678
 20
165.9304881752871
 30
0.0
 10
178.7994578326494
 20
166.0495722307208
 30
0.0
 10
178.7307493137838
 20
166.1833555538285
 30
0.0
 10
178.6702114985611
 20
166.3307734592653
 30
0.0
 10
178.6200920245933
 20
166.4931551781588
 30
0.0
 10
178.5792892061941
 20
166.6703562862855
 30
0.0
 10
178.5520834266168
 20
166.8635456979701
 30
0.0
 10
178.5335890649008
 20
167.0719513102633
 30
0.0
 10
178.5318227482396
 20
167.2162057839359
 30
0.0
 10
178.5309090909091
 20
167.2908238635959
 30
0.0
  0
SPLINE
  5
172
330
1F
100
AcDbEntity
  8
0
  6
Continuous
 62
     7
370
    25
100
AcDbSpline
210
0.0
220
0.0
230
1.0
 70
     8
 71
     3
 72
    15
 73
    11
 74
     0
 42
0.000000001
 43
0.00000001
 40
0.0
 40
0.0
 40
0.0
 40
0.0
 40
0.1575667473574126
 40
0.305531271097508
 40
0.4439157034432847
 40
0.5729506810152654
 40
0.6928478267623386
 40
0.8035992676273503
 40
0.9060809889277631
 40
1.0
 40
1.0
 40
1.0
 40
1.0
 10
179.7752272727273
 20
165.5599999999595
 30
0.0
 10
179.7484691186744
 20
165.5599862362548
 30
0.0
 10
179.6965834704833
 20
165.559959547615
 30
0.0
 10
179.621299825567
 20
165.5640262764469
 30
0.0
 10
179.550922041978
 20
165.5686320158515
 30
0.0
 10
179.4854998921726
 20
165.5756160939229
 30
0.0
 10
179.4251630080449
 20
165.5850830098499
 30
0.0
 10
179.3694726138092
 20
165.5951576559003
 30
0.0
 10
179.3190696688574
 20
165.6087922458748
 30
0.0
 10
179.2874885051853
 20
165.6195069164447
 30
0.0
 10
179.2723863636363
 20
165.6246306817777
 30
0.0
  0
LINE
  5
173
330
1F
100
AcDbEntity
  8
0
  6
Continuous
 62
     7
370
    25
100
AcDbLine
 10
180.6672727273
 20
165.56
 30
0.0
 11
179.7752272727
 21
165.56
 31
0.0
  0
LINE
  5
174
330
1F
100
AcDbEntity
  8
0
  6
Continuous
 62
     7
370
    25
100
AcDbLine
 10
180.6672727273
 20
169.06
 30
0.0
 11
180.6672727273
 21
165.56
 31
0.0
  0
LINE
  5
175
330
1F
100
AcDbEntity
  8
0
  6
Continuous
 62
     7
370
    25
100
AcDbLine
 10
179.7347443182
 20
169.06
 30
0.0
 11
180.6672727273
 21
169.06
 31
0.0
  0
SPLINE
  5
176
330
1F
100
AcDbEntity
  8
0
  6
Continuous
 62
     7
370
    25
100
AcDbSpline
210
0.0
220
0.0
230
1.0
 70
     8
 71
     3
 72
    23
 73
    19
 74
     0
 42
0.000000001
 43
0.00000001
 40
0.0
 40
0.0
 40
0.0
 40
0.0
 40
0.0968192816718779
 40
0.1879688264533231
 40
0.2754194753544094
 40
0.3598337273088536
 40
0.4399412145866785
 40
0.5152097928626779
 40
0.5867202398916694
 40
0.6563463397493271
 40
0.6917361708376786
 40
0.7292083367414267
 40
0.7682863087763641
 40
0.8098729623450036
 40
0.8531673973810608
 40
0.8996294221862327
 40
0.9485553412259714
 40
1.0
 40
1.0
 40
1.0
 40
1.0
 10
183.94
 20
168.0323011363232
 30
0.0
 10
183.9412141198495
 20
168.0844684235904
 30
0.0
 10
183.9435712606933
 20
168.1857480819141
 30
0.0
 10
183.9661333343707
 20
168.3327561315773
 30
0.0
 10
184.0028486221885
 20
168.4698481407755
 30
0.0
 10
184.0537568253447
 20
168.5959782021729
 30
0.0
 10
184.1163798235404
 20
168.7093543346261
 30
0.0
 10
184.1907629371285
 20
168.8068274748643
 30
0.0
 10
184.2744164549172
 20
168.8886227800501
 30
0.0
 10
184.3534366821284
 20
168.9425292743196
 30
0.0
 10
184.4222683548055
 20
168.9765673057209
 30
0.0
 10
184.4781121923056
 20
168.9994857697086
 30
0.0
 10
184.5391788897692
 20
169.0175753668132
 30
0.0
 10
184.6041015091496
 20
169.0331837676792
 30
0.0
 10
184.6738274802231
 20
169.0454184234492
 30
0.0
 10
184.7481031821871
 20
169.0533669878004
 30
0.0
 10
184.826968582584
 20
169.0596542963505
 30
0.0
 10
184.8810372538516
 20
169.0598828535874
 30
0.0
 10
184.90875
 20
169.0599999999595
 30
0.0
  0
SPLINE
  5
177
330
1F
100
AcDbEntity
  8
0
  6
Continuous
 62
     7
370
    25
100
AcDbSpline
210
0.0
220
0.0
230
1.0
 70
     8
 71
     3
 72
    15
 73
    11
 74
     0
 42
0.000000001
 43
0.00000001
 40
0.0
 40
0.0
 40
0.0
 40
0.0
 40
0.1075455009599655
 40
0.2161484786361839
 40
0.3275339862401738
 40
0.446674109229004
 40
0.5723517132400954
 40
0.7049746126034377
 40
0.8469541779204285
 40
1.0
 40
1.0
 40
1.0
 40
1.0
 10
184.3746590909091
 20
167.1736363635959
 30
0.0
 10
184.3422200829006
 20
167.1905009155721
 30
0.0
 10
184.2770230996058
 20
167.224395845811
 30
0.0
 10
184.1913680476406
 20
167.2964686902482
 30
0.0
 10
184.1163791607644
 20
167.3841845724759
 30
0.0
 10
184.0528627187129
 20
167.487467680554
 30
0.0
 10
184.0015009537882
 20
167.6052055072186
 30
0.0
 10
183.9659807692874
 20
167.7365815682174
 30
0.0
 10
183.9434432199011
 20
167.8802455243388
 30
0.0
 10
183.9411760863211
 20
167.980364132459
 30
0.0
 10
183.94
 20
168.0323011363232
 30
0.0
  0
SPLINE
  5
178
330
1F
100
AcDbEntity
  8
0
  6
Continuous
 62
     7
370
    25
100
AcDbSpline
210
0.0
220
0.0
230
1.0
 70
     8
 71
     3
 72
    15
 73
    11
 74
     0
 42
0.000000001
 43
0.00000001
 40
0.0
 40
0.0
 40
0.0
 40
0.0
 40
0.137631948103129
 40
0.2699093307690303
 40
0.3973560729775372
 40
0.5229561724864108
 40
0.645993202084504
 40
0.7649178872134271
 40
0.8818553540181846
 40
1.0
 40
1.0
 40
1.0
 40
1.0
 10
184.0309090909091
 20
166.4399715908686
 30
0.0
 10
184.0319327954263
 20
166.4786320525504
 30
0.0
 10
184.0339403772773
 20
166.5544488921982
 30
0.0
 10
184.0516773541783
 20
166.6648516342108
 30
0.0
 10
184.0788487465744
 20
166.769795535832
 30
0.0
 10
184.1191740449941
 20
166.8676443733961
 30
0.0
 10
184.1681969448704
 20
166.9587409502795
 30
0.0
 10
184.2279874774327
 20
167.040103164085
 30
0.0
 10
184.2955481037453
 20
167.113565486074
 30
0.0
 10
184.3481986392595
 20
167.1535443054987
 30
0.0
 10
184.3746590909091
 20
167.1736363635959
 30
0.0
  0
SPLINE
  5
179
330
1F
100
AcDbEntity
  8
0
  6
Continuous
 62
     7
370
    25
100
AcDbSpline
210
0.0
220
0.0
230
1.0
 70
     8
 71
     3
 72
    19
 73
    15
 74
     0
 42
0.000000001
 43
0.00000001
 40
0.0
 40
0.0
 40
0.0
 40
0.0
 40
0.1010806791914293
 40
0.1924048240394084
 40
0.2742410221319962
 40
0.3492460202577995
 40
0.42122463269652
 40
0.4951685410591022
 40
0.5724434811404175
 40
0.6547053216758436
 40
0.7394460711456385
 40
0.8244151355839411
 40
0.9104915248380937
 40
0.9999999999999999
 40
0.9999999999999999
 40
0.9999999999999999
 40
0.9999999999999999
 10
184.9059090909091
 20
165.5599999999595
 30
0.0
 10
184.8584990647842
 20
165.5611739477598
 30
0.0
 10
184.7682551348142
 20
165.5634085312802
 30
0.0
 10
184.6405809014104
 20
165.5814161630838
 30
0.0
 10
184.5279791975915
 20
165.6122353459166
 30
0.0
 10
184.4298241124114
 20
165.6568582461143
 30
0.0
 10
184.3438911866516
 20
165.7154900140017
 30
0.0
 10
184.2670983262433
 20
165.7872454103951
 30
0.0
 10
184.1997549607851
 20
165.8739843648868
 30
0.0
 10
184.1396791296744
 20
165.9717730957942
 30
0.0
 10
184.0909313512416
 20
166.079799756749
 30
0.0
 10
184.0561566195529
 20
166.1948704249273
 30
0.0
 10
184.0349362035537
 20
166.3156101060581
 30
0.0
 10
184.0322688410737
 20
166.3979810720122
 30
0.0
 10
184.0309090909091
 20
166.4399715908686
 30
0.0
  0
LINE
  5
17A
330
1F
100
AcDbEntity
  8
0
  6
Continuous
 62
     7
370
    25
100
AcDbLine
 10
185.8945454545
 20
165.56
 30
0.0
 11
184.9059090909
 21
165.56
 31
0.0
  0
LINE
  5
17B
330
1F
100
AcDbEntity
  8
0
  6
Continuous
 62
     7
370
    25
100
AcDbLine
 10
185.8945454545
 20
169.06
 30
0.0
 11
185.8945454545
 21
165.56
 31
0.0
  0
LINE
  5
17C
330
1F
100
AcDbEntity
  8
0
  6
Continuous
 62
     7
370
    25
100
AcDbLine
 10
184.90875
 20
169.06
 30
0.0
 11
185.8945454545
 21
169.06
 31
0.0
  0
LINE
  5
17D
330
1F
100
AcDbEntity
  8
0
  6
Continuous
 62
     7
370
    25
100
AcDbLine
 10
189.0159943182
 20
165.56
 30
0.0
 11
190.0152840909
 21
169.06
 31
0.0
  0
LINE
  5
17E
330
1F
100
AcDbEntity
  8
0
  6
Continuous
 62
     7
370
    25
100
AcDbLine
 10
189.3490909091
 20
165.56
 30
0.0
 11
189.0159943182
 21
165.56
 31
0.0
  0
LINE
  5
17F
330
1F
100
AcDbEntity
  8
0
  6
Continuous
 62
     7
370
    25
100
AcDbLine
 10
190.0515056818
 20
168.0990625
 30
0.0
 11
189.3490909091
 21
165.56
 31
0.0
  0
SPLINE
  5
180
330
1F
100
AcDbEntity
  8
0
  6
Continuous
 62
     7
370
    25
100
AcDbSpline
210
0.0
220
0.0
230
1.0
 70
     8
 71
     3
 72
     9
 73
     5
 74
     0
 42
0.000000001
 43
0.00000001
 40
0.0
 40
0.0
 40
0.0
 40
0.0
 40
0.4901564748819405
 40
1.0
 40
1.0
 40
1.0
 40
1.0
 10
190.19
 20
168.6509090908686
 30
0.0
 10
190.1689777037307
 20
168.5603427942218
 30
0.0
 10
190.1260887542897
 20
168.3755726212508
 30
0.0
 10
190.076690872171
 20
168.1924343577876
 30
0.0
 10
190.0515056818182
 20
168.0990624999595
 30
0.0
  0
SPLINE
  5
181
330
1F
100
AcDbEntity
  8
0
  6
Continuous
 62
     7
370
    25
100
AcDbSpline
210
0.0
220
0.0
230
1.0
 70
     8
 71
     3
 72
    11
 73
     7
 74
     0
 42
0.000000001
 43
0.00000001
 40
0.0
 40
0.0
 40
0.0
 40
0.0
 40
0.2644827939617669
 40
0.519552554454929
 40
0.7649478036282251
 40
1.0
 40
1.0
 40
1.0
 40
1.0
 10
190.3157102272727
 20
168.0990624999595
 30
0.0
 10
190.3040672615036
 20
168.1475842711246
 30
0.0
 10
190.2811957071156
 20
168.2429009069553
 30
0.0
 10
190.2482473314727
 20
168.3834152344927
 30
0.0
 10
190.2188750689592
 20
168.5190424166131
 30
0.0
 10
190.1994858864794
 20
168.6075889414287
 30
0.0
 10
190.19
 20
168.6509090908686
 30
0.0
  0
LINE
  5
182
330
1F
100
AcDbEntity
  8
0
  6
Continuous
 62
     7
370
    25
100
AcDbLine
 10
190.94
 20
165.56
 30
0.0
 11
190.3157102273
 21
168.0990625
 31
0.0
  0
LINE
  5
183
330
1F
100
AcDbEntity
  8
0
  6
Continuous
 62
     7
370
    25
100
AcDbLine
 10
191.2695454545
 20
165.56
 30
0.0
 11
190.94
 21
165.56
 31
0.0
  0
LINE
  5
184
330
1F
100
AcDbEntity
  8
0
  6
Continuous
 62
     7
370
    25
100
AcDbLine
 10
190.3263636364
 20
169.06
 30
0.0
 11
191.2695454545
 21
165.56
 31
0.0
  0
LINE
  5
185
330
1F
100
AcDbEntity
  8
0
  6
Continuous
 62
     7
370
    25
100
AcDbLine
 10
190.0152840909
 20
169.06
 30
0.0
 11
190.3263636364
 21
169.06
 31
0.0
  0
LINE
  5
186
330
1F
100
AcDbEntity
  8
0
  6
Continuous
 62
     7
370
    25
100
AcDbLine
 10
196.8036363636
 20
166.2588636363
 30
0.0
 11
196.8036363636
 21
169.06
 31
0.0
  0
LINE
  5
187
330
1F
100
AcDbEntity
  8
0
  6
Continuous
 62
     7
370
    25
100
AcDbLine
 10
195.4634375
 20
169.06
 30
0.0
 11
196.8036363636
 21
166.2588636363
 31
0.0
  0
LINE
  5
188
330
1F
100
AcDbEntity
  8
0
  6
Continuous
 62
     7
370
    25
100
AcDbLine
 10
195.1218181818
 20
169.06
 30
0.0
 11
195.4634375
 21
169.06
 31
0.0
  0
LINE
  5
189
330
1F
100
AcDbEntity
  8
0
  6
Continuous
 62
     7
370
    25
100
AcDbLine
 10
195.1218181818
 20
165.56
 30
0.0
 11
195.1218181818
 21
169.06
 31
0.0
  0
LINE
  5
18A
330
1F
100
AcDbEntity
  8
0
  6
Continuous
 62
     7
370
    25
100
AcDbLine
 10
195.44
 20
165.56
 30
0.0
 11
195.1218181818
 21
165.56
 31
0.0
  0
LINE
  5
18B
330
1F
100
AcDbEntity
  8
0
  6
Continuous
 62
     7
370
    25
100
AcDbLine
 10
195.44
 20
168.3661079545
 30
0.0
 11
195.44
 21
165.56
 31
0.0
  0
LINE
  5
18C
330
1F
100
AcDbEntity
  8
0
  6
Continuous
 62
     7
370
    25
100
AcDbLine
 10
196.7823295455
 20
165.56
 30
0.0
 11
195.44
 21
168.3661079545
 31
0.0
  0
LINE
  5
18D
330
1F
100
AcDbEntity
  8
0
  6
Continuous
 62
     7
370
    25
100
AcDbLine
 10
197.1218181818
 20
165.56
 30
0.0
 11
196.7823295455
 21
165.56
 31
0.0
  0
LINE
  5
18E
330
1F
100
AcDbEntity
  8
0
  6
Continuous
 62
     7
370
    25
100
AcDbLine
 10
197.1218181818
 20
169.06
 30
0.0
 11
197.1218181818
 21
165.56
 31
0.0
  0
LINE
  5
18F
330
1F
100
AcDbEntity
  8
0
  6
Continuous
 62
     7
370
    25
100
AcDbLine
 10
196.8036363636
 20
169.06
 30
0.0
 11
197.1218181818
 21
169.06
 31
0.0
  0
SPLINE
  5
190
330
1F
100
AcDbEntity
  8
0
  6
Continuous
 62
     7
370
    25
100
AcDbSpline
210
0.0
220
0.0
230
1.0
 70
     8
 71
     3
 72
    15
 73
    11
 74
     0
 42
0.000000001
 43
0.00000001
 40
0.0
 40
0.0
 40
0.0
 40
0.0
 40
0.13932153928621
 40
0.2716012228177643
 40
0.3968894546682092
 40
0.5172934503899375
 40
0.6360268189227902
 40
0.7552113132249803
 40
0.8752184670120041
 40
1.0
 40
1.0
 40
1.0
 40
1.0
 10
200.8426988636364
 20
169.105454545414
 30
0.0
 10
200.8697425910241
 20
169.1049477218244
 30
0.0
 10
200.9224631499964
 20
169.1039596914925
 30
0.0
 10
200.9985855889635
 20
169.0912386390719
 30
0.0
 10
201.0695917194877
 20
169.0725309003155
 30
0.0
 10
201.1349860684756
 20
169.0451633387461
 30
0.0
 10
201.1952446873074
 20
169.0101381385742
 30
0.0
 10
201.2499550596558
 20
168.9671867209075
 30
0.0
 10
201.3001938187274
 20
168.9171634991428
 30
0.0
 10
201.3274066253443
 20
168.8781716362455
 30
0.0
 10
201.3412784090909
 20
168.8582954545049
 30
0.0
  0
SPLINE
  5
191
330
1F
100
AcDbEntity
  8
0
  6
Continuous
 62
     7
370
    25
100
AcDbSpline
210
0.0
220
0.0
230
1.0
 70
     8
 71
     3
 72
    23
 73
    19
 74
     0
 42
0.000000001
 43
0.00000001
 40
0.0
 40
0.0
 40
0.0
 40
0.0
 40
0.0994431688498003
 40
0.1913077015538615
 40
0.2757215482566735
 40
0.3534769429097848
 40
0.4244929843969387
 40
0.4889624360411827
 40
0.5481480844568272
 40
0.6021993962054101
 40
0.653127930654244
 40
0.7024715583656395
 40
0.7502734845581455
 40
0.7980754107506539
 40
0.8461052506998795
 40
0.8953476000127792
 40
0.9461124950813907
 40
1.0
 40
1.0
 40
1.0
 40
1.0
 10
200.1218181818182
 20
167.9357102272322
 30
0.0
 10
200.1222245679167
 20
167.987338602471
 30
0.0
 10
200.1230063691337
 20
168.0866607169624
 30
0.0
 10
200.1327835609171
 20
168.2295118979146
 30
0.0
 10
200.1462717313984
 20
168.3607199791538
 30
0.0
 10
200.1664611164283
 20
168.4801951137736
 30
0.0
 10
200.1935740826175
 20
168.5876011132432
 30
0.0
 10
200.2249957572474
 20
168.6837776431977
 30
0.0
 10
200.2631610150406
 20
168.7679889924202
 30
0.0
 10
200.3076023146958
 20
168.8409808711856
 30
0.0
 10
200.3581448867002
 20
168.9033897151852
 30
0.0
 10
200.4128252199458
 20
168.9575989854057
 30
0.0
 10
200.4723498320724
 20
169.0040339967694
 30
0.0
 10
200.5375298481731
 20
169.0406587922523
 30
0.0
 10
200.6069224602361
 20
169.0703663730447
 30
0.0
 10
200.6812337207604
 20
169.0907221949261
 30
0.0
 10
200.7603743554087
 20
169.1030386191878
 30
0.0
 10
200.8147168716914
 20
169.1046333752709
 30
0.0
 10
200.8426988636364
 20
169.105454545414
 30
0.0
  0
LINE
  5
192
330
1F
100
AcDbEntity
  8
0
  6
Continuous
 62
     7
370
    25
100
AcDbLine
 10
200.1218181818
 20
165.56
 30
0.0
 11
200.1218181818
 21
167.9357102272
 31
0.0
  0
LINE
  5
193
330
1F
100
AcDbEntity
  8
0
  6
Continuous
 62
     7
370
    25
100
AcDbLine
 10
200.44
 20
165.56
 30
0.0
 11
200.1218181818
 21
165.56
 31
0.0
  0
LINE
  5
194
330
1F
100
AcDbEntity
  8
0
  6
Continuous
 62
     7
370
    25
100
AcDbLine
 10
200.44
 20
167.9634090909
 30
0.0
 11
200.44
 21
165.56
 31
0.0
  0
SPLINE
  5
195
330
1F
100
AcDbEntity
  8
0
  6
Continuous
 62
     7
370
    25
100
AcDbSpline
210
0.0
220
0.0
230
1.0
 70
     8
 71
     3
 72
    11
 73
     7
 74
     0
 42
0.000000001
 43
0.00000001
 40
0.0
 40
0.0
 40
0.0
 40
0.0
 40
0.1897211885864156
 40
0.4188043445050529
 40
0.6886196378243429
 40
1.0
 40
1.0
 40
1.0
 40
1.0
 10
200.4854545454546
 20
168.4321590908686
 30
0.0
 10
200.4782632542717
 20
168.4031473044619
 30
0.0
 10
200.4623886753046
 20
168.3391045779774
 30
0.0
 10
200.4498077650979
 20
168.2312174933838
 30
0.0
 10
200.4412567432191
 20
168.1039444979474
 30
0.0
 10
200.4404384222195
 20
168.0124356892629
 30
0.0
 10
200.44
 20
167.9634090908686
 30
0.0
  0
SPLINE
  5
196
330
1F
100
AcDbEntity
  8
0
  6
Continuous
 62
     7
370
    25
100
AcDbSpline
210
0.0
220
0.0
230
1.0
 70
     8
 71
     3
 72
    15
 73
    11
 74
     0
 42
0.000000001
 43
0.00000001
 40
0.0
 40
0.0
 40
0.0
 40
0.0
 40
0.128947803447948
 40
0.253247385237385
 40
0.3764406309892721
 40
0.5033025917821549
 40
0.6299799454329826
 40
0.7520759981192171
 40
0.8746598439576622
 40
1.0
 40
1.0
 40
1.0
 40
1.0
 10
200.8277840909091
 20
168.6963636363231
 30
0.0
 10
200.807840228024
 20
168.6952925053631
 30
0.0
 10
200.7686714248949
 20
168.6931888548347
 30
0.0
 10
200.7114377958713
 20
168.6799813914425
 30
0.0
 10
200.659003505585
 20
168.6545849278548
 30
0.0
 10
200.6102900116303
 20
168.6222997005148
 30
0.0
 10
200.5670361747619
 20
168.5829816749275
 30
0.0
 10
200.5319448302484
 20
168.5372299089595
 30
0.0
 10
200.5033497509318
 20
168.4872245715334
 30
0.0
 10
200.4914636620529
 20
168.450649791871
 30
0.0
 10
200.4854545454546
 20
168.4321590908686
 30
0.0
  0
SPLINE
  5
197
330
1F
100
AcDbEntity
  8
0
  6
Continuous
 62
     7
370
    25
100
AcDbSpline
210
0.0
220
0.0
230
1.0
 70
     8
 71
     3
 72
    23
 73
    19
 74
     0
 42
0.000000001
 43
0.00000001
 40
0.0
 40
0.0
 40
0.0
 40
0.0
 40
0.1092372335715514
 40
0.2102209308449021
 40
0.3021972615310254
 40
0.3860574403282951
 40
0.4615364433605484
 40
0.528859402615023
 40
0.5889404170742092
 40
0.641943221339512
 40
0.6902628885277908
 40
0.7362901207039036
 40
0.7807076703864047
 40
0.8236437590948571
 40
0.8662436383458323
 40
0.9093259936573099
 40
0.9535000835603569
 40
1.0
 40
1.0
 40
1.0
 40
1.0
 10
201.2127272727273
 20
167.9690909090504
 30
0.0
 10
201.2116263164763
 20
168.0024895462263
 30
0.0
 10
201.2095075879041
 20
168.0667633507389
 30
0.0
 10
201.2013589939274
 20
168.1588715991828
 30
0.0
 10
201.191471042216
 20
168.2429595734254
 30
0.0
 10
201.1800342418495
 20
168.3190094515189
 30
0.0
 10
201.1644991922766
 20
168.3866642674892
 30
0.0
 10
201.1458704458032
 20
168.4458814894865
 30
0.0
 10
201.125958309215
 20
168.4974675148932
 30
0.0
 10
201.1019334077226
 20
168.5407323770249
 30
0.0
 10
201.0761476595728
 20
168.5778193294633
 30
0.0
 10
201.0473598688612
 20
168.6091531427235
 30
0.0
 10
201.0168882347258
 20
168.6363618400599
 30
0.0
 10
200.9840035090142
 20
168.6590178521601
 30
0.0
 10
200.9479084556625
 20
168.6750848762888
 30
0.0
 10
200.9100475090763
 20
168.6871495894376
 30
0.0
 10
200.8698210351628
 20
168.6956296409143
 30
0.0
 10
200.8420339888163
 20
168.6961148228133
 30
0.0
 10
200.8277840909091
 20
168.6963636363231
 30
0.0
  0
LINE
  5
198
330
1F
100
AcDbEntity
  8
0
  6
Continuous
 62
     7
370
    25
100
AcDbLine
 10
201.5309090909
 20
168.0145454545
 30
0.0
 11
201.2127272727
 21
167.9690909091
 31
0.0
  0
SPLINE
  5
199
330
1F
100
AcDbEntity
  8
0
  6
Continuous
 62
     7
370
    25
100
AcDbSpline
210
0.0
220
0.0
230
1.0
 70
     8
 71
     3
 72
    15
 73
    11
 74
     0
 42
0.000000001
 43
0.00000001
 40
0.0
 40
0.0
 40
0.0
 40
0.0
 40
0.0991998587249351
 40
0.2043290549486981
 40
0.3160441565315457
 40
0.434922999798912
 40
0.5626713396712523
 40
0.6990277588033712
 40
0.8444221531856717
 40
1.0
 40
1.0
 40
1.0
 40
1.0
 10
201.3412784090909
 20
168.8582954545049
 30
0.0
 10
201.3568073941287
 20
168.8337737392854
 30
0.0
 10
201.3887935569908
 20
168.7832646058964
 30
0.0
 10
201.4261759431045
 20
168.6985205455899
 30
0.0
 10
201.4591545092539
 20
168.6060512912849
 30
0.0
 10
201.4850501934906
 20
168.504444073551
 30
0.0
 10
201.5054723585698
 20
168.3943390507715
 30
0.0
 10
201.5200658376475
 20
168.2755103537629
 30
0.0
 10
201.5296302528369
 20
168.1479882597051
 30
0.0
 10
201.5304733032947
 20
168.0600185468361
 30
0.0
 10
201.5309090909091
 20
168.0145454545049
 30
0.0
  0
CIRCLE
  5
19A
330
1F
100
AcDbEntity
  8
0
  6
Continuous
 62
     7
370
    25
100
AcDbCircle
 10
185.94
 20
209.06
 30
0.0
 40
15.0
  0
LINE
  5
19B
330
1F
100
AcDbEntity
  8
0
  6
Continuous
 62
     7
370
    25
100
AcDbLine
 10
209.94
 20
253.56
 30
0.0
 11
165.94
 21
253.56
 31
0.0
  0
LINE
  5
19C
330
1F
100
AcDbEntity
  8
0
  6
Continuous
 62
     7
370
    25
100
AcDbLine
 10
209.94
 20
253.56
 30
0.0
 11
209.94
 21
164.56
 31
0.0
  0
LINE
  5
19D
330
1F
100
AcDbEntity
  8
0
  6
Continuous
 62
     7
370
    25
100
AcDbLine
 10
165.94
 20
164.56
 30
0.0
 11
209.94
 21
164.56
 31
0.0
  0
LINE
  5
19E
330
1F
100
AcDbEntity
  8
0
  6
Continuous
 62
     7
370
    25
100
AcDbLine
 10
165.94
 20
253.56
 30
0.0
 11
165.94
 21
164.56
 31
0.0
  0
LINE
  5
19F
330
1F
100
AcDbEntity
  8
0
  6
Continuous
 62
     7
370
    25
100
AcDbLine
 10
199.1949715909
 20
168.0145454545
 30
0.0
 11
199.4698295455
 21
169.06
 31
0.0
  0
LINE
  5
1A0
330
1F
100
AcDbEntity
  8
0
  6
Continuous
 62
     7
370
    25
100
AcDbLine
 10
198.0941193182
 20
168.0145454545
 30
0.0
 11
199.1949715909
 21
168.0145454545
 31
0.0
  0
LINE
  5
1A1
330
1F
100
AcDbEntity
  8
0
  6
Continuous
 62
     7
370
    25
100
AcDbLine
 10
197.8185511364
 20
169.06
 30
0.0
 11
198.0941193182
 21
168.0145454545
 31
0.0
  0
LINE
  5
1A2
330
1F
100
AcDbEntity
  8
0
  6
Continuous
 62
     7
370
    25
100
AcDbLine
 10
197.4854545455
 20
169.06
 30
0.0
 11
197.8185511364
 21
169.06
 31
0.0
  0
LINE
  5
1A3
330
1F
100
AcDbEntity
  8
0
  6
Continuous
 62
     7
370
    25
100
AcDbLine
 10
198.5010795455
 20
165.56
 30
0.0
 11
197.4854545455
 21
169.06
 31
0.0
  0
LINE
  5
1A4
330
1F
100
AcDbEntity
  8
0
  6
Continuous
 62
     7
370
    25
100
AcDbLine
 10
198.8355965909
 20
165.56
 30
0.0
 11
198.5010795455
 21
165.56
 31
0.0
  0
LINE
  5
1A5
330
1F
100
AcDbEntity
  8
0
  6
Continuous
 62
     7
370
    25
100
AcDbLine
 10
199.8036363636
 20
169.06
 30
0.0
 11
198.8355965909
 21
165.56
 31
0.0
  0
LINE
  5
1A6
330
1F
100
AcDbEntity
  8
0
  6
Continuous
 62
     7
370
    25
100
AcDbLine
 10
199.4698295455
 20
169.06
 30
0.0
 11
199.8036363636
 21
169.06
 31
0.0
  0
SPLINE
  5
1A7
330
1F
100
AcDbEntity
  8
0
  6
Continuous
 62
     7
370
    25
100
AcDbSpline
210
0.0
220
0.0
230
1.0
 70
     8
 71
     3
 72
    15
 73
    11
 74
     0
 42
0.000000001
 43
0.00000001
 40
0.0
 40
0.0
 40
0.0
 40
0.0
 40
0.12844688231054
 40
0.2509512281717685
 40
0.3695993612597401
 40
0.4873459931406922
 40
0.6075091423425184
 40
0.7314364510607464
 40
0.8612952611733194
 40
1.0
 40
1.0
 40
1.0
 40
1.0
 10
192.0593181818182
 20
167.2574431817777
 30
0.0
 10
192.0207662119042
 20
167.2781431754483
 30
0.0
 10
191.9454458613878
 20
167.3185854870199
 30
0.0
 10
191.8458679639599
 20
167.3963684304777
 30
0.0
 10
191.7614639375034
 20
167.4852138571961
 30
0.0
 10
191.6932481317628
 20
167.5861720074839
 30
0.0
 10
191.6406725858605
 20
167.6979439064971
 30
0.0
 10
191.6028723122448
 20
167.8197973526173
 30
0.0
 10
191.5808475160829
 20
167.9519615480722
 30
0.0
 10
191.5778907264516
 20
168.0433437178266
 30
0.0
 10
191.5763636363637
 20
168.0905397726868
 30
0.0
  0
SPLINE
  5
1A8
330
1F
100
AcDbEntity
  8
0
  6
Continuous
 62
     7
370
    25
100
AcDbSpline
210
0.0
220
0.0
230
1.0
 70
     8
 71
     3
 72
    15
 73
    11
 74
     0
 42
0.000000001
 43
0.00000001
 40
0.0
 40
0.0
 40
0.0
 40
0.0
 40
0.168224816682213
 40
0.3246971115483562
 40
0.4684230130816658
 40
0.5993115057484893
 40
0.7178407301013341
 40
0.8248710192981631
 40
0.9180531695307848
 40
1.0
 40
1.0
 40
1.0
 40
1.0
 10
192.6111647727273
 20
167.0756249999595
 30
0.0
 10
192.5796215834665
 20
167.0839493269782
 30
0.0
 10
192.5187388751719
 20
167.1000164268976
 30
0.0
 10
192.4318167924291
 20
167.1263944606178
 30
0.0
 10
192.3512682843209
 20
167.1488153836646
 30
0.0
 10
192.2789660082326
 20
167.1730039677206
 30
0.0
 10
192.2131772065414
 20
167.1942704552667
 30
0.0
 10
192.1556370769449
 20
167.2168536195154
 30
0.0
 10
192.1043606807145
 20
167.2360345565553
 30
0.0
 10
192.0736761644077
 20
167.2506188564019
 30
0.0
 10
192.0593181818182
 20
167.2574431817777
 30
0.0
  0
SPLINE
  5
1A9
330
1F
100
AcDbEntity
  8
0
  6
Continuous
 62
     7
370
    25
100
AcDbSpline
210
0.0
220
0.0
230
1.0
 70
     8
 71
     3
 72
    15
 73
    11
 74
     0
 42
0.000000001
 43
0.00000001
 40
0.0
 40
0.0
 40
0.0
 40
0.0
 40
0.0771004015863267
 40
0.1663775667591673
 40
0.2676842814794598
 40
0.3844615905691982
 40
0.5151148496494798
 40
0.6610947405362072
 40
0.8222347294061997
 40
1.0
 40
1.0
 40
1.0
 40
1.0
 10
193.1125852272727
 20
166.8419602272322
 30
0.0
 10
193.1029098440925
 20
166.8526530208081
 30
0.0
 10
193.0820310071749
 20
166.8757273620619
 30
0.0
 10
193.0424199864426
 20
166.9066452659004
 30
0.0
 10
192.9932123000986
 20
166.9362986238194
 30
0.0
 10
192.9352212054518
 20
166.9661178741815
 30
0.0
 10
192.8671637284001
 20
166.993960301177
 30
0.0
 10
192.7905262909583
 20
167.0224792273488
 30
0.0
 10
192.7042626200895
 20
167.0501950535624
 30
0.0
 10
192.643195947461
 20
167.0668755918948
 30
0.0
 10
192.6111647727273
 20
167.0756249999595
 30
0.0
  0
SPLINE
  5
1AA
330
1F
100
AcDbEntity
  8
0
  6
Continuous
 62
     7
370
    25
100
AcDbSpline
210
0.0
220
0.0
230
1.0
 70
     8
 71
     3
 72
    11
 73
     7
 74
     0
 42
0.000000001
 43
0.00000001
 40
0.0
 40
0.0
 40
0.0
 40
0.0
 40
0.2887558057439027
 40
0.5477747969496816
 40
0.78151679057983
 40
1.0
 40
1.0
 40
1.0
 40
1.0
 10
193.2127272727273
 20
166.4854261363231
 30
0.0
 10
193.2115907341608
 20
166.5217468531496
 30
0.0
 10
193.2094347006885
 20
166.5906478860949
 30
0.0
 10
193.1910460553084
 20
166.6874229874557
 30
0.0
 10
193.1608229530113
 20
166.7724588641252
 30
0.0
 10
193.1282986624087
 20
166.819320163997
 30
0.0
 10
193.1125852272727
 20
166.8419602272322
 30
0.0
  0
SPLINE
  5
1AB
330
1F
100
AcDbEntity
  8
0
  6
Continuous
 62
     7
370
    25
100
AcDbSpline
210
0.0
220
0.0
230
1.0
 70
     8
 71
     3
 72
    23
 73
    19
 74
     0
 42
0.000000001
 43
0.00000001
 40
0.0
 40
0.0
 40
0.0
 40
0.0
 40
0.0757464277983986
 40
0.1481248213654862
 40
0.2159176359181011
 40
0.2805255174643401
 40
0.3425893393403905
 40
0.4028312233486506
 40
0.4615987758002679
 40
0.5206046968589729
 40
0.579097924419131
 40
0.6372401393001597
 40
0.6944391982372642
 40
0.7519797775595617
 40
0.8114743177404167
 40
0.8717792746522146
 40
0.9349545526564584
 40
1.0
 40
1.0
 40
1.0
 40
1.0
 10
192.6154261363637
 20
165.9236363635958
 30
0.0
 10
192.6388911114065
 20
165.9238933902816
 30
0.0
 10
192.6847777008813
 20
165.9243960150656
 30
0.0
 10
192.7512059054146
 20
165.9327075288011
 30
0.0
 10
192.8135679333683
 20
165.9444011410166
 30
0.0
 10
192.8713990319706
 20
165.961502397955
 30
0.0
 10
192.9250706885821
 20
165.9834571763201
 30
0.0
 10
192.9741410136274
 20
166.0107325367158
 30
0.0
 10
193.0197577691315
 20
166.0419251336872
 30
0.0
 10
193.0597482451511
 20
166.0792501228688
 30
0.0
 10
193.0963581861251
 20
166.1195704878709
 30
0.0
 10
193.1273081038226
 20
166.1637323650585
 30
0.0
 10
193.1540404592779
 20
166.2101971270188
 30
0.0
 10
193.1753636067679
 20
166.2598535051381
 30
0.0
 10
193.1923686456215
 20
166.3121329382771
 30
0.0
 10
193.2045232184879
 20
166.3675390250128
 30
0.0
 10
193.2116808285436
 20
166.4255753347571
 30
0.0
 10
193.2123750826409
 20
166.4652828173578
 30
0.0
 10
193.2127272727273
 20
166.4854261363231
 30
0.0
  0
SPLINE
  5
1AC
330
1F
100
AcDbEntity
  8
0
  6
Continuous
 62
     7
370
    25
100
AcDbSpline
210
0.0
220
0.0
230
1.0
 70
     8
 71
     3
 72
    23
 73
    19
 74
     0
 42
0.000000001
 43
0.00000001
 40
0.0
 40
0.0
 40
0.0
 40
0.0
 40
0.0804477882082802
 40
0.1567184202519699
 40
0.2276382366421015
 40
0.2952096785152912
 40
0.358185921929896
 40
0.4185551117576336
 40
0.4763070988559097
 40
0.5321475233053569
 40
0.5868560422685121
 40
0.6411170575345246
 40
0.695800343879395
 40
0.7519979995854887
 40
0.809698185808651
 40
0.8699567778300635
 40
0.9334749109575677
 40
1.0
 40
1.0
 40
1.0
 40
1.0
 10
191.9854545454546
 20
166.605454545414
 30
0.0
 10
191.9879303972388
 20
166.5774741239545
 30
0.0
 10
191.9927535451345
 20
166.5229661312949
 30
0.0
 10
192.0057962875601
 20
166.4445327413282
 30
0.0
 10
192.0216795568011
 20
166.3712064761933
 30
0.0
 10
192.0430667550159
 20
166.3041172754809
 30
0.0
 10
192.0679674772594
 20
166.2422372782803
 30
0.0
 10
192.0969598320791
 20
166.1859387496843
 30
0.0
 10
192.1304585838486
 20
166.1351575420803
 30
0.0
 10
192.168224836473
 20
166.0899525682281
 30
0.0
 10
192.2106100827508
 20
166.0508927686935
 30
0.0
 10
192.2561633441388
 20
166.0162217499436
 30
0.0
 10
192.3065036345986
 20
165.9878051080501
 30
0.0
 10
192.3606131687687
 20
165.9644950608083
 30
0.0
 10
192.4185449729595
 20
165.9456708899271
 30
0.0
 10
192.480770189891
 20
165.9332982543513
 30
0.0
 10
192.546800893144
 20
165.925314351255
 30
0.0
 10
192.5922011293033
 20
165.9242042490182
 30
0.0
 10
192.6154261363637
 20
165.9236363635958
 30
0.0
  0
LINE
  5
1AD
330
1F
100
AcDbEntity
  8
0
  6
Continuous
 62
     7
370
    25
100
AcDbLine
 10
191.6672727273
 20
166.56
 30
0.0
 11
191.9854545455
 21
166.6054545454
 31
0.0
  0
SPLINE
  5
1AE
330
1F
100
AcDbEntity
  8
0
  6
Continuous
 62
     7
370
    25
100
AcDbSpline
210
0.0
220
0.0
230
1.0
 70
     8
 71
     3
 72
    19
 73
    15
 74
     0
 42
0.000000001
 43
0.00000001
 40
0.0
 40
0.0
 40
0.0
 40
0.0
 40
0.0865775949512848
 40
0.1690725108249566
 40
0.2486833552258013
 40
0.3267938260044196
 40
0.4039221542924464
 40
0.4805132303931617
 40
0.5585181541663322
 40
0.6395967169939422
 40
0.7236708257947476
 40
0.8108232075359799
 40
0.9026065276165662
 40
1.0
 40
1.0
 40
1.0
 40
1.0
 10
192.6253693181818
 20
165.5145454545049
 30
0.0
 10
192.5793175131542
 20
165.51587197443
 30
0.0
 10
192.4893855358519
 20
165.5184624605081
 30
0.0
 10
192.3591903320498
 20
165.5437728362201
 30
0.0
 10
192.2371098149247
 20
165.5821791459472
 30
0.0
 10
192.1249914797714
 20
165.6381321681816
 30
0.0
 10
192.023498640056
 20
165.7087006637392
 30
0.0
 10
191.9338112082056
 20
165.7936929925352
 30
0.0
 10
191.8555783461948
 20
165.8920020403846
 30
0.0
 10
191.7903441645666
 20
166.0040266329457
 30
0.0
 10
191.7387902424263
 20
166.128160265097
 30
0.0
 10
191.7005140906862
 20
166.2628221150646
 30
0.0
 10
191.6753129002597
 20
166.4078400026692
 30
0.0
 10
191.6700052521081
 20
166.5082870614177
 30
0.0
 10
191.6672727272727
 20
166.5599999999595
 30
0.0
  0
SPLINE
  5
1AF
330
1F
100
AcDbEntity
  8
0
  6
Continuous
 62
     7
370
    25
100
AcDbSpline
210
0.0
220
0.0
230
1.0
 70
     8
 71
     3
 72
    23
 73
    19
 74
     0
 42
0.000000001
 43
0.00000001
 40
0.0
 40
0.0
 40
0.0
 40
0.0
 40
0.0693710964658217
 40
0.1363273747438203
 40
0.2007482635856186
 40
0.26307872125965
 40
0.3241699842583342
 40
0.3842746986192595
 40
0.4446128818247949
 40
0.5054040324133632
 40
0.5655885696712204
 40
0.6248042707666307
 40
0.6838498558897425
 40
0.7435270449451914
 40
0.8041600418760242
 40
0.8664464704951085
 40
0.931566225721727
 40
1.0
 40
1.0
 40
1.0
 40
1.0
 10
193.5309090909091
 20
166.4733522726868
 30
0.0
 10
193.5303804205704
 20
166.4389844829238
 30
0.0
 10
193.5293414829861
 20
166.3714452512721
 30
0.0
 10
193.5166360732
 20
166.2726754489564
 30
0.0
 10
193.4976125697066
 20
166.1786168970262
 30
0.0
 10
193.4717107127633
 20
166.0891037165336
 30
0.0
 10
193.4364325263639
 20
166.0051811778628
 30
0.0
 10
193.3943778745756
 20
165.9256032331415
 30
0.0
 10
193.3444956702872
 20
165.8508196789116
 30
0.0
 10
193.287284639295
 20
165.7814132347822
 30
0.0
 10
193.2232754084043
 20
165.7190436003901
 30
0.0
 10
193.1541744802816
 20
165.6637067208752
 30
0.0
 10
193.0790262201513
 20
165.61728695154
 30
0.0
 10
192.9984015458884
 20
165.5796414729276
 30
0.0
 10
192.9126647906797
 20
165.5503509154577
 30
0.0
 10
192.8216704348848
 20
165.5300665873882
 30
0.0
 10
192.725428308457
 20
165.5167785917951
 30
0.0
 10
192.6592695397638
 20
165.5153020466788
 30
0.0
 10
192.6253693181818
 20
165.5145454545049
 30
0.0
  0
SPLINE
  5
1B0
330
1F
100
AcDbEntity
  8
0
  6
Continuous
 62
     7
370
    25
100
AcDbSpline
210
0.0
220
0.0
230
1.0
 70
     8
 71
     3
 72
    23
 73
    19
 74
     0
 42
0.000000001
 43
0.00000001
 40
0.0
 40
0.0
 40
0.0
 40
0.0
 40
0.0671079261495157
 40
0.1293963874838157
 40
0.1869096036358242
 40
0.2403683257358317
 40
0.2894097904625865
 40
0.3341423274745958
 40
0.374715153023926
 40
0.4113670673199499
 40
0.4803794914761907
 40
0.5490981687733082
 40
0.6192181813141168
 40
0.6907390952448603
 40
0.7641781433278066
 40
0.8396522635915785
 40
0.9181933187023926
 40
0.9999999999999999
 40
0.9999999999999999
 40
0.9999999999999999
 40
0.9999999999999999
 10
192.6871590909091
 20
167.4349999999595
 30
0.0
 10
192.7170387482958
 20
167.4256852067337
 30
0.0
 10
192.7746522068981
 20
167.407724577301
 30
0.0
 10
192.8570659368103
 20
167.3792852485385
 30
0.0
 10
192.9327263401345
 20
167.3509066030649
 30
0.0
 10
193.0016426582076
 20
167.3221757885829
 30
0.0
 10
193.0632859274077
 20
167.2918888254793
 30
0.0
 10
193.1190627774129
 20
167.2633171528606
 30
0.0
 10
193.1676575542711
 20
167.2335955774931
 30
0.0
 10
193.2223135854339
 20
167.1927085165035
 30
0.0
 10
193.2829283404622
 20
167.1381760780139
 30
0.0
 10
193.3466945002596
 20
167.0648847223726
 30
0.0
 10
193.4023548323035
 20
166.9837974212894
 30
0.0
 10
193.4483786537106
 20
166.8944345986074
 30
0.0
 10
193.4857021649415
 20
166.7983837710636
 30
0.0
 10
193.511442118237
 20
166.6952913785199
 30
0.0
 10
193.5286109990138
 20
166.5863800063454
 30
0.0
 10
193.5301327298043
 20
166.51153627062
 30
0.0
 10
193.5309090909091
 20
166.4733522726868
 30
0.0
  0
SPLINE
  5
1B1
330
1F
100
AcDbEntity
  8
0
  6
Continuous
 62
     7
370
    25
100
AcDbSpline
210
0.0
220
0.0
230
1.0
 70
     8
 71
     3
 72
    23
 73
    19
 74
     0
 42
0.000000001
 43
0.00000001
 40
0.0
 40
0.0
 40
0.0
 40
0.0
 40
0.0665937809649134
 40
0.1296300901791006
 40
0.1904016394759171
 40
0.2488308065797646
 40
0.3069728175292957
 40
0.3653075481434117
 40
0.4257607325073122
 40
0.4885936730267221
 40
0.5248069070189696
 40
0.5683297976887679
 40
0.620078522267212
 40
0.6804534838021147
 40
0.7477414589828887
 40
0.8237470338929971
 40
0.9080929728108434
 40
1.0
 40
1.0
 40
1.0
 40
1.0
 10
191.8945454545455
 20
168.0969318181413
 30
0.0
 10
191.8950402835777
 20
168.0717759672679
 30
0.0
 10
191.8960035076376
 20
168.0228081031521
 30
0.0
 10
191.9089203664952
 20
167.9519048084018
 30
0.0
 10
191.9275090743083
 20
167.8855965167728
 30
0.0
 10
191.9547486918091
 20
167.8241591948406
 30
0.0
 10
191.9908257503839
 20
167.7686726675036
 30
0.0
 10
192.0337858925007
 20
167.7173188503586
 30
0.0
 10
192.0854213816963
 20
167.6719399099491
 30
0.0
 10
192.1353507920735
 20
167.6380168609793
 30
0.0
 10
192.1830623633882
 20
167.6130897019122
 30
0.0
 10
192.2282709320272
 20
167.5926568712195
 30
0.0
 10
192.2823250786098
 20
167.5696884560508
 30
0.0
 10
192.3458295208848
 20
167.5462345540981
 30
0.0
 10
192.4181089011491
 20
167.5201634370751
 30
0.0
 10
192.4998095936757
 20
167.4936777551532
 30
0.0
 10
192.5903600024413
 20
167.464404272943
 30
0.0
 10
192.6539829398124
 20
167.4450777870423
 30
0.0
 10
192.6871590909091
 20
167.4349999999595
 30
0.0
  0
SPLINE
  5
1B2
330
1F
100
AcDbEntity
  8
0
  6
Continuous
 62
     7
370
    25
100
AcDbSpline
210
0.0
220
0.0
230
1.0
 70
     8
 71
     3
 72
    23
 73
    19
 74
     0
 42
0.000000001
 43
0.00000001
 40
0.0
 40
0.0
 40
0.0
 40
0.0
 40
0.0750222036375238
 40
0.1454315668675442
 40
0.2130639118137926
 40
0.2778946462649218
 40
0.3403423292469216
 40
0.4004015265856889
 40
0.4604140232373362
 40
0.5201242094585483
 40
0.5792466953593345
 40
0.6369378121232346
 40
0.6942432680149923
 40
0.7520932165419401
 40
0.811700866592102
 40
0.8716411178864529
 40
0.9342518499265964
 40
1.0
 40
1.0
 40
1.0
 40
1.0
 10
192.5394318181818
 20
168.6963636363231
 30
0.0
 10
192.5145494924425
 20
168.6958138246031
 30
0.0
 10
192.4663147640004
 20
168.694748007071
 30
0.0
 10
192.3960511954047
 20
168.6866269939289
 30
0.0
 10
192.3298280190078
 20
168.6743135376058
 30
0.0
 10
192.2678465707193
 20
168.6556120127195
 30
0.0
 10
192.2101228543889
 20
168.6324001262726
 30
0.0
 10
192.1567475624317
 20
168.6035844683063
 30
0.0
 10
192.1077374185041
 20
168.5694351832026
 30
0.0
 10
192.0629591577243
 20
168.5303804408509
 30
0.0
 10
192.0232779583553
 20
168.487173547717
 30
0.0
 10
191.9890869261292
 20
168.4405586869852
 30
0.0
 10
191.959354402291
 20
168.3913949174943
 30
0.0
 10
191.9363307506348
 20
168.3381077981168
 30
0.0
 10
191.9166756422064
 20
168.2825563272183
 30
0.0
 10
191.9042796768337
 20
168.2233116268008
 30
0.0
 10
191.8962024426093
 20
168.1613140606564
 30
0.0
 10
191.8951067113874
 20
168.1187394430133
 30
0.0
 10
191.8945454545455
 20
168.0969318181413
 30
0.0
  0
SPLINE
  5
1B3
330
1F
100
AcDbEntity
  8
0
  6
Continuous
 62
     7
370
    25
100
AcDbSpline
210
0.0
220
0.0
230
1.0
 70
     8
 71
     3
 72
    19
 73
    15
 74
     0
 42
0.000000001
 43
0.00000001
 40
0.0
 40
0.0
 40
0.0
 40
0.0
 40
0.1115386988604593
 40
0.2111858982479931
 40
0.3000555850404654
 40
0.3790407121108807
 40
0.4533673303775997
 40
0.5273876160435247
 40
0.6022090806920061
 40
0.6792044111390656
 40
0.757657287355297
 40
0.8361101635715309
 40
0.9163904141621703
 40
1.0
 40
1.0
 40
1.0
 40
1.0
 10
193.3036363636364
 20
167.8781818181413
 30
0.0
 10
193.2986687746772
 20
167.924442837011
 30
0.0
 10
193.2892632073971
 20
168.0120328387205
 30
0.0
 10
193.2649859000823
 20
168.1350111303545
 30
0.0
 10
193.2312505337713
 20
168.2416352222928
 30
0.0
 10
193.1885512343262
 20
168.3334517633714
 30
0.0
 10
193.1373457849422
 20
168.4136598965871
 30
0.0
 10
193.075306814168
 20
168.4834384049601
 30
0.0
 10
193.0045713680665
 20
168.5459966382029
 30
0.0
 10
192.9241310225175
 20
168.5989815055344
 30
0.0
 10
192.8364396638932
 20
168.6422877188158
 30
0.0
 10
192.7424190501379
 20
168.6739152417943
 30
0.0
 10
192.642688043079
 20
168.6926935851288
 30
0.0
 10
192.5743135569745
 20
168.6951238295488
 30
0.0
 10
192.5394318181818
 20
168.6963636363231
 30
0.0
  0
LINE
  5
1B4
330
1F
100
AcDbEntity
  8
0
  6
Continuous
 62
     7
370
    25
100
AcDbLine
 10
193.6218181818
 20
167.9236363636
 30
0.0
 11
193.3036363636
 21
167.8781818181
 31
0.0
  0
SPLINE
  5
1B5
330
1F
100
AcDbEntity
  8
0
  6
Continuous
 62
     7
370
    25
100
AcDbSpline
210
0.0
220
0.0
230
1.0
 70
     8
 71
     3
 72
    23
 73
    19
 74
     0
 42
0.000000001
 43
0.00000001
 40
0.0
 40
0.0
 40
0.0
 40
0.0
 40
0.0654269295587576
 40
0.1277715422625292
 40
0.1876132577745469
 40
0.245982018285567
 40
0.3035615681224865
 40
0.3609421192559333
 40
0.4184609369781225
 40
0.4773661465012357
 40
0.537186619889665
 40
0.5974410600249315
 40
0.6585814788279106
 40
0.7215687515434952
 40
0.786776779980819
 40
0.8543149312294046
 40
0.9253587099778985
 40
1.0
 40
1.0
 40
1.0
 40
1.0
 10
192.5678409090909
 20
169.105454545414
 30
0.0
 10
192.6067169561818
 20
169.1045494694157
 30
0.0
 10
192.682637567578
 20
169.1027819562989
 30
0.0
 10
192.7932706888853
 20
169.0875510975082
 30
0.0
 10
192.8977936968668
 20
169.062791701147
 30
0.0
 10
192.9963678241037
 20
169.0277793245739
 30
0.0
 10
193.0894183248147
 20
168.983151981103
 30
0.0
 10
193.1755076755922
 20
168.9271651513297
 30
0.0
 10
193.255807312041
 20
168.8619959173535
 30
0.0
 10
193.3295043698924
 20
168.7873567060182
 30
0.0
 10
193.3961539922408
 20
168.7043213921156
 30
0.0
 10
193.4548377208735
 20
168.6138229936413
 30
0.0
 10
193.503654941357
 20
168.5155878359404
 30
0.0
 10
193.5451315318138
 20
168.4109042391873
 30
0.0
 10
193.5774976141703
 20
168.299080900985
 30
0.0
 10
193.6019141847586
 20
168.1803944343928
 30
0.0
 10
193.6164934788627
 20
168.0544196138131
 30
0.0
 10
193.6200143000686
 20
167.9679425944209
 30
0.0
 10
193.6218181818182
 20
167.9236363635959
 30
0.0
  0
SPLINE
  5
1B6
330
1F
100
AcDbEntity
  8
0
  6
Continuous
 62
     7
370
    25
100
AcDbSpline
210
0.0
220
0.0
230
1.0
 70
     8
 71
     3
 72
    15
 73
    11
 74
     0
 42
0.000000001
 43
0.00000001
 40
0.0
 40
0.0
 40
0.0
 40
0.0
 40
0.1242932805988097
 40
0.2441976065026626
 40
0.3621020961546613
 40
0.4804622735820421
 40
0.6015356061300534
 40
0.7271826864019549
 40
0.8593297437366231
 40
1.0
 40
1.0
 40
1.0
 40
1.0
 10
187.5763636363637
 20
169.105454545414
 30
0.0
 10
187.6226435945975
 20
169.103864499542
 30
0.0
 10
187.7135693065532
 20
169.1007405543512
 30
0.0
 10
187.846418280462
 20
169.0746295820083
 30
0.0
 10
187.9717765942704
 20
169.030555207195
 30
0.0
 10
188.0910089466008
 20
168.9707169823059
 30
0.0
 10
188.202428491865
 20
168.89216955285
 30
0.0
 10
188.3065797516745
 20
168.7967056397693
 30
0.0
 10
188.4039718644049
 20
168.6843461278386
 30
0.0
 10
188.4605454149378
 20
168.5999600650146
 30
0.0
 10
188.4897159090909
 20
168.5564488635958
 30
0.0
  0
SPLINE
  5
1B7
330
1F
100
AcDbEntity
  8
0
  6
Continuous
 62
     7
370
    25
100
AcDbSpline
210
0.0
220
0.0
230
1.0
 70
     8
 71
     3
 72
    15
 73
    11
 74
     0
 42
0.000000001
 43
0.00000001
 40
0.0
 40
0.0
 40
0.0
 40
0.0
 40
0.1394697222340732
 40
0.2714440392482553
 40
0.3970670061204193
 40
0.51826643510855
 40
0.6366686768362164
 40
0.7547356293976168
 40
0.8750956945676509
 40
1.0
 40
1.0
 40
1.0
 40
1.0
 10
186.6651420454546
 20
168.5706534090504
 30
0.0
 10
186.6942905259415
 20
168.613025054634
 30
0.0
 10
186.7510209843851
 20
168.6954912017129
 30
0.0
 10
186.8492625949567
 20
168.8044035172454
 30
0.0
 10
186.953112873927
 20
168.8980664030778
 30
0.0
 10
187.064721595346
 20
168.9740216301262
 30
0.0
 10
187.1830891086571
 20
169.0328195745452
 30
0.0
 10
187.3079086151738
 20
169.0752030630933
 30
0.0
 10
187.4399197072403
 20
169.1006052841893
 30
0.0
 10
187.5303239920042
 20
169.1038182816123
 30
0.0
 10
187.5763636363637
 20
169.105454545414
 30
0.0
  0
SPLINE
  5
1B8
330
1F
100
AcDbEntity
  8
0
  6
Continuous
 62
     7
370
    25
100
AcDbSpline
210
0.0
220
0.0
230
1.0
 70
     8
 71
     3
 72
    15
 73
    11
 74
     0
 42
0.000000001
 43
0.00000001
 40
0.0
 40
0.0
 40
0.0
 40
0.0
 40
0.1432681464111842
 40
0.2804711964080589
 40
0.411550242689976
 40
0.5374730003684051
 40
0.6585546162302278
 40
0.7751958344968026
 40
0.8890505039341897
 40
1.0
 40
1.0
 40
1.0
 40
1.0
 10
186.3490909090909
 20
167.3135511363231
 30
0.0
 10
186.35001235231
 20
167.3763167666613
 30
0.0
 10
186.3518162304823
 20
167.4991909147203
 30
0.0
 10
186.3668758371894
 20
167.6790033013268
 30
0.0
 10
186.391847757747
 20
167.8499444852843
 30
0.0
 10
186.4251909578753
 20
168.0123281760452
 30
0.0
 10
186.4703362880992
 20
168.1652697347709
 30
0.0
 10
186.5241473955098
 20
168.3096971061238
 30
0.0
 10
186.5884042086738
 20
168.445092579568
 30
0.0
 10
186.6397840961765
 20
168.5291619456615
 30
0.0
 10
186.6651420454546
 20
168.5706534090504
 30
0.0
  0
SPLINE
  5
1B9
330
1F
100
AcDbEntity
  8
0
  6
Continuous
 62
     7
370
    25
100
AcDbSpline
210
0.0
220
0.0
230
1.0
 70
     8
 71
     3
 72
    31
 73
    27
 74
     0
 42
0.000000001
 43
0.00000001
 40
0.0
 40
0.0
 40
0.0
 40
0.0
 40
0.0346106073731405
 40
0.0688507703645527
 40
0.1026440893565838
 40
0.1362986261647411
 40
0.1702567235791166
 40
0.2045933114684091
 40
0.2394215822067719
 40
0.2751925605013177
 40
0.3116260095862323
 40
0.3485127347950802
 40
0.3862828791584565
 40
0.4249662291362312
 40
0.4648734148785783
 40
0.5058382372382696
 40
0.548431022659545
 40
0.59279745062205
 40
0.6384150381181913
 40
0.685599289184363
 40
0.7338596464824882
 40
0.7836888862914249
 40
0.8349554106805397
 40
0.8882586071008145
 40
0.9431367460011159
 40
0.9999999999999999
 40
0.9999999999999999
 40
0.9999999999999999
 40
0.9999999999999999
 10
187.5742329545455
 20
165.5145454545049
 30
0.0
 10
187.5462666442633
 20
165.5152676546202
 30
0.0
 10
187.4906333528155
 20
165.5167043249957
 30
0.0
 10
187.408237572338
 20
165.5270143830369
 30
0.0
 10
187.3275587023016
 20
165.5430143141903
 30
0.0
 10
187.2491129906747
 20
165.566988520634
 30
0.0
 10
187.1721413828469
 20
165.5965425862322
 30
0.0
 10
187.0975046586268
 20
165.6338218367259
 30
0.0
 10
187.0247579184877
 20
165.6774800763931
 30
0.0
 10
186.9538345534041
 20
165.7270557356537
 30
0.0
 10
186.8854946277371
 20
165.7829081233824
 30
0.0
 10
186.8217585466622
 20
165.846199650899
 30
0.0
 10
186.7601340319528
 20
165.9140394971334
 30
0.0
 10
186.7037418310072
 20
165.9893651944644
 30
0.0
 10
186.6494421473271
 20
166.0692977114981
 30
0.0
 10
186.5997304779614
 20
166.1558713356724
 30
0.0
 10
186.553546037991
 20
166.2483785607669
 30
0.0
 10
186.511213408791
 20
166.346818006824
 30
0.0
 10
186.4726209960495
 20
166.4507521442117
 30
0.0
 10
186.4394070303278
 20
166.5598366962834
 30
0.0
 10
186.4117396321067
 20
166.6739546010018
 30
0.0
 10
186.3894147456743
 20
166.7925621662593
 30
0.0
 10
186.3704506501286
 20
166.9158867008692
 30
0.0
 10
186.3579549585023
 20
167.0441542039364
 30
0.0
 10
186.3510264705691
 20
167.1773469130152
 30
0.0
 10
186.3497436925461
 20
167.2676151820765
 30
0.0
 10
186.3490909090909
 20
167.3135511363231
 30
0.0
  0
SPLINE
  5
1BA
330
1F
100
AcDbEntity
  8
0
  6
Continuous
 62
     7
370
    25
100
AcDbSpline
210
0.0
220
0.0
230
1.0
 70
     8
 71
     3
 72
    23
 73
    19
 74
     0
 42
0.000000001
 43
0.00000001
 40
0.0
 40
0.0
 40
0.0
 40
0.0
 40
0.0871129335663631
 40
0.1695750657123377
 40
0.247125494884861
 40
0.3203519332033725
 40
0.3899979855710966
 40
0.4559088171547077
 40
0.5190233411238216
 40
0.5798445404000914
 40
0.6380622781156962
 40
0.6933405345429068
 40
0.7460800388807993
 40
0.7971995082749449
 40
0.8473425891371631
 40
0.8973371953428839
 40
0.9479010371482658
 40
0.9999999999999999
 40
0.9999999999999999
 40
0.9999999999999999
 40
0.9999999999999999
 10
188.8036363636364
 20
167.3561647726868
 30
0.0
 10
188.8025302477176
 20
167.2844023980683
 30
0.0
 10
188.8003770694013
 20
167.1447089117696
 30
0.0
 10
188.7841875744196
 20
166.941617896633
 30
0.0
 10
188.7565781845188
 20
166.7513633121307
 30
0.0
 10
188.7186274026891
 20
166.5736297963369
 30
0.0
 10
188.6690914885798
 20
166.4087352001195
 30
0.0
 10
188.6088904478264
 20
166.2563005033519
 30
0.0
 10
188.53692800737
 20
166.1171635454878
 30
0.0
 10
188.4547975574662
 20
165.9912328596689
 30
0.0
 10
188.3635227246627
 20
165.8801154371009
 30
0.0
 10
188.2679680223429
 20
165.7817235641526
 30
0.0
 10
188.1656091121661
 20
165.6992352044184
 30
0.0
 10
188.0576071670207
 20
165.6322293868266
 30
0.0
 10
187.9447582337573
 20
165.578486660307
 30
0.0
 10
187.8257437428234
 20
165.542184458129
 30
0.0
 10
187.7018688287486
 20
165.5180226404792
 30
0.0
 10
187.6172002634338
 20
165.5157160135249
 30
0.0
 10
187.5742329545455
 20
165.5145454545049
 30
0.0
  0
SPLINE
  5
1BB
330
1F
100
AcDbEntity
  8
0
  6
Continuous
 62
     7
370
    25
100
AcDbSpline
210
0.0
220
0.0
230
1.0
 70
     8
 71
     3
 72
    15
 73
    11
 74
     0
 42
0.000000001
 43
0.00000001
 40
0.0
 40
0.0
 40
0.0
 40
0.0
 40
0.1174320155698736
 40
0.2349305867975003
 40
0.3547353147139759
 40
0.4764229971975756
 40
0.6014157797204307
 40
0.7299590806802116
 40
0.8626746788056003
 40
1.0
 40
1.0
 40
1.0
 40
1.0
 10
188.4897159090909
 20
168.5564488635958
 30
0.0
 10
188.5150941190461
 20
168.5142483553657
 30
0.0
 10
188.5658649222866
 20
168.4298234213854
 30
0.0
 10
188.6288025078189
 20
168.2948554018086
 30
0.0
 10
188.6826002458369
 20
168.1542721109917
 30
0.0
 10
188.7279572505907
 20
168.007367224052
 30
0.0
 10
188.7616639868944
 20
167.8535924823908
 30
0.0
 10
188.7854374215813
 20
167.6933974891734
 30
0.0
 10
188.8009538534789
 20
167.5269234217665
 30
0.0
 10
188.8027320752287
 20
167.4137284193503
 30
0.0
 10
188.8036363636364
 20
167.3561647726868
 30
0.0
  0
SPLINE
  5
1BC
330
1F
100
AcDbEntity
  8
0
  6
Continuous
 62
     7
370
    25
100
AcDbSpline
210
0.0
220
0.0
230
1.0
 70
     8
 71
     3
 72
    15
 73
    11
 74
     0
 42
0.000000001
 43
0.00000001
 40
0.0
 40
0.0
 40
0.0
 40
0.0
 40
0.1242932805988097
 40
0.2441976065026626
 40
0.3621020961546613
 40
0.4804622735820421
 40
0.6015356061300534
 40
0.7271826864019549
 40
0.8593297437366231
 40
1.0
 40
1.0
 40
1.0
 40
1.0
 10
182.3490909090909
 20
169.105454545414
 30
0.0
 10
182.3953708673248
 20
169.103864499542
 30
0.0
 10
182.4862965792805
 20
169.1007405543512
 30
0.0
 10
182.6191455531893
 20
169.0746295820083
 30
0.0
 10
182.7445038669977
 20
169.030555207195
 30
0.0
 10
182.8637362193281
 20
168.9707169823059
 30
0.0
 10
182.9751557645923
 20
168.89216955285
 30
0.0
 10
183.0793070244018
 20
168.7967056397693
 30
0.0
 10
183.1766991371321
 20
168.6843461278386
 30
0.0
 10
183.233272687665
 20
168.5999600650146
 30
0.0
 10
183.2624431818182
 20
168.5564488635958
 30
0.0
  0
SPLINE
  5
1BD
330
1F
100
AcDbEntity
  8
0
  6
Continuous
 62
     7
370
    25
100
AcDbSpline
210
0.0
220
0.0
230
1.0
 70
     8
 71
     3
 72
    15
 73
    11
 74
     0
 42
0.000000001
 43
0.00000001
 40
0.0
 40
0.0
 40
0.0
 40
0.0
 40
0.1394697222340732
 40
0.2714440392482553
 40
0.3970670061204193
 40
0.51826643510855
 40
0.6366686768362164
 40
0.7547356293976168
 40
0.8750956945676509
 40
1.0
 40
1.0
 40
1.0
 40
1.0
 10
181.4378693181818
 20
168.5706534090504
 30
0.0
 10
181.4670177986688
 20
168.613025054634
 30
0.0
 10
181.5237482571123
 20
168.6954912017129
 30
0.0
 10
181.621989867684
 20
168.8044035172454
 30
0.0
 10
181.7258401466542
 20
168.8980664030778
 30
0.0
 10
181.8374488680733
 20
168.9740216301262
 30
0.0
 10
181.9558163813844
 20
169.0328195745452
 30
0.0
 10
182.0806358879011
 20
169.0752030630933
 30
0.0
 10
182.2126469799675
 20
169.1006052841893
 30
0.0
 10
182.3030512647315
 20
169.1038182816123
 30
0.0
 10
182.3490909090909
 20
169.105454545414
 30
0.0
  0
SPLINE
  5
1BE
330
1F
100
AcDbEntity
  8
0
  6
Continuous
 62
     7
370
    25
100
AcDbSpline
210
0.0
220
0.0
230
1.0
 70
     8
 71
     3
 72
    15
 73
    11
 74
     0
 42
0.000000001
 43
0.00000001
 40
0.0
 40
0.0
 40
0.0
 40
0.0
 40
0.1432681464111842
 40
0.2804711964080589
 40
0.411550242689976
 40
0.5374730003684051
 40
0.6585546162302278
 40
0.7751958344968026
 40
0.8890505039341897
 40
1.0
 40
1.0
 40
1.0
 40
1.0
 10
181.1218181818182
 20
167.3135511363231
 30
0.0
 10
181.1227396250373
 20
167.3763167666613
 30
0.0
 10
181.1245435032095
 20
167.4991909147203
 30
0.0
 10
181.1396031099167
 20
167.6790033013268
 30
0.0
 10
181.1645750304743
 20
167.8499444852843
 30
0.0
 10
181.1979182306026
 20
168.0123281760452
 30
0.0
 10
181.2430635608265
 20
168.1652697347709
 30
0.0
 10
181.296874668237
 20
168.3096971061238
 30
0.0
 10
181.361131481401
 20
168.445092579568
 30
0.0
 10
181.4125113689038
 20
168.5291619456615
 30
0.0
 10
181.4378693181818
 20
168.5706534090504
 30
0.0
  0
SPLINE
  5
1BF
330
1F
100
AcDbEntity
  8
0
  6
Continuous
 62
     7
370
    25
100
AcDbSpline
210
0.0
220
0.0
230
1.0
 70
     8
 71
     3
 72
    31
 73
    27
 74
     0
 42
0.000000001
 43
0.00000001
 40
0.0
 40
0.0
 40
0.0
 40
0.0
 40
0.0346106073731405
 40
0.0688507703645527
 40
0.1026440893565838
 40
0.1362986261647411
 40
0.1702567235791166
 40
0.2045933114684091
 40
0.2394215822067719
 40
0.2751925605013177
 40
0.3116260095862323
 40
0.3485127347950802
 40
0.3862828791584565
 40
0.4249662291362312
 40
0.4648734148785783
 40
0.5058382372382696
 40
0.548431022659545
 40
0.59279745062205
 40
0.6384150381181913
 40
0.685599289184363
 40
0.7338596464824882
 40
0.7836888862914249
 40
0.8349554106805397
 40
0.8882586071008145
 40
0.9431367460011159
 40
0.9999999999999999
 40
0.9999999999999999
 40
0.9999999999999999
 40
0.9999999999999999
 10
182.3469602272727
 20
165.5145454545049
 30
0.0
 10
182.3189939169906
 20
165.5152676546202
 30
0.0
 10
182.2633606255428
 20
165.5167043249957
 30
0.0
 10
182.1809648450653
 20
165.5270143830369
 30
0.0
 10
182.1002859750288
 20
165.5430143141903
 30
0.0
 10
182.0218402634019
 20
165.566988520634
 30
0.0
 10
181.9448686555741
 20
165.5965425862322
 30
0.0
 10
181.8702319313541
 20
165.6338218367259
 30
0.0
 10
181.7974851912149
 20
165.6774800763931
 30
0.0
 10
181.7265618261313
 20
165.7270557356537
 30
0.0
 10
181.6582219004644
 20
165.7829081233824
 30
0.0
 10
181.5944858193895
 20
165.846199650899
 30
0.0
 10
181.53286130468
 20
165.9140394971334
 30
0.0
 10
181.4764691037345
 20
165.9893651944644
 30
0.0
 10
181.4221694200543
 20
166.0692977114981
 30
0.0
 10
181.3724577506887
 20
166.1558713356724
 30
0.0
 10
181.3262733107182
 20
166.2483785607669
 30
0.0
 10
181.2839406815183
 20
166.346818006824
 30
0.0
 10
181.2453482687768
 20
166.4507521442117
 30
0.0
 10
181.2121343030551
 20
166.5598366962834
 30
0.0
 10
181.184466904834
 20
166.6739546010018
 30
0.0
 10
181.1621420184016
 20
166.7925621662593
 30
0.0
 10
181.1431779228558
 20
166.9158867008692
 30
0.0
 10
181.1306822312296
 20
167.0441542039364
 30
0.0
 10
181.1237537432963
 20
167.1773469130152
 30
0.0
 10
181.1224709652734
 20
167.2676151820765
 30
0.0
 10
181.1218181818182
 20
167.3135511363231
 30
0.0
  0
SPLINE
  5
1C0
330
1F
100
AcDbEntity
  8
0
  6
Continuous
 62
     7
370
    25
100
AcDbSpline
210
0.0
220
0.0
230
1.0
 70
     8
 71
     3
 72
    23
 73
    19
 74
     0
 42
0.000000001
 43
0.00000001
 40
0.0
 40
0.0
 40
0.0
 40
0.0
 40
0.0871129335663631
 40
0.1695750657123377
 40
0.247125494884861
 40
0.3203519332033725
 40
0.3899979855710966
 40
0.4559088171547077
 40
0.5190233411238216
 40
0.5798445404000914
 40
0.6380622781156962
 40
0.6933405345429068
 40
0.7460800388807993
 40
0.7971995082749449
 40
0.8473425891371631
 40
0.8973371953428839
 40
0.9479010371482658
 40
0.9999999999999999
 40
0.9999999999999999
 40
0.9999999999999999
 40
0.9999999999999999
 10
183.5763636363637
 20
167.3561647726868
 30
0.0
 10
183.5752575204448
 20
167.2844023980683
 30
0.0
 10
183.5731043421287
 20
167.1447089117696
 30
0.0
 10
183.5569148471469
 20
166.941617896633
 30
0.0
 10
183.5293054572462
 20
166.7513633121307
 30
0.0
 10
183.4913546754163
 20
166.5736297963369
 30
0.0
 10
183.441818761307
 20
166.4087352001195
 30
0.0
 10
183.3816177205536
 20
166.2563005033519
 30
0.0
 10
183.3096552800973
 20
166.1171635454878
 30
0.0
 10
183.2275248301934
 20
165.9912328596689
 30
0.0
 10
183.13624999739
 20
165.8801154371009
 30
0.0
 10
183.0406952950702
 20
165.7817235641526
 30
0.0
 10
182.9383363848933
 20
165.6992352044184
 30
0.0
 10
182.830334439748
 20
165.6322293868266
 30
0.0
 10
182.7174855064846
 20
165.578486660307
 30
0.0
 10
182.5984710155507
 20
165.542184458129
 30
0.0
 10
182.4745961014758
 20
165.5180226404792
 30
0.0
 10
182.3899275361611
 20
165.5157160135249
 30
0.0
 10
182.3469602272727
 20
165.5145454545049
 30
0.0
  0
SPLINE
  5
1C1
330
1F
100
AcDbEntity
  8
0
  6
Continuous
 62
     7
370
    25
100
AcDbSpline
210
0.0
220
0.0
230
1.0
 70
     8
 71
     3
 72
    15
 73
    11
 74
     0
 42
0.000000001
 43
0.00000001
 40
0.0
 40
0.0
 40
0.0
 40
0.0
 40
0.1174320155698736
 40
0.2349305867975003
 40
0.3547353147139759
 40
0.4764229971975756
 40
0.6014157797204307
 40
0.7299590806802116
 40
0.8626746788056003
 40
1.0
 40
1.0
 40
1.0
 40
1.0
 10
183.2624431818182
 20
168.5564488635958
 30
0.0
 10
183.2878213917733
 20
168.5142483553657
 30
0.0
 10
183.3385921950139
 20
168.4298234213854
 30
0.0
 10
183.4015297805461
 20
168.2948554018086
 30
0.0
 10
183.4553275185642
 20
168.1542721109917
 30
0.0
 10
183.500684523318
 20
168.007367224052
 30
0.0
 10
183.5343912596217
 20
167.8535924823908
 30
0.0
 10
183.5581646943086
 20
167.6933974891734
 30
0.0
 10
183.5736811262063
 20
167.5269234217665
 30
0.0
 10
183.575459347956
 20
167.4137284193503
 30
0.0
 10
183.5763636363637
 20
167.3561647726868
 30
0.0
  0
LINE
  5
1C2
330
1F
100
AcDbEntity
  8
0
  6
Continuous
 62
     7
370
    25
100
AcDbLine
 10
177.7404261364
 20
168.0145454545
 30
0.0
 11
178.0152840909
 21
169.06
 31
0.0
  0
LINE
  5
1C3
330
1F
100
AcDbEntity
  8
0
  6
Continuous
 62
     7
370
    25
100
AcDbLine
 10
176.6395738636
 20
168.0145454545
 30
0.0
 11
177.7404261364
 21
168.0145454545
 31
0.0
  0
LINE
  5
1C4
330
1F
100
AcDbEntity
  8
0
  6
Continuous
 62
     7
370
    25
100
AcDbLine
 10
176.3640056818
 20
169.06
 30
0.0
 11
176.6395738636
 21
168.0145454545
 31
0.0
  0
LINE
  5
1C5
330
1F
100
AcDbEntity
  8
0
  6
Continuous
 62
     7
370
    25
100
AcDbLine
 10
176.0309090909
 20
169.06
 30
0.0
 11
176.3640056818
 21
169.06
 31
0.0
  0
LINE
  5
1C6
330
1F
100
AcDbEntity
  8
0
  6
Continuous
 62
     7
370
    25
100
AcDbLine
 10
177.0465340909
 20
165.56
 30
0.0
 11
176.0309090909
 21
169.06
 31
0.0
  0
LINE
  5
1C7
330
1F
100
AcDbEntity
  8
0
  6
Continuous
 62
     7
370
    25
100
AcDbLine
 10
177.3810511364
 20
165.56
 30
0.0
 11
177.0465340909
 21
165.56
 31
0.0
  0
LINE
  5
1C8
330
1F
100
AcDbEntity
  8
0
  6
Continuous
 62
     7
370
    25
100
AcDbLine
 10
178.3490909091
 20
169.06
 30
0.0
 11
177.3810511364
 21
165.56
 31
0.0
  0
LINE
  5
1C9
330
1F
100
AcDbEntity
  8
0
  6
Continuous
 62
     7
370
    25
100
AcDbLine
 10
178.0152840909
 20
169.06
 30
0.0
 11
178.3490909091
 21
169.06
 31
0.0
  0
LINE
  5
1CA
330
1F
100
AcDbEntity
  8
0
  6
Continuous
 62
     7
370
    25
100
AcDbLine
 10
172.4854545455
 20
168.56
 30
0.0
 11
172.4854545455
 21
169.06
 31
0.0
  0
LINE
  5
1CB
330
1F
100
AcDbEntity
  8
0
  6
Continuous
 62
     7
370
    25
100
AcDbLine
 10
172.8036363636
 20
168.56
 30
0.0
 11
172.4854545455
 21
168.56
 31
0.0
  0
LINE
  5
1CC
330
1F
100
AcDbEntity
  8
0
  6
Continuous
 62
     7
370
    25
100
AcDbLine
 10
172.8036363636
 20
169.06
 30
0.0
 11
172.8036363636
 21
168.56
 31
0.0
  0
LINE
  5
1CD
330
1F
100
AcDbEntity
  8
0
  6
Continuous
 62
     7
370
    25
100
AcDbLine
 10
172.4854545455
 20
169.06
 30
0.0
 11
172.8036363636
 21
169.06
 31
0.0
  0
LINE
  5
1CE
330
1F
100
AcDbEntity
  8
0
  6
Continuous
 62
     7
370
    25
100
AcDbLine
 10
170.3036363636
 20
168.56
 30
0.0
 11
170.3036363636
 21
169.06
 31
0.0
  0
LINE
  5
1CF
330
1F
100
AcDbEntity
  8
0
  6
Continuous
 62
     7
370
    25
100
AcDbLine
 10
170.6218181818
 20
168.56
 30
0.0
 11
170.3036363636
 21
168.56
 31
0.0
  0
LINE
  5
1D0
330
1F
100
AcDbEntity
  8
0
  6
Continuous
 62
     7
370
    25
100
AcDbLine
 10
170.6218181818
 20
169.06
 30
0.0
 11
170.6218181818
 21
168.56
 31
0.0
  0
LINE
  5
1D1
330
1F
100
AcDbEntity
  8
0
  6
Continuous
 62
     7
370
    25
100
AcDbLine
 10
170.3036363636
 20
169.06
 30
0.0
 11
170.6218181818
 21
169.06
 31
0.0
  0
SPLINE
  5
1D2
330
1F
100
AcDbEntity
  8
0
  6
Continuous
 62
     7
370
    25
100
AcDbSpline
210
0.0
220
0.0
230
1.0
 70
     8
 71
     3
 72
    19
 73
    15
 74
     0
 42
0.000000001
 43
0.00000001
 40
0.0
 40
0.0
 40
0.0
 40
0.0
 40
0.0886619328966461
 40
0.1748887269201075
 40
0.2591738099539858
 40
0.343006870624876
 40
0.4254833967761628
 40
0.5048291987789573
 40
0.581974595832819
 40
0.6598298721495326
 40
0.739221802174728
 40
0.8211192259217946
 40
0.9077844165653726
 40
1.0
 40
1.0
 40
1.0
 40
1.0
 10
191.5763636363637
 20
168.0905397726868
 30
0.0
 10
191.5778456222327
 20
168.1377431686963
 30
0.0
 10
191.5807688905788
 20
168.2308534987409
 30
0.0
 10
191.6045126434828
 20
168.3672515626837
 30
0.0
 10
191.6448645378443
 20
168.4967624679823
 30
0.0
 10
191.6991516304083
 20
168.61894876049
 30
0.0
 10
191.7676478291587
 20
168.7307536770343
 30
0.0
 10
191.8481794856515
 20
168.8297141208697
 30
0.0
 10
191.9405547672653
 20
168.9141819872525
 30
0.0
 10
192.0442767672412
 20
168.9842375275816
 30
0.0
 10
192.1595121103009
 20
169.0394995029718
 30
0.0
 10
192.2863237055374
 20
169.0773294980784
 30
0.0
 10
192.4234615126667
 20
169.101403000961
 30
0.0
 10
192.5187291084037
 20
169.1040763803255
 30
0.0
 10
192.5678409090909
 20
169.105454545414
 30
0.0
  0
SPLINE
  5
1D3
330
1F
100
AcDbEntity
  8
0
  6
Continuous
 62
     7
370
    25
100
AcDbSpline
210
0.0
220
0.0
230
1.0
 70
     8
 71
     3
 72
    15
 73
    11
 74
     0
 42
0.000000001
 43
0.00000001
 40
0.0
 40
0.0
 40
0.0
 40
0.0
 40
0.1358591900611207
 40
0.265838184499845
 40
0.393680432860755
 40
0.5207812248526654
 40
0.6453735379026119
 40
0.7646193444758975
 40
0.881609760003851
 40
1.0
 40
1.0
 40
1.0
 40
1.0
 10
186.8022159090909
 20
166.511704545414
 30
0.0
 10
186.820386007385
 20
166.4686899443189
 30
0.0
 10
186.8559397740496
 20
166.3845224805133
 30
0.0
 10
186.9297311367119
 20
166.270726073663
 30
0.0
 10
187.0139572137965
 20
166.1685034120469
 30
0.0
 10
187.1123092296162
 20
166.0824466984659
 30
0.0
 10
187.2185857612246
 20
166.0114571166137
 30
0.0
 10
187.3324095346996
 20
165.9616806540178
 30
0.0
 10
187.4504932697346
 20
165.9289604012251
 30
0.0
 10
187.5314055415029
 20
165.9254180649756
 30
0.0
 10
187.5721022727273
 20
165.9236363635958
 30
0.0
  0
SPLINE
  5
1D4
330
1F
100
AcDbEntity
  8
0
  6
Continuous
 62
     7
370
    25
100
AcDbSpline
210
0.0
220
0.0
230
1.0
 70
     8
 71
     3
 72
    11
 73
     7
 74
     0
 42
0.000000001
 43
0.00000001
 40
0.0
 40
0.0
 40
0.0
 40
0.0
 40
0.2669168647866181
 40
0.5215207175380618
 40
0.7647891370300748
 40
1.0
 40
1.0
 40
1.0
 40
1.0
 10
186.6672727272727
 20
167.3028977272322
 30
0.0
 10
186.6687881512597
 20
167.2310731121716
 30
0.0
 10
186.6717490919469
 20
167.0907371884253
 30
0.0
 10
186.698352842364
 20
166.886479653045
 30
0.0
 10
186.7385855872364
 20
166.6930065065141
 30
0.0
 10
186.7812452637622
 20
166.5714562331758
 30
0.0
 10
186.8022159090909
 20
166.511704545414
 30
0.0
  0
SPLINE
  5
1D5
330
1F
100
AcDbEntity
  8
0
  6
Continuous
 62
     7
370
    25
100
AcDbSpline
210
0.0
220
0.0
230
1.0
 70
     8
 71
     3
 72
    23
 73
    19
 74
     0
 42
0.000000001
 43
0.00000001
 40
0.0
 40
0.0
 40
0.0
 40
0.0
 40
0.050918001982086
 40
0.1006167904141333
 40
0.1499276525903497
 40
0.1991718333808554
 40
0.2495259930923006
 40
0.3014493889625801
 40
0.3560342047157336
 40
0.4136288738645701
 40
0.4738344013366625
 40
0.5365596415325559
 40
0.6027689603453927
 40
0.6729018153132597
 40
0.7471021992056426
 40
0.8262232336927775
 40
0.9105471764055559
 40
1.0
 40
1.0
 40
1.0
 40
1.0
 10
187.5784943181819
 20
168.6963636363231
 30
0.0
 10
187.5469403012343
 20
168.6952354743527
 30
0.0
 10
187.4845878171159
 20
168.6930061638512
 30
0.0
 10
187.3928515709897
 20
168.6763173196236
 30
0.0
 10
187.3051750108694
 20
168.6483597432448
 30
0.0
 10
187.2209221194436
 20
168.6100215536869
 30
0.0
 10
187.142163014828
 20
168.5584903436325
 30
0.0
 10
187.0660476446836
 20
168.4978364729584
 30
0.0
 10
186.9942767323711
 20
168.4255300367541
 30
0.0
 10
186.926834826107
 20
168.3425051633806
 30
0.0
 10
186.8657624849748
 20
168.2485579018357
 30
0.0
 10
186.8123736009035
 20
168.1440417316512
 30
0.0
 10
186.7669003521873
 20
168.0292143002862
 30
0.0
 10
186.730257859161
 20
167.9038595146491
 30
0.0
 10
186.7021734904112
 20
167.7681904821594
 30
0.0
 10
186.6816540742256
 20
167.6223136189356
 30
0.0
 10
186.6697526112911
 20
167.4659749316815
 30
0.0
 10
186.6681154616618
 20
167.3583159513283
 30
0.0
 10
186.6672727272727
 20
167.3028977272322
 30
0.0
  0
SPLINE
  5
1D6
330
1F
100
AcDbEntity
  8
0
  6
Continuous
 62
     7
370
    25
100
AcDbSpline
210
0.0
220
0.0
230
1.0
 70
     8
 71
     3
 72
    23
 73
    19
 74
     0
 42
0.000000001
 43
0.00000001
 40
0.0
 40
0.0
 40
0.0
 40
0.0
 40
0.051070050450914
 40
0.1005660900124702
 40
0.1488296696138368
 40
0.1976155264965223
 40
0.2465699945136572
 40
0.2971331471789168
 40
0.349761712548973
 40
0.4053241194824213
 40
0.4637501237503583
 40
0.5256608702399896
 40
0.5916042736391893
 40
0.6623011091677755
 40
0.7382031055661142
 40
0.8196269972046516
 40
0.906566137671779
 40
1.0
 40
1.0
 40
1.0
 40
1.0
 10
187.5721022727273
 20
165.9236363635958
 30
0.0
 10
187.6046088779095
 20
165.9247380526489
 30
0.0
 10
187.6686202143757
 20
165.9269074760096
 30
0.0
 10
187.7620968891156
 20
165.9437573505708
 30
0.0
 10
187.8516372982686
 20
165.9706203869075
 30
0.0
 10
187.9359389148778
 20
166.0102642889667
 30
0.0
 10
188.016615972108
 20
166.0595829776071
 30
0.0
 10
188.0920105094104
 20
166.1206814067843
 30
0.0
 10
188.1634448774704
 20
166.1922992658156
 30
0.0
 10
188.2303205782309
 20
166.2747960667818
 30
0.0
 10
188.2909903962729
 20
166.36910062527
 30
0.0
 10
188.3435709144149
 20
166.4755787573952
 30
0.0
 10
188.3872668056551
 20
166.5942952636981
 30
0.0
 10
188.42323308924
 20
166.7247640878425
 30
0.0
 10
188.4515966671615
 20
166.8671628229979
 30
0.0
 10
188.4707952828115
 20
167.0214580215421
 30
0.0
 10
188.4831115381328
 20
167.1876412989131
 30
0.0
 10
188.4846550175704
 20
167.3024007721596
 30
0.0
 10
188.4854545454546
 20
167.3618465908686
 30
0.0
  0
SPLINE
  5
1D7
330
1F
100
AcDbEntity
  8
0
  6
Continuous
 62
     7
370
    25
100
AcDbSpline
210
0.0
220
0.0
230
1.0
 70
     8
 71
     3
 72
    23
 73
    19
 74
     0
 42
0.000000001
 43
0.00000001
 40
0.0
 40
0.0
 40
0.0
 40
0.0
 40
0.0857830521953997
 40
0.1670694454186707
 40
0.2438012276375975
 40
0.3163671090895906
 40
0.3854844221054511
 40
0.451750488781741
 40
0.5153949770372919
 40
0.5768805476262288
 40
0.6363810632650598
 40
0.6922654913508518
 40
0.7457104086400067
 40
0.7972333055607407
 40
0.8477955892414308
 40
0.8979127368709203
 40
0.9481372635049261
 40
1.0
 40
1.0
 40
1.0
 40
1.0
 10
188.4854545454546
 20
167.3618465908686
 30
0.0
 10
188.4846147171998
 20
167.4132432185321
 30
0.0
 10
188.4829790836197
 20
167.5133423157358
 30
0.0
 10
188.4709506622763
 20
167.6590244153079
 30
0.0
 10
188.4507146702599
 20
167.7957967771304
 30
0.0
 10
188.4214315932807
 20
167.923458662546
 30
0.0
 10
188.3847906192929
 20
168.0426674119065
 30
0.0
 10
188.3394751659253
 20
168.1531681978367
 30
0.0
 10
188.2853584440526
 20
168.2544846145482
 30
0.0
 10
188.2234116469432
 20
168.3463725411876
 30
0.0
 10
188.1556026958121
 20
168.4279519059483
 30
0.0
 10
188.0845586168022
 20
168.5002550756288
 30
0.0
 10
188.0085005085705
 20
168.5597428890549
 30
0.0
 10
187.9302131685909
 20
168.610609893942
 30
0.0
 10
187.847201892219
 20
168.6491600910176
 30
0.0
 10
187.760684651563
 20
168.6760017554856
 30
0.0
 10
187.6707846446828
 20
168.6931267204
 30
0.0
 10
187.6095851197151
 20
168.6952731828123
 30
0.0
 10
187.5784943181819
 20
168.6963636363231
 30
0.0
  0
LINE
  5
1D8
330
1F
100
AcDbEntity
  8
0
  6
Continuous
 62
     7
370
    25
100
AcDbLine
 10
179.7858806818
 20
165.9690909091
 30
0.0
 11
180.3490909091
 21
165.9690909091
 31
0.0
  0
SPLINE
  5
1D9
330
1F
100
AcDbEntity
  8
0
  6
Continuous
 62
     7
370
    25
100
AcDbSpline
210
0.0
220
0.0
230
1.0
 70
     8
 71
     3
 72
    15
 73
    11
 74
     0
 42
0.000000001
 43
0.00000001
 40
0.0
 40
0.0
 40
0.0
 40
0.0
 40
0.0901288015275073
 40
0.188704596982442
 40
0.2978271886832041
 40
0.4162253375982842
 40
0.5463143019173398
 40
0.6865899079084482
 40
0.8372008478997239
 40
0.9999999999999999
 40
0.9999999999999999
 40
0.9999999999999999
 40
0.9999999999999999
 10
179.3320454545455
 20
166.0386931817777
 30
0.0
 10
179.3447378001878
 20
166.0330134631762
 30
0.0
 10
179.3713120353781
 20
166.0211217150168
 30
0.0
 10
179.415157660262
 20
166.0072235171457
 30
0.0
 10
179.4639778518742
 20
165.9950570883418
 30
0.0
 10
179.5184593333751
 20
165.9863366052745
 30
0.0
 10
179.5778681590036
 20
165.9784062820394
 30
0.0
 10
179.6425503244874
 20
165.9726436571933
 30
0.0
 10
179.7124729716923
 20
165.9702369424898
 30
0.0
 10
179.7607851736736
 20
165.9694826974806
 30
0.0
 10
179.7858806818182
 20
165.9690909090504
 30
0.0
  0
SPLINE
  5
1DA
330
1F
100
AcDbEntity
  8
0
  6
Continuous
 62
     7
370
    25
100
AcDbSpline
210
0.0
220
0.0
230
1.0
 70
     8
 71
     3
 72
    23
 73
    19
 74
     0
 42
0.000000001
 43
0.00000001
 40
0.0
 40
0.0
 40
0.0
 40
0.0
 40
0.0926501324187904
 40
0.1803440764637877
 40
0.2632060708009765
 40
0.3408819097543554
 40
0.4144577048609531
 40
0.4838260401889174
 40
0.5485109684903481
 40
0.6100824229047587
 40
0.667822220019248
 40
0.7224490943685165
 40
0.7739764009907302
 40
0.8229932516797638
 40
0.8695486927613155
 40
0.914362467689007
 40
0.9576166174378854
 40
1.0
 40
1.0
 40
1.0
 40
1.0
 10
178.8490909090909
 20
167.2858522726868
 30
0.0
 10
178.8494732771285
 20
167.2425195248465
 30
0.0
 10
178.8502175589641
 20
167.1581720534951
 30
0.0
 10
178.8567427543886
 20
167.0352171585083
 30
0.0
 10
178.867031744849
 20
166.9195404695493
 30
0.0
 10
178.8823207385791
 20
166.8111030851179
 30
0.0
 10
178.9000099532054
 20
166.7093900185817
 30
0.0
 10
178.9237872211521
 20
166.6151850353723
 30
0.0
 10
178.9503407148957
 20
166.5275544913667
 30
0.0
 10
178.9825919882884
 20
166.4476842410142
 30
0.0
 10
179.0172979974925
 20
166.3740558629159
 30
0.0
 10
179.0550604163144
 20
166.3072868928551
 30
0.0
 10
179.0946918282225
 20
166.2464159381535
 30
0.0
 10
179.1373698395022
 20
166.1923232667439
 30
0.0
 10
179.1824539181604
 20
166.1445197380117
 30
0.0
 10
179.2290624362421
 20
166.1020289511344
 30
0.0
 10
179.2792638435259
 20
166.0670157740117
 30
0.0
 10
179.3145712534408
 20
166.0480698313899
 30
0.0
 10
179.3320454545455
 20
166.0386931817777
 30
0.0
  0
SPLINE
  5
1DB
330
1F
100
AcDbEntity
  8
0
  6
Continuous
 62
     7
370
    25
100
AcDbSpline
210
0.0
220
0.0
230
1.0
 70
     8
 71
     3
 72
    15
 73
    11
 74
     0
 42
0.000000001
 43
0.00000001
 40
0.0
 40
0.0
 40
0.0
 40
0.0
 40
0.1109282667870231
 40
0.224380289428313
 40
0.3432230346468798
 40
0.4651453263128063
 40
0.5921228794825504
 40
0.7226342829728966
 40
0.8593405828394338
 40
0.9999999999999999
 40
0.9999999999999999
 40
0.9999999999999999
 40
0.9999999999999999
 10
178.9762215909091
 20
168.1409659090504
 30
0.0
 10
178.9659328319397
 20
168.1105321264957
 30
0.0
 10
178.9451212319547
 20
168.0489721550311
 30
0.0
 10
178.9197752732615
 20
167.9528169722489
 30
0.0
 10
178.8977759061451
 20
167.8526160504623
 30
0.0
 10
178.8802002020528
 20
167.7475651320975
 30
0.0
 10
178.8659377666246
 20
167.6386168560866
 30
0.0
 10
178.8560046307715
 20
167.5248810004155
 30
0.0
 10
178.8504789585033
 20
167.4068835395143
 30
0.0
 10
178.8495579676608
 20
167.3265775450636
 30
0.0
 10
178.8490909090909
 20
167.2858522726868
 30
0.0
  0
SPLINE
  5
1DC
330
1F
100
AcDbEntity
  8
0
  6
Continuous
 62
     7
370
    25
100
AcDbSpline
210
0.0
220
0.0
230
1.0
 70
     8
 71
     3
 72
    23
 73
    19
 74
     0
 42
0.000000001
 43
0.00000001
 40
0.0
 40
0.0
 40
0.0
 40
0.0
 40
0.0813358770532294
 40
0.1580204213296496
 40
0.2302408174490496
 40
0.2976741432014611
 40
0.3611915332746027
 40
0.4204751070065271
 40
0.4768816708711239
 40
0.5306507777215588
 40
0.5832954809950173
 40
0.6364607207589387
 40
0.6915729541454197
 40
0.7480804393321616
 40
0.8067521618681913
 40
0.8681253328504842
 40
0.9325666742475827
 40
1.0
 40
1.0
 40
1.0
 40
1.0
 10
179.7766477272727
 20
168.6509090908686
 30
0.0
 10
179.748700717288
 20
168.6504792139455
 30
0.0
 10
179.694404895411
 20
168.6496440433547
 30
0.0
 10
179.6154822942092
 20
168.6438017273874
 30
0.0
 10
179.5416189880149
 20
168.6350699435153
 30
0.0
 10
179.4731079789084
 20
168.6213584364841
 30
0.0
 10
179.4099056721841
 20
168.6045490871422
 30
0.0
 10
179.351735670653
 20
168.5840714634019
 30
0.0
 10
179.2990715608443
 20
168.5590434331145
 30
0.0
 10
179.2507984999753
 20
168.5305723578013
 30
0.0
 10
179.207095254194
 20
168.4972906483377
 30
0.0
 10
179.1662058348968
 20
168.4599845843961
 30
0.0
 10
179.1279467312864
 20
168.4181344409995
 30
0.0
 10
179.0924754942709
 20
168.3715425027759
 30
0.0
 10
179.0587747716397
 20
168.3210412803624
 30
0.0
 10
179.0283074320918
 20
168.2653731821285
 30
0.0
 10
179.0007469919406
 20
168.204911287619
 30
0.0
 10
178.9845194485759
 20
168.1626010150017
 30
0.0
 10
178.9762215909091
 20
168.1409659090504
 30
0.0
  0
LINE
  5
1DD
330
1F
100
AcDbEntity
  8
0
  6
Continuous
 62
     7
370
    25
100
AcDbLine
 10
180.3490909091
 20
168.6509090909
 30
0.0
 11
179.7766477273
 21
168.6509090909
 31
0.0
  0
LINE
  5
1DE
330
1F
100
AcDbEntity
  8
0
  6
Continuous
 62
     7
370
    25
100
AcDbLine
 10
180.3490909091
 20
165.9690909091
 30
0.0
 11
180.3490909091
 21
168.6509090909
 31
0.0
  0
SPLINE
  5
1DF
330
1F
100
AcDbEntity
  8
0
  6
Continuous
 62
     7
370
    25
100
AcDbSpline
210
0.0
220
0.0
230
1.0
 70
     8
 71
     3
 72
    15
 73
    11
 74
     0
 42
0.000000001
 43
0.00000001
 40
0.0
 40
0.0
 40
0.0
 40
0.0
 40
0.1358591900611207
 40
0.265838184499845
 40
0.393680432860755
 40
0.5207812248526654
 40
0.6453735379026119
 40
0.7646193444758975
 40
0.881609760003851
 40
1.0
 40
1.0
 40
1.0
 40
1.0
 10
181.5749431818182
 20
166.511704545414
 30
0.0
 10
181.5931132801122
 20
166.4686899443189
 30
0.0
 10
181.6286670467769
 20
166.3845224805133
 30
0.0
 10
181.7024584094392
 20
166.270726073663
 30
0.0
 10
181.7866844865238
 20
166.1685034120469
 30
0.0
 10
181.8850365023435
 20
166.0824466984659
 30
0.0
 10
181.9913130339519
 20
166.0114571166137
 30
0.0
 10
182.1051368074268
 20
165.9616806540178
 30
0.0
 10
182.2232205424619
 20
165.9289604012251
 30
0.0
 10
182.3041328142302
 20
165.9254180649756
 30
0.0
 10
182.3448295454546
 20
165.9236363635958
 30
0.0
  0
SPLINE
  5
1E0
330
1F
100
AcDbEntity
  8
0
  6
Continuous
 62
     7
370
    25
100
AcDbSpline
210
0.0
220
0.0
230
1.0
 70
     8
 71
     3
 72
    11
 73
     7
 74
     0
 42
0.000000001
 43
0.00000001
 40
0.0
 40
0.0
 40
0.0
 40
0.0
 40
0.2669168647866176
 40
0.5215207175380588
 40
0.764789137030075
 40
0.9999999999999999
 40
0.9999999999999999
 40
0.9999999999999999
 40
0.9999999999999999
 10
181.44
 20
167.3028977272322
 30
0.0
 10
181.4415154239869
 20
167.2310731121716
 30
0.0
 10
181.4444763646742
 20
167.0907371884253
 30
0.0
 10
181.4710801150912
 20
166.886479653045
 30
0.0
 10
181.5113128599637
 20
166.6930065065141
 30
0.0
 10
181.5539725364895
 20
166.5714562331758
 30
0.0
 10
181.5749431818182
 20
166.511704545414
 30
0.0
  0
SPLINE
  5
1E1
330
1F
100
AcDbEntity
  8
0
  6
Continuous
 62
     7
370
    25
100
AcDbSpline
210
0.0
220
0.0
230
1.0
 70
     8
 71
     3
 72
    23
 73
    19
 74
     0
 42
0.000000001
 43
0.00000001
 40
0.0
 40
0.0
 40
0.0
 40
0.0
 40
0.051070050450914
 40
0.1005660900124701
 40
0.1488296696138367
 40
0.1976155264965222
 40
0.2465699945136571
 40
0.2971331471789223
 40
0.3497617125489734
 40
0.4053241194824216
 40
0.4637501237503586
 40
0.52566087023999
 40
0.5916042736391897
 40
0.6623011091677758
 40
0.7382031055661145
 40
0.8196269972046518
 40
0.906566137671779
 40
1.0
 40
1.0
 40
1.0
 40
1.0
 10
182.3448295454546
 20
165.9236363635958
 30
0.0
 10
182.3773361506368
 20
165.9247380526489
 30
0.0
 10
182.4413474871029
 20
165.9269074760095
 30
0.0
 10
182.5348241618428
 20
165.9437573505708
 30
0.0
 10
182.6243645709959
 20
165.9706203869075
 30
0.0
 10
182.7086661876051
 20
166.0102642889667
 30
0.0
 10
182.7893432448352
 20
166.0595829776071
 30
0.0
 10
182.8647377821378
 20
166.1206814067843
 30
0.0
 10
182.9361721501976
 20
166.1922992658156
 30
0.0
 10
183.0030478509582
 20
166.2747960667818
 30
0.0
 10
183.0637176690001
 20
166.36910062527
 30
0.0
 10
183.1162981871421
 20
166.4755787573952
 30
0.0
 10
183.1599940783824
 20
166.5942952636981
 30
0.0
 10
183.1959603619673
 20
166.7247640878425
 30
0.0
 10
183.2243239398888
 20
166.8671628229979
 30
0.0
 10
183.2435225555388
 20
167.0214580215421
 30
0.0
 10
183.25583881086
 20
167.1876412989131
 30
0.0
 10
183.2573822902977
 20
167.3024007721596
 30
0.0
 10
183.2581818181818
 20
167.3618465908686
 30
0.0
  0
SPLINE
  5
1E2
330
1F
100
AcDbEntity
  8
0
  6
Continuous
 62
     7
370
    25
100
AcDbSpline
210
0.0
220
0.0
230
1.0
 70
     8
 71
     3
 72
    23
 73
    19
 74
     0
 42
0.000000001
 43
0.00000001
 40
0.0
 40
0.0
 40
0.0
 40
0.0
 40
0.050918001982086
 40
0.1006167904141333
 40
0.1499276525903497
 40
0.1991718333808554
 40
0.2495259930923006
 40
0.3014493889625801
 40
0.3560342047157336
 40
0.4136288738645701
 40
0.4738344013366625
 40
0.5365596415325559
 40
0.6027689603453927
 40
0.6729018153132597
 40
0.7471021992056426
 40
0.8262232336927775
 40
0.9105471764055559
 40
1.0
 40
1.0
 40
1.0
 40
1.0
 10
182.3512215909091
 20
168.6963636363231
 30
0.0
 10
182.3196675739616
 20
168.6952354743527
 30
0.0
 10
182.2573150898431
 20
168.6930061638512
 30
0.0
 10
182.1655788437169
 20
168.6763173196236
 30
0.0
 10
182.0779022835966
 20
168.6483597432448
 30
0.0
 10
181.9936493921709
 20
168.6100215536869
 30
0.0
 10
181.9148902875552
 20
168.5584903436325
 30
0.0
 10
181.8387749174108
 20
168.4978364729584
 30
0.0
 10
181.7670040050983
 20
168.4255300367541
 30
0.0
 10
181.6995620988343
 20
168.3425051633806
 30
0.0
 10
181.638489757702
 20
168.2485579018357
 30
0.0
 10
181.5851008736307
 20
168.1440417316512
 30
0.0
 10
181.5396276249146
 20
168.0292143002862
 30
0.0
 10
181.5029851318882
 20
167.9038595146491
 30
0.0
 10
181.4749007631385
 20
167.7681904821594
 30
0.0
 10
181.4543813469529
 20
167.6223136189356
 30
0.0
 10
181.4424798840184
 20
167.4659749316815
 30
0.0
 10
181.4408427343891
 20
167.3583159513283
 30
0.0
 10
181.44
 20
167.3028977272322
 30
0.0
  0
SPLINE
  5
1E3
330
1F
100
AcDbEntity
  8
0
  6
Continuous
 62
     7
370
    25
100
AcDbSpline
210
0.0
220
0.0
230
1.0
 70
     8
 71
     3
 72
    23
 73
    19
 74
     0
 42
0.000000001
 43
0.00000001
 40
0.0
 40
0.0
 40
0.0
 40
0.0
 40
0.0857830521953997
 40
0.1670694454186707
 40
0.2438012276375975
 40
0.3163671090895906
 40
0.3854844221054511
 40
0.451750488781741
 40
0.5153949770372919
 40
0.5768805476262288
 40
0.6363810632650598
 40
0.6922654913508518
 40
0.7457104086400067
 40
0.7972333055607407
 40
0.8477955892414308
 40
0.8979127368709203
 40
0.9481372635049261
 40
1.0
 40
1.0
 40
1.0
 40
1.0
 10
183.2581818181818
 20
167.3618465908686
 30
0.0
 10
183.2573419899271
 20
167.4132432185321
 30
0.0
 10
183.255706356347
 20
167.5133423157358
 30
0.0
 10
183.2436779350035
 20
167.6590244153079
 30
0.0
 10
183.2234419429872
 20
167.7957967771304
 30
0.0
 10
183.1941588660079
 20
167.923458662546
 30
0.0
 10
183.1575178920202
 20
168.0426674119065
 30
0.0
 10
183.1122024386526
 20
168.1531681978367
 30
0.0
 10
183.0580857167798
 20
168.2544846145482
 30
0.0
 10
182.9961389196705
 20
168.3463725411876
 30
0.0
 10
182.9283299685393
 20
168.4279519059483
 30
0.0
 10
182.8572858895294
 20
168.5002550756288
 30
0.0
 10
182.7812277812977
 20
168.5597428890549
 30
0.0
 10
182.7029404413181
 20
168.610609893942
 30
0.0
 10
182.6199291649463
 20
168.6491600910176
 30
0.0
 10
182.5334119242903
 20
168.6760017554856
 30
0.0
 10
182.44351191741
 20
168.6931267204
 30
0.0
 10
182.3823123924424
 20
168.6952731828123
 30
0.0
 10
182.3512215909091
 20
168.6963636363231
 30
0.0
  0
SPLINE
  5
1E4
330
1F
100
AcDbEntity
  8
0
  6
Continuous
 62
     7
370
    25
100
AcDbSpline
210
0.0
220
0.0
230
1.0
 70
     8
 71
     3
 72
    23
 73
    19
 74
     0
 42
0.000000001
 43
0.00000001
 40
0.0
 40
0.0
 40
0.0
 40
0.0
 40
0.04637634935745
 40
0.0913119611971418
 40
0.1366923441388068
 40
0.1830145260461659
 40
0.2308407070677047
 40
0.281243229242764
 40
0.3348762673578901
 40
0.3919239229234021
 40
0.4521541540374953
 40
0.516083467390464
 40
0.5838039861901142
 40
0.6563685107735825
 40
0.7340981345083658
 40
0.8169132812413269
 40
0.9056638115050187
 40
1.0
 40
1.0
 40
1.0
 40
1.0
 10
168.9542045454546
 20
168.7418181817777
 30
0.0
 10
168.9351967293312
 20
168.7412422109441
 30
0.0
 10
168.8977715979368
 20
168.7401081625093
 30
0.0
 10
168.8429380909237
 20
168.7278297069132
 30
0.0
 10
168.7899144596865
 20
168.7096507790068
 30
0.0
 10
168.7393251264439
 20
168.6827705360231
 30
0.0
 10
168.6904393933036
 20
168.6492070388192
 30
0.0
 10
168.6444288891364
 20
168.6072493999068
 30
0.0
 10
168.5993071136448
 20
168.5590714078752
 30
0.0
 10
168.5577324317456
 20
168.5026739837355
 30
0.0
 10
168.5189527793924
 20
168.4393373710172
 30
0.0
 10
168.4859108996529
 20
168.3679444602233
 30
0.0
 10
168.4574645330811
 20
168.2892903118606
 30
0.0
 10
168.4340105142525
 20
168.2031058831692
 30
0.0
 10
168.4167336328697
 20
168.1092153556882
 30
0.0
 10
168.4040361837492
 20
168.0079621664656
 30
0.0
 10
168.3962158294972
 20
167.8993735773202
 30
0.0
 10
168.3951134566902
 20
167.8244545903472
 30
0.0
 10
168.3945454545455
 20
167.7858522726868
 30
0.0
  0
SPLINE
  5
1E5
330
1F
100
AcDbEntity
  8
0
  6
Continuous
 62
     7
370
    25
100
AcDbSpline
210
0.0
220
0.0
230
1.0
 70
     8
 71
     3
 72
    23
 73
    19
 74
     0
 42
0.000000001
 43
0.00000001
 40
0.0
 40
0.0
 40
0.0
 40
0.0
 40
0.0942870310003971
 40
0.1824865538417561
 40
0.2648226075690462
 40
0.3415705974885845
 40
0.413218717390083
 40
0.4802813817547993
 40
0.5434033429972469
 40
0.602686063569769
 40
0.6589030845182606
 40
0.7118588003809551
 40
0.7621109680398409
 40
0.8107527459681939
 40
0.857763683472547
 40
0.9041913491383226
 40
0.951358222071647
 40
1.0
 40
1.0
 40
1.0
 40
1.0
 10
169.5309090909091
 20
167.7858522726868
 30
0.0
 10
169.5303476090007
 20
167.8249285762554
 30
0.0
 10
169.5292608964652
 20
167.9005582773865
 30
0.0
 10
169.5213972985372
 20
168.0100862108612
 30
0.0
 10
169.508809661536
 20
168.1118370006944
 30
0.0
 10
169.4913597865632
 20
168.2059160301061
 30
0.0
 10
169.4682353917632
 20
168.2923117169254
 30
0.0
 10
169.4385845972699
 20
168.3705950214535
 30
0.0
 10
169.4061073208736
 20
168.4422521026009
 30
0.0
 10
169.3663206129482
 20
168.5049146345797
 30
0.0
 10
169.3236948890615
 20
168.5602593248343
 30
0.0
 10
169.2791280880403
 20
168.6092194479627
 30
0.0
 10
169.2310100778863
 20
168.6500184936247
 30
0.0
 10
169.180621571139
 20
168.6837204835377
 30
0.0
 10
169.1274654931433
 20
168.7094862310652
 30
0.0
 10
169.0721414947432
 20
168.7281213097997
 30
0.0
 10
169.0141372500451
 20
168.7400558414946
 30
0.0
 10
168.9743860937667
 20
168.7412247369164
 30
0.0
 10
168.9542045454546
 20
168.7418181817777
 30
0.0
  0
SPLINE
  5
1E6
330
1F
100
AcDbEntity
  8
0
  6
Continuous
 62
     7
370
    25
100
AcDbSpline
210
0.0
220
0.0
230
1.0
 70
     8
 71
     3
 72
    23
 73
    19
 74
     0
 42
0.000000001
 43
0.00000001
 40
0.0
 40
0.0
 40
0.0
 40
0.0
 40
0.0464338675617925
 40
0.0919922340957309
 40
0.1379758408203244
 40
0.1843554737509191
 40
0.2319139838421266
 40
0.2823790176768963
 40
0.3356865669521312
 40
0.3923418977363411
 40
0.4526468293128265
 40
0.5161316352054456
 40
0.5839361442866119
 40
0.6564403988768394
 40
0.7338080119846765
 40
0.816725870090972
 40
0.9055468111752841
 40
0.9999999999999999
 40
0.9999999999999999
 40
0.9999999999999999
 40
0.9999999999999999
 10
168.97125
 20
166.8327272726868
 30
0.0
 10
168.9902570077671
 20
166.8333154562945
 30
0.0
 10
169.0279126500768
 20
166.8344807334292
 30
0.0
 10
169.0831968910406
 20
166.8467458887729
 30
0.0
 10
169.1368119862736
 20
166.8646874678764
 30
0.0
 10
169.1873216435024
 20
166.8918860196615
 30
0.0
 10
169.236628775667
 20
166.9245560161473
 30
0.0
 10
169.2824512521399
 20
166.9663905771376
 30
0.0
 10
169.3265734872654
 20
167.0149577236949
 30
0.0
 10
169.3687268113223
 20
167.0704650334531
 30
0.0
 10
169.4069779255443
 20
167.1336817525762
 30
0.0
 10
169.440386069969
 20
167.2046241268278
 30
0.0
 10
169.4689288956979
 20
167.2830129420156
 30
0.0
 10
169.4908993360276
 20
167.3693041467867
 30
0.0
 10
169.5097988283671
 20
167.4625966539417
 30
0.0
 10
169.5222424935512
 20
167.5637345512702
 30
0.0
 10
169.5290121074104
 20
167.6723582707642
 30
0.0
 10
169.5302639396096
 20
167.7472537277437
 30
0.0
 10
169.5309090909091
 20
167.7858522726868
 30
0.0
  0
SPLINE
  5
1E7
330
1F
100
AcDbEntity
  8
0
  6
Continuous
 62
     7
370
    25
100
AcDbSpline
210
0.0
220
0.0
230
1.0
 70
     8
 71
     3
 72
    23
 73
    19
 74
     0
 42
0.000000001
 43
0.00000001
 40
0.0
 40
0.0
 40
0.0
 40
0.0
 40
0.0939000732089501
 40
0.1817019718777198
 40
0.2636319288039824
 40
0.3405307205795972
 40
0.4123196216204696
 40
0.4793162932096585
 40
0.5420447274823766
 40
0.6019300876275343
 40
0.6582575692032164
 40
0.7112926327489408
 40
0.7616435407157197
 40
0.8103808947028353
 40
0.8574842038333345
 40
0.9040030950564575
 40
0.9512626460128842
 40
1.0
 40
1.0
 40
1.0
 40
1.0
 10
168.3945454545455
 20
167.7858522726868
 30
0.0
 10
168.3951085387533
 20
167.747013079891
 30
0.0
 10
168.3961981386587
 20
167.6718570371323
 30
0.0
 10
168.4040357914405
 20
167.563031885878
 30
0.0
 10
168.416735604855
 20
167.4617798505126
 30
0.0
 10
168.4340036731572
 20
167.3678854273658
 30
0.0
 10
168.4574876091412
 20
167.2817141339792
 30
0.0
 10
168.4857602209036
 20
167.2032172066204
 30
0.0
 10
168.5190821472721
 20
167.132047149311
 30
0.0
 10
168.558246921543
 20
167.0690801890721
 30
0.0
 10
168.6007898301778
 20
167.0133332040841
 30
0.0
 10
168.6465767979787
 20
166.9655505996614
 30
0.0
 10
168.6943831095363
 20
166.9244684640769
 30
0.0
 10
168.744848589052
 20
166.8908398575113
 30
0.0
 10
168.7979849896593
 20
166.8650553501983
 30
0.0
 10
168.8533141464442
 20
166.8464251893009
 30
0.0
 10
168.9113170096003
 20
166.8344893404885
 30
0.0
 10
168.9510683554454
 20
166.8333206257936
 30
0.0
 10
168.97125
 20
166.8327272726868
 30
0.0
  0
SPLINE
  5
1E8
330
1F
100
AcDbEntity
  8
0
  6
Continuous
 62
     7
370
    25
100
AcDbSpline
210
0.0
220
0.0
230
1.0
 70
     8
 71
     3
 72
     9
 73
     5
 74
     0
 42
0.000000001
 43
0.00000001
 40
0.0
 40
0.0
 40
0.0
 40
0.0
 40
0.4981500763365782
 40
1.0
 40
1.0
 40
1.0
 40
1.0
 10
177.1900000000001
 20
165.9243465908686
 30
0.0
 10
177.2091156322242
 20
166.0355210931785
 30
0.0
 10
177.2474888718004
 20
166.2586958101786
 30
0.0
 10
177.3066279009284
 20
166.4772881082317
 30
0.0
 10
177.3363068181819
 20
166.5869886363231
 30
0.0
  0
LINE
  5
1E9
330
1F
100
AcDbEntity
  8
0
  6
Continuous
 62
     7
370
    25
100
AcDbLine
 10
176.7475284091
 20
167.6054545454
 30
0.0
 11
177.0110227273
 21
166.6438068181
 31
0.0
  0
LINE
  5
1EA
330
1F
100
AcDbEntity
  8
0
  6
Continuous
 62
     7
370
    25
100
AcDbLine
 10
177.6331818182
 20
167.6054545454
 30
0.0
 11
176.7475284091
 21
167.6054545454
 31
0.0
  0
LINE
  5
1EB
330
1F
100
AcDbEntity
  8
0
  6
Continuous
 62
     7
370
    25
100
AcDbLine
 10
177.3363068182
 20
166.5869886363
 30
0.0
 11
177.6331818182
 21
167.6054545454
 31
0.0
  0
SPLINE
  5
1EC
330
1F
100
AcDbEntity
  8
0
  6
Continuous
 62
     7
370
    25
100
AcDbSpline
210
0.0
220
0.0
230
1.0
 70
     8
 71
     3
 72
    15
 73
    11
 74
     0
 42
0.000000001
 43
0.00000001
 40
0.0
 40
0.0
 40
0.0
 40
0.0
 40
0.1510411693611073
 40
0.2946121881085221
 40
0.430285520420131
 40
0.5596771982198085
 40
0.6809401468628639
 40
0.7940822557068519
 40
0.9011932675821683
 40
1.0
 40
1.0
 40
1.0
 40
1.0
 10
177.0110227272727
 20
166.6438068181413
 30
0.0
 10
177.0211058839416
 20
166.607859562493
 30
0.0
 10
177.0407735074234
 20
166.5377429202038
 30
0.0
 10
177.0671649728158
 20
166.4347098361964
 30
0.0
 10
177.0932888797654
 20
166.3371409294396
 30
0.0
 10
177.1164213319021
 20
166.2444929393302
 30
0.0
 10
177.1378698593539
 20
166.1571659484727
 30
0.0
 10
177.1569419110738
 20
166.0749360936107
 30
0.0
 10
177.1750389086085
 20
165.9981702328639
 30
0.0
 10
177.1851488749124
 20
165.9482838633827
 30
0.0
 10
177.1900000000001
 20
165.9243465908686
 30
0.0
  0
SPLINE
  5
1ED
330
1F
100
AcDbEntity
  8
0
  6
Continuous
 62
     7
370
    25
100
AcDbSpline
210
0.0
220
0.0
230
1.0
 70
     8
 71
     3
 72
     9
 73
     5
 74
     0
 42
0.000000001
 43
0.00000001
 40
0.0
 40
0.0
 40
0.0
 40
0.0
 40
0.4981500763365782
 40
1.0
 40
1.0
 40
1.0
 40
1.0
 10
198.6445454545455
 20
165.9243465908686
 30
0.0
 10
198.6636610867696
 20
166.0355210931785
 30
0.0
 10
198.7020343263458
 20
166.2586958101786
 30
0.0
 10
198.7611733554739
 20
166.4772881082317
 30
0.0
 10
198.7908522727273
 20
166.5869886363232
 30
0.0
  0
SPLINE
  5
1EE
330
1F
100
AcDbEntity
  8
0
  6
Continuous
 62
     7
370
    25
100
AcDbSpline
210
0.0
220
0.0
230
1.0
 70
     8
 71
     3
 72
    15
 73
    11
 74
     0
 42
0.000000001
 43
0.00000001
 40
0.0
 40
0.0
 40
0.0
 40
0.0
 40
0.1510411693611073
 40
0.2946121881085221
 40
0.4302855204201309
 40
0.5596771982198175
 40
0.6809401468628637
 40
0.7940822557068427
 40
0.9011932675821683
 40
1.0
 40
1.0
 40
1.0
 40
1.0
 10
198.4655681818182
 20
166.6438068181413
 30
0.0
 10
198.475651338487
 20
166.607859562493
 30
0.0
 10
198.4953189619688
 20
166.5377429202038
 30
0.0
 10
198.5217104273613
 20
166.4347098361964
 30
0.0
 10
198.5478343343108
 20
166.3371409294396
 30
0.0
 10
198.5709667864475
 20
166.2444929393302
 30
0.0
 10
198.5924153138993
 20
166.1571659484727
 30
0.0
 10
198.6114873656193
 20
166.0749360936107
 30
0.0
 10
198.629584363154
 20
165.9981702328639
 30
0.0
 10
198.6396943294578
 20
165.9482838633827
 30
0.0
 10
198.6445454545455
 20
165.9243465908686
 30
0.0
  0
LINE
  5
1EF
330
1F
100
AcDbEntity
  8
0
  6
Continuous
 62
     7
370
    25
100
AcDbLine
 10
198.2020738636
 20
167.6054545454
 30
0.0
 11
198.4655681818
 21
166.6438068181
 31
0.0
  0
LINE
  5
1F0
330
1F
100
AcDbEntity
  8
0
  6
Continuous
 62
     7
370
    25
100
AcDbLine
 10
199.0877272727
 20
167.6054545454
 30
0.0
 11
198.2020738636
 21
167.6054545454
 31
0.0
  0
LINE
  5
1F1
330
1F
100
AcDbEntity
  8
0
  6
Continuous
 62
     7
370
    25
100
AcDbLine
 10
198.7908522727
 20
166.5869886363
 30
0.0
 11
199.0877272727
 21
167.6054545454
 31
0.0
  0
LINE
  5
1F2
330
1F
100
AcDbEntity
  8
0
  6
Continuous
 62
     7
370
    25
100
AcDbLine
 10
165.94
 20
254.06
 30
0.0
 11
209.94
 21
254.06
 31
0.0
  0
LINE
  5
1F3
330
1F
100
AcDbEntity
  8
0
  6
Continuous
 62
     7
370
    25
100
AcDbLine
 10
209.94
 20
254.06
 30
0.0
 11
209.94
 21
253.56
 31
0.0
  0
LINE
  5
1F4
330
1F
100
AcDbEntity
  8
0
  6
Continuous
 62
     7
370
    25
100
AcDbLine
 10
165.94
 20
253.56
 30
0.0
 11
165.94
 21
254.06
 31
0.0
  0
LINE
  5
1F5
330
1F
100
AcDbEntity
  8
0
  6
Continuous
 62
     7
370
    25
100
AcDbLine
 10
209.94
 20
164.06
 30
0.0
 11
165.94
 21
164.06
 31
0.0
  0
LINE
  5
1F6
330
1F
100
AcDbEntity
  8
0
  6
Continuous
 62
     7
370
    25
100
AcDbLine
 10
209.94
 20
164.56
 30
0.0
 11
209.94
 21
164.06
 31
0.0
  0
LINE
  5
1F7
330
1F
100
AcDbEntity
  8
0
  6
Continuous
 62
     7
370
    25
100
AcDbLine
 10
165.94
 20
164.06
 30
0.0
 11
165.94
 21
164.56
 31
0.0
  0
CIRCLE
  5
1F8
330
1F
100
AcDbEntity
  8
0
  6
Continuous
 62
     7
370
    25
100
AcDbCircle
 10
185.94
 20
209.06
 30
0.0
 40
10.48000000000002
  0
LINE
  5
1F9
330
1F
100
AcDbEntity
  8
0
  6
Continuous
 62
     7
370
    25
100
AcDbLine
 10
118.94
 20
253.56
 30
0.0
 11
81.94
 21
253.56
 31
0.0
  0
LINE
  5
1FA
330
1F
100
AcDbEntity
  8
0
  6
Continuous
 62
     7
370
    25
100
AcDbLine
 10
118.94
 20
253.56
 30
0.0
 11
118.94
 21
164.56
 31
0.0
  0
LINE
  5
1FB
330
1F
100
AcDbEntity
  8
0
  6
Continuous
 62
     7
370
    25
100
AcDbLine
 10
81.94
 20
164.56
 30
0.0
 11
118.94
 21
164.56
 31
0.0
  0
LINE
  5
1FC
330
1F
100
AcDbEntity
  8
0
  6
Continuous
 62
     7
370
    25
100
AcDbLine
 10
81.94
 20
253.56
 30
0.0
 11
81.94
 21
164.56
 31
0.0
  0
CIRCLE
  5
1FD
330
1F
100
AcDbEntity
  8
0
  6
Continuous
 62
     7
370
    25
100
AcDbCircle
 10
100.44
 20
209.06
 30
0.0
 40
15.0
  0
LINE
  5
1FE
330
1F
100
AcDbEntity
  8
0
  6
Continuous
 62
     7
370
    25
100
AcDbLine
 10
81.94
 20
253.56
 30
0.0
 11
81.94
 21
254.06
 31
0.0
  0
LINE
  5
1FF
330
1F
100
AcDbEntity
  8
0
  6
Continuous
 62
     7
370
    25
100
AcDbLine
 10
81.94
 20
254.06
 30
0.0
 11
118.94
 21
254.06
 31
0.0
  0
LINE
  5
200
330
1F
100
AcDbEntity
  8
0
  6
Continuous
 62
     7
370
    25
100
AcDbLine
 10
118.94
 20
254.06
 30
0.0
 11
118.94
 21
253.56
 31
0.0
  0
LINE
  5
201
330
1F
100
AcDbEntity
  8
0
  6
Continuous
 62
     7
370
    25
100
AcDbLine
 10
118.94
 20
164.06
 30
0.0
 11
81.94
 21
164.06
 31
0.0
  0
LINE
  5
202
330
1F
100
AcDbEntity
  8
0
  6
Continuous
 62
     7
370
    25
100
AcDbLine
 10
118.94
 20
164.56
 30
0.0
 11
118.94
 21
164.06
 31
0.0
  0
LINE
  5
203
330
1F
100
AcDbEntity
  8
0
  6
Continuous
 62
     7
370
    25
100
AcDbLine
 10
81.94
 20
164.06
 30
0.0
 11
81.94
 21
164.56
 31
0.0
  0
CIRCLE
  5
204
330
1F
100
AcDbEntity
  8
0
  6
Continuous
 62
     7
370
    25
100
AcDbCircle
 10
100.44
 20
209.06
 30
0.0
 40
10.48
  0
LINE
  5
205
330
1F
100
AcDbEntity
  8
0
  6
Continuous
 62
     7
370
    25
100
AcDbLine
 10
225.94
 20
246.56
 30
0.0
 11
225.94
 21
171.56
 31
0.0
  0
CIRCLE
  5
206
330
1F
100
AcDbEntity
  8
0
  6
Continuous
 62
     7
370
    25
100
AcDbCircle
 10
100.44
 20
209.06
 30
0.0
 40
6.640000000000015
  0
CIRCLE
  5
207
330
1F
100
AcDbEntity
  8
0
  6
Continuous
 62
     7
370
    25
100
AcDbCircle
 10
100.44
 20
209.06
 30
0.0
 40
3.499999999999986
  0
LINE
  5
208
330
1F
100
AcDbEntity
  8
0
  6
Continuous
 62
     8
370
    25
100
AcDbLine
 10
66.24
 20
184.41
 30
0.0
 11
66.24
 21
169.41
 31
0.0
  0
LINE
  5
209
330
1F
100
AcDbEntity
  8
0
  6
Continuous
 62
     8
370
    25
100
AcDbLine
 10
66.24
 20
248.71
 30
0.0
 11
66.24
 21
233.71
 31
0.0
  0
DIMENSION
  5
20A
330
1F
100
AcDbEntity
  8
0
  6
Continuous
 62
     7
370
    18
100
AcDbDimension
  2
_D
 10
231.94
 20
154.0599999999
 30
0.0
 11
228.94
 21
154.0599999999
 31
0.0
 70
   160
  1
<>
 71
     2
 42
-1.0
  3
SLDDIMSTYLE0
100
AcDbAlignedDimension
 13
225.94
 23
171.56
 33
0.0
 14
231.94
 24
197.06
 34
0.0
100
AcDbRotatedDimension
  0
DIMENSION
  5
217
330
1F
100
AcDbEntity
  8
0
  6
Continuous
 62
     7
370
    18
100
AcDbDimension
  2
_D_1
 10
209.94
 20
264.06
 30
0.0
 11
187.94
 21
264.06
 31
0.0
 70
   160
  1
<>
 71
     2
 42
-1.0
  3
SLDDIMSTYLE1
100
AcDbAlignedDimension
 13
165.94
 23
254.06
 33
0.0
 14
209.94
 24
254.06
 34
0.0
100
AcDbRotatedDimension
  0
DIMENSION
  5
222
330
1F
100
AcDbEntity
  8
0
  6
Continuous
 62
     7
370
    18
100
AcDbDimension
  2
_D_2
 10
81.94
 20
148.0599999999
 30
0.0
 11
156.94
 21
148.0599999999
 31
0.0
 70
   160
  1
<>
 71
     2
 42
-1.0
  3
SLDDIMSTYLE1
100
AcDbAlignedDimension
 13
231.94
 23
197.06
 33
0.0
 14
81.94
 24
164.06
 34
0.0
100
AcDbRotatedDimension
  0
DIMENSION
  5
22C
330
1F
100
AcDbEntity
  8
0
  6
Continuous
 62
     7
370
    18
100
AcDbDimension
  2
_D_3
 10
81.94
 20
154.0599999999
 30
0.0
 11
73.94
 21
154.0599999999
 31
0.0
 70
   160
  1
<>
 71
     2
 42
-1.0
  3
SLDDIMSTYLE0
100
AcDbAlignedDimension
 13
65.94
 23
169.71
 33
0.0
 14
81.94
 24
164.06
 34
0.0
100
AcDbRotatedDimension
  0
DIMENSION
  5
238
330
1F
100
AcDbEntity
  8
0
  6
Continuous
 62
     7
370
    18
100
AcDbDimension
  2
_D_4
 10
209.94
 20
270.06
 30
0.0
 11
217.94
 21
270.06
 31
0.0
 70
   160
  1
<>
 71
     2
 42
-1.0
  3
SLDDIMSTYLE0
100
AcDbAlignedDimension
 13
225.94
 23
246.56
 33
0.0
 14
209.94
 24
254.06
 34
0.0
100
AcDbRotatedDimension
  0
DIMENSION
  5
244
330
1F
100
AcDbEntity
  8
0
  6
Continuous
 62
     7
370
    18
100
AcDbDimension
  2
_D_5
 10
269.94
 20
223.06
 30
0.0
 11
269.94
 21
209.06
 31
0.0
 70
   160
  1
%%c<>
 71
     2
 42
-1.0
  3
SLDDIMSTYLE1
100
AcDbAlignedDimension
 13
223.44
 23
195.06
 33
0.0
 14
223.44
 24
223.06
 34
0.0
 50
90.0
100
AcDbRotatedDimension
  0
DIMENSION
  5
24F
330
1F
100
AcDbEntity
  8
0
  6
Continuous
 62
     7
370
    18
100
AcDbDimension
  2
_D_6
 10
275.94
 20
188.06
 30
0.0
 11
275.94
 21
209.06
 31
0.0
 70
   160
  1
%%c<> f9
 71
     2
 42
-1.0
  3
SLDDIMSTYLE2
100
AcDbAlignedDimension
 13
236.44
 23
230.06
 33
0.0
 14
236.44
 24
188.06
 34
0.0
 50
90.0
100
AcDbRotatedDimension
  0
DIMENSION
  5
25C
330
1F
100
AcDbEntity
  8
0
  6
Continuous
 62
     7
370
    18
100
AcDbDimension
  2
_D_7
 10
225.94
 20
264.06
 30
0.0
 11
231.44
 21
264.06
 31
0.0
 70
   160
  1
<>
 71
     2
 42
-1.0
  3
SLDDIMSTYLE0
100
AcDbAlignedDimension
 13
236.94
 23
229.56
 33
0.0
 14
225.94
 24
246.56
 34
0.0
100
AcDbRotatedDimension
  0
INSERT
  5
273
330
1F
100
AcDbEntity
  8
0
  6
Continuous
 62
     7
370
     0
100
AcDbBlockReference
  2
SW_CENTERMARKSYMBOL_0
 10
100.44
 20
209.06
 30
0.0
  0
INSERT
  5
27F
330
1F
100
AcDbEntity
  8
0
  6
Continuous
 62
     7
370
     0
100
AcDbBlockReference
  2
SW_CENTERMARKSYMBOL_1
 10
185.94
 20
209.06
 30
0.0
  0
LINE
  5
280
330
1F
100
AcDbEntity
  8
0
  6
CENTERX2
 62
     7
370
    18
100
AcDbLine
 10
225.44
 20
209.06
 30
0.0
 11
143.94
 21
209.06
 31
0.0
  0
LINE
  5
281
330
1F
100
AcDbEntity
  8
0
  6
CENTERX2
 62
     7
370
    18
100
AcDbLine
 10
221.94
 20
209.06
 30
0.0
 11
233.44
 21
209.06
 31
0.0
  0
LINE
  5
282
330
1F
100
AcDbEntity
  8
0
  6
CENTERX2
 62
     7
370
    18
100
AcDbLine
 10
105.94
 20
209.06
 30
0.0
 11
167.94
 21
209.06
 31
0.0
  0
LINE
  5
283
330
1F
100
AcDbEntity
  8
0
  6
CENTERX2
 62
     7
370
    18
100
AcDbLine
 10
85.44
 20
241.21
 30
0.0
 11
182.44
 21
241.21
 31
0.0
  0
LINE
  5
284
330
1F
100
AcDbEntity
  8
0
  6
CENTERX2
 62
     7
370
    18
100
AcDbLine
 10
85.44
 20
176.91
 30
0.0
 11
182.44
 21
176.91
 31
0.0
  0
LINE
  5
285
330
1F
100
AcDbEntity
  8
0
  6
CENTERX2
 62
     7
370
    18
100
AcDbLine
 10
105.94
 20
209.06
 30
0.0
 11
79.94
 21
209.06
 31
0.0
  0
CIRCLE
  5
286
330
1F
100
AcDbEntity
  8
0
  6
Continuous
 62
     7
370
    25
100
AcDbCircle
 10
136.94
 20
59.06
 30
0.0
 40
10.00000000000001
  0
CIRCLE
  5
287
330
1F
100
AcDbEntity
  8
0
  6
Continuous
 62
     7
370
    25
100
AcDbCircle
 10
136.94
 20
59.06
 30
0.0
 40
9.199999999999989
  0
ARC
  5
288
330
1F
100
AcDbEntity
  8
0
  6
Continuous
 62
     7
370
    25
100
AcDbCircle
 10
136.94
 20
59.06
 30
0.0
 40
13.5
100
AcDbArc
 50
297.2660444507
 51
332.7339555493
  0
LINE
  5
289
330
1F
100
AcDbEntity
  8
0
  6
Continuous
 62
     7
370
    25
100
AcDbLine
 10
143.1246584384
 20
47.06
 30
0.0
 11
141.94
 21
47.06
 31
0.0
  0
ARC
  5
28A
330
1F
100
AcDbEntity
  8
0
  6
Continuous
 62
     7
370
    25
100
AcDbCircle
 10
136.94
 20
59.06
 30
0.0
 40
12.99999999999999
100
AcDbArc
 50
292.619864948
 51
337.380135052
  0
LINE
  5
28B
330
1F
100
AcDbEntity
  8
0
  6
Continuous
 62
     7
370
    25
100
AcDbLine
 10
148.94
 20
54.06
 30
0.0
 11
148.94
 21
52.8753415615
 31
0.0
  0
ARC
  5
28C
330
1F
100
AcDbEntity
  8
0
  6
Continuous
 62
     7
370
    25
100
AcDbCircle
 10
136.94
 20
59.06
 30
0.0
 40
13.49999999999999
100
AcDbArc
 50
27.2660444507
 51
62.7339555493
  0
ARC
  5
28D
330
1F
100
AcDbEntity
  8
0
  6
Continuous
 62
     7
370
    25
100
AcDbCircle
 10
136.94
 20
59.06
 30
0.0
 40
13.0
100
AcDbArc
 50
22.619864948
 51
67.380135052
  0
LINE
  5
28E
330
1F
100
AcDbEntity
  8
0
  6
Continuous
 62
     7
370
    25
100
AcDbLine
 10
141.94
 20
71.06
 30
0.0
 11
143.1246584384
 21
71.06
 31
0.0
  0
LINE
  5
28F
330
1F
100
AcDbEntity
  8
0
  6
Continuous
 62
     7
370
    25
100
AcDbLine
 10
148.94
 20
65.2446584384
 30
0.0
 11
148.94
 21
64.06
 31
0.0
  0
ARC
  5
290
330
1F
100
AcDbEntity
  8
0
  6
Continuous
 62
     7
370
    25
100
AcDbCircle
 10
136.94
 20
59.06
 30
0.0
 40
13.0
100
AcDbArc
 50
202.619864948
 51
247.380135052
  0
LINE
  5
291
330
1F
100
AcDbEntity
  8
0
  6
Continuous
 62
     7
370
    25
100
AcDbLine
 10
124.94
 20
64.06
 30
0.0
 11
124.94
 21
54.06
 31
0.0
  0
ARC
  5
292
330
1F
100
AcDbEntity
  8
0
  6
Continuous
 62
     7
370
    25
100
AcDbCircle
 10
136.94
 20
59.06
 30
0.0
 40
13.0
100
AcDbArc
 50
112.619864948
 51
157.380135052
  0
LINE
  5
293
330
1F
100
AcDbEntity
  8
0
  6
Continuous
 62
     7
370
    25
100
AcDbLine
 10
141.94
 20
71.06
 30
0.0
 11
131.94
 21
71.06
 31
0.0
  0
LINE
  5
294
330
1F
100
AcDbEntity
  8
0
  6
Continuous
 62
     7
370
    25
100
AcDbLine
 10
131.94
 20
47.06
 30
0.0
 11
141.94
 21
47.06
 31
0.0
  0
LINE
  5
295
330
1F
100
AcDbEntity
  8
0
  6
Continuous
 62
     7
370
    25
100
AcDbLine
 10
148.94
 20
54.06
 30
0.0
 11
148.94
 21
64.06
 31
0.0
  0
ARC
  5
296
330
1F
100
AcDbEntity
  8
0
  6
Continuous
 62
     7
370
    25
100
AcDbCircle
 10
136.94
 20
59.06
 30
0.0
 40
13.50000000000001
100
AcDbArc
 50
207.2660444507
 51
242.7339555493
  0
LINE
  5
297
330
1F
100
AcDbEntity
  8
0
  6
Continuous
 62
     7
370
    25
100
AcDbLine
 10
124.94
 20
52.8753415615
 30
0.0
 11
124.94
 21
54.06
 31
0.0
  0
LINE
  5
298
330
1F
100
AcDbEntity
  8
0
  6
Continuous
 62
     7
370
    25
100
AcDbLine
 10
131.94
 20
47.06
 30
0.0
 11
130.7553415616
 21
47.06
 31
0.0
  0
ARC
  5
299
330
1F
100
AcDbEntity
  8
0
  6
Continuous
 62
     7
370
    25
100
AcDbCircle
 10
136.94
 20
59.06
 30
0.0
 40
13.5
100
AcDbArc
 50
117.2660444507
 51
152.7339555493
  0
LINE
  5
29A
330
1F
100
AcDbEntity
  8
0
  6
Continuous
 62
     7
370
    25
100
AcDbLine
 10
124.94
 20
64.06
 30
0.0
 11
124.94
 21
65.2446584384
 31
0.0
  0
LINE
  5
29B
330
1F
100
AcDbEntity
  8
0
  6
Continuous
 62
     7
370
    25
100
AcDbLine
 10
130.7553415616
 20
71.06
 30
0.0
 11
131.94
 21
71.06
 31
0.0
  0
ARC
  5
29C
330
1F
100
AcDbEntity
  8
0
  6
Continuous
 62
     7
370
    25
100
AcDbCircle
 10
136.94
 20
59.06
 30
0.0
 40
13.5
100
AcDbArc
 50
62.7339555493
 51
117.2660444507
  0
ARC
  5
29D
330
1F
100
AcDbEntity
  8
0
  6
Continuous
 62
     7
370
    25
100
AcDbCircle
 10
136.94
 20
59.06
 30
0.0
 40
13.50000000000001
100
AcDbArc
 50
152.7339555493
 51
207.2660444507
  0
ARC
  5
29E
330
1F
100
AcDbEntity
  8
0
  6
Continuous
 62
     7
370
    25
100
AcDbCircle
 10
136.94
 20
59.06
 30
0.0
 40
13.50000000000001
100
AcDbArc
 50
242.7339555493
 51
297.2660444507
  0
ARC
  5
29F
330
1F
100
AcDbEntity
  8
0
  6
Continuous
 62
     7
370
    25
100
AcDbCircle
 10
136.94
 20
59.06
 30
0.0
 40
13.5
100
AcDbArc
 50
332.7339555493
 51
27.2660444507
  0
CIRCLE
  5
2A0
330
1F
100
AcDbEntity
  8
0
  6
Continuous
 62
     7
370
    25
100
AcDbCircle
 10
136.94
 20
59.06
 30
0.0
 40
20.50000000000003
  0
CIRCLE
  5
2A1
330
1F
100
AcDbEntity
  8
0
  6
Continuous
 62
     7
370
    25
100
AcDbCircle
 10
136.94
 20
59.06
 30
0.0
 40
21.0
  0
CIRCLE
  5
2A2
330
1F
100
AcDbEntity
  8
0
  6
Continuous
 62
     7
370
    25
100
AcDbCircle
 10
136.94
 20
59.06
 30
0.0
 40
15.5
  0
CIRCLE
  5
2A3
330
1F
100
AcDbEntity
  8
0
  6
Continuous
 62
     7
370
    25
100
AcDbCircle
 10
136.94
 20
59.06
 30
0.0
 40
14.0
  0
CIRCLE
  5
2A4
330
1F
100
AcDbEntity
  8
0
  6
Continuous
 62
     7
370
    25
100
AcDbCircle
 10
136.94
 20
59.06
 30
0.0
 40
30.00000000000001
  0
CIRCLE
  5
2A5
330
1F
100
AcDbEntity
  8
0
  6
Continuous
 62
     7
370
    25
100
AcDbCircle
 10
136.94
 20
59.06
 30
0.0
 40
37.5
  0
LINE
  5
2A6
330
1F
100
AcDbEntity
  8
0
  6
Continuous
 62
     7
370
    25
100
AcDbLine
 10
65.94
 20
14.56
 30
0.0
 11
66.44
 21
14.06
 31
0.0
  0
LINE
  5
2A7
330
1F
100
AcDbEntity
  8
0
  6
Continuous
 62
     7
370
    25
100
AcDbLine
 10
65.94
 20
103.56
 30
0.0
 11
65.94
 21
14.56
 31
0.0
  0
LINE
  5
2A8
330
1F
100
AcDbEntity
  8
0
  6
Continuous
 62
     7
370
    25
100
AcDbLine
 10
66.44
 20
104.06
 30
0.0
 11
65.94
 21
103.56
 31
0.0
  0
LINE
  5
2A9
330
1F
100
AcDbEntity
  8
0
  6
Continuous
 62
     7
370
    25
100
AcDbLine
 10
207.94
 20
103.56
 30
0.0
 11
207.94
 21
14.56
 31
0.0
  0
CIRCLE
  5
2AA
330
1F
100
AcDbEntity
  8
0
  6
Continuous
 62
     7
370
    25
100
AcDbCircle
 10
78.44
 20
91.56
 30
0.0
 40
7.499999999999915
  0
CIRCLE
  5
2AB
330
1F
100
AcDbEntity
  8
0
  6
Continuous
 62
     7
370
    25
100
AcDbCircle
 10
195.44
 20
91.56
 30
0.0
 40
7.5
  0
CIRCLE
  5
2AC
330
1F
100
AcDbEntity
  8
0
  6
Continuous
 62
     7
370
    25
100
AcDbCircle
 10
195.44
 20
26.56
 30
0.0
 40
7.500000000000028
  0
CIRCLE
  5
2AD
330
1F
100
AcDbEntity
  8
0
  6
Continuous
 62
     7
370
    25
100
AcDbCircle
 10
78.44
 20
26.56
 30
0.0
 40
7.499999999999915
  0
LINE
  5
2AE
330
1F
100
AcDbEntity
  8
0
  6
Continuous
 62
     7
370
    25
100
AcDbLine
 10
207.94
 20
103.56
 30
0.0
 11
207.44
 21
104.06
 31
0.0
  0
LINE
  5
2AF
330
1F
100
AcDbEntity
  8
0
  6
Continuous
 62
     7
370
    25
100
AcDbLine
 10
66.44
 20
104.06
 30
0.0
 11
207.44
 21
104.06
 31
0.0
  0
LINE
  5
2B0
330
1F
100
AcDbEntity
  8
0
  6
Continuous
 62
     7
370
    25
100
AcDbLine
 10
207.44
 20
14.06
 30
0.0
 11
207.94
 21
14.56
 31
0.0
  0
LINE
  5
2B1
330
1F
100
AcDbEntity
  8
0
  6
Continuous
 62
     7
370
    25
100
AcDbLine
 10
66.44
 20
14.06
 30
0.0
 11
207.44
 21
14.06
 31
0.0
  0
CIRCLE
  5
2B2
330
1F
100
AcDbEntity
  8
0
  6
Continuous
 62
     7
370
    25
100
AcDbCircle
 10
195.44
 20
26.56
 30
0.0
 40
7.000000000000028
  0
CIRCLE
  5
2B3
330
1F
100
AcDbEntity
  8
0
  6
Continuous
 62
     7
370
    25
100
AcDbCircle
 10
195.44
 20
91.56
 30
0.0
 40
7.000000000000028
  0
CIRCLE
  5
2B4
330
1F
100
AcDbEntity
  8
0
  6
Continuous
 62
     7
370
    25
100
AcDbCircle
 10
78.44
 20
91.56
 30
0.0
 40
7.0
  0
CIRCLE
  5
2B5
330
1F
100
AcDbEntity
  8
0
  6
Continuous
 62
     7
370
    25
100
AcDbCircle
 10
78.44
 20
26.56
 30
0.0
 40
7.0
  0
DIMENSION
  5
2B6
330
1F
100
AcDbEntity
  8
0
  6
Continuous
 62
     7
370
    18
100
AcDbDimension
  2
_D_8
 10
129.4721555619
 20
65.0126296246
 30
0.0
 11
205.94001
 21
4.0600099999
 31
0.0
 70
   163
  1
M20x1.5
 71
     1
 42
-1.0
  3
SLDDIMSTYLE3
100
AcDbDiametricDimension
 15
144.4078444382
 25
53.1073703754
 35
0.0
 40
0.0
  0
DIMENSION
  5
2C2
330
1F
100
AcDbEntity
  8
0
  6
Continuous
 62
     7
370
    18
100
AcDbDimension
  2
_D_9
 10
166.2639964849
 20
82.4342000966
 30
0.0
 11
67.94001
 21
4.0600099999
 31
0.0
 70
   163
  1
<>
 71
     1
 42
-1.0
  3
SLDDIMSTYLE4
100
AcDbDiametricDimension
 15
107.6160035152
 25
35.6857999033
 35
0.0
 40
0.0
  0
DIMENSION
  5
2CC
330
1F
100
AcDbEntity
  8
0
  6
Continuous
 62
     7
370
    18
100
AcDbDimension
  2
_D_10
 10
217.94
 20
26.56
 30
0.0
 11
217.94
 21
59.06
 31
0.0
 70
   160
  1
<>
 71
     2
 42
-1.0
  3
SLDDIMSTYLE1
100
AcDbAlignedDimension
 13
205.44
 23
91.56
 33
0.0
 14
204.94
 24
26.56
 34
0.0
 50
90.0
100
AcDbRotatedDimension
  0
DIMENSION
  5
2D6
330
1F
100
AcDbEntity
  8
0
  6
Continuous
 62
     7
370
    18
100
AcDbDimension
  2
_D_11
 10
223.94
 20
104.06
 30
0.0
 11
223.94
 21
59.06
 31
0.0
 70
   160
  1
<>
 71
     2
 42
-1.0
  3
SLDDIMSTYLE1
100
AcDbAlignedDimension
 13
207.44
 23
14.06
 33
0.0
 14
207.44
 24
104.06
 34
0.0
 50
90.0
100
AcDbRotatedDimension
  0
DIMENSION
  5
2E0
330
1F
100
AcDbEntity
  8
0
  6
Continuous
 62
     7
370
    18
100
AcDbDimension
  2
_D_12
 10
195.44
 20
114.06
 30
0.0
 11
136.94
 21
114.06
 31
0.0
 70
   160
  1
<>
 71
     2
 42
-1.0
  3
SLDDIMSTYLE1
100
AcDbAlignedDimension
 13
78.44
 23
101.56
 33
0.0
 14
195.44
 24
101.56
 34
0.0
100
AcDbRotatedDimension
  0
DIMENSION
  5
2EA
330
1F
100
AcDbEntity
  8
0
  6
Continuous
 62
     7
370
    18
100
AcDbDimension
  2
_D_13
 10
207.94
 20
120.06
 30
0.0
 11
136.94
 21
120.06
 31
0.0
 70
   160
  1
<>
 71
     2
 42
-1.0
  3
SLDDIMSTYLE1
100
AcDbAlignedDimension
 13
65.94
 23
103.56
 33
0.0
 14
207.94
 24
103.56
 34
0.0
100
AcDbRotatedDimension
  0
DIMENSION
  5
2F4
330
1F
100
AcDbEntity
  8
0
  6
Continuous
 62
     7
370
    18
100
AcDbDimension
  2
_D_14
 10
84.107019388
 20
96.4727274762
 30
0.0
 11
55.94001
 21
72.0548061799
 31
0.0
 70
   163
  1
M12x1.75
 71
     1
 42
-1.0
  3
SLDDIMSTYLE3
100
AcDbDiametricDimension
 15
72.772980612
 25
86.6472725237
 35
0.0
 40
0.0
  0
INSERT
  5
307
330
1F
100
AcDbEntity
  8
0
  6
Continuous
 62
     7
370
     0
100
AcDbBlockReference
  2
SW_CENTERMARKSYMBOL_2
 10
78.44
 20
91.56
 30
0.0
  0
INSERT
  5
313
330
1F
100
AcDbEntity
  8
0
  6
Continuous
 62
     7
370
     0
100
AcDbBlockReference
  2
SW_CENTERMARKSYMBOL_3
 10
195.44
 20
91.56
 30
0.0
  0
INSERT
  5
31F
330
1F
100
AcDbEntity
  8
0
  6
Continuous
 62
     7
370
     0
100
AcDbBlockReference
  2
SW_CENTERMARKSYMBOL_4
 10
195.44
 20
26.56
 30
0.0
  0
INSERT
  5
32B
330
1F
100
AcDbEntity
  8
0
  6
Continuous
 62
     7
370
     0
100
AcDbBlockReference
  2
SW_CENTERMARKSYMBOL_5
 10
78.44
 20
26.56
 30
0.0
  0
ENDSEC
  0
SECTION
  2
OBJECTS
  0
DICTIONARY
  5
C
330
0
100
AcDbDictionary
281
     1
  3
ACAD_GROUP
350
D
  3
ACAD_LAYOUT
350
1A
  3
ACAD_MLINESTYLE
350
17
  3
ACAD_PLOTSETTINGS
350
19
  3
ACAD_PLOTSTYLENAME
350
E
  3
ACAD_SCALELIST
350
47
  0
DICTIONARY
  5
D
102
{ACAD_REACTORS
330
C
102
}
330
C
100
AcDbDictionary
281
     1
  0
DICTIONARY
  5
1A
102
{ACAD_REACTORS
330
C
102
}
330
C
100
AcDbDictionary
281
     1
  3
Layout1
350
1E
  3
Layout2
350
26
  3
Model
350
22
  0
DICTIONARY
  5
17
102
{ACAD_REACTORS
330
C
102
}
330
C
100
AcDbDictionary
281
     1
  3
Standard
350
18
  0
DICTIONARY
  5
19
102
{ACAD_REACTORS
330
C
102
}
330
C
100
AcDbDictionary
281
     1
  0
ACDBDICTIONARYWDFLT
  5
E
102
{ACAD_REACTORS
330
C
102
}
330
C
100
AcDbDictionary
281
     1
  3
Normal
350
F
100
AcDbDictionaryWithDefault
340
F
  0
DICTIONARY
  5
47
102
{ACAD_REACTORS
330
C
102
}
330
C
100
AcDbDictionary
281
     1
  3
A0
350
48
  3
A1
350
49
  3
A2
350
4A
  3
A3
350
4B
  3
A4
350
4C
  3
A5
350
4D
  3
A6
350
4E
  3
A7
350
4F
  3
A8
350
50
  3
A9
350
51
  3
B0
350
52
  3
B1
350
53
  3
B2
350
54
  3
B3
350
55
  3
B4
350
56
  3
B5
350
57
  3
B6
350
58
  3
B7
350
59
  3
B8
350
5A
  3
B9
350
5B
  3
C0
350
5C
  3
C1
350
5D
  3
C2
350
5E
  3
C3
350
5F
  3
C4
350
60
  3
C5
350
61
  3
C6
350
62
  3
C7
350
63
  3
C8
350
64
  3
C9
350
65
  3
D0
350
66
  3
D1
350
67
  3
D2
350
68
  0
LAYOUT
  5
1E
102
{ACAD_REACTORS
330
1A
102
}
330
1A
100
AcDbPlotSettings
  1

  2
none_device
  4

  6

 40
0.0
 41
0.0
 42
0.0
 43
0.0
 44
0.0
 45
0.0
 46
0.0
 47
0.0
 48
0.0
 49
0.0
140
0.0
141
0.0
142
1.0
143
1.0
 70
   688
 72
     1
 73
     0
 74
     5
  7

 75
    16
147
1.0
148
0.0
149
0.0
100
AcDbLayout
  1
Layout1
 70
     1
 71
     1
 10
0.0
 20
0.0
 11
420.0
 21
297.0
 12
0.0
 22
0.0
 32
0.0
 14
1.0000000000E+20
 24
1.0000000000E+20
 34
1.0000000000E+20
 15
-1.0000000000E+20
 25
-1.0000000000E+20
 35
-1.0000000000E+20
146
0.0
 13
0.0
 23
0.0
 33
0.0
 16
1.0
 26
0.0
 36
0.0
 17
0.0
 27
1.0
 37
0.0
 76
     0
330
1B
  0
LAYOUT
  5
26
102
{ACAD_REACTORS
330
1A
102
}
330
1A
100
AcDbPlotSettings
  1

  2
none_device
  4

  6

 40
0.0
 41
0.0
 42
0.0
 43
0.0
 44
0.0
 45
0.0
 46
0.0
 47
0.0
 48
0.0
 49
0.0
140
0.0
141
0.0
142
1.0
143
1.0
 70
   688
 72
     1
 73
     0
 74
     5
  7

 75
    16
147
1.0
148
0.0
149
0.0
100
AcDbLayout
  1
Layout2
 70
     1
 71
     2
 10
0.0
 20
0.0
 11
0.0
 21
0.0
 12
0.0
 22
0.0
 32
0.0
 14
0.0
 24
0.0
 34
0.0
 15
0.0
 25
0.0
 35
0.0
146
0.0
 13
0.0
 23
0.0
 33
0.0
 16
1.0
 26
0.0
 36
0.0
 17
0.0
 27
1.0
 37
0.0
 76
     0
330
23
  0
LAYOUT
  5
22
102
{ACAD_REACTORS
330
1A
102
}
330
1A
100
AcDbPlotSettings
  1

  2
none_device
  4
Letter_(8.50_x_11.00_Inches)
  6

 40
6.35
 41
6.35
 42
6.35000508
 43
6.35000508
 44
215.9
 45
279.4
 46
0.0
 47
0.0
 48
0.0
 49
0.0
140
0.0
141
0.0
142
1.0
143
1.0
 70
  1712
 72
     1
 73
     0
 74
     0
  7

 75
     0
147
1.0
148
0.0
149
0.0
100
AcDbLayout
  1
Model
 70
     1
 71
     0
 10
0.0
 20
0.0
 11
420.0
 21
297.0
 12
0.0
 22
0.0
 32
0.0
 14
0.0
 24
0.0
 34
0.0
 15
420.0
 25
297.0
 35
0.0
146
0.0
 13
0.0
 23
0.0
 33
0.0
 16
1.0
 26
0.0
 36
0.0
 17
0.0
 27
1.0
 37
0.0
 76
     0
330
1F
331
29
  0
MLINESTYLE
  5
18
102
{ACAD_REACTORS
330
17
102
}
330
17
100
AcDbMlineStyle
  2
Standard
 70
     0
  3

 62
   256
 51
90.0
 52
90.0
 71
     2
 49
0.5
 62
   256
  6
BYLAYER
 49
-0.5
 62
   256
  6
BYLAYER
  0
ACDBPLACEHOLDER
  5
F
102
{ACAD_REACTORS
330
E
102
}
330
E
  0
SCALE
  5
48
102
{ACAD_REACTORS
330
47
102
}
330
47
100
AcDbScale
 70
     0
300
1:1
140
1.0
141
1.0
290
     1
  0
SCALE
  5
49
102
{ACAD_REACTORS
330
47
102
}
330
47
100
AcDbScale
 70
     0
300
1:2
140
1.0
141
2.0
290
     0
  0
SCALE
  5
4A
102
{ACAD_REACTORS
330
47
102
}
330
47
100
AcDbScale
 70
     0
300
1:4
140
1.0
141
4.0
290
     0
  0
SCALE
  5
4B
102
{ACAD_REACTORS
330
47
102
}
330
47
100
AcDbScale
 70
     0
300
1:5
140
1.0
141
5.0
290
     0
  0
SCALE
  5
4C
102
{ACAD_REACTORS
330
47
102
}
330
47
100
AcDbScale
 70
     0
300
1:8
140
1.0
141
8.0
290
     0
  0
SCALE
  5
4D
102
{ACAD_REACTORS
330
47
102
}
330
47
100
AcDbScale
 70
     0
300
1:10
140
1.0
141
10.0
290
     0
  0
SCALE
  5
4E
102
{ACAD_REACTORS
330
47
102
}
330
47
100
AcDbScale
 70
     0
300
1:16
140
1.0
141
16.0
290
     0
  0
SCALE
  5
4F
102
{ACAD_REACTORS
330
47
102
}
330
47
100
AcDbScale
 70
     0
300
1:20
140
1.0
141
20.0
290
     0
  0
SCALE
  5
50
102
{ACAD_REACTORS
330
47
102
}
330
47
100
AcDbScale
 70
     0
300
1:30
140
1.0
141
30.0
290
     0
  0
SCALE
  5
51
102
{ACAD_REACTORS
330
47
102
}
330
47
100
AcDbScale
 70
     0
300
1:40
140
1.0
141
40.0
290
     0
  0
SCALE
  5
52
102
{ACAD_REACTORS
330
47
102
}
330
47
100
AcDbScale
 70
     0
300
1:50
140
1.0
141
50.0
290
     0
  0
SCALE
  5
53
102
{ACAD_REACTORS
330
47
102
}
330
47
100
AcDbScale
 70
     0
300
1:100
140
1.0
141
100.0
290
     0
  0
SCALE
  5
54
102
{ACAD_REACTORS
330
47
102
}
330
47
100
AcDbScale
 70
     0
300
2:1
140
2.0
141
1.0
290
     0
  0
SCALE
  5
55
102
{ACAD_REACTORS
330
47
102
}
330
47
100
AcDbScale
 70
     0
300
4:1
140
4.0
141
1.0
290
     0
  0
SCALE
  5
56
102
{ACAD_REACTORS
330
47
102
}
330
47
100
AcDbScale
 70
     0
300
8:1
140
8.0
141
1.0
290
     0
  0
SCALE
  5
57
102
{ACAD_REACTORS
330
47
102
}
330
47
100
AcDbScale
 70
     0
300
10:1
140
10.0
141
1.0
290
     0
  0
SCALE
  5
58
102
{ACAD_REACTORS
330
47
102
}
330
47
100
AcDbScale
 70
     0
300
100:1
140
100.0
141
1.0
290
     0
  0
SCALE
  5
59
102
{ACAD_REACTORS
330
47
102
}
330
47
100
AcDbScale
 70
     0
300
1/128" = 1'-0"
140
0.0078125
141
12.0
290
     0
  0
SCALE
  5
5A
102
{ACAD_REACTORS
330
47
102
}
330
47
100
AcDbScale
 70
     0
300
1/64" = 1'-0"
140
0.015625
141
12.0
290
     0
  0
SCALE
  5
5B
102
{ACAD_REACTORS
330
47
102
}
330
47
100
AcDbScale
 70
     0
300
1/32" = 1'-0"
140
0.03125
141
12.0
290
     0
  0
SCALE
  5
5C
102
{ACAD_REACTORS
330
47
102
}
330
47
100
AcDbScale
 70
     0
300
1/16" = 1'-0"
140
0.0625
141
12.0
290
     0
  0
SCALE
  5
5D
102
{ACAD_REACTORS
330
47
102
}
330
47
100
AcDbScale
 70
     0
300
3/32" = 1'-0"
140
0.09375
141
12.0
290
     0
  0
SCALE
  5
5E
102
{ACAD_REACTORS
330
47
102
}
330
47
100
AcDbScale
 70
     0
300
1/8" = 1'-0"
140
0.125
141
12.0
290
     0
  0
SCALE
  5
5F
102
{ACAD_REACTORS
330
47
102
}
330
47
100
AcDbScale
 70
     0
300
3/16" = 1'-0"
140
0.1875
141
12.0
290
     0
  0
SCALE
  5
60
102
{ACAD_REACTORS
330
47
102
}
330
47
100
AcDbScale
 70
     0
300
1/4" = 1'-0"
140
0.25
141
12.0
290
     0
  0
SCALE
  5
61
102
{ACAD_REACTORS
330
47
102
}
330
47
100
AcDbScale
 70
     0
300
3/8" = 1'-0"
140
0.375
141
12.0
290
     0
  0
SCALE
  5
62
102
{ACAD_REACTORS
330
47
102
}
330
47
100
AcDbScale
 70
     0
300
1/2" = 1'-0"
140
0.5
141
12.0
290
     0
  0
SCALE
  5
63
102
{ACAD_REACTORS
330
47
102
}
330
47
100
AcDbScale
 70
     0
300
3/4" = 1'-0"
140
0.75
141
12.0
290
     0
  0
SCALE
  5
64
102
{ACAD_REACTORS
330
47
102
}
330
47
100
AcDbScale
 70
     0
300
1" = 1'-0"
140
1.0
141
12.0
290
     0
  0
SCALE
  5
65
102
{ACAD_REACTORS
330
47
102
}
330
47
100
AcDbScale
 70
     0
300
1-1/2" = 1'-0"
140
1.5
141
12.0
290
     0
  0
SCALE
  5
66
102
{ACAD_REACTORS
330
47
102
}
330
47
100
AcDbScale
 70
     0
300
3" = 1'-0"
140
3.0
141
12.0
290
     0
  0
SCALE
  5
67
102
{ACAD_REACTORS
330
47
102
}
330
47
100
AcDbScale
 70
     0
300
6" = 1'-0"
140
6.0
141
12.0
290
     0
  0
SCALE
  5
68
102
{ACAD_REACTORS
330
47
102
}
330
47
100
AcDbScale
 70
     0
300
1'-0" = 1'-0"
140
12.0
141
12.0
290
     0
  0
ENDSEC
  0
EOF
