  0
SECTION
  2
HEADER
  9
$ACADVER
  1
AC1015
  9
$ACADMAINTVER
 70
     6
  9
$DWGCODEPAGE
  3
ANSI_1250
  9
$INSBASE
 10
0.0
 20
0.0
 30
0.0
  9
$EXTMIN
 10
0.0
 20
0.0
 30
0.0
  9
$EXTMAX
 10
420.0
 20
297.0
 30
0.0
  9
$LIMMIN
 10
0.0
 20
0.0
  9
$LIMMAX
 10
420.0
 20
297.0
  9
$ORTHOMODE
 70
     0
  9
$REGENMODE
 70
     1
  9
$FILLMODE
 70
     1
  9
$QTEXTMODE
 70
     0
  9
$MIRRTEXT
 70
     1
  9
$LTSCALE
 40
1.0
  9
$ATTMODE
 70
     1
  9
$TEXTSIZE
 40
3.5
  9
$TRACEWID
 40
1.0
  9
$TEXTSTYLE
  7
Standard
  9
$CLAYER
  8
0
  9
$CELTYPE
  6
ByLayer
  9
$CECOLOR
 62
   256
  9
$CELTSCALE
 40
1.0
  9
$DISPSILH
 70
     0
  9
$DIMSCALE
 40
1.0
  9
$DIMASZ
 40
3.302
  9
$DIMEXO
 40
1.0
  9
$DIMDLI
 40
3.75
  9
$DIMRND
 40
0.0
  9
$DIMDLE
 40
0.0
  9
$DIMEXE
 40
1.0
  9
$DIMTP
 40
0.0
  9
$DIMTM
 40
0.0
  9
$DIMTXT
 40
3.5
  9
$DIMCEN
 40
2.5
  9
$DIMTSZ
 40
0.0
  9
$DIMTOL
 70
     0
  9
$DIMLIM
 70
     0
  9
$DIMTIH
 70
     1
  9
$DIMTOH
 70
     1
  9
$DIMSE1
 70
     0
  9
$DIMSE2
 70
     0
  9
$DIMTAD
 70
     1
  9
$DIMZIN
 70
     1
  9
$DIMBLK
  1

  9
$DIMASO
 70
     1
  9
$DIMSHO
 70
     1
  9
$DIMPOST
  1

  9
$DIMAPOST
  1

  9
$DIMALT
 70
     0
  9
$DIMALTD
 70
     3
  9
$DIMALTF
 40
0.0393700787
  9
$DIMLFAC
 40
1.0
  9
$DIMTOFL
 70
     1
  9
$DIMTVP
 40
0.0
  9
$DIMTIX
 70
     0
  9
$DIMSOXD
 70
     0
  9
$DIMSAH
 70
     0
  9
$DIMBLK1
  1

  9
$DIMBLK2
  1

  9
$DIMSTYLE
  2
ISO-25
  9
$DIMCLRD
 70
     0
  9
$DIMCLRE
 70
     0
  9
$DIMCLRT
 70
     0
  9
$DIMTFAC
 40
1.0
  9
$DIMGAP
 40
1.524
  9
$DIMJUST
 70
     0
  9
$DIMSD1
 70
     0
  9
$DIMSD2
 70
     0
  9
$DIMTOLJ
 70
     0
  9
$DIMTZIN
 70
     1
  9
$DIMALTZ
 70
     0
  9
$DIMALTTZ
 70
     0
  9
$DIMUPT
 70
     0
  9
$DIMDEC
 70
     2
  9
$DIMTDEC
 70
     2
  9
$DIMALTU
 70
     2
  9
$DIMALTTD
 70
     3
  9
$DIMTXSTY
  7
Standard
  9
$DIMAUNIT
 70
     0
  9
$DIMADEC
 70
     2
  9
$DIMALTRND
 40
0.0
  9
$DIMAZIN
 70
     0
  9
$DIMDSEP
 70
    44
  9
$DIMATFIT
 70
     3
  9
$DIMFRAC
 70
     0
  9
$DIMLDRBLK
  1

  9
$DIMLUNIT
 70
     2
  9
$DIMLWD
 70
    -2
  9
$DIMLWE
 70
    -2
  9
$DIMTMOVE
 70
     0
  9
$LUNITS
 70
     2
  9
$LUPREC
 70
     2
  9
$SKETCHINC
 40
1.0
  9
$FILLETRAD
 40
10.0
  9
$AUNITS
 70
     0
  9
$AUPREC
 70
     2
  9
$MENU
  1
.
  9
$ELEVATION
 40
0.0
  9
$PELEVATION
 40
0.0
  9
$THICKNESS
 40
0.0
  9
$LIMCHECK
 70
     0
  9
$CHAMFERA
 40
0.0
  9
$CHAMFERB
 40
0.0
  9
$CHAMFERC
 40
0.0
  9
$CHAMFERD
 40
0.0
  9
$SKPOLY
 70
     0
  9
$TDCREATE
 40
2460782.612420394
  9
$TDUCREATE
 40
2460782.52908706
  9
$TDUPDATE
 40
2460782.612423472
  9
$TDUUPDATE
 40
2460782.529090139
  9
$TDINDWG
 40
0.0000000116
  9
$TDUSRTIMER
 40
0.0000000116
  9
$USRTIMER
 70
     1
  9
$ANGBASE
 50
0.0
  9
$ANGDIR
 70
     0
  9
$PDMODE
 70
     0
  9
$PDSIZE
 40
-1.0
  9
$PLINEWID
 40
0.0
  9
$SPLFRAME
 70
     0
  9
$SPLINETYPE
 70
     6
  9
$SPLINESEGS
 70
     8
  9
$HANDSEED
  5
3A7
  9
$SURFTAB1
 70
     6
  9
$SURFTAB2
 70
     6
  9
$SURFTYPE
 70
     6
  9
$SURFU
 70
     6
  9
$SURFV
 70
     6
  9
$UCSBASE
  2

  9
$UCSNAME
  2

  9
$UCSORG
 10
0.0
 20
0.0
 30
0.0
  9
$UCSXDIR
 10
1.0
 20
0.0
 30
0.0
  9
$UCSYDIR
 10
0.0
 20
1.0
 30
0.0
  9
$UCSORTHOREF
  2

  9
$UCSORTHOVIEW
 70
     0
  9
$UCSORGTOP
 10
0.0
 20
0.0
 30
0.0
  9
$UCSORGBOTTOM
 10
0.0
 20
0.0
 30
0.0
  9
$UCSORGLEFT
 10
0.0
 20
0.0
 30
0.0
  9
$UCSORGRIGHT
 10
0.0
 20
0.0
 30
0.0
  9
$UCSORGFRONT
 10
0.0
 20
0.0
 30
0.0
  9
$UCSORGBACK
 10
0.0
 20
0.0
 30
0.0
  9
$PUCSBASE
  2

  9
$PUCSNAME
  2

  9
$PUCSORG
 10
0.0
 20
0.0
 30
0.0
  9
$PUCSXDIR
 10
1.0
 20
0.0
 30
0.0
  9
$PUCSYDIR
 10
0.0
 20
1.0
 30
0.0
  9
$PUCSORTHOREF
  2

  9
$PUCSORTHOVIEW
 70
     0
  9
$PUCSORGTOP
 10
0.0
 20
0.0
 30
0.0
  9
$PUCSORGBOTTOM
 10
0.0
 20
0.0
 30
0.0
  9
$PUCSORGLEFT
 10
0.0
 20
0.0
 30
0.0
  9
$PUCSORGRIGHT
 10
0.0
 20
0.0
 30
0.0
  9
$PUCSORGFRONT
 10
0.0
 20
0.0
 30
0.0
  9
$PUCSORGBACK
 10
0.0
 20
0.0
 30
0.0
  9
$USERI1
 70
     0
  9
$USERI2
 70
     0
  9
$USERI3
 70
     0
  9
$USERI4
 70
     0
  9
$USERI5
 70
     0
  9
$USERR1
 40
0.0
  9
$USERR2
 40
0.0
  9
$USERR3
 40
0.0
  9
$USERR4
 40
0.0
  9
$USERR5
 40
0.0
  9
$WORLDVIEW
 70
     1
  9
$SHADEDGE
 70
     3
  9
$SHADEDIF
 70
    70
  9
$TILEMODE
 70
     1
  9
$MAXACTVP
 70
    64
  9
$PINSBASE
 10
0.0
 20
0.0
 30
0.0
  9
$PLIMCHECK
 70
     0
  9
$PEXTMIN
 10
1.0000000000E+20
 20
1.0000000000E+20
 30
1.0000000000E+20
  9
$PEXTMAX
 10
-1.0000000000E+20
 20
-1.0000000000E+20
 30
-1.0000000000E+20
  9
$PLIMMIN
 10
0.0
 20
0.0
  9
$PLIMMAX
 10
420.0
 20
297.0
  9
$UNITMODE
 70
     0
  9
$VISRETAIN
 70
     1
  9
$PLINEGEN
 70
     0
  9
$PSLTSCALE
 70
     1
  9
$TREEDEPTH
 70
  3020
  9
$CMLSTYLE
  2
Standard
  9
$CMLJUST
 70
     0
  9
$CMLSCALE
 40
20.0
  9
$PROXYGRAPHICS
 70
     1
  9
$MEASUREMENT
 70
     1
  9
$CELWEIGHT
370
    -1
  9
$ENDCAPS
280
     0
  9
$JOINSTYLE
280
     0
  9
$LWDISPLAY
290
     1
  9
$INSUNITS
 70
     4
  9
$HYPERLINKBASE
  1

  9
$STYLESHEET
  1

  9
$XEDIT
290
     1
  9
$CEPSNTYPE
380
     0
  9
$PSTYLEMODE
290
     1
  9
$FINGERPRINTGUID
  2
{07776ca6-21bd-4020-96fa-676c506ed51f}
  9
$VERSIONGUID
  2
{FAEB1C32-E019-11D5-929B-00C0DF256EC4}
  9
$EXTNAMES
290
     1
  9
$PSVPSCALE
 40
0.0
  9
$OLESTARTUP
290
     0
  0
ENDSEC
  0
SECTION
  2
CLASSES
  0
CLASS
  1
ACDBDICTIONARYWDFLT
  2
AcDbDictionaryWithDefault
  3
ObjectDBX Classes
 90
        0
280
     0
281
     0
  0
CLASS
  1
VISUALSTYLE
  2
AcDbVisualStyle
  3
ObjectDBX Classes
 90
     4095
280
     0
281
     0
  0
CLASS
  1
MATERIAL
  2
AcDbMaterial
  3
ObjectDBX Classes
 90
     1153
280
     0
281
     0
  0
CLASS
  1
SCALE
  2
AcDbScale
  3
ObjectDBX Classes
 90
     1153
280
     0
281
     0
  0
CLASS
  1
TABLESTYLE
  2
AcDbTableStyle
  3
ObjectDBX Classes
 90
     4095
280
     0
281
     0
  0
CLASS
  1
MLEADERSTYLE
  2
AcDbMLeaderStyle
  3
ACDB_MLEADERSTYLE_CLASS
 90
     4095
280
     0
281
     0
  0
CLASS
  1
SUN
  2
AcDbSun
  3
SCENEOE
 90
     1153
280
     0
281
     0
  0
CLASS
  1
ACDBPLACEHOLDER
  2
AcDbPlaceHolder
  3
ObjectDBX Classes
 90
        0
280
     0
281
     0
  0
CLASS
  1
LAYOUT
  2
AcDbLayout
  3
ObjectDBX Classes
 90
        0
280
     0
281
     0
  0
ENDSEC
  0
SECTION
  2
TABLES
  0
TABLE
  2
VPORT
  5
8
330
0
100
AcDbSymbolTable
 70
     1
  0
VPORT
  5
29
330
8
100
AcDbSymbolTableRecord
100
AcDbViewportTableRecord
  2
*Active
 70
     0
 10
0.0
 20
0.0
 11
1.0
 21
1.0
 12
210.0
 22
148.5
 13
0.0
 23
0.0
 14
10.0
 24
10.0
 15
10.0
 25
10.0
 16
0.0
 26
0.0
 36
1.0
 17
0.0
 27
0.0
 37
0.0
 40
297.0
 41
1.4141414141
 42
50.0
 43
0.0
 44
0.0
 50
0.0
 51
0.0
 71
     0
 72
  2000
 73
     1
 74
     3
 75
     0
 76
     0
 77
     0
 78
     0
281
     0
 65
     1
110
0.0
120
0.0
130
0.0
111
1.0
121
0.0
131
0.0
112
0.0
122
1.0
132
0.0
 79
     0
146
0.0
  0
ENDTAB
  0
TABLE
  2
LTYPE
  5
5
330
0
100
AcDbSymbolTable
 70
     6
  0
LTYPE
  5
14
330
5
100
AcDbSymbolTableRecord
100
AcDbLinetypeTableRecord
  2
ByBlock
 70
     0
  3

 72
    65
 73
     0
 40
0.0
  0
LTYPE
  5
15
330
5
100
AcDbSymbolTableRecord
100
AcDbLinetypeTableRecord
  2
ByLayer
 70
     0
  3

 72
    65
 73
     0
 40
0.0
  0
LTYPE
  5
16
330
5
100
AcDbSymbolTableRecord
100
AcDbLinetypeTableRecord
  2
Continuous
 70
     0
  3
Solid line
 72
    65
 73
     0
 40
0.0
  0
LTYPE
  5
6E
330
5
100
AcDbSymbolTableRecord
100
AcDbLinetypeTableRecord
  2
HIDDEN
 70
     0
  3
Hidden __ __ __ __ __ __ __ __ __ __ __ __ __ __
 72
    65
 73
     2
 40
1.905
 49
1.27
 74
     0
 49
-0.635
 74
     0
  0
LTYPE
  5
6F
330
5
100
AcDbSymbolTableRecord
100
AcDbLinetypeTableRecord
  2
PHANTOM
 70
     0
  3
Phantom ______  __  __  ______  __  __  ______
 72
    65
 73
     6
 40
12.7
 49
6.35
 74
     0
 49
-1.27
 74
     0
 49
1.27
 74
     0
 49
-1.27
 74
     0
 49
1.27
 74
     0
 49
-1.27
 74
     0
  0
LTYPE
  5
70
330
5
100
AcDbSymbolTableRecord
100
AcDbLinetypeTableRecord
  2
CENTER
 70
     0
  3
Center ____ _ ____ _ ____ _ ____ _ ____ _ ____
 72
    65
 73
     4
 40
10.16
 49
6.35
 74
     0
 49
-1.27
 74
     0
 49
1.27
 74
     0
 49
-1.27
 74
     0
  0
LTYPE
  5
71
330
5
100
AcDbSymbolTableRecord
100
AcDbLinetypeTableRecord
  2
CENTERX2
 70
     0
  3
Center (2x) ________  __  ________  __  _____
 72
    65
 73
     4
 40
20.32
 49
12.7
 74
     0
 49
-2.54
 74
     0
 49
2.54
 74
     0
 49
-2.54
 74
     0
  0
LTYPE
  5
72
330
5
100
AcDbSymbolTableRecord
100
AcDbLinetypeTableRecord
  2
DOT2
 70
     0
  3
Dot (.5x) ........................................
 72
    65
 73
     2
 40
0.635
 49
0.0
 74
     0
 49
-0.635
 74
     0
  0
ENDTAB
  0
TABLE
  2
LAYER
  5
2
330
0
100
AcDbSymbolTable
 70
     2
  0
LAYER
  5
10
330
2
100
AcDbSymbolTableRecord
100
AcDbLayerTableRecord
  2
0
 70
     0
 62
     7
  6
Continuous
370
    -3
390
F
  0
LAYER
  5
73
330
2
100
AcDbSymbolTableRecord
100
AcDbLayerTableRecord
  2
FORMAT
 70
     0
 62
     7
  6
Continuous
370
    -3
390
F
  0
ENDTAB
  0
TABLE
  2
STYLE
  5
3
330
0
100
AcDbSymbolTable
 70
     4
  0
STYLE
  5
11
330
3
100
AcDbSymbolTableRecord
100
AcDbTextStyleTableRecord
  2
Standard
 70
     0
 40
0.0
 41
1.0
 50
0.0
 71
     0
 42
3.5
  3
txt
  4

  0
STYLE
  5
B1
330
3
100
AcDbSymbolTableRecord
100
AcDbTextStyleTableRecord
  2
SLDTEXTSTYLE0
 70
     0
 40
0.0
 41
0.75
 50
0.0
 71
     0
 42
3.5
  3
TXT
  4

  0
STYLE
  5
D1
330
3
100
AcDbSymbolTableRecord
100
AcDbTextStyleTableRecord
  2
SLDTEXTSTYLE1
 70
     0
 40
0.0
 41
0.6875
 50
0.0
 71
     0
 42
3.5
  3
TXT
  4
bigfont
  0
STYLE
  5
D3
330
3
100
AcDbSymbolTableRecord
100
AcDbTextStyleTableRecord
  2
SLDTEXTSTYLE2
 70
     0
 40
0.0
 41
0.75
 50
0.0
 71
     0
 42
3.5
  3
TXT
  4
bigfont
  0
ENDTAB
  0
TABLE
  2
VIEW
  5
6
330
0
100
AcDbSymbolTable
 70
     0
  0
ENDTAB
  0
TABLE
  2
UCS
  5
7
330
0
100
AcDbSymbolTable
 70
     0
  0
ENDTAB
  0
TABLE
  2
APPID
  5
9
330
0
100
AcDbSymbolTable
 70
     1
  0
APPID
  5
12
330
9
100
AcDbSymbolTableRecord
100
AcDbRegAppTableRecord
  2
ACAD
 70
     0
  0
ENDTAB
  0
TABLE
  2
DIMSTYLE
  5
A
330
0
100
AcDbSymbolTable
 70
     6
100
AcDbDimStyleTable
  0
DIMSTYLE
105
27
330
A
100
AcDbSymbolTableRecord
100
AcDbDimStyleTableRecord
  2
ISO-25
 70
     0
 41
2.5
 42
0.625
 43
3.75
 44
1.25
 73
     0
 74
     0
 77
     1
 78
     8
140
2.5
141
2.5
143
0.0393700787
147
0.625
171
     3
172
     1
178
     0
271
     2
272
     2
274
     3
278
    44
283
     0
284
     8
340
11
  0
DIMSTYLE
105
254
102
{ACAD_REACTORS
330
253
330
275
330
281
330
28D
330
2A7
102
}
330
A
100
AcDbSymbolTableRecord
100
AcDbDimStyleTableRecord
  2
SLDDIMSTYLE0
 70
     0
 41
3.302
 44
0.0
 45
0.000000001
 73
     0
 74
     0
 77
     1
 78
    12
 79
     3
140
3.5
147
0.875
172
     1
173
     1
178
     0
271
     0
272
     0
276
     2
284
    12
289
     0
340
B1
  0
DIMSTYLE
105
261
102
{ACAD_REACTORS
330
260
330
26B
330
347
330
351
330
35B
330
365
102
}
330
A
100
AcDbSymbolTableRecord
100
AcDbDimStyleTableRecord
  2
SLDDIMSTYLE1
 70
     0
 41
3.302
 44
0.0
 45
0.000000001
 73
     0
 74
     0
 77
     1
 78
    12
 79
     3
140
3.5
147
0.875
173
     1
178
     0
271
     0
272
     0
276
     2
284
    12
340
B1
  0
DIMSTYLE
105
29B
102
{ACAD_REACTORS
330
29A
102
}
330
A
100
AcDbSymbolTableRecord
100
AcDbDimStyleTableRecord
  2
SLDDIMSTYLE2
 70
     0
 41
3.302
 44
0.0
 45
0.000000001
 73
     0
 74
     0
 77
     1
 78
    12
 79
     3
140
3.5
147
0.875
172
     1
173
     1
178
     0
271
     0
272
     2
276
     2
284
    12
289
     0
340
B1
  0
DIMSTYLE
105
332
102
{ACAD_REACTORS
330
331
330
36F
102
}
330
A
100
AcDbSymbolTableRecord
100
AcDbDimStyleTableRecord
  2
SLDDIMSTYLE3
 70
     0
  3
<>
 41
3.302
 44
0.0
 45
0.000000001
 73
     0
 74
     0
 77
     1
 78
    12
 79
     3
140
3.5
141
0.0
147
0.875
172
     1
173
     1
178
     0
271
     2
272
     2
276
     2
284
    12
340
B1
341
333
343
333
  0
DIMSTYLE
105
33E
102
{ACAD_REACTORS
330
33D
102
}
330
A
100
AcDbSymbolTableRecord
100
AcDbDimStyleTableRecord
  2
SLDDIMSTYLE4
 70
     0
 41
3.302
 44
0.0
 45
0.000000001
 73
     0
 74
     0
 77
     1
 78
    12
 79
     3
140
3.5
141
0.0
147
0.875
172
     1
173
     1
178
     0
271
     0
272
     2
276
     2
284
    12
340
B1
341
333
343
333
  0
ENDTAB
  0
TABLE
  2
BLOCK_RECORD
  5
1
330
0
100
AcDbSymbolTable
 70
    25
  0
BLOCK_RECORD
  5
1F
330
1
100
AcDbSymbolTableRecord
100
AcDbBlockTableRecord
  2
*Model_Space
340
22
  0
BLOCK_RECORD
  5
1B
330
1
100
AcDbSymbolTableRecord
100
AcDbBlockTableRecord
  2
*Paper_Space
340
1E
  0
BLOCK_RECORD
  5
23
330
1
100
AcDbSymbolTableRecord
100
AcDbBlockTableRecord
  2
*Paper_Space0
340
26
  0
BLOCK_RECORD
  5
DD
330
1
100
AcDbSymbolTableRecord
100
AcDbBlockTableRecord
  2
SW_NOTE_0
340
0
102
{BLKREFS
331
E2
102
}
  0
BLOCK_RECORD
  5
E4
330
1
100
AcDbSymbolTableRecord
100
AcDbBlockTableRecord
  2
SW_NOTE_0_1
340
0
102
{BLKREFS
331
ED
102
}
  0
BLOCK_RECORD
  5
255
330
1
100
AcDbSymbolTableRecord
100
AcDbBlockTableRecord
  2
_D
340
0
  0
BLOCK_RECORD
  5
262
330
1
100
AcDbSymbolTableRecord
100
AcDbBlockTableRecord
  2
_D_1
340
0
  0
BLOCK_RECORD
  5
26C
330
1
100
AcDbSymbolTableRecord
100
AcDbBlockTableRecord
  2
_D_2
340
0
  0
BLOCK_RECORD
  5
276
330
1
100
AcDbSymbolTableRecord
100
AcDbBlockTableRecord
  2
_D_3
340
0
  0
BLOCK_RECORD
  5
282
330
1
100
AcDbSymbolTableRecord
100
AcDbBlockTableRecord
  2
_D_4
340
0
  0
BLOCK_RECORD
  5
28E
330
1
100
AcDbSymbolTableRecord
100
AcDbBlockTableRecord
  2
_D_5
340
0
  0
BLOCK_RECORD
  5
29C
330
1
100
AcDbSymbolTableRecord
100
AcDbBlockTableRecord
  2
_D_6
340
0
  0
BLOCK_RECORD
  5
2A8
330
1
100
AcDbSymbolTableRecord
100
AcDbBlockTableRecord
  2
_D_7
340
0
  0
BLOCK_RECORD
  5
2B3
330
1
100
AcDbSymbolTableRecord
100
AcDbBlockTableRecord
  2
SW_CENTERMARKSYMBOL_0
340
0
102
{BLKREFS
331
2BE
102
}
  0
BLOCK_RECORD
  5
2BF
330
1
100
AcDbSymbolTableRecord
100
AcDbBlockTableRecord
  2
SW_CENTERMARKSYMBOL_1
340
0
102
{BLKREFS
331
2CA
102
}
  0
BLOCK_RECORD
  5
333
330
1
100
AcDbSymbolTableRecord
100
AcDbBlockTableRecord
  2
_None
340
0
  0
BLOCK_RECORD
  5
336
330
1
100
AcDbSymbolTableRecord
100
AcDbBlockTableRecord
  2
_D_8
340
0
  0
BLOCK_RECORD
  5
33F
330
1
100
AcDbSymbolTableRecord
100
AcDbBlockTableRecord
  2
_D_9
340
0
  0
BLOCK_RECORD
  5
348
330
1
100
AcDbSymbolTableRecord
100
AcDbBlockTableRecord
  2
_D_10
340
0
  0
BLOCK_RECORD
  5
352
330
1
100
AcDbSymbolTableRecord
100
AcDbBlockTableRecord
  2
_D_11
340
0
  0
BLOCK_RECORD
  5
35C
330
1
100
AcDbSymbolTableRecord
100
AcDbBlockTableRecord
  2
_D_12
340
0
  0
BLOCK_RECORD
  5
366
330
1
100
AcDbSymbolTableRecord
100
AcDbBlockTableRecord
  2
_D_13
340
0
  0
BLOCK_RECORD
  5
370
330
1
100
AcDbSymbolTableRecord
100
AcDbBlockTableRecord
  2
_D_14
340
0
  0
BLOCK_RECORD
  5
377
330
1
100
AcDbSymbolTableRecord
100
AcDbBlockTableRecord
  2
SW_CENTERMARKSYMBOL_2
340
0
102
{BLKREFS
331
382
102
}
  0
BLOCK_RECORD
  5
383
330
1
100
AcDbSymbolTableRecord
100
AcDbBlockTableRecord
  2
SW_CENTERMARKSYMBOL_3
340
0
102
{BLKREFS
331
38E
102
}
  0
BLOCK_RECORD
  5
38F
330
1
100
AcDbSymbolTableRecord
100
AcDbBlockTableRecord
  2
SW_CENTERMARKSYMBOL_4
340
0
102
{BLKREFS
331
39A
102
}
  0
BLOCK_RECORD
  5
39B
330
1
100
AcDbSymbolTableRecord
100
AcDbBlockTableRecord
  2
SW_CENTERMARKSYMBOL_5
340
0
102
{BLKREFS
331
3A6
102
}
  0
ENDTAB
  0
ENDSEC
  0
SECTION
  2
BLOCKS
  0
BLOCK
  5
20
330
1F
100
AcDbEntity
  8
0
100
AcDbBlockBegin
  2
*Model_Space
 70
     0
 10
0.0
 20
0.0
 30
0.0
  3
*Model_Space
  1

  0
ENDBLK
  5
21
330
1F
100
AcDbEntity
  8
0
100
AcDbBlockEnd
  0
BLOCK
  5
1C
330
1B
100
AcDbEntity
 67
     1
  8
0
100
AcDbBlockBegin
  2
*Paper_Space
 70
     0
 10
0.0
 20
0.0
 30
0.0
  3
*Paper_Space
  1

  0
ENDBLK
  5
1D
330
1B
100
AcDbEntity
 67
     1
  8
0
100
AcDbBlockEnd
  0
BLOCK
  5
24
330
23
100
AcDbEntity
  8
0
100
AcDbBlockBegin
  2
*Paper_Space0
 70
     0
 10
0.0
 20
0.0
 30
0.0
  3
*Paper_Space0
  1

  0
ENDBLK
  5
25
330
23
100
AcDbEntity
  8
0
100
AcDbBlockEnd
  0
BLOCK
  5
DE
330
DD
100
AcDbEntity
  8
0
100
AcDbBlockBegin
  2
SW_NOTE_0
 70
     0
 10
0.0
 20
0.0
 30
0.0
  3
SW_NOTE_0
  1

  0
MTEXT
  5
E0
330
DD
100
AcDbEntity
  8
0
  6
Continuous
 62
     0
370
     0
100
AcDbMText
 10
0.0
 20
1.9336016097
 30
0.0
 40
1.5
 41
0.0
 71
     1
 72
     1
  1
ODSTRANIT
  7
SLDTEXTSTYLE0
 73
     1
 44
1.0
  0
MTEXT
  5
E1
330
DD
100
AcDbEntity
  8
0
  6
Continuous
 62
     0
370
     0
100
AcDbMText
 10
0.0
 20
-0.5663983345
 30
0.0
 40
1.5
 41
0.0
 71
     1
 72
     1
  1
OSTRÉ HRANY
  7
SLDTEXTSTYLE0
 73
     1
 44
1.0
  0
ENDBLK
  5
DF
330
DD
100
AcDbEntity
  8
0
100
AcDbBlockEnd
  0
BLOCK
  5
E5
330
E4
100
AcDbEntity
  8
0
100
AcDbBlockBegin
  2
SW_NOTE_0_1
 70
     0
 10
0.0
 20
0.0
 30
0.0
  3
SW_NOTE_0_1
  1

  0
MTEXT
  5
E7
330
E4
100
AcDbEntity
  8
0
  6
Continuous
 62
     0
370
     0
100
AcDbMText
 10
0.0
 20
1.9336016097
 30
0.0
 40
1.5
 41
0.0
 71
     1
 72
     1
  1
POKUD NENÍ UVEDENO JINAK:
  7
SLDTEXTSTYLE0
 73
     1
 44
1.0
  0
MTEXT
  5
E8
330
E4
100
AcDbEntity
  8
0
  6
Continuous
 62
     0
370
     0
100
AcDbMText
 10
0.0
 20
-0.5663983345
 30
0.0
 40
1.5
 41
0.0
 71
     1
 72
     1
  1
JEDNOTKY JSOU V MILIMETRECH
  7
SLDTEXTSTYLE0
 73
     1
 44
1.0
  0
MTEXT
  5
E9
330
E4
100
AcDbEntity
  8
0
  6
Continuous
 62
     0
370
     0
100
AcDbMText
 10
0.0
 20
-3.0663982786
 30
0.0
 40
1.5
 41
0.0
 71
     1
 72
     1
  1
DRSNOST:
  7
SLDTEXTSTYLE0
 73
     1
 44
1.0
  0
MTEXT
  5
EA
330
E4
100
AcDbEntity
  8
0
  6
Continuous
 62
     0
370
     0
100
AcDbMText
 10
0.0
 20
-5.5663982227
 30
0.0
 40
1.5
 41
0.0
 71
     1
 72
     1
  1
TOLERANCE:
  7
SLDTEXTSTYLE0
 73
     1
 44
1.0
  0
MTEXT
  5
EB
330
E4
100
AcDbEntity
  8
0
  6
Continuous
 62
     0
370
     0
100
AcDbMText
 10
1.6875
 20
-8.0663981668
 30
0.0
 40
1.5
 41
0.0
 71
     1
 72
     1
  1
LINEÁRNÍ:
  7
SLDTEXTSTYLE0
 73
     1
 44
1.0
  0
MTEXT
  5
EC
330
E4
100
AcDbEntity
  8
0
  6
Continuous
 62
     0
370
     0
100
AcDbMText
 10
1.6875
 20
-10.5663981109
 30
0.0
 40
1.5
 41
0.0
 71
     1
 72
     1
  1
ÚHLOVÁ:
  7
SLDTEXTSTYLE0
 73
     1
 44
1.0
  0
ENDBLK
  5
E6
330
E4
100
AcDbEntity
  8
0
100
AcDbBlockEnd
  0
BLOCK
  5
256
330
255
100
AcDbEntity
  8
0
100
AcDbBlockBegin
  2
_D
 70
     0
 10
0.0
 20
0.0
 30
0.0
  3
_D
  1

  0
SOLID
  5
258
330
255
100
AcDbEntity
  8
0
  6
Continuous
 62
     7
370
    18
100
AcDbTrace
 10
214.94
 20
177.06
 30
0.0
 11
211.638
 21
177.568
 31
0.0
 12
211.638
 22
176.552
 32
0.0
 13
211.638
 23
176.552
 33
0.0
  0
SOLID
  5
259
330
255
100
AcDbEntity
  8
0
  6
Continuous
 62
     7
370
    18
100
AcDbTrace
 10
225.94
 20
177.06
 30
0.0
 11
229.242
 21
176.552
 31
0.0
 12
229.242
 22
177.568
 32
0.0
 13
229.242
 23
177.568
 33
0.0
  0
LINE
  5
25A
330
255
100
AcDbEntity
  8
0
  6
Continuous
 62
     7
370
     0
100
AcDbLine
 10
214.94
 20
186.06
 30
0.0
 11
214.94
 21
176.06
 31
0.0
  0
LINE
  5
25B
330
255
100
AcDbEntity
  8
0
  6
Continuous
 62
     7
370
     0
100
AcDbLine
 10
225.94
 20
208.56
 30
0.0
 11
225.94
 21
176.06
 31
0.0
  0
LINE
  5
25C
330
255
100
AcDbEntity
  8
0
  6
Continuous
 62
     7
370
     0
100
AcDbLine
 10
214.94
 20
177.06
 30
0.0
 11
208.59
 21
177.06
 31
0.0
  0
LINE
  5
25D
330
255
100
AcDbEntity
  8
0
  6
Continuous
 62
     7
370
     0
100
AcDbLine
 10
214.94
 20
177.06
 30
0.0
 11
225.94
 21
177.06
 31
0.0
  0
LINE
  5
25E
330
255
100
AcDbEntity
  8
0
  6
Continuous
 62
     7
370
     0
100
AcDbLine
 10
225.94
 20
177.06
 30
0.0
 11
232.29
 21
177.06
 31
0.0
  0
MTEXT
  5
25F
330
255
100
AcDbEntity
  8
0
  6
Continuous
 62
     7
370
    18
100
AcDbMText
 10
217.8538888065
 20
181.5717369146
 30
0.0
 40
3.5
 41
0.0
 71
     1
 72
     1
  1
11
  7
SLDTEXTSTYLE0
 73
     1
 44
1.0
  0
ENDBLK
  5
257
330
255
100
AcDbEntity
  8
0
100
AcDbBlockEnd
  0
BLOCK
  5
263
330
262
100
AcDbEntity
  8
0
100
AcDbBlockBegin
  2
_D_1
 70
     0
 10
0.0
 20
0.0
 30
0.0
  3
_D_1
  1

  0
SOLID
  5
265
330
262
100
AcDbEntity
  8
0
  6
Continuous
 62
     7
370
    18
100
AcDbTrace
 10
161.94
 20
264.06
 30
0.0
 11
165.242
 21
263.552
 31
0.0
 12
165.242
 22
264.568
 32
0.0
 13
165.242
 23
264.568
 33
0.0
  0
SOLID
  5
266
330
262
100
AcDbEntity
  8
0
  6
Continuous
 62
     7
370
    18
100
AcDbTrace
 10
204.94
 20
264.06
 30
0.0
 11
201.638
 21
264.568
 31
0.0
 12
201.638
 22
263.552
 32
0.0
 13
201.638
 23
263.552
 33
0.0
  0
LINE
  5
267
330
262
100
AcDbEntity
  8
0
  6
Continuous
 62
     7
370
     0
100
AcDbLine
 10
161.94
 20
248.06
 30
0.0
 11
161.94
 21
265.06
 31
0.0
  0
LINE
  5
268
330
262
100
AcDbEntity
  8
0
  6
Continuous
 62
     7
370
     0
100
AcDbLine
 10
204.94
 20
248.06
 30
0.0
 11
204.94
 21
265.06
 31
0.0
  0
LINE
  5
269
330
262
100
AcDbEntity
  8
0
  6
Continuous
 62
     7
370
     0
100
AcDbLine
 10
161.94
 20
264.06
 30
0.0
 11
204.94
 21
264.06
 31
0.0
  0
MTEXT
  5
26A
330
262
100
AcDbEntity
  8
0
  6
Continuous
 62
     7
370
    18
100
AcDbMText
 10
180.8538888065
 20
268.5717369146
 30
0.0
 40
3.5
 41
0.0
 71
     1
 72
     1
  1
43
  7
SLDTEXTSTYLE0
 73
     1
 44
1.0
  0
ENDBLK
  5
264
330
262
100
AcDbEntity
  8
0
100
AcDbBlockEnd
  0
BLOCK
  5
26D
330
26C
100
AcDbEntity
  8
0
100
AcDbBlockBegin
  2
_D_2
 70
     0
 10
0.0
 20
0.0
 30
0.0
  3
_D_2
  1

  0
SOLID
  5
26F
330
26C
100
AcDbEntity
  8
0
  6
Continuous
 62
     7
370
    18
100
AcDbTrace
 10
225.94
 20
171.06
 30
0.0
 11
222.638
 21
171.568
 31
0.0
 12
222.638
 22
170.552
 32
0.0
 13
222.638
 23
170.552
 33
0.0
  0
SOLID
  5
270
330
26C
100
AcDbEntity
  8
0
  6
Continuous
 62
     7
370
    18
100
AcDbTrace
 10
77.94
 20
171.06
 30
0.0
 11
81.242
 21
170.552
 31
0.0
 12
81.242
 22
171.568
 32
0.0
 13
81.242
 23
171.568
 33
0.0
  0
LINE
  5
271
330
26C
100
AcDbEntity
  8
0
  6
Continuous
 62
     7
370
     0
100
AcDbLine
 10
225.94
 20
208.56
 30
0.0
 11
225.94
 21
170.06
 31
0.0
  0
LINE
  5
272
330
26C
100
AcDbEntity
  8
0
  6
Continuous
 62
     7
370
     0
100
AcDbLine
 10
77.94
 20
186.06
 30
0.0
 11
77.94
 21
170.06
 31
0.0
  0
LINE
  5
273
330
26C
100
AcDbEntity
  8
0
  6
Continuous
 62
     7
370
     0
100
AcDbLine
 10
225.94
 20
171.06
 30
0.0
 11
77.94
 21
171.06
 31
0.0
  0
MTEXT
  5
274
330
26C
100
AcDbEntity
  8
0
  6
Continuous
 62
     7
370
    18
100
AcDbMText
 10
148.0608333261
 20
175.5717369146
 30
0.0
 40
3.5
 41
0.0
 71
     1
 72
     1
  1
148
  7
SLDTEXTSTYLE0
 73
     1
 44
1.0
  0
ENDBLK
  5
26E
330
26C
100
AcDbEntity
  8
0
100
AcDbBlockEnd
  0
BLOCK
  5
277
330
276
100
AcDbEntity
  8
0
100
AcDbBlockBegin
  2
_D_3
 70
     0
 10
0.0
 20
0.0
 30
0.0
  3
_D_3
  1

  0
SOLID
  5
279
330
276
100
AcDbEntity
  8
0
  6
Continuous
 62
     7
370
    18
100
AcDbTrace
 10
65.94
 20
177.06
 30
0.0
 11
62.638
 21
177.568
 31
0.0
 12
62.638
 22
176.552
 32
0.0
 13
62.638
 23
176.552
 33
0.0
  0
SOLID
  5
27A
330
276
100
AcDbEntity
  8
0
  6
Continuous
 62
     7
370
    18
100
AcDbTrace
 10
77.94
 20
177.06
 30
0.0
 11
81.242
 21
176.552
 31
0.0
 12
81.242
 22
177.568
 32
0.0
 13
81.242
 23
177.568
 33
0.0
  0
LINE
  5
27B
330
276
100
AcDbEntity
  8
0
  6
Continuous
 62
     7
370
     0
100
AcDbLine
 10
65.94
 20
190.01
 30
0.0
 11
65.94
 21
176.06
 31
0.0
  0
LINE
  5
27C
330
276
100
AcDbEntity
  8
0
  6
Continuous
 62
     7
370
     0
100
AcDbLine
 10
77.94
 20
186.06
 30
0.0
 11
77.94
 21
176.06
 31
0.0
  0
LINE
  5
27D
330
276
100
AcDbEntity
  8
0
  6
Continuous
 62
     7
370
     0
100
AcDbLine
 10
65.94
 20
177.06
 30
0.0
 11
59.59
 21
177.06
 31
0.0
  0
LINE
  5
27E
330
276
100
AcDbEntity
  8
0
  6
Continuous
 62
     7
370
     0
100
AcDbLine
 10
65.94
 20
177.06
 30
0.0
 11
77.94
 21
177.06
 31
0.0
  0
LINE
  5
27F
330
276
100
AcDbEntity
  8
0
  6
Continuous
 62
     7
370
     0
100
AcDbLine
 10
77.94
 20
177.06
 30
0.0
 11
84.29
 21
177.06
 31
0.0
  0
MTEXT
  5
280
330
276
100
AcDbEntity
  8
0
  6
Continuous
 62
     7
370
    18
100
AcDbMText
 10
69.3538888065
 20
181.5717369146
 30
0.0
 40
3.5
 41
0.0
 71
     1
 72
     1
  1
12
  7
SLDTEXTSTYLE0
 73
     1
 44
1.0
  0
ENDBLK
  5
278
330
276
100
AcDbEntity
  8
0
100
AcDbBlockEnd
  0
BLOCK
  5
283
330
282
100
AcDbEntity
  8
0
100
AcDbBlockBegin
  2
_D_4
 70
     0
 10
0.0
 20
0.0
 30
0.0
  3
_D_4
  1

  0
SOLID
  5
285
330
282
100
AcDbEntity
  8
0
  6
Continuous
 62
     7
370
    18
100
AcDbTrace
 10
214.94
 20
270.06
 30
0.0
 11
218.242
 21
269.552
 31
0.0
 12
218.242
 22
270.568
 32
0.0
 13
218.242
 23
270.568
 33
0.0
  0
SOLID
  5
286
330
282
100
AcDbEntity
  8
0
  6
Continuous
 62
     7
370
    18
100
AcDbTrace
 10
204.94
 20
270.06
 30
0.0
 11
201.638
 21
270.568
 31
0.0
 12
201.638
 22
269.552
 32
0.0
 13
201.638
 23
269.552
 33
0.0
  0
LINE
  5
287
330
282
100
AcDbEntity
  8
0
  6
Continuous
 62
     7
370
     0
100
AcDbLine
 10
214.94
 20
248.06
 30
0.0
 11
214.94
 21
271.06
 31
0.0
  0
LINE
  5
288
330
282
100
AcDbEntity
  8
0
  6
Continuous
 62
     7
370
     0
100
AcDbLine
 10
204.94
 20
248.06
 30
0.0
 11
204.94
 21
271.06
 31
0.0
  0
LINE
  5
289
330
282
100
AcDbEntity
  8
0
  6
Continuous
 62
     7
370
     0
100
AcDbLine
 10
214.94
 20
270.06
 30
0.0
 11
221.29
 21
270.06
 31
0.0
  0
LINE
  5
28A
330
282
100
AcDbEntity
  8
0
  6
Continuous
 62
     7
370
     0
100
AcDbLine
 10
214.94
 20
270.06
 30
0.0
 11
204.94
 21
270.06
 31
0.0
  0
LINE
  5
28B
330
282
100
AcDbEntity
  8
0
  6
Continuous
 62
     7
370
     0
100
AcDbLine
 10
204.94
 20
270.06
 30
0.0
 11
198.59
 21
270.06
 31
0.0
  0
MTEXT
  5
28C
330
282
100
AcDbEntity
  8
0
  6
Continuous
 62
     7
370
    18
100
AcDbMText
 10
207.3538888065
 20
274.5717369146
 30
0.0
 40
3.5
 41
0.0
 71
     1
 72
     1
  1
10
  7
SLDTEXTSTYLE0
 73
     1
 44
1.0
  0
ENDBLK
  5
284
330
282
100
AcDbEntity
  8
0
100
AcDbBlockEnd
  0
BLOCK
  5
28F
330
28E
100
AcDbEntity
  8
0
100
AcDbBlockBegin
  2
_D_5
 70
     0
 10
0.0
 20
0.0
 30
0.0
  3
_D_5
  1

  0
SOLID
  5
291
330
28E
100
AcDbEntity
  8
0
  6
Continuous
 62
     7
370
    18
100
AcDbTrace
 10
235.94
 20
208.06
 30
0.0
 11
235.432
 21
204.758
 31
0.0
 12
236.448
 22
204.758
 32
0.0
 13
236.448
 23
204.758
 33
0.0
  0
SOLID
  5
292
330
28E
100
AcDbEntity
  8
0
  6
Continuous
 62
     7
370
    18
100
AcDbTrace
 10
235.94
 20
226.06
 30
0.0
 11
236.448
 21
229.362
 31
0.0
 12
235.432
 22
229.362
 32
0.0
 13
235.432
 23
229.362
 33
0.0
  0
LINE
  5
293
330
28E
100
AcDbEntity
  8
0
  6
Continuous
 62
     7
370
     0
100
AcDbLine
 10
220.44
 20
208.06
 30
0.0
 11
236.94
 21
208.06
 31
0.0
  0
LINE
  5
294
330
28E
100
AcDbEntity
  8
0
  6
Continuous
 62
     7
370
     0
100
AcDbLine
 10
220.44
 20
226.06
 30
0.0
 11
236.94
 21
226.06
 31
0.0
  0
LINE
  5
295
330
28E
100
AcDbEntity
  8
0
  6
Continuous
 62
     7
370
     0
100
AcDbLine
 10
235.94
 20
208.06
 30
0.0
 11
235.94
 21
201.71
 31
0.0
  0
LINE
  5
296
330
28E
100
AcDbEntity
  8
0
  6
Continuous
 62
     7
370
     0
100
AcDbLine
 10
235.94
 20
208.06
 30
0.0
 11
235.94
 21
226.06
 31
0.0
  0
LINE
  5
297
330
28E
100
AcDbEntity
  8
0
  6
Continuous
 62
     7
370
     0
100
AcDbLine
 10
235.94
 20
226.06
 30
0.0
 11
235.94
 21
232.41
 31
0.0
  0
MTEXT
  5
298
330
28E
100
AcDbEntity
  8
0
  6
Continuous
 62
     7
370
    18
100
AcDbMText
 10
231.4282629108
 20
211.8346698745
 30
0.0
 40
3.5
 41
0.0
 71
     1
 72
     1
  1
%%c
  7
SLDTEXTSTYLE0
 11
6.123233995736766E-17
 21
1.0
 31
0.0
 73
     1
 44
1.0
  0
MTEXT
  5
299
330
28E
100
AcDbEntity
  8
0
  6
Continuous
 62
     7
370
    18
100
AcDbMText
 10
231.3747907341
 20
217.1131072728
 30
0.0
 40
3.5
 41
0.0
 71
     1
 72
     1
  1
18
  7
SLDTEXTSTYLE0
 11
6.123233995736766E-17
 21
1.0
 31
0.0
 73
     1
 44
1.0
  0
ENDBLK
  5
290
330
28E
100
AcDbEntity
  8
0
100
AcDbBlockEnd
  0
BLOCK
  5
29D
330
29C
100
AcDbEntity
  8
0
100
AcDbBlockBegin
  2
_D_6
 70
     0
 10
0.0
 20
0.0
 30
0.0
  3
_D_6
  1

  0
SOLID
  5
29F
330
29C
100
AcDbEntity
  8
0
  6
Continuous
 62
     7
370
    18
100
AcDbTrace
 10
247.94
 20
232.06
 30
0.0
 11
247.432
 21
228.758
 31
0.0
 12
248.448
 22
228.758
 32
0.0
 13
248.448
 23
228.758
 33
0.0
  0
SOLID
  5
2A0
330
29C
100
AcDbEntity
  8
0
  6
Continuous
 62
     7
370
    18
100
AcDbTrace
 10
247.94
 20
202.06
 30
0.0
 11
248.448
 21
205.362
 31
0.0
 12
247.432
 22
205.362
 32
0.0
 13
247.432
 23
205.362
 33
0.0
  0
LINE
  5
2A1
330
29C
100
AcDbEntity
  8
0
  6
Continuous
 62
     7
370
     0
100
AcDbLine
 10
223.44
 20
232.06
 30
0.0
 11
248.94
 21
232.06
 31
0.0
  0
LINE
  5
2A2
330
29C
100
AcDbEntity
  8
0
  6
Continuous
 62
     7
370
     0
100
AcDbLine
 10
223.44
 20
202.06
 30
0.0
 11
248.94
 21
202.06
 31
0.0
  0
LINE
  5
2A3
330
29C
100
AcDbEntity
  8
0
  6
Continuous
 62
     7
370
     0
100
AcDbLine
 10
247.94
 20
232.06
 30
0.0
 11
247.94
 21
202.06
 31
0.0
  0
MTEXT
  5
2A4
330
29C
100
AcDbEntity
  8
0
  6
Continuous
 62
     7
370
    18
100
AcDbMText
 10
243.4282629108
 20
209.1634891158
 30
0.0
 40
3.5
 41
0.0
 71
     1
 72
     1
  1
%%c
  7
SLDTEXTSTYLE0
 11
-7.044195017643634E-15
 21
1.0
 31
0.0
 73
     1
 44
1.0
  0
MTEXT
  5
2A5
330
29C
100
AcDbEntity
  8
0
  6
Continuous
 62
     7
370
    18
100
AcDbMText
 10
243.3747907341
 20
214.4419265142
 30
0.0
 40
3.5
 41
0.0
 71
     1
 72
     1
  1
30
  7
SLDTEXTSTYLE0
 11
-7.044195017643634E-15
 21
1.0
 31
0.0
 73
     1
 44
1.0
  0
MTEXT
  5
2A6
330
29C
100
AcDbEntity
  8
0
  6
Continuous
 62
     7
370
    18
100
AcDbMText
 10
243.3747907341
 20
220.9266484356
 30
0.0
 40
3.5
 41
0.0
 71
     1
 72
     1
  1
f9
  7
SLDTEXTSTYLE0
 11
-7.044195017643634E-15
 21
1.0
 31
0.0
 73
     1
 44
1.0
  0
ENDBLK
  5
29E
330
29C
100
AcDbEntity
  8
0
100
AcDbBlockEnd
  0
BLOCK
  5
2A9
330
2A8
100
AcDbEntity
  8
0
100
AcDbBlockBegin
  2
_D_7
 70
     0
 10
0.0
 20
0.0
 30
0.0
  3
_D_7
  1

  0
SOLID
  5
2AB
330
2A8
100
AcDbEntity
  8
0
  6
Continuous
 62
     7
370
    18
100
AcDbTrace
 10
222.94
 20
264.06
 30
0.0
 11
226.242
 21
263.552
 31
0.0
 12
226.242
 22
264.568
 32
0.0
 13
226.242
 23
264.568
 33
0.0
  0
SOLID
  5
2AC
330
2A8
100
AcDbEntity
  8
0
  6
Continuous
 62
     7
370
    18
100
AcDbTrace
 10
214.94
 20
264.06
 30
0.0
 11
211.638
 21
264.568
 31
0.0
 12
211.638
 22
263.552
 32
0.0
 13
211.638
 23
263.552
 33
0.0
  0
LINE
  5
2AD
330
2A8
100
AcDbEntity
  8
0
  6
Continuous
 62
     7
370
     0
100
AcDbLine
 10
222.94
 20
232.56
 30
0.0
 11
222.94
 21
265.06
 31
0.0
  0
LINE
  5
2AE
330
2A8
100
AcDbEntity
  8
0
  6
Continuous
 62
     7
370
     0
100
AcDbLine
 10
214.94
 20
248.06
 30
0.0
 11
214.94
 21
265.06
 31
0.0
  0
LINE
  5
2AF
330
2A8
100
AcDbEntity
  8
0
  6
Continuous
 62
     7
370
     0
100
AcDbLine
 10
222.94
 20
264.06
 30
0.0
 11
229.29
 21
264.06
 31
0.0
  0
LINE
  5
2B0
330
2A8
100
AcDbEntity
  8
0
  6
Continuous
 62
     7
370
     0
100
AcDbLine
 10
222.94
 20
264.06
 30
0.0
 11
214.94
 21
264.06
 31
0.0
  0
LINE
  5
2B1
330
2A8
100
AcDbEntity
  8
0
  6
Continuous
 62
     7
370
     0
100
AcDbLine
 10
214.94
 20
264.06
 30
0.0
 11
208.59
 21
264.06
 31
0.0
  0
MTEXT
  5
2B2
330
2A8
100
AcDbEntity
  8
0
  6
Continuous
 62
     7
370
    18
100
AcDbMText
 10
217.6469444032
 20
268.5717369146
 30
0.0
 40
3.5
 41
0.0
 71
     1
 72
     1
  1
8
  7
SLDTEXTSTYLE0
 73
     1
 44
1.0
  0
ENDBLK
  5
2AA
330
2A8
100
AcDbEntity
  8
0
100
AcDbBlockEnd
  0
BLOCK
  5
2B4
330
2B3
100
AcDbEntity
  8
0
100
AcDbBlockBegin
  2
SW_CENTERMARKSYMBOL_0
 70
     0
 10
0.0
 20
0.0
 30
0.0
  3
SW_CENTERMARKSYMBOL_0
  1

  0
LINE
  5
2B6
330
2B3
100
AcDbEntity
  8
0
  6
Continuous
 62
     0
370
    18
100
AcDbLine
 10
0.0
 20
0.0
 30
0.0
 11
0.0
 21
2.5
 31
0.0
  0
LINE
  5
2B7
330
2B3
100
AcDbEntity
  8
0
  6
Continuous
 62
     0
370
    18
100
AcDbLine
 10
0.0
 20
0.0
 30
0.0
 11
-2.5
 21
0.0
 31
0.0
  0
LINE
  5
2B8
330
2B3
100
AcDbEntity
  8
0
  6
Continuous
 62
     0
370
    18
100
AcDbLine
 10
0.0
 20
0.0
 30
0.0
 11
0.0
 21
-2.5
 31
0.0
  0
LINE
  5
2B9
330
2B3
100
AcDbEntity
  8
0
  6
Continuous
 62
     0
370
    18
100
AcDbLine
 10
0.0
 20
0.0
 30
0.0
 11
2.5
 21
0.0
 31
0.0
  0
LINE
  5
2BA
330
2B3
100
AcDbEntity
  8
0
  6
Continuous
 62
     0
370
    18
100
AcDbLine
 10
0.0
 20
5.0
 30
0.0
 11
0.0
 21
14.5
 31
0.0
  0
LINE
  5
2BB
330
2B3
100
AcDbEntity
  8
0
  6
Continuous
 62
     0
370
    18
100
AcDbLine
 10
-5.0
 20
0.0
 30
0.0
 11
-14.5
 21
0.0
 31
0.0
  0
LINE
  5
2BC
330
2B3
100
AcDbEntity
  8
0
  6
Continuous
 62
     0
370
    18
100
AcDbLine
 10
0.0
 20
-5.0
 30
0.0
 11
0.0
 21
-14.5
 31
0.0
  0
LINE
  5
2BD
330
2B3
100
AcDbEntity
  8
0
  6
Continuous
 62
     0
370
    18
100
AcDbLine
 10
5.0
 20
0.0
 30
0.0
 11
14.5
 21
0.0
 31
0.0
  0
ENDBLK
  5
2B5
330
2B3
100
AcDbEntity
  8
0
100
AcDbBlockEnd
  0
BLOCK
  5
2C0
330
2BF
100
AcDbEntity
  8
0
100
AcDbBlockBegin
  2
SW_CENTERMARKSYMBOL_1
 70
     0
 10
0.0
 20
0.0
 30
0.0
  3
SW_CENTERMARKSYMBOL_1
  1

  0
LINE
  5
2C2
330
2BF
100
AcDbEntity
  8
0
  6
Continuous
 62
     0
370
    18
100
AcDbLine
 10
0.0
 20
0.0
 30
0.0
 11
0.0
 21
2.5
 31
0.0
  0
LINE
  5
2C3
330
2BF
100
AcDbEntity
  8
0
  6
Continuous
 62
     0
370
    18
100
AcDbLine
 10
0.0
 20
0.0
 30
0.0
 11
-2.5
 21
0.0
 31
0.0
  0
LINE
  5
2C4
330
2BF
100
AcDbEntity
  8
0
  6
Continuous
 62
     0
370
    18
100
AcDbLine
 10
0.0
 20
0.0
 30
0.0
 11
0.0
 21
-2.5
 31
0.0
  0
LINE
  5
2C5
330
2BF
100
AcDbEntity
  8
0
  6
Continuous
 62
     0
370
    18
100
AcDbLine
 10
0.0
 20
0.0
 30
0.0
 11
2.5
 21
0.0
 31
0.0
  0
LINE
  5
2C6
330
2BF
100
AcDbEntity
  8
0
  6
Continuous
 62
     0
370
    18
100
AcDbLine
 10
0.0
 20
5.0
 30
0.0
 11
0.0
 21
14.5
 31
0.0
  0
LINE
  5
2C7
330
2BF
100
AcDbEntity
  8
0
  6
Continuous
 62
     0
370
    18
100
AcDbLine
 10
-5.0
 20
0.0
 30
0.0
 11
-14.5
 21
0.0
 31
0.0
  0
LINE
  5
2C8
330
2BF
100
AcDbEntity
  8
0
  6
Continuous
 62
     0
370
    18
100
AcDbLine
 10
0.0
 20
-5.0
 30
0.0
 11
0.0
 21
-14.5
 31
0.0
  0
LINE
  5
2C9
330
2BF
100
AcDbEntity
  8
0
  6
Continuous
 62
     0
370
    18
100
AcDbLine
 10
5.0
 20
0.0
 30
0.0
 11
14.5
 21
0.0
 31
0.0
  0
ENDBLK
  5
2C1
330
2BF
100
AcDbEntity
  8
0
100
AcDbBlockEnd
  0
BLOCK
  5
334
330
333
100
AcDbEntity
  8
0
100
AcDbBlockBegin
  2
_None
 70
     0
 10
0.0
 20
0.0
 30
0.0
  3
_None
  1

  0
ENDBLK
  5
335
330
333
100
AcDbEntity
  8
0
100
AcDbBlockEnd
  0
BLOCK
  5
337
330
336
100
AcDbEntity
  8
0
100
AcDbBlockBegin
  2
_D_8
 70
     0
 10
0.0
 20
0.0
 30
0.0
  3
_D_8
  1

  0
SOLID
  5
339
330
336
100
AcDbEntity
  8
0
  6
Continuous
 62
     7
370
    18
100
AcDbTrace
 10
124.0592143262
 20
64.3025033706
 30
0.0
 11
126.3778599124
 21
61.89726936
 31
0.0
 12
126.9935998191
 22
62.7054279875
 32
0.0
 13
126.9935998191
 23
62.7054279875
 33
0.0
  0
LINE
  5
33A
330
336
100
AcDbEntity
  8
0
  6
Continuous
 62
     7
370
     0
100
AcDbLine
 10
124.0592143262
 20
64.3025033706
 30
0.0
 11
180.1184504703
 21
21.5907044036
 31
0.0
  0
LINE
  5
33B
330
336
100
AcDbEntity
  8
0
  6
Continuous
 62
     7
370
     0
100
AcDbLine
 10
124.0592143262
 20
64.3025033706
 30
0.0
 11
116.8207856739
 21
69.8174966294
 31
0.0
  0
MTEXT
  5
33C
330
336
100
AcDbEntity
  8
0
  6
Continuous
 62
     7
370
    18
100
AcDbMText
 10
168.4014766175
 20
36.1868933524
 30
0.0
 40
3.5
 41
0.0
 71
     1
 72
     1
  1
M14x1.5
  7
SLDTEXTSTYLE0
 11
0.7954317200324796
 21
-0.6060432152628812
 31
0.0
 73
     1
 44
1.0
  0
ENDBLK
  5
338
330
336
100
AcDbEntity
  8
0
100
AcDbBlockEnd
  0
BLOCK
  5
340
330
33F
100
AcDbEntity
  8
0
100
AcDbBlockBegin
  2
_D_9
 70
     0
 10
0.0
 20
0.0
 30
0.0
  3
_D_9
  1

  0
SOLID
  5
342
330
33F
100
AcDbEntity
  8
0
  6
Continuous
 62
     7
370
    18
100
AcDbTrace
 10
96.577048399
 20
48.8787035421
 30
0.0
 11
93.6426629061
 21
47.2816281591
 31
0.0
 12
94.2584028129
 22
46.4734695315
 32
0.0
 13
94.2584028129
 23
46.4734695315
 33
0.0
  0
LINE
  5
343
330
33F
100
AcDbEntity
  8
0
  6
Continuous
 62
     7
370
     0
100
AcDbLine
 10
96.577048399
 20
48.8787035421
 30
0.0
 11
63.8309492043
 21
23.9292946318
 31
0.0
  0
LINE
  5
344
330
33F
100
AcDbEntity
  8
0
  6
Continuous
 62
     7
370
     0
100
AcDbLine
 10
96.577048399
 20
48.8787035421
 30
0.0
 11
144.302951601
 21
85.2412964579
 31
0.0
  0
MTEXT
  5
345
330
33F
100
AcDbEntity
  8
0
  6
Continuous
 62
     7
370
    18
100
AcDbMText
 10
61.0981744288
 20
27.5160615247
 30
0.0
 40
3.5
 41
0.0
 71
     1
 72
     1
  1
%%c
  7
SLDTEXTSTYLE0
 11
0.7954317200324663
 21
0.6060432152628986
 31
0.0
 73
     1
 44
1.0
  0
MTEXT
  5
346
330
33F
100
AcDbEntity
  8
0
  6
Continuous
 62
     7
370
    18
100
AcDbMText
 10
65.2644045178
 20
30.7575561626
 30
0.0
 40
3.5
 41
0.0
 71
     1
 72
     1
  1
60
  7
SLDTEXTSTYLE0
 11
0.7954317200324663
 21
0.6060432152628986
 31
0.0
 73
     1
 44
1.0
  0
ENDBLK
  5
341
330
33F
100
AcDbEntity
  8
0
100
AcDbBlockEnd
  0
BLOCK
  5
349
330
348
100
AcDbEntity
  8
0
100
AcDbBlockBegin
  2
_D_10
 70
     0
 10
0.0
 20
0.0
 30
0.0
  3
_D_10
  1

  0
SOLID
  5
34B
330
348
100
AcDbEntity
  8
0
  6
Continuous
 62
     7
370
    18
100
AcDbTrace
 10
184.94
 20
87.56
 30
0.0
 11
184.432
 21
84.258
 31
0.0
 12
185.448
 22
84.258
 32
0.0
 13
185.448
 23
84.258
 33
0.0
  0
SOLID
  5
34C
330
348
100
AcDbEntity
  8
0
  6
Continuous
 62
     7
370
    18
100
AcDbTrace
 10
184.94
 20
46.56
 30
0.0
 11
185.448
 21
49.862
 31
0.0
 12
184.432
 22
49.862
 32
0.0
 13
184.432
 23
49.862
 33
0.0
  0
LINE
  5
34D
330
348
100
AcDbEntity
  8
0
  6
Continuous
 62
     7
370
     0
100
AcDbLine
 10
173.44
 20
87.56
 30
0.0
 11
185.94
 21
87.56
 31
0.0
  0
LINE
  5
34E
330
348
100
AcDbEntity
  8
0
  6
Continuous
 62
     7
370
     0
100
AcDbLine
 10
172.94
 20
46.56
 30
0.0
 11
185.94
 21
46.56
 31
0.0
  0
LINE
  5
34F
330
348
100
AcDbEntity
  8
0
  6
Continuous
 62
     7
370
     0
100
AcDbLine
 10
184.94
 20
87.56
 30
0.0
 11
184.94
 21
46.56
 31
0.0
  0
MTEXT
  5
350
330
348
100
AcDbEntity
  8
0
  6
Continuous
 62
     7
370
    18
100
AcDbMText
 10
180.4282630855
 20
64.4738888065
 30
0.0
 40
3.5
 41
0.0
 71
     1
 72
     1
  1
41
  7
SLDTEXTSTYLE0
 11
-7.044195017643634E-15
 21
1.0
 31
0.0
 73
     1
 44
1.0
  0
ENDBLK
  5
34A
330
348
100
AcDbEntity
  8
0
100
AcDbBlockEnd
  0
BLOCK
  5
353
330
352
100
AcDbEntity
  8
0
100
AcDbBlockBegin
  2
_D_11
 70
     0
 10
0.0
 20
0.0
 30
0.0
  3
_D_11
  1

  0
SOLID
  5
355
330
352
100
AcDbEntity
  8
0
  6
Continuous
 62
     7
370
    18
100
AcDbTrace
 10
190.94
 20
37.06
 30
0.0
 11
191.448
 21
40.362
 31
0.0
 12
190.432
 22
40.362
 32
0.0
 13
190.432
 23
40.362
 33
0.0
  0
SOLID
  5
356
330
352
100
AcDbEntity
  8
0
  6
Continuous
 62
     7
370
    18
100
AcDbTrace
 10
190.94
 20
97.06
 30
0.0
 11
190.432
 21
93.758
 31
0.0
 12
191.448
 22
93.758
 32
0.0
 13
191.448
 23
93.758
 33
0.0
  0
LINE
  5
357
330
352
100
AcDbEntity
  8
0
  6
Continuous
 62
     7
370
     0
100
AcDbLine
 10
121.44
 20
37.06
 30
0.0
 11
191.94
 21
37.06
 31
0.0
  0
LINE
  5
358
330
352
100
AcDbEntity
  8
0
  6
Continuous
 62
     7
370
     0
100
AcDbLine
 10
121.44
 20
97.06
 30
0.0
 11
191.94
 21
97.06
 31
0.0
  0
LINE
  5
359
330
352
100
AcDbEntity
  8
0
  6
Continuous
 62
     7
370
     0
100
AcDbLine
 10
190.94
 20
37.06
 30
0.0
 11
190.94
 21
97.06
 31
0.0
  0
MTEXT
  5
35A
330
352
100
AcDbEntity
  8
0
  6
Continuous
 62
     7
370
    18
100
AcDbMText
 10
186.4282630855
 20
64.4738888065
 30
0.0
 40
3.5
 41
0.0
 71
     1
 72
     1
  1
60
  7
SLDTEXTSTYLE0
 11
-1.608122649676637E-16
 21
1.0
 31
0.0
 73
     1
 44
1.0
  0
ENDBLK
  5
354
330
352
100
AcDbEntity
  8
0
100
AcDbBlockEnd
  0
BLOCK
  5
35D
330
35C
100
AcDbEntity
  8
0
100
AcDbBlockBegin
  2
_D_12
 70
     0
 10
0.0
 20
0.0
 30
0.0
  3
_D_12
  1

  0
SOLID
  5
35F
330
35C
100
AcDbEntity
  8
0
  6
Continuous
 62
     7
370
    18
100
AcDbTrace
 10
76.94
 20
114.06
 30
0.0
 11
80.242
 21
113.552
 31
0.0
 12
80.242
 22
114.568
 32
0.0
 13
80.242
 23
114.568
 33
0.0
  0
SOLID
  5
360
330
35C
100
AcDbEntity
  8
0
  6
Continuous
 62
     7
370
    18
100
AcDbTrace
 10
163.94
 20
114.06
 30
0.0
 11
160.638
 21
114.568
 31
0.0
 12
160.638
 22
113.552
 32
0.0
 13
160.638
 23
113.552
 33
0.0
  0
LINE
  5
361
330
35C
100
AcDbEntity
  8
0
  6
Continuous
 62
     7
370
     0
100
AcDbLine
 10
76.94
 20
97.06
 30
0.0
 11
76.94
 21
115.06
 31
0.0
  0
LINE
  5
362
330
35C
100
AcDbEntity
  8
0
  6
Continuous
 62
     7
370
     0
100
AcDbLine
 10
163.94
 20
97.06
 30
0.0
 11
163.94
 21
115.06
 31
0.0
  0
LINE
  5
363
330
35C
100
AcDbEntity
  8
0
  6
Continuous
 62
     7
370
     0
100
AcDbLine
 10
76.94
 20
114.06
 30
0.0
 11
163.94
 21
114.06
 31
0.0
  0
MTEXT
  5
364
330
35C
100
AcDbEntity
  8
0
  6
Continuous
 62
     7
370
    18
100
AcDbMText
 10
117.8538888065
 20
118.5717369146
 30
0.0
 40
3.5
 41
0.0
 71
     1
 72
     1
  1
87
  7
SLDTEXTSTYLE0
 73
     1
 44
1.0
  0
ENDBLK
  5
35E
330
35C
100
AcDbEntity
  8
0
100
AcDbBlockEnd
  0
BLOCK
  5
367
330
366
100
AcDbEntity
  8
0
100
AcDbBlockBegin
  2
_D_13
 70
     0
 10
0.0
 20
0.0
 30
0.0
  3
_D_13
  1

  0
SOLID
  5
369
330
366
100
AcDbEntity
  8
0
  6
Continuous
 62
     7
370
    18
100
AcDbTrace
 10
65.94
 20
120.06
 30
0.0
 11
69.242
 21
119.552
 31
0.0
 12
69.242
 22
120.568
 32
0.0
 13
69.242
 23
120.568
 33
0.0
  0
SOLID
  5
36A
330
366
100
AcDbEntity
  8
0
  6
Continuous
 62
     7
370
    18
100
AcDbTrace
 10
174.94
 20
120.06
 30
0.0
 11
171.638
 21
120.568
 31
0.0
 12
171.638
 22
119.552
 32
0.0
 13
171.638
 23
119.552
 33
0.0
  0
LINE
  5
36B
330
366
100
AcDbEntity
  8
0
  6
Continuous
 62
     7
370
     0
100
AcDbLine
 10
65.94
 20
97.56
 30
0.0
 11
65.94
 21
121.06
 31
0.0
  0
LINE
  5
36C
330
366
100
AcDbEntity
  8
0
  6
Continuous
 62
     7
370
     0
100
AcDbLine
 10
174.94
 20
97.56
 30
0.0
 11
174.94
 21
121.06
 31
0.0
  0
LINE
  5
36D
330
366
100
AcDbEntity
  8
0
  6
Continuous
 62
     7
370
     0
100
AcDbLine
 10
65.94
 20
120.06
 30
0.0
 11
174.94
 21
120.06
 31
0.0
  0
MTEXT
  5
36E
330
366
100
AcDbEntity
  8
0
  6
Continuous
 62
     7
370
    18
100
AcDbMText
 10
116.5608333262
 20
124.5717369146
 30
0.0
 40
3.5
 41
0.0
 71
     1
 72
     1
  1
109
  7
SLDTEXTSTYLE0
 73
     1
 44
1.0
  0
ENDBLK
  5
368
330
366
100
AcDbEntity
  8
0
100
AcDbBlockEnd
  0
BLOCK
  5
371
330
370
100
AcDbEntity
  8
0
100
AcDbBlockBegin
  2
_D_14
 70
     0
 10
0.0
 20
0.0
 30
0.0
  3
_D_14
  1

  0
SOLID
  5
373
330
370
100
AcDbEntity
  8
0
  6
Continuous
 62
     7
370
    18
100
AcDbTrace
 10
72.4319461319
 20
83.6005239839
 30
0.0
 11
69.6157781838
 21
81.8031742438
 31
0.0
 12
70.2862494559
 22
81.0398104555
 32
0.0
 13
70.2862494559
 23
81.0398104555
 33
0.0
  0
LINE
  5
374
330
370
100
AcDbEntity
  8
0
  6
Continuous
 62
     7
370
     0
100
AcDbLine
 10
72.4319461319
 20
83.6005239839
 30
0.0
 11
49.2185413039
 21
63.2119211946
 31
0.0
  0
LINE
  5
375
330
370
100
AcDbEntity
  8
0
  6
Continuous
 62
     7
370
     0
100
AcDbLine
 10
72.4319461319
 20
83.6005239839
 30
0.0
 11
81.4480538681
 21
91.5194760161
 31
0.0
  0
MTEXT
  5
376
330
370
100
AcDbEntity
  8
0
  6
Continuous
 62
     7
370
    18
100
AcDbMText
 10
46.2501786573
 20
66.5915448257
 30
0.0
 40
3.5
 41
0.0
 71
     1
 72
     1
  1
M8x1.25
  7
SLDTEXTSTYLE0
 11
0.7513423113495895
 21
0.659912669355466
 31
0.0
 73
     1
 44
1.0
  0
ENDBLK
  5
372
330
370
100
AcDbEntity
  8
0
100
AcDbBlockEnd
  0
BLOCK
  5
378
330
377
100
AcDbEntity
  8
0
100
AcDbBlockBegin
  2
SW_CENTERMARKSYMBOL_2
 70
     0
 10
0.0
 20
0.0
 30
0.0
  3
SW_CENTERMARKSYMBOL_2
  1

  0
LINE
  5
37A
330
377
100
AcDbEntity
  8
0
  6
Continuous
 62
     0
370
    18
100
AcDbLine
 10
0.0
 20
0.0
 30
0.0
 11
0.0
 21
2.5
 31
0.0
  0
LINE
  5
37B
330
377
100
AcDbEntity
  8
0
  6
Continuous
 62
     0
370
    18
100
AcDbLine
 10
0.0
 20
0.0
 30
0.0
 11
-2.5
 21
0.0
 31
0.0
  0
LINE
  5
37C
330
377
100
AcDbEntity
  8
0
  6
Continuous
 62
     0
370
    18
100
AcDbLine
 10
0.0
 20
0.0
 30
0.0
 11
0.0
 21
-2.5
 31
0.0
  0
LINE
  5
37D
330
377
100
AcDbEntity
  8
0
  6
Continuous
 62
     0
370
    18
100
AcDbLine
 10
0.0
 20
0.0
 30
0.0
 11
2.5
 21
0.0
 31
0.0
  0
LINE
  5
37E
330
377
100
AcDbEntity
  8
0
  6
Continuous
 62
     0
370
    18
100
AcDbLine
 10
0.0
 20
5.0
 30
0.0
 11
0.0
 21
8.5
 31
0.0
  0
LINE
  5
37F
330
377
100
AcDbEntity
  8
0
  6
Continuous
 62
     0
370
    18
100
AcDbLine
 10
-5.0
 20
0.0
 30
0.0
 11
-8.5
 21
0.0
 31
0.0
  0
LINE
  5
380
330
377
100
AcDbEntity
  8
0
  6
Continuous
 62
     0
370
    18
100
AcDbLine
 10
0.0
 20
-5.0
 30
0.0
 11
0.0
 21
-8.5
 31
0.0
  0
LINE
  5
381
330
377
100
AcDbEntity
  8
0
  6
Continuous
 62
     0
370
    18
100
AcDbLine
 10
5.0
 20
0.0
 30
0.0
 11
8.5
 21
0.0
 31
0.0
  0
ENDBLK
  5
379
330
377
100
AcDbEntity
  8
0
100
AcDbBlockEnd
  0
BLOCK
  5
384
330
383
100
AcDbEntity
  8
0
100
AcDbBlockBegin
  2
SW_CENTERMARKSYMBOL_3
 70
     0
 10
0.0
 20
0.0
 30
0.0
  3
SW_CENTERMARKSYMBOL_3
  1

  0
LINE
  5
386
330
383
100
AcDbEntity
  8
0
  6
Continuous
 62
     0
370
    18
100
AcDbLine
 10
0.0
 20
0.0
 30
0.0
 11
0.0
 21
2.5
 31
0.0
  0
LINE
  5
387
330
383
100
AcDbEntity
  8
0
  6
Continuous
 62
     0
370
    18
100
AcDbLine
 10
0.0
 20
0.0
 30
0.0
 11
-2.5
 21
0.0
 31
0.0
  0
LINE
  5
388
330
383
100
AcDbEntity
  8
0
  6
Continuous
 62
     0
370
    18
100
AcDbLine
 10
0.0
 20
0.0
 30
0.0
 11
0.0
 21
-2.5
 31
0.0
  0
LINE
  5
389
330
383
100
AcDbEntity
  8
0
  6
Continuous
 62
     0
370
    18
100
AcDbLine
 10
0.0
 20
0.0
 30
0.0
 11
2.5
 21
0.0
 31
0.0
  0
LINE
  5
38A
330
383
100
AcDbEntity
  8
0
  6
Continuous
 62
     0
370
    18
100
AcDbLine
 10
0.0
 20
5.0
 30
0.0
 11
0.0
 21
8.5
 31
0.0
  0
LINE
  5
38B
330
383
100
AcDbEntity
  8
0
  6
Continuous
 62
     0
370
    18
100
AcDbLine
 10
-5.0
 20
0.0
 30
0.0
 11
-8.5
 21
0.0
 31
0.0
  0
LINE
  5
38C
330
383
100
AcDbEntity
  8
0
  6
Continuous
 62
     0
370
    18
100
AcDbLine
 10
0.0
 20
-5.0
 30
0.0
 11
0.0
 21
-8.5
 31
0.0
  0
LINE
  5
38D
330
383
100
AcDbEntity
  8
0
  6
Continuous
 62
     0
370
    18
100
AcDbLine
 10
5.0
 20
0.0
 30
0.0
 11
8.5
 21
0.0
 31
0.0
  0
ENDBLK
  5
385
330
383
100
AcDbEntity
  8
0
100
AcDbBlockEnd
  0
BLOCK
  5
390
330
38F
100
AcDbEntity
  8
0
100
AcDbBlockBegin
  2
SW_CENTERMARKSYMBOL_4
 70
     0
 10
0.0
 20
0.0
 30
0.0
  3
SW_CENTERMARKSYMBOL_4
  1

  0
LINE
  5
392
330
38F
100
AcDbEntity
  8
0
  6
Continuous
 62
     0
370
    18
100
AcDbLine
 10
0.0
 20
0.0
 30
0.0
 11
0.0
 21
2.5
 31
0.0
  0
LINE
  5
393
330
38F
100
AcDbEntity
  8
0
  6
Continuous
 62
     0
370
    18
100
AcDbLine
 10
0.0
 20
0.0
 30
0.0
 11
-2.5
 21
0.0
 31
0.0
  0
LINE
  5
394
330
38F
100
AcDbEntity
  8
0
  6
Continuous
 62
     0
370
    18
100
AcDbLine
 10
0.0
 20
0.0
 30
0.0
 11
0.0
 21
-2.5
 31
0.0
  0
LINE
  5
395
330
38F
100
AcDbEntity
  8
0
  6
Continuous
 62
     0
370
    18
100
AcDbLine
 10
0.0
 20
0.0
 30
0.0
 11
2.5
 21
0.0
 31
0.0
  0
LINE
  5
396
330
38F
100
AcDbEntity
  8
0
  6
Continuous
 62
     0
370
    18
100
AcDbLine
 10
0.0
 20
5.0
 30
0.0
 11
0.0
 21
8.0
 31
0.0
  0
LINE
  5
397
330
38F
100
AcDbEntity
  8
0
  6
Continuous
 62
     0
370
    18
100
AcDbLine
 10
-5.0
 20
0.0
 30
0.0
 11
-8.0
 21
0.0
 31
0.0
  0
LINE
  5
398
330
38F
100
AcDbEntity
  8
0
  6
Continuous
 62
     0
370
    18
100
AcDbLine
 10
0.0
 20
-5.0
 30
0.0
 11
0.0
 21
-8.0
 31
0.0
  0
LINE
  5
399
330
38F
100
AcDbEntity
  8
0
  6
Continuous
 62
     0
370
    18
100
AcDbLine
 10
5.0
 20
0.0
 30
0.0
 11
8.0
 21
0.0
 31
0.0
  0
ENDBLK
  5
391
330
38F
100
AcDbEntity
  8
0
100
AcDbBlockEnd
  0
BLOCK
  5
39C
330
39B
100
AcDbEntity
  8
0
100
AcDbBlockBegin
  2
SW_CENTERMARKSYMBOL_5
 70
     0
 10
0.0
 20
0.0
 30
0.0
  3
SW_CENTERMARKSYMBOL_5
  1

  0
LINE
  5
39E
330
39B
100
AcDbEntity
  8
0
  6
Continuous
 62
     0
370
    18
100
AcDbLine
 10
0.0
 20
0.0
 30
0.0
 11
0.0
 21
2.5
 31
0.0
  0
LINE
  5
39F
330
39B
100
AcDbEntity
  8
0
  6
Continuous
 62
     0
370
    18
100
AcDbLine
 10
0.0
 20
0.0
 30
0.0
 11
-2.5
 21
0.0
 31
0.0
  0
LINE
  5
3A0
330
39B
100
AcDbEntity
  8
0
  6
Continuous
 62
     0
370
    18
100
AcDbLine
 10
0.0
 20
0.0
 30
0.0
 11
0.0
 21
-2.5
 31
0.0
  0
LINE
  5
3A1
330
39B
100
AcDbEntity
  8
0
  6
Continuous
 62
     0
370
    18
100
AcDbLine
 10
0.0
 20
0.0
 30
0.0
 11
2.5
 21
0.0
 31
0.0
  0
LINE
  5
3A2
330
39B
100
AcDbEntity
  8
0
  6
Continuous
 62
     0
370
    18
100
AcDbLine
 10
0.0
 20
5.0
 30
0.0
 11
0.0
 21
8.5
 31
0.0
  0
LINE
  5
3A3
330
39B
100
AcDbEntity
  8
0
  6
Continuous
 62
     0
370
    18
100
AcDbLine
 10
-5.0
 20
0.0
 30
0.0
 11
-8.5
 21
0.0
 31
0.0
  0
LINE
  5
3A4
330
39B
100
AcDbEntity
  8
0
  6
Continuous
 62
     0
370
    18
100
AcDbLine
 10
0.0
 20
-5.0
 30
0.0
 11
0.0
 21
-8.5
 31
0.0
  0
LINE
  5
3A5
330
39B
100
AcDbEntity
  8
0
  6
Continuous
 62
     0
370
    18
100
AcDbLine
 10
5.0
 20
0.0
 30
0.0
 11
8.5
 21
0.0
 31
0.0
  0
ENDBLK
  5
39D
330
39B
100
AcDbEntity
  8
0
100
AcDbBlockEnd
  0
ENDSEC
  0
SECTION
  2
ENTITIES
  0
LINE
  5
74
330
1F
100
AcDbEntity
  8
0
  6
Continuous
 62
     7
370
    50
100
AcDbLine
 10
230.0
 20
14.25
 30
0.0
 11
410.0
 21
14.25
 31
0.0
  0
LINE
  5
75
330
1F
100
AcDbEntity
  8
0
  6
Continuous
 62
     7
370
    50
100
AcDbLine
 10
410.0
 20
48.25
 30
0.0
 11
230.0
 21
48.25
 31
0.0
  0
LINE
  5
76
330
1F
100
AcDbEntity
  8
0
  6
Continuous
 62
     7
370
    50
100
AcDbLine
 10
230.0
 20
65.25
 30
0.0
 11
410.0
 21
65.25
 31
0.0
  0
LINE
  5
77
330
1F
100
AcDbEntity
  8
0
  6
Continuous
 62
     7
370
    50
100
AcDbLine
 10
256.9909524338
 20
48.25
 30
0.0
 11
256.9909524338
 21
10.0
 31
0.0
  0
LINE
  5
78
330
1F
100
AcDbEntity
  8
0
  6
Continuous
 62
     7
370
    50
100
AcDbLine
 10
328.8
 20
31.25
 30
0.0
 11
230.0
 21
31.25
 31
0.0
  0
LINE
  5
79
330
1F
100
AcDbEntity
  8
0
  6
Continuous
 62
     7
370
    50
100
AcDbLine
 10
328.8
 20
35.5
 30
0.0
 11
230.0
 21
35.5
 31
0.0
  0
LINE
  5
7A
330
1F
100
AcDbEntity
  8
0
  6
Continuous
 62
     7
370
    50
100
AcDbLine
 10
328.8
 20
39.75
 30
0.0
 11
230.0
 21
39.75
 31
0.0
  0
LINE
  5
7B
330
1F
100
AcDbEntity
  8
0
  6
Continuous
 62
     7
370
    50
100
AcDbLine
 10
328.8
 20
44.0
 30
0.0
 11
230.0
 21
44.0
 31
0.0
  0
LINE
  5
7C
330
1F
100
AcDbEntity
  8
0
  6
Continuous
 62
     7
370
    50
100
AcDbLine
 10
284.6
 20
10.0
 30
0.0
 11
284.6
 21
48.25
 31
0.0
  0
LINE
  5
7D
330
1F
100
AcDbEntity
  8
0
  6
Continuous
 62
     7
370
    50
100
AcDbLine
 10
230.0
 20
65.25
 30
0.0
 11
230.0
 21
10.0
 31
0.0
  0
LINE
  5
7E
330
1F
100
AcDbEntity
  8
0
  6
Continuous
 62
     7
370
    50
100
AcDbLine
 10
242.0703737145
 20
48.25
 30
0.0
 11
242.0703737145
 21
10.0
 31
0.0
  0
LINE
  5
7F
330
1F
100
AcDbEntity
  8
0
  6
Continuous
 62
     7
370
    50
100
AcDbLine
 10
263.8
 20
48.25
 30
0.0
 11
263.8
 21
65.25
 31
0.0
  0
LINE
  5
80
330
1F
100
AcDbEntity
  8
0
  6
Continuous
 62
     7
370
    50
100
AcDbLine
 10
274.3989261635
 20
48.25
 30
0.0
 11
274.3989261635
 21
10.0
 31
0.0
  0
LINE
  5
81
330
1F
100
AcDbEntity
  8
0
  6
Continuous
 62
     7
370
    50
100
AcDbLine
 10
295.0
 20
31.25
 30
0.0
 11
295.0
 21
48.25
 31
0.0
  0
LINE
  5
82
330
1F
100
AcDbEntity
  8
0
  6
Continuous
 62
     7
370
    50
100
AcDbLine
 10
284.6
 20
18.5
 30
0.0
 11
230.0
 21
18.5
 31
0.0
  0
LINE
  5
83
330
1F
100
AcDbEntity
  8
0
  6
Continuous
 62
     7
370
    50
100
AcDbLine
 10
310.6
 20
65.25
 30
0.0
 11
310.6
 21
27.0
 31
0.0
  0
LINE
  5
84
330
1F
100
AcDbEntity
  8
0
  6
Continuous
 62
     7
370
    50
100
AcDbLine
 10
284.6
 20
22.749928
 30
0.0
 11
230.0
 21
22.749928
 31
0.0
  0
LINE
  5
85
330
1F
100
AcDbEntity
  8
0
  6
Continuous
 62
     7
370
    50
100
AcDbLine
 10
284.6
 20
27.0
 30
0.0
 11
230.0
 21
27.0
 31
0.0
  0
LINE
  5
86
330
1F
100
AcDbEntity
  8
0
  6
Continuous
 62
     7
370
    50
100
AcDbLine
 10
284.6
 20
27.0
 30
0.0
 11
410.0
 21
27.0
 31
0.0
  0
LINE
  5
87
330
1F
100
AcDbEntity
  8
0
  6
Continuous
 62
     7
370
    50
100
AcDbLine
 10
328.8
 20
65.25
 30
0.0
 11
328.8
 21
10.0
 31
0.0
  0
LINE
  5
88
330
1F
100
AcDbEntity
  8
0
  6
Continuous
 62
     7
370
    50
100
AcDbLine
 10
373.0
 20
10.0
 30
0.0
 11
373.0
 21
14.25
 31
0.0
  0
LINE
  5
89
330
1F
100
AcDbEntity
  8
0
  6
Continuous
 62
     7
370
    50
100
AcDbLine
 10
380.8
 20
58.875
 30
0.0
 11
380.8
 21
65.25
 31
0.0
  0
LINE
  5
8A
330
1F
100
AcDbEntity
  8
0
  6
Continuous
 62
     7
370
    50
100
AcDbLine
 10
397.0
 20
14.25
 30
0.0
 11
397.0
 21
27.0
 31
0.0
  0
LINE
  5
8B
330
1F
100
AcDbEntity
  8
0
  6
Continuous
 62
     7
370
    50
100
AcDbLine
 10
410.0
 20
58.875
 30
0.0
 11
328.8
 21
58.875
 31
0.0
  0
LINE
  5
8C
330
1F
100
AcDbEntity
  8
0
  6
Continuous
 62
     7
370
    50
100
AcDbLine
 10
410.0
 20
18.5
 30
0.0
 11
397.0
 21
18.5
 31
0.0
  0
LINE
  5
8D
330
1F
100
AcDbEntity
  8
0
  6
Continuous
 62
     7
370
    70
100
AcDbLine
 10
20.0
 20
10.0
 30
0.0
 11
20.0
 21
287.0
 31
0.0
  0
LINE
  5
8E
330
1F
100
AcDbEntity
  8
0
  6
Continuous
 62
     7
370
    70
100
AcDbLine
 10
20.0
 20
287.0
 30
0.0
 11
410.0
 21
287.0
 31
0.0
  0
LINE
  5
8F
330
1F
100
AcDbEntity
  8
0
  6
Continuous
 62
     7
370
    70
100
AcDbLine
 10
410.0
 20
287.0
 30
0.0
 11
410.0
 21
10.0
 31
0.0
  0
LINE
  5
90
330
1F
100
AcDbEntity
  8
0
  6
Continuous
 62
     7
370
    70
100
AcDbLine
 10
410.0
 20
10.0
 30
0.0
 11
20.0
 21
10.0
 31
0.0
  0
LINE
  5
91
330
1F
100
AcDbEntity
  8
0
  6
Continuous
 62
     7
370
    70
100
AcDbLine
 10
15.0
 20
5.0
 30
0.0
 11
15.0
 21
292.0
 31
0.0
  0
LINE
  5
92
330
1F
100
AcDbEntity
  8
0
  6
Continuous
 62
     7
370
    70
100
AcDbLine
 10
15.0
 20
292.0
 30
0.0
 11
415.0
 21
292.0
 31
0.0
  0
LINE
  5
93
330
1F
100
AcDbEntity
  8
0
  6
Continuous
 62
     7
370
    70
100
AcDbLine
 10
415.0
 20
292.0
 30
0.0
 11
415.0
 21
5.0
 31
0.0
  0
LINE
  5
94
330
1F
100
AcDbEntity
  8
0
  6
Continuous
 62
     7
370
    70
100
AcDbLine
 10
415.0
 20
5.0
 30
0.0
 11
15.0
 21
5.0
 31
0.0
  0
LINE
  5
95
330
1F
100
AcDbEntity
  8
0
  6
Continuous
 62
     7
370
    35
100
AcDbLine
 10
15.0
 20
148.5
 30
0.0
 11
25.0
 21
148.5
 31
0.0
  0
LINE
  5
96
330
1F
100
AcDbEntity
  8
0
  6
Continuous
 62
     7
370
    35
100
AcDbLine
 10
215.0
 20
292.0
 30
0.0
 11
215.0
 21
282.0
 31
0.0
  0
LINE
  5
97
330
1F
100
AcDbEntity
  8
0
  6
Continuous
 62
     7
370
    35
100
AcDbLine
 10
415.0
 20
148.5
 30
0.0
 11
405.0
 21
148.5
 31
0.0
  0
LINE
  5
98
330
1F
100
AcDbEntity
  8
0
  6
Continuous
 62
     7
370
    35
100
AcDbLine
 10
215.0
 20
5.0
 30
0.0
 11
215.0
 21
15.0
 31
0.0
  0
LINE
  5
99
330
1F
100
AcDbEntity
  8
0
  6
Continuous
 62
     7
370
    35
100
AcDbLine
 10
20.0
 20
48.5
 30
0.0
 11
15.0
 21
48.5
 31
0.0
  0
LINE
  5
9A
330
1F
100
AcDbEntity
  8
0
  6
Continuous
 62
     7
370
    35
100
AcDbLine
 10
410.0
 20
48.5
 30
0.0
 11
415.0
 21
48.5
 31
0.0
  0
LINE
  5
9B
330
1F
100
AcDbEntity
  8
0
  6
Continuous
 62
     7
370
    35
100
AcDbLine
 10
20.0
 20
98.5
 30
0.0
 11
15.0
 21
98.5
 31
0.0
  0
LINE
  5
9C
330
1F
100
AcDbEntity
  8
0
  6
Continuous
 62
     7
370
    35
100
AcDbLine
 10
410.0
 20
98.5
 30
0.0
 11
415.0
 21
98.5
 31
0.0
  0
LINE
  5
9D
330
1F
100
AcDbEntity
  8
0
  6
Continuous
 62
     7
370
    35
100
AcDbLine
 10
20.0
 20
148.5
 30
0.0
 11
15.0
 21
148.5
 31
0.0
  0
LINE
  5
9E
330
1F
100
AcDbEntity
  8
0
  6
Continuous
 62
     7
370
    35
100
AcDbLine
 10
410.0
 20
148.5
 30
0.0
 11
415.0
 21
148.5
 31
0.0
  0
LINE
  5
9F
330
1F
100
AcDbEntity
  8
0
  6
Continuous
 62
     7
370
    35
100
AcDbLine
 10
20.0
 20
198.5
 30
0.0
 11
15.0
 21
198.5
 31
0.0
  0
LINE
  5
A0
330
1F
100
AcDbEntity
  8
0
  6
Continuous
 62
     7
370
    35
100
AcDbLine
 10
410.0
 20
198.5
 30
0.0
 11
415.0
 21
198.5
 31
0.0
  0
LINE
  5
A1
330
1F
100
AcDbEntity
  8
0
  6
Continuous
 62
     7
370
    35
100
AcDbLine
 10
20.0
 20
248.5
 30
0.0
 11
15.0
 21
248.5
 31
0.0
  0
LINE
  5
A2
330
1F
100
AcDbEntity
  8
0
  6
Continuous
 62
     7
370
    35
100
AcDbLine
 10
410.0
 20
248.5
 30
0.0
 11
415.0
 21
248.5
 31
0.0
  0
LINE
  5
A3
330
1F
100
AcDbEntity
  8
0
  6
Continuous
 62
     7
370
    35
100
AcDbLine
 10
65.0
 20
287.0
 30
0.0
 11
65.0
 21
292.0
 31
0.0
  0
LINE
  5
A4
330
1F
100
AcDbEntity
  8
0
  6
Continuous
 62
     7
370
    35
100
AcDbLine
 10
65.0
 20
10.0
 30
0.0
 11
65.0
 21
5.0
 31
0.0
  0
LINE
  5
A5
330
1F
100
AcDbEntity
  8
0
  6
Continuous
 62
     7
370
    35
100
AcDbLine
 10
115.0
 20
287.0
 30
0.0
 11
115.0
 21
292.0
 31
0.0
  0
LINE
  5
A6
330
1F
100
AcDbEntity
  8
0
  6
Continuous
 62
     7
370
    35
100
AcDbLine
 10
115.0
 20
10.0
 30
0.0
 11
115.0
 21
5.0
 31
0.0
  0
LINE
  5
A7
330
1F
100
AcDbEntity
  8
0
  6
Continuous
 62
     7
370
    35
100
AcDbLine
 10
165.0
 20
287.0
 30
0.0
 11
165.0
 21
292.0
 31
0.0
  0
LINE
  5
A8
330
1F
100
AcDbEntity
  8
0
  6
Continuous
 62
     7
370
    35
100
AcDbLine
 10
165.0
 20
10.0
 30
0.0
 11
165.0
 21
5.0
 31
0.0
  0
LINE
  5
A9
330
1F
100
AcDbEntity
  8
0
  6
Continuous
 62
     7
370
    35
100
AcDbLine
 10
215.0
 20
287.0
 30
0.0
 11
215.0
 21
292.0
 31
0.0
  0
LINE
  5
AA
330
1F
100
AcDbEntity
  8
0
  6
Continuous
 62
     7
370
    35
100
AcDbLine
 10
215.0
 20
10.0
 30
0.0
 11
215.0
 21
5.0
 31
0.0
  0
LINE
  5
AB
330
1F
100
AcDbEntity
  8
0
  6
Continuous
 62
     7
370
    35
100
AcDbLine
 10
265.0
 20
287.0
 30
0.0
 11
265.0
 21
292.0
 31
0.0
  0
LINE
  5
AC
330
1F
100
AcDbEntity
  8
0
  6
Continuous
 62
     7
370
    35
100
AcDbLine
 10
265.0
 20
10.0
 30
0.0
 11
265.0
 21
5.0
 31
0.0
  0
LINE
  5
AD
330
1F
100
AcDbEntity
  8
0
  6
Continuous
 62
     7
370
    35
100
AcDbLine
 10
315.0
 20
287.0
 30
0.0
 11
315.0
 21
292.0
 31
0.0
  0
LINE
  5
AE
330
1F
100
AcDbEntity
  8
0
  6
Continuous
 62
     7
370
    35
100
AcDbLine
 10
315.0
 20
10.0
 30
0.0
 11
315.0
 21
5.0
 31
0.0
  0
LINE
  5
AF
330
1F
100
AcDbEntity
  8
0
  6
Continuous
 62
     7
370
    35
100
AcDbLine
 10
365.0
 20
287.0
 30
0.0
 11
365.0
 21
292.0
 31
0.0
  0
LINE
  5
B0
330
1F
100
AcDbEntity
  8
0
  6
Continuous
 62
     7
370
    35
100
AcDbLine
 10
365.0
 20
10.0
 30
0.0
 11
365.0
 21
5.0
 31
0.0
  0
MTEXT
  5
B2
330
1F
100
AcDbEntity
  8
0
  6
Continuous
 62
     7
370
     0
100
AcDbMText
 10
17.3396881428
 20
31.1962239326
 30
0.0
 40
3.96875
 41
0.0
 71
     2
 72
     1
  1
A
  7
SLDTEXTSTYLE0
 73
     1
 44
1.0
  0
MTEXT
  5
B3
330
1F
100
AcDbEntity
  8
0
  6
Continuous
 62
     7
370
     0
100
AcDbMText
 10
412.3396881428
 20
31.1962239326
 30
0.0
 40
3.96875
 41
0.0
 71
     2
 72
     1
  1
A
  7
SLDTEXTSTYLE0
 73
     1
 44
1.0
  0
MTEXT
  5
B4
330
1F
100
AcDbEntity
  8
0
  6
Continuous
 62
     7
370
     0
100
AcDbMText
 10
17.4706018241
 20
75.4957779464
 30
0.0
 40
3.96875
 41
0.0
 71
     2
 72
     1
  1
B
  7
SLDTEXTSTYLE0
 73
     1
 44
1.0
  0
MTEXT
  5
B5
330
1F
100
AcDbEntity
  8
0
  6
Continuous
 62
     7
370
     0
100
AcDbMText
 10
412.4706018241
 20
75.4957779464
 30
0.0
 40
3.96875
 41
0.0
 71
     2
 72
     1
  1
B
  7
SLDTEXTSTYLE0
 73
     1
 44
1.0
  0
MTEXT
  5
B6
330
1F
100
AcDbEntity
  8
0
  6
Continuous
 62
     7
370
     0
100
AcDbMText
 10
17.458658902
 20
125.4462239326
 30
0.0
 40
3.96875
 41
0.0
 71
     2
 72
     1
  1
C
  7
SLDTEXTSTYLE0
 73
     1
 44
1.0
  0
MTEXT
  5
B7
330
1F
100
AcDbEntity
  8
0
  6
Continuous
 62
     7
370
     0
100
AcDbMText
 10
412.458658902
 20
125.4462239326
 30
0.0
 40
3.96875
 41
0.0
 71
     2
 72
     1
  1
C
  7
SLDTEXTSTYLE0
 73
     1
 44
1.0
  0
MTEXT
  5
B8
330
1F
100
AcDbEntity
  8
0
  6
Continuous
 62
     7
370
     0
100
AcDbMText
 10
17.4526872821
 20
175.4957779464
 30
0.0
 40
3.96875
 41
0.0
 71
     2
 72
     1
  1
D
  7
SLDTEXTSTYLE0
 73
     1
 44
1.0
  0
MTEXT
  5
B9
330
1F
100
AcDbEntity
  8
0
  6
Continuous
 62
     7
370
     0
100
AcDbMText
 10
412.4526872821
 20
175.4957779464
 30
0.0
 40
3.96875
 41
0.0
 71
     2
 72
     1
  1
D
  7
SLDTEXTSTYLE0
 73
     1
 44
1.0
  0
MTEXT
  5
BA
330
1F
100
AcDbEntity
  8
0
  6
Continuous
 62
     7
370
     0
100
AcDbMText
 10
17.5078089051
 20
225.4462239326
 30
0.0
 40
3.96875
 41
0.0
 71
     2
 72
     1
  1
E
  7
SLDTEXTSTYLE0
 73
     1
 44
1.0
  0
MTEXT
  5
BB
330
1F
100
AcDbEntity
  8
0
  6
Continuous
 62
     7
370
     0
100
AcDbMText
 10
412.5078089051
 20
225.4462239326
 30
0.0
 40
3.96875
 41
0.0
 71
     2
 72
     1
  1
E
  7
SLDTEXTSTYLE0
 73
     1
 44
1.0
  0
MTEXT
  5
BC
330
1F
100
AcDbEntity
  8
0
  6
Continuous
 62
     7
370
     0
100
AcDbMText
 10
17.4577402091
 20
269.7457779464
 30
0.0
 40
3.96875
 41
0.0
 71
     2
 72
     1
  1
F
  7
SLDTEXTSTYLE0
 73
     1
 44
1.0
  0
MTEXT
  5
BD
330
1F
100
AcDbEntity
  8
0
  6
Continuous
 62
     7
370
     0
100
AcDbMText
 10
412.4577402091
 20
269.7457779464
 30
0.0
 40
3.96875
 41
0.0
 71
     2
 72
     1
  1
F
  7
SLDTEXTSTYLE0
 73
     1
 44
1.0
  0
MTEXT
  5
BE
330
1F
100
AcDbEntity
  8
0
  6
Continuous
 62
     7
370
     0
100
AcDbMText
 10
42.4600369465
 20
9.4957779464
 30
0.0
 40
3.96875
 41
0.0
 71
     2
 72
     1
  1
8
  7
SLDTEXTSTYLE0
 73
     1
 44
1.0
  0
MTEXT
  5
BF
330
1F
100
AcDbEntity
  8
0
  6
Continuous
 62
     7
370
     0
100
AcDbMText
 10
42.4600369465
 20
291.4462239326
 30
0.0
 40
3.96875
 41
0.0
 71
     2
 72
     1
  1
8
  7
SLDTEXTSTYLE0
 73
     1
 44
1.0
  0
MTEXT
  5
C0
330
1F
100
AcDbEntity
  8
0
  6
Continuous
 62
     7
370
     0
100
AcDbMText
 10
89.9600369465
 20
9.4957779464
 30
0.0
 40
3.96875
 41
0.0
 71
     2
 72
     1
  1
7
  7
SLDTEXTSTYLE0
 73
     1
 44
1.0
  0
MTEXT
  5
C1
330
1F
100
AcDbEntity
  8
0
  6
Continuous
 62
     7
370
     0
100
AcDbMText
 10
89.9600369465
 20
291.4462239326
 30
0.0
 40
3.96875
 41
0.0
 71
     2
 72
     1
  1
7
  7
SLDTEXTSTYLE0
 73
     1
 44
1.0
  0
MTEXT
  5
C2
330
1F
100
AcDbEntity
  8
0
  6
Continuous
 62
     7
370
     0
100
AcDbMText
 10
139.9600369465
 20
9.4957779464
 30
0.0
 40
3.96875
 41
0.0
 71
     2
 72
     1
  1
6
  7
SLDTEXTSTYLE0
 73
     1
 44
1.0
  0
MTEXT
  5
C3
330
1F
100
AcDbEntity
  8
0
  6
Continuous
 62
     7
370
     0
100
AcDbMText
 10
139.9600369465
 20
291.4462239326
 30
0.0
 40
3.96875
 41
0.0
 71
     2
 72
     1
  1
6
  7
SLDTEXTSTYLE0
 73
     1
 44
1.0
  0
MTEXT
  5
C4
330
1F
100
AcDbEntity
  8
0
  6
Continuous
 62
     7
370
     0
100
AcDbMText
 10
189.9600369465
 20
9.4957779464
 30
0.0
 40
3.96875
 41
0.0
 71
     2
 72
     1
  1
5
  7
SLDTEXTSTYLE0
 73
     1
 44
1.0
  0
MTEXT
  5
C5
330
1F
100
AcDbEntity
  8
0
  6
Continuous
 62
     7
370
     0
100
AcDbMText
 10
189.9600369465
 20
291.4462239326
 30
0.0
 40
3.96875
 41
0.0
 71
     2
 72
     1
  1
5
  7
SLDTEXTSTYLE0
 73
     1
 44
1.0
  0
MTEXT
  5
C6
330
1F
100
AcDbEntity
  8
0
  6
Continuous
 62
     7
370
     0
100
AcDbMText
 10
239.9600369465
 20
9.4957779464
 30
0.0
 40
3.96875
 41
0.0
 71
     2
 72
     1
  1
4
  7
SLDTEXTSTYLE0
 73
     1
 44
1.0
  0
MTEXT
  5
C7
330
1F
100
AcDbEntity
  8
0
  6
Continuous
 62
     7
370
     0
100
AcDbMText
 10
239.9600369465
 20
291.4462239326
 30
0.0
 40
3.96875
 41
0.0
 71
     2
 72
     1
  1
4
  7
SLDTEXTSTYLE0
 73
     1
 44
1.0
  0
MTEXT
  5
C8
330
1F
100
AcDbEntity
  8
0
  6
Continuous
 62
     7
370
     0
100
AcDbMText
 10
289.9600369465
 20
9.4957779464
 30
0.0
 40
3.96875
 41
0.0
 71
     2
 72
     1
  1
3
  7
SLDTEXTSTYLE0
 73
     1
 44
1.0
  0
MTEXT
  5
C9
330
1F
100
AcDbEntity
  8
0
  6
Continuous
 62
     7
370
     0
100
AcDbMText
 10
289.9600369465
 20
291.4462239326
 30
0.0
 40
3.96875
 41
0.0
 71
     2
 72
     1
  1
3
  7
SLDTEXTSTYLE0
 73
     1
 44
1.0
  0
MTEXT
  5
CA
330
1F
100
AcDbEntity
  8
0
  6
Continuous
 62
     7
370
     0
100
AcDbMText
 10
339.9600369465
 20
9.4957779464
 30
0.0
 40
3.96875
 41
0.0
 71
     2
 72
     1
  1
2
  7
SLDTEXTSTYLE0
 73
     1
 44
1.0
  0
MTEXT
  5
CB
330
1F
100
AcDbEntity
  8
0
  6
Continuous
 62
     7
370
     0
100
AcDbMText
 10
339.9600369465
 20
291.4462239326
 30
0.0
 40
3.96875
 41
0.0
 71
     2
 72
     1
  1
2
  7
SLDTEXTSTYLE0
 73
     1
 44
1.0
  0
MTEXT
  5
CC
330
1F
100
AcDbEntity
  8
0
  6
Continuous
 62
     7
370
     0
100
AcDbMText
 10
387.4600369465
 20
9.4957779464
 30
0.0
 40
3.96875
 41
0.0
 71
     2
 72
     1
  1
1
  7
SLDTEXTSTYLE0
 73
     1
 44
1.0
  0
MTEXT
  5
CD
330
1F
100
AcDbEntity
  8
0
  6
Continuous
 62
     7
370
     0
100
AcDbMText
 10
387.4600369465
 20
291.4462239326
 30
0.0
 40
3.96875
 41
0.0
 71
     2
 72
     1
  1
1
  7
SLDTEXTSTYLE0
 73
     1
 44
1.0
  0
MTEXT
  5
CE
330
1F
100
AcDbEntity
  8
0
  6
Continuous
 62
     7
370
     0
100
AcDbMText
 10
364.7794210836
 20
23.347828666
 30
0.0
 40
4.2333333333
 41
0.0
 71
     2
 72
     1
  1
CR040018D3GHGM_#_#_##Svoboda
  7
SLDTEXTSTYLE0
 73
     1
 44
1.0
  0
MTEXT
  5
CF
330
1F
100
AcDbEntity
  8
0
  6
Continuous
 62
     7
370
     0
100
AcDbMText
 10
285.6178111281
 20
12.9493119036
 30
0.0
 40
1.4986
 41
0.0
 71
     1
 72
     1
  1
HMOTNOST:
  7
SLDTEXTSTYLE0
 73
     1
 44
1.0
  0
MTEXT
  5
D0
330
1F
100
AcDbEntity
  8
0
  6
Continuous
 62
     7
370
     0
100
AcDbMText
 10
400.8711564346
 20
24.406388569
 30
0.0
 40
2.9104166667
 41
0.0
 71
     1
 72
     1
  1
A3
  7
SLDTEXTSTYLE0
 73
     1
 44
1.0
  0
MTEXT
  5
D2
330
1F
100
AcDbEntity
  8
0
  6
Continuous
 62
     7
370
     0
100
AcDbMText
 10
374.4782944278
 20
12.9000872745
 30
0.0
 40
1.5
 41
0.0
 71
     1
 72
     1
  1
LIST 1 Z 1 LISTŮ
  7
SLDTEXTSTYLE1
 73
     1
 44
1.0
  0
MTEXT
  5
D4
330
1F
100
AcDbEntity
  8
0
  6
Continuous
 62
     7
370
     0
100
AcDbMText
 10
330.0739661175
 20
12.9000872745
 30
0.0
 40
1.5
 41
0.0
 71
     1
 72
     1
  1
MĚŘÍTKO:1:1
  7
SLDTEXTSTYLE2
 73
     1
 44
1.0
  0
MTEXT
  5
D5
330
1F
100
AcDbEntity
  8
0
  6
Continuous
 62
     7
370
     0
100
AcDbMText
 10
330.2786531243
 20
25.9860562892
 30
0.0
 40
1.5
 41
0.0
 71
     1
 72
     1
  1
Č. VÝKRESU
  7
SLDTEXTSTYLE2
 73
     1
 44
1.0
  0
MTEXT
  5
D6
330
1F
100
AcDbEntity
  8
0
  6
Continuous
 62
     7
370
     0
100
AcDbMText
 10
329.9561869366
 20
46.5761792212
 30
0.0
 40
1.5
 41
0.0
 71
     1
 72
     1
  1
NÁZEV:
  7
SLDTEXTSTYLE0
 73
     1
 44
1.0
  0
MTEXT
  5
D7
330
1F
100
AcDbEntity
  8
0
  6
Continuous
 62
     7
370
     0
100
AcDbMText
 10
383.3275816993
 20
62.3349086805
 30
0.0
 40
1.5
 41
0.0
 71
     1
 72
     1
  1
ZMĚNA
  7
SLDTEXTSTYLE2
 73
     1
 44
1.0
  0
MTEXT
  5
D8
330
1F
100
AcDbEntity
  8
0
  6
Continuous
 62
     7
370
     0
100
AcDbMText
 10
342.6146405229
 20
62.5329935751
 30
0.0
 40
1.5
 41
0.0
 71
     1
 72
     1
  1
NEUPRAVOVAT MĚŘÍTKO VÝKRESU
  7
SLDTEXTSTYLE2
 73
     1
 44
1.0
  0
MTEXT
  5
D9
330
1F
100
AcDbEntity
  8
0
  6
Continuous
 62
     7
370
     0
100
AcDbMText
 10
285.6458623088
 20
25.9860562892
 30
0.0
 40
1.5
 41
0.0
 71
     1
 72
     1
  1
MATERIÁL:
  7
SLDTEXTSTYLE0
 73
     1
 44
1.0
  0
MTEXT
  5
DA
330
1F
100
AcDbEntity
  8
0
  6
Continuous
 62
     7
370
     0
100
AcDbMText
 10
277.2147019657
 20
46.5761792212
 30
0.0
 40
1.5
 41
0.0
 71
     1
 72
     1
  1
DATUM
  7
SLDTEXTSTYLE0
 73
     1
 44
1.0
  0
MTEXT
  5
DB
330
1F
100
AcDbEntity
  8
0
  6
Continuous
 62
     7
370
     0
100
AcDbMText
 10
260.0335875632
 20
46.5617563795
 30
0.0
 40
1.5
 41
0.0
 71
     1
 72
     1
  1
PODPIS
  7
SLDTEXTSTYLE0
 73
     1
 44
1.0
  0
MTEXT
  5
DC
330
1F
100
AcDbEntity
  8
0
  6
Continuous
 62
     7
370
     0
100
AcDbMText
 10
244.3222392177
 20
46.5014826335
 30
0.0
 40
1.5
 41
0.0
 71
     1
 72
     1
  1
JMÉNO
  7
SLDTEXTSTYLE0
 73
     1
 44
1.0
  0
INSERT
  5
E2
330
1F
100
AcDbEntity
  8
0
  6
Continuous
 62
     7
370
     0
100
AcDbBlockReference
  2
SW_NOTE_0
 10
311.3092156863
 20
62.069489643
 30
0.0
  0
MTEXT
  5
E3
330
1F
100
AcDbEntity
  8
0
  6
Continuous
 62
     7
370
     0
100
AcDbMText
 10
264.3712921668
 20
63.9192719951
 30
0.0
 40
1.5
 41
0.0
 71
     1
 72
     1
  1
OPRACOVÁNÍ:
  7
SLDTEXTSTYLE0
 73
     1
 44
1.0
  0
INSERT
  5
ED
330
1F
100
AcDbEntity
  8
0
  6
Continuous
 62
     7
370
     0
100
AcDbBlockReference
  2
SW_NOTE_0_1
 10
230.5936687456
 20
61.9873698743
 30
0.0
  0
MTEXT
  5
EE
330
1F
100
AcDbEntity
  8
0
  6
Continuous
 62
     7
370
     0
100
AcDbMText
 10
230.6690428622
 20
25.3496492073
 30
0.0
 40
1.5
 41
0.0
 71
     1
 72
     1
  1
Z. JAKOSTI
  7
SLDTEXTSTYLE0
 73
     1
 44
1.0
  0
MTEXT
  5
EF
330
1F
100
AcDbEntity
  8
0
  6
Continuous
 62
     7
370
     0
100
AcDbMText
 10
230.4551864991
 20
29.7337046506
 30
0.0
 40
1.5
 41
0.0
 71
     1
 72
     1
  1
VÝROBA
  7
SLDTEXTSTYLE0
 73
     1
 44
1.0
  0
MTEXT
  5
F0
330
1F
100
AcDbEntity
  8
0
  6
Continuous
 62
     7
370
     0
100
AcDbMText
 10
230.4017224083
 20
34.0642960031
 30
0.0
 40
1.5
 41
0.0
 71
     1
 72
     1
  1
SCHVÁLIL
  7
SLDTEXTSTYLE0
 73
     1
 44
1.0
  0
MTEXT
  5
F1
330
1F
100
AcDbEntity
  8
0
  6
Continuous
 62
     7
370
     0
100
AcDbMText
 10
230.4104688676
 20
38.15440716
 30
0.0
 40
1.5
 41
0.0
 71
     1
 72
     1
  1
PŘEZKOUŠEL
  7
SLDTEXTSTYLE2
 73
     1
 44
1.0
  0
MTEXT
  5
F2
330
1F
100
AcDbEntity
  8
0
  6
Continuous
 62
     7
370
     0
100
AcDbMText
 10
230.2121492441
 20
42.4297148859
 30
0.0
 40
1.5
 41
0.0
 71
     1
 72
     1
  1
NAVRHL
  7
SLDTEXTSTYLE0
 73
     1
 44
1.0
  0
LINE
  5
F3
330
1F
100
AcDbEntity
  8
0
  6
Continuous
 62
     7
370
    25
100
AcDbLine
 10
114.94
 20
233.91
 30
0.0
 11
161.94
 21
233.91
 31
0.0
  0
LINE
  5
F4
330
1F
100
AcDbEntity
  8
0
  6
Continuous
 62
     7
370
    25
100
AcDbLine
 10
161.94
 20
241.91
 30
0.0
 11
114.94
 21
241.91
 31
0.0
  0
LINE
  5
F5
330
1F
100
AcDbEntity
  8
0
  6
Continuous
 62
     7
370
    25
100
AcDbLine
 10
161.94
 20
200.21
 30
0.0
 11
114.94
 21
200.21
 31
0.0
  0
LINE
  5
F6
330
1F
100
AcDbEntity
  8
0
  6
Continuous
 62
     7
370
    25
100
AcDbLine
 10
114.94
 20
192.21
 30
0.0
 11
161.94
 21
192.21
 31
0.0
  0
ARC
  5
F7
330
1F
100
AcDbEntity
  8
0
  6
Continuous
 62
     7
370
    25
100
AcDbCircle
 10
66.24
 20
191.01
 30
0.0
 40
0.3000000000000114
100
AcDbArc
 50
180.0
 51
270.0
  0
ARC
  5
F8
330
1F
100
AcDbEntity
  8
0
  6
Continuous
 62
     7
370
    25
100
AcDbCircle
 10
66.24
 20
201.41
 30
0.0
 40
0.3000000000000114
100
AcDbArc
 50
90.0
 51
180.0
  0
LINE
  5
F9
330
1F
100
AcDbEntity
  8
0
  6
Continuous
 62
     7
370
    25
100
AcDbLine
 10
67.94
 20
201.71
 30
0.0
 11
66.24
 21
201.71
 31
0.0
  0
LINE
  5
FA
330
1F
100
AcDbEntity
  8
0
  6
Continuous
 62
     7
370
    25
100
AcDbLine
 10
66.24
 20
190.71
 30
0.0
 11
67.94
 21
190.71
 31
0.0
  0
LINE
  5
FB
330
1F
100
AcDbEntity
  8
0
  6
Continuous
 62
     7
370
    25
100
AcDbLine
 10
68.9608864232
 20
203.83
 30
0.0
 11
67.94
 21
202.8091135768
 31
0.0
  0
LINE
  5
FC
330
1F
100
AcDbEntity
  8
0
  6
Continuous
 62
     7
370
    25
100
AcDbLine
 10
77.94
 20
202.8091135768
 30
0.0
 11
76.9191135768
 21
203.83
 31
0.0
  0
LINE
  5
FD
330
1F
100
AcDbEntity
  8
0
  6
Continuous
 62
     7
370
    25
100
AcDbLine
 10
76.9191135768
 20
188.59
 30
0.0
 11
77.94
 21
189.6108864232
 31
0.0
  0
LINE
  5
FE
330
1F
100
AcDbEntity
  8
0
  6
Continuous
 62
     7
370
    25
100
AcDbLine
 10
67.94
 20
189.6108864232
 30
0.0
 11
68.9608864232
 21
188.59
 31
0.0
  0
LINE
  5
FF
330
1F
100
AcDbEntity
  8
0
  6
Continuous
 62
     7
370
    25
100
AcDbLine
 10
67.94
 20
243.41
 30
0.0
 11
66.24
 21
243.41
 31
0.0
  0
LINE
  5
100
330
1F
100
AcDbEntity
  8
0
  6
Continuous
 62
     7
370
    25
100
AcDbLine
 10
66.24
 20
232.41
 30
0.0
 11
67.94
 21
232.41
 31
0.0
  0
ARC
  5
101
330
1F
100
AcDbEntity
  8
0
  6
Continuous
 62
     7
370
    25
100
AcDbCircle
 10
66.24
 20
232.71
 30
0.0
 40
0.3000000000000114
100
AcDbArc
 50
180.0
 51
270.0
  0
ARC
  5
102
330
1F
100
AcDbEntity
  8
0
  6
Continuous
 62
     7
370
    25
100
AcDbCircle
 10
66.24
 20
243.11
 30
0.0
 40
0.3000000000000114
100
AcDbArc
 50
90.0
 51
180.0
  0
LINE
  5
103
330
1F
100
AcDbEntity
  8
0
  6
Continuous
 62
     7
370
    25
100
AcDbLine
 10
68.9608864232
 20
245.53
 30
0.0
 11
67.94
 21
244.5091135768
 31
0.0
  0
LINE
  5
104
330
1F
100
AcDbEntity
  8
0
  6
Continuous
 62
     7
370
    25
100
AcDbLine
 10
77.94
 20
244.5091135768
 30
0.0
 11
76.9191135768
 21
245.53
 31
0.0
  0
LINE
  5
105
330
1F
100
AcDbEntity
  8
0
  6
Continuous
 62
     7
370
    25
100
AcDbLine
 10
76.9191135768
 20
230.29
 30
0.0
 11
77.94
 21
231.3108864232
 31
0.0
  0
LINE
  5
106
330
1F
100
AcDbEntity
  8
0
  6
Continuous
 62
     7
370
    25
100
AcDbLine
 10
67.94
 20
231.3108864232
 30
0.0
 11
68.9608864232
 21
230.29
 31
0.0
  0
LINE
  5
107
330
1F
100
AcDbEntity
  8
0
  6
Continuous
 62
     7
370
    25
100
AcDbLine
 10
214.94
 20
202.06
 30
0.0
 11
222.44
 21
202.06
 31
0.0
  0
LINE
  5
108
330
1F
100
AcDbEntity
  8
0
  6
Continuous
 62
     7
370
    25
100
AcDbLine
 10
222.44
 20
232.06
 30
0.0
 11
214.94
 21
232.06
 31
0.0
  0
LINE
  5
109
330
1F
100
AcDbEntity
  8
0
  6
Continuous
 62
     7
370
    25
100
AcDbLine
 10
222.44
 20
202.06
 30
0.0
 11
222.94
 21
202.56
 31
0.0
  0
LINE
  5
10A
330
1F
100
AcDbEntity
  8
0
  6
Continuous
 62
     7
370
    25
100
AcDbLine
 10
222.94
 20
231.56
 30
0.0
 11
222.44
 21
232.06
 31
0.0
  0
LINE
  5
10B
330
1F
100
AcDbEntity
  8
0
  6
Continuous
 62
     7
370
    25
100
AcDbLine
 10
204.94
 20
187.06
 30
0.0
 11
214.94
 21
187.06
 31
0.0
  0
LINE
  5
10C
330
1F
100
AcDbEntity
  8
0
  6
Continuous
 62
     7
370
    25
100
AcDbLine
 10
214.94
 20
247.06
 30
0.0
 11
204.94
 21
247.06
 31
0.0
  0
SPLINE
  5
10D
330
1F
100
AcDbEntity
  8
0
  6
Continuous
 62
     7
370
    25
100
AcDbSpline
210
0.0
220
0.0
230
1.0
 70
     8
 71
     3
 72
    10
 73
     6
 74
     0
 42
0.000000001
 43
0.00000001
 40
0.0
 40
0.0
 40
0.0
 40
0.0
 40
0.2546081489793539
 40
0.625596915741103
 40
1.0
 40
1.0
 40
1.0
 40
1.0
 10
180.8780534128199
 20
247.06
 30
0.0
 10
180.6176358634985
 20
247.1192986388835
 30
0.0
 10
179.9777646876802
 20
247.2650011458215
 30
0.0
 10
178.9946873956519
 20
247.6778813068523
 30
0.0
 10
178.292634398871
 20
248.060246516042
 30
0.0
 10
177.94
 20
248.2523048454133
 30
0.0
  0
SPLINE
  5
10E
330
1F
100
AcDbEntity
  8
0
  6
Continuous
 62
     7
370
    25
100
AcDbSpline
210
0.0
220
0.0
230
1.0
 70
     8
 71
     3
 72
     9
 73
     5
 74
     0
 42
0.000000001
 43
0.00000001
 40
0.0
 40
0.0
 40
0.0
 40
0.0
 40
0.6662845780172543
 40
0.9999999999999999
 40
0.9999999999999999
 40
0.9999999999999999
 40
0.9999999999999999
 10
177.94
 20
248.2523048454133
 30
0.0
 10
177.3245331482442
 20
247.9198983960399
 30
0.0
 10
176.4008034506616
 20
247.4210027884564
 30
0.0
 10
175.4107616696682
 20
247.1503282633619
 30
0.0
 10
175.0803694589435
 20
247.06
 30
0.0
  0
LINE
  5
10F
330
1F
100
AcDbEntity
  8
0
  6
Continuous
 62
     7
370
    25
100
AcDbLine
 10
177.94
 20
249.7676951546
 30
0.0
 11
177.94
 21
248.2523048454
 31
0.0
  0
SPLINE
  5
110
330
1F
100
AcDbEntity
  8
0
  6
Continuous
 62
     7
370
    25
100
AcDbSpline
210
0.0
220
0.0
230
1.0
 70
     8
 71
     3
 72
    11
 73
     7
 74
     0
 42
0.000000001
 43
0.00000001
 40
0.0
 40
0.0
 40
0.0
 40
0.0
 40
0.4320485333575432
 40
0.6559236749715848
 40
0.8796471982434163
 40
0.9999999999999999
 40
0.9999999999999999
 40
0.9999999999999999
 40
0.9999999999999999
 10
177.94
 20
249.7676951545868
 30
0.0
 10
178.5563871496654
 20
250.0952563878356
 30
0.0
 10
179.4921684177369
 20
250.5925504446425
 30
0.0
 10
180.8295868212289
 20
250.9912276785945
 30
0.0
 10
181.7124557286012
 20
251.1418590748178
 30
0.0
 10
182.2514631783089
 20
251.1552989357338
 30
0.0
 10
182.44
 20
251.1600000000001
 30
0.0
  0
SPLINE
  5
111
330
1F
100
AcDbEntity
  8
0
  6
Continuous
 62
     7
370
    25
100
AcDbSpline
210
0.0
220
0.0
230
1.0
 70
     8
 71
     3
 72
    11
 73
     7
 74
     0
 42
0.000000001
 43
0.00000001
 40
0.0
 40
0.0
 40
0.0
 40
0.0
 40
0.2495761159525635
 40
0.5043604069352936
 40
0.7510450482250968
 40
1.0
 40
1.0
 40
1.0
 40
1.0
 10
182.44
 20
251.1600000000001
 30
0.0
 10
182.8313013593399
 20
251.1401466478414
 30
0.0
 10
183.6220697871509
 20
251.1000256421294
 30
0.0
 10
184.7730706775516
 20
250.7897513336572
 30
0.0
 10
185.8860052440611
 20
250.3466874965836
 30
0.0
 10
186.5875971849991
 20
249.9612810619491
 30
0.0
 10
186.94
 20
249.7676951545868
 30
0.0
  0
LINE
  5
112
330
1F
100
AcDbEntity
  8
0
  6
Continuous
 62
     7
370
    25
100
AcDbLine
 10
186.94
 20
249.7676951546
 30
0.0
 11
186.94
 21
248.2523048454
 31
0.0
  0
SPLINE
  5
113
330
1F
100
AcDbEntity
  8
0
  6
Continuous
 62
     7
370
    25
100
AcDbSpline
210
0.0
220
0.0
230
1.0
 70
     8
 71
     3
 72
     9
 73
     5
 74
     0
 42
0.000000001
 43
0.00000001
 40
0.0
 40
0.0
 40
0.0
 40
0.0
 40
0.6662845780172574
 40
1.0
 40
1.0
 40
1.0
 40
1.0
 10
186.94
 20
248.2523048454133
 30
0.0
 10
186.3245331482441
 20
247.9198983960399
 30
0.0
 10
185.4008034506615
 20
247.4210027884564
 30
0.0
 10
184.4107616696682
 20
247.1503282633619
 30
0.0
 10
184.0803694589435
 20
247.06
 30
0.0
  0
SPLINE
  5
114
330
1F
100
AcDbEntity
  8
0
  6
Continuous
 62
     7
370
    25
100
AcDbSpline
210
0.0
220
0.0
230
1.0
 70
     8
 71
     3
 72
    10
 73
     6
 74
     0
 42
0.000000001
 43
0.00000001
 40
0.0
 40
0.0
 40
0.0
 40
0.0
 40
0.2546081489793536
 40
0.6255969157411025
 40
0.9999999999999999
 40
0.9999999999999999
 40
0.9999999999999999
 40
0.9999999999999999
 10
171.8780534128199
 20
247.06
 30
0.0
 10
171.6176358634985
 20
247.1192986388835
 30
0.0
 10
170.9777646876801
 20
247.2650011458215
 30
0.0
 10
169.994687395652
 20
247.6778813068523
 30
0.0
 10
169.292634398871
 20
248.0602465160421
 30
0.0
 10
168.94
 20
248.2523048454133
 30
0.0
  0
LINE
  5
115
330
1F
100
AcDbEntity
  8
0
  6
Continuous
 62
     7
370
    25
100
AcDbLine
 10
168.94
 20
249.7676951546
 30
0.0
 11
168.94
 21
248.2523048454
 31
0.0
  0
SPLINE
  5
116
330
1F
100
AcDbEntity
  8
0
  6
Continuous
 62
     7
370
    25
100
AcDbSpline
210
0.0
220
0.0
230
1.0
 70
     8
 71
     3
 72
    11
 73
     7
 74
     0
 42
0.000000001
 43
0.00000001
 40
0.0
 40
0.0
 40
0.0
 40
0.0
 40
0.4320485333575432
 40
0.6559236749715848
 40
0.8796471982434185
 40
0.9999999999999999
 40
0.9999999999999999
 40
0.9999999999999999
 40
0.9999999999999999
 10
168.94
 20
249.7676951545868
 30
0.0
 10
169.5563871496654
 20
250.0952563878356
 30
0.0
 10
170.4921684177368
 20
250.5925504446425
 30
0.0
 10
171.829586821229
 20
250.9912276785945
 30
0.0
 10
172.7124557286012
 20
251.1418590748178
 30
0.0
 10
173.2514631783089
 20
251.1552989357338
 30
0.0
 10
173.44
 20
251.1600000000001
 30
0.0
  0
SPLINE
  5
117
330
1F
100
AcDbEntity
  8
0
  6
Continuous
 62
     7
370
    25
100
AcDbSpline
210
0.0
220
0.0
230
1.0
 70
     8
 71
     3
 72
    11
 73
     7
 74
     0
 42
0.000000001
 43
0.00000001
 40
0.0
 40
0.0
 40
0.0
 40
0.0
 40
0.2495761159525659
 40
0.5043604069352964
 40
0.7510450482250974
 40
1.0
 40
1.0
 40
1.0
 40
1.0
 10
173.44
 20
251.1600000000001
 30
0.0
 10
173.8313013593398
 20
251.1401466478414
 30
0.0
 10
174.6220697871509
 20
251.1000256421294
 30
0.0
 10
175.7730706775517
 20
250.7897513336572
 30
0.0
 10
176.8860052440611
 20
250.3466874965836
 30
0.0
 10
177.5875971849992
 20
249.9612810619491
 30
0.0
 10
177.94
 20
249.7676951545868
 30
0.0
  0
LINE
  5
118
330
1F
100
AcDbEntity
  8
0
  6
Continuous
 62
     7
370
    25
100
AcDbLine
 10
173.44
 20
251.16
 30
0.0
 11
182.44
 21
251.16
 31
0.0
  0
SPLINE
  5
119
330
1F
100
AcDbEntity
  8
0
  6
Continuous
 62
     7
370
    25
100
AcDbSpline
210
0.0
220
0.0
230
1.0
 70
    24
 71
     3
 72
    11
 73
     7
 74
     0
 42
0.000000001
 43
0.00000001
 40
0.0
 40
0.0
 40
0.0
 40
0.0
 40
0.0238686907690589
 40
0.3850318311230214
 40
0.7603058549179242
 40
1.0
 40
1.0
 40
1.0
 40
1.0
 10
168.94
 20
251.1600000000001
 30
0.0
 10
168.94
 20
251.1598010144647
 30
0.0
 10
168.94
 20
251.1565911289374
 30
0.0
 10
168.94
 20
250.9787299404887
 30
0.0
 10
168.94
 20
250.4313139305138
 30
0.0
 10
168.94
 20
249.9538102231446
 30
0.0
 10
168.94
 20
249.7676951545868
 30
0.0
  0
LINE
  5
11A
330
1F
100
AcDbEntity
  8
0
  6
Continuous
 62
     7
370
    25
100
AcDbLine
 10
168.94
 20
251.16
 30
0.0
 11
173.44
 21
251.16
 31
0.0
  0
SPLINE
  5
11B
330
1F
100
AcDbEntity
  8
0
  6
Continuous
 62
     7
370
    25
100
AcDbSpline
210
0.0
220
0.0
230
1.0
 70
    24
 71
     3
 72
    10
 73
     6
 74
     0
 42
0.000000001
 43
0.00000001
 40
0.0
 40
0.0
 40
0.0
 40
0.0
 40
0.0822773279581802
 40
0.6423022159029729
 40
1.0
 40
1.0
 40
1.0
 40
1.0
 10
186.94
 20
247.06
 30
0.0
 10
186.94
 20
247.070848914586
 30
0.0
 10
186.94
 20
247.1555415273829
 30
0.0
 10
186.9399999999999
 20
247.6021778217577
 30
0.0
 10
186.94
 20
248.0699736034892
 30
0.0
 10
186.94
 20
248.2523048454133
 30
0.0
  0
SPLINE
  5
11C
330
1F
100
AcDbEntity
  8
0
  6
Continuous
 62
     7
370
    25
100
AcDbSpline
210
0.0
220
0.0
230
1.0
 70
    24
 71
     3
 72
    10
 73
     6
 74
     0
 42
0.000000001
 43
0.00000001
 40
0.0
 40
0.0
 40
0.0
 40
0.0
 40
0.2907023744285673
 40
0.6397358466406055
 40
0.9999999999999999
 40
0.9999999999999999
 40
0.9999999999999999
 40
0.9999999999999999
 10
186.94
 20
249.7676951545868
 30
0.0
 10
186.94
 20
249.9905065062943
 30
0.0
 10
186.94
 20
250.4808375846212
 30
0.0
 10
186.9399999999999
 20
251.0335372767064
 30
0.0
 10
186.94
 20
251.1174031282378
 30
0.0
 10
186.94
 20
251.1600000000001
 30
0.0
  0
LINE
  5
11D
330
1F
100
AcDbEntity
  8
0
  6
Continuous
 62
     7
370
    25
100
AcDbLine
 10
182.44
 20
251.16
 30
0.0
 11
186.94
 21
251.16
 31
0.0
  0
SPLINE
  5
11E
330
1F
100
AcDbEntity
  8
0
  6
Continuous
 62
     7
370
    25
100
AcDbSpline
210
0.0
220
0.0
230
1.0
 70
    24
 71
     3
 72
    10
 73
     6
 74
     0
 42
0.000000001
 43
0.00000001
 40
0.0
 40
0.0
 40
0.0
 40
0.0
 40
0.4455850034371354
 40
0.9805791919813082
 40
1.0
 40
1.0
 40
1.0
 40
1.0
 10
168.94
 20
248.2523048454133
 30
0.0
 10
168.94
 20
248.0347023759173
 30
0.0
 10
168.9399999999999
 20
247.5558342540873
 30
0.0
 10
168.9400000000001
 20
247.1297626882804
 30
0.0
 10
168.94
 20
247.062361037365
 30
0.0
 10
168.94
 20
247.06
 30
0.0
  0
SPLINE
  5
11F
330
1F
100
AcDbEntity
  8
0
  6
Continuous
 62
     7
370
    25
100
AcDbSpline
210
0.0
220
0.0
230
1.0
 70
     8
 71
     3
 72
     9
 73
     5
 74
     0
 42
0.000000001
 43
0.00000001
 40
0.0
 40
0.0
 40
0.0
 40
0.0
 40
0.5039958730825179
 40
0.9999999999999999
 40
0.9999999999999999
 40
0.9999999999999999
 40
0.9999999999999999
 10
180.69
 20
253.56
 30
0.0
 10
181.1738324983502
 20
253.5108069473883
 30
0.0
 10
182.133825474862
 20
253.4132008850391
 30
0.0
 10
183.0069343798684
 20
252.9425779546227
 30
0.0
 10
183.44
 20
252.7091470389141
 30
0.0
  0
LINE
  5
120
330
1F
100
AcDbEntity
  8
0
  6
Continuous
 62
     7
370
    25
100
AcDbLine
 10
183.44
 20
252.7091470389
 30
0.0
 11
183.44
 21
251.16
 31
0.0
  0
LINE
  5
121
330
1F
100
AcDbEntity
  8
0
  6
Continuous
 62
     7
370
    25
100
AcDbLine
 10
177.94
 20
252.7091470389
 30
0.0
 11
177.94
 21
251.16
 31
0.0
  0
SPLINE
  5
122
330
1F
100
AcDbEntity
  8
0
  6
Continuous
 62
     7
370
    25
100
AcDbSpline
210
0.0
220
0.0
230
1.0
 70
     8
 71
     3
 72
    10
 73
     6
 74
     0
 42
0.000000001
 43
0.00000001
 40
0.0
 40
0.0
 40
0.0
 40
0.0
 40
0.4323825626582483
 40
0.8795486111648141
 40
1.0
 40
1.0
 40
1.0
 40
1.0
 10
177.94
 20
252.7091470389142
 30
0.0
 10
178.3165316663792
 20
252.9078973954998
 30
0.0
 10
179.0824689007288
 20
253.3121935332274
 30
0.0
 10
180.0320759480404
 20
253.5424765019257
 30
0.0
 10
180.5748256703521
 20
253.5569323858312
 30
0.0
 10
180.69
 20
253.56
 30
0.0
  0
LINE
  5
123
330
1F
100
AcDbEntity
  8
0
  6
Continuous
 62
     7
370
    25
100
AcDbLine
 10
175.19
 20
253.56
 30
0.0
 11
180.69
 21
253.56
 31
0.0
  0
SPLINE
  5
124
330
1F
100
AcDbEntity
  8
0
  6
Continuous
 62
     7
370
    25
100
AcDbSpline
210
0.0
220
0.0
230
1.0
 70
     8
 71
     3
 72
     9
 73
     5
 74
     0
 42
0.000000001
 43
0.00000001
 40
0.0
 40
0.0
 40
0.0
 40
0.0
 40
0.5039958730825184
 40
1.0
 40
1.0
 40
1.0
 40
1.0
 10
175.19
 20
253.56
 30
0.0
 10
175.6738324983502
 20
253.5108069473883
 30
0.0
 10
176.633825474862
 20
253.4132008850391
 30
0.0
 10
177.5069343798685
 20
252.9425779546227
 30
0.0
 10
177.94
 20
252.7091470389142
 30
0.0
  0
LINE
  5
125
330
1F
100
AcDbEntity
  8
0
  6
Continuous
 62
     7
370
    25
100
AcDbLine
 10
172.44
 20
252.7091470389
 30
0.0
 11
172.44
 21
251.16
 31
0.0
  0
SPLINE
  5
126
330
1F
100
AcDbEntity
  8
0
  6
Continuous
 62
     7
370
    25
100
AcDbSpline
210
0.0
220
0.0
230
1.0
 70
     8
 71
     3
 72
    10
 73
     6
 74
     0
 42
0.000000001
 43
0.00000001
 40
0.0
 40
0.0
 40
0.0
 40
0.0
 40
0.4323825626582485
 40
0.8795486111648172
 40
1.0
 40
1.0
 40
1.0
 40
1.0
 10
172.44
 20
252.7091470389141
 30
0.0
 10
172.8165316663792
 20
252.9078973954998
 30
0.0
 10
173.5824689007288
 20
253.3121935332274
 30
0.0
 10
174.5320759480404
 20
253.5424765019257
 30
0.0
 10
175.074825670352
 20
253.5569323858312
 30
0.0
 10
175.19
 20
253.56
 30
0.0
  0
SPLINE
  5
127
330
1F
100
AcDbEntity
  8
0
  6
Continuous
 62
     7
370
    25
100
AcDbSpline
210
0.0
220
0.0
230
1.0
 70
    24
 71
     3
 72
    11
 73
     7
 74
     0
 42
0.000000001
 43
0.00000001
 40
0.0
 40
0.0
 40
0.0
 40
0.0
 40
0.0298389189953159
 40
0.3881077964510056
 40
0.7600854083425438
 40
1.0
 40
1.0
 40
1.0
 40
1.0
 10
172.44
 20
253.56
 30
0.0
 10
172.44
 20
253.5598106255151
 30
0.0
 10
172.4399999999999
 20
253.5573474761609
 30
0.0
 10
172.4400000000001
 20
253.4462330046892
 30
0.0
 10
172.44
 20
253.1133615821462
 30
0.0
 10
172.44
 20
252.822995587232
 30
0.0
 10
172.44
 20
252.7091470389141
 30
0.0
  0
LINE
  5
128
330
1F
100
AcDbEntity
  8
0
  6
Continuous
 62
     7
370
    25
100
AcDbLine
 10
172.44
 20
253.56
 30
0.0
 11
175.19
 21
253.56
 31
0.0
  0
SPLINE
  5
129
330
1F
100
AcDbEntity
  8
0
  6
Continuous
 62
     7
370
    25
100
AcDbSpline
210
0.0
220
0.0
230
1.0
 70
    24
 71
     3
 72
    10
 73
     6
 74
     0
 42
0.000000001
 43
0.00000001
 40
0.0
 40
0.0
 40
0.0
 40
0.0
 40
0.3024627854565671
 40
0.6458338241355571
 40
1.0
 40
1.0
 40
1.0
 40
1.0
 10
183.44
 20
252.7091470389141
 30
0.0
 10
183.44
 20
252.8505748790539
 30
0.0
 10
183.44
 20
253.1525587502228
 30
0.0
 10
183.44
 20
253.4853099775839
 30
0.0
 10
183.44
 20
253.5348477756603
 30
0.0
 10
183.44
 20
253.56
 30
0.0
  0
LINE
  5
12A
330
1F
100
AcDbEntity
  8
0
  6
Continuous
 62
     7
370
    25
100
AcDbLine
 10
180.69
 20
253.56
 30
0.0
 11
183.44
 21
253.56
 31
0.0
  0
LINE
  5
12B
330
1F
100
AcDbEntity
  8
0
  6
Continuous
 62
     7
370
    25
100
AcDbLine
 10
174.4758983849
 20
254.06
 30
0.0
 11
181.4041016151
 21
254.06
 31
0.0
  0
LINE
  5
12C
330
1F
100
AcDbEntity
  8
0
  6
Continuous
 62
     7
370
    25
100
AcDbLine
 10
181.4041016151
 20
254.06
 30
0.0
 11
181.9086269666
 21
253.56
 31
0.0
  0
LINE
  5
12D
330
1F
100
AcDbEntity
  8
0
  6
Continuous
 62
     7
370
    25
100
AcDbLine
 10
173.9713730334
 20
253.56
 30
0.0
 11
174.4758983849
 21
254.06
 31
0.0
  0
LINE
  5
12E
330
1F
100
AcDbEntity
  8
0
  6
Continuous
 62
     7
370
    25
100
AcDbLine
 10
91.94
 20
251.16
 30
0.0
 11
100.94
 21
251.16
 31
0.0
  0
SPLINE
  5
12F
330
1F
100
AcDbEntity
  8
0
  6
Continuous
 62
     7
370
    25
100
AcDbSpline
210
0.0
220
0.0
230
1.0
 70
     8
 71
     3
 72
    11
 73
     7
 74
     0
 42
0.000000001
 43
0.00000001
 40
0.0
 40
0.0
 40
0.0
 40
0.0
 40
0.4320485333575435
 40
0.6559236749715829
 40
0.8796471982434159
 40
1.0
 40
1.0
 40
1.0
 40
1.0
 10
96.44000000000001
 20
249.7676951545868
 30
0.0
 10
97.05638714966535
 20
250.0952563878356
 30
0.0
 10
97.99216841773686
 20
250.5925504446425
 30
0.0
 10
99.3295868212289
 20
250.9912276785945
 30
0.0
 10
100.2124557286012
 20
251.1418590748178
 30
0.0
 10
100.751463178309
 20
251.1552989357338
 30
0.0
 10
100.94
 20
251.1600000000001
 30
0.0
  0
SPLINE
  5
130
330
1F
100
AcDbEntity
  8
0
  6
Continuous
 62
     7
370
    25
100
AcDbSpline
210
0.0
220
0.0
230
1.0
 70
     8
 71
     3
 72
    11
 73
     7
 74
     0
 42
0.000000001
 43
0.00000001
 40
0.0
 40
0.0
 40
0.0
 40
0.0
 40
0.249576115952564
 40
0.504360406935295
 40
0.751045048225097
 40
0.9999999999999999
 40
0.9999999999999999
 40
0.9999999999999999
 40
0.9999999999999999
 10
91.94000000000003
 20
251.1600000000001
 30
0.0
 10
92.33130135933988
 20
251.1401466478414
 30
0.0
 10
93.12206978715092
 20
251.1000256421294
 30
0.0
 10
94.27307067755167
 20
250.7897513336572
 30
0.0
 10
95.38600524406108
 20
250.3466874965836
 30
0.0
 10
96.08759718499913
 20
249.9612810619491
 30
0.0
 10
96.44000000000001
 20
249.7676951545868
 30
0.0
  0
SPLINE
  5
131
330
1F
100
AcDbEntity
  8
0
  6
Continuous
 62
     7
370
    25
100
AcDbSpline
210
0.0
220
0.0
230
1.0
 70
     8
 71
     3
 72
    10
 73
     6
 74
     0
 42
0.000000001
 43
0.00000001
 40
0.0
 40
0.0
 40
0.0
 40
0.0
 40
0.2546081489793559
 40
0.6255969157411034
 40
0.9999999999999999
 40
0.9999999999999999
 40
0.9999999999999999
 40
0.9999999999999999
 10
99.37805341281991
 20
247.06
 30
0.0
 10
99.11763586349848
 20
247.1192986388835
 30
0.0
 10
98.47776468768016
 20
247.2650011458215
 30
0.0
 10
97.494687395652
 20
247.6778813068523
 30
0.0
 10
96.792634398871
 20
248.0602465160421
 30
0.0
 10
96.44000000000001
 20
248.2523048454133
 30
0.0
  0
LINE
  5
132
330
1F
100
AcDbEntity
  8
0
  6
Continuous
 62
     7
370
    25
100
AcDbLine
 10
96.44
 20
249.7676951546
 30
0.0
 11
96.44
 21
248.2523048454
 31
0.0
  0
SPLINE
  5
133
330
1F
100
AcDbEntity
  8
0
  6
Continuous
 62
     7
370
    25
100
AcDbSpline
210
0.0
220
0.0
230
1.0
 70
     8
 71
     3
 72
    11
 73
     7
 74
     0
 42
0.000000001
 43
0.00000001
 40
0.0
 40
0.0
 40
0.0
 40
0.0
 40
0.2495761159525629
 40
0.5043604069352926
 40
0.7510450482250957
 40
1.0
 40
1.0
 40
1.0
 40
1.0
 10
100.94
 20
251.1600000000001
 30
0.0
 10
101.3313013593399
 20
251.1401466478414
 30
0.0
 10
102.1220697871509
 20
251.1000256421294
 30
0.0
 10
103.2730706775516
 20
250.7897513336572
 30
0.0
 10
104.3860052440611
 20
250.3466874965836
 30
0.0
 10
105.0875971849991
 20
249.9612810619491
 30
0.0
 10
105.44
 20
249.7676951545868
 30
0.0
  0
LINE
  5
134
330
1F
100
AcDbEntity
  8
0
  6
Continuous
 62
     7
370
    25
100
AcDbLine
 10
105.44
 20
249.7676951546
 30
0.0
 11
105.44
 21
248.2523048454
 31
0.0
  0
SPLINE
  5
135
330
1F
100
AcDbEntity
  8
0
  6
Continuous
 62
     7
370
    25
100
AcDbSpline
210
0.0
220
0.0
230
1.0
 70
     8
 71
     3
 72
     9
 73
     5
 74
     0
 42
0.000000001
 43
0.00000001
 40
0.0
 40
0.0
 40
0.0
 40
0.0
 40
0.6662845780172575
 40
1.0
 40
1.0
 40
1.0
 40
1.0
 10
105.44
 20
248.2523048454133
 30
0.0
 10
104.8245331482442
 20
247.9198983960399
 30
0.0
 10
103.9008034506616
 20
247.4210027884564
 30
0.0
 10
102.9107616696682
 20
247.1503282633619
 30
0.0
 10
102.5803694589435
 20
247.06
 30
0.0
  0
SPLINE
  5
136
330
1F
100
AcDbEntity
  8
0
  6
Continuous
 62
     7
370
    25
100
AcDbSpline
210
0.0
220
0.0
230
1.0
 70
     8
 71
     3
 72
    10
 73
     6
 74
     0
 42
0.000000001
 43
0.00000001
 40
0.0
 40
0.0
 40
0.0
 40
0.0
 40
0.2546081489793563
 40
0.6255969157411032
 40
1.0
 40
1.0
 40
1.0
 40
1.0
 10
90.37805341281992
 20
247.06
 30
0.0
 10
90.11763586349848
 20
247.1192986388835
 30
0.0
 10
89.47776468768016
 20
247.2650011458215
 30
0.0
 10
88.494687395652
 20
247.6778813068523
 30
0.0
 10
87.792634398871
 20
248.0602465160421
 30
0.0
 10
87.44000000000001
 20
248.2523048454133
 30
0.0
  0
LINE
  5
137
330
1F
100
AcDbEntity
  8
0
  6
Continuous
 62
     7
370
    25
100
AcDbLine
 10
87.44
 20
249.7676951546
 30
0.0
 11
87.44
 21
248.2523048454
 31
0.0
  0
SPLINE
  5
138
330
1F
100
AcDbEntity
  8
0
  6
Continuous
 62
     7
370
    25
100
AcDbSpline
210
0.0
220
0.0
230
1.0
 70
     8
 71
     3
 72
    11
 73
     7
 74
     0
 42
0.000000001
 43
0.00000001
 40
0.0
 40
0.0
 40
0.0
 40
0.0
 40
0.432048533357544
 40
0.6559236749715841
 40
0.8796471982434172
 40
1.0
 40
1.0
 40
1.0
 40
1.0
 10
87.44000000000001
 20
249.7676951545868
 30
0.0
 10
88.05638714966537
 20
250.0952563878356
 30
0.0
 10
88.99216841773686
 20
250.5925504446425
 30
0.0
 10
90.32958682122892
 20
250.9912276785945
 30
0.0
 10
91.2124557286012
 20
251.1418590748178
 30
0.0
 10
91.75146317830895
 20
251.1552989357338
 30
0.0
 10
91.94000000000001
 20
251.1600000000001
 30
0.0
  0
SPLINE
  5
139
330
1F
100
AcDbEntity
  8
0
  6
Continuous
 62
     7
370
    25
100
AcDbSpline
210
0.0
220
0.0
230
1.0
 70
     8
 71
     3
 72
     9
 73
     5
 74
     0
 42
0.000000001
 43
0.00000001
 40
0.0
 40
0.0
 40
0.0
 40
0.0
 40
0.6662845780172546
 40
1.0
 40
1.0
 40
1.0
 40
1.0
 10
96.44000000000001
 20
248.2523048454133
 30
0.0
 10
95.82453314824417
 20
247.9198983960399
 30
0.0
 10
94.90080345066156
 20
247.4210027884564
 30
0.0
 10
93.91076166966822
 20
247.1503282633619
 30
0.0
 10
93.58036945894347
 20
247.06
 30
0.0
  0
SPLINE
  5
13A
330
1F
100
AcDbEntity
  8
0
  6
Continuous
 62
     7
370
    25
100
AcDbSpline
210
0.0
220
0.0
230
1.0
 70
    24
 71
     3
 72
    11
 73
     7
 74
     0
 42
0.000000001
 43
0.00000001
 40
0.0
 40
0.0
 40
0.0
 40
0.0
 40
0.0238686907690589
 40
0.3850318311230211
 40
0.7603058549179237
 40
0.9999999999999999
 40
0.9999999999999999
 40
0.9999999999999999
 40
0.9999999999999999
 10
87.44000000000001
 20
251.1600000000001
 30
0.0
 10
87.44000000000001
 20
251.1598010144647
 30
0.0
 10
87.44000000000001
 20
251.1565911289374
 30
0.0
 10
87.44000000000001
 20
250.9787299404887
 30
0.0
 10
87.44000000000001
 20
250.4313139305138
 30
0.0
 10
87.44000000000001
 20
249.9538102231446
 30
0.0
 10
87.44000000000001
 20
249.7676951545868
 30
0.0
  0
LINE
  5
13B
330
1F
100
AcDbEntity
  8
0
  6
Continuous
 62
     7
370
    25
100
AcDbLine
 10
87.44
 20
251.16
 30
0.0
 11
91.94
 21
251.16
 31
0.0
  0
SPLINE
  5
13C
330
1F
100
AcDbEntity
  8
0
  6
Continuous
 62
     7
370
    25
100
AcDbSpline
210
0.0
220
0.0
230
1.0
 70
    24
 71
     3
 72
    10
 73
     6
 74
     0
 42
0.000000001
 43
0.00000001
 40
0.0
 40
0.0
 40
0.0
 40
0.0
 40
0.0822773279581802
 40
0.6423022159029729
 40
1.0
 40
1.0
 40
1.0
 40
1.0
 10
105.44
 20
247.06
 30
0.0
 10
105.44
 20
247.070848914586
 30
0.0
 10
105.44
 20
247.1555415273829
 30
0.0
 10
105.44
 20
247.6021778217577
 30
0.0
 10
105.44
 20
248.0699736034892
 30
0.0
 10
105.44
 20
248.2523048454133
 30
0.0
  0
SPLINE
  5
13D
330
1F
100
AcDbEntity
  8
0
  6
Continuous
 62
     7
370
    25
100
AcDbSpline
210
0.0
220
0.0
230
1.0
 70
    24
 71
     3
 72
    10
 73
     6
 74
     0
 42
0.000000001
 43
0.00000001
 40
0.0
 40
0.0
 40
0.0
 40
0.0
 40
0.2907023744285678
 40
0.6397358466406055
 40
1.0
 40
1.0
 40
1.0
 40
1.0
 10
105.44
 20
249.7676951545868
 30
0.0
 10
105.44
 20
249.9905065062943
 30
0.0
 10
105.44
 20
250.4808375846212
 30
0.0
 10
105.44
 20
251.0335372767064
 30
0.0
 10
105.44
 20
251.1174031282378
 30
0.0
 10
105.44
 20
251.1600000000001
 30
0.0
  0
LINE
  5
13E
330
1F
100
AcDbEntity
  8
0
  6
Continuous
 62
     7
370
    25
100
AcDbLine
 10
100.94
 20
251.16
 30
0.0
 11
105.44
 21
251.16
 31
0.0
  0
SPLINE
  5
13F
330
1F
100
AcDbEntity
  8
0
  6
Continuous
 62
     7
370
    25
100
AcDbSpline
210
0.0
220
0.0
230
1.0
 70
    24
 71
     3
 72
    10
 73
     6
 74
     0
 42
0.000000001
 43
0.00000001
 40
0.0
 40
0.0
 40
0.0
 40
0.0
 40
0.4455850034371354
 40
0.9805791919813082
 40
1.0
 40
1.0
 40
1.0
 40
1.0
 10
87.44000000000001
 20
248.2523048454133
 30
0.0
 10
87.44
 20
248.0347023759173
 30
0.0
 10
87.43999999999998
 20
247.5558342540873
 30
0.0
 10
87.44000000000004
 20
247.1297626882804
 30
0.0
 10
87.44000000000001
 20
247.062361037365
 30
0.0
 10
87.44000000000001
 20
247.06
 30
0.0
  0
LINE
  5
140
330
1F
100
AcDbEntity
  8
0
  6
Continuous
 62
     7
370
    25
100
AcDbLine
 10
93.69
 20
253.56
 30
0.0
 11
99.19
 21
253.56
 31
0.0
  0
SPLINE
  5
141
330
1F
100
AcDbEntity
  8
0
  6
Continuous
 62
     7
370
    25
100
AcDbSpline
210
0.0
220
0.0
230
1.0
 70
     8
 71
     3
 72
    10
 73
     6
 74
     0
 42
0.000000001
 43
0.00000001
 40
0.0
 40
0.0
 40
0.0
 40
0.0
 40
0.4323825626582485
 40
0.8795486111648158
 40
0.9999999999999999
 40
0.9999999999999999
 40
0.9999999999999999
 40
0.9999999999999999
 10
96.44000000000001
 20
252.7091470389141
 30
0.0
 10
96.81653166637925
 20
252.9078973954998
 30
0.0
 10
97.58246890072884
 20
253.3121935332274
 30
0.0
 10
98.53207594804039
 20
253.5424765019257
 30
0.0
 10
99.07482567035201
 20
253.5569323858312
 30
0.0
 10
99.19
 20
253.56
 30
0.0
  0
SPLINE
  5
142
330
1F
100
AcDbEntity
  8
0
  6
Continuous
 62
     7
370
    25
100
AcDbSpline
210
0.0
220
0.0
230
1.0
 70
     8
 71
     3
 72
     9
 73
     5
 74
     0
 42
0.000000001
 43
0.00000001
 40
0.0
 40
0.0
 40
0.0
 40
0.0
 40
0.5039958730825175
 40
1.0
 40
1.0
 40
1.0
 40
1.0
 10
93.69000000000001
 20
253.56
 30
0.0
 10
94.1738324983502
 20
253.5108069473883
 30
0.0
 10
95.13382547486208
 20
253.4132008850391
 30
0.0
 10
96.00693437986844
 20
252.9425779546227
 30
0.0
 10
96.44000000000001
 20
252.7091470389141
 30
0.0
  0
SPLINE
  5
143
330
1F
100
AcDbEntity
  8
0
  6
Continuous
 62
     7
370
    25
100
AcDbSpline
210
0.0
220
0.0
230
1.0
 70
     8
 71
     3
 72
     9
 73
     5
 74
     0
 42
0.000000001
 43
0.00000001
 40
0.0
 40
0.0
 40
0.0
 40
0.0
 40
0.5039958730825179
 40
1.0
 40
1.0
 40
1.0
 40
1.0
 10
99.19
 20
253.56
 30
0.0
 10
99.6738324983502
 20
253.5108069473883
 30
0.0
 10
100.6338254748621
 20
253.4132008850391
 30
0.0
 10
101.5069343798684
 20
252.9425779546227
 30
0.0
 10
101.94
 20
252.7091470389141
 30
0.0
  0
LINE
  5
144
330
1F
100
AcDbEntity
  8
0
  6
Continuous
 62
     7
370
    25
100
AcDbLine
 10
101.94
 20
252.7091470389
 30
0.0
 11
101.94
 21
251.16
 31
0.0
  0
LINE
  5
145
330
1F
100
AcDbEntity
  8
0
  6
Continuous
 62
     7
370
    25
100
AcDbLine
 10
96.44
 20
252.7091470389
 30
0.0
 11
96.44
 21
251.16
 31
0.0
  0
LINE
  5
146
330
1F
100
AcDbEntity
  8
0
  6
Continuous
 62
     7
370
    25
100
AcDbLine
 10
90.94
 20
252.7091470389
 30
0.0
 11
90.94
 21
251.16
 31
0.0
  0
SPLINE
  5
147
330
1F
100
AcDbEntity
  8
0
  6
Continuous
 62
     7
370
    25
100
AcDbSpline
210
0.0
220
0.0
230
1.0
 70
     8
 71
     3
 72
    10
 73
     6
 74
     0
 42
0.000000001
 43
0.00000001
 40
0.0
 40
0.0
 40
0.0
 40
0.0
 40
0.4323825626582476
 40
0.8795486111648144
 40
1.0
 40
1.0
 40
1.0
 40
1.0
 10
90.94000000000001
 20
252.7091470389142
 30
0.0
 10
91.31653166637926
 20
252.9078973954998
 30
0.0
 10
92.08246890072886
 20
253.3121935332274
 30
0.0
 10
93.03207594804039
 20
253.5424765019257
 30
0.0
 10
93.57482567035203
 20
253.5569323858312
 30
0.0
 10
93.69000000000001
 20
253.56
 30
0.0
  0
SPLINE
  5
148
330
1F
100
AcDbEntity
  8
0
  6
Continuous
 62
     7
370
    25
100
AcDbSpline
210
0.0
220
0.0
230
1.0
 70
    24
 71
     3
 72
    11
 73
     7
 74
     0
 42
0.000000001
 43
0.00000001
 40
0.0
 40
0.0
 40
0.0
 40
0.0
 40
0.0298389189953159
 40
0.3881077964510055
 40
0.7600854083425438
 40
1.0
 40
1.0
 40
1.0
 40
1.0
 10
90.94000000000001
 20
253.56
 30
0.0
 10
90.94000000000003
 20
253.5598106255151
 30
0.0
 10
90.94000000000003
 20
253.5573474761611
 30
0.0
 10
90.94000000000001
 20
253.4462330046891
 30
0.0
 10
90.94000000000003
 20
253.1133615821462
 30
0.0
 10
90.94000000000001
 20
252.822995587232
 30
0.0
 10
90.94000000000001
 20
252.7091470389141
 30
0.0
  0
LINE
  5
149
330
1F
100
AcDbEntity
  8
0
  6
Continuous
 62
     7
370
    25
100
AcDbLine
 10
90.94
 20
253.56
 30
0.0
 11
93.69
 21
253.56
 31
0.0
  0
SPLINE
  5
14A
330
1F
100
AcDbEntity
  8
0
  6
Continuous
 62
     7
370
    25
100
AcDbSpline
210
0.0
220
0.0
230
1.0
 70
    24
 71
     3
 72
    10
 73
     6
 74
     0
 42
0.000000001
 43
0.00000001
 40
0.0
 40
0.0
 40
0.0
 40
0.0
 40
0.3024627854565673
 40
0.6458338241355569
 40
1.0
 40
1.0
 40
1.0
 40
1.0
 10
101.94
 20
252.7091470389141
 30
0.0
 10
101.94
 20
252.8505748790539
 30
0.0
 10
101.94
 20
253.1525587502228
 30
0.0
 10
101.94
 20
253.4853099775839
 30
0.0
 10
101.94
 20
253.5348477756603
 30
0.0
 10
101.94
 20
253.56
 30
0.0
  0
LINE
  5
14B
330
1F
100
AcDbEntity
  8
0
  6
Continuous
 62
     7
370
    25
100
AcDbLine
 10
99.19
 20
253.56
 30
0.0
 11
101.94
 21
253.56
 31
0.0
  0
LINE
  5
14C
330
1F
100
AcDbEntity
  8
0
  6
Continuous
 62
     7
370
    25
100
AcDbLine
 10
92.9758983849
 20
254.06
 30
0.0
 11
99.9041016151
 21
254.06
 31
0.0
  0
LINE
  5
14D
330
1F
100
AcDbEntity
  8
0
  6
Continuous
 62
     7
370
    25
100
AcDbLine
 10
99.9041016151
 20
254.06
 30
0.0
 11
100.4086269666
 21
253.56
 31
0.0
  0
LINE
  5
14E
330
1F
100
AcDbEntity
  8
0
  6
Continuous
 62
     7
370
    25
100
AcDbLine
 10
92.4713730334
 20
253.56
 30
0.0
 11
92.9758983849
 21
254.06
 31
0.0
  0
LINE
  5
14F
330
1F
100
AcDbEntity
  8
0
  6
Continuous
 62
     7
370
    25
100
AcDbLine
 10
222.94
 20
224.56
 30
0.0
 11
225.44
 21
224.56
 31
0.0
  0
LINE
  5
150
330
1F
100
AcDbEntity
  8
0
  6
Continuous
 62
     7
370
    25
100
AcDbLine
 10
225.44
 20
221.06
 30
0.0
 11
225.44
 21
224.56
 31
0.0
  0
LINE
  5
151
330
1F
100
AcDbEntity
  8
0
  6
Continuous
 62
     7
370
    25
100
AcDbLine
 10
222.94
 20
221.06
 30
0.0
 11
225.44
 21
221.06
 31
0.0
  0
LINE
  5
152
330
1F
100
AcDbEntity
  8
0
  6
Continuous
 62
     7
370
    25
100
AcDbLine
 10
225.44
 20
224.56
 30
0.0
 11
225.94
 21
224.56
 31
0.0
  0
LINE
  5
153
330
1F
100
AcDbEntity
  8
0
  6
Continuous
 62
     7
370
    25
100
AcDbLine
 10
225.94
 20
219.8438821814
 30
0.0
 11
225.44
 21
221.06
 31
0.0
  0
LINE
  5
154
330
1F
100
AcDbEntity
  8
0
  6
Continuous
 62
     7
370
    25
100
AcDbLine
 10
225.94
 20
224.56
 30
0.0
 11
225.94
 21
219.8438821814
 31
0.0
  0
LINE
  5
155
330
1F
100
AcDbEntity
  8
0
  6
Continuous
 62
     7
370
    25
100
AcDbLine
 10
225.44
 20
213.06
 30
0.0
 11
225.94
 21
214.2761178186
 31
0.0
  0
LINE
  5
156
330
1F
100
AcDbEntity
  8
0
  6
Continuous
 62
     7
370
    25
100
AcDbLine
 10
222.94
 20
213.06
 30
0.0
 11
225.44
 21
213.06
 31
0.0
  0
LINE
  5
157
330
1F
100
AcDbEntity
  8
0
  6
Continuous
 62
     7
370
    25
100
AcDbLine
 10
225.94
 20
219.8438821814
 30
0.0
 11
225.94
 21
214.2761178186
 31
0.0
  0
LINE
  5
158
330
1F
100
AcDbEntity
  8
0
  6
Continuous
 62
     7
370
    25
100
AcDbLine
 10
225.44
 20
209.56
 30
0.0
 11
225.44
 21
213.06
 31
0.0
  0
LINE
  5
159
330
1F
100
AcDbEntity
  8
0
  6
Continuous
 62
     7
370
    25
100
AcDbLine
 10
225.94
 20
209.56
 30
0.0
 11
225.44
 21
209.56
 31
0.0
  0
LINE
  5
15A
330
1F
100
AcDbEntity
  8
0
  6
Continuous
 62
     7
370
    25
100
AcDbLine
 10
225.94
 20
214.2761178186
 30
0.0
 11
225.94
 21
209.56
 31
0.0
  0
LINE
  5
15B
330
1F
100
AcDbEntity
  8
0
  6
Continuous
 62
     7
370
    25
100
AcDbLine
 10
222.94
 20
209.56
 30
0.0
 11
225.44
 21
209.56
 31
0.0
  0
SPLINE
  5
15C
330
1F
100
AcDbEntity
  8
0
  6
Continuous
 62
     7
370
    25
100
AcDbSpline
210
0.0
220
0.0
230
1.0
 70
     8
 71
     3
 72
    10
 73
     6
 74
     0
 42
0.000000001
 43
0.00000001
 40
0.0
 40
0.0
 40
0.0
 40
0.0
 40
0.3347296570906376
 40
0.6625464182105124
 40
1.0
 40
1.0
 40
1.0
 40
1.0
 10
76.91911357683743
 20
200.02
 30
0.0
 10
77.10604462356228
 20
199.6175235927832
 30
0.0
 10
77.47604618403456
 20
198.8208827921636
 30
0.0
 10
77.85864344105273
 20
197.5404539739339
 30
0.0
 10
77.91262051743
 20
196.6577468302603
 30
0.0
 10
77.94000000000001
 20
196.21
 30
0.0
  0
SPLINE
  5
15D
330
1F
100
AcDbEntity
  8
0
  6
Continuous
 62
     7
370
    25
100
AcDbSpline
210
0.0
220
0.0
230
1.0
 70
     8
 71
     3
 72
    10
 73
     6
 74
     0
 42
0.000000001
 43
0.00000001
 40
0.0
 40
0.0
 40
0.0
 40
0.0
 40
0.2497048596850042
 40
0.5046205397540211
 40
1.0
 40
1.0
 40
1.0
 40
1.0
 10
77.94000000000001
 20
201.925
 30
0.0
 10
77.92503727997344
 20
201.7594427736765
 30
0.0
 10
77.89479959911482
 20
201.424873486507
 30
0.0
 10
77.60026665886873
 20
200.7745536972551
 30
0.0
 10
77.18999430762346
 20
200.3200706630002
 30
0.0
 10
76.91911357683743
 20
200.02
 30
0.0
  0
SPLINE
  5
15E
330
1F
100
AcDbEntity
  8
0
  6
Continuous
 62
     7
370
    25
100
AcDbSpline
210
0.0
220
0.0
230
1.0
 70
     8
 71
     3
 72
    10
 73
     6
 74
     0
 42
0.000000001
 43
0.00000001
 40
0.0
 40
0.0
 40
0.0
 40
0.0
 40
0.2497048596850042
 40
0.5046205397540218
 40
1.0
 40
1.0
 40
1.0
 40
1.0
 10
67.94
 20
190.495
 30
0.0
 10
67.95496272002659
 20
190.6605572263236
 30
0.0
 10
67.98520040088519
 20
190.995126513493
 30
0.0
 10
68.27973334113128
 20
191.6454463027449
 30
0.0
 10
68.69000569237654
 20
192.0999293369998
 30
0.0
 10
68.96088642316258
 20
192.4
 30
0.0
  0
SPLINE
  5
15F
330
1F
100
AcDbEntity
  8
0
  6
Continuous
 62
     7
370
    25
100
AcDbSpline
210
0.0
220
0.0
230
1.0
 70
     8
 71
     3
 72
    10
 73
     6
 74
     0
 42
0.000000001
 43
0.00000001
 40
0.0
 40
0.0
 40
0.0
 40
0.0
 40
0.3347296570906379
 40
0.6625464182105122
 40
1.0
 40
1.0
 40
1.0
 40
1.0
 10
68.96088642316259
 20
192.4
 30
0.0
 10
68.77395537643774
 20
192.8024764072169
 30
0.0
 10
68.40395381596545
 20
193.5991172078365
 30
0.0
 10
68.02135655894729
 20
194.8795460260661
 30
0.0
 10
67.96737948257002
 20
195.7622531697398
 30
0.0
 10
67.94000000000001
 20
196.21
 30
0.0
  0
LINE
  5
160
330
1F
100
AcDbEntity
  8
0
  6
Continuous
 62
     7
370
    25
100
AcDbLine
 10
67.94
 20
196.21
 30
0.0
 11
67.94
 21
190.495
 31
0.0
  0
SPLINE
  5
161
330
1F
100
AcDbEntity
  8
0
  6
Continuous
 62
     7
370
    25
100
AcDbSpline
210
0.0
220
0.0
230
1.0
 70
     8
 71
     3
 72
    10
 73
     6
 74
     0
 42
0.000000001
 43
0.00000001
 40
0.0
 40
0.0
 40
0.0
 40
0.0
 40
0.4323835470369943
 40
0.8795507089860999
 40
1.0
 40
1.0
 40
1.0
 40
1.0
 10
76.91911357683743
 20
192.4
 30
0.0
 10
77.15758248961369
 20
192.1391656445401
 30
0.0
 10
77.64267379972671
 20
191.6085787527749
 30
0.0
 10
77.91897507318758
 20
190.9507598853485
 30
0.0
 10
77.93631948320296
 20
190.5747830084456
 30
0.0
 10
77.94000000000001
 20
190.495
 30
0.0
  0
SPLINE
  5
162
330
1F
100
AcDbEntity
  8
0
  6
Continuous
 62
     7
370
    25
100
AcDbSpline
210
0.0
220
0.0
230
1.0
 70
     8
 71
     3
 72
    11
 73
     7
 74
     0
 42
0.000000001
 43
0.00000001
 40
0.0
 40
0.0
 40
0.0
 40
0.0
 40
0.0474679324021228
 40
0.3983995169030823
 40
0.7620165632204977
 40
1.0
 40
1.0
 40
1.0
 40
1.0
 10
77.94000000000001
 20
196.21
 30
0.0
 10
77.93943065263213
 20
196.1470770574068
 30
0.0
 10
77.93465210625696
 20
195.6189632622048
 30
0.0
 10
77.79200926915702
 20
194.6109077227532
 30
0.0
 10
77.3974091854655
 20
193.4054312553051
 30
0.0
 10
77.05468838960256
 20
192.6849935306268
 30
0.0
 10
76.91911357683743
 20
192.4
 30
0.0
  0
SPLINE
  5
163
330
1F
100
AcDbEntity
  8
0
  6
Continuous
 62
     7
370
    25
100
AcDbSpline
210
0.0
220
0.0
230
1.0
 70
     8
 71
     3
 72
    10
 73
     6
 74
     0
 42
0.000000001
 43
0.00000001
 40
0.0
 40
0.0
 40
0.0
 40
0.0
 40
0.4323835470369961
 40
0.8795507089861019
 40
1.0
 40
1.0
 40
1.0
 40
1.0
 10
68.96088642316259
 20
200.02
 30
0.0
 10
68.72241751038632
 20
200.28083435546
 30
0.0
 10
68.2373262002733
 20
200.8114212472251
 30
0.0
 10
67.96102492681244
 20
201.4692401146516
 30
0.0
 10
67.94368051679706
 20
201.8452169915545
 30
0.0
 10
67.94000000000001
 20
201.925
 30
0.0
  0
SPLINE
  5
164
330
1F
100
AcDbEntity
  8
0
  6
Continuous
 62
     7
370
    25
100
AcDbSpline
210
0.0
220
0.0
230
1.0
 70
     8
 71
     3
 72
    11
 73
     7
 74
     0
 42
0.000000001
 43
0.00000001
 40
0.0
 40
0.0
 40
0.0
 40
0.0
 40
0.0474679324021228
 40
0.3983995169030823
 40
0.7620165632204967
 40
1.0
 40
1.0
 40
1.0
 40
1.0
 10
67.94000000000001
 20
196.21
 30
0.0
 10
67.94056934736788
 20
196.2729229425933
 30
0.0
 10
67.94534789374306
 20
196.8010367377953
 30
0.0
 10
68.087990730843
 20
197.8090922772469
 30
0.0
 10
68.4825908145345
 20
199.014568744695
 30
0.0
 10
68.82531161039745
 20
199.7350064693733
 30
0.0
 10
68.96088642316259
 20
200.02
 30
0.0
  0
LINE
  5
165
330
1F
100
AcDbEntity
  8
0
  6
Continuous
 62
     7
370
    25
100
AcDbLine
 10
67.94
 20
201.925
 30
0.0
 11
67.94
 21
196.21
 31
0.0
  0
LINE
  5
166
330
1F
100
AcDbEntity
  8
0
  6
Continuous
 62
     7
370
    25
100
AcDbLine
 10
76.9191135768
 20
192.4
 30
0.0
 11
68.9608864232
 21
192.4
 31
0.0
  0
LINE
  5
167
330
1F
100
AcDbEntity
  8
0
  6
Continuous
 62
     7
370
    25
100
AcDbLine
 10
76.9191135768
 20
200.02
 30
0.0
 11
68.9608864232
 21
200.02
 31
0.0
  0
SPLINE
  5
168
330
1F
100
AcDbEntity
  8
0
  6
Continuous
 62
     7
370
    25
100
AcDbSpline
210
0.0
220
0.0
230
1.0
 70
     8
 71
     3
 72
    10
 73
     6
 74
     0
 42
0.000000001
 43
0.00000001
 40
0.0
 40
0.0
 40
0.0
 40
0.0
 40
0.249704859685003
 40
0.5046205397540182
 40
1.0
 40
1.0
 40
1.0
 40
1.0
 10
77.94000000000001
 20
190.495
 30
0.0
 10
77.92503727997344
 20
190.3294427736765
 30
0.0
 10
77.89479959911483
 20
189.994873486507
 30
0.0
 10
77.60026665886875
 20
189.3445536972552
 30
0.0
 10
77.18999430762346
 20
188.8900706630002
 30
0.0
 10
76.91911357683743
 20
188.59
 30
0.0
  0
LINE
  5
169
330
1F
100
AcDbEntity
  8
0
  6
Continuous
 62
     7
370
    25
100
AcDbLine
 10
76.9191135768
 20
188.59
 30
0.0
 11
68.9608864232
 21
188.59
 31
0.0
  0
SPLINE
  5
16A
330
1F
100
AcDbEntity
  8
0
  6
Continuous
 62
     7
370
    25
100
AcDbSpline
210
0.0
220
0.0
230
1.0
 70
     8
 71
     3
 72
    10
 73
     6
 74
     0
 42
0.000000001
 43
0.00000001
 40
0.0
 40
0.0
 40
0.0
 40
0.0
 40
0.4323835470369955
 40
0.879550708986102
 40
1.0
 40
1.0
 40
1.0
 40
1.0
 10
68.96088642316259
 20
188.59
 30
0.0
 10
68.72241751038634
 20
188.85083435546
 30
0.0
 10
68.2373262002733
 20
189.3814212472251
 30
0.0
 10
67.96102492681243
 20
190.0392401146516
 30
0.0
 10
67.94368051679704
 20
190.4152169915545
 30
0.0
 10
67.94
 20
190.495
 30
0.0
  0
SPLINE
  5
16B
330
1F
100
AcDbEntity
  8
0
  6
Continuous
 62
     7
370
    25
100
AcDbSpline
210
0.0
220
0.0
230
1.0
 70
     8
 71
     3
 72
    10
 73
     6
 74
     0
 42
0.000000001
 43
0.00000001
 40
0.0
 40
0.0
 40
0.0
 40
0.0
 40
0.2497048596850042
 40
0.5046205397540208
 40
1.0
 40
1.0
 40
1.0
 40
1.0
 10
67.94
 20
201.925
 30
0.0
 10
67.95496272002659
 20
202.0905572263236
 30
0.0
 10
67.98520040088519
 20
202.425126513493
 30
0.0
 10
68.27973334113128
 20
203.0754463027449
 30
0.0
 10
68.69000569237654
 20
203.5299293369999
 30
0.0
 10
68.96088642316259
 20
203.83
 30
0.0
  0
LINE
  5
16C
330
1F
100
AcDbEntity
  8
0
  6
Continuous
 62
     7
370
    25
100
AcDbLine
 10
76.9191135768
 20
203.83
 30
0.0
 11
68.9608864232
 21
203.83
 31
0.0
  0
SPLINE
  5
16D
330
1F
100
AcDbEntity
  8
0
  6
Continuous
 62
     7
370
    25
100
AcDbSpline
210
0.0
220
0.0
230
1.0
 70
     8
 71
     3
 72
    10
 73
     6
 74
     0
 42
0.000000001
 43
0.00000001
 40
0.0
 40
0.0
 40
0.0
 40
0.0
 40
0.4323835470369951
 40
0.8795507089861003
 40
1.0
 40
1.0
 40
1.0
 40
1.0
 10
76.91911357683743
 20
203.83
 30
0.0
 10
77.15758248961369
 20
203.5691656445401
 30
0.0
 10
77.64267379972671
 20
203.038578752775
 30
0.0
 10
77.91897507318758
 20
202.3807598853485
 30
0.0
 10
77.93631948320296
 20
202.0047830084456
 30
0.0
 10
77.94000000000001
 20
201.925
 30
0.0
  0
LINE
  5
16E
330
1F
100
AcDbEntity
  8
0
  6
Continuous
 62
     7
370
    25
100
AcDbLine
 10
65.94
 20
191.0100000258
 30
0.0
 11
65.94
 21
201.41
 31
0.0
  0
LINE
  5
16F
330
1F
100
AcDbEntity
  8
0
  6
Continuous
 62
     7
370
    25
100
AcDbLine
 10
67.94
 20
202.8091135768
 30
0.0
 11
67.94
 21
201.925
 31
0.0
  0
LINE
  5
170
330
1F
100
AcDbEntity
  8
0
  6
Continuous
 62
     7
370
    25
100
AcDbLine
 10
67.94
 20
190.495
 30
0.0
 11
67.94
 21
189.6108864232
 31
0.0
  0
SPLINE
  5
171
330
1F
100
AcDbEntity
  8
0
  6
Continuous
 62
     7
370
    25
100
AcDbSpline
210
0.0
220
0.0
230
1.0
 70
     8
 71
     3
 72
    10
 73
     6
 74
     0
 42
0.000000001
 43
0.00000001
 40
0.0
 40
0.0
 40
0.0
 40
0.0
 40
0.2497048596850042
 40
0.5046205397540218
 40
1.0
 40
1.0
 40
1.0
 40
1.0
 10
67.94
 20
232.195
 30
0.0
 10
67.95496272002659
 20
232.3605572263236
 30
0.0
 10
67.98520040088519
 20
232.695126513493
 30
0.0
 10
68.27973334113128
 20
233.3454463027449
 30
0.0
 10
68.69000569237654
 20
233.7999293369998
 30
0.0
 10
68.96088642316258
 20
234.1
 30
0.0
  0
LINE
  5
172
330
1F
100
AcDbEntity
  8
0
  6
Continuous
 62
     7
370
    25
100
AcDbLine
 10
67.94
 20
237.91
 30
0.0
 11
67.94
 21
232.195
 31
0.0
  0
SPLINE
  5
173
330
1F
100
AcDbEntity
  8
0
  6
Continuous
 62
     7
370
    25
100
AcDbSpline
210
0.0
220
0.0
230
1.0
 70
     8
 71
     3
 72
    10
 73
     6
 74
     0
 42
0.000000001
 43
0.00000001
 40
0.0
 40
0.0
 40
0.0
 40
0.0
 40
0.3347296570906379
 40
0.6625464182105122
 40
1.0
 40
1.0
 40
1.0
 40
1.0
 10
68.96088642316259
 20
234.1
 30
0.0
 10
68.77395537643774
 20
234.5024764072169
 30
0.0
 10
68.40395381596545
 20
235.2991172078364
 30
0.0
 10
68.02135655894729
 20
236.5795460260661
 30
0.0
 10
67.96737948257002
 20
237.4622531697398
 30
0.0
 10
67.94000000000001
 20
237.91
 30
0.0
  0
SPLINE
  5
174
330
1F
100
AcDbEntity
  8
0
  6
Continuous
 62
     7
370
    25
100
AcDbSpline
210
0.0
220
0.0
230
1.0
 70
     8
 71
     3
 72
    10
 73
     6
 74
     0
 42
0.000000001
 43
0.00000001
 40
0.0
 40
0.0
 40
0.0
 40
0.0
 40
0.3347296570906376
 40
0.6625464182105124
 40
1.0
 40
1.0
 40
1.0
 40
1.0
 10
76.91911357683743
 20
241.7200000000001
 30
0.0
 10
77.10604462356228
 20
241.3175235927831
 30
0.0
 10
77.47604618403456
 20
240.5208827921636
 30
0.0
 10
77.85864344105273
 20
239.2404539739339
 30
0.0
 10
77.91262051743
 20
238.3577468302603
 30
0.0
 10
77.94000000000001
 20
237.91
 30
0.0
  0
SPLINE
  5
175
330
1F
100
AcDbEntity
  8
0
  6
Continuous
 62
     7
370
    25
100
AcDbSpline
210
0.0
220
0.0
230
1.0
 70
     8
 71
     3
 72
    10
 73
     6
 74
     0
 42
0.000000001
 43
0.00000001
 40
0.0
 40
0.0
 40
0.0
 40
0.0
 40
0.2497048596850042
 40
0.5046205397540211
 40
1.0
 40
1.0
 40
1.0
 40
1.0
 10
77.94000000000001
 20
243.625
 30
0.0
 10
77.92503727997344
 20
243.4594427736765
 30
0.0
 10
77.89479959911482
 20
243.1248734865071
 30
0.0
 10
77.60026665886873
 20
242.4745536972551
 30
0.0
 10
77.18999430762346
 20
242.0200706630002
 30
0.0
 10
76.91911357683743
 20
241.7200000000001
 30
0.0
  0
LINE
  5
176
330
1F
100
AcDbEntity
  8
0
  6
Continuous
 62
     7
370
    25
100
AcDbLine
 10
67.94
 20
243.625
 30
0.0
 11
67.94
 21
237.91
 31
0.0
  0
SPLINE
  5
177
330
1F
100
AcDbEntity
  8
0
  6
Continuous
 62
     7
370
    25
100
AcDbSpline
210
0.0
220
0.0
230
1.0
 70
     8
 71
     3
 72
    10
 73
     6
 74
     0
 42
0.000000001
 43
0.00000001
 40
0.0
 40
0.0
 40
0.0
 40
0.0
 40
0.4323835470369961
 40
0.8795507089861017
 40
1.0
 40
1.0
 40
1.0
 40
1.0
 10
68.96088642316259
 20
241.72
 30
0.0
 10
68.72241751038634
 20
241.98083435546
 30
0.0
 10
68.2373262002733
 20
242.5114212472251
 30
0.0
 10
67.96102492681244
 20
243.1692401146516
 30
0.0
 10
67.94368051679706
 20
243.5452169915545
 30
0.0
 10
67.94
 20
243.625
 30
0.0
  0
SPLINE
  5
178
330
1F
100
AcDbEntity
  8
0
  6
Continuous
 62
     7
370
    25
100
AcDbSpline
210
0.0
220
0.0
230
1.0
 70
     8
 71
     3
 72
    11
 73
     7
 74
     0
 42
0.000000001
 43
0.00000001
 40
0.0
 40
0.0
 40
0.0
 40
0.0
 40
0.0474679324021228
 40
0.3983995169030823
 40
0.7620165632204967
 40
1.0
 40
1.0
 40
1.0
 40
1.0
 10
67.94000000000001
 20
237.91
 30
0.0
 10
67.94056934736788
 20
237.9729229425933
 30
0.0
 10
67.94534789374306
 20
238.5010367377953
 30
0.0
 10
68.087990730843
 20
239.5090922772469
 30
0.0
 10
68.4825908145345
 20
240.714568744695
 30
0.0
 10
68.82531161039745
 20
241.4350064693733
 30
0.0
 10
68.96088642316259
 20
241.72
 30
0.0
  0
SPLINE
  5
179
330
1F
100
AcDbEntity
  8
0
  6
Continuous
 62
     7
370
    25
100
AcDbSpline
210
0.0
220
0.0
230
1.0
 70
     8
 71
     3
 72
    10
 73
     6
 74
     0
 42
0.000000001
 43
0.00000001
 40
0.0
 40
0.0
 40
0.0
 40
0.0
 40
0.4323835470369943
 40
0.8795507089860997
 40
1.0
 40
1.0
 40
1.0
 40
1.0
 10
76.91911357683743
 20
234.1
 30
0.0
 10
77.15758248961369
 20
233.8391656445401
 30
0.0
 10
77.64267379972671
 20
233.3085787527749
 30
0.0
 10
77.91897507318758
 20
232.6507598853485
 30
0.0
 10
77.93631948320296
 20
232.2747830084456
 30
0.0
 10
77.94000000000001
 20
232.195
 30
0.0
  0
SPLINE
  5
17A
330
1F
100
AcDbEntity
  8
0
  6
Continuous
 62
     7
370
    25
100
AcDbSpline
210
0.0
220
0.0
230
1.0
 70
     8
 71
     3
 72
    11
 73
     7
 74
     0
 42
0.000000001
 43
0.00000001
 40
0.0
 40
0.0
 40
0.0
 40
0.0
 40
0.0474679324021228
 40
0.3983995169030823
 40
0.7620165632204977
 40
1.0
 40
1.0
 40
1.0
 40
1.0
 10
77.94000000000001
 20
237.91
 30
0.0
 10
77.93943065263213
 20
237.8470770574068
 30
0.0
 10
77.93465210625696
 20
237.3189632622048
 30
0.0
 10
77.79200926915702
 20
236.3109077227532
 30
0.0
 10
77.3974091854655
 20
235.1054312553051
 30
0.0
 10
77.05468838960256
 20
234.3849935306268
 30
0.0
 10
76.91911357683743
 20
234.1
 30
0.0
  0
LINE
  5
17B
330
1F
100
AcDbEntity
  8
0
  6
Continuous
 62
     7
370
    25
100
AcDbLine
 10
76.9191135768
 20
241.72
 30
0.0
 11
68.9608864232
 21
241.72
 31
0.0
  0
SPLINE
  5
17C
330
1F
100
AcDbEntity
  8
0
  6
Continuous
 62
     7
370
    25
100
AcDbSpline
210
0.0
220
0.0
230
1.0
 70
     8
 71
     3
 72
    10
 73
     6
 74
     0
 42
0.000000001
 43
0.00000001
 40
0.0
 40
0.0
 40
0.0
 40
0.0
 40
0.249704859685004
 40
0.5046205397540208
 40
1.0
 40
1.0
 40
1.0
 40
1.0
 10
67.94
 20
243.625
 30
0.0
 10
67.95496272002659
 20
243.7905572263236
 30
0.0
 10
67.98520040088519
 20
244.125126513493
 30
0.0
 10
68.27973334113128
 20
244.7754463027449
 30
0.0
 10
68.69000569237656
 20
245.2299293369998
 30
0.0
 10
68.96088642316259
 20
245.53
 30
0.0
  0
LINE
  5
17D
330
1F
100
AcDbEntity
  8
0
  6
Continuous
 62
     7
370
    25
100
AcDbLine
 10
76.9191135768
 20
245.53
 30
0.0
 11
68.9608864232
 21
245.53
 31
0.0
  0
SPLINE
  5
17E
330
1F
100
AcDbEntity
  8
0
  6
Continuous
 62
     7
370
    25
100
AcDbSpline
210
0.0
220
0.0
230
1.0
 70
     8
 71
     3
 72
    10
 73
     6
 74
     0
 42
0.000000001
 43
0.00000001
 40
0.0
 40
0.0
 40
0.0
 40
0.0
 40
0.4323835470369953
 40
0.8795507089861003
 40
1.0
 40
1.0
 40
1.0
 40
1.0
 10
76.91911357683743
 20
245.53
 30
0.0
 10
77.15758248961369
 20
245.2691656445401
 30
0.0
 10
77.64267379972671
 20
244.7385787527749
 30
0.0
 10
77.91897507318758
 20
244.0807598853485
 30
0.0
 10
77.93631948320296
 20
243.7047830084456
 30
0.0
 10
77.94000000000001
 20
243.625
 30
0.0
  0
SPLINE
  5
17F
330
1F
100
AcDbEntity
  8
0
  6
Continuous
 62
     7
370
    25
100
AcDbSpline
210
0.0
220
0.0
230
1.0
 70
     8
 71
     3
 72
    10
 73
     6
 74
     0
 42
0.000000001
 43
0.00000001
 40
0.0
 40
0.0
 40
0.0
 40
0.0
 40
0.2497048596850028
 40
0.5046205397540182
 40
1.0
 40
1.0
 40
1.0
 40
1.0
 10
77.94000000000001
 20
232.195
 30
0.0
 10
77.92503727997344
 20
232.0294427736765
 30
0.0
 10
77.89479959911483
 20
231.694873486507
 30
0.0
 10
77.60026665886875
 20
231.0445536972551
 30
0.0
 10
77.18999430762346
 20
230.5900706630002
 30
0.0
 10
76.91911357683743
 20
230.29
 30
0.0
  0
LINE
  5
180
330
1F
100
AcDbEntity
  8
0
  6
Continuous
 62
     7
370
    25
100
AcDbLine
 10
76.9191135768
 20
230.29
 30
0.0
 11
68.9608864232
 21
230.29
 31
0.0
  0
SPLINE
  5
181
330
1F
100
AcDbEntity
  8
0
  6
Continuous
 62
     7
370
    25
100
AcDbSpline
210
0.0
220
0.0
230
1.0
 70
     8
 71
     3
 72
    10
 73
     6
 74
     0
 42
0.000000001
 43
0.00000001
 40
0.0
 40
0.0
 40
0.0
 40
0.0
 40
0.4323835470369956
 40
0.879550708986102
 40
1.0
 40
1.0
 40
1.0
 40
1.0
 10
68.96088642316259
 20
230.29
 30
0.0
 10
68.72241751038632
 20
230.55083435546
 30
0.0
 10
68.2373262002733
 20
231.0814212472251
 30
0.0
 10
67.96102492681244
 20
231.7392401146516
 30
0.0
 10
67.94368051679706
 20
232.1152169915545
 30
0.0
 10
67.94
 20
232.195
 30
0.0
  0
LINE
  5
182
330
1F
100
AcDbEntity
  8
0
  6
Continuous
 62
     7
370
    25
100
AcDbLine
 10
76.9191135768
 20
234.1
 30
0.0
 11
68.9608864232
 21
234.1
 31
0.0
  0
LINE
  5
183
330
1F
100
AcDbEntity
  8
0
  6
Continuous
 62
     7
370
    25
100
AcDbLine
 10
65.94
 20
232.7100000258
 30
0.0
 11
65.94
 21
243.11
 31
0.0
  0
LINE
  5
184
330
1F
100
AcDbEntity
  8
0
  6
Continuous
 62
     7
370
    25
100
AcDbLine
 10
67.94
 20
244.5091135768
 30
0.0
 11
67.94
 21
243.625
 31
0.0
  0
LINE
  5
185
330
1F
100
AcDbEntity
  8
0
  6
Continuous
 62
     7
370
    25
100
AcDbLine
 10
67.94
 20
232.195
 30
0.0
 11
67.94
 21
231.3108864232
 31
0.0
  0
LINE
  5
186
330
1F
100
AcDbEntity
  8
0
  6
Continuous
 62
     7
370
    25
100
AcDbLine
 10
171.68
 20
217.06
 30
0.0
 11
171.68
 21
211.564429056
 31
0.0
  0
LINE
  5
187
330
1F
100
AcDbEntity
  8
0
  6
Continuous
 62
     7
370
    25
100
AcDbLine
 10
171.68
 20
222.555570944
 30
0.0
 11
171.68
 21
217.06
 31
0.0
  0
LINE
  5
188
330
1F
100
AcDbEntity
  8
0
  6
Continuous
 62
     7
370
    25
100
AcDbLine
 10
222.44
 20
217.06
 30
0.0
 11
222.44
 21
232.06
 31
0.0
  0
LINE
  5
189
330
1F
100
AcDbEntity
  8
0
  6
Continuous
 62
     7
370
    25
100
AcDbLine
 10
222.44
 20
202.06
 30
0.0
 11
222.44
 21
217.06
 31
0.0
  0
LINE
  5
18A
330
1F
100
AcDbEntity
  8
0
  6
Continuous
 62
     7
370
    25
100
AcDbLine
 10
222.94
 20
217.06
 30
0.0
 11
222.94
 21
202.56
 31
0.0
  0
LINE
  5
18B
330
1F
100
AcDbEntity
  8
0
  6
Continuous
 62
     7
370
    25
100
AcDbLine
 10
222.94
 20
231.56
 30
0.0
 11
222.94
 21
217.06
 31
0.0
  0
LINE
  5
18C
330
1F
100
AcDbEntity
  8
0
  6
Continuous
 62
     7
370
    25
100
AcDbLine
 10
175.7858806818
 20
188.9690909091
 30
0.0
 11
176.3490909091
 21
188.9690909091
 31
0.0
  0
SPLINE
  5
18D
330
1F
100
AcDbEntity
  8
0
  6
Continuous
 62
     7
370
    25
100
AcDbSpline
210
0.0
220
0.0
230
1.0
 70
     8
 71
     3
 72
    15
 73
    11
 74
     0
 42
0.000000001
 43
0.00000001
 40
0.0
 40
0.0
 40
0.0
 40
0.0
 40
0.0901288015275075
 40
0.1887045969824424
 40
0.2978271886832029
 40
0.4162253375982832
 40
0.5463143019173381
 40
0.6865899079084475
 40
0.8372008478997236
 40
1.0
 40
1.0
 40
1.0
 40
1.0
 10
175.3320454545454
 20
189.0386931818182
 30
0.0
 10
175.3447378001879
 20
189.0330134632167
 30
0.0
 10
175.3713120353782
 20
189.0211217150574
 30
0.0
 10
175.415157660262
 20
189.0072235171863
 30
0.0
 10
175.4639778518743
 20
188.9950570883824
 30
0.0
 10
175.5184593333751
 20
188.986336605315
 30
0.0
 10
175.5778681590036
 20
188.9784062820799
 30
0.0
 10
175.6425503244874
 20
188.9726436572338
 30
0.0
 10
175.7124729716923
 20
188.9702369425303
 30
0.0
 10
175.7607851736737
 20
188.9694826975211
 30
0.0
 10
175.7858806818182
 20
188.9690909090909
 30
0.0
  0
SPLINE
  5
18E
330
1F
100
AcDbEntity
  8
0
  6
Continuous
 62
     7
370
    25
100
AcDbSpline
210
0.0
220
0.0
230
1.0
 70
     8
 71
     3
 72
    23
 73
    19
 74
     0
 42
0.000000001
 43
0.00000001
 40
0.0
 40
0.0
 40
0.0
 40
0.0
 40
0.0926501324187881
 40
0.1803440764637855
 40
0.2632060708009744
 40
0.340881909754356
 40
0.414457704860949
 40
0.4838260401889134
 40
0.5485109684903489
 40
0.610082422904755
 40
0.6678222200192466
 40
0.7224490943685152
 40
0.7739764009907291
 40
0.8229932516797609
 40
0.8695486927613144
 40
0.9143624676890058
 40
0.9576166174378843
 40
1.0
 40
1.0
 40
1.0
 40
1.0
 10
174.8490909090909
 20
190.2858522727273
 30
0.0
 10
174.8494732771286
 20
190.242519524887
 30
0.0
 10
174.8502175589641
 20
190.1581720535356
 30
0.0
 10
174.8567427543886
 20
190.0352171585488
 30
0.0
 10
174.8670317448491
 20
189.9195404695898
 30
0.0
 10
174.8823207385791
 20
189.8111030851584
 30
0.0
 10
174.9000099532055
 20
189.7093900186223
 30
0.0
 10
174.9237872211521
 20
189.6151850354128
 30
0.0
 10
174.9503407148957
 20
189.5275544914072
 30
0.0
 10
174.9825919882884
 20
189.4476842410547
 30
0.0
 10
175.0172979974926
 20
189.3740558629565
 30
0.0
 10
175.0550604163145
 20
189.3072868928956
 30
0.0
 10
175.0946918282224
 20
189.246415938194
 30
0.0
 10
175.1373698395022
 20
189.1923232667844
 30
0.0
 10
175.1824539181604
 20
189.1445197380522
 30
0.0
 10
175.2290624362422
 20
189.102028951175
 30
0.0
 10
175.2792638435259
 20
189.0670157740522
 30
0.0
 10
175.3145712534409
 20
189.0480698314305
 30
0.0
 10
175.3320454545455
 20
189.0386931818182
 30
0.0
  0
SPLINE
  5
18F
330
1F
100
AcDbEntity
  8
0
  6
Continuous
 62
     7
370
    25
100
AcDbSpline
210
0.0
220
0.0
230
1.0
 70
     8
 71
     3
 72
    15
 73
    11
 74
     0
 42
0.000000001
 43
0.00000001
 40
0.0
 40
0.0
 40
0.0
 40
0.0
 40
0.1109282667870264
 40
0.224380289428312
 40
0.3432230346468745
 40
0.4651453263128083
 40
0.5921228794825479
 40
0.7226342829728978
 40
0.8593405828394306
 40
1.0
 40
1.0
 40
1.0
 40
1.0
 10
174.9762215909091
 20
191.1409659090909
 30
0.0
 10
174.9659328319397
 20
191.1105321265362
 30
0.0
 10
174.9451212319547
 20
191.0489721550717
 30
0.0
 10
174.9197752732616
 20
190.9528169722894
 30
0.0
 10
174.8977759061452
 20
190.8526160505029
 30
0.0
 10
174.8802002020528
 20
190.747565132138
 30
0.0
 10
174.8659377666246
 20
190.6386168561271
 30
0.0
 10
174.8560046307716
 20
190.5248810004561
 30
0.0
 10
174.8504789585033
 20
190.4068835395548
 30
0.0
 10
174.8495579676608
 20
190.3265775451042
 30
0.0
 10
174.8490909090909
 20
190.2858522727273
 30
0.0
  0
SPLINE
  5
190
330
1F
100
AcDbEntity
  8
0
  6
Continuous
 62
     7
370
    25
100
AcDbSpline
210
0.0
220
0.0
230
1.0
 70
     8
 71
     3
 72
    23
 73
    19
 74
     0
 42
0.000000001
 43
0.00000001
 40
0.0
 40
0.0
 40
0.0
 40
0.0
 40
0.0813358770532294
 40
0.1580204213296492
 40
0.2302408174490492
 40
0.2976741432014605
 40
0.3611915332746012
 40
0.4204751070065267
 40
0.4768816708711234
 40
0.5306507777215566
 40
0.5832954809950149
 40
0.6364607207589363
 40
0.6915729541454173
 40
0.7480804393321592
 40
0.8067521618681915
 40
0.8681253328504843
 40
0.9325666742475828
 40
1.0
 40
1.0
 40
1.0
 40
1.0
 10
175.7766477272727
 20
191.6509090909091
 30
0.0
 10
175.748700717288
 20
191.6504792139861
 30
0.0
 10
175.694404895411
 20
191.6496440433952
 30
0.0
 10
175.6154822942092
 20
191.643801727428
 30
0.0
 10
175.541618988015
 20
191.6350699435558
 30
0.0
 10
175.4731079789084
 20
191.6213584365247
 30
0.0
 10
175.4099056721841
 20
191.6045490871828
 30
0.0
 10
175.351735670653
 20
191.5840714634424
 30
0.0
 10
175.2990715608443
 20
191.559043433155
 30
0.0
 10
175.2507984999753
 20
191.5305723578418
 30
0.0
 10
175.207095254194
 20
191.4972906483783
 30
0.0
 10
175.1662058348969
 20
191.4599845844366
 30
0.0
 10
175.1279467312864
 20
191.41813444104
 30
0.0
 10
175.0924754942709
 20
191.3715425028164
 30
0.0
 10
175.0587747716397
 20
191.3210412804029
 30
0.0
 10
175.0283074320919
 20
191.265373182169
 30
0.0
 10
175.0007469919406
 20
191.2049112876596
 30
0.0
 10
174.9845194485759
 20
191.1626010150423
 30
0.0
 10
174.9762215909091
 20
191.1409659090909
 30
0.0
  0
LINE
  5
191
330
1F
100
AcDbEntity
  8
0
  6
Continuous
 62
     7
370
    25
100
AcDbLine
 10
176.3490909091
 20
191.6509090909
 30
0.0
 11
175.7766477273
 21
191.6509090909
 31
0.0
  0
LINE
  5
192
330
1F
100
AcDbEntity
  8
0
  6
Continuous
 62
     7
370
    25
100
AcDbLine
 10
176.3490909091
 20
188.9690909091
 30
0.0
 11
176.3490909091
 21
191.6509090909
 31
0.0
  0
SPLINE
  5
193
330
1F
100
AcDbEntity
  8
0
  6
Continuous
 62
     7
370
    25
100
AcDbSpline
210
0.0
220
0.0
230
1.0
 70
     8
 71
     3
 72
    23
 73
    19
 74
     0
 42
0.000000001
 43
0.00000001
 40
0.0
 40
0.0
 40
0.0
 40
0.0
 40
0.0912767643244924
 40
0.1764629232372341
 40
0.2562801431555508
 40
0.3309455529399311
 40
0.4006389904447177
 40
0.4660089483284489
 40
0.5279263555437911
 40
0.5867234830687497
 40
0.6428721960916924
 40
0.69627165463178
 40
0.7475656410401068
 40
0.7976820514592233
 40
0.8471601091351857
 40
0.8969249623901866
 40
0.9476183243460207
 40
1.0
 40
1.0
 40
1.0
 40
1.0
 10
164.0763636363637
 20
190.7609943181819
 30
0.0
 10
164.0772717689825
 20
190.8159337475609
 30
0.0
 10
164.0790274374464
 20
190.9221466745963
 30
0.0
 10
164.0899200311512
 20
191.0761542291522
 30
0.0
 10
164.1101361383647
 20
191.219065149455
 30
0.0
 10
164.1361355751471
 20
191.3516221056936
 30
0.0
 10
164.1721433661527
 20
191.4727689519634
 30
0.0
 10
164.2141202973717
 20
191.5838483169411
 30
0.0
 10
164.2655960219408
 20
191.6835878255508
 30
0.0
 10
164.3237977969898
 20
191.772980229592
 30
0.0
 10
164.3886801118347
 20
191.8510671123397
 30
0.0
 10
164.4576825024756
 20
191.9192510796502
 30
0.0
 10
164.5314894346662
 20
191.976472214825
 30
0.0
 10
164.6091781064731
 20
192.0239592740606
 30
0.0
 10
164.6916926504643
 20
192.0602913818745
 30
0.0
 10
164.7781514697056
 20
192.0867828532998
 30
0.0
 10
164.8690876992808
 20
192.1028704854277
 30
0.0
 10
164.931175095522
 20
192.1045838375169
 30
0.0
 10
164.9627272727273
 20
192.1054545454546
 30
0.0
  0
SPLINE
  5
194
330
1F
100
AcDbEntity
  8
0
  6
Continuous
 62
     7
370
    25
100
AcDbSpline
210
0.0
220
0.0
230
1.0
 70
     8
 71
     3
 72
    23
 73
    19
 74
     0
 42
0.000000001
 43
0.00000001
 40
0.0
 40
0.0
 40
0.0
 40
0.0
 40
0.0527852402278166
 40
0.1042458293004908
 40
0.1551604530941806
 40
0.2054268083520238
 40
0.2570914424417262
 40
0.309970030844728
 40
0.3653095312247635
 40
0.4234521060082706
 40
0.483842822061041
 40
0.5467834342241109
 40
0.612062618021642
 40
0.6811908593868692
 40
0.7539750279956028
 40
0.8310409578182172
 40
0.913198972293863
 40
1.0
 40
1.0
 40
1.0
 40
1.0
 10
164.9627272727273
 20
189.4690909090909
 30
0.0
 10
164.9318822492232
 20
189.4699647991179
 30
0.0
 10
164.8709662613239
 20
189.4716906488097
 30
0.0
 10
164.7814914508103
 20
189.4879011024036
 30
0.0
 10
164.6960815294659
 20
189.5140531580237
 30
0.0
 10
164.6145739035922
 20
189.5509886076813
 30
0.0
 10
164.5371200921059
 20
189.5979962738772
 30
0.0
 10
164.463353355084
 20
189.655529319358
 30
0.0
 10
164.3935477056824
 20
189.7233573785159
 30
0.0
 10
164.328592284189
 20
189.8015788204294
 30
0.0
 10
164.2683874451969
 20
189.8890091989405
 30
0.0
 10
164.2168654046291
 20
189.9866037723478
 30
0.0
 10
164.1732728652268
 20
190.0934631827861
 30
0.0
 10
164.1384348775935
 20
190.2094509304283
 30
0.0
 10
164.1096428611601
 20
190.3341372240188
 30
0.0
 10
164.0900919270659
 20
190.4683286890802
 30
0.0
 10
164.0790397578363
 20
190.6116583012259
 30
0.0
 10
164.0772718707655
 20
190.7103119745658
 30
0.0
 10
164.0763636363637
 20
190.7609943181819
 30
0.0
  0
SPLINE
  5
195
330
1F
100
AcDbEntity
  8
0
  6
Continuous
 62
     7
370
    25
100
AcDbSpline
210
0.0
220
0.0
230
1.0
 70
     8
 71
     3
 72
    23
 73
    19
 74
     0
 42
0.000000001
 43
0.00000001
 40
0.0
 40
0.0
 40
0.0
 40
0.0
 40
0.0890390678183895
 40
0.1727021385026589
 40
0.2509364528333339
 40
0.3247546437725828
 40
0.3939511538506431
 40
0.4596932424381922
 40
0.5218198132862305
 40
0.5813764206301941
 40
0.6383575883276261
 40
0.6925487413961094
 40
0.7446032068334263
 40
0.7954626376687947
 40
0.8456742516130851
 40
0.8957953612070877
 40
0.9472402973995024
 40
1.0
 40
1.0
 40
1.0
 40
1.0
 10
165.8490909090909
 20
190.7872727272728
 30
0.0
 10
165.8481726211236
 20
190.7344639776456
 30
0.0
 10
165.8463914895416
 20
190.6320349628803
 30
0.0
 10
165.8355683944203
 20
190.4834545459052
 30
0.0
 10
165.815215496617
 20
190.3450553156093
 30
0.0
 10
165.7892156789382
 20
190.2162935522057
 30
0.0
 10
165.7532786424527
 20
190.0976262234576
 30
0.0
 10
165.7104438915336
 20
189.9887095965605
 30
0.0
 10
165.659156000549
 20
189.8898091880546
 30
0.0
 10
165.5999384186306
 20
189.8016847571787
 30
0.0
 10
165.5354174179152
 20
189.72343617422
 30
0.0
 10
165.4663360519674
 20
189.6553036906848
 30
0.0
 10
165.3925472897513
 20
189.5980753280672
 30
0.0
 10
165.3148602080399
 20
189.5505693988931
 30
0.0
 10
165.2325299542309
 20
189.5144097281033
 30
0.0
 10
165.146394166064
 20
189.4876402098697
 30
0.0
 10
165.0558840205001
 20
189.4717383882936
 30
0.0
 10
164.9940396221698
 20
189.4699807941064
 30
0.0
 10
164.9627272727273
 20
189.4690909090909
 30
0.0
  0
SPLINE
  5
196
330
1F
100
AcDbEntity
  8
0
  6
Continuous
 62
     7
370
    25
100
AcDbSpline
210
0.0
220
0.0
230
1.0
 70
     8
 71
     3
 72
    23
 73
    19
 74
     0
 42
0.000000001
 43
0.00000001
 40
0.0
 40
0.0
 40
0.0
 40
0.0
 40
0.0524221588341681
 40
0.1031397662365298
 40
0.1533192909396099
 40
0.2032243992953773
 40
0.2543512222751581
 40
0.3064663561075186
 40
0.3610010158153169
 40
0.4183041352387586
 40
0.4781533511349307
 40
0.5407068807815049
 40
0.6063044484403417
 40
0.6755816056093632
 40
0.7495689674650328
 40
0.8278944622592455
 40
0.911256612859181
 40
1.0
 40
1.0
 40
1.0
 40
1.0
 10
164.9627272727273
 20
192.1054545454546
 30
0.0
 10
164.9938080687934
 20
192.1045891197206
 30
0.0
 10
165.0549590421985
 20
192.1028864083124
 30
0.0
 10
165.1446952548833
 20
192.0866870064819
 30
0.0
 10
165.2302092674454
 20
192.0602706462288
 30
0.0
 10
165.3123963021922
 20
192.0239074305879
 30
0.0
 10
165.3894622753381
 20
191.9756271192543
 30
0.0
 10
165.4638007421354
 20
191.9186214869332
 30
0.0
 10
165.5323326168481
 20
191.8494625123309
 30
0.0
 10
165.5977924958389
 20
191.7715043568547
 30
0.0
 10
165.6580905267134
 20
191.6834119289608
 30
0.0
 10
165.7084239373894
 20
191.5838137710695
 30
0.0
 10
165.7530457133417
 20
191.4755452071875
 30
0.0
 10
165.7881748842631
 20
191.3566878431639
 30
0.0
 10
165.8155097021973
 20
191.2281888862638
 30
0.0
 10
165.8354342701643
 20
191.0898827306799
 30
0.0
 10
165.84642517902
 20
190.9418078593336
 30
0.0
 10
165.8481840013251
 20
190.839847109389
 30
0.0
 10
165.8490909090909
 20
190.7872727272728
 30
0.0
  0
LINE
  5
197
330
1F
100
AcDbEntity
  8
0
  6
Continuous
 62
     7
370
    25
100
AcDbLine
 10
167.5763636364
 20
190.7403977273
 30
0.0
 11
167.5763636364
 21
192.06
 31
0.0
  0
SPLINE
  5
198
330
1F
100
AcDbEntity
  8
0
  6
Continuous
 62
     7
370
    25
100
AcDbSpline
210
0.0
220
0.0
230
1.0
 70
     8
 71
     3
 72
    11
 73
     7
 74
     0
 42
0.000000001
 43
0.00000001
 40
0.0
 40
0.0
 40
0.0
 40
0.0
 40
0.2422089502770346
 40
0.4884794597618003
 40
0.7412752106879985
 40
1.0
 40
1.0
 40
1.0
 40
1.0
 10
167.5167045454545
 20
190.2205113636364
 30
0.0
 10
167.5260565665507
 20
190.2618306553865
 30
0.0
 10
167.544917431137
 20
190.3451621148092
 30
0.0
 10
167.5625669136392
 20
190.4736674693635
 30
0.0
 10
167.574606640466
 20
190.6056955297591
 30
0.0
 10
167.5757734628488
 20
190.69515136701
 30
0.0
 10
167.5763636363636
 20
190.7403977272728
 30
0.0
  0
SPLINE
  5
199
330
1F
100
AcDbEntity
  8
0
  6
Continuous
 62
     7
370
    25
100
AcDbSpline
210
0.0
220
0.0
230
1.0
 70
     8
 71
     3
 72
    15
 73
    11
 74
     0
 42
0.000000001
 43
0.00000001
 40
0.0
 40
0.0
 40
0.0
 40
0.0
 40
0.108029479098998
 40
0.2159128736428816
 40
0.3274236087165076
 40
0.4471094889623592
 40
0.5750455314220672
 40
0.7081311642011684
 40
0.8482590320714982
 40
1.0
 40
1.0
 40
1.0
 40
1.0
 10
167.2148579545454
 20
189.9236363636364
 30
0.0
 10
167.2313165225979
 20
189.9245655685668
 30
0.0
 10
167.2642114023463
 20
189.9264227218957
 30
0.0
 10
167.3118537636934
 20
189.9424687802901
 30
0.0
 10
167.3574381940567
 20
189.9669588479555
 30
0.0
 10
167.4000012233505
 20
190.0015914852668
 30
0.0
 10
167.4390215556471
 20
190.0446585140265
 30
0.0
 10
167.4715988381683
 20
190.0964945187464
 30
0.0
 10
167.4982602244138
 20
190.1555825857672
 30
0.0
 10
167.5103954893787
 20
190.1983018553759
 30
0.0
 10
167.5167045454545
 20
190.2205113636364
 30
0.0
  0
SPLINE
  5
19A
330
1F
100
AcDbEntity
  8
0
  6
Continuous
 62
     7
370
    25
100
AcDbSpline
210
0.0
220
0.0
230
1.0
 70
     8
 71
     3
 72
    11
 73
     7
 74
     0
 42
0.000000001
 43
0.00000001
 40
0.0
 40
0.0
 40
0.0
 40
0.0
 40
0.2617400869703931
 40
0.5166989218434781
 40
0.7610587188810217
 40
1.0
 40
1.0
 40
1.0
 40
1.0
 10
166.9854545454546
 20
189.9690909090909
 30
0.0
 10
167.0047498829494
 20
189.9620789412145
 30
0.0
 10
167.0428406477061
 20
189.9482366739343
 30
0.0
 10
167.1009695610446
 20
189.9344464638526
 30
0.0
 10
167.1582231347037
 20
189.9252974702857
 30
0.0
 10
167.1961213127034
 20
189.9241859117843
 30
0.0
 10
167.2148579545454
 20
189.9236363636364
 30
0.0
  0
LINE
  5
19B
330
1F
100
AcDbEntity
  8
0
  6
Continuous
 62
     7
370
    25
100
AcDbLine
 10
166.8945454545
 20
189.6054545455
 30
0.0
 11
166.9854545455
 21
189.9690909091
 31
0.0
  0
SPLINE
  5
19C
330
1F
100
AcDbEntity
  8
0
  6
Continuous
 62
     7
370
    25
100
AcDbSpline
210
0.0
220
0.0
230
1.0
 70
     8
 71
     3
 72
    11
 73
     7
 74
     0
 42
0.000000001
 43
0.00000001
 40
0.0
 40
0.0
 40
0.0
 40
0.0
 40
0.2215004838521603
 40
0.4561273429754498
 40
0.7132387558380905
 40
1.0
 40
1.0
 40
1.0
 40
1.0
 10
167.1971022727273
 20
189.4690909090909
 30
0.0
 10
167.1720320970236
 20
189.4708076835805
 30
0.0
 10
167.1204060579614
 20
189.4743429706046
 30
0.0
 10
167.0439009216178
 20
189.5022330716507
 30
0.0
 10
166.9668740361988
 20
189.5453868644946
 30
0.0
 10
166.919515581618
 20
189.584717271306
 30
0.0
 10
166.8945454545455
 20
189.6054545454546
 30
0.0
  0
SPLINE
  5
19D
330
1F
100
AcDbEntity
  8
0
  6
Continuous
 62
     7
370
    25
100
AcDbSpline
210
0.0
220
0.0
230
1.0
 70
     8
 71
     3
 72
    19
 73
    15
 74
     0
 42
0.000000001
 43
0.00000001
 40
0.0
 40
0.0
 40
0.0
 40
0.0
 40
0.111763142882653
 40
0.2142806808058606
 40
0.3089378987489532
 40
0.3944457138045782
 40
0.4719121922118165
 40
0.540399593374737
 40
0.6010371244503153
 40
0.6540510379455241
 40
0.7478116546859139
 40
0.8335660735218153
 40
0.9169214501301761
 40
1.0
 40
1.0
 40
1.0
 40
1.0
 10
167.5763636363636
 20
189.9207954545455
 30
0.0
 10
167.5678360820711
 20
189.8990198697411
 30
0.0
 10
167.551486415336
 20
189.8572700851834
 30
0.0
 10
167.5279911267144
 20
189.7970025647554
 30
0.0
 10
167.5025383503748
 20
189.7435873122407
 30
0.0
 10
167.4797309251979
 20
189.6946970351861
 30
0.0
 10
167.4558001865946
 20
189.6525873753797
 30
0.0
 10
167.4346564808376
 20
189.6147776118117
 30
0.0
 10
167.411225161042
 20
189.5846336532736
 30
0.0
 10
167.384068379661
 20
189.5507272509751
 30
0.0
 10
167.3470682212361
 20
189.5185566560576
 30
0.0
 10
167.3000615988883
 20
189.4894769243902
 30
0.0
 10
167.2493523561724
 20
189.4725769317528
 30
0.0
 10
167.2144996438998
 20
189.4702516274318
 30
0.0
 10
167.1971022727273
 20
189.4690909090909
 30
0.0
  0
LINE
  5
19E
330
1F
100
AcDbEntity
  8
0
  6
Continuous
 62
     7
370
    25
100
AcDbLine
 10
167.5763636364
 20
189.5145454545
 30
0.0
 11
167.5763636364
 21
189.9207954545
 31
0.0
  0
LINE
  5
19F
330
1F
100
AcDbEntity
  8
0
  6
Continuous
 62
     7
370
    25
100
AcDbLine
 10
167.8945454545
 20
189.5145454545
 30
0.0
 11
167.5763636364
 21
189.5145454545
 31
0.0
  0
LINE
  5
1A0
330
1F
100
AcDbEntity
  8
0
  6
Continuous
 62
     7
370
    25
100
AcDbLine
 10
167.8945454545
 20
192.06
 30
0.0
 11
167.8945454545
 21
189.5145454545
 31
0.0
  0
LINE
  5
1A1
330
1F
100
AcDbEntity
  8
0
  6
Continuous
 62
     7
370
    25
100
AcDbLine
 10
167.5763636364
 20
192.06
 30
0.0
 11
167.8945454545
 21
192.06
 31
0.0
  0
SPLINE
  5
1A2
330
1F
100
AcDbEntity
  8
0
  6
Continuous
 62
     7
370
    25
100
AcDbSpline
210
0.0
220
0.0
230
1.0
 70
     8
 71
     3
 72
    23
 73
    19
 74
     0
 42
0.000000001
 43
0.00000001
 40
0.0
 40
0.0
 40
0.0
 40
0.0
 40
0.0704753344234586
 40
0.1384899825933953
 40
0.203487020258101
 40
0.2664407567069121
 40
0.327154125584995
 40
0.3876484468101637
 40
0.4473266096201254
 40
0.5072945563284794
 40
0.5669701020769046
 40
0.6258897472579759
 40
0.6843623800035413
 40
0.7436177071928421
 40
0.8038870022647184
 40
0.8663875953882733
 40
0.9317584026438586
 40
1.0
 40
1.0
 40
1.0
 40
1.0
 10
169.3036363636364
 20
191.2830113636364
 30
0.0
 10
169.3044341259366
 20
191.3128594367069
 30
0.0
 10
169.3060017962139
 20
191.3715134204558
 30
0.0
 10
169.3148747244382
 20
191.4573799102218
 30
0.0
 10
169.331387864867
 20
191.538856706207
 30
0.0
 10
169.3541177058993
 20
191.6155673748484
 30
0.0
 10
169.3825995001116
 20
191.6883189854348
 30
0.0
 10
169.4180611796642
 20
191.7564183450311
 30
0.0
 10
169.4603701099654
 20
191.8200792107444
 30
0.0
 10
169.5085396797224
 20
191.8789696259561
 30
0.0
 10
169.5623514954754
 20
191.9323602858864
 30
0.0
 10
169.6216109336483
 20
191.9785966400103
 30
0.0
 10
169.6853166094281
 20
192.0181540648683
 30
0.0
 10
169.7538256267231
 20
192.0500297772562
 30
0.0
 10
169.8268907448343
 20
192.0751179091971
 30
0.0
 10
169.9047541151251
 20
192.0926802472968
 30
0.0
 10
169.9872788254922
 20
192.1035250718596
 30
0.0
 10
170.0438957853486
 20
192.1048022405268
 30
0.0
 10
170.0728125
 20
192.1054545454546
 30
0.0
  0
SPLINE
  5
1A3
330
1F
100
AcDbEntity
  8
0
  6
Continuous
 62
     7
370
    25
100
AcDbSpline
210
0.0
220
0.0
230
1.0
 70
     8
 71
     3
 72
    23
 73
    19
 74
     0
 42
0.000000001
 43
0.00000001
 40
0.0
 40
0.0
 40
0.0
 40
0.0
 40
0.0848796314697555
 40
0.1619397066732108
 40
0.2312102305654501
 40
0.2932914147883919
 40
0.347124925487991
 40
0.3936264181688762
 40
0.4324011008917211
 40
0.4640970294341322
 40
0.5205483819505575
 40
0.5786113586040882
 40
0.6391667976871418
 40
0.7030067405352179
 40
0.770489457111857
 40
0.8422247471235894
 40
0.9183328229940622
 40
1.0
 40
1.0
 40
1.0
 40
1.0
 10
170.0195454545455
 20
190.4989204545455
 30
0.0
 10
169.9880205990084
 20
190.5094613831125
 30
0.0
 10
169.9278751227593
 20
190.5295721546916
 30
0.0
 10
169.8425963390959
 20
190.5600390966523
 30
0.0
 10
169.7664181646958
 20
190.5893245896145
 30
0.0
 10
169.6991012948693
 20
190.6163853184473
 30
0.0
 10
169.6414722989524
 20
190.6432847156319
 30
0.0
 10
169.5920788188079
 20
190.6664107762553
 30
0.0
 10
169.5529567964978
 20
190.6903286817576
 30
0.0
 10
169.511733619683
 20
190.7182214367262
 30
0.0
 10
169.4704254476401
 20
190.7584091738499
 30
0.0
 10
169.4277546060246
 20
190.8121751270367
 30
0.0
 10
169.389603010761
 20
190.8728389538775
 30
0.0
 10
169.3586905908134
 20
190.9415365546929
 30
0.0
 10
169.333678690761
 20
191.0171777538396
 30
0.0
 10
169.316332549502
 20
191.0998396044179
 30
0.0
 10
169.3054668789387
 20
191.1892084386861
 30
0.0
 10
169.3042607016757
 20
191.2510177855585
 30
0.0
 10
169.3036363636364
 20
191.2830113636364
 30
0.0
  0
SPLINE
  5
1A4
330
1F
100
AcDbEntity
  8
0
  6
Continuous
 62
     7
370
    25
100
AcDbSpline
210
0.0
220
0.0
230
1.0
 70
     8
 71
     3
 72
    15
 73
    11
 74
     0
 42
0.000000001
 43
0.00000001
 40
0.0
 40
0.0
 40
0.0
 40
0.0
 40
0.0577637959166498
 40
0.1339095606009052
 40
0.2295030292916202
 40
0.3448176406847284
 40
0.4789606386437754
 40
0.6330175227221314
 40
0.8070638318754246
 40
0.9999999999999999
 40
0.9999999999999999
 40
0.9999999999999999
 40
0.9999999999999999
 10
170.3831818181818
 20
190.3540340909091
 30
0.0
 10
170.3768377257247
 20
190.358138204767
 30
0.0
 10
170.3621306826734
 20
190.3676524701412
 30
0.0
 10
170.3355997535602
 20
190.3817621170042
 30
0.0
 10
170.3013898919397
 20
190.3972504221926
 30
0.0
 10
170.2594414393321
 20
190.4138862704192
 30
0.0
 10
170.2104045337984
 20
190.4333744971765
 30
0.0
 10
170.1535100357837
 20
190.4538214397373
 30
0.0
 10
170.0889375908003
 20
190.4755613253236
 30
0.0
 10
170.0434565226567
 20
190.4908713907756
 30
0.0
 10
170.0195454545455
 20
190.4989204545455
 30
0.0
  0
SPLINE
  5
1A5
330
1F
100
AcDbEntity
  8
0
  6
Continuous
 62
     7
370
    25
100
AcDbSpline
210
0.0
220
0.0
230
1.0
 70
     8
 71
     3
 72
    11
 73
     7
 74
     0
 42
0.000000001
 43
0.00000001
 40
0.0
 40
0.0
 40
0.0
 40
0.0
 40
0.2612018464440364
 40
0.5049792000801517
 40
0.7479683367497323
 40
0.9999999999999999
 40
0.9999999999999999
 40
0.9999999999999999
 40
0.9999999999999999
 10
170.4854545454546
 20
190.1430965909091
 30
0.0
 10
170.4843611887386
 20
190.1643478739519
 30
0.0
 10
170.4822474119513
 20
190.2054327899191
 30
0.0
 10
170.4618882963869
 20
190.263277662799
 30
0.0
 10
170.4297940133542
 20
190.3148227288609
 30
0.0
 10
170.3989072854766
 20
190.3408054285561
 30
0.0
 10
170.3831818181818
 20
190.3540340909091
 30
0.0
  0
SPLINE
  5
1A6
330
1F
100
AcDbEntity
  8
0
  6
Continuous
 62
     7
370
    25
100
AcDbSpline
210
0.0
220
0.0
230
1.0
 70
     8
 71
     3
 72
    15
 73
    11
 74
     0
 42
0.000000001
 43
0.00000001
 40
0.0
 40
0.0
 40
0.0
 40
0.0
 40
0.1679916647423577
 40
0.3151574940028671
 40
0.4449673626661135
 40
0.5641363972236245
 40
0.6758278916254687
 40
0.7812169892488618
 40
0.8880605774475729
 40
1.0
 40
1.0
 40
1.0
 40
1.0
 10
170.0749431818182
 20
189.8327272727273
 30
0.0
 10
170.1074597778174
 20
189.8337112622982
 30
0.0
 10
170.1684619050617
 20
189.8355572567869
 30
0.0
 10
170.2533545482448
 20
189.851728571836
 30
0.0
 10
170.3258186759321
 20
189.878208325409
 30
0.0
 10
170.3843249379274
 20
189.9173096366278
 30
0.0
 10
170.429873172933
 20
189.9645040961537
 30
0.0
 10
170.4619681418824
 20
190.0188269840141
 30
0.0
 10
170.482085079832
 20
190.0789768790461
 30
0.0
 10
170.4843140844573
 20
190.1213940307034
 30
0.0
 10
170.4854545454546
 20
190.1430965909091
 30
0.0
  0
SPLINE
  5
1A7
330
1F
100
AcDbEntity
  8
0
  6
Continuous
 62
     7
370
    25
100
AcDbSpline
210
0.0
220
0.0
230
1.0
 70
     8
 71
     3
 72
    15
 73
    11
 74
     0
 42
0.000000001
 43
0.00000001
 40
0.0
 40
0.0
 40
0.0
 40
0.0
 40
0.1502582195245541
 40
0.2850603007255547
 40
0.4068984126073952
 40
0.520987251139561
 40
0.6319879778142736
 40
0.7454829310191478
 40
0.8667103714755051
 40
1.0
 40
1.0
 40
1.0
 40
1.0
 10
169.6672727272727
 20
190.2418181818182
 30
0.0
 10
169.6714791155316
 20
190.2096503510208
 30
0.0
 10
169.679459206776
 20
190.1486235962129
 30
0.0
 10
169.7062923626548
 20
190.0647129397342
 30
0.0
 10
169.7413631203416
 20
189.9924571638624
 30
0.0
 10
169.7884701812495
 20
189.9335608868849
 30
0.0
 10
169.8459366813153
 20
189.887576748882
 30
0.0
 10
169.9137289611609
 20
189.8553643678655
 30
0.0
 10
169.9912476022913
 20
189.8358996591912
 30
0.0
 10
170.046176910436
 20
189.8338176257718
 30
0.0
 10
170.0749431818182
 20
189.8327272727273
 30
0.0
  0
LINE
  5
1A8
330
1F
100
AcDbEntity
  8
0
  6
Continuous
 62
     7
370
    25
100
AcDbLine
 10
169.3490909091
 20
190.1963636364
 30
0.0
 11
169.6672727273
 21
190.2418181818
 31
0.0
  0
SPLINE
  5
1A9
330
1F
100
AcDbEntity
  8
0
  6
Continuous
 62
     7
370
    25
100
AcDbSpline
210
0.0
220
0.0
230
1.0
 70
     8
 71
     3
 72
    19
 73
    15
 74
     0
 42
0.000000001
 43
0.00000001
 40
0.0
 40
0.0
 40
0.0
 40
0.0
 40
0.0890223283603135
 40
0.1734761019486487
 40
0.2547393000803024
 40
0.3337873141316952
 40
0.4103332026615492
 40
0.4835724380709343
 40
0.5555749335244803
 40
0.6273395677255151
 40
0.7038289784086754
 40
0.7912582993925608
 40
0.8895416060842827
 40
1.0
 40
1.0
 40
1.0
 40
1.0
 10
170.0863068181818
 20
189.4690909090909
 30
0.0
 10
170.051927330062
 20
189.4702622038846
 30
0.0
 10
169.9849326816871
 20
189.4725446835588
 30
0.0
 10
169.8874221923437
 20
189.4879851835223
 30
0.0
 10
169.7967555602471
 20
189.5154412899497
 30
0.0
 10
169.7124628958452
 20
189.5517656093728
 30
0.0
 10
169.6376061435442
 20
189.5992176716876
 30
0.0
 10
169.5702630574985
 20
189.6525216941439
 30
0.0
 10
169.5132121225938
 20
189.7143207399351
 30
0.0
 10
169.4640060728225
 20
189.7840773857762
 30
0.0
 10
169.4244274715835
 20
189.86645795605
 30
0.0
 10
169.3926013357102
 20
189.9627581006145
 30
0.0
 10
169.3662718044925
 20
190.0742398943182
 30
0.0
 10
169.3550363149497
 20
190.1541030210419
 30
0.0
 10
169.349090909091
 20
190.1963636363637
 30
0.0
  0
SPLINE
  5
1AA
330
1F
100
AcDbEntity
  8
0
  6
Continuous
 62
     7
370
    25
100
AcDbSpline
210
0.0
220
0.0
230
1.0
 70
     8
 71
     3
 72
    23
 73
    19
 74
     0
 42
0.000000001
 43
0.00000001
 40
0.0
 40
0.0
 40
0.0
 40
0.0
 40
0.0684541638465215
 40
0.1336601907647525
 40
0.1972381692343307
 40
0.2578650826206745
 40
0.3180739285712243
 40
0.3770977210116631
 40
0.4360732295901484
 40
0.4959689880522527
 40
0.5556869196732975
 40
0.6147300146026498
 40
0.6741322713623794
 40
0.7342685251728354
 40
0.7964419763033054
 40
0.8613531697595955
 40
0.929082163112468
 40
1.0
 40
1.0
 40
1.0
 40
1.0
 10
170.8036363636364
 20
190.1949431818182
 30
0.0
 10
170.8031959733767
 20
190.1686319888319
 30
0.0
 10
170.8023360892905
 20
190.1172580639136
 30
0.0
 10
170.7925172640148
 20
190.042000485742
 30
0.0
 10
170.7780754995948
 20
189.9706175397354
 30
0.0
 10
170.7571992158242
 20
189.902793805303
 30
0.0
 10
170.7303298779481
 20
189.8390085274901
 30
0.0
 10
170.6973163029048
 20
189.7789216475325
 30
0.0
 10
170.6588455620752
 20
189.7222836086323
 30
0.0
 10
170.6140917865079
 20
189.6701590146246
 30
0.0
 10
170.5648429841168
 20
189.6221149650644
 30
0.0
 10
170.5093378128949
 20
189.5817786583695
 30
0.0
 10
170.4503186560817
 20
189.5466100665365
 30
0.0
 10
170.3864603409439
 20
189.5180366737304
 30
0.0
 10
170.3178589890498
 20
189.4959423721399
 30
0.0
 10
170.244483540356
 20
189.4808589722853
 30
0.0
 10
170.1668718110482
 20
189.4702112482797
 30
0.0
 10
170.1135704552312
 20
189.4694700380392
 30
0.0
 10
170.0863068181818
 20
189.4690909090909
 30
0.0
  0
SPLINE
  5
1AB
330
1F
100
AcDbEntity
  8
0
  6
Continuous
 62
     7
370
    25
100
AcDbSpline
210
0.0
220
0.0
230
1.0
 70
     8
 71
     3
 72
    23
 73
    19
 74
     0
 42
0.000000001
 43
0.00000001
 40
0.0
 40
0.0
 40
0.0
 40
0.0
 40
0.0775405969985322
 40
0.1491571696458407
 40
0.214310670606558
 40
0.2737849970163059
 40
0.3276265935731625
 40
0.3751148465947299
 40
0.4168327416443608
 40
0.4526482340629349
 40
0.5179942125506989
 40
0.5827052352963695
 40
0.6479405426656915
 40
0.714442622579516
 40
0.7827618385493931
 40
0.8523782127499073
 40
0.9248045777620294
 40
1.0
 40
1.0
 40
1.0
 40
1.0
 10
170.0167045454546
 20
190.9754829545455
 30
0.0
 10
170.0463204302734
 20
190.9653694759975
 30
0.0
 10
170.1032895758196
 20
190.9459151785858
 30
0.0
 10
170.1847753278254
 20
190.916903244005
 30
0.0
 10
170.2590064951552
 20
190.8892670694427
 30
0.0
 10
170.325822666903
 20
190.8623405347721
 30
0.0
 10
170.3852660130451
 20
190.8362539063948
 30
0.0
 10
170.4372883048955
 20
190.8112214114881
 30
0.0
 10
170.4822751050735
 20
190.7882967489541
 30
0.0
 10
170.5313650945427
 20
190.7579477784303
 30
0.0
 10
170.5850427557364
 20
190.7176770847839
 30
0.0
 10
170.6418639263448
 20
190.6626922556776
 30
0.0
 10
170.6903204734747
 20
190.5995948864274
 30
0.0
 10
170.7308206552264
 20
190.5295218127096
 30
0.0
 10
170.7635430541245
 20
190.4535636310539
 30
0.0
 10
170.7872516347353
 20
190.3718006387834
 30
0.0
 10
170.8005007863618
 20
190.2848639517823
 30
0.0
 10
170.8025781820998
 20
190.2252892681055
 30
0.0
 10
170.8036363636364
 20
190.1949431818182
 30
0.0
  0
SPLINE
  5
1AC
330
1F
100
AcDbEntity
  8
0
  6
Continuous
 62
     7
370
    25
100
AcDbSpline
210
0.0
220
0.0
230
1.0
 70
     8
 71
     3
 72
    15
 73
    11
 74
     0
 42
0.000000001
 43
0.00000001
 40
0.0
 40
0.0
 40
0.0
 40
0.0
 40
0.0642898394880093
 40
0.1476271262044781
 40
0.2461686922708308
 40
0.3603015254696296
 40
0.4940629204354117
 40
0.6446251559091942
 40
0.8132322161245397
 40
1.0
 40
1.0
 40
1.0
 40
1.0
 10
169.7034943181818
 20
191.1161079545455
 30
0.0
 10
169.7090665803943
 20
191.1112282900187
 30
0.0
 10
169.7218620246423
 20
191.1000232402524
 30
0.0
 10
169.7460882931231
 20
191.0851586869746
 30
0.0
 10
169.7759601642888
 20
191.068847487203
 30
0.0
 10
169.8119089538302
 20
191.0515526980241
 30
0.0
 10
169.8544407001337
 20
191.0344296225464
 30
0.0
 10
169.9027488628804
 20
191.0148967299599
 30
0.0
 10
169.9575171804861
 20
190.9951507066673
 30
0.0
 10
169.9963145365928
 20
190.9822584824013
 30
0.0
 10
170.0167045454546
 20
190.9754829545455
 30
0.0
  0
SPLINE
  5
1AD
330
1F
100
AcDbEntity
  8
0
  6
Continuous
 62
     7
370
    25
100
AcDbSpline
210
0.0
220
0.0
230
1.0
 70
     8
 71
     3
 72
    11
 73
     7
 74
     0
 42
0.000000001
 43
0.00000001
 40
0.0
 40
0.0
 40
0.0
 40
0.0
 40
0.2808399984848188
 40
0.5347733217096203
 40
0.7701835190502125
 40
1.0
 40
1.0
 40
1.0
 40
1.0
 10
169.6218181818182
 20
191.3469318181818
 30
0.0
 10
169.622580133724
 20
191.3233808598534
 30
0.0
 10
169.6240310365649
 20
191.2785353097796
 30
0.0
 10
169.6401458400029
 20
191.2157259742448
 30
0.0
 10
169.6654607706896
 20
191.1604294524604
 30
0.0
 10
169.6909185005128
 20
191.1307628871864
 30
0.0
 10
169.7034943181818
 20
191.1161079545455
 30
0.0
  0
SPLINE
  5
1AE
330
1F
100
AcDbEntity
  8
0
  6
Continuous
 62
     7
370
    25
100
AcDbSpline
210
0.0
220
0.0
230
1.0
 70
     8
 71
     3
 72
    15
 73
    11
 74
     0
 42
0.000000001
 43
0.00000001
 40
0.0
 40
0.0
 40
0.0
 40
0.0
 40
0.1472807282839329
 40
0.2806153354772334
 40
0.4047813093738584
 40
0.5247085089494864
 40
0.6421143683919427
 40
0.7566027311301513
 40
0.874251754478844
 40
1.0
 40
1.0
 40
1.0
 40
1.0
 10
170.0507954545455
 20
191.7418181818182
 30
0.0
 10
170.0184765059828
 20
191.7405456958492
 30
0.0
 10
169.9568989139999
 20
191.7381212165487
 30
0.0
 10
169.8699908447976
 20
191.7174230705224
 30
0.0
 10
169.7941762172797
 20
191.6826259170823
 30
0.0
 10
169.7317997257322
 20
191.6326023793534
 30
0.0
 10
169.682467346285
 20
191.5726495017836
 30
0.0
 10
169.6467438213911
 20
191.5042704410901
 30
0.0
 10
169.6256976003466
 20
191.4279421348215
 30
0.0
 10
169.6231396934026
 20
191.3745277249162
 30
0.0
 10
169.6218181818182
 20
191.3469318181818
 30
0.0
  0
SPLINE
  5
1AF
330
1F
100
AcDbEntity
  8
0
  6
Continuous
 62
     7
370
    25
100
AcDbSpline
210
0.0
220
0.0
230
1.0
 70
     8
 71
     3
 72
    15
 73
    11
 74
     0
 42
0.000000001
 43
0.00000001
 40
0.0
 40
0.0
 40
0.0
 40
0.0
 40
0.1555424125785324
 40
0.2941247662045924
 40
0.4190131343703088
 40
0.5346399020775131
 40
0.6456767424937826
 40
0.7570057606629097
 40
0.873750914043657
 40
1.0
 40
1.0
 40
1.0
 40
1.0
 10
170.5309090909091
 20
191.2418181818182
 30
0.0
 10
170.5254073081867
 20
191.2815797434916
 30
0.0
 10
170.5150036470239
 20
191.3567673391914
 30
0.0
 10
170.4829594884207
 20
191.4604330670789
 30
0.0
 10
170.4391470744551
 20
191.5483874091563
 30
0.0
 10
170.3819929472862
 20
191.6196517517857
 30
0.0
 10
170.3137131394796
 20
191.6747383108338
 30
0.0
 10
170.2353416561282
 20
191.7148710879702
 30
0.0
 10
170.1460291489084
 20
191.7375586291004
 30
0.0
 10
170.0833570908487
 20
191.740361785452
 30
0.0
 10
170.0507954545455
 20
191.7418181818182
 30
0.0
  0
LINE
  5
1B0
330
1F
100
AcDbEntity
  8
0
  6
Continuous
 62
     7
370
    25
100
AcDbLine
 10
170.8490909091
 20
191.2872727273
 30
0.0
 11
170.5309090909
 21
191.2418181818
 31
0.0
  0
SPLINE
  5
1B1
330
1F
100
AcDbEntity
  8
0
  6
Continuous
 62
     7
370
    25
100
AcDbSpline
210
0.0
220
0.0
230
1.0
 70
     8
 71
     3
 72
    23
 73
    19
 74
     0
 42
0.000000001
 43
0.00000001
 40
0.0
 40
0.0
 40
0.0
 40
0.0
 40
0.0650583079318771
 40
0.1266305141833308
 40
0.1861784727427861
 40
0.2433911603167956
 40
0.2990748799455731
 40
0.3543437316461277
 40
0.4088467230880553
 40
0.4648395764645839
 40
0.5213806544919292
 40
0.5803460118935531
 40
0.6413575701834319
 40
0.705652276801338
 40
0.7730846599530082
 40
0.8446898584428081
 40
0.9198751042775388
 40
0.9999999999999999
 40
0.9999999999999999
 40
0.9999999999999999
 40
0.9999999999999999
 10
170.0728125
 20
192.1054545454546
 30
0.0
 10
170.1000801928518
 20
192.1050962340557
 30
0.0
 10
170.1531544592473
 20
192.1043988111114
 30
0.0
 10
170.2304798027564
 20
192.0935367840284
 30
0.0
 10
170.3038210650365
 20
192.078869499742
 30
0.0
 10
170.3722712898571
 20
192.0554198099638
 30
0.0
 10
170.4369941586529
 20
192.0273684319167
 30
0.0
 10
170.4965003287383
 20
191.9915386709901
 30
0.0
 10
170.5521395481031
 20
191.949833398807
 30
0.0
 10
170.6029617063072
 20
191.9015718662023
 30
0.0
 10
170.6498286277979
 20
191.846966106397
 30
0.0
 10
170.6912458266822
 20
191.7856207440618
 30
0.0
 10
170.7296133937782
 20
191.7185312449427
 30
0.0
 10
170.7613888022222
 20
191.6442348362312
 30
0.0
 10
170.7912886466321
 20
191.5644483651152
 30
0.0
 10
170.8146464804654
 20
191.477742601246
 30
0.0
 10
170.8349928888229
 20
191.3848762916354
 30
0.0
 10
170.8442929723993
 20
191.3204898537764
 30
0.0
 10
170.849090909091
 20
191.2872727272728
 30
0.0
  0
SPLINE
  5
1B2
330
1F
100
AcDbEntity
  8
0
  6
Continuous
 62
     7
370
    25
100
AcDbSpline
210
0.0
220
0.0
230
1.0
 70
     8
 71
     3
 72
    31
 73
    27
 74
     0
 42
0.000000001
 43
0.00000001
 40
0.0
 40
0.0
 40
0.0
 40
0.0
 40
0.0600146686512147
 40
0.1180632243206466
 40
0.1736112481814754
 40
0.2273480732113707
 40
0.2787957782707443
 40
0.3286447324858103
 40
0.3764527930657435
 40
0.4229248385111832
 40
0.4674437840351637
 40
0.509478867473954
 40
0.5491706570762999
 40
0.5869330764944717
 40
0.6227040356379098
 40
0.6567128713833552
 40
0.6892156866119732
 40
0.7207171031619536
 40
0.7519013924558366
 40
0.783845789879745
 40
0.8164065518265722
 40
0.8501091436336218
 40
0.8852578676166849
 40
0.9216898465026333
 40
0.9598798403630362
 40
1.0
 40
1.0
 40
1.0
 40
1.0
 10
174.5309090909091
 20
190.2908238636364
 30
0.0
 10
174.5311718132373
 20
190.339369109938
 30
0.0
 10
174.5316886509681
 20
190.4348692340346
 30
0.0
 10
174.5400887176434
 20
190.5750787958984
 30
0.0
 10
174.551809838632
 20
190.709920553547
 30
0.0
 10
174.568701226165
 20
190.8388644533685
 30
0.0
 10
174.5908091937184
 20
190.9623267963498
 30
0.0
 10
174.6175010201208
 20
191.0799784640605
 30
0.0
 10
174.6495945798421
 20
191.1921066283674
 30
0.0
 10
174.686486757742
 20
191.2981787383208
 30
0.0
 10
174.7266837895312
 20
191.3980190347692
 30
0.0
 10
174.7698928307502
 20
191.490594883559
 30
0.0
 10
174.8162127069078
 20
191.5754802457094
 30
0.0
 10
174.8650044550705
 20
191.6530451938628
 30
0.0
 10
174.9168038700781
 20
191.7230600557786
 30
0.0
 10
174.971874030866
 20
191.7848815467682
 30
0.0
 10
175.0285671477632
 20
191.8404601269328
 30
0.0
 10
175.089696166205
 20
191.8875256880305
 30
0.0
 10
175.1544618630597
 20
191.9284692333406
 30
0.0
 10
175.2233504415346
 20
191.9639521401769
 30
0.0
 10
175.296994406152
 20
191.9940074151203
 30
0.0
 10
175.3755506918014
 20
192.0178838058935
 30
0.0
 10
175.4585646579803
 20
192.0371373556239
 30
0.0
 10
175.5464069845289
 20
192.0505308359539
 30
0.0
 10
175.638959658748
 20
192.0582751214738
 30
0.0
 10
175.7022957353355
 20
192.0594156698569
 30
0.0
 10
175.7347443181818
 20
192.06
 30
0.0
  0
SPLINE
  5
1B3
330
1F
100
AcDbEntity
  8
0
  6
Continuous
 62
     7
370
    25
100
AcDbSpline
210
0.0
220
0.0
230
1.0
 70
     8
 71
     3
 72
    19
 73
    15
 74
     0
 42
0.000000001
 43
0.00000001
 40
0.0
 40
0.0
 40
0.0
 40
0.0
 40
0.0623640400735977
 40
0.1255007566719701
 40
0.1911061941901555
 40
0.2605141750850599
 40
0.3340557159649651
 40
0.4115279921742333
 40
0.4938220724186535
 40
0.5812913505930908
 40
0.6752318168145623
 40
0.7759740931165834
 40
0.8841187899401617
 40
1.0
 40
1.0
 40
1.0
 40
1.0
 10
175.2723863636364
 20
188.6246306818182
 30
0.0
 10
175.2353322658741
 20
188.6402812785259
 30
0.0
 10
175.1607649783559
 20
188.6717763793384
 30
0.0
 10
175.0582393871335
 20
188.7411607645031
 30
0.0
 10
174.9639983151795
 20
188.8275909310737
 30
0.0
 10
174.8771866095678
 20
188.9304881753276
 30
0.0
 10
174.7994578326494
 20
189.0495722307614
 30
0.0
 10
174.7307493137838
 20
189.1833555538691
 30
0.0
 10
174.6702114985611
 20
189.3307734593059
 30
0.0
 10
174.6200920245933
 20
189.4931551781993
 30
0.0
 10
174.5792892061941
 20
189.670356286326
 30
0.0
 10
174.5520834266169
 20
189.8635456980106
 30
0.0
 10
174.5335890649008
 20
190.0719513103039
 30
0.0
 10
174.5318227482396
 20
190.2162057839764
 30
0.0
 10
174.5309090909091
 20
190.2908238636364
 30
0.0
  0
SPLINE
  5
1B4
330
1F
100
AcDbEntity
  8
0
  6
Continuous
 62
     7
370
    25
100
AcDbSpline
210
0.0
220
0.0
230
1.0
 70
     8
 71
     3
 72
    15
 73
    11
 74
     0
 42
0.000000001
 43
0.00000001
 40
0.0
 40
0.0
 40
0.0
 40
0.0
 40
0.1575667473574129
 40
0.3055312710975083
 40
0.4439157034432863
 40
0.5729506810152674
 40
0.6928478267623408
 40
0.8035992676273503
 40
0.906080988927765
 40
1.0
 40
1.0
 40
1.0
 40
1.0
 10
175.7752272727273
 20
188.56
 30
0.0
 10
175.7484691186744
 20
188.5599862362954
 30
0.0
 10
175.6965834704832
 20
188.5599595476556
 30
0.0
 10
175.6212998255671
 20
188.5640262764874
 30
0.0
 10
175.550922041978
 20
188.5686320158921
 30
0.0
 10
175.4854998921726
 20
188.5756160939634
 30
0.0
 10
175.4251630080449
 20
188.5850830098904
 30
0.0
 10
175.3694726138093
 20
188.5951576559409
 30
0.0
 10
175.3190696688574
 20
188.6087922459153
 30
0.0
 10
175.2874885051853
 20
188.6195069164853
 30
0.0
 10
175.2723863636364
 20
188.6246306818182
 30
0.0
  0
LINE
  5
1B5
330
1F
100
AcDbEntity
  8
0
  6
Continuous
 62
     7
370
    25
100
AcDbLine
 10
176.6672727273
 20
188.56
 30
0.0
 11
175.7752272727
 21
188.56
 31
0.0
  0
LINE
  5
1B6
330
1F
100
AcDbEntity
  8
0
  6
Continuous
 62
     7
370
    25
100
AcDbLine
 10
176.6672727273
 20
192.06
 30
0.0
 11
176.6672727273
 21
188.56
 31
0.0
  0
LINE
  5
1B7
330
1F
100
AcDbEntity
  8
0
  6
Continuous
 62
     7
370
    25
100
AcDbLine
 10
175.7347443182
 20
192.06
 30
0.0
 11
176.6672727273
 21
192.06
 31
0.0
  0
SPLINE
  5
1B8
330
1F
100
AcDbEntity
  8
0
  6
Continuous
 62
     7
370
    25
100
AcDbSpline
210
0.0
220
0.0
230
1.0
 70
     8
 71
     3
 72
    23
 73
    19
 74
     0
 42
0.000000001
 43
0.00000001
 40
0.0
 40
0.0
 40
0.0
 40
0.0
 40
0.0968192816718758
 40
0.1879688264533211
 40
0.2754194753544074
 40
0.3598337273088537
 40
0.4399412145866806
 40
0.5152097928626765
 40
0.5867202398916698
 40
0.6563463397493262
 40
0.6917361708376777
 40
0.7292083367414259
 40
0.7682863087763633
 40
0.8098729623450034
 40
0.8531673973810607
 40
0.8996294221862325
 40
0.9485553412259712
 40
0.9999999999999999
 40
0.9999999999999999
 40
0.9999999999999999
 40
0.9999999999999999
 10
179.94
 20
191.0323011363637
 30
0.0
 10
179.9412141198495
 20
191.0844684236309
 30
0.0
 10
179.9435712606933
 20
191.1857480819546
 30
0.0
 10
179.9661333343707
 20
191.3327561316178
 30
0.0
 10
180.0028486221885
 20
191.469848140816
 30
0.0
 10
180.0537568253447
 20
191.5959782022135
 30
0.0
 10
180.1163798235403
 20
191.7093543346666
 30
0.0
 10
180.1907629371284
 20
191.8068274749048
 30
0.0
 10
180.2744164549172
 20
191.8886227800906
 30
0.0
 10
180.3534366821283
 20
191.9425292743601
 30
0.0
 10
180.4222683548055
 20
191.9765673057614
 30
0.0
 10
180.4781121923056
 20
191.9994857697492
 30
0.0
 10
180.5391788897692
 20
192.0175753668537
 30
0.0
 10
180.6041015091496
 20
192.0331837677197
 30
0.0
 10
180.673827480223
 20
192.0454184234897
 30
0.0
 10
180.7481031821872
 20
192.0533669878409
 30
0.0
 10
180.826968582584
 20
192.059654296391
 30
0.0
 10
180.8810372538516
 20
192.0598828536279
 30
0.0
 10
180.90875
 20
192.06
 30
0.0
  0
SPLINE
  5
1B9
330
1F
100
AcDbEntity
  8
0
  6
Continuous
 62
     7
370
    25
100
AcDbSpline
210
0.0
220
0.0
230
1.0
 70
     8
 71
     3
 72
    15
 73
    11
 74
     0
 42
0.000000001
 43
0.00000001
 40
0.0
 40
0.0
 40
0.0
 40
0.0
 40
0.1075455009599656
 40
0.2161484786361862
 40
0.3275339862401762
 40
0.4466741092290036
 40
0.5723517132400952
 40
0.7049746126034377
 40
0.8469541779204319
 40
1.0
 40
1.0
 40
1.0
 40
1.0
 10
180.3746590909091
 20
190.1736363636364
 30
0.0
 10
180.3422200829006
 20
190.1905009156127
 30
0.0
 10
180.2770230996058
 20
190.2243958458516
 30
0.0
 10
180.1913680476406
 20
190.2964686902888
 30
0.0
 10
180.1163791607644
 20
190.3841845725164
 30
0.0
 10
180.0528627187129
 20
190.4874676805945
 30
0.0
 10
180.0015009537882
 20
190.6052055072592
 30
0.0
 10
179.9659807692874
 20
190.7365815682579
 30
0.0
 10
179.9434432199011
 20
190.8802455243793
 30
0.0
 10
179.9411760863211
 20
190.9803641324995
 30
0.0
 10
179.94
 20
191.0323011363637
 30
0.0
  0
SPLINE
  5
1BA
330
1F
100
AcDbEntity
  8
0
  6
Continuous
 62
     7
370
    25
100
AcDbSpline
210
0.0
220
0.0
230
1.0
 70
     8
 71
     3
 72
    15
 73
    11
 74
     0
 42
0.000000001
 43
0.00000001
 40
0.0
 40
0.0
 40
0.0
 40
0.0
 40
0.137631948103129
 40
0.2699093307690262
 40
0.3973560729775332
 40
0.5229561724864144
 40
0.6459932020845038
 40
0.764917887213427
 40
0.8818553540181845
 40
1.0
 40
1.0
 40
1.0
 40
1.0
 10
180.0309090909091
 20
189.4399715909091
 30
0.0
 10
180.0319327954262
 20
189.4786320525909
 30
0.0
 10
180.0339403772773
 20
189.5544488922387
 30
0.0
 10
180.0516773541783
 20
189.6648516342513
 30
0.0
 10
180.0788487465744
 20
189.7697955358726
 30
0.0
 10
180.1191740449941
 20
189.8676443734366
 30
0.0
 10
180.1681969448704
 20
189.95874095032
 30
0.0
 10
180.2279874774327
 20
190.0401031641255
 30
0.0
 10
180.2955481037453
 20
190.1135654861145
 30
0.0
 10
180.3481986392595
 20
190.1535443055392
 30
0.0
 10
180.3746590909091
 20
190.1736363636364
 30
0.0
  0
SPLINE
  5
1BB
330
1F
100
AcDbEntity
  8
0
  6
Continuous
 62
     7
370
    25
100
AcDbSpline
210
0.0
220
0.0
230
1.0
 70
     8
 71
     3
 72
    19
 73
    15
 74
     0
 42
0.000000001
 43
0.00000001
 40
0.0
 40
0.0
 40
0.0
 40
0.0
 40
0.1010806791914289
 40
0.1924048240394078
 40
0.2742410221319962
 40
0.3492460202577995
 40
0.4212246326965184
 40
0.4951685410591022
 40
0.5724434811404174
 40
0.6547053216758505
 40
0.7394460711456413
 40
0.8244151355839414
 40
0.9104915248380964
 40
1.0
 40
1.0
 40
1.0
 40
1.0
 10
180.9059090909091
 20
188.56
 30
0.0
 10
180.8584990647842
 20
188.5611739478003
 30
0.0
 10
180.7682551348143
 20
188.5634085313207
 30
0.0
 10
180.6405809014104
 20
188.5814161631243
 30
0.0
 10
180.5279791975914
 20
188.6122353459572
 30
0.0
 10
180.4298241124114
 20
188.6568582461548
 30
0.0
 10
180.3438911866516
 20
188.7154900140422
 30
0.0
 10
180.2670983262433
 20
188.7872454104356
 30
0.0
 10
180.1997549607851
 20
188.8739843649273
 30
0.0
 10
180.1396791296744
 20
188.9717730958348
 30
0.0
 10
180.0909313512416
 20
189.0797997567896
 30
0.0
 10
180.0561566195528
 20
189.1948704249679
 30
0.0
 10
180.0349362035537
 20
189.3156101060986
 30
0.0
 10
180.0322688410737
 20
189.3979810720527
 30
0.0
 10
180.0309090909091
 20
189.4399715909091
 30
0.0
  0
LINE
  5
1BC
330
1F
100
AcDbEntity
  8
0
  6
Continuous
 62
     7
370
    25
100
AcDbLine
 10
181.8945454545
 20
188.56
 30
0.0
 11
180.9059090909
 21
188.56
 31
0.0
  0
LINE
  5
1BD
330
1F
100
AcDbEntity
  8
0
  6
Continuous
 62
     7
370
    25
100
AcDbLine
 10
181.8945454545
 20
192.06
 30
0.0
 11
181.8945454545
 21
188.56
 31
0.0
  0
LINE
  5
1BE
330
1F
100
AcDbEntity
  8
0
  6
Continuous
 62
     7
370
    25
100
AcDbLine
 10
180.90875
 20
192.06
 30
0.0
 11
181.8945454545
 21
192.06
 31
0.0
  0
LINE
  5
1BF
330
1F
100
AcDbEntity
  8
0
  6
Continuous
 62
     7
370
    25
100
AcDbLine
 10
185.0159943182
 20
188.56
 30
0.0
 11
186.0152840909
 21
192.06
 31
0.0
  0
LINE
  5
1C0
330
1F
100
AcDbEntity
  8
0
  6
Continuous
 62
     7
370
    25
100
AcDbLine
 10
185.3490909091
 20
188.56
 30
0.0
 11
185.0159943182
 21
188.56
 31
0.0
  0
LINE
  5
1C1
330
1F
100
AcDbEntity
  8
0
  6
Continuous
 62
     7
370
    25
100
AcDbLine
 10
186.0515056818
 20
191.0990625
 30
0.0
 11
185.3490909091
 21
188.56
 31
0.0
  0
SPLINE
  5
1C2
330
1F
100
AcDbEntity
  8
0
  6
Continuous
 62
     7
370
    25
100
AcDbSpline
210
0.0
220
0.0
230
1.0
 70
     8
 71
     3
 72
     9
 73
     5
 74
     0
 42
0.000000001
 43
0.00000001
 40
0.0
 40
0.0
 40
0.0
 40
0.0
 40
0.4901564748819405
 40
1.0
 40
1.0
 40
1.0
 40
1.0
 10
186.19
 20
191.6509090909091
 30
0.0
 10
186.1689777037307
 20
191.5603427942623
 30
0.0
 10
186.1260887542897
 20
191.3755726212913
 30
0.0
 10
186.076690872171
 20
191.1924343578281
 30
0.0
 10
186.0515056818182
 20
191.0990625
 30
0.0
  0
SPLINE
  5
1C3
330
1F
100
AcDbEntity
  8
0
  6
Continuous
 62
     7
370
    25
100
AcDbSpline
210
0.0
220
0.0
230
1.0
 70
     8
 71
     3
 72
    11
 73
     7
 74
     0
 42
0.000000001
 43
0.00000001
 40
0.0
 40
0.0
 40
0.0
 40
0.0
 40
0.2644827939617729
 40
0.519552554454923
 40
0.7649478036282251
 40
1.0
 40
1.0
 40
1.0
 40
1.0
 10
186.3157102272727
 20
191.0990625
 30
0.0
 10
186.3040672615036
 20
191.1475842711652
 30
0.0
 10
186.2811957071156
 20
191.2429009069959
 30
0.0
 10
186.2482473314727
 20
191.3834152345332
 30
0.0
 10
186.2188750689592
 20
191.5190424166537
 30
0.0
 10
186.1994858864794
 20
191.6075889414693
 30
0.0
 10
186.19
 20
191.6509090909091
 30
0.0
  0
LINE
  5
1C4
330
1F
100
AcDbEntity
  8
0
  6
Continuous
 62
     7
370
    25
100
AcDbLine
 10
186.94
 20
188.56
 30
0.0
 11
186.3157102273
 21
191.0990625
 31
0.0
  0
LINE
  5
1C5
330
1F
100
AcDbEntity
  8
0
  6
Continuous
 62
     7
370
    25
100
AcDbLine
 10
187.2695454545
 20
188.56
 30
0.0
 11
186.94
 21
188.56
 31
0.0
  0
LINE
  5
1C6
330
1F
100
AcDbEntity
  8
0
  6
Continuous
 62
     7
370
    25
100
AcDbLine
 10
186.3263636364
 20
192.06
 30
0.0
 11
187.2695454545
 21
188.56
 31
0.0
  0
LINE
  5
1C7
330
1F
100
AcDbEntity
  8
0
  6
Continuous
 62
     7
370
    25
100
AcDbLine
 10
186.0152840909
 20
192.06
 30
0.0
 11
186.3263636364
 21
192.06
 31
0.0
  0
LINE
  5
1C8
330
1F
100
AcDbEntity
  8
0
  6
Continuous
 62
     7
370
    25
100
AcDbLine
 10
192.8036363636
 20
189.2588636364
 30
0.0
 11
192.8036363636
 21
192.06
 31
0.0
  0
LINE
  5
1C9
330
1F
100
AcDbEntity
  8
0
  6
Continuous
 62
     7
370
    25
100
AcDbLine
 10
191.4634375
 20
192.06
 30
0.0
 11
192.8036363636
 21
189.2588636364
 31
0.0
  0
LINE
  5
1CA
330
1F
100
AcDbEntity
  8
0
  6
Continuous
 62
     7
370
    25
100
AcDbLine
 10
191.1218181818
 20
192.06
 30
0.0
 11
191.4634375
 21
192.06
 31
0.0
  0
LINE
  5
1CB
330
1F
100
AcDbEntity
  8
0
  6
Continuous
 62
     7
370
    25
100
AcDbLine
 10
191.1218181818
 20
188.56
 30
0.0
 11
191.1218181818
 21
192.06
 31
0.0
  0
LINE
  5
1CC
330
1F
100
AcDbEntity
  8
0
  6
Continuous
 62
     7
370
    25
100
AcDbLine
 10
191.44
 20
188.56
 30
0.0
 11
191.1218181818
 21
188.56
 31
0.0
  0
LINE
  5
1CD
330
1F
100
AcDbEntity
  8
0
  6
Continuous
 62
     7
370
    25
100
AcDbLine
 10
191.44
 20
191.3661079545
 30
0.0
 11
191.44
 21
188.56
 31
0.0
  0
LINE
  5
1CE
330
1F
100
AcDbEntity
  8
0
  6
Continuous
 62
     7
370
    25
100
AcDbLine
 10
192.7823295455
 20
188.56
 30
0.0
 11
191.44
 21
191.3661079545
 31
0.0
  0
LINE
  5
1CF
330
1F
100
AcDbEntity
  8
0
  6
Continuous
 62
     7
370
    25
100
AcDbLine
 10
193.1218181818
 20
188.56
 30
0.0
 11
192.7823295455
 21
188.56
 31
0.0
  0
LINE
  5
1D0
330
1F
100
AcDbEntity
  8
0
  6
Continuous
 62
     7
370
    25
100
AcDbLine
 10
193.1218181818
 20
192.06
 30
0.0
 11
193.1218181818
 21
188.56
 31
0.0
  0
LINE
  5
1D1
330
1F
100
AcDbEntity
  8
0
  6
Continuous
 62
     7
370
    25
100
AcDbLine
 10
192.8036363636
 20
192.06
 30
0.0
 11
193.1218181818
 21
192.06
 31
0.0
  0
SPLINE
  5
1D2
330
1F
100
AcDbEntity
  8
0
  6
Continuous
 62
     7
370
    25
100
AcDbSpline
210
0.0
220
0.0
230
1.0
 70
     8
 71
     3
 72
    15
 73
    11
 74
     0
 42
0.000000001
 43
0.00000001
 40
0.0
 40
0.0
 40
0.0
 40
0.0
 40
0.1393215392862103
 40
0.2716012228177646
 40
0.3968894546682078
 40
0.5172934503899382
 40
0.636026818922791
 40
0.7552113132249846
 40
0.8752184670120041
 40
1.0
 40
1.0
 40
1.0
 40
1.0
 10
196.8426988636364
 20
192.1054545454546
 30
0.0
 10
196.8697425910241
 20
192.104947721865
 30
0.0
 10
196.9224631499964
 20
192.1039596915331
 30
0.0
 10
196.9985855889634
 20
192.0912386391124
 30
0.0
 10
197.0695917194878
 20
192.0725309003561
 30
0.0
 10
197.1349860684755
 20
192.0451633387866
 30
0.0
 10
197.1952446873075
 20
192.0101381386148
 30
0.0
 10
197.2499550596557
 20
191.9671867209481
 30
0.0
 10
197.3001938187274
 20
191.9171634991834
 30
0.0
 10
197.3274066253443
 20
191.8781716362861
 30
0.0
 10
197.3412784090909
 20
191.8582954545455
 30
0.0
  0
SPLINE
  5
1D3
330
1F
100
AcDbEntity
  8
0
  6
Continuous
 62
     7
370
    25
100
AcDbSpline
210
0.0
220
0.0
230
1.0
 70
     8
 71
     3
 72
    23
 73
    19
 74
     0
 42
0.000000001
 43
0.00000001
 40
0.0
 40
0.0
 40
0.0
 40
0.0
 40
0.0994431688498002
 40
0.1913077015538613
 40
0.2757215482566733
 40
0.3534769429097846
 40
0.4244929843969385
 40
0.4889624360411804
 40
0.5481480844568248
 40
0.6021993962054076
 40
0.6531279306542433
 40
0.7024715583656373
 40
0.7502734845581447
 40
0.7980754107506531
 40
0.8461052506998795
 40
0.8953476000127794
 40
0.9461124950813905
 40
1.0
 40
1.0
 40
1.0
 40
1.0
 10
196.1218181818182
 20
190.9357102272728
 30
0.0
 10
196.1222245679166
 20
190.9873386025116
 30
0.0
 10
196.1230063691337
 20
191.086660717003
 30
0.0
 10
196.1327835609171
 20
191.2295118979552
 30
0.0
 10
196.1462717313984
 20
191.3607199791943
 30
0.0
 10
196.1664611164283
 20
191.4801951138141
 30
0.0
 10
196.1935740826175
 20
191.5876011132837
 30
0.0
 10
196.2249957572474
 20
191.6837776432382
 30
0.0
 10
196.2631610150406
 20
191.7679889924607
 30
0.0
 10
196.3076023146958
 20
191.8409808712262
 30
0.0
 10
196.3581448867001
 20
191.9033897152258
 30
0.0
 10
196.4128252199458
 20
191.9575989854462
 30
0.0
 10
196.4723498320724
 20
192.00403399681
 30
0.0
 10
196.5375298481731
 20
192.0406587922929
 30
0.0
 10
196.6069224602362
 20
192.0703663730852
 30
0.0
 10
196.6812337207604
 20
192.0907221949667
 30
0.0
 10
196.7603743554087
 20
192.1030386192283
 30
0.0
 10
196.8147168716914
 20
192.1046333753115
 30
0.0
 10
196.8426988636364
 20
192.1054545454546
 30
0.0
  0
LINE
  5
1D4
330
1F
100
AcDbEntity
  8
0
  6
Continuous
 62
     7
370
    25
100
AcDbLine
 10
196.1218181818
 20
188.56
 30
0.0
 11
196.1218181818
 21
190.9357102273
 31
0.0
  0
LINE
  5
1D5
330
1F
100
AcDbEntity
  8
0
  6
Continuous
 62
     7
370
    25
100
AcDbLine
 10
196.44
 20
188.56
 30
0.0
 11
196.1218181818
 21
188.56
 31
0.0
  0
LINE
  5
1D6
330
1F
100
AcDbEntity
  8
0
  6
Continuous
 62
     7
370
    25
100
AcDbLine
 10
196.44
 20
190.9634090909
 30
0.0
 11
196.44
 21
188.56
 31
0.0
  0
SPLINE
  5
1D7
330
1F
100
AcDbEntity
  8
0
  6
Continuous
 62
     7
370
    25
100
AcDbSpline
210
0.0
220
0.0
230
1.0
 70
     8
 71
     3
 72
    11
 73
     7
 74
     0
 42
0.000000001
 43
0.00000001
 40
0.0
 40
0.0
 40
0.0
 40
0.0
 40
0.1897211885864214
 40
0.4188043445050498
 40
0.6886196378243379
 40
1.0
 40
1.0
 40
1.0
 40
1.0
 10
196.4854545454546
 20
191.4321590909091
 30
0.0
 10
196.4782632542718
 20
191.4031473045025
 30
0.0
 10
196.4623886753045
 20
191.339104578018
 30
0.0
 10
196.4498077650979
 20
191.2312174934243
 30
0.0
 10
196.4412567432191
 20
191.103944497988
 30
0.0
 10
196.4404384222195
 20
191.0124356893034
 30
0.0
 10
196.44
 20
190.9634090909091
 30
0.0
  0
SPLINE
  5
1D8
330
1F
100
AcDbEntity
  8
0
  6
Continuous
 62
     7
370
    25
100
AcDbSpline
210
0.0
220
0.0
230
1.0
 70
     8
 71
     3
 72
    15
 73
    11
 74
     0
 42
0.000000001
 43
0.00000001
 40
0.0
 40
0.0
 40
0.0
 40
0.0
 40
0.1289478034479484
 40
0.2532473852373883
 40
0.3764406309892795
 40
0.5033025917821633
 40
0.6299799454329872
 40
0.7520759981192225
 40
0.8746598439576752
 40
1.0
 40
1.0
 40
1.0
 40
1.0
 10
196.8277840909091
 20
191.6963636363637
 30
0.0
 10
196.807840228024
 20
191.6952925054037
 30
0.0
 10
196.7686714248949
 20
191.6931888548752
 30
0.0
 10
196.7114377958713
 20
191.6799813914831
 30
0.0
 10
196.659003505585
 20
191.6545849278954
 30
0.0
 10
196.6102900116303
 20
191.6222997005553
 30
0.0
 10
196.5670361747619
 20
191.582981674968
 30
0.0
 10
196.5319448302484
 20
191.5372299090001
 30
0.0
 10
196.5033497509318
 20
191.4872245715739
 30
0.0
 10
196.4914636620529
 20
191.4506497919115
 30
0.0
 10
196.4854545454546
 20
191.4321590909091
 30
0.0
  0
SPLINE
  5
1D9
330
1F
100
AcDbEntity
  8
0
  6
Continuous
 62
     7
370
    25
100
AcDbSpline
210
0.0
220
0.0
230
1.0
 70
     8
 71
     3
 72
    23
 73
    19
 74
     0
 42
0.000000001
 43
0.00000001
 40
0.0
 40
0.0
 40
0.0
 40
0.0
 40
0.1092372335715481
 40
0.2102209308448991
 40
0.3021972615310228
 40
0.3860574403282928
 40
0.4615364433605463
 40
0.5288594026150175
 40
0.588940417074211
 40
0.6419432213395108
 40
0.6902628885277928
 40
0.7362901207039032
 40
0.7807076703864043
 40
0.8236437590948548
 40
0.8662436383458302
 40
0.9093259936573101
 40
0.9535000835603565
 40
1.0
 40
1.0
 40
1.0
 40
1.0
 10
197.2127272727273
 20
190.9690909090909
 30
0.0
 10
197.2116263164763
 20
191.0024895462669
 30
0.0
 10
197.2095075879042
 20
191.0667633507794
 30
0.0
 10
197.2013589939273
 20
191.1588715992234
 30
0.0
 10
197.191471042216
 20
191.2429595734659
 30
0.0
 10
197.1800342418495
 20
191.3190094515594
 30
0.0
 10
197.1644991922765
 20
191.3866642675297
 30
0.0
 10
197.1458704458031
 20
191.4458814895271
 30
0.0
 10
197.125958309215
 20
191.4974675149337
 30
0.0
 10
197.1019334077226
 20
191.5407323770654
 30
0.0
 10
197.0761476595727
 20
191.5778193295039
 30
0.0
 10
197.0473598688612
 20
191.6091531427641
 30
0.0
 10
197.0168882347258
 20
191.6363618401004
 30
0.0
 10
196.9840035090142
 20
191.6590178522006
 30
0.0
 10
196.9479084556625
 20
191.6750848763294
 30
0.0
 10
196.9100475090763
 20
191.6871495894781
 30
0.0
 10
196.8698210351629
 20
191.6956296409548
 30
0.0
 10
196.8420339888163
 20
191.6961148228539
 30
0.0
 10
196.8277840909091
 20
191.6963636363637
 30
0.0
  0
LINE
  5
1DA
330
1F
100
AcDbEntity
  8
0
  6
Continuous
 62
     7
370
    25
100
AcDbLine
 10
197.5309090909
 20
191.0145454545
 30
0.0
 11
197.2127272727
 21
190.9690909091
 31
0.0
  0
SPLINE
  5
1DB
330
1F
100
AcDbEntity
  8
0
  6
Continuous
 62
     7
370
    25
100
AcDbSpline
210
0.0
220
0.0
230
1.0
 70
     8
 71
     3
 72
    15
 73
    11
 74
     0
 42
0.000000001
 43
0.00000001
 40
0.0
 40
0.0
 40
0.0
 40
0.0
 40
0.0991998587249313
 40
0.204329054948701
 40
0.3160441565315407
 40
0.4349229997989102
 40
0.5626713396712538
 40
0.6990277588033684
 40
0.8444221531856683
 40
0.9999999999999999
 40
0.9999999999999999
 40
0.9999999999999999
 40
0.9999999999999999
 10
197.3412784090909
 20
191.8582954545455
 30
0.0
 10
197.3568073941287
 20
191.833773739326
 30
0.0
 10
197.3887935569908
 20
191.7832646059369
 30
0.0
 10
197.4261759431045
 20
191.6985205456304
 30
0.0
 10
197.4591545092539
 20
191.6060512913254
 30
0.0
 10
197.4850501934907
 20
191.5044440735915
 30
0.0
 10
197.5054723585697
 20
191.3943390508121
 30
0.0
 10
197.5200658376475
 20
191.2755103538035
 30
0.0
 10
197.5296302528369
 20
191.1479882597456
 30
0.0
 10
197.5304733032947
 20
191.0600185468766
 30
0.0
 10
197.5309090909091
 20
191.0145454545455
 30
0.0
  0
CIRCLE
  5
1DC
330
1F
100
AcDbEntity
  8
0
  6
Continuous
 62
     7
370
    25
100
AcDbCircle
 10
177.94
 20
217.06
 30
0.0
 40
12.0
  0
LINE
  5
1DD
330
1F
100
AcDbEntity
  8
0
  6
Continuous
 62
     7
370
    25
100
AcDbLine
 10
204.94
 20
246.56
 30
0.0
 11
161.94
 21
246.56
 31
0.0
  0
LINE
  5
1DE
330
1F
100
AcDbEntity
  8
0
  6
Continuous
 62
     7
370
    25
100
AcDbLine
 10
204.94
 20
246.56
 30
0.0
 11
204.94
 21
187.56
 31
0.0
  0
LINE
  5
1DF
330
1F
100
AcDbEntity
  8
0
  6
Continuous
 62
     7
370
    25
100
AcDbLine
 10
161.94
 20
187.56
 30
0.0
 11
204.94
 21
187.56
 31
0.0
  0
LINE
  5
1E0
330
1F
100
AcDbEntity
  8
0
  6
Continuous
 62
     7
370
    25
100
AcDbLine
 10
161.94
 20
246.56
 30
0.0
 11
161.94
 21
187.56
 31
0.0
  0
LINE
  5
1E1
330
1F
100
AcDbEntity
  8
0
  6
Continuous
 62
     7
370
    25
100
AcDbLine
 10
195.1949715909
 20
191.0145454545
 30
0.0
 11
195.4698295455
 21
192.06
 31
0.0
  0
LINE
  5
1E2
330
1F
100
AcDbEntity
  8
0
  6
Continuous
 62
     7
370
    25
100
AcDbLine
 10
194.0941193182
 20
191.0145454545
 30
0.0
 11
195.1949715909
 21
191.0145454545
 31
0.0
  0
LINE
  5
1E3
330
1F
100
AcDbEntity
  8
0
  6
Continuous
 62
     7
370
    25
100
AcDbLine
 10
193.8185511364
 20
192.06
 30
0.0
 11
194.0941193182
 21
191.0145454545
 31
0.0
  0
LINE
  5
1E4
330
1F
100
AcDbEntity
  8
0
  6
Continuous
 62
     7
370
    25
100
AcDbLine
 10
193.4854545455
 20
192.06
 30
0.0
 11
193.8185511364
 21
192.06
 31
0.0
  0
LINE
  5
1E5
330
1F
100
AcDbEntity
  8
0
  6
Continuous
 62
     7
370
    25
100
AcDbLine
 10
194.5010795455
 20
188.56
 30
0.0
 11
193.4854545455
 21
192.06
 31
0.0
  0
LINE
  5
1E6
330
1F
100
AcDbEntity
  8
0
  6
Continuous
 62
     7
370
    25
100
AcDbLine
 10
194.8355965909
 20
188.56
 30
0.0
 11
194.5010795455
 21
188.56
 31
0.0
  0
LINE
  5
1E7
330
1F
100
AcDbEntity
  8
0
  6
Continuous
 62
     7
370
    25
100
AcDbLine
 10
195.8036363636
 20
192.06
 30
0.0
 11
194.8355965909
 21
188.56
 31
0.0
  0
LINE
  5
1E8
330
1F
100
AcDbEntity
  8
0
  6
Continuous
 62
     7
370
    25
100
AcDbLine
 10
195.4698295455
 20
192.06
 30
0.0
 11
195.8036363636
 21
192.06
 31
0.0
  0
SPLINE
  5
1E9
330
1F
100
AcDbEntity
  8
0
  6
Continuous
 62
     7
370
    25
100
AcDbSpline
210
0.0
220
0.0
230
1.0
 70
     8
 71
     3
 72
    19
 73
    15
 74
     0
 42
0.000000001
 43
0.00000001
 40
0.0
 40
0.0
 40
0.0
 40
0.0
 40
0.0886619328966461
 40
0.1748887269201074
 40
0.2591738099539836
 40
0.3430068706248758
 40
0.4254833967761644
 40
0.5048291987789572
 40
0.5819745958328189
 40
0.6598298721495325
 40
0.7392218021747288
 40
0.8211192259217948
 40
0.9077844165653723
 40
1.0
 40
1.0
 40
1.0
 40
1.0
 10
187.5763636363637
 20
191.0905397727273
 30
0.0
 10
187.5778456222326
 20
191.1377431687368
 30
0.0
 10
187.5807688905788
 20
191.2308534987815
 30
0.0
 10
187.6045126434828
 20
191.3672515627242
 30
0.0
 10
187.6448645378443
 20
191.4967624680229
 30
0.0
 10
187.6991516304084
 20
191.6189487605306
 30
0.0
 10
187.7676478291587
 20
191.7307536770748
 30
0.0
 10
187.8481794856515
 20
191.8297141209102
 30
0.0
 10
187.9405547672652
 20
191.9141819872931
 30
0.0
 10
188.0442767672412
 20
191.9842375276222
 30
0.0
 10
188.1595121103009
 20
192.0394995030124
 30
0.0
 10
188.2863237055374
 20
192.0773294981189
 30
0.0
 10
188.4234615126667
 20
192.1014030010015
 30
0.0
 10
188.5187291084037
 20
192.1040763803661
 30
0.0
 10
188.5678409090909
 20
192.1054545454546
 30
0.0
  0
SPLINE
  5
1EA
330
1F
100
AcDbEntity
  8
0
  6
Continuous
 62
     7
370
    25
100
AcDbSpline
210
0.0
220
0.0
230
1.0
 70
     8
 71
     3
 72
    15
 73
    11
 74
     0
 42
0.000000001
 43
0.00000001
 40
0.0
 40
0.0
 40
0.0
 40
0.0
 40
0.1284468823105382
 40
0.2509512281717665
 40
0.3695993612597431
 40
0.4873459931406895
 40
0.6075091423425156
 40
0.73143645106075
 40
0.8612952611733194
 40
1.0
 40
1.0
 40
1.0
 40
1.0
 10
188.0593181818182
 20
190.2574431818182
 30
0.0
 10
188.0207662119042
 20
190.2781431754889
 30
0.0
 10
187.9454458613878
 20
190.3185854870604
 30
0.0
 10
187.8458679639598
 20
190.3963684305183
 30
0.0
 10
187.7614639375034
 20
190.4852138572366
 30
0.0
 10
187.6932481317628
 20
190.5861720075245
 30
0.0
 10
187.6406725858605
 20
190.6979439065377
 30
0.0
 10
187.6028723122448
 20
190.8197973526579
 30
0.0
 10
187.5808475160829
 20
190.9519615481128
 30
0.0
 10
187.5778907264516
 20
191.0433437178671
 30
0.0
 10
187.5763636363637
 20
191.0905397727273
 30
0.0
  0
SPLINE
  5
1EB
330
1F
100
AcDbEntity
  8
0
  6
Continuous
 62
     7
370
    25
100
AcDbSpline
210
0.0
220
0.0
230
1.0
 70
     8
 71
     3
 72
    15
 73
    11
 74
     0
 42
0.000000001
 43
0.00000001
 40
0.0
 40
0.0
 40
0.0
 40
0.0
 40
0.1682248166822133
 40
0.3246971115483568
 40
0.468423013081665
 40
0.5993115057484887
 40
0.7178407301013318
 40
0.824871019298163
 40
0.9180531695307871
 40
1.0
 40
1.0
 40
1.0
 40
1.0
 10
188.6111647727273
 20
190.075625
 30
0.0
 10
188.5796215834665
 20
190.0839493270188
 30
0.0
 10
188.5187388751719
 20
190.1000164269381
 30
0.0
 10
188.4318167924291
 20
190.1263944606584
 30
0.0
 10
188.3512682843209
 20
190.1488153837051
 30
0.0
 10
188.2789660082326
 20
190.1730039677612
 30
0.0
 10
188.2131772065414
 20
190.1942704553072
 30
0.0
 10
188.1556370769449
 20
190.216853619556
 30
0.0
 10
188.1043606807145
 20
190.2360345565959
 30
0.0
 10
188.0736761644076
 20
190.2506188564424
 30
0.0
 10
188.0593181818182
 20
190.2574431818182
 30
0.0
  0
SPLINE
  5
1EC
330
1F
100
AcDbEntity
  8
0
  6
Continuous
 62
     7
370
    25
100
AcDbSpline
210
0.0
220
0.0
230
1.0
 70
     8
 71
     3
 72
    15
 73
    11
 74
     0
 42
0.000000001
 43
0.00000001
 40
0.0
 40
0.0
 40
0.0
 40
0.0
 40
0.0771004015863225
 40
0.1663775667591672
 40
0.2676842814794534
 40
0.3844615905691921
 40
0.515114849649479
 40
0.6610947405362045
 40
0.8222347294061976
 40
1.0
 40
1.0
 40
1.0
 40
1.0
 10
189.1125852272727
 20
189.8419602272728
 30
0.0
 10
189.1029098440924
 20
189.8526530208486
 30
0.0
 10
189.0820310071748
 20
189.8757273621024
 30
0.0
 10
189.0424199864426
 20
189.9066452659409
 30
0.0
 10
188.9932123000986
 20
189.9362986238599
 30
0.0
 10
188.9352212054517
 20
189.9661178742221
 30
0.0
 10
188.8671637284001
 20
189.9939603012176
 30
0.0
 10
188.7905262909583
 20
190.0224792273893
 30
0.0
 10
188.7042626200895
 20
190.050195053603
 30
0.0
 10
188.643195947461
 20
190.0668755919354
 30
0.0
 10
188.6111647727273
 20
190.075625
 30
0.0
  0
SPLINE
  5
1ED
330
1F
100
AcDbEntity
  8
0
  6
Continuous
 62
     7
370
    25
100
AcDbSpline
210
0.0
220
0.0
230
1.0
 70
     8
 71
     3
 72
    11
 73
     7
 74
     0
 42
0.000000001
 43
0.00000001
 40
0.0
 40
0.0
 40
0.0
 40
0.0
 40
0.288755805743898
 40
0.5477747969496818
 40
0.7815167905798178
 40
1.0
 40
1.0
 40
1.0
 40
1.0
 10
189.2127272727273
 20
189.4854261363637
 30
0.0
 10
189.2115907341608
 20
189.5217468531902
 30
0.0
 10
189.2094347006884
 20
189.5906478861355
 30
0.0
 10
189.1910460553084
 20
189.6874229874962
 30
0.0
 10
189.1608229530113
 20
189.7724588641657
 30
0.0
 10
189.1282986624087
 20
189.8193201640376
 30
0.0
 10
189.1125852272727
 20
189.8419602272728
 30
0.0
  0
SPLINE
  5
1EE
330
1F
100
AcDbEntity
  8
0
  6
Continuous
 62
     7
370
    25
100
AcDbSpline
210
0.0
220
0.0
230
1.0
 70
     8
 71
     3
 72
    23
 73
    19
 74
     0
 42
0.000000001
 43
0.00000001
 40
0.0
 40
0.0
 40
0.0
 40
0.0
 40
0.0757464277983991
 40
0.1481248213654865
 40
0.2159176359181017
 40
0.280525517464342
 40
0.3425893393403913
 40
0.4028312233486517
 40
0.4615987758002671
 40
0.5206046968589748
 40
0.5790979244191332
 40
0.6372401393001621
 40
0.6944391982372701
 40
0.7519797775595644
 40
0.8114743177404232
 40
0.8717792746522178
 40
0.9349545526564582
 40
1.0
 40
1.0
 40
1.0
 40
1.0
 10
188.6154261363637
 20
188.9236363636364
 30
0.0
 10
188.6388911114065
 20
188.9238933903221
 30
0.0
 10
188.6847777008813
 20
188.9243960151061
 30
0.0
 10
188.7512059054146
 20
188.9327075288416
 30
0.0
 10
188.8135679333683
 20
188.9444011410571
 30
0.0
 10
188.8713990319706
 20
188.9615023979955
 30
0.0
 10
188.9250706885821
 20
188.9834571763606
 30
0.0
 10
188.9741410136274
 20
189.0107325367563
 30
0.0
 10
189.0197577691315
 20
189.0419251337277
 30
0.0
 10
189.0597482451511
 20
189.0792501229093
 30
0.0
 10
189.0963581861251
 20
189.1195704879115
 30
0.0
 10
189.1273081038226
 20
189.163732365099
 30
0.0
 10
189.1540404592779
 20
189.2101971270594
 30
0.0
 10
189.1753636067678
 20
189.2598535051787
 30
0.0
 10
189.1923686456215
 20
189.3121329383176
 30
0.0
 10
189.2045232184879
 20
189.3675390250533
 30
0.0
 10
189.2116808285436
 20
189.4255753347976
 30
0.0
 10
189.2123750826409
 20
189.4652828173983
 30
0.0
 10
189.2127272727273
 20
189.4854261363637
 30
0.0
  0
SPLINE
  5
1EF
330
1F
100
AcDbEntity
  8
0
  6
Continuous
 62
     7
370
    25
100
AcDbSpline
210
0.0
220
0.0
230
1.0
 70
     8
 71
     3
 72
    23
 73
    19
 74
     0
 42
0.000000001
 43
0.00000001
 40
0.0
 40
0.0
 40
0.0
 40
0.0
 40
0.0804477882082772
 40
0.1567184202519671
 40
0.227638236642099
 40
0.2952096785152857
 40
0.3581859219298938
 40
0.4185551117576317
 40
0.4763070988559078
 40
0.5321475233053552
 40
0.5868560422685106
 40
0.6411170575345234
 40
0.6958003438793939
 40
0.7519979995854877
 40
0.8096981858086503
 40
0.8699567778300636
 40
0.9334749109575675
 40
1.0
 40
1.0
 40
1.0
 40
1.0
 10
187.9854545454546
 20
189.6054545454546
 30
0.0
 10
187.9879303972388
 20
189.577474123995
 30
0.0
 10
187.9927535451345
 20
189.5229661313355
 30
0.0
 10
188.0057962875601
 20
189.4445327413687
 30
0.0
 10
188.0216795568011
 20
189.3712064762338
 30
0.0
 10
188.0430667550159
 20
189.3041172755215
 30
0.0
 10
188.0679674772594
 20
189.2422372783209
 30
0.0
 10
188.0969598320792
 20
189.1859387497248
 30
0.0
 10
188.1304585838486
 20
189.1351575421209
 30
0.0
 10
188.1682248364731
 20
189.0899525682686
 30
0.0
 10
188.2106100827508
 20
189.0508927687341
 30
0.0
 10
188.2561633441388
 20
189.0162217499841
 30
0.0
 10
188.3065036345987
 20
188.9878051080906
 30
0.0
 10
188.3606131687687
 20
188.9644950608488
 30
0.0
 10
188.4185449729596
 20
188.9456708899676
 30
0.0
 10
188.4807701898908
 20
188.9332982543919
 30
0.0
 10
188.546800893144
 20
188.9253143512956
 30
0.0
 10
188.5922011293033
 20
188.9242042490588
 30
0.0
 10
188.6154261363637
 20
188.9236363636364
 30
0.0
  0
LINE
  5
1F0
330
1F
100
AcDbEntity
  8
0
  6
Continuous
 62
     7
370
    25
100
AcDbLine
 10
187.6672727273
 20
189.56
 30
0.0
 11
187.9854545455
 21
189.6054545455
 31
0.0
  0
SPLINE
  5
1F1
330
1F
100
AcDbEntity
  8
0
  6
Continuous
 62
     7
370
    25
100
AcDbSpline
210
0.0
220
0.0
230
1.0
 70
     8
 71
     3
 72
    19
 73
    15
 74
     0
 42
0.000000001
 43
0.00000001
 40
0.0
 40
0.0
 40
0.0
 40
0.0
 40
0.0865775949512844
 40
0.1690725108249565
 40
0.2486833552258018
 40
0.3267938260044198
 40
0.4039221542924452
 40
0.4805132303931604
 40
0.5585181541663308
 40
0.6395967169939386
 40
0.7236708257947458
 40
0.81082320753598
 40
0.9026065276165641
 40
0.9999999999999999
 40
0.9999999999999999
 40
0.9999999999999999
 40
0.9999999999999999
 10
188.6253693181818
 20
188.5145454545455
 30
0.0
 10
188.5793175131542
 20
188.5158719744706
 30
0.0
 10
188.4893855358518
 20
188.5184624605486
 30
0.0
 10
188.3591903320499
 20
188.5437728362606
 30
0.0
 10
188.2371098149246
 20
188.5821791459878
 30
0.0
 10
188.1249914797714
 20
188.6381321682221
 30
0.0
 10
188.023498640056
 20
188.7087006637797
 30
0.0
 10
187.9338112082056
 20
188.7936929925757
 30
0.0
 10
187.8555783461948
 20
188.8920020404251
 30
0.0
 10
187.7903441645666
 20
189.0040266329862
 30
0.0
 10
187.7387902424263
 20
189.1281602651376
 30
0.0
 10
187.7005140906862
 20
189.2628221151051
 30
0.0
 10
187.6753129002597
 20
189.4078400027098
 30
0.0
 10
187.6700052521081
 20
189.5082870614583
 30
0.0
 10
187.6672727272727
 20
189.56
 30
0.0
  0
SPLINE
  5
1F2
330
1F
100
AcDbEntity
  8
0
  6
Continuous
 62
     7
370
    25
100
AcDbSpline
210
0.0
220
0.0
230
1.0
 70
     8
 71
     3
 72
    23
 73
    19
 74
     0
 42
0.000000001
 43
0.00000001
 40
0.0
 40
0.0
 40
0.0
 40
0.0
 40
0.0693710964658217
 40
0.1363273747438203
 40
0.2007482635856165
 40
0.2630787212596502
 40
0.3241699842583343
 40
0.3842746986192597
 40
0.4446128818247951
 40
0.5054040324133616
 40
0.5655885696712188
 40
0.6248042707666307
 40
0.6838498558897423
 40
0.7435270449451913
 40
0.804160041876024
 40
0.8664464704951087
 40
0.931566225721727
 40
1.0
 40
1.0
 40
1.0
 40
1.0
 10
189.5309090909091
 20
189.4733522727273
 30
0.0
 10
189.5303804205704
 20
189.4389844829643
 30
0.0
 10
189.5293414829862
 20
189.3714452513127
 30
0.0
 10
189.5166360732
 20
189.272675448997
 30
0.0
 10
189.4976125697065
 20
189.1786168970667
 30
0.0
 10
189.4717107127634
 20
189.0891037165741
 30
0.0
 10
189.4364325263639
 20
189.0051811779033
 30
0.0
 10
189.3943778745756
 20
188.925603233182
 30
0.0
 10
189.3444956702872
 20
188.8508196789521
 30
0.0
 10
189.287284639295
 20
188.7814132348228
 30
0.0
 10
189.2232754084043
 20
188.7190436004306
 30
0.0
 10
189.1541744802816
 20
188.6637067209157
 30
0.0
 10
189.0790262201513
 20
188.6172869515805
 30
0.0
 10
188.9984015458884
 20
188.5796414729681
 30
0.0
 10
188.9126647906796
 20
188.5503509154982
 30
0.0
 10
188.8216704348849
 20
188.5300665874288
 30
0.0
 10
188.725428308457
 20
188.5167785918357
 30
0.0
 10
188.6592695397638
 20
188.5153020467193
 30
0.0
 10
188.6253693181818
 20
188.5145454545455
 30
0.0
  0
SPLINE
  5
1F3
330
1F
100
AcDbEntity
  8
0
  6
Continuous
 62
     7
370
    25
100
AcDbSpline
210
0.0
220
0.0
230
1.0
 70
     8
 71
     3
 72
    23
 73
    19
 74
     0
 42
0.000000001
 43
0.00000001
 40
0.0
 40
0.0
 40
0.0
 40
0.0
 40
0.0671079261495149
 40
0.1293963874838158
 40
0.1869096036358243
 40
0.2403683257358328
 40
0.2894097904625876
 40
0.3341423274745957
 40
0.3747151530239258
 40
0.4113670673199498
 40
0.4803794914761906
 40
0.5490981687733062
 40
0.6192181813141148
 40
0.6907390952448605
 40
0.7641781433278068
 40
0.8396522635915762
 40
0.9181933187023904
 40
1.0
 40
1.0
 40
1.0
 40
1.0
 10
188.6871590909091
 20
190.435
 30
0.0
 10
188.7170387482958
 20
190.4256852067743
 30
0.0
 10
188.7746522068981
 20
190.4077245773415
 30
0.0
 10
188.8570659368103
 20
190.3792852485791
 30
0.0
 10
188.9327263401345
 20
190.3509066031054
 30
0.0
 10
189.0016426582075
 20
190.3221757886235
 30
0.0
 10
189.0632859274077
 20
190.2918888255198
 30
0.0
 10
189.1190627774129
 20
190.2633171529012
 30
0.0
 10
189.1676575542711
 20
190.2335955775336
 30
0.0
 10
189.2223135854339
 20
190.192708516544
 30
0.0
 10
189.2829283404622
 20
190.1381760780545
 30
0.0
 10
189.3466945002596
 20
190.0648847224131
 30
0.0
 10
189.4023548323036
 20
189.9837974213299
 30
0.0
 10
189.4483786537106
 20
189.894434598648
 30
0.0
 10
189.4857021649416
 20
189.7983837711041
 30
0.0
 10
189.5114421182369
 20
189.6952913785605
 30
0.0
 10
189.5286109990138
 20
189.586380006386
 30
0.0
 10
189.5301327298043
 20
189.5115362706605
 30
0.0
 10
189.5309090909091
 20
189.4733522727273
 30
0.0
  0
SPLINE
  5
1F4
330
1F
100
AcDbEntity
  8
0
  6
Continuous
 62
     7
370
    25
100
AcDbSpline
210
0.0
220
0.0
230
1.0
 70
     8
 71
     3
 72
    23
 73
    19
 74
     0
 42
0.000000001
 43
0.00000001
 40
0.0
 40
0.0
 40
0.0
 40
0.0
 40
0.0665937809649165
 40
0.1296300901791006
 40
0.19040163947592
 40
0.2488308065797674
 40
0.3069728175292984
 40
0.3653075481434098
 40
0.4257607325073123
 40
0.4885936730267221
 40
0.524806907018971
 40
0.5683297976887667
 40
0.620078522267212
 40
0.6804534838021157
 40
0.7477414589828887
 40
0.8237470338929961
 40
0.9080929728108434
 40
1.0
 40
1.0
 40
1.0
 40
1.0
 10
187.8945454545455
 20
191.0969318181818
 30
0.0
 10
187.8950402835777
 20
191.0717759673085
 30
0.0
 10
187.8960035076376
 20
191.0228081031927
 30
0.0
 10
187.9089203664953
 20
190.9519048084423
 30
0.0
 10
187.9275090743083
 20
190.8855965168134
 30
0.0
 10
187.9547486918091
 20
190.8241591948812
 30
0.0
 10
187.9908257503838
 20
190.7686726675442
 30
0.0
 10
188.0337858925007
 20
190.7173188503992
 30
0.0
 10
188.0854213816964
 20
190.6719399099896
 30
0.0
 10
188.1353507920735
 20
190.6380168610199
 30
0.0
 10
188.1830623633882
 20
190.6130897019528
 30
0.0
 10
188.2282709320272
 20
190.59265687126
 30
0.0
 10
188.2823250786098
 20
190.5696884560913
 30
0.0
 10
188.3458295208847
 20
190.5462345541387
 30
0.0
 10
188.4181089011492
 20
190.5201634371156
 30
0.0
 10
188.4998095936756
 20
190.4936777551938
 30
0.0
 10
188.5903600024414
 20
190.4644042729835
 30
0.0
 10
188.6539829398123
 20
190.4450777870829
 30
0.0
 10
188.6871590909091
 20
190.435
 30
0.0
  0
SPLINE
  5
1F5
330
1F
100
AcDbEntity
  8
0
  6
Continuous
 62
     7
370
    25
100
AcDbSpline
210
0.0
220
0.0
230
1.0
 70
     8
 71
     3
 72
    23
 73
    19
 74
     0
 42
0.000000001
 43
0.00000001
 40
0.0
 40
0.0
 40
0.0
 40
0.0
 40
0.0750222036375236
 40
0.1454315668675447
 40
0.2130639118137917
 40
0.2778946462649219
 40
0.3403423292469203
 40
0.4004015265856909
 40
0.4604140232373342
 40
0.5201242094585488
 40
0.5792466953593348
 40
0.636937812123235
 40
0.6942432680149926
 40
0.7520932165419404
 40
0.8117008665921023
 40
0.8716411178864532
 40
0.9342518499265965
 40
1.0
 40
1.0
 40
1.0
 40
1.0
 10
188.5394318181818
 20
191.6963636363637
 30
0.0
 10
188.5145494924425
 20
191.6958138246436
 30
0.0
 10
188.4663147640004
 20
191.6947480071115
 30
0.0
 10
188.3960511954047
 20
191.6866269939695
 30
0.0
 10
188.3298280190079
 20
191.6743135376463
 30
0.0
 10
188.2678465707193
 20
191.6556120127601
 30
0.0
 10
188.2101228543888
 20
191.6324001263132
 30
0.0
 10
188.1567475624318
 20
191.6035844683468
 30
0.0
 10
188.1077374185041
 20
191.5694351832432
 30
0.0
 10
188.0629591577243
 20
191.5303804408914
 30
0.0
 10
188.0232779583553
 20
191.4871735477575
 30
0.0
 10
187.9890869261292
 20
191.4405586870257
 30
0.0
 10
187.959354402291
 20
191.3913949175348
 30
0.0
 10
187.9363307506348
 20
191.3381077981573
 30
0.0
 10
187.9166756422064
 20
191.2825563272588
 30
0.0
 10
187.9042796768337
 20
191.2233116268413
 30
0.0
 10
187.8962024426093
 20
191.1613140606969
 30
0.0
 10
187.8951067113874
 20
191.1187394430538
 30
0.0
 10
187.8945454545455
 20
191.0969318181818
 30
0.0
  0
SPLINE
  5
1F6
330
1F
100
AcDbEntity
  8
0
  6
Continuous
 62
     7
370
    25
100
AcDbSpline
210
0.0
220
0.0
230
1.0
 70
     8
 71
     3
 72
    19
 73
    15
 74
     0
 42
0.000000001
 43
0.00000001
 40
0.0
 40
0.0
 40
0.0
 40
0.0
 40
0.1115386988604617
 40
0.2111858982479951
 40
0.3000555850404698
 40
0.3790407121108799
 40
0.453367330377601
 40
0.5273876160435258
 40
0.602209080692007
 40
0.6792044111390662
 40
0.7576572873552987
 40
0.8361101635715313
 40
0.9163904141621705
 40
1.0
 40
1.0
 40
1.0
 40
1.0
 10
189.3036363636364
 20
190.8781818181819
 30
0.0
 10
189.2986687746772
 20
190.9244428370515
 30
0.0
 10
189.2892632073971
 20
191.012032838761
 30
0.0
 10
189.2649859000823
 20
191.1350111303951
 30
0.0
 10
189.2312505337713
 20
191.2416352223334
 30
0.0
 10
189.1885512343262
 20
191.333451763412
 30
0.0
 10
189.1373457849422
 20
191.4136598966276
 30
0.0
 10
189.0753068141681
 20
191.4834384050006
 30
0.0
 10
189.0045713680664
 20
191.5459966382434
 30
0.0
 10
188.9241310225176
 20
191.5989815055749
 30
0.0
 10
188.8364396638932
 20
191.6422877188563
 30
0.0
 10
188.742419050138
 20
191.6739152418349
 30
0.0
 10
188.642688043079
 20
191.6926935851693
 30
0.0
 10
188.5743135569745
 20
191.6951238295894
 30
0.0
 10
188.5394318181818
 20
191.6963636363637
 30
0.0
  0
LINE
  5
1F7
330
1F
100
AcDbEntity
  8
0
  6
Continuous
 62
     7
370
    25
100
AcDbLine
 10
189.6218181818
 20
190.9236363636
 30
0.0
 11
189.3036363636
 21
190.8781818182
 31
0.0
  0
SPLINE
  5
1F8
330
1F
100
AcDbEntity
  8
0
  6
Continuous
 62
     7
370
    25
100
AcDbSpline
210
0.0
220
0.0
230
1.0
 70
     8
 71
     3
 72
    23
 73
    19
 74
     0
 42
0.000000001
 43
0.00000001
 40
0.0
 40
0.0
 40
0.0
 40
0.0
 40
0.0654269295587578
 40
0.1277715422625292
 40
0.1876132577745473
 40
0.2459820182855675
 40
0.3035615681224861
 40
0.360942119255933
 40
0.4184609369781223
 40
0.4773661465012354
 40
0.5371866198896648
 40
0.5974410600249312
 40
0.6585814788279104
 40
0.7215687515434951
 40
0.786776779980817
 40
0.8543149312294026
 40
0.9253587099779004
 40
0.9999999999999999
 40
0.9999999999999999
 40
0.9999999999999999
 40
0.9999999999999999
 10
188.5678409090909
 20
192.1054545454546
 30
0.0
 10
188.6067169561818
 20
192.1045494694562
 30
0.0
 10
188.682637567578
 20
192.1027819563395
 30
0.0
 10
188.7932706888853
 20
192.0875510975487
 30
0.0
 10
188.8977936968668
 20
192.0627917011876
 30
0.0
 10
188.9963678241036
 20
192.0277793246144
 30
0.0
 10
189.0894183248147
 20
191.9831519811435
 30
0.0
 10
189.1755076755923
 20
191.9271651513702
 30
0.0
 10
189.2558073120409
 20
191.8619959173941
 30
0.0
 10
189.3295043698924
 20
191.7873567060587
 30
0.0
 10
189.3961539922408
 20
191.7043213921561
 30
0.0
 10
189.4548377208735
 20
191.6138229936818
 30
0.0
 10
189.503654941357
 20
191.5155878359809
 30
0.0
 10
189.5451315318138
 20
191.4109042392278
 30
0.0
 10
189.5774976141703
 20
191.2990809010255
 30
0.0
 10
189.6019141847586
 20
191.1803944344334
 30
0.0
 10
189.6164934788627
 20
191.0544196138537
 30
0.0
 10
189.6200143000686
 20
190.9679425944614
 30
0.0
 10
189.6218181818182
 20
190.9236363636364
 30
0.0
  0
SPLINE
  5
1F9
330
1F
100
AcDbEntity
  8
0
  6
Continuous
 62
     7
370
    25
100
AcDbSpline
210
0.0
220
0.0
230
1.0
 70
     8
 71
     3
 72
    15
 73
    11
 74
     0
 42
0.000000001
 43
0.00000001
 40
0.0
 40
0.0
 40
0.0
 40
0.0
 40
0.1242932805988096
 40
0.2441976065026622
 40
0.3621020961546607
 40
0.4804622735820425
 40
0.6015356061300517
 40
0.727182686401953
 40
0.8593297437366207
 40
1.0
 40
1.0
 40
1.0
 40
1.0
 10
183.5763636363637
 20
192.1054545454546
 30
0.0
 10
183.6226435945975
 20
192.1038644995826
 30
0.0
 10
183.7135693065533
 20
192.1007405543917
 30
0.0
 10
183.846418280462
 20
192.0746295820489
 30
0.0
 10
183.9717765942704
 20
192.0305552072355
 30
0.0
 10
184.0910089466008
 20
191.9707169823464
 30
0.0
 10
184.202428491865
 20
191.8921695528906
 30
0.0
 10
184.3065797516746
 20
191.7967056398099
 30
0.0
 10
184.4039718644048
 20
191.6843461278791
 30
0.0
 10
184.4605454149378
 20
191.5999600650552
 30
0.0
 10
184.4897159090909
 20
191.5564488636364
 30
0.0
  0
SPLINE
  5
1FA
330
1F
100
AcDbEntity
  8
0
  6
Continuous
 62
     7
370
    25
100
AcDbSpline
210
0.0
220
0.0
230
1.0
 70
     8
 71
     3
 72
    15
 73
    11
 74
     0
 42
0.000000001
 43
0.00000001
 40
0.0
 40
0.0
 40
0.0
 40
0.0
 40
0.1394697222340735
 40
0.2714440392482559
 40
0.3970670061204161
 40
0.5182664351085486
 40
0.6366686768362153
 40
0.754735629397616
 40
0.8750956945676504
 40
1.0
 40
1.0
 40
1.0
 40
1.0
 10
182.6651420454546
 20
191.5706534090909
 30
0.0
 10
182.6942905259415
 20
191.6130250546745
 30
0.0
 10
182.7510209843851
 20
191.6954912017535
 30
0.0
 10
182.8492625949568
 20
191.8044035172859
 30
0.0
 10
182.953112873927
 20
191.8980664031184
 30
0.0
 10
183.064721595346
 20
191.9740216301668
 30
0.0
 10
183.1830891086571
 20
192.0328195745857
 30
0.0
 10
183.3079086151738
 20
192.0752030631339
 30
0.0
 10
183.4399197072402
 20
192.1006052842298
 30
0.0
 10
183.5303239920042
 20
192.1038182816528
 30
0.0
 10
183.5763636363637
 20
192.1054545454546
 30
0.0
  0
SPLINE
  5
1FB
330
1F
100
AcDbEntity
  8
0
  6
Continuous
 62
     7
370
    25
100
AcDbSpline
210
0.0
220
0.0
230
1.0
 70
     8
 71
     3
 72
    15
 73
    11
 74
     0
 42
0.000000001
 43
0.00000001
 40
0.0
 40
0.0
 40
0.0
 40
0.0
 40
0.1432681464111887
 40
0.2804711964080575
 40
0.4115502426899766
 40
0.5374730003684051
 40
0.6585546162302272
 40
0.7751958344968015
 40
0.8890505039341879
 40
1.0
 40
1.0
 40
1.0
 40
1.0
 10
182.3490909090909
 20
190.3135511363637
 30
0.0
 10
182.35001235231
 20
190.3763167667018
 30
0.0
 10
182.3518162304822
 20
190.4991909147609
 30
0.0
 10
182.3668758371895
 20
190.6790033013674
 30
0.0
 10
182.391847757747
 20
190.8499444853248
 30
0.0
 10
182.4251909578753
 20
191.0123281760857
 30
0.0
 10
182.4703362880992
 20
191.1652697348114
 30
0.0
 10
182.5241473955097
 20
191.3096971061644
 30
0.0
 10
182.5884042086738
 20
191.4450925796085
 30
0.0
 10
182.6397840961765
 20
191.529161945702
 30
0.0
 10
182.6651420454546
 20
191.5706534090909
 30
0.0
  0
SPLINE
  5
1FC
330
1F
100
AcDbEntity
  8
0
  6
Continuous
 62
     7
370
    25
100
AcDbSpline
210
0.0
220
0.0
230
1.0
 70
     8
 71
     3
 72
    31
 73
    27
 74
     0
 42
0.000000001
 43
0.00000001
 40
0.0
 40
0.0
 40
0.0
 40
0.0
 40
0.0346106073731405
 40
0.0688507703645529
 40
0.1026440893565841
 40
0.1362986261647414
 40
0.170256723579117
 40
0.2045933114684095
 40
0.2394215822067731
 40
0.2751925605013182
 40
0.3116260095862319
 40
0.3485127347950798
 40
0.3862828791584584
 40
0.4249662291362319
 40
0.4648734148785802
 40
0.5058382372382716
 40
0.5484310226595471
 40
0.5927974506220496
 40
0.6384150381181923
 40
0.6855992891843626
 40
0.7338596464824908
 40
0.7836888862914274
 40
0.834955410680541
 40
0.8882586071008144
 40
0.9431367460011173
 40
1.0
 40
1.0
 40
1.0
 40
1.0
 10
183.5742329545455
 20
188.5145454545455
 30
0.0
 10
183.5462666442633
 20
188.5152676546607
 30
0.0
 10
183.4906333528155
 20
188.5167043250362
 30
0.0
 10
183.408237572338
 20
188.5270143830774
 30
0.0
 10
183.3275587023015
 20
188.5430143142309
 30
0.0
 10
183.2491129906747
 20
188.5669885206745
 30
0.0
 10
183.1721413828468
 20
188.5965425862728
 30
0.0
 10
183.0975046586268
 20
188.6338218367665
 30
0.0
 10
183.0247579184877
 20
188.6774800764337
 30
0.0
 10
182.9538345534041
 20
188.7270557356942
 30
0.0
 10
182.8854946277372
 20
188.7829081234229
 30
0.0
 10
182.8217585466622
 20
188.8461996509395
 30
0.0
 10
182.7601340319527
 20
188.9140394971739
 30
0.0
 10
182.7037418310072
 20
188.9893651945049
 30
0.0
 10
182.649442147327
 20
189.0692977115386
 30
0.0
 10
182.5997304779615
 20
189.1558713357129
 30
0.0
 10
182.5535460379909
 20
189.2483785608075
 30
0.0
 10
182.5112134087911
 20
189.3468180068646
 30
0.0
 10
182.4726209960494
 20
189.4507521442522
 30
0.0
 10
182.4394070303278
 20
189.5598366963239
 30
0.0
 10
182.4117396321067
 20
189.6739546010423
 30
0.0
 10
182.3894147456743
 20
189.7925621662998
 30
0.0
 10
182.3704506501286
 20
189.9158867009098
 30
0.0
 10
182.3579549585023
 20
190.044154203977
 30
0.0
 10
182.3510264705691
 20
190.1773469130557
 30
0.0
 10
182.3497436925461
 20
190.2676151821171
 30
0.0
 10
182.3490909090909
 20
190.3135511363637
 30
0.0
  0
SPLINE
  5
1FD
330
1F
100
AcDbEntity
  8
0
  6
Continuous
 62
     7
370
    25
100
AcDbSpline
210
0.0
220
0.0
230
1.0
 70
     8
 71
     3
 72
    23
 73
    19
 74
     0
 42
0.000000001
 43
0.00000001
 40
0.0
 40
0.0
 40
0.0
 40
0.0
 40
0.0871129335663629
 40
0.1695750657123388
 40
0.2471254948848621
 40
0.320351933203372
 40
0.3899979855710987
 40
0.4559088171547084
 40
0.5190233411238224
 40
0.5798445404000919
 40
0.6380622781156956
 40
0.6933405345429061
 40
0.7460800388808004
 40
0.7971995082749458
 40
0.8473425891371634
 40
0.8973371953428841
 40
0.9479010371482659
 40
1.0
 40
1.0
 40
1.0
 40
1.0
 10
184.8036363636364
 20
190.3561647727273
 30
0.0
 10
184.8025302477176
 20
190.2844023981089
 30
0.0
 10
184.8003770694013
 20
190.1447089118101
 30
0.0
 10
184.7841875744195
 20
189.9416178966735
 30
0.0
 10
184.7565781845189
 20
189.7513633121712
 30
0.0
 10
184.718627402689
 20
189.5736297963775
 30
0.0
 10
184.6690914885798
 20
189.40873520016
 30
0.0
 10
184.6088904478264
 20
189.2563005033924
 30
0.0
 10
184.53692800737
 20
189.1171635455284
 30
0.0
 10
184.4547975574662
 20
188.9912328597094
 30
0.0
 10
184.3635227246627
 20
188.8801154371414
 30
0.0
 10
184.267968022343
 20
188.7817235641932
 30
0.0
 10
184.1656091121661
 20
188.699235204459
 30
0.0
 10
184.0576071670208
 20
188.6322293868671
 30
0.0
 10
183.9447582337573
 20
188.5784866603475
 30
0.0
 10
183.8257437428234
 20
188.5421844581696
 30
0.0
 10
183.7018688287486
 20
188.5180226405197
 30
0.0
 10
183.6172002634338
 20
188.5157160135654
 30
0.0
 10
183.5742329545455
 20
188.5145454545455
 30
0.0
  0
SPLINE
  5
1FE
330
1F
100
AcDbEntity
  8
0
  6
Continuous
 62
     7
370
    25
100
AcDbSpline
210
0.0
220
0.0
230
1.0
 70
     8
 71
     3
 72
    15
 73
    11
 74
     0
 42
0.000000001
 43
0.00000001
 40
0.0
 40
0.0
 40
0.0
 40
0.0
 40
0.1174320155698719
 40
0.2349305867975016
 40
0.3547353147139727
 40
0.4764229971975784
 40
0.6014157797204314
 40
0.7299590806802131
 40
0.862674678805605
 40
0.9999999999999999
 40
0.9999999999999999
 40
0.9999999999999999
 40
0.9999999999999999
 10
184.4897159090909
 20
191.5564488636364
 30
0.0
 10
184.5150941190461
 20
191.5142483554063
 30
0.0
 10
184.5658649222867
 20
191.4298234214259
 30
0.0
 10
184.6288025078188
 20
191.2948554018492
 30
0.0
 10
184.6826002458369
 20
191.1542721110322
 30
0.0
 10
184.7279572505907
 20
191.0073672240925
 30
0.0
 10
184.7616639868945
 20
190.8535924824313
 30
0.0
 10
184.7854374215813
 20
190.693397489214
 30
0.0
 10
184.800953853479
 20
190.526923421807
 30
0.0
 10
184.8027320752287
 20
190.4137284193908
 30
0.0
 10
184.8036363636364
 20
190.3561647727273
 30
0.0
  0
SPLINE
  5
1FF
330
1F
100
AcDbEntity
  8
0
  6
Continuous
 62
     7
370
    25
100
AcDbSpline
210
0.0
220
0.0
230
1.0
 70
     8
 71
     3
 72
    15
 73
    11
 74
     0
 42
0.000000001
 43
0.00000001
 40
0.0
 40
0.0
 40
0.0
 40
0.0
 40
0.1242932805988096
 40
0.2441976065026622
 40
0.3621020961546607
 40
0.4804622735820425
 40
0.6015356061300517
 40
0.727182686401953
 40
0.8593297437366207
 40
1.0
 40
1.0
 40
1.0
 40
1.0
 10
178.3490909090909
 20
192.1054545454546
 30
0.0
 10
178.3953708673248
 20
192.1038644995826
 30
0.0
 10
178.4862965792805
 20
192.1007405543917
 30
0.0
 10
178.6191455531893
 20
192.0746295820489
 30
0.0
 10
178.7445038669976
 20
192.0305552072355
 30
0.0
 10
178.863736219328
 20
191.9707169823464
 30
0.0
 10
178.9751557645923
 20
191.8921695528906
 30
0.0
 10
179.0793070244018
 20
191.7967056398099
 30
0.0
 10
179.1766991371321
 20
191.6843461278791
 30
0.0
 10
179.233272687665
 20
191.5999600650552
 30
0.0
 10
179.2624431818182
 20
191.5564488636364
 30
0.0
  0
SPLINE
  5
200
330
1F
100
AcDbEntity
  8
0
  6
Continuous
 62
     7
370
    25
100
AcDbSpline
210
0.0
220
0.0
230
1.0
 70
     8
 71
     3
 72
    15
 73
    11
 74
     0
 42
0.000000001
 43
0.00000001
 40
0.0
 40
0.0
 40
0.0
 40
0.0
 40
0.1394697222340735
 40
0.2714440392482559
 40
0.3970670061204161
 40
0.5182664351085486
 40
0.6366686768362153
 40
0.754735629397616
 40
0.8750956945676504
 40
1.0
 40
1.0
 40
1.0
 40
1.0
 10
177.4378693181818
 20
191.5706534090909
 30
0.0
 10
177.4670177986687
 20
191.6130250546745
 30
0.0
 10
177.5237482571123
 20
191.6954912017535
 30
0.0
 10
177.6219898676841
 20
191.8044035172859
 30
0.0
 10
177.7258401466541
 20
191.8980664031184
 30
0.0
 10
177.8374488680733
 20
191.9740216301668
 30
0.0
 10
177.9558163813844
 20
192.0328195745857
 30
0.0
 10
178.0806358879011
 20
192.0752030631339
 30
0.0
 10
178.2126469799675
 20
192.1006052842298
 30
0.0
 10
178.3030512647315
 20
192.1038182816528
 30
0.0
 10
178.3490909090909
 20
192.1054545454546
 30
0.0
  0
SPLINE
  5
201
330
1F
100
AcDbEntity
  8
0
  6
Continuous
 62
     7
370
    25
100
AcDbSpline
210
0.0
220
0.0
230
1.0
 70
     8
 71
     3
 72
    15
 73
    11
 74
     0
 42
0.000000001
 43
0.00000001
 40
0.0
 40
0.0
 40
0.0
 40
0.0
 40
0.1432681464111887
 40
0.2804711964080575
 40
0.4115502426899766
 40
0.5374730003684051
 40
0.6585546162302272
 40
0.7751958344968015
 40
0.8890505039341879
 40
1.0
 40
1.0
 40
1.0
 40
1.0
 10
177.1218181818182
 20
190.3135511363637
 30
0.0
 10
177.1227396250373
 20
190.3763167667018
 30
0.0
 10
177.1245435032095
 20
190.4991909147609
 30
0.0
 10
177.1396031099168
 20
190.6790033013674
 30
0.0
 10
177.1645750304742
 20
190.8499444853248
 30
0.0
 10
177.1979182306026
 20
191.0123281760857
 30
0.0
 10
177.2430635608265
 20
191.1652697348114
 30
0.0
 10
177.296874668237
 20
191.3096971061644
 30
0.0
 10
177.361131481401
 20
191.4450925796085
 30
0.0
 10
177.4125113689037
 20
191.529161945702
 30
0.0
 10
177.4378693181818
 20
191.5706534090909
 30
0.0
  0
SPLINE
  5
202
330
1F
100
AcDbEntity
  8
0
  6
Continuous
 62
     7
370
    25
100
AcDbSpline
210
0.0
220
0.0
230
1.0
 70
     8
 71
     3
 72
    31
 73
    27
 74
     0
 42
0.000000001
 43
0.00000001
 40
0.0
 40
0.0
 40
0.0
 40
0.0
 40
0.0346106073731405
 40
0.0688507703645529
 40
0.1026440893565841
 40
0.1362986261647414
 40
0.170256723579117
 40
0.2045933114684095
 40
0.2394215822067731
 40
0.2751925605013182
 40
0.3116260095862319
 40
0.3485127347950798
 40
0.3862828791584584
 40
0.4249662291362319
 40
0.4648734148785802
 40
0.5058382372382716
 40
0.5484310226595471
 40
0.5927974506220496
 40
0.6384150381181923
 40
0.6855992891843626
 40
0.7338596464824908
 40
0.7836888862914274
 40
0.834955410680541
 40
0.8882586071008144
 40
0.9431367460011173
 40
1.0
 40
1.0
 40
1.0
 40
1.0
 10
178.3469602272727
 20
188.5145454545455
 30
0.0
 10
178.3189939169906
 20
188.5152676546607
 30
0.0
 10
178.2633606255428
 20
188.5167043250362
 30
0.0
 10
178.1809648450653
 20
188.5270143830774
 30
0.0
 10
178.1002859750288
 20
188.5430143142309
 30
0.0
 10
178.0218402634019
 20
188.5669885206745
 30
0.0
 10
177.9448686555741
 20
188.5965425862728
 30
0.0
 10
177.870231931354
 20
188.6338218367665
 30
0.0
 10
177.7974851912149
 20
188.6774800764337
 30
0.0
 10
177.7265618261313
 20
188.7270557356942
 30
0.0
 10
177.6582219004644
 20
188.7829081234229
 30
0.0
 10
177.5944858193894
 20
188.8461996509395
 30
0.0
 10
177.53286130468
 20
188.9140394971739
 30
0.0
 10
177.4764691037344
 20
188.9893651945049
 30
0.0
 10
177.4221694200542
 20
189.0692977115386
 30
0.0
 10
177.3724577506887
 20
189.1558713357129
 30
0.0
 10
177.3262733107182
 20
189.2483785608075
 30
0.0
 10
177.2839406815183
 20
189.3468180068646
 30
0.0
 10
177.2453482687767
 20
189.4507521442522
 30
0.0
 10
177.2121343030551
 20
189.5598366963239
 30
0.0
 10
177.184466904834
 20
189.6739546010423
 30
0.0
 10
177.1621420184016
 20
189.7925621662998
 30
0.0
 10
177.1431779228558
 20
189.9158867009098
 30
0.0
 10
177.1306822312295
 20
190.044154203977
 30
0.0
 10
177.1237537432963
 20
190.1773469130557
 30
0.0
 10
177.1224709652734
 20
190.2676151821171
 30
0.0
 10
177.1218181818182
 20
190.3135511363637
 30
0.0
  0
SPLINE
  5
203
330
1F
100
AcDbEntity
  8
0
  6
Continuous
 62
     7
370
    25
100
AcDbSpline
210
0.0
220
0.0
230
1.0
 70
     8
 71
     3
 72
    23
 73
    19
 74
     0
 42
0.000000001
 43
0.00000001
 40
0.0
 40
0.0
 40
0.0
 40
0.0
 40
0.0871129335663629
 40
0.1695750657123388
 40
0.2471254948848621
 40
0.320351933203372
 40
0.3899979855710987
 40
0.4559088171547084
 40
0.5190233411238224
 40
0.5798445404000919
 40
0.6380622781156956
 40
0.6933405345429061
 40
0.7460800388808004
 40
0.7971995082749458
 40
0.8473425891371634
 40
0.8973371953428841
 40
0.9479010371482659
 40
1.0
 40
1.0
 40
1.0
 40
1.0
 10
179.5763636363637
 20
190.3561647727273
 30
0.0
 10
179.5752575204448
 20
190.2844023981089
 30
0.0
 10
179.5731043421286
 20
190.1447089118101
 30
0.0
 10
179.5569148471468
 20
189.9416178966735
 30
0.0
 10
179.5293054572462
 20
189.7513633121712
 30
0.0
 10
179.4913546754163
 20
189.5736297963775
 30
0.0
 10
179.441818761307
 20
189.40873520016
 30
0.0
 10
179.3816177205536
 20
189.2563005033924
 30
0.0
 10
179.3096552800972
 20
189.1171635455284
 30
0.0
 10
179.2275248301934
 20
188.9912328597094
 30
0.0
 10
179.13624999739
 20
188.8801154371414
 30
0.0
 10
179.0406952950702
 20
188.7817235641932
 30
0.0
 10
178.9383363848933
 20
188.699235204459
 30
0.0
 10
178.830334439748
 20
188.6322293868671
 30
0.0
 10
178.7174855064845
 20
188.5784866603475
 30
0.0
 10
178.5984710155507
 20
188.5421844581696
 30
0.0
 10
178.4745961014758
 20
188.5180226405197
 30
0.0
 10
178.389927536161
 20
188.5157160135654
 30
0.0
 10
178.3469602272727
 20
188.5145454545455
 30
0.0
  0
SPLINE
  5
204
330
1F
100
AcDbEntity
  8
0
  6
Continuous
 62
     7
370
    25
100
AcDbSpline
210
0.0
220
0.0
230
1.0
 70
     8
 71
     3
 72
    15
 73
    11
 74
     0
 42
0.000000001
 43
0.00000001
 40
0.0
 40
0.0
 40
0.0
 40
0.0
 40
0.1174320155698719
 40
0.2349305867975016
 40
0.3547353147139727
 40
0.4764229971975784
 40
0.6014157797204314
 40
0.7299590806802131
 40
0.862674678805605
 40
0.9999999999999999
 40
0.9999999999999999
 40
0.9999999999999999
 40
0.9999999999999999
 10
179.2624431818182
 20
191.5564488636364
 30
0.0
 10
179.2878213917733
 20
191.5142483554063
 30
0.0
 10
179.3385921950139
 20
191.4298234214259
 30
0.0
 10
179.4015297805461
 20
191.2948554018492
 30
0.0
 10
179.4553275185642
 20
191.1542721110322
 30
0.0
 10
179.500684523318
 20
191.0073672240925
 30
0.0
 10
179.5343912596217
 20
190.8535924824313
 30
0.0
 10
179.5581646943085
 20
190.693397489214
 30
0.0
 10
179.5736811262062
 20
190.526923421807
 30
0.0
 10
179.575459347956
 20
190.4137284193908
 30
0.0
 10
179.5763636363637
 20
190.3561647727273
 30
0.0
  0
LINE
  5
205
330
1F
100
AcDbEntity
  8
0
  6
Continuous
 62
     7
370
    25
100
AcDbLine
 10
173.7404261364
 20
191.0145454545
 30
0.0
 11
174.0152840909
 21
192.06
 31
0.0
  0
LINE
  5
206
330
1F
100
AcDbEntity
  8
0
  6
Continuous
 62
     7
370
    25
100
AcDbLine
 10
172.6395738636
 20
191.0145454545
 30
0.0
 11
173.7404261364
 21
191.0145454545
 31
0.0
  0
LINE
  5
207
330
1F
100
AcDbEntity
  8
0
  6
Continuous
 62
     7
370
    25
100
AcDbLine
 10
172.3640056818
 20
192.06
 30
0.0
 11
172.6395738636
 21
191.0145454545
 31
0.0
  0
LINE
  5
208
330
1F
100
AcDbEntity
  8
0
  6
Continuous
 62
     7
370
    25
100
AcDbLine
 10
172.0309090909
 20
192.06
 30
0.0
 11
172.3640056818
 21
192.06
 31
0.0
  0
LINE
  5
209
330
1F
100
AcDbEntity
  8
0
  6
Continuous
 62
     7
370
    25
100
AcDbLine
 10
173.0465340909
 20
188.56
 30
0.0
 11
172.0309090909
 21
192.06
 31
0.0
  0
LINE
  5
20A
330
1F
100
AcDbEntity
  8
0
  6
Continuous
 62
     7
370
    25
100
AcDbLine
 10
173.3810511364
 20
188.56
 30
0.0
 11
173.0465340909
 21
188.56
 31
0.0
  0
LINE
  5
20B
330
1F
100
AcDbEntity
  8
0
  6
Continuous
 62
     7
370
    25
100
AcDbLine
 10
174.3490909091
 20
192.06
 30
0.0
 11
173.3810511364
 21
188.56
 31
0.0
  0
LINE
  5
20C
330
1F
100
AcDbEntity
  8
0
  6
Continuous
 62
     7
370
    25
100
AcDbLine
 10
174.0152840909
 20
192.06
 30
0.0
 11
174.3490909091
 21
192.06
 31
0.0
  0
LINE
  5
20D
330
1F
100
AcDbEntity
  8
0
  6
Continuous
 62
     7
370
    25
100
AcDbLine
 10
168.4854545455
 20
191.56
 30
0.0
 11
168.4854545455
 21
192.06
 31
0.0
  0
LINE
  5
20E
330
1F
100
AcDbEntity
  8
0
  6
Continuous
 62
     7
370
    25
100
AcDbLine
 10
168.8036363636
 20
191.56
 30
0.0
 11
168.4854545455
 21
191.56
 31
0.0
  0
LINE
  5
20F
330
1F
100
AcDbEntity
  8
0
  6
Continuous
 62
     7
370
    25
100
AcDbLine
 10
168.8036363636
 20
192.06
 30
0.0
 11
168.8036363636
 21
191.56
 31
0.0
  0
LINE
  5
210
330
1F
100
AcDbEntity
  8
0
  6
Continuous
 62
     7
370
    25
100
AcDbLine
 10
168.4854545455
 20
192.06
 30
0.0
 11
168.8036363636
 21
192.06
 31
0.0
  0
LINE
  5
211
330
1F
100
AcDbEntity
  8
0
  6
Continuous
 62
     7
370
    25
100
AcDbLine
 10
166.3036363636
 20
191.56
 30
0.0
 11
166.3036363636
 21
192.06
 31
0.0
  0
LINE
  5
212
330
1F
100
AcDbEntity
  8
0
  6
Continuous
 62
     7
370
    25
100
AcDbLine
 10
166.6218181818
 20
191.56
 30
0.0
 11
166.3036363636
 21
191.56
 31
0.0
  0
LINE
  5
213
330
1F
100
AcDbEntity
  8
0
  6
Continuous
 62
     7
370
    25
100
AcDbLine
 10
166.6218181818
 20
192.06
 30
0.0
 11
166.6218181818
 21
191.56
 31
0.0
  0
LINE
  5
214
330
1F
100
AcDbEntity
  8
0
  6
Continuous
 62
     7
370
    25
100
AcDbLine
 10
166.3036363636
 20
192.06
 30
0.0
 11
166.6218181818
 21
192.06
 31
0.0
  0
SPLINE
  5
215
330
1F
100
AcDbEntity
  8
0
  6
Continuous
 62
     7
370
    25
100
AcDbSpline
210
0.0
220
0.0
230
1.0
 70
     8
 71
     3
 72
    15
 73
    11
 74
     0
 42
0.000000001
 43
0.00000001
 40
0.0
 40
0.0
 40
0.0
 40
0.0
 40
0.1358591900611207
 40
0.2658381844998451
 40
0.3936804328607577
 40
0.5207812248526659
 40
0.6453735379026104
 40
0.7646193444758987
 40
0.8816097600038513
 40
1.0
 40
1.0
 40
1.0
 40
1.0
 10
177.5749431818182
 20
189.5117045454546
 30
0.0
 10
177.5931132801122
 20
189.4686899443594
 30
0.0
 10
177.6286670467769
 20
189.3845224805538
 30
0.0
 10
177.7024584094391
 20
189.2707260737036
 30
0.0
 10
177.7866844865238
 20
189.1685034120874
 30
0.0
 10
177.8850365023435
 20
189.0824466985064
 30
0.0
 10
177.9913130339519
 20
189.0114571166543
 30
0.0
 10
178.1051368074268
 20
188.9616806540583
 30
0.0
 10
178.223220542462
 20
188.9289604012657
 30
0.0
 10
178.3041328142302
 20
188.9254180650162
 30
0.0
 10
178.3448295454546
 20
188.9236363636364
 30
0.0
  0
SPLINE
  5
216
330
1F
100
AcDbEntity
  8
0
  6
Continuous
 62
     7
370
    25
100
AcDbSpline
210
0.0
220
0.0
230
1.0
 70
     8
 71
     3
 72
    11
 73
     7
 74
     0
 42
0.000000001
 43
0.00000001
 40
0.0
 40
0.0
 40
0.0
 40
0.0
 40
0.266916864786617
 40
0.5215207175380596
 40
0.7647891370300757
 40
1.0
 40
1.0
 40
1.0
 40
1.0
 10
177.44
 20
190.3028977272728
 30
0.0
 10
177.4415154239869
 20
190.2310731122122
 30
0.0
 10
177.4444763646742
 20
190.0907371884658
 30
0.0
 10
177.4710801150912
 20
189.8864796530855
 30
0.0
 10
177.5113128599637
 20
189.6930065065546
 30
0.0
 10
177.5539725364895
 20
189.5714562332163
 30
0.0
 10
177.5749431818182
 20
189.5117045454546
 30
0.0
  0
SPLINE
  5
217
330
1F
100
AcDbEntity
  8
0
  6
Continuous
 62
     7
370
    25
100
AcDbSpline
210
0.0
220
0.0
230
1.0
 70
     8
 71
     3
 72
    23
 73
    19
 74
     0
 42
0.000000001
 43
0.00000001
 40
0.0
 40
0.0
 40
0.0
 40
0.0
 40
0.0509180019820862
 40
0.1006167904141337
 40
0.1499276525903502
 40
0.1991718333808552
 40
0.2495259930923005
 40
0.3014493889625802
 40
0.3560342047157338
 40
0.4136288738645705
 40
0.4738344013366614
 40
0.5365596415325549
 40
0.6027689603453955
 40
0.6729018153132624
 40
0.7471021992056438
 40
0.826223233692779
 40
0.9105471764055557
 40
1.0
 40
1.0
 40
1.0
 40
1.0
 10
178.3512215909091
 20
191.6963636363637
 30
0.0
 10
178.3196675739616
 20
191.6952354743932
 30
0.0
 10
178.2573150898431
 20
191.6930061638917
 30
0.0
 10
178.1655788437169
 20
191.6763173196641
 30
0.0
 10
178.0779022835966
 20
191.6483597432853
 30
0.0
 10
177.9936493921709
 20
191.6100215537274
 30
0.0
 10
177.9148902875552
 20
191.558490343673
 30
0.0
 10
177.8387749174108
 20
191.497836472999
 30
0.0
 10
177.7670040050983
 20
191.4255300367947
 30
0.0
 10
177.6995620988343
 20
191.3425051634211
 30
0.0
 10
177.638489757702
 20
191.2485579018763
 30
0.0
 10
177.5851008736308
 20
191.1440417316917
 30
0.0
 10
177.5396276249145
 20
191.0292143003267
 30
0.0
 10
177.5029851318882
 20
190.9038595146896
 30
0.0
 10
177.4749007631385
 20
190.7681904822
 30
0.0
 10
177.4543813469529
 20
190.6223136189761
 30
0.0
 10
177.4424798840184
 20
190.465974931722
 30
0.0
 10
177.4408427343891
 20
190.3583159513688
 30
0.0
 10
177.44
 20
190.3028977272728
 30
0.0
  0
SPLINE
  5
218
330
1F
100
AcDbEntity
  8
0
  6
Continuous
 62
     7
370
    25
100
AcDbSpline
210
0.0
220
0.0
230
1.0
 70
     8
 71
     3
 72
    23
 73
    19
 74
     0
 42
0.000000001
 43
0.00000001
 40
0.0
 40
0.0
 40
0.0
 40
0.0
 40
0.0857830521953997
 40
0.1670694454186727
 40
0.2438012276375994
 40
0.3163671090895925
 40
0.3854844221054513
 40
0.4517504887817393
 40
0.5153949770372919
 40
0.5768805476262304
 40
0.6363810632650599
 40
0.6922654913508519
 40
0.745710408640008
 40
0.7972333055607409
 40
0.847795589241432
 40
0.8979127368709202
 40
0.948137263504926
 40
1.0
 40
1.0
 40
1.0
 40
1.0
 10
179.2581818181818
 20
190.3618465909091
 30
0.0
 10
179.2573419899271
 20
190.4132432185726
 30
0.0
 10
179.255706356347
 20
190.5133423157763
 30
0.0
 10
179.2436779350035
 20
190.6590244153485
 30
0.0
 10
179.2234419429871
 20
190.795796777171
 30
0.0
 10
179.194158866008
 20
190.9234586625865
 30
0.0
 10
179.1575178920202
 20
191.042667411947
 30
0.0
 10
179.1122024386526
 20
191.1531681978772
 30
0.0
 10
179.0580857167798
 20
191.2544846145887
 30
0.0
 10
178.9961389196704
 20
191.3463725412282
 30
0.0
 10
178.9283299685393
 20
191.4279519059889
 30
0.0
 10
178.8572858895294
 20
191.5002550756694
 30
0.0
 10
178.7812277812977
 20
191.5597428890954
 30
0.0
 10
178.7029404413181
 20
191.6106098939825
 30
0.0
 10
178.6199291649463
 20
191.6491600910581
 30
0.0
 10
178.5334119242902
 20
191.6760017555262
 30
0.0
 10
178.44351191741
 20
191.6931267204405
 30
0.0
 10
178.3823123924424
 20
191.6952731828528
 30
0.0
 10
178.3512215909091
 20
191.6963636363637
 30
0.0
  0
SPLINE
  5
219
330
1F
100
AcDbEntity
  8
0
  6
Continuous
 62
     7
370
    25
100
AcDbSpline
210
0.0
220
0.0
230
1.0
 70
     8
 71
     3
 72
    23
 73
    19
 74
     0
 42
0.000000001
 43
0.00000001
 40
0.0
 40
0.0
 40
0.0
 40
0.0
 40
0.0510700504509139
 40
0.1005660900124698
 40
0.1488296696138369
 40
0.1976155264965224
 40
0.2465699945136573
 40
0.2971331471789168
 40
0.3497617125489744
 40
0.4053241194824198
 40
0.4637501237503584
 40
0.5256608702399913
 40
0.5916042736391877
 40
0.6623011091677773
 40
0.7382031055661143
 40
0.8196269972046535
 40
0.906566137671779
 40
1.0
 40
1.0
 40
1.0
 40
1.0
 10
178.3448295454546
 20
188.9236363636364
 30
0.0
 10
178.3773361506368
 20
188.9247380526895
 30
0.0
 10
178.4413474871029
 20
188.9269074760501
 30
0.0
 10
178.5348241618429
 20
188.9437573506113
 30
0.0
 10
178.6243645709959
 20
188.970620386948
 30
0.0
 10
178.708666187605
 20
189.0102642890073
 30
0.0
 10
178.7893432448352
 20
189.0595829776476
 30
0.0
 10
178.8647377821377
 20
189.1206814068248
 30
0.0
 10
178.9361721501976
 20
189.1922992658561
 30
0.0
 10
179.0030478509582
 20
189.2747960668223
 30
0.0
 10
179.0637176690001
 20
189.3691006253106
 30
0.0
 10
179.1162981871422
 20
189.4755787574357
 30
0.0
 10
179.1599940783824
 20
189.5942952637386
 30
0.0
 10
179.1959603619672
 20
189.7247640878831
 30
0.0
 10
179.2243239398888
 20
189.8671628230384
 30
0.0
 10
179.2435225555388
 20
190.0214580215826
 30
0.0
 10
179.25583881086
 20
190.1876412989536
 30
0.0
 10
179.2573822902977
 20
190.3024007722001
 30
0.0
 10
179.2581818181818
 20
190.3618465909091
 30
0.0
  0
LINE
  5
21A
330
1F
100
AcDbEntity
  8
0
  6
Continuous
 62
     7
370
    25
100
AcDbLine
 10
181.0223863636
 20
188.9690909091
 30
0.0
 11
181.5763636364
 21
188.9690909091
 31
0.0
  0
SPLINE
  5
21B
330
1F
100
AcDbEntity
  8
0
  6
Continuous
 62
     7
370
    25
100
AcDbSpline
210
0.0
220
0.0
230
1.0
 70
     8
 71
     3
 72
    23
 73
    19
 74
     0
 42
0.000000001
 43
0.00000001
 40
0.0
 40
0.0
 40
0.0
 40
0.0
 40
0.0895178427956147
 40
0.1715344284982311
 40
0.2483478135858504
 40
0.3210588788121112
 40
0.3895543666070057
 40
0.453855525687233
 40
0.5165948010499235
 40
0.5781714246136648
 40
0.6118333134916898
 40
0.6507350923846008
 40
0.6954208184408694
 40
0.7448017883141285
 40
0.8004452515257786
 40
0.8608701913016518
 40
0.9276117187282887
 40
1.0
 40
1.0
 40
1.0
 40
1.0
 10
180.3490909090909
 20
189.4975
 30
0.0
 10
180.3497264729321
 20
189.4676024168388
 30
0.0
 10
180.3509443427654
 20
189.410312555054
 30
0.0
 10
180.3652252283665
 20
189.328453287618
 30
0.0
 10
180.3857680455144
 20
189.2538134069683
 30
0.0
 10
180.4162795201401
 20
189.1873491203873
 30
0.0
 10
180.4550499602533
 20
189.130554190208
 30
0.0
 10
180.4986040026695
 20
189.0815929805553
 30
0.0
 10
180.5488314679762
 20
189.0432044458355
 30
0.0
 10
180.5956106061214
 20
189.018072740082
 30
0.0
 10
180.6383508425841
 20
189.0045969821096
 30
0.0
 10
180.6760971593399
 20
188.9942380751511
 30
0.0
 10
180.719931253964
 20
188.9870455978628
 30
0.0
 10
180.7694653500245
 20
188.9807617979919
 30
0.0
 10
180.824360038357
 20
188.974815836614
 30
0.0
 10
180.8852814968181
 20
188.9716401582637
 30
0.0
 10
180.9518201868656
 20
188.9694380721021
 30
0.0
 10
180.9982363523864
 20
188.9692097194192
 30
0.0
 10
181.0223863636364
 20
188.9690909090909
 30
0.0
  0
SPLINE
  5
21C
330
1F
100
AcDbEntity
  8
0
  6
Continuous
 62
     7
370
    25
100
AcDbSpline
210
0.0
220
0.0
230
1.0
 70
     8
 71
     3
 72
    15
 73
    11
 74
     0
 42
0.000000001
 43
0.00000001
 40
0.0
 40
0.0
 40
0.0
 40
0.0
 40
0.1187245559887875
 40
0.2331742428431078
 40
0.3451302772580698
 40
0.4585783656324808
 40
0.5755493760739353
 40
0.7038163917799697
 40
0.844055493014582
 40
1.0
 40
1.0
 40
1.0
 40
1.0
 10
180.6452556818182
 20
189.9811647727273
 30
0.0
 10
180.6226134602397
 20
189.9724859983309
 30
0.0
 10
180.5781442867913
 20
189.9554409428087
 30
0.0
 10
180.5189767798317
 20
189.9166650601054
 30
0.0
 10
180.4665655966447
 20
189.8710143431822
 30
0.0
 10
180.4236992500011
 20
189.8154466815624
 30
0.0
 10
180.3894191580652
 20
189.750509276346
 30
0.0
 10
180.3658169912325
 20
189.6752427526587
 30
0.0
 10
180.3517225185147
 20
189.5896450043219
 30
0.0
 10
180.3499985833106
 20
189.5292819369928
 30
0.0
 10
180.3490909090909
 20
189.4975
 30
0.0
  0
SPLINE
  5
21D
330
1F
100
AcDbEntity
  8
0
  6
Continuous
 62
     7
370
    25
100
AcDbSpline
210
0.0
220
0.0
230
1.0
 70
     8
 71
     3
 72
    11
 73
     7
 74
     0
 42
0.000000001
 43
0.00000001
 40
0.0
 40
0.0
 40
0.0
 40
0.0
 40
0.3229082780190941
 40
0.5957736263814191
 40
0.8213872836918699
 40
1.0
 40
1.0
 40
1.0
 40
1.0
 10
180.9790625
 20
190.0145454545455
 30
0.0
 10
180.9428169944857
 20
190.0142732007146
 30
0.0
 10
180.8759431552868
 20
190.0137708857751
 30
0.0
 10
180.7840815553934
 20
190.0069118322191
 30
0.0
 10
180.7082730031068
 20
189.9990159800556
 30
0.0
 10
180.6645675212681
 20
189.9866353265824
 30
0.0
 10
180.6452556818182
 20
189.9811647727273
 30
0.0
  0
LINE
  5
21E
330
1F
100
AcDbEntity
  8
0
  6
Continuous
 62
     7
370
    25
100
AcDbLine
 10
181.5763636364
 20
190.0145454545
 30
0.0
 11
180.9790625
 21
190.0145454545
 31
0.0
  0
LINE
  5
21F
330
1F
100
AcDbEntity
  8
0
  6
Continuous
 62
     7
370
    25
100
AcDbLine
 10
181.5763636364
 20
188.9690909091
 30
0.0
 11
181.5763636364
 21
190.0145454545
 31
0.0
  0
SPLINE
  5
220
330
1F
100
AcDbEntity
  8
0
  6
Continuous
 62
     7
370
    25
100
AcDbSpline
210
0.0
220
0.0
230
1.0
 70
     8
 71
     3
 72
    23
 73
    19
 74
     0
 42
0.000000001
 43
0.00000001
 40
0.0
 40
0.0
 40
0.0
 40
0.0
 40
0.0939000732089475
 40
0.1817019718777174
 40
0.2636319288039774
 40
0.3405307205795952
 40
0.4123196216204676
 40
0.4793162932096568
 40
0.5420447274823751
 40
0.6019300876275353
 40
0.6582575692032175
 40
0.71129263274894
 40
0.7616435407157208
 40
0.8103808947028349
 40
0.8574842038333343
 40
0.9040030950564574
 40
0.9512626460128842
 40
1.0
 40
1.0
 40
1.0
 40
1.0
 10
164.3945454545455
 20
190.7858522727273
 30
0.0
 10
164.3951085387533
 20
190.7470130799315
 30
0.0
 10
164.3961981386587
 20
190.6718570371728
 30
0.0
 10
164.4040357914405
 20
190.5630318859185
 30
0.0
 10
164.4167356048549
 20
190.4617798505531
 30
0.0
 10
164.4340036731572
 20
190.3678854274063
 30
0.0
 10
164.4574876091411
 20
190.2817141340197
 30
0.0
 10
164.4857602209036
 20
190.203217206661
 30
0.0
 10
164.5190821472721
 20
190.1320471493515
 30
0.0
 10
164.558246921543
 20
190.0690801891126
 30
0.0
 10
164.6007898301778
 20
190.0133332041246
 30
0.0
 10
164.6465767979787
 20
189.965550599702
 30
0.0
 10
164.6943831095363
 20
189.9244684641174
 30
0.0
 10
164.744848589052
 20
189.8908398575518
 30
0.0
 10
164.7979849896593
 20
189.8650553502388
 30
0.0
 10
164.8533141464442
 20
189.8464251893414
 30
0.0
 10
164.9113170096002
 20
189.834489340529
 30
0.0
 10
164.9510683554454
 20
189.8333206258341
 30
0.0
 10
164.97125
 20
189.8327272727273
 30
0.0
  0
SPLINE
  5
221
330
1F
100
AcDbEntity
  8
0
  6
Continuous
 62
     7
370
    25
100
AcDbSpline
210
0.0
220
0.0
230
1.0
 70
     8
 71
     3
 72
    23
 73
    19
 74
     0
 42
0.000000001
 43
0.00000001
 40
0.0
 40
0.0
 40
0.0
 40
0.0
 40
0.0463763493574501
 40
0.0913119611971417
 40
0.1366923441388065
 40
0.1830145260461642
 40
0.2308407070677061
 40
0.2812432292427614
 40
0.3348762673578873
 40
0.3919239229234037
 40
0.4521541540374943
 40
0.5160834673904653
 40
0.5838039861901099
 40
0.6563685107735778
 40
0.7340981345083638
 40
0.8169132812413274
 40
0.9056638115050191
 40
1.0
 40
1.0
 40
1.0
 40
1.0
 10
164.9542045454546
 20
191.7418181818182
 30
0.0
 10
164.9351967293312
 20
191.7412422109847
 30
0.0
 10
164.8977715979368
 20
191.7401081625498
 30
0.0
 10
164.8429380909237
 20
191.7278297069538
 30
0.0
 10
164.7899144596865
 20
191.7096507790473
 30
0.0
 10
164.7393251264439
 20
191.6827705360636
 30
0.0
 10
164.6904393933036
 20
191.6492070388597
 30
0.0
 10
164.6444288891365
 20
191.6072493999473
 30
0.0
 10
164.5993071136448
 20
191.5590714079157
 30
0.0
 10
164.5577324317456
 20
191.5026739837761
 30
0.0
 10
164.5189527793924
 20
191.4393373710577
 30
0.0
 10
164.4859108996529
 20
191.3679444602639
 30
0.0
 10
164.4574645330811
 20
191.2892903119012
 30
0.0
 10
164.4340105142525
 20
191.2031058832097
 30
0.0
 10
164.4167336328697
 20
191.1092153557288
 30
0.0
 10
164.4040361837492
 20
191.0079621665062
 30
0.0
 10
164.3962158294972
 20
190.8993735773607
 30
0.0
 10
164.3951134566902
 20
190.8244545903878
 30
0.0
 10
164.3945454545455
 20
190.7858522727273
 30
0.0
  0
SPLINE
  5
222
330
1F
100
AcDbEntity
  8
0
  6
Continuous
 62
     7
370
    25
100
AcDbSpline
210
0.0
220
0.0
230
1.0
 70
     8
 71
     3
 72
    23
 73
    19
 74
     0
 42
0.000000001
 43
0.00000001
 40
0.0
 40
0.0
 40
0.0
 40
0.0
 40
0.0942870310003996
 40
0.1824865538417556
 40
0.2648226075690481
 40
0.341570597488589
 40
0.4132187173900846
 40
0.4802813817548032
 40
0.5434033429972457
 40
0.6026860635697675
 40
0.6589030845182591
 40
0.7118588003809554
 40
0.7621109680398429
 40
0.8107527459681944
 40
0.8577636834725472
 40
0.9041913491383227
 40
0.951358222071647
 40
1.0
 40
1.0
 40
1.0
 40
1.0
 10
165.5309090909091
 20
190.7858522727273
 30
0.0
 10
165.5303476090007
 20
190.8249285762959
 30
0.0
 10
165.5292608964653
 20
190.9005582774271
 30
0.0
 10
165.5213972985372
 20
191.0100862109018
 30
0.0
 10
165.508809661536
 20
191.1118370007349
 30
0.0
 10
165.4913597865631
 20
191.2059160301466
 30
0.0
 10
165.4682353917633
 20
191.2923117169659
 30
0.0
 10
165.4385845972699
 20
191.3705950214941
 30
0.0
 10
165.4061073208736
 20
191.4422521026414
 30
0.0
 10
165.3663206129482
 20
191.5049146346202
 30
0.0
 10
165.3236948890615
 20
191.5602593248748
 30
0.0
 10
165.2791280880402
 20
191.6092194480032
 30
0.0
 10
165.2310100778863
 20
191.6500184936652
 30
0.0
 10
165.1806215711389
 20
191.6837204835782
 30
0.0
 10
165.1274654931433
 20
191.7094862311057
 30
0.0
 10
165.0721414947432
 20
191.7281213098403
 30
0.0
 10
165.0141372500451
 20
191.7400558415351
 30
0.0
 10
164.9743860937667
 20
191.7412247369569
 30
0.0
 10
164.9542045454546
 20
191.7418181818182
 30
0.0
  0
SPLINE
  5
223
330
1F
100
AcDbEntity
  8
0
  6
Continuous
 62
     7
370
    25
100
AcDbSpline
210
0.0
220
0.0
230
1.0
 70
     8
 71
     3
 72
    23
 73
    19
 74
     0
 42
0.000000001
 43
0.00000001
 40
0.0
 40
0.0
 40
0.0
 40
0.0
 40
0.0464338675617924
 40
0.091992234095731
 40
0.1379758408203245
 40
0.184355473750918
 40
0.2319139838421257
 40
0.2823790176768955
 40
0.3356865669521327
 40
0.3923418977363426
 40
0.4526468293128257
 40
0.51613163520545
 40
0.5839361442866167
 40
0.6564403988768442
 40
0.7338080119846788
 40
0.8167258700909715
 40
0.9055468111752839
 40
1.0
 40
1.0
 40
1.0
 40
1.0
 10
164.97125
 20
189.8327272727273
 30
0.0
 10
164.9902570077671
 20
189.8333154563351
 30
0.0
 10
165.0279126500768
 20
189.8344807334697
 30
0.0
 10
165.0831968910407
 20
189.8467458888134
 30
0.0
 10
165.1368119862735
 20
189.864687467917
 30
0.0
 10
165.1873216435024
 20
189.891886019702
 30
0.0
 10
165.236628775667
 20
189.9245560161879
 30
0.0
 10
165.2824512521399
 20
189.9663905771781
 30
0.0
 10
165.3265734872654
 20
190.0149577237355
 30
0.0
 10
165.3687268113224
 20
190.0704650334936
 30
0.0
 10
165.4069779255443
 20
190.1336817526168
 30
0.0
 10
165.4403860699689
 20
190.2046241268683
 30
0.0
 10
165.4689288956979
 20
190.2830129420562
 30
0.0
 10
165.4908993360276
 20
190.3693041468273
 30
0.0
 10
165.5097988283671
 20
190.4625966539822
 30
0.0
 10
165.5222424935512
 20
190.5637345513107
 30
0.0
 10
165.5290121074104
 20
190.6723582708048
 30
0.0
 10
165.5302639396096
 20
190.7472537277842
 30
0.0
 10
165.5309090909091
 20
190.7858522727273
 30
0.0
  0
SPLINE
  5
224
330
1F
100
AcDbEntity
  8
0
  6
Continuous
 62
     7
370
    25
100
AcDbSpline
210
0.0
220
0.0
230
1.0
 70
     8
 71
     3
 72
    15
 73
    11
 74
     0
 42
0.000000001
 43
0.00000001
 40
0.0
 40
0.0
 40
0.0
 40
0.0
 40
0.1358591900611207
 40
0.2658381844998451
 40
0.3936804328607577
 40
0.5207812248526659
 40
0.6453735379026104
 40
0.7646193444758987
 40
0.8816097600038513
 40
1.0
 40
1.0
 40
1.0
 40
1.0
 10
182.8022159090909
 20
189.5117045454546
 30
0.0
 10
182.820386007385
 20
189.4686899443594
 30
0.0
 10
182.8559397740496
 20
189.3845224805538
 30
0.0
 10
182.9297311367119
 20
189.2707260737036
 30
0.0
 10
183.0139572137966
 20
189.1685034120874
 30
0.0
 10
183.1123092296163
 20
189.0824466985064
 30
0.0
 10
183.2185857612246
 20
189.0114571166543
 30
0.0
 10
183.3324095346995
 20
188.9616806540583
 30
0.0
 10
183.4504932697347
 20
188.9289604012657
 30
0.0
 10
183.5314055415029
 20
188.9254180650162
 30
0.0
 10
183.5721022727273
 20
188.9236363636364
 30
0.0
  0
SPLINE
  5
225
330
1F
100
AcDbEntity
  8
0
  6
Continuous
 62
     7
370
    25
100
AcDbSpline
210
0.0
220
0.0
230
1.0
 70
     8
 71
     3
 72
    11
 73
     7
 74
     0
 42
0.000000001
 43
0.00000001
 40
0.0
 40
0.0
 40
0.0
 40
0.0
 40
0.266916864786617
 40
0.5215207175380596
 40
0.7647891370300757
 40
1.0
 40
1.0
 40
1.0
 40
1.0
 10
182.6672727272727
 20
190.3028977272728
 30
0.0
 10
182.6687881512597
 20
190.2310731122122
 30
0.0
 10
182.6717490919469
 20
190.0907371884658
 30
0.0
 10
182.698352842364
 20
189.8864796530855
 30
0.0
 10
182.7385855872364
 20
189.6930065065546
 30
0.0
 10
182.7812452637622
 20
189.5714562332163
 30
0.0
 10
182.8022159090909
 20
189.5117045454546
 30
0.0
  0
SPLINE
  5
226
330
1F
100
AcDbEntity
  8
0
  6
Continuous
 62
     7
370
    25
100
AcDbSpline
210
0.0
220
0.0
230
1.0
 70
     8
 71
     3
 72
    23
 73
    19
 74
     0
 42
0.000000001
 43
0.00000001
 40
0.0
 40
0.0
 40
0.0
 40
0.0
 40
0.0509180019820862
 40
0.1006167904141337
 40
0.1499276525903502
 40
0.1991718333808552
 40
0.2495259930923005
 40
0.3014493889625802
 40
0.3560342047157338
 40
0.4136288738645705
 40
0.4738344013366614
 40
0.5365596415325549
 40
0.6027689603453955
 40
0.6729018153132624
 40
0.7471021992056438
 40
0.826223233692779
 40
0.9105471764055557
 40
1.0
 40
1.0
 40
1.0
 40
1.0
 10
183.5784943181818
 20
191.6963636363637
 30
0.0
 10
183.5469403012343
 20
191.6952354743932
 30
0.0
 10
183.4845878171158
 20
191.6930061638917
 30
0.0
 10
183.3928515709896
 20
191.6763173196641
 30
0.0
 10
183.3051750108693
 20
191.6483597432853
 30
0.0
 10
183.2209221194436
 20
191.6100215537274
 30
0.0
 10
183.1421630148279
 20
191.558490343673
 30
0.0
 10
183.0660476446836
 20
191.497836472999
 30
0.0
 10
182.9942767323711
 20
191.4255300367947
 30
0.0
 10
182.926834826107
 20
191.3425051634211
 30
0.0
 10
182.8657624849747
 20
191.2485579018763
 30
0.0
 10
182.8123736009035
 20
191.1440417316917
 30
0.0
 10
182.7669003521873
 20
191.0292143003267
 30
0.0
 10
182.730257859161
 20
190.9038595146896
 30
0.0
 10
182.7021734904112
 20
190.7681904822
 30
0.0
 10
182.6816540742256
 20
190.6223136189761
 30
0.0
 10
182.6697526112912
 20
190.465974931722
 30
0.0
 10
182.6681154616618
 20
190.3583159513688
 30
0.0
 10
182.6672727272727
 20
190.3028977272728
 30
0.0
  0
SPLINE
  5
227
330
1F
100
AcDbEntity
  8
0
  6
Continuous
 62
     7
370
    25
100
AcDbSpline
210
0.0
220
0.0
230
1.0
 70
     8
 71
     3
 72
    23
 73
    19
 74
     0
 42
0.000000001
 43
0.00000001
 40
0.0
 40
0.0
 40
0.0
 40
0.0
 40
0.0510700504509139
 40
0.1005660900124698
 40
0.1488296696138369
 40
0.1976155264965224
 40
0.2465699945136573
 40
0.2971331471789168
 40
0.3497617125489744
 40
0.4053241194824198
 40
0.4637501237503584
 40
0.5256608702399913
 40
0.5916042736391877
 40
0.6623011091677773
 40
0.7382031055661143
 40
0.8196269972046535
 40
0.906566137671779
 40
1.0
 40
1.0
 40
1.0
 40
1.0
 10
183.5721022727273
 20
188.9236363636364
 30
0.0
 10
183.6046088779095
 20
188.9247380526895
 30
0.0
 10
183.6686202143757
 20
188.9269074760501
 30
0.0
 10
183.7620968891156
 20
188.9437573506113
 30
0.0
 10
183.8516372982686
 20
188.970620386948
 30
0.0
 10
183.9359389148777
 20
189.0102642890073
 30
0.0
 10
184.016615972108
 20
189.0595829776476
 30
0.0
 10
184.0920105094105
 20
189.1206814068248
 30
0.0
 10
184.1634448774703
 20
189.1922992658561
 30
0.0
 10
184.2303205782309
 20
189.2747960668223
 30
0.0
 10
184.2909903962728
 20
189.3691006253106
 30
0.0
 10
184.343570914415
 20
189.4755787574357
 30
0.0
 10
184.3872668056551
 20
189.5942952637386
 30
0.0
 10
184.42323308924
 20
189.7247640878831
 30
0.0
 10
184.4515966671616
 20
189.8671628230384
 30
0.0
 10
184.4707952828115
 20
190.0214580215826
 30
0.0
 10
184.4831115381327
 20
190.1876412989536
 30
0.0
 10
184.4846550175704
 20
190.3024007722001
 30
0.0
 10
184.4854545454546
 20
190.3618465909091
 30
0.0
  0
SPLINE
  5
228
330
1F
100
AcDbEntity
  8
0
  6
Continuous
 62
     7
370
    25
100
AcDbSpline
210
0.0
220
0.0
230
1.0
 70
     8
 71
     3
 72
    23
 73
    19
 74
     0
 42
0.000000001
 43
0.00000001
 40
0.0
 40
0.0
 40
0.0
 40
0.0
 40
0.0857830521953997
 40
0.1670694454186727
 40
0.2438012276375994
 40
0.3163671090895925
 40
0.3854844221054513
 40
0.4517504887817393
 40
0.5153949770372919
 40
0.5768805476262304
 40
0.6363810632650599
 40
0.6922654913508519
 40
0.745710408640008
 40
0.7972333055607409
 40
0.847795589241432
 40
0.8979127368709202
 40
0.948137263504926
 40
1.0
 40
1.0
 40
1.0
 40
1.0
 10
184.4854545454546
 20
190.3618465909091
 30
0.0
 10
184.4846147171998
 20
190.4132432185726
 30
0.0
 10
184.4829790836197
 20
190.5133423157763
 30
0.0
 10
184.4709506622763
 20
190.6590244153485
 30
0.0
 10
184.4507146702599
 20
190.795796777171
 30
0.0
 10
184.4214315932807
 20
190.9234586625865
 30
0.0
 10
184.3847906192929
 20
191.042667411947
 30
0.0
 10
184.3394751659253
 20
191.1531681978772
 30
0.0
 10
184.2853584440526
 20
191.2544846145887
 30
0.0
 10
184.2234116469432
 20
191.3463725412282
 30
0.0
 10
184.1556026958121
 20
191.4279519059889
 30
0.0
 10
184.0845586168022
 20
191.5002550756694
 30
0.0
 10
184.0085005085704
 20
191.5597428890954
 30
0.0
 10
183.9302131685909
 20
191.6106098939825
 30
0.0
 10
183.8472018922191
 20
191.6491600910581
 30
0.0
 10
183.760684651563
 20
191.6760017555262
 30
0.0
 10
183.6707846446828
 20
191.6931267204405
 30
0.0
 10
183.6095851197151
 20
191.6952731828528
 30
0.0
 10
183.5784943181818
 20
191.6963636363637
 30
0.0
  0
LINE
  5
229
330
1F
100
AcDbEntity
  8
0
  6
Continuous
 62
     7
370
    25
100
AcDbLine
 10
180.9485227273
 20
190.4236363636
 30
0.0
 11
181.5763636364
 21
190.4236363636
 31
0.0
  0
SPLINE
  5
22A
330
1F
100
AcDbEntity
  8
0
  6
Continuous
 62
     7
370
    25
100
AcDbSpline
210
0.0
220
0.0
230
1.0
 70
     8
 71
     3
 72
    15
 73
    11
 74
     0
 42
0.000000001
 43
0.00000001
 40
0.0
 40
0.0
 40
0.0
 40
0.0
 40
0.1170149010310911
 40
0.2294406109021508
 40
0.3422188405735007
 40
0.4587237923636717
 40
0.579935012105845
 40
0.7099406575914694
 40
0.8485672211185685
 40
1.0
 40
1.0
 40
1.0
 40
1.0
 10
180.5721022727273
 20
191.606875
 30
0.0
 10
180.5474466233913
 20
191.5954431261296
 30
0.0
 10
180.499102291208
 20
191.5730277234632
 30
0.0
 10
180.4357329613828
 20
191.5244772114936
 30
0.0
 10
180.3807434339155
 20
191.4671158619642
 30
0.0
 10
180.3359573777528
 20
191.3988562251179
 30
0.0
 10
180.3010692999552
 20
191.3208376926082
 30
0.0
 10
180.2756321418141
 20
191.2339280918827
 30
0.0
 10
180.2607316827462
 20
191.1374511713895
 30
0.0
 10
180.2590564273948
 20
191.0702343030468
 30
0.0
 10
180.2581818181818
 20
191.0351420454546
 30
0.0
  0
SPLINE
  5
22B
330
1F
100
AcDbEntity
  8
0
  6
Continuous
 62
     7
370
    25
100
AcDbSpline
210
0.0
220
0.0
230
1.0
 70
     8
 71
     3
 72
    11
 73
     7
 74
     0
 42
0.000000001
 43
0.00000001
 40
0.0
 40
0.0
 40
0.0
 40
0.0
 40
0.3124900160920083
 40
0.5812578930334278
 40
0.8104818180009542
 40
1.0
 40
1.0
 40
1.0
 40
1.0
 10
180.9016477272727
 20
191.6509090909091
 30
0.0
 10
180.8668280494715
 20
191.6503698629007
 30
0.0
 10
180.8020605000697
 20
191.6493668531407
 30
0.0
 10
180.7120196761686
 20
191.6420670181024
 30
0.0
 10
180.63625262422
 20
191.6289777525325
 30
0.0
 10
180.5920898639116
 20
191.6137616463143
 30
0.0
 10
180.5721022727273
 20
191.606875
 30
0.0
  0
LINE
  5
22C
330
1F
100
AcDbEntity
  8
0
  6
Continuous
 62
     7
370
    25
100
AcDbLine
 10
181.5763636364
 20
191.6509090909
 30
0.0
 11
180.9016477273
 21
191.6509090909
 31
0.0
  0
LINE
  5
22D
330
1F
100
AcDbEntity
  8
0
  6
Continuous
 62
     7
370
    25
100
AcDbLine
 10
181.5763636364
 20
190.4236363636
 30
0.0
 11
181.5763636364
 21
191.6509090909
 31
0.0
  0
SPLINE
  5
22E
330
1F
100
AcDbEntity
  8
0
  6
Continuous
 62
     7
370
    25
100
AcDbSpline
210
0.0
220
0.0
230
1.0
 70
     8
 71
     3
 72
    19
 73
    15
 74
     0
 42
0.000000001
 43
0.00000001
 40
0.0
 40
0.0
 40
0.0
 40
0.0
 40
0.0915283846851323
 40
0.1766505977910763
 40
0.25666416060453
 40
0.3328120607590833
 40
0.4057346604470967
 40
0.474778231707628
 40
0.542444342237739
 40
0.6100709666077718
 40
0.6844173621205095
 40
0.773797454076039
 40
0.8784999863466296
 40
1.0
 40
1.0
 40
1.0
 40
1.0
 10
180.2581818181818
 20
191.0351420454546
 30
0.0
 10
180.2591327882383
 20
191.0026569005356
 30
0.0
 10
180.2609681689186
 20
190.9399602814593
 30
0.0
 10
180.2751014713717
 20
190.8497004282576
 30
0.0
 10
180.299249310841
 20
190.7673149899122
 30
0.0
 10
180.3326225722395
 20
190.6929007150755
 30
0.0
 10
180.3744569222738
 20
190.6274299836366
 30
0.0
 10
180.423556515686
 20
190.5712544273451
 30
0.0
 10
180.4784833725647
 20
190.5234629989454
 30
0.0
 10
180.542756785886
 20
190.4852412888876
 30
0.0
 10
180.6199066448329
 20
190.4559925604894
 30
0.0
 10
180.7136567567927
 20
190.4376786145624
 30
0.0
 10
180.8251066975517
 20
190.4257125927232
 30
0.0
 10
180.9053966446969
 20
190.4243618741495
 30
0.0
 10
180.9485227272727
 20
190.4236363636364
 30
0.0
  0
LINE
  5
22F
330
1F
100
AcDbEntity
  8
0
  6
Continuous
 62
     7
370
    25
100
AcDbLine
 10
204.94
 20
187.06
 30
0.0
 11
161.94
 21
187.06
 31
0.0
  0
LINE
  5
230
330
1F
100
AcDbEntity
  8
0
  6
Continuous
 62
     7
370
    25
100
AcDbLine
 10
161.94
 20
187.06
 30
0.0
 11
161.94
 21
187.56
 31
0.0
  0
LINE
  5
231
330
1F
100
AcDbEntity
  8
0
  6
Continuous
 62
     7
370
    25
100
AcDbLine
 10
204.94
 20
187.56
 30
0.0
 11
204.94
 21
187.06
 31
0.0
  0
SPLINE
  5
232
330
1F
100
AcDbEntity
  8
0
  6
Continuous
 62
     7
370
    25
100
AcDbSpline
210
0.0
220
0.0
230
1.0
 70
     8
 71
     3
 72
     9
 73
     5
 74
     0
 42
0.000000001
 43
0.00000001
 40
0.0
 40
0.0
 40
0.0
 40
0.0
 40
0.4981500763365856
 40
1.0
 40
1.0
 40
1.0
 40
1.0
 10
173.19
 20
188.9243465909091
 30
0.0
 10
173.2091156322242
 20
189.0355210932191
 30
0.0
 10
173.2474888718004
 20
189.2586958102191
 30
0.0
 10
173.3066279009284
 20
189.4772881082723
 30
0.0
 10
173.3363068181818
 20
189.5869886363637
 30
0.0
  0
LINE
  5
233
330
1F
100
AcDbEntity
  8
0
  6
Continuous
 62
     7
370
    25
100
AcDbLine
 10
173.3363068182
 20
189.5869886364
 30
0.0
 11
173.6331818182
 21
190.6054545455
 31
0.0
  0
LINE
  5
234
330
1F
100
AcDbEntity
  8
0
  6
Continuous
 62
     7
370
    25
100
AcDbLine
 10
172.7475284091
 20
190.6054545455
 30
0.0
 11
173.0110227273
 21
189.6438068182
 31
0.0
  0
SPLINE
  5
235
330
1F
100
AcDbEntity
  8
0
  6
Continuous
 62
     7
370
    25
100
AcDbSpline
210
0.0
220
0.0
230
1.0
 70
     8
 71
     3
 72
    15
 73
    11
 74
     0
 42
0.000000001
 43
0.00000001
 40
0.0
 40
0.0
 40
0.0
 40
0.0
 40
0.1510411693611118
 40
0.2946121881085175
 40
0.4302855204201264
 40
0.559677198219813
 40
0.6809401468628592
 40
0.7940822557068472
 40
0.9011932675821683
 40
1.0
 40
1.0
 40
1.0
 40
1.0
 10
173.0110227272727
 20
189.6438068181818
 30
0.0
 10
173.0211058839416
 20
189.6078595625336
 30
0.0
 10
173.0407735074234
 20
189.5377429202443
 30
0.0
 10
173.0671649728158
 20
189.4347098362369
 30
0.0
 10
173.0932888797654
 20
189.3371409294801
 30
0.0
 10
173.1164213319021
 20
189.2444929393707
 30
0.0
 10
173.1378698593539
 20
189.1571659485133
 30
0.0
 10
173.1569419110738
 20
189.0749360936512
 30
0.0
 10
173.1750389086086
 20
188.9981702329044
 30
0.0
 10
173.1851488749124
 20
188.9482838634232
 30
0.0
 10
173.19
 20
188.9243465909091
 30
0.0
  0
LINE
  5
236
330
1F
100
AcDbEntity
  8
0
  6
Continuous
 62
     7
370
    25
100
AcDbLine
 10
173.6331818182
 20
190.6054545455
 30
0.0
 11
172.7475284091
 21
190.6054545455
 31
0.0
  0
SPLINE
  5
237
330
1F
100
AcDbEntity
  8
0
  6
Continuous
 62
     7
370
    25
100
AcDbSpline
210
0.0
220
0.0
230
1.0
 70
     8
 71
     3
 72
     9
 73
     5
 74
     0
 42
0.000000001
 43
0.00000001
 40
0.0
 40
0.0
 40
0.0
 40
0.0
 40
0.4981500763365856
 40
1.0
 40
1.0
 40
1.0
 40
1.0
 10
194.6445454545455
 20
188.9243465909091
 30
0.0
 10
194.6636610867696
 20
189.0355210932191
 30
0.0
 10
194.7020343263458
 20
189.2586958102191
 30
0.0
 10
194.7611733554738
 20
189.4772881082723
 30
0.0
 10
194.7908522727273
 20
189.5869886363637
 30
0.0
  0
LINE
  5
238
330
1F
100
AcDbEntity
  8
0
  6
Continuous
 62
     7
370
    25
100
AcDbLine
 10
194.7908522727
 20
189.5869886364
 30
0.0
 11
195.0877272727
 21
190.6054545455
 31
0.0
  0
LINE
  5
239
330
1F
100
AcDbEntity
  8
0
  6
Continuous
 62
     7
370
    25
100
AcDbLine
 10
195.0877272727
 20
190.6054545455
 30
0.0
 11
194.2020738636
 21
190.6054545455
 31
0.0
  0
LINE
  5
23A
330
1F
100
AcDbEntity
  8
0
  6
Continuous
 62
     7
370
    25
100
AcDbLine
 10
194.2020738636
 20
190.6054545455
 30
0.0
 11
194.4655681818
 21
189.6438068182
 31
0.0
  0
SPLINE
  5
23B
330
1F
100
AcDbEntity
  8
0
  6
Continuous
 62
     7
370
    25
100
AcDbSpline
210
0.0
220
0.0
230
1.0
 70
     8
 71
     3
 72
    15
 73
    11
 74
     0
 42
0.000000001
 43
0.00000001
 40
0.0
 40
0.0
 40
0.0
 40
0.0
 40
0.1510411693611118
 40
0.2946121881085175
 40
0.4302855204201264
 40
0.559677198219813
 40
0.6809401468628592
 40
0.7940822557068472
 40
0.9011932675821683
 40
1.0
 40
1.0
 40
1.0
 40
1.0
 10
194.4655681818182
 20
189.6438068181818
 30
0.0
 10
194.475651338487
 20
189.6078595625336
 30
0.0
 10
194.4953189619688
 20
189.5377429202443
 30
0.0
 10
194.5217104273613
 20
189.4347098362369
 30
0.0
 10
194.5478343343107
 20
189.3371409294801
 30
0.0
 10
194.5709667864476
 20
189.2444929393707
 30
0.0
 10
194.5924153138993
 20
189.1571659485133
 30
0.0
 10
194.6114873656193
 20
189.0749360936512
 30
0.0
 10
194.629584363154
 20
188.9981702329044
 30
0.0
 10
194.6396943294578
 20
188.9482838634232
 30
0.0
 10
194.6445454545455
 20
188.9243465909091
 30
0.0
  0
LINE
  5
23C
330
1F
100
AcDbEntity
  8
0
  6
Continuous
 62
     7
370
    25
100
AcDbLine
 10
161.94
 20
247.06
 30
0.0
 11
204.94
 21
247.06
 31
0.0
  0
LINE
  5
23D
330
1F
100
AcDbEntity
  8
0
  6
Continuous
 62
     7
370
    25
100
AcDbLine
 10
204.94
 20
247.06
 30
0.0
 11
204.94
 21
246.56
 31
0.0
  0
LINE
  5
23E
330
1F
100
AcDbEntity
  8
0
  6
Continuous
 62
     7
370
    25
100
AcDbLine
 10
161.94
 20
246.56
 30
0.0
 11
161.94
 21
247.06
 31
0.0
  0
CIRCLE
  5
23F
330
1F
100
AcDbEntity
  8
0
  6
Continuous
 62
     7
370
    25
100
AcDbCircle
 10
177.94
 20
217.06
 30
0.0
 40
8.329999999999984
  0
LINE
  5
240
330
1F
100
AcDbEntity
  8
0
  6
Continuous
 62
     7
370
    25
100
AcDbLine
 10
114.94
 20
246.56
 30
0.0
 11
77.94
 21
246.56
 31
0.0
  0
LINE
  5
241
330
1F
100
AcDbEntity
  8
0
  6
Continuous
 62
     7
370
    25
100
AcDbLine
 10
77.94
 20
187.56
 30
0.0
 11
114.94
 21
187.56
 31
0.0
  0
CIRCLE
  5
242
330
1F
100
AcDbEntity
  8
0
  6
Continuous
 62
     7
370
    25
100
AcDbCircle
 10
96.44
 20
217.06
 30
0.0
 40
12.0
  0
LINE
  5
243
330
1F
100
AcDbEntity
  8
0
  6
Continuous
 62
     7
370
    25
100
AcDbLine
 10
114.94
 20
246.56
 30
0.0
 11
114.94
 21
187.56
 31
0.0
  0
LINE
  5
244
330
1F
100
AcDbEntity
  8
0
  6
Continuous
 62
     7
370
    25
100
AcDbLine
 10
77.94
 20
246.56
 30
0.0
 11
77.94
 21
187.56
 31
0.0
  0
LINE
  5
245
330
1F
100
AcDbEntity
  8
0
  6
Continuous
 62
     7
370
    25
100
AcDbLine
 10
77.94
 20
247.06
 30
0.0
 11
114.94
 21
247.06
 31
0.0
  0
LINE
  5
246
330
1F
100
AcDbEntity
  8
0
  6
Continuous
 62
     7
370
    25
100
AcDbLine
 10
114.94
 20
247.06
 30
0.0
 11
114.94
 21
246.56
 31
0.0
  0
LINE
  5
247
330
1F
100
AcDbEntity
  8
0
  6
Continuous
 62
     7
370
    25
100
AcDbLine
 10
77.94
 20
246.56
 30
0.0
 11
77.94
 21
247.06
 31
0.0
  0
LINE
  5
248
330
1F
100
AcDbEntity
  8
0
  6
Continuous
 62
     7
370
    25
100
AcDbLine
 10
214.94
 20
247.06
 30
0.0
 11
214.94
 21
187.06
 31
0.0
  0
LINE
  5
249
330
1F
100
AcDbEntity
  8
0
  6
Continuous
 62
     7
370
    25
100
AcDbLine
 10
114.94
 20
187.06
 30
0.0
 11
77.94
 21
187.06
 31
0.0
  0
LINE
  5
24A
330
1F
100
AcDbEntity
  8
0
  6
Continuous
 62
     7
370
    25
100
AcDbLine
 10
114.94
 20
187.56
 30
0.0
 11
114.94
 21
187.06
 31
0.0
  0
LINE
  5
24B
330
1F
100
AcDbEntity
  8
0
  6
Continuous
 62
     7
370
    25
100
AcDbLine
 10
77.94
 20
187.06
 30
0.0
 11
77.94
 21
187.56
 31
0.0
  0
CIRCLE
  5
24C
330
1F
100
AcDbEntity
  8
0
  6
Continuous
 62
     7
370
    25
100
AcDbCircle
 10
96.44
 20
217.06
 30
0.0
 40
8.329999999999984
  0
CIRCLE
  5
24D
330
1F
100
AcDbEntity
  8
0
  6
Continuous
 62
     7
370
    25
100
AcDbCircle
 10
96.44
 20
217.06
 30
0.0
 40
6.640000000000001
  0
CIRCLE
  5
24E
330
1F
100
AcDbEntity
  8
0
  6
Continuous
 62
     7
370
    25
100
AcDbCircle
 10
96.44
 20
217.06
 30
0.0
 40
3.499999999999986
  0
LINE
  5
24F
330
1F
100
AcDbEntity
  8
0
  6
Continuous
 62
     7
370
    25
100
AcDbLine
 10
93.9651262658
 20
219.5348737342
 30
0.0
 11
96.44
 21
217.06
 31
0.0
  0
LINE
  5
250
330
1F
100
AcDbEntity
  8
0
  6
Continuous
 62
     7
370
    25
100
AcDbLine
 10
96.44
 20
217.06
 30
0.0
 11
98.9148737342
 21
219.5348737342
 31
0.0
  0
LINE
  5
251
330
1F
100
AcDbEntity
  8
0
  6
Continuous
 62
     8
370
    25
100
AcDbLine
 10
66.24
 20
201.71
 30
0.0
 11
66.24
 21
190.71
 31
0.0
  0
LINE
  5
252
330
1F
100
AcDbEntity
  8
0
  6
Continuous
 62
     8
370
    25
100
AcDbLine
 10
66.24
 20
243.41
 30
0.0
 11
66.24
 21
232.41
 31
0.0
  0
DIMENSION
  5
253
330
1F
100
AcDbEntity
  8
0
  6
Continuous
 62
     7
370
    18
100
AcDbDimension
  2
_D
 10
225.94
 20
177.06
 30
0.0
 11
220.44
 21
177.06
 31
0.0
 70
   160
  1
<>
 71
     2
 42
-1.0
  3
SLDDIMSTYLE0
100
AcDbAlignedDimension
 13
214.94
 23
187.06
 33
0.0
 14
225.94
 24
209.56
 34
0.0
100
AcDbRotatedDimension
  0
DIMENSION
  5
260
330
1F
100
AcDbEntity
  8
0
  6
Continuous
 62
     7
370
    18
100
AcDbDimension
  2
_D_1
 10
204.94
 20
264.06
 30
0.0
 11
183.44
 21
264.06
 31
0.0
 70
   160
  1
<>
 71
     2
 42
-1.0
  3
SLDDIMSTYLE1
100
AcDbAlignedDimension
 13
161.94
 23
247.06
 33
0.0
 14
204.94
 24
247.06
 34
0.0
100
AcDbRotatedDimension
  0
DIMENSION
  5
26B
330
1F
100
AcDbEntity
  8
0
  6
Continuous
 62
     7
370
    18
100
AcDbDimension
  2
_D_2
 10
77.94
 20
171.06
 30
0.0
 11
151.94
 21
171.06
 31
0.0
 70
   160
  1
<>
 71
     2
 42
-1.0
  3
SLDDIMSTYLE1
100
AcDbAlignedDimension
 13
225.94
 23
209.56
 33
0.0
 14
77.94
 24
187.06
 34
0.0
100
AcDbRotatedDimension
  0
DIMENSION
  5
275
330
1F
100
AcDbEntity
  8
0
  6
Continuous
 62
     7
370
    18
100
AcDbDimension
  2
_D_3
 10
77.94
 20
177.06
 30
0.0
 11
71.94
 21
177.06
 31
0.0
 70
   160
  1
<>
 71
     2
 42
-1.0
  3
SLDDIMSTYLE0
100
AcDbAlignedDimension
 13
65.94
 23
191.01
 33
0.0
 14
77.94
 24
187.06
 34
0.0
100
AcDbRotatedDimension
  0
DIMENSION
  5
281
330
1F
100
AcDbEntity
  8
0
  6
Continuous
 62
     7
370
    18
100
AcDbDimension
  2
_D_4
 10
204.94
 20
270.06
 30
0.0
 11
209.94
 21
270.06
 31
0.0
 70
   160
  1
<>
 71
     2
 42
-1.0
  3
SLDDIMSTYLE0
100
AcDbAlignedDimension
 13
214.94
 23
247.06
 33
0.0
 14
204.94
 24
247.06
 34
0.0
100
AcDbRotatedDimension
  0
DIMENSION
  5
28D
330
1F
100
AcDbEntity
  8
0
  6
Continuous
 62
     7
370
    18
100
AcDbDimension
  2
_D_5
 10
235.94
 20
226.06
 30
0.0
 11
235.94
 21
217.06
 31
0.0
 70
   160
  1
%%c<>
 71
     2
 42
-1.0
  3
SLDDIMSTYLE0
100
AcDbAlignedDimension
 13
219.44
 23
208.06
 33
0.0
 14
219.44
 24
226.06
 34
0.0
 50
90.0
100
AcDbRotatedDimension
  0
DIMENSION
  5
29A
330
1F
100
AcDbEntity
  8
0
  6
Continuous
 62
     7
370
    18
100
AcDbDimension
  2
_D_6
 10
247.94
 20
202.06
 30
0.0
 11
247.94
 21
217.06
 31
0.0
 70
   160
  1
%%c<> f9
 71
     2
 42
-1.0
  3
SLDDIMSTYLE2
100
AcDbAlignedDimension
 13
222.44
 23
232.06
 33
0.0
 14
222.44
 24
202.06
 34
0.0
 50
90.0
100
AcDbRotatedDimension
  0
DIMENSION
  5
2A7
330
1F
100
AcDbEntity
  8
0
  6
Continuous
 62
     7
370
    18
100
AcDbDimension
  2
_D_7
 10
214.94
 20
264.06
 30
0.0
 11
218.94
 21
264.06
 31
0.0
 70
   160
  1
<>
 71
     2
 42
-1.0
  3
SLDDIMSTYLE0
100
AcDbAlignedDimension
 13
222.94
 23
231.56
 33
0.0
 14
214.94
 24
247.06
 34
0.0
100
AcDbRotatedDimension
  0
INSERT
  5
2BE
330
1F
100
AcDbEntity
  8
0
  6
Continuous
 62
     7
370
     0
100
AcDbBlockReference
  2
SW_CENTERMARKSYMBOL_0
 10
96.44
 20
217.06
 30
0.0
  0
INSERT
  5
2CA
330
1F
100
AcDbEntity
  8
0
  6
Continuous
 62
     7
370
     0
100
AcDbBlockReference
  2
SW_CENTERMARKSYMBOL_1
 10
177.94
 20
217.06
 30
0.0
  0
LINE
  5
2CB
330
1F
100
AcDbEntity
  8
0
  6
CENTERX2
 62
     7
370
    18
100
AcDbLine
 10
221.44
 20
217.06
 30
0.0
 11
139.94
 21
217.06
 31
0.0
  0
LINE
  5
2CC
330
1F
100
AcDbEntity
  8
0
  6
CENTERX2
 62
     7
370
    18
100
AcDbLine
 10
217.94
 20
217.06
 30
0.0
 11
227.44
 21
217.06
 31
0.0
  0
LINE
  5
2CD
330
1F
100
AcDbEntity
  8
0
  6
CENTERX2
 62
     7
370
    18
100
AcDbLine
 10
101.94
 20
217.06
 30
0.0
 11
163.94
 21
217.06
 31
0.0
  0
LINE
  5
2CE
330
1F
100
AcDbEntity
  8
0
  6
CENTERX2
 62
     7
370
    18
100
AcDbLine
 10
81.44
 20
237.91
 30
0.0
 11
178.44
 21
237.91
 31
0.0
  0
LINE
  5
2CF
330
1F
100
AcDbEntity
  8
0
  6
CENTERX2
 62
     7
370
    18
100
AcDbLine
 10
81.44
 20
196.21
 30
0.0
 11
178.44
 21
196.21
 31
0.0
  0
LINE
  5
2D0
330
1F
100
AcDbEntity
  8
0
  6
CENTERX2
 62
     7
370
    18
100
AcDbLine
 10
101.94
 20
217.06
 30
0.0
 11
75.94
 21
217.06
 31
0.0
  0
LINE
  5
2D1
330
1F
100
AcDbEntity
  8
0
  6
Continuous
 62
     7
370
    25
100
AcDbLine
 10
129.64
 20
97.06
 30
0.0
 11
130.8323048454
 21
98.2523048454
 31
0.0
  0
LINE
  5
2D2
330
1F
100
AcDbEntity
  8
0
  6
Continuous
 62
     7
370
    25
100
AcDbLine
 10
130.8323048454
 20
99.7676951546
 30
0.0
 11
129.44
 21
101.16
 31
0.0
  0
LINE
  5
2D3
330
1F
100
AcDbEntity
  8
0
  6
Continuous
 62
     7
370
    25
100
AcDbLine
 10
111.44
 20
101.16
 30
0.0
 11
110.0476951546
 21
99.7676951546
 31
0.0
  0
LINE
  5
2D4
330
1F
100
AcDbEntity
  8
0
  6
Continuous
 62
     7
370
    25
100
AcDbLine
 10
110.0476951546
 20
98.2523048454
 30
0.0
 11
111.24
 21
97.06
 31
0.0
  0
LINE
  5
2D5
330
1F
100
AcDbEntity
  8
0
  6
Continuous
 62
     7
370
    25
100
AcDbLine
 10
124.44
 20
103.56
 30
0.0
 11
123.94
 21
104.06
 31
0.0
  0
LINE
  5
2D6
330
1F
100
AcDbEntity
  8
0
  6
Continuous
 62
     7
370
    25
100
AcDbLine
 10
116.94
 20
104.06
 30
0.0
 11
116.44
 21
103.56
 31
0.0
  0
LINE
  5
2D7
330
1F
100
AcDbEntity
  8
0
  6
Continuous
 62
     7
370
    25
100
AcDbLine
 10
126.7908529611
 20
102.7091470389
 30
0.0
 11
125.94
 21
103.56
 31
0.0
  0
LINE
  5
2D8
330
1F
100
AcDbEntity
  8
0
  6
Continuous
 62
     7
370
    25
100
AcDbLine
 10
114.94
 20
103.56
 30
0.0
 11
114.0891470389
 21
102.7091470389
 31
0.0
  0
SPLINE
  5
2D9
330
1F
100
AcDbEntity
  8
0
  6
Continuous
 62
     7
370
    25
100
AcDbSpline
210
0.0
220
0.0
230
1.0
 70
     8
 71
     3
 72
    10
 73
     6
 74
     0
 42
0.000000001
 43
0.00000001
 40
0.0
 40
0.0
 40
0.0
 40
0.0
 40
0.2546081489793573
 40
0.6255969157411033
 40
1.0
 40
1.0
 40
1.0
 40
1.0
 10
127.332438351513
 20
97.06
 30
0.0
 10
127.1820862093106
 20
97.11929863888346
 30
0.0
 10
126.8126564137052
 20
97.26500114582146
 30
0.0
 10
126.2450764745185
 20
97.67788130685231
 30
0.0
 10
125.8397459878416
 20
98.06024651604206
 30
0.0
 10
125.6361524227279
 20
98.25230484541326
 30
0.0
  0
LINE
  5
2DA
330
1F
100
AcDbEntity
  8
0
  6
Continuous
 62
     7
370
    25
100
AcDbLine
 10
125.6361524227
 20
99.7676951546
 30
0.0
 11
125.6361524227
 21
98.2523048454
 31
0.0
  0
SPLINE
  5
2DB
330
1F
100
AcDbEntity
  8
0
  6
Continuous
 62
     7
370
    25
100
AcDbSpline
210
0.0
220
0.0
230
1.0
 70
     8
 71
     3
 72
    11
 73
     7
 74
     0
 42
0.000000001
 43
0.00000001
 40
0.0
 40
0.0
 40
0.0
 40
0.0
 40
0.43204323099494
 40
0.654345858386789
 40
0.8796486752862621
 40
0.9999999999999999
 40
0.9999999999999999
 40
0.9999999999999999
 40
0.9999999999999999
 10
125.6361524227279
 20
99.76769515458675
 30
0.0
 10
125.9920478919714
 20
100.0950565201465
 30
0.0
 10
126.5310650773161
 20
100.5908577233191
 30
0.0
 10
127.3029463134331
 20
100.9916244989641
 30
0.0
 10
127.8127602757918
 20
101.1416702034864
 30
0.0
 10
128.1253795348532
 20
101.1552661171348
 30
0.0
 10
128.2342286340813
 20
101.16
 30
0.0
  0
SPLINE
  5
2DC
330
1F
100
AcDbEntity
  8
0
  6
Continuous
 62
     7
370
    25
100
AcDbSpline
210
0.0
220
0.0
230
1.0
 70
     8
 71
     3
 72
    11
 73
     7
 74
     0
 42
0.000000001
 43
0.00000001
 40
0.0
 40
0.0
 40
0.0
 40
0.0
 40
0.2495761159525637
 40
0.5043604069352938
 40
0.7510450482250973
 40
1.0
 40
1.0
 40
1.0
 40
1.0
 10
128.2342286340813
 20
101.16
 30
0.0
 10
128.4601465792304
 20
101.1401466478414
 30
0.0
 10
128.9166969438937
 20
101.1000256421293
 30
0.0
 10
129.5812276178041
 20
100.7897513336572
 30
0.0
 10
130.2237806893688
 20
100.3466874965835
 30
0.0
 10
130.6288449853306
 20
99.96128106194912
 30
0.0
 10
130.8323048454346
 20
99.76769515458675
 30
0.0
  0
LINE
  5
2DD
330
1F
100
AcDbEntity
  8
0
  6
Continuous
 62
     7
370
    25
100
AcDbLine
 10
130.8323048454
 20
99.7676951546
 30
0.0
 11
130.8323048454
 21
98.2523048454
 31
0.0
  0
SPLINE
  5
2DE
330
1F
100
AcDbEntity
  8
0
  6
Continuous
 62
     7
370
    25
100
AcDbSpline
210
0.0
220
0.0
230
1.0
 70
     8
 71
     3
 72
     9
 73
     5
 74
     0
 42
0.000000001
 43
0.00000001
 40
0.0
 40
0.0
 40
0.0
 40
0.0
 40
0.6670350840890606
 40
0.9999999999999999
 40
0.9999999999999999
 40
0.9999999999999999
 40
0.9999999999999999
 10
130.8323048454346
 20
98.25230484541326
 30
0.0
 10
130.476942186192
 20
97.92008292006918
 30
0.0
 10
129.9441926086673
 20
97.42202527172559
 30
0.0
 10
129.3733969368971
 20
97.15043127296067
 30
0.0
 10
129.1833420040439
 20
97.06
 30
0.0
  0
SPLINE
  5
2DF
330
1F
100
AcDbEntity
  8
0
  6
Continuous
 62
     7
370
    25
100
AcDbSpline
210
0.0
220
0.0
230
1.0
 70
     8
 71
     3
 72
    10
 73
     6
 74
     0
 42
0.000000001
 43
0.00000001
 40
0.0
 40
0.0
 40
0.0
 40
0.0
 40
0.4455850034371392
 40
0.9805791919813166
 40
1.0
 40
1.0
 40
1.0
 40
1.0
 10
125.6361524227279
 20
98.25230484541326
 30
0.0
 10
125.1595230151165
 20
98.03470237591725
 30
0.0
 10
124.1106257771374
 20
97.55583425408727
 30
0.0
 10
122.9876799564042
 20
97.12976268828044
 30
0.0
 10
122.337190247238
 20
97.06236103736495
 30
0.0
 10
122.314404002569
 20
97.06
 30
0.0
  0
SPLINE
  5
2E0
330
1F
100
AcDbEntity
  8
0
  6
Continuous
 62
     7
370
    25
100
AcDbSpline
210
0.0
220
0.0
230
1.0
 70
     8
 71
     3
 72
    11
 73
     7
 74
     0
 42
0.000000001
 43
0.00000001
 40
0.0
 40
0.0
 40
0.0
 40
0.0
 40
0.0238686907690599
 40
0.3850318311230222
 40
0.7603058549179252
 40
1.0
 40
1.0
 40
1.0
 40
1.0
 10
120.4400000000213
 20
101.16
 30
0.0
 10
120.4831465009096
 20
101.1598010144646
 30
0.0
 10
121.1791535171424
 20
101.1565911289374
 30
0.0
 10
122.5535414455807
 20
100.9787299404887
 30
0.0
 10
124.2403529233569
 20
100.4313139305138
 30
0.0
 10
125.2446937585943
 20
99.95381022314453
 30
0.0
 10
125.6361524227279
 20
99.76769515458675
 30
0.0
  0
LINE
  5
2E1
330
1F
100
AcDbEntity
  8
0
  6
Continuous
 62
     7
370
    25
100
AcDbLine
 10
120.44
 20
101.16
 30
0.0
 11
128.2342286341
 21
101.16
 31
0.0
  0
SPLINE
  5
2E2
330
1F
100
AcDbEntity
  8
0
  6
Continuous
 62
     7
370
    25
100
AcDbSpline
210
0.0
220
0.0
230
1.0
 70
     8
 71
     3
 72
    10
 73
     6
 74
     0
 42
0.000000001
 43
0.00000001
 40
0.0
 40
0.0
 40
0.0
 40
0.0
 40
0.0822773279581731
 40
0.6423022159029701
 40
1.0
 40
1.0
 40
1.0
 40
1.0
 10
118.6629099308968
 20
97.06
 30
0.0
 10
118.5637635333756
 20
97.07084891458601
 30
0.0
 10
117.7897720534992
 20
97.1555415273829
 30
0.0
 10
116.6414940025605
 20
97.60217782175773
 30
0.0
 10
115.6358242206681
 20
98.06997360348917
 30
0.0
 10
115.2438475773147
 20
98.25230484541326
 30
0.0
  0
LINE
  5
2E3
330
1F
100
AcDbEntity
  8
0
  6
Continuous
 62
     7
370
    25
100
AcDbLine
 10
115.2438475773
 20
99.7676951546
 30
0.0
 11
115.2438475773
 21
98.2523048454
 31
0.0
  0
SPLINE
  5
2E4
330
1F
100
AcDbEntity
  8
0
  6
Continuous
 62
     7
370
    25
100
AcDbSpline
210
0.0
220
0.0
230
1.0
 70
     8
 71
     3
 72
    10
 73
     6
 74
     0
 42
0.000000001
 43
0.00000001
 40
0.0
 40
0.0
 40
0.0
 40
0.0
 40
0.2907023744285673
 40
0.6397358466406055
 40
0.9999999999999999
 40
0.9999999999999999
 40
0.9999999999999999
 40
0.9999999999999999
 10
115.2438475773147
 20
99.76769515458675
 30
0.0
 10
115.7196157729329
 20
99.9905065062943
 30
0.0
 10
116.7666177798026
 20
100.4808375846213
 30
0.0
 10
118.5044511900705
 20
101.0335372767064
 30
0.0
 10
119.788042472145
 20
101.1174031282378
 30
0.0
 10
120.4400000000213
 20
101.16
 30
0.0
  0
SPLINE
  5
2E5
330
1F
100
AcDbEntity
  8
0
  6
Continuous
 62
     7
370
    25
100
AcDbSpline
210
0.0
220
0.0
230
1.0
 70
     8
 71
     3
 72
    11
 73
     7
 74
     0
 42
0.000000001
 43
0.00000001
 40
0.0
 40
0.0
 40
0.0
 40
0.0
 40
0.2495761159525633
 40
0.5043604069352937
 40
0.7510450482250973
 40
1.0
 40
1.0
 40
1.0
 40
1.0
 10
112.6457713659614
 20
101.16
 30
0.0
 10
112.8716893111105
 20
101.1401466478414
 30
0.0
 10
113.3282396757738
 20
101.1000256421294
 30
0.0
 10
113.9927703496842
 20
100.7897513336572
 30
0.0
 10
114.6353234212489
 20
100.3466874965835
 30
0.0
 10
115.0403877172107
 20
99.96128106194912
 30
0.0
 10
115.2438475773147
 20
99.76769515458675
 30
0.0
  0
LINE
  5
2E6
330
1F
100
AcDbEntity
  8
0
  6
Continuous
 62
     7
370
    25
100
AcDbLine
 10
112.645771366
 20
101.16
 30
0.0
 11
120.44
 21
101.16
 31
0.0
  0
SPLINE
  5
2E7
330
1F
100
AcDbEntity
  8
0
  6
Continuous
 62
     7
370
    25
100
AcDbSpline
210
0.0
220
0.0
230
1.0
 70
     8
 71
     3
 72
     9
 73
     5
 74
     0
 42
0.000000001
 43
0.00000001
 40
0.0
 40
0.0
 40
0.0
 40
0.0
 40
0.6670350840890631
 40
0.9999999999999999
 40
0.9999999999999999
 40
0.9999999999999999
 40
0.9999999999999999
 10
115.2438475773147
 20
98.25230484541326
 30
0.0
 10
114.8884849180721
 20
97.92008292006918
 30
0.0
 10
114.3557353405474
 20
97.42202527172559
 30
0.0
 10
113.7849396687773
 20
97.15043127296067
 30
0.0
 10
113.594884735924
 20
97.06
 30
0.0
  0
SPLINE
  5
2E8
330
1F
100
AcDbEntity
  8
0
  6
Continuous
 62
     7
370
    25
100
AcDbSpline
210
0.0
220
0.0
230
1.0
 70
     8
 71
     3
 72
    10
 73
     6
 74
     0
 42
0.000000001
 43
0.00000001
 40
0.0
 40
0.0
 40
0.0
 40
0.0
 40
0.2546081489793506
 40
0.6255969157411013
 40
1.0
 40
1.0
 40
1.0
 40
1.0
 10
111.7439810833931
 20
97.06
 30
0.0
 10
111.5936289411907
 20
97.11929863888346
 30
0.0
 10
111.2241991455853
 20
97.26500114582146
 30
0.0
 10
110.6566192063986
 20
97.6778813068523
 30
0.0
 10
110.2512887197217
 20
98.06024651604206
 30
0.0
 10
110.047695154608
 20
98.25230484541326
 30
0.0
  0
LINE
  5
2E9
330
1F
100
AcDbEntity
  8
0
  6
Continuous
 62
     7
370
    25
100
AcDbLine
 10
110.0476951546
 20
99.7676951546
 30
0.0
 11
110.0476951546
 21
98.2523048454
 31
0.0
  0
SPLINE
  5
2EA
330
1F
100
AcDbEntity
  8
0
  6
Continuous
 62
     7
370
    25
100
AcDbSpline
210
0.0
220
0.0
230
1.0
 70
     8
 71
     3
 72
    11
 73
     7
 74
     0
 42
0.000000001
 43
0.00000001
 40
0.0
 40
0.0
 40
0.0
 40
0.0
 40
0.4320432309949408
 40
0.6543458583867894
 40
0.879648675286262
 40
0.9999999999999999
 40
0.9999999999999999
 40
0.9999999999999999
 40
0.9999999999999999
 10
110.047695154608
 20
99.76769515458675
 30
0.0
 10
110.4035906238516
 20
100.0950565201465
 30
0.0
 10
110.9426078091962
 20
100.5908577233191
 30
0.0
 10
111.7144890453133
 20
100.991624498964
 30
0.0
 10
112.2243030076719
 20
101.1416702034864
 30
0.0
 10
112.5369222667333
 20
101.1552661171348
 30
0.0
 10
112.6457713659614
 20
101.16
 30
0.0
  0
SPLINE
  5
2EB
330
1F
100
AcDbEntity
  8
0
  6
Continuous
 62
     7
370
    25
100
AcDbSpline
210
0.0
220
0.0
230
1.0
 70
     8
 71
     3
 72
     9
 73
     5
 74
     0
 42
0.000000001
 43
0.00000001
 40
0.0
 40
0.0
 40
0.0
 40
0.0
 40
0.5039958730825185
 40
0.9999999999999999
 40
0.9999999999999999
 40
0.9999999999999999
 40
0.9999999999999999
 10
125.2031397208357
 20
103.56
 30
0.0
 10
125.4824805440009
 20
103.5108069473882
 30
0.0
 10
126.0367327474102
 20
103.4132008850391
 30
0.0
 10
126.5408224087474
 20
102.9425779546227
 30
0.0
 10
126.7908529611072
 20
102.7091470389141
 30
0.0
  0
LINE
  5
2EC
330
1F
100
AcDbEntity
  8
0
  6
Continuous
 62
     7
370
    25
100
AcDbLine
 10
126.7908529611
 20
102.7091470389
 30
0.0
 11
126.7908529611
 21
101.16
 31
0.0
  0
LINE
  5
2ED
330
1F
100
AcDbEntity
  8
0
  6
Continuous
 62
     7
370
    25
100
AcDbLine
 10
123.6154264806
 20
102.7091470389
 30
0.0
 11
123.6154264806
 21
101.16
 31
0.0
  0
SPLINE
  5
2EE
330
1F
100
AcDbEntity
  8
0
  6
Continuous
 62
     7
370
    25
100
AcDbSpline
210
0.0
220
0.0
230
1.0
 70
     8
 71
     3
 72
    10
 73
     6
 74
     0
 42
0.000000001
 43
0.00000001
 40
0.0
 40
0.0
 40
0.0
 40
0.0
 40
0.4323825626582494
 40
0.8795486111648172
 40
1.0
 40
1.0
 40
1.0
 40
1.0
 10
123.6154264805643
 20
102.7091470389141
 30
0.0
 10
123.8328171395067
 20
102.9078973954998
 30
0.0
 10
124.2750312079408
 20
103.3121935332274
 30
0.0
 10
124.8232870923305
 20
103.5424765019257
 30
0.0
 10
125.1366437906097
 20
103.5569323858312
 30
0.0
 10
125.2031397208357
 20
103.56
 30
0.0
  0
SPLINE
  5
2EF
330
1F
100
AcDbEntity
  8
0
  6
Continuous
 62
     7
370
    25
100
AcDbSpline
210
0.0
220
0.0
230
1.0
 70
     8
 71
     3
 72
    11
 73
     7
 74
     0
 42
0.000000001
 43
0.00000001
 40
0.0
 40
0.0
 40
0.0
 40
0.0
 40
0.0298389189953155
 40
0.3881077964510048
 40
0.7600854083425427
 40
1.0
 40
1.0
 40
1.0
 40
1.0
 10
120.4400000000213
 20
103.56
 30
0.0
 10
120.4729634390319
 20
103.5598106255151
 30
0.0
 10
120.9017111319311
 20
103.557347476161
 30
0.0
 10
121.7409656350702
 20
103.4462330046891
 30
0.0
 10
122.765254234746
 20
103.1133615821462
 30
0.0
 10
123.3759722658975
 20
102.822995587232
 30
0.0
 10
123.6154264805643
 20
102.7091470389141
 30
0.0
  0
LINE
  5
2F0
330
1F
100
AcDbEntity
  8
0
  6
Continuous
 62
     7
370
    25
100
AcDbLine
 10
117.2645735195
 20
102.7091470389
 30
0.0
 11
117.2645735195
 21
101.16
 31
0.0
  0
SPLINE
  5
2F1
330
1F
100
AcDbEntity
  8
0
  6
Continuous
 62
     7
370
    25
100
AcDbSpline
210
0.0
220
0.0
230
1.0
 70
     8
 71
     3
 72
    10
 73
     6
 74
     0
 42
0.000000001
 43
0.00000001
 40
0.0
 40
0.0
 40
0.0
 40
0.0
 40
0.302462785456568
 40
0.6458338241355573
 40
1.0
 40
1.0
 40
1.0
 40
1.0
 10
117.2645735194784
 20
102.7091470389141
 30
0.0
 10
117.5672417039075
 20
102.8505748790539
 30
0.0
 10
118.2135141063088
 20
103.1525587502228
 30
0.0
 10
119.2769261398961
 20
103.4853099775839
 30
0.0
 10
120.0483292827398
 20
103.5348477756603
 30
0.0
 10
120.4400000000213
 20
103.56
 30
0.0
  0
LINE
  5
2F2
330
1F
100
AcDbEntity
  8
0
  6
Continuous
 62
     7
370
    25
100
AcDbLine
 10
120.44
 20
103.56
 30
0.0
 11
125.2031397208
 21
103.56
 31
0.0
  0
SPLINE
  5
2F3
330
1F
100
AcDbEntity
  8
0
  6
Continuous
 62
     7
370
    25
100
AcDbSpline
210
0.0
220
0.0
230
1.0
 70
     8
 71
     3
 72
     9
 73
     5
 74
     0
 42
0.000000001
 43
0.00000001
 40
0.0
 40
0.0
 40
0.0
 40
0.0
 40
0.5039958730825173
 40
0.9999999999999999
 40
0.9999999999999999
 40
0.9999999999999999
 40
0.9999999999999999
 10
115.6768602792069
 20
103.56
 30
0.0
 10
115.9562011023721
 20
103.5108069473882
 30
0.0
 10
116.5104533057813
 20
103.4132008850391
 30
0.0
 10
117.0145429671186
 20
102.9425779546227
 30
0.0
 10
117.2645735194784
 20
102.7091470389141
 30
0.0
  0
LINE
  5
2F4
330
1F
100
AcDbEntity
  8
0
  6
Continuous
 62
     7
370
    25
100
AcDbLine
 10
115.6768602792
 20
103.56
 30
0.0
 11
120.44
 21
103.56
 31
0.0
  0
LINE
  5
2F5
330
1F
100
AcDbEntity
  8
0
  6
Continuous
 62
     7
370
    25
100
AcDbLine
 10
114.0891470389
 20
102.7091470389
 30
0.0
 11
114.0891470389
 21
101.16
 31
0.0
  0
SPLINE
  5
2F6
330
1F
100
AcDbEntity
  8
0
  6
Continuous
 62
     7
370
    25
100
AcDbSpline
210
0.0
220
0.0
230
1.0
 70
     8
 71
     3
 72
    10
 73
     6
 74
     0
 42
0.000000001
 43
0.00000001
 40
0.0
 40
0.0
 40
0.0
 40
0.0
 40
0.4323825626582479
 40
0.8795486111648142
 40
0.9999999999999999
 40
0.9999999999999999
 40
0.9999999999999999
 40
0.9999999999999999
 10
114.0891470389354
 20
102.7091470389141
 30
0.0
 10
114.3065376978779
 20
102.9078973954998
 30
0.0
 10
114.748751766312
 20
103.3121935332274
 30
0.0
 10
115.2970076507017
 20
103.5424765019257
 30
0.0
 10
115.6103643489809
 20
103.5569323858312
 30
0.0
 10
115.6768602792069
 20
103.56
 30
0.0
  0
LINE
  5
2F7
330
1F
100
AcDbEntity
  8
0
  6
Continuous
 62
     7
370
    25
100
AcDbLine
 10
128.2342286341
 20
101.16
 30
0.0
 11
129.44
 21
101.16
 31
0.0
  0
LINE
  5
2F8
330
1F
100
AcDbEntity
  8
0
  6
Continuous
 62
     7
370
    25
100
AcDbLine
 10
111.44
 20
101.16
 30
0.0
 11
112.645771366
 21
101.16
 31
0.0
  0
LINE
  5
2F9
330
1F
100
AcDbEntity
  8
0
  6
Continuous
 62
     7
370
    25
100
AcDbLine
 10
120.94
 20
104.06
 30
0.0
 11
123.94
 21
104.06
 31
0.0
  0
LINE
  5
2FA
330
1F
100
AcDbEntity
  8
0
  6
Continuous
 62
     7
370
    25
100
AcDbLine
 10
120.94
 20
103.56
 30
0.0
 11
120.94
 21
104.06
 31
0.0
  0
LINE
  5
2FB
330
1F
100
AcDbEntity
  8
0
  6
Continuous
 62
     7
370
    25
100
AcDbLine
 10
116.94
 20
104.06
 30
0.0
 11
119.94
 21
104.06
 31
0.0
  0
LINE
  5
2FC
330
1F
100
AcDbEntity
  8
0
  6
Continuous
 62
     7
370
    25
100
AcDbLine
 10
119.94
 20
104.06
 30
0.0
 11
119.94
 21
103.56
 31
0.0
  0
LINE
  5
2FD
330
1F
100
AcDbEntity
  8
0
  6
Continuous
 62
     7
370
    25
100
AcDbLine
 10
125.2031397208
 20
103.56
 30
0.0
 11
125.94
 21
103.56
 31
0.0
  0
LINE
  5
2FE
330
1F
100
AcDbEntity
  8
0
  6
Continuous
 62
     7
370
    25
100
AcDbLine
 10
114.94
 20
103.56
 30
0.0
 11
115.6768602792
 21
103.56
 31
0.0
  0
ARC
  5
2FF
330
1F
100
AcDbEntity
  8
0
  6
Continuous
 62
     7
370
    25
100
AcDbCircle
 10
120.44
 20
67.06
 30
0.0
 40
8.500000000000007
100
AcDbArc
 50
28.0724869359
 51
61.9275130641
  0
LINE
  5
300
330
1F
100
AcDbEntity
  8
0
  6
Continuous
 62
     7
370
    25
100
AcDbLine
 10
127.94
 20
71.06
 30
0.0
 11
127.94
 21
69.8438821814
 31
0.0
  0
ARC
  5
301
330
1F
100
AcDbEntity
  8
0
  6
Continuous
 62
     7
370
    25
100
AcDbCircle
 10
120.44
 20
67.06
 30
0.0
 40
8.000000000000014
100
AcDbArc
 50
20.3641348063
 51
69.6358651937
  0
LINE
  5
302
330
1F
100
AcDbEntity
  8
0
  6
Continuous
 62
     7
370
    25
100
AcDbLine
 10
123.2238821814
 20
74.56
 30
0.0
 11
124.44
 21
74.56
 31
0.0
  0
CIRCLE
  5
303
330
1F
100
AcDbEntity
  8
0
  6
Continuous
 62
     7
370
    25
100
AcDbCircle
 10
120.44
 20
67.06
 30
0.0
 40
4.25
  0
CIRCLE
  5
304
330
1F
100
AcDbEntity
  8
0
  6
Continuous
 62
     7
370
    25
100
AcDbCircle
 10
120.44
 20
67.06
 30
0.0
 40
4.54999999999999
  0
ARC
  5
305
330
1F
100
AcDbEntity
  8
0
  6
Continuous
 62
     7
370
    25
100
AcDbCircle
 10
120.44
 20
67.06
 30
0.0
 40
8.000000000000037
100
AcDbArc
 50
200.3641348063
 51
249.6358651937
  0
LINE
  5
306
330
1F
100
AcDbEntity
  8
0
  6
Continuous
 62
     7
370
    25
100
AcDbLine
 10
112.94
 20
69.8438821814
 30
0.0
 11
112.94
 21
64.2761178186
 31
0.0
  0
ARC
  5
307
330
1F
100
AcDbEntity
  8
0
  6
Continuous
 62
     7
370
    25
100
AcDbCircle
 10
120.44
 20
67.06
 30
0.0
 40
8.000000000000027
100
AcDbArc
 50
110.3641348063
 51
159.6358651937
  0
ARC
  5
308
330
1F
100
AcDbEntity
  8
0
  6
Continuous
 62
     7
370
    25
100
AcDbCircle
 10
120.44
 20
67.06
 30
0.0
 40
8.000000000000023
100
AcDbArc
 50
290.3641348063
 51
339.6358651937
  0
LINE
  5
309
330
1F
100
AcDbEntity
  8
0
  6
Continuous
 62
     7
370
    25
100
AcDbLine
 10
123.2238821814
 20
74.56
 30
0.0
 11
117.6561178186
 21
74.56
 31
0.0
  0
LINE
  5
30A
330
1F
100
AcDbEntity
  8
0
  6
Continuous
 62
     7
370
    25
100
AcDbLine
 10
127.94
 20
64.2761178186
 30
0.0
 11
127.94
 21
69.8438821814
 31
0.0
  0
LINE
  5
30B
330
1F
100
AcDbEntity
  8
0
  6
Continuous
 62
     7
370
    25
100
AcDbLine
 10
117.6561178186
 20
59.56
 30
0.0
 11
123.2238821814
 21
59.56
 31
0.0
  0
ARC
  5
30C
330
1F
100
AcDbEntity
  8
0
  6
Continuous
 62
     7
370
    25
100
AcDbCircle
 10
120.44
 20
67.06
 30
0.0
 40
8.5
100
AcDbArc
 50
298.0724869359
 51
331.9275130641
  0
LINE
  5
30D
330
1F
100
AcDbEntity
  8
0
  6
Continuous
 62
     7
370
    25
100
AcDbLine
 10
127.94
 20
64.2761178186
 30
0.0
 11
127.94
 21
63.06
 31
0.0
  0
LINE
  5
30E
330
1F
100
AcDbEntity
  8
0
  6
Continuous
 62
     7
370
    25
100
AcDbLine
 10
124.44
 20
59.56
 30
0.0
 11
123.2238821814
 21
59.56
 31
0.0
  0
ARC
  5
30F
330
1F
100
AcDbEntity
  8
0
  6
Continuous
 62
     7
370
    25
100
AcDbCircle
 10
120.44
 20
67.06
 30
0.0
 40
8.500000000000012
100
AcDbArc
 50
208.0724869359
 51
241.9275130641
  0
LINE
  5
310
330
1F
100
AcDbEntity
  8
0
  6
Continuous
 62
     7
370
    25
100
AcDbLine
 10
112.94
 20
63.06
 30
0.0
 11
112.94
 21
64.2761178186
 31
0.0
  0
LINE
  5
311
330
1F
100
AcDbEntity
  8
0
  6
Continuous
 62
     7
370
    25
100
AcDbLine
 10
117.6561178186
 20
59.56
 30
0.0
 11
116.44
 21
59.56
 31
0.0
  0
ARC
  5
312
330
1F
100
AcDbEntity
  8
0
  6
Continuous
 62
     7
370
    25
100
AcDbCircle
 10
120.44
 20
67.06
 30
0.0
 40
8.50000000000002
100
AcDbArc
 50
118.0724869359
 51
151.9275130641
  0
LINE
  5
313
330
1F
100
AcDbEntity
  8
0
  6
Continuous
 62
     7
370
    25
100
AcDbLine
 10
112.94
 20
69.8438821814
 30
0.0
 11
112.94
 21
71.06
 31
0.0
  0
LINE
  5
314
330
1F
100
AcDbEntity
  8
0
  6
Continuous
 62
     7
370
    25
100
AcDbLine
 10
116.44
 20
74.56
 30
0.0
 11
117.6561178186
 21
74.56
 31
0.0
  0
ARC
  5
315
330
1F
100
AcDbEntity
  8
0
  6
Continuous
 62
     7
370
    25
100
AcDbCircle
 10
120.44
 20
67.06
 30
0.0
 40
8.500000000000515
100
AcDbArc
 50
331.9275130641
 51
28.0724869359
  0
ARC
  5
316
330
1F
100
AcDbEntity
  8
0
  6
Continuous
 62
     7
370
    25
100
AcDbCircle
 10
120.44
 20
67.06
 30
0.0
 40
8.500000000000007
100
AcDbArc
 50
61.9275130641
 51
118.0724869359
  0
ARC
  5
317
330
1F
100
AcDbEntity
  8
0
  6
Continuous
 62
     7
370
    25
100
AcDbCircle
 10
120.44
 20
67.06
 30
0.0
 40
8.50000000000002
100
AcDbArc
 50
151.9275130641
 51
208.0724869359
  0
ARC
  5
318
330
1F
100
AcDbEntity
  8
0
  6
Continuous
 62
     7
370
    25
100
AcDbCircle
 10
120.44
 20
67.06
 30
0.0
 40
8.500000000000007
100
AcDbArc
 50
241.9275130641
 51
298.0724869359
  0
CIRCLE
  5
319
330
1F
100
AcDbEntity
  8
0
  6
Continuous
 62
     7
370
    25
100
AcDbCircle
 10
120.44
 20
67.06
 30
0.0
 40
14.5
  0
CIRCLE
  5
31A
330
1F
100
AcDbEntity
  8
0
  6
Continuous
 62
     7
370
    25
100
AcDbCircle
 10
120.44
 20
67.06
 30
0.0
 40
15.0
  0
CIRCLE
  5
31B
330
1F
100
AcDbEntity
  8
0
  6
Continuous
 62
     7
370
    25
100
AcDbCircle
 10
120.44
 20
67.06
 30
0.0
 40
10.50000000000001
  0
CIRCLE
  5
31C
330
1F
100
AcDbEntity
  8
0
  6
Continuous
 62
     7
370
    25
100
AcDbCircle
 10
120.44
 20
67.06
 30
0.0
 40
9.000000000000014
  0
CIRCLE
  5
31D
330
1F
100
AcDbEntity
  8
0
  6
Continuous
 62
     7
370
    25
100
AcDbCircle
 10
120.44
 20
67.06
 30
0.0
 40
22.50000000000001
  0
CIRCLE
  5
31E
330
1F
100
AcDbEntity
  8
0
  6
Continuous
 62
     7
370
    25
100
AcDbCircle
 10
120.44
 20
67.06
 30
0.0
 40
30.0
  0
LINE
  5
31F
330
1F
100
AcDbEntity
  8
0
  6
Continuous
 62
     7
370
    25
100
AcDbLine
 10
174.94
 20
96.56
 30
0.0
 11
174.44
 21
97.06
 31
0.0
  0
LINE
  5
320
330
1F
100
AcDbEntity
  8
0
  6
Continuous
 62
     7
370
    25
100
AcDbLine
 10
120.44
 20
37.06
 30
0.0
 11
174.44
 21
37.06
 31
0.0
  0
CIRCLE
  5
321
330
1F
100
AcDbEntity
  8
0
  6
Continuous
 62
     7
370
    25
100
AcDbCircle
 10
163.94
 20
87.56
 30
0.0
 40
6.000000000000057
  0
CIRCLE
  5
322
330
1F
100
AcDbEntity
  8
0
  6
Continuous
 62
     7
370
    25
100
AcDbCircle
 10
163.94
 20
46.56
 30
0.0
 40
6.000000000000057
  0
LINE
  5
323
330
1F
100
AcDbEntity
  8
0
  6
Continuous
 62
     7
370
    25
100
AcDbLine
 10
174.44
 20
37.06
 30
0.0
 11
174.94
 21
37.56
 31
0.0
  0
LINE
  5
324
330
1F
100
AcDbEntity
  8
0
  6
Continuous
 62
     7
370
    25
100
AcDbLine
 10
174.94
 20
96.56
 30
0.0
 11
174.94
 21
37.56
 31
0.0
  0
LINE
  5
325
330
1F
100
AcDbEntity
  8
0
  6
Continuous
 62
     7
370
    25
100
AcDbLine
 10
120.44
 20
97.06
 30
0.0
 11
174.44
 21
97.06
 31
0.0
  0
CIRCLE
  5
326
330
1F
100
AcDbEntity
  8
0
  6
Continuous
 62
     7
370
    25
100
AcDbCircle
 10
163.94
 20
87.56
 30
0.0
 40
5.499999999999972
  0
CIRCLE
  5
327
330
1F
100
AcDbEntity
  8
0
  6
Continuous
 62
     7
370
    25
100
AcDbCircle
 10
163.94
 20
46.56
 30
0.0
 40
5.499999999999972
  0
LINE
  5
328
330
1F
100
AcDbEntity
  8
0
  6
Continuous
 62
     7
370
    25
100
AcDbLine
 10
66.44
 20
97.06
 30
0.0
 11
65.94
 21
96.56
 31
0.0
  0
LINE
  5
329
330
1F
100
AcDbEntity
  8
0
  6
Continuous
 62
     7
370
    25
100
AcDbLine
 10
65.94
 20
37.56
 30
0.0
 11
66.44
 21
37.06
 31
0.0
  0
LINE
  5
32A
330
1F
100
AcDbEntity
  8
0
  6
Continuous
 62
     7
370
    25
100
AcDbLine
 10
65.94
 20
96.56
 30
0.0
 11
65.94
 21
37.56
 31
0.0
  0
CIRCLE
  5
32B
330
1F
100
AcDbEntity
  8
0
  6
Continuous
 62
     7
370
    25
100
AcDbCircle
 10
76.94
 20
87.56
 30
0.0
 40
6.000000000000085
  0
CIRCLE
  5
32C
330
1F
100
AcDbEntity
  8
0
  6
Continuous
 62
     7
370
    25
100
AcDbCircle
 10
76.94
 20
46.56
 30
0.0
 40
6.000000000000085
  0
LINE
  5
32D
330
1F
100
AcDbEntity
  8
0
  6
Continuous
 62
     7
370
    25
100
AcDbLine
 10
66.44
 20
37.06
 30
0.0
 11
120.44
 21
37.06
 31
0.0
  0
LINE
  5
32E
330
1F
100
AcDbEntity
  8
0
  6
Continuous
 62
     7
370
    25
100
AcDbLine
 10
66.44
 20
97.06
 30
0.0
 11
120.44
 21
97.06
 31
0.0
  0
CIRCLE
  5
32F
330
1F
100
AcDbEntity
  8
0
  6
Continuous
 62
     7
370
    25
100
AcDbCircle
 10
76.94
 20
46.56
 30
0.0
 40
5.5
  0
CIRCLE
  5
330
330
1F
100
AcDbEntity
  8
0
  6
Continuous
 62
     7
370
    25
100
AcDbCircle
 10
76.94
 20
87.56
 30
0.0
 40
5.5
  0
DIMENSION
  5
331
330
1F
100
AcDbEntity
  8
0
  6
Continuous
 62
     7
370
    18
100
AcDbDimension
  2
_D_8
 10
116.8207856739
 20
69.8174966294
 30
0.0
 11
172.94001
 21
27.06001
 31
0.0
 70
   163
  1
M14x1.5
 71
     1
 42
-1.0
  3
SLDDIMSTYLE3
100
AcDbDiametricDimension
 15
124.0592143262
 25
64.3025033706
 35
0.0
 40
0.0
  0
DIMENSION
  5
33D
330
1F
100
AcDbEntity
  8
0
  6
Continuous
 62
     7
370
    18
100
AcDbDimension
  2
_D_9
 10
144.302951601
 20
85.2412964579
 30
0.0
 11
67.94001
 21
27.06001
 31
0.0
 70
   163
  1
<>
 71
     1
 42
-1.0
  3
SLDDIMSTYLE4
100
AcDbDiametricDimension
 15
96.577048399
 25
48.8787035421
 35
0.0
 40
0.0
  0
DIMENSION
  5
347
330
1F
100
AcDbEntity
  8
0
  6
Continuous
 62
     7
370
    18
100
AcDbDimension
  2
_D_10
 10
184.94
 20
46.56
 30
0.0
 11
184.94
 21
67.06
 31
0.0
 70
   160
  1
<>
 71
     2
 42
-1.0
  3
SLDDIMSTYLE1
100
AcDbAlignedDimension
 13
172.44
 23
87.56
 33
0.0
 14
171.94
 24
46.56
 34
0.0
 50
90.0
100
AcDbRotatedDimension
  0
DIMENSION
  5
351
330
1F
100
AcDbEntity
  8
0
  6
Continuous
 62
     7
370
    18
100
AcDbDimension
  2
_D_11
 10
190.94
 20
97.06
 30
0.0
 11
190.94
 21
67.06
 31
0.0
 70
   160
  1
<>
 71
     2
 42
-1.0
  3
SLDDIMSTYLE1
100
AcDbAlignedDimension
 13
120.44
 23
37.06
 33
0.0
 14
120.44
 24
97.06
 34
0.0
 50
90.0
100
AcDbRotatedDimension
  0
DIMENSION
  5
35B
330
1F
100
AcDbEntity
  8
0
  6
Continuous
 62
     7
370
    18
100
AcDbDimension
  2
_D_12
 10
163.94
 20
114.06
 30
0.0
 11
120.44
 21
114.06
 31
0.0
 70
   160
  1
<>
 71
     2
 42
-1.0
  3
SLDDIMSTYLE1
100
AcDbAlignedDimension
 13
76.94
 23
96.06
 33
0.0
 14
163.94
 24
96.06
 34
0.0
100
AcDbRotatedDimension
  0
DIMENSION
  5
365
330
1F
100
AcDbEntity
  8
0
  6
Continuous
 62
     7
370
    18
100
AcDbDimension
  2
_D_13
 10
174.94
 20
120.06
 30
0.0
 11
120.44
 21
120.06
 31
0.0
 70
   160
  1
<>
 71
     2
 42
-1.0
  3
SLDDIMSTYLE1
100
AcDbAlignedDimension
 13
65.94
 23
96.56
 33
0.0
 14
174.94
 24
96.56
 34
0.0
100
AcDbRotatedDimension
  0
DIMENSION
  5
36F
330
1F
100
AcDbEntity
  8
0
  6
Continuous
 62
     7
370
    18
100
AcDbDimension
  2
_D_14
 10
81.4480538681
 20
91.5194760161
 30
0.0
 11
55.94001
 21
69.1154663517
 31
0.0
 70
   163
  1
M8x1.25
 71
     1
 42
-1.0
  3
SLDDIMSTYLE3
100
AcDbDiametricDimension
 15
72.4319461319
 25
83.6005239839
 35
0.0
 40
0.0
  0
INSERT
  5
382
330
1F
100
AcDbEntity
  8
0
  6
Continuous
 62
     7
370
     0
100
AcDbBlockReference
  2
SW_CENTERMARKSYMBOL_2
 10
76.94
 20
87.56
 30
0.0
  0
INSERT
  5
38E
330
1F
100
AcDbEntity
  8
0
  6
Continuous
 62
     7
370
     0
100
AcDbBlockReference
  2
SW_CENTERMARKSYMBOL_3
 10
163.94
 20
87.56
 30
0.0
  0
INSERT
  5
39A
330
1F
100
AcDbEntity
  8
0
  6
Continuous
 62
     7
370
     0
100
AcDbBlockReference
  2
SW_CENTERMARKSYMBOL_4
 10
163.94
 20
46.56
 30
0.0
  0
INSERT
  5
3A6
330
1F
100
AcDbEntity
  8
0
  6
Continuous
 62
     7
370
     0
100
AcDbBlockReference
  2
SW_CENTERMARKSYMBOL_5
 10
76.94
 20
46.56
 30
0.0
  0
ENDSEC
  0
SECTION
  2
OBJECTS
  0
DICTIONARY
  5
C
330
0
100
AcDbDictionary
281
     1
  3
ACAD_GROUP
350
D
  3
ACAD_LAYOUT
350
1A
  3
ACAD_MLINESTYLE
350
17
  3
ACAD_PLOTSETTINGS
350
19
  3
ACAD_PLOTSTYLENAME
350
E
  3
ACAD_SCALELIST
350
47
  0
DICTIONARY
  5
D
102
{ACAD_REACTORS
330
C
102
}
330
C
100
AcDbDictionary
281
     1
  0
DICTIONARY
  5
1A
102
{ACAD_REACTORS
330
C
102
}
330
C
100
AcDbDictionary
281
     1
  3
Layout1
350
1E
  3
Layout2
350
26
  3
Model
350
22
  0
DICTIONARY
  5
17
102
{ACAD_REACTORS
330
C
102
}
330
C
100
AcDbDictionary
281
     1
  3
Standard
350
18
  0
DICTIONARY
  5
19
102
{ACAD_REACTORS
330
C
102
}
330
C
100
AcDbDictionary
281
     1
  0
ACDBDICTIONARYWDFLT
  5
E
102
{ACAD_REACTORS
330
C
102
}
330
C
100
AcDbDictionary
281
     1
  3
Normal
350
F
100
AcDbDictionaryWithDefault
340
F
  0
DICTIONARY
  5
47
102
{ACAD_REACTORS
330
C
102
}
330
C
100
AcDbDictionary
281
     1
  3
A0
350
48
  3
A1
350
49
  3
A2
350
4A
  3
A3
350
4B
  3
A4
350
4C
  3
A5
350
4D
  3
A6
350
4E
  3
A7
350
4F
  3
A8
350
50
  3
A9
350
51
  3
B0
350
52
  3
B1
350
53
  3
B2
350
54
  3
B3
350
55
  3
B4
350
56
  3
B5
350
57
  3
B6
350
58
  3
B7
350
59
  3
B8
350
5A
  3
B9
350
5B
  3
C0
350
5C
  3
C1
350
5D
  3
C2
350
5E
  3
C3
350
5F
  3
C4
350
60
  3
C5
350
61
  3
C6
350
62
  3
C7
350
63
  3
C8
350
64
  3
C9
350
65
  3
D0
350
66
  3
D1
350
67
  3
D2
350
68
  0
LAYOUT
  5
1E
102
{ACAD_REACTORS
330
1A
102
}
330
1A
100
AcDbPlotSettings
  1

  2
none_device
  4

  6

 40
0.0
 41
0.0
 42
0.0
 43
0.0
 44
0.0
 45
0.0
 46
0.0
 47
0.0
 48
0.0
 49
0.0
140
0.0
141
0.0
142
1.0
143
1.0
 70
   688
 72
     1
 73
     0
 74
     5
  7

 75
    16
147
1.0
148
0.0
149
0.0
100
AcDbLayout
  1
Layout1
 70
     1
 71
     1
 10
0.0
 20
0.0
 11
420.0
 21
297.0
 12
0.0
 22
0.0
 32
0.0
 14
1.0000000000E+20
 24
1.0000000000E+20
 34
1.0000000000E+20
 15
-1.0000000000E+20
 25
-1.0000000000E+20
 35
-1.0000000000E+20
146
0.0
 13
0.0
 23
0.0
 33
0.0
 16
1.0
 26
0.0
 36
0.0
 17
0.0
 27
1.0
 37
0.0
 76
     0
330
1B
  0
LAYOUT
  5
26
102
{ACAD_REACTORS
330
1A
102
}
330
1A
100
AcDbPlotSettings
  1

  2
none_device
  4

  6

 40
0.0
 41
0.0
 42
0.0
 43
0.0
 44
0.0
 45
0.0
 46
0.0
 47
0.0
 48
0.0
 49
0.0
140
0.0
141
0.0
142
1.0
143
1.0
 70
   688
 72
     1
 73
     0
 74
     5
  7

 75
    16
147
1.0
148
0.0
149
0.0
100
AcDbLayout
  1
Layout2
 70
     1
 71
     2
 10
0.0
 20
0.0
 11
0.0
 21
0.0
 12
0.0
 22
0.0
 32
0.0
 14
0.0
 24
0.0
 34
0.0
 15
0.0
 25
0.0
 35
0.0
146
0.0
 13
0.0
 23
0.0
 33
0.0
 16
1.0
 26
0.0
 36
0.0
 17
0.0
 27
1.0
 37
0.0
 76
     0
330
23
  0
LAYOUT
  5
22
102
{ACAD_REACTORS
330
1A
102
}
330
1A
100
AcDbPlotSettings
  1

  2
none_device
  4
Letter_(8.50_x_11.00_Inches)
  6

 40
6.35
 41
6.35
 42
6.35000508
 43
6.35000508
 44
215.9
 45
279.4
 46
0.0
 47
0.0
 48
0.0
 49
0.0
140
0.0
141
0.0
142
1.0
143
1.0
 70
  1712
 72
     1
 73
     0
 74
     0
  7

 75
     0
147
1.0
148
0.0
149
0.0
100
AcDbLayout
  1
Model
 70
     1
 71
     0
 10
0.0
 20
0.0
 11
420.0
 21
297.0
 12
0.0
 22
0.0
 32
0.0
 14
0.0
 24
0.0
 34
0.0
 15
420.0
 25
297.0
 35
0.0
146
0.0
 13
0.0
 23
0.0
 33
0.0
 16
1.0
 26
0.0
 36
0.0
 17
0.0
 27
1.0
 37
0.0
 76
     0
330
1F
331
29
  0
MLINESTYLE
  5
18
102
{ACAD_REACTORS
330
17
102
}
330
17
100
AcDbMlineStyle
  2
Standard
 70
     0
  3

 62
   256
 51
90.0
 52
90.0
 71
     2
 49
0.5
 62
   256
  6
BYLAYER
 49
-0.5
 62
   256
  6
BYLAYER
  0
ACDBPLACEHOLDER
  5
F
102
{ACAD_REACTORS
330
E
102
}
330
E
  0
SCALE
  5
48
102
{ACAD_REACTORS
330
47
102
}
330
47
100
AcDbScale
 70
     0
300
1:1
140
1.0
141
1.0
290
     1
  0
SCALE
  5
49
102
{ACAD_REACTORS
330
47
102
}
330
47
100
AcDbScale
 70
     0
300
1:2
140
1.0
141
2.0
290
     0
  0
SCALE
  5
4A
102
{ACAD_REACTORS
330
47
102
}
330
47
100
AcDbScale
 70
     0
300
1:4
140
1.0
141
4.0
290
     0
  0
SCALE
  5
4B
102
{ACAD_REACTORS
330
47
102
}
330
47
100
AcDbScale
 70
     0
300
1:5
140
1.0
141
5.0
290
     0
  0
SCALE
  5
4C
102
{ACAD_REACTORS
330
47
102
}
330
47
100
AcDbScale
 70
     0
300
1:8
140
1.0
141
8.0
290
     0
  0
SCALE
  5
4D
102
{ACAD_REACTORS
330
47
102
}
330
47
100
AcDbScale
 70
     0
300
1:10
140
1.0
141
10.0
290
     0
  0
SCALE
  5
4E
102
{ACAD_REACTORS
330
47
102
}
330
47
100
AcDbScale
 70
     0
300
1:16
140
1.0
141
16.0
290
     0
  0
SCALE
  5
4F
102
{ACAD_REACTORS
330
47
102
}
330
47
100
AcDbScale
 70
     0
300
1:20
140
1.0
141
20.0
290
     0
  0
SCALE
  5
50
102
{ACAD_REACTORS
330
47
102
}
330
47
100
AcDbScale
 70
     0
300
1:30
140
1.0
141
30.0
290
     0
  0
SCALE
  5
51
102
{ACAD_REACTORS
330
47
102
}
330
47
100
AcDbScale
 70
     0
300
1:40
140
1.0
141
40.0
290
     0
  0
SCALE
  5
52
102
{ACAD_REACTORS
330
47
102
}
330
47
100
AcDbScale
 70
     0
300
1:50
140
1.0
141
50.0
290
     0
  0
SCALE
  5
53
102
{ACAD_REACTORS
330
47
102
}
330
47
100
AcDbScale
 70
     0
300
1:100
140
1.0
141
100.0
290
     0
  0
SCALE
  5
54
102
{ACAD_REACTORS
330
47
102
}
330
47
100
AcDbScale
 70
     0
300
2:1
140
2.0
141
1.0
290
     0
  0
SCALE
  5
55
102
{ACAD_REACTORS
330
47
102
}
330
47
100
AcDbScale
 70
     0
300
4:1
140
4.0
141
1.0
290
     0
  0
SCALE
  5
56
102
{ACAD_REACTORS
330
47
102
}
330
47
100
AcDbScale
 70
     0
300
8:1
140
8.0
141
1.0
290
     0
  0
SCALE
  5
57
102
{ACAD_REACTORS
330
47
102
}
330
47
100
AcDbScale
 70
     0
300
10:1
140
10.0
141
1.0
290
     0
  0
SCALE
  5
58
102
{ACAD_REACTORS
330
47
102
}
330
47
100
AcDbScale
 70
     0
300
100:1
140
100.0
141
1.0
290
     0
  0
SCALE
  5
59
102
{ACAD_REACTORS
330
47
102
}
330
47
100
AcDbScale
 70
     0
300
1/128" = 1'-0"
140
0.0078125
141
12.0
290
     0
  0
SCALE
  5
5A
102
{ACAD_REACTORS
330
47
102
}
330
47
100
AcDbScale
 70
     0
300
1/64" = 1'-0"
140
0.015625
141
12.0
290
     0
  0
SCALE
  5
5B
102
{ACAD_REACTORS
330
47
102
}
330
47
100
AcDbScale
 70
     0
300
1/32" = 1'-0"
140
0.03125
141
12.0
290
     0
  0
SCALE
  5
5C
102
{ACAD_REACTORS
330
47
102
}
330
47
100
AcDbScale
 70
     0
300
1/16" = 1'-0"
140
0.0625
141
12.0
290
     0
  0
SCALE
  5
5D
102
{ACAD_REACTORS
330
47
102
}
330
47
100
AcDbScale
 70
     0
300
3/32" = 1'-0"
140
0.09375
141
12.0
290
     0
  0
SCALE
  5
5E
102
{ACAD_REACTORS
330
47
102
}
330
47
100
AcDbScale
 70
     0
300
1/8" = 1'-0"
140
0.125
141
12.0
290
     0
  0
SCALE
  5
5F
102
{ACAD_REACTORS
330
47
102
}
330
47
100
AcDbScale
 70
     0
300
3/16" = 1'-0"
140
0.1875
141
12.0
290
     0
  0
SCALE
  5
60
102
{ACAD_REACTORS
330
47
102
}
330
47
100
AcDbScale
 70
     0
300
1/4" = 1'-0"
140
0.25
141
12.0
290
     0
  0
SCALE
  5
61
102
{ACAD_REACTORS
330
47
102
}
330
47
100
AcDbScale
 70
     0
300
3/8" = 1'-0"
140
0.375
141
12.0
290
     0
  0
SCALE
  5
62
102
{ACAD_REACTORS
330
47
102
}
330
47
100
AcDbScale
 70
     0
300
1/2" = 1'-0"
140
0.5
141
12.0
290
     0
  0
SCALE
  5
63
102
{ACAD_REACTORS
330
47
102
}
330
47
100
AcDbScale
 70
     0
300
3/4" = 1'-0"
140
0.75
141
12.0
290
     0
  0
SCALE
  5
64
102
{ACAD_REACTORS
330
47
102
}
330
47
100
AcDbScale
 70
     0
300
1" = 1'-0"
140
1.0
141
12.0
290
     0
  0
SCALE
  5
65
102
{ACAD_REACTORS
330
47
102
}
330
47
100
AcDbScale
 70
     0
300
1-1/2" = 1'-0"
140
1.5
141
12.0
290
     0
  0
SCALE
  5
66
102
{ACAD_REACTORS
330
47
102
}
330
47
100
AcDbScale
 70
     0
300
3" = 1'-0"
140
3.0
141
12.0
290
     0
  0
SCALE
  5
67
102
{ACAD_REACTORS
330
47
102
}
330
47
100
AcDbScale
 70
     0
300
6" = 1'-0"
140
6.0
141
12.0
290
     0
  0
SCALE
  5
68
102
{ACAD_REACTORS
330
47
102
}
330
47
100
AcDbScale
 70
     0
300
1'-0" = 1'-0"
140
12.0
141
12.0
290
     0
  0
ENDSEC
  0
EOF
