  0
SECTION
  2
HEADER
  9
$ACADVER
  1
AC1015
  9
$ACADMAINTVER
 70
     6
  9
$DWGCODEPAGE
  3
ANSI_1250
  9
$INSBASE
 10
0.0
 20
0.0
 30
0.0
  9
$EXTMIN
 10
0.0
 20
0.0
 30
0.0
  9
$EXTMAX
 10
420.0
 20
297.0
 30
0.0
  9
$LIMMIN
 10
0.0
 20
0.0
  9
$LIMMAX
 10
420.0
 20
297.0
  9
$ORTHOMODE
 70
     0
  9
$REGENMODE
 70
     1
  9
$FILLMODE
 70
     1
  9
$QTEXTMODE
 70
     0
  9
$MIRRTEXT
 70
     1
  9
$LTSCALE
 40
1.0
  9
$ATTMODE
 70
     1
  9
$TEXTSIZE
 40
3.5
  9
$TRACEWID
 40
1.0
  9
$TEXTSTYLE
  7
Standard
  9
$CLAYER
  8
0
  9
$CELTYPE
  6
ByLayer
  9
$CECOLOR
 62
   256
  9
$CELTSCALE
 40
1.0
  9
$DISPSILH
 70
     0
  9
$DIMSCALE
 40
1.0
  9
$DIMASZ
 40
3.302
  9
$DIMEXO
 40
1.0
  9
$DIMDLI
 40
3.75
  9
$DIMRND
 40
0.0
  9
$DIMDLE
 40
0.0
  9
$DIMEXE
 40
1.0
  9
$DIMTP
 40
0.0
  9
$DIMTM
 40
0.0
  9
$DIMTXT
 40
3.5
  9
$DIMCEN
 40
2.5
  9
$DIMTSZ
 40
0.0
  9
$DIMTOL
 70
     0
  9
$DIMLIM
 70
     0
  9
$DIMTIH
 70
     1
  9
$DIMTOH
 70
     1
  9
$DIMSE1
 70
     0
  9
$DIMSE2
 70
     0
  9
$DIMTAD
 70
     1
  9
$DIMZIN
 70
     1
  9
$DIMBLK
  1

  9
$DIMASO
 70
     1
  9
$DIMSHO
 70
     1
  9
$DIMPOST
  1

  9
$DIMAPOST
  1

  9
$DIMALT
 70
     0
  9
$DIMALTD
 70
     3
  9
$DIMALTF
 40
0.0393700787
  9
$DIMLFAC
 40
1.0
  9
$DIMTOFL
 70
     1
  9
$DIMTVP
 40
0.0
  9
$DIMTIX
 70
     0
  9
$DIMSOXD
 70
     0
  9
$DIMSAH
 70
     0
  9
$DIMBLK1
  1

  9
$DIMBLK2
  1

  9
$DIMSTYLE
  2
ISO-25
  9
$DIMCLRD
 70
     0
  9
$DIMCLRE
 70
     0
  9
$DIMCLRT
 70
     0
  9
$DIMTFAC
 40
1.0
  9
$DIMGAP
 40
1.524
  9
$DIMJUST
 70
     0
  9
$DIMSD1
 70
     0
  9
$DIMSD2
 70
     0
  9
$DIMTOLJ
 70
     0
  9
$DIMTZIN
 70
     1
  9
$DIMALTZ
 70
     0
  9
$DIMALTTZ
 70
     0
  9
$DIMUPT
 70
     0
  9
$DIMDEC
 70
     2
  9
$DIMTDEC
 70
     2
  9
$DIMALTU
 70
     2
  9
$DIMALTTD
 70
     3
  9
$DIMTXSTY
  7
Standard
  9
$DIMAUNIT
 70
     0
  9
$DIMADEC
 70
     2
  9
$DIMALTRND
 40
0.0
  9
$DIMAZIN
 70
     0
  9
$DIMDSEP
 70
    44
  9
$DIMATFIT
 70
     3
  9
$DIMFRAC
 70
     0
  9
$DIMLDRBLK
  1

  9
$DIMLUNIT
 70
     2
  9
$DIMLWD
 70
    -2
  9
$DIMLWE
 70
    -2
  9
$DIMTMOVE
 70
     0
  9
$LUNITS
 70
     2
  9
$LUPREC
 70
     2
  9
$SKETCHINC
 40
1.0
  9
$FILLETRAD
 40
10.0
  9
$AUNITS
 70
     0
  9
$AUPREC
 70
     2
  9
$MENU
  1
.
  9
$ELEVATION
 40
0.0
  9
$PELEVATION
 40
0.0
  9
$THICKNESS
 40
0.0
  9
$LIMCHECK
 70
     0
  9
$CHAMFERA
 40
0.0
  9
$CHAMFERB
 40
0.0
  9
$CHAMFERC
 40
0.0
  9
$CHAMFERD
 40
0.0
  9
$SKPOLY
 70
     0
  9
$TDCREATE
 40
2460179.77682434
  9
$TDUCREATE
 40
2460179.693491007
  9
$TDUPDATE
 40
2460179.776826562
  9
$TDUUPDATE
 40
2460179.693493229
  9
$TDINDWG
 40
0.0000000116
  9
$TDUSRTIMER
 40
0.0000000116
  9
$USRTIMER
 70
     1
  9
$ANGBASE
 50
0.0
  9
$ANGDIR
 70
     0
  9
$PDMODE
 70
     0
  9
$PDSIZE
 40
-1.0
  9
$PLINEWID
 40
0.0
  9
$SPLFRAME
 70
     0
  9
$SPLINETYPE
 70
     6
  9
$SPLINESEGS
 70
     8
  9
$HANDSEED
  5
346
  9
$SURFTAB1
 70
     6
  9
$SURFTAB2
 70
     6
  9
$SURFTYPE
 70
     6
  9
$SURFU
 70
     6
  9
$SURFV
 70
     6
  9
$UCSBASE
  2

  9
$UCSNAME
  2

  9
$UCSORG
 10
0.0
 20
0.0
 30
0.0
  9
$UCSXDIR
 10
1.0
 20
0.0
 30
0.0
  9
$UCSYDIR
 10
0.0
 20
1.0
 30
0.0
  9
$UCSORTHOREF
  2

  9
$UCSORTHOVIEW
 70
     0
  9
$UCSORGTOP
 10
0.0
 20
0.0
 30
0.0
  9
$UCSORGBOTTOM
 10
0.0
 20
0.0
 30
0.0
  9
$UCSORGLEFT
 10
0.0
 20
0.0
 30
0.0
  9
$UCSORGRIGHT
 10
0.0
 20
0.0
 30
0.0
  9
$UCSORGFRONT
 10
0.0
 20
0.0
 30
0.0
  9
$UCSORGBACK
 10
0.0
 20
0.0
 30
0.0
  9
$PUCSBASE
  2

  9
$PUCSNAME
  2

  9
$PUCSORG
 10
0.0
 20
0.0
 30
0.0
  9
$PUCSXDIR
 10
1.0
 20
0.0
 30
0.0
  9
$PUCSYDIR
 10
0.0
 20
1.0
 30
0.0
  9
$PUCSORTHOREF
  2

  9
$PUCSORTHOVIEW
 70
     0
  9
$PUCSORGTOP
 10
0.0
 20
0.0
 30
0.0
  9
$PUCSORGBOTTOM
 10
0.0
 20
0.0
 30
0.0
  9
$PUCSORGLEFT
 10
0.0
 20
0.0
 30
0.0
  9
$PUCSORGRIGHT
 10
0.0
 20
0.0
 30
0.0
  9
$PUCSORGFRONT
 10
0.0
 20
0.0
 30
0.0
  9
$PUCSORGBACK
 10
0.0
 20
0.0
 30
0.0
  9
$USERI1
 70
     0
  9
$USERI2
 70
     0
  9
$USERI3
 70
     0
  9
$USERI4
 70
     0
  9
$USERI5
 70
     0
  9
$USERR1
 40
0.0
  9
$USERR2
 40
0.0
  9
$USERR3
 40
0.0
  9
$USERR4
 40
0.0
  9
$USERR5
 40
0.0
  9
$WORLDVIEW
 70
     1
  9
$SHADEDGE
 70
     3
  9
$SHADEDIF
 70
    70
  9
$TILEMODE
 70
     1
  9
$MAXACTVP
 70
    64
  9
$PINSBASE
 10
0.0
 20
0.0
 30
0.0
  9
$PLIMCHECK
 70
     0
  9
$PEXTMIN
 10
1.0000000000E+20
 20
1.0000000000E+20
 30
1.0000000000E+20
  9
$PEXTMAX
 10
-1.0000000000E+20
 20
-1.0000000000E+20
 30
-1.0000000000E+20
  9
$PLIMMIN
 10
0.0
 20
0.0
  9
$PLIMMAX
 10
420.0
 20
297.0
  9
$UNITMODE
 70
     0
  9
$VISRETAIN
 70
     1
  9
$PLINEGEN
 70
     0
  9
$PSLTSCALE
 70
     1
  9
$TREEDEPTH
 70
  3020
  9
$CMLSTYLE
  2
Standard
  9
$CMLJUST
 70
     0
  9
$CMLSCALE
 40
20.0
  9
$PROXYGRAPHICS
 70
     1
  9
$MEASUREMENT
 70
     1
  9
$CELWEIGHT
370
    -1
  9
$ENDCAPS
280
     0
  9
$JOINSTYLE
280
     0
  9
$LWDISPLAY
290
     1
  9
$INSUNITS
 70
     4
  9
$HYPERLINKBASE
  1

  9
$STYLESHEET
  1

  9
$XEDIT
290
     1
  9
$CEPSNTYPE
380
     0
  9
$PSTYLEMODE
290
     1
  9
$FINGERPRINTGUID
  2
{256ca549-6f6a-47e2-b664-63b0d0ad5fd1}
  9
$VERSIONGUID
  2
{FAEB1C32-E019-11D5-929B-00C0DF256EC4}
  9
$EXTNAMES
290
     1
  9
$PSVPSCALE
 40
0.0
  9
$OLESTARTUP
290
     0
  0
ENDSEC
  0
SECTION
  2
CLASSES
  0
CLASS
  1
ACDBDICTIONARYWDFLT
  2
AcDbDictionaryWithDefault
  3
ObjectDBX Classes
 90
        0
280
     0
281
     0
  0
CLASS
  1
VISUALSTYLE
  2
AcDbVisualStyle
  3
ObjectDBX Classes
 90
     4095
280
     0
281
     0
  0
CLASS
  1
MATERIAL
  2
AcDbMaterial
  3
ObjectDBX Classes
 90
     1153
280
     0
281
     0
  0
CLASS
  1
SCALE
  2
AcDbScale
  3
ObjectDBX Classes
 90
     1153
280
     0
281
     0
  0
CLASS
  1
TABLESTYLE
  2
AcDbTableStyle
  3
ObjectDBX Classes
 90
     4095
280
     0
281
     0
  0
CLASS
  1
MLEADERSTYLE
  2
AcDbMLeaderStyle
  3
ACDB_MLEADERSTYLE_CLASS
 90
     4095
280
     0
281
     0
  0
CLASS
  1
SUN
  2
AcDbSun
  3
SCENEOE
 90
     1153
280
     0
281
     0
  0
CLASS
  1
ACDBPLACEHOLDER
  2
AcDbPlaceHolder
  3
ObjectDBX Classes
 90
        0
280
     0
281
     0
  0
CLASS
  1
LAYOUT
  2
AcDbLayout
  3
ObjectDBX Classes
 90
        0
280
     0
281
     0
  0
ENDSEC
  0
SECTION
  2
TABLES
  0
TABLE
  2
VPORT
  5
8
330
0
100
AcDbSymbolTable
 70
     1
  0
VPORT
  5
29
330
8
100
AcDbSymbolTableRecord
100
AcDbViewportTableRecord
  2
*Active
 70
     0
 10
0.0
 20
0.0
 11
1.0
 21
1.0
 12
210.0
 22
148.5
 13
0.0
 23
0.0
 14
10.0
 24
10.0
 15
10.0
 25
10.0
 16
0.0
 26
0.0
 36
1.0
 17
0.0
 27
0.0
 37
0.0
 40
297.0
 41
1.4141414141
 42
50.0
 43
0.0
 44
0.0
 50
0.0
 51
0.0
 71
     0
 72
  2000
 73
     1
 74
     3
 75
     0
 76
     0
 77
     0
 78
     0
281
     0
 65
     1
110
0.0
120
0.0
130
0.0
111
1.0
121
0.0
131
0.0
112
0.0
122
1.0
132
0.0
 79
     0
146
0.0
  0
ENDTAB
  0
TABLE
  2
LTYPE
  5
5
330
0
100
AcDbSymbolTable
 70
     6
  0
LTYPE
  5
14
330
5
100
AcDbSymbolTableRecord
100
AcDbLinetypeTableRecord
  2
ByBlock
 70
     0
  3

 72
    65
 73
     0
 40
0.0
  0
LTYPE
  5
15
330
5
100
AcDbSymbolTableRecord
100
AcDbLinetypeTableRecord
  2
ByLayer
 70
     0
  3

 72
    65
 73
     0
 40
0.0
  0
LTYPE
  5
16
330
5
100
AcDbSymbolTableRecord
100
AcDbLinetypeTableRecord
  2
Continuous
 70
     0
  3
Solid line
 72
    65
 73
     0
 40
0.0
  0
LTYPE
  5
6E
330
5
100
AcDbSymbolTableRecord
100
AcDbLinetypeTableRecord
  2
HIDDEN
 70
     0
  3
Hidden __ __ __ __ __ __ __ __ __ __ __ __ __ __
 72
    65
 73
     2
 40
1.905
 49
1.27
 74
     0
 49
-0.635
 74
     0
  0
LTYPE
  5
6F
330
5
100
AcDbSymbolTableRecord
100
AcDbLinetypeTableRecord
  2
PHANTOM
 70
     0
  3
Phantom ______  __  __  ______  __  __  ______
 72
    65
 73
     6
 40
12.7
 49
6.35
 74
     0
 49
-1.27
 74
     0
 49
1.27
 74
     0
 49
-1.27
 74
     0
 49
1.27
 74
     0
 49
-1.27
 74
     0
  0
LTYPE
  5
70
330
5
100
AcDbSymbolTableRecord
100
AcDbLinetypeTableRecord
  2
CENTER
 70
     0
  3
Center ____ _ ____ _ ____ _ ____ _ ____ _ ____
 72
    65
 73
     4
 40
10.16
 49
6.35
 74
     0
 49
-1.27
 74
     0
 49
1.27
 74
     0
 49
-1.27
 74
     0
  0
LTYPE
  5
71
330
5
100
AcDbSymbolTableRecord
100
AcDbLinetypeTableRecord
  2
CENTERX2
 70
     0
  3
Center (2x) ________  __  ________  __  _____
 72
    65
 73
     4
 40
20.32
 49
12.7
 74
     0
 49
-2.54
 74
     0
 49
2.54
 74
     0
 49
-2.54
 74
     0
  0
LTYPE
  5
72
330
5
100
AcDbSymbolTableRecord
100
AcDbLinetypeTableRecord
  2
DOT2
 70
     0
  3
Dot (.5x) ........................................
 72
    65
 73
     2
 40
0.635
 49
0.0
 74
     0
 49
-0.635
 74
     0
  0
ENDTAB
  0
TABLE
  2
LAYER
  5
2
330
0
100
AcDbSymbolTable
 70
     2
  0
LAYER
  5
10
330
2
100
AcDbSymbolTableRecord
100
AcDbLayerTableRecord
  2
0
 70
     0
 62
     7
  6
Continuous
370
    -3
390
F
  0
LAYER
  5
73
330
2
100
AcDbSymbolTableRecord
100
AcDbLayerTableRecord
  2
FORMAT
 70
     0
 62
     7
  6
Continuous
370
    -3
390
F
  0
ENDTAB
  0
TABLE
  2
STYLE
  5
3
330
0
100
AcDbSymbolTable
 70
     4
  0
STYLE
  5
11
330
3
100
AcDbSymbolTableRecord
100
AcDbTextStyleTableRecord
  2
Standard
 70
     0
 40
0.0
 41
1.0
 50
0.0
 71
     0
 42
3.5
  3
txt
  4

  0
STYLE
  5
B1
330
3
100
AcDbSymbolTableRecord
100
AcDbTextStyleTableRecord
  2
SLDTEXTSTYLE0
 70
     0
 40
0.0
 41
0.75
 50
0.0
 71
     0
 42
3.5
  3
TXT
  4

  0
STYLE
  5
D1
330
3
100
AcDbSymbolTableRecord
100
AcDbTextStyleTableRecord
  2
SLDTEXTSTYLE1
 70
     0
 40
0.0
 41
0.6875
 50
0.0
 71
     0
 42
3.5
  3
TXT
  4
bigfont
  0
STYLE
  5
D3
330
3
100
AcDbSymbolTableRecord
100
AcDbTextStyleTableRecord
  2
SLDTEXTSTYLE2
 70
     0
 40
0.0
 41
0.75
 50
0.0
 71
     0
 42
3.5
  3
TXT
  4
bigfont
  0
ENDTAB
  0
TABLE
  2
VIEW
  5
6
330
0
100
AcDbSymbolTable
 70
     0
  0
ENDTAB
  0
TABLE
  2
UCS
  5
7
330
0
100
AcDbSymbolTable
 70
     0
  0
ENDTAB
  0
TABLE
  2
APPID
  5
9
330
0
100
AcDbSymbolTable
 70
     1
  0
APPID
  5
12
330
9
100
AcDbSymbolTableRecord
100
AcDbRegAppTableRecord
  2
ACAD
 70
     0
  0
ENDTAB
  0
TABLE
  2
DIMSTYLE
  5
A
330
0
100
AcDbSymbolTable
 70
     6
100
AcDbDimStyleTable
  0
DIMSTYLE
105
27
330
A
100
AcDbSymbolTableRecord
100
AcDbDimStyleTableRecord
  2
ISO-25
 70
     0
 41
2.5
 42
0.625
 43
3.75
 44
1.25
 73
     0
 74
     0
 77
     1
 78
     8
140
2.5
141
2.5
143
0.0393700787
147
0.625
171
     3
172
     1
178
     0
271
     2
272
     2
274
     3
278
    44
283
     0
284
     8
340
11
  0
DIMSTYLE
105
206
102
{ACAD_REACTORS
330
205
330
21D
330
2F4
102
}
330
A
100
AcDbSymbolTableRecord
100
AcDbDimStyleTableRecord
  2
SLDDIMSTYLE0
 70
     0
 41
3.302
 44
0.0
 45
0.000000001
 73
     0
 74
     0
 77
     1
 78
    12
 79
     3
140
3.5
147
0.875
173
     1
178
     0
271
     2
272
     2
276
     2
284
    12
340
B1
  0
DIMSTYLE
105
211
102
{ACAD_REACTORS
330
210
330
229
102
}
330
A
100
AcDbSymbolTableRecord
100
AcDbDimStyleTableRecord
  2
SLDDIMSTYLE1
 70
     0
 41
3.302
 44
0.0
 45
0.000000001
 73
     0
 74
     0
 77
     1
 78
    12
 79
     3
140
3.5
147
0.875
172
     1
173
     1
178
     0
271
     0
272
     0
276
     2
284
    12
289
     0
340
B1
  0
DIMSTYLE
105
236
102
{ACAD_REACTORS
330
235
330
2CA
330
2D4
330
2E9
102
}
330
A
100
AcDbSymbolTableRecord
100
AcDbDimStyleTableRecord
  2
SLDDIMSTYLE2
 70
     0
 41
3.302
 44
0.0
 45
0.000000001
 73
     0
 74
     0
 77
     1
 78
    12
 79
     3
140
3.5
147
0.875
173
     1
178
     0
271
     0
272
     0
276
     2
284
    12
340
B1
  0
DIMSTYLE
105
2DF
102
{ACAD_REACTORS
330
2DE
102
}
330
A
100
AcDbSymbolTableRecord
100
AcDbDimStyleTableRecord
  2
SLDDIMSTYLE3
 70
     0
 41
3.302
 44
0.0
 45
0.000000001
 73
     0
 74
     0
 77
     1
 78
    12
 79
     3
140
3.5
147
0.875
173
     1
178
     0
271
     1
272
     1
276
     2
284
    12
340
B1
  0
DIMSTYLE
105
2FF
102
{ACAD_REACTORS
330
2FE
102
}
330
A
100
AcDbSymbolTableRecord
100
AcDbDimStyleTableRecord
  2
SLDDIMSTYLE4
 70
     0
  3
<>
 41
3.302
 44
0.0
 45
0.000000001
 73
     0
 74
     0
 77
     1
 78
    12
 79
     3
140
3.5
141
0.0
147
0.875
172
     1
173
     1
178
     0
271
     2
272
     2
276
     2
284
    12
340
B1
341
300
343
300
  0
ENDTAB
  0
TABLE
  2
BLOCK_RECORD
  5
1
330
0
100
AcDbSymbolTable
 70
    20
  0
BLOCK_RECORD
  5
1F
330
1
100
AcDbSymbolTableRecord
100
AcDbBlockTableRecord
  2
*Model_Space
340
22
  0
BLOCK_RECORD
  5
1B
330
1
100
AcDbSymbolTableRecord
100
AcDbBlockTableRecord
  2
*Paper_Space
340
1E
  0
BLOCK_RECORD
  5
23
330
1
100
AcDbSymbolTableRecord
100
AcDbBlockTableRecord
  2
*Paper_Space0
340
26
  0
BLOCK_RECORD
  5
DD
330
1
100
AcDbSymbolTableRecord
100
AcDbBlockTableRecord
  2
SW_NOTE_0
340
0
102
{BLKREFS
331
E2
102
}
  0
BLOCK_RECORD
  5
E4
330
1
100
AcDbSymbolTableRecord
100
AcDbBlockTableRecord
  2
SW_NOTE_0_1
340
0
102
{BLKREFS
331
ED
102
}
  0
BLOCK_RECORD
  5
207
330
1
100
AcDbSymbolTableRecord
100
AcDbBlockTableRecord
  2
_D
340
0
  0
BLOCK_RECORD
  5
212
330
1
100
AcDbSymbolTableRecord
100
AcDbBlockTableRecord
  2
_D_1
340
0
  0
BLOCK_RECORD
  5
21E
330
1
100
AcDbSymbolTableRecord
100
AcDbBlockTableRecord
  2
_D_2
340
0
  0
BLOCK_RECORD
  5
22A
330
1
100
AcDbSymbolTableRecord
100
AcDbBlockTableRecord
  2
_D_3
340
0
  0
BLOCK_RECORD
  5
237
330
1
100
AcDbSymbolTableRecord
100
AcDbBlockTableRecord
  2
_D_4
340
0
  0
BLOCK_RECORD
  5
2CB
330
1
100
AcDbSymbolTableRecord
100
AcDbBlockTableRecord
  2
_D_5
340
0
  0
BLOCK_RECORD
  5
2D5
330
1
100
AcDbSymbolTableRecord
100
AcDbBlockTableRecord
  2
_D_6
340
0
  0
BLOCK_RECORD
  5
2E0
330
1
100
AcDbSymbolTableRecord
100
AcDbBlockTableRecord
  2
_D_7
340
0
  0
BLOCK_RECORD
  5
2EA
330
1
100
AcDbSymbolTableRecord
100
AcDbBlockTableRecord
  2
_D_8
340
0
  0
BLOCK_RECORD
  5
2F5
330
1
100
AcDbSymbolTableRecord
100
AcDbBlockTableRecord
  2
_D_9
340
0
  0
BLOCK_RECORD
  5
300
330
1
100
AcDbSymbolTableRecord
100
AcDbBlockTableRecord
  2
_None
340
0
  0
BLOCK_RECORD
  5
303
330
1
100
AcDbSymbolTableRecord
100
AcDbBlockTableRecord
  2
_D_10
340
0
  0
BLOCK_RECORD
  5
30A
330
1
100
AcDbSymbolTableRecord
100
AcDbBlockTableRecord
  2
SW_CENTERMARKSYMBOL_0
340
0
102
{BLKREFS
331
315
102
}
  0
BLOCK_RECORD
  5
316
330
1
100
AcDbSymbolTableRecord
100
AcDbBlockTableRecord
  2
SW_CENTERMARKSYMBOL_1
340
0
102
{BLKREFS
331
321
102
}
  0
BLOCK_RECORD
  5
322
330
1
100
AcDbSymbolTableRecord
100
AcDbBlockTableRecord
  2
SW_CENTERMARKSYMBOL_2
340
0
102
{BLKREFS
331
32D
102
}
  0
BLOCK_RECORD
  5
32E
330
1
100
AcDbSymbolTableRecord
100
AcDbBlockTableRecord
  2
SW_CENTERMARKSYMBOL_3
340
0
102
{BLKREFS
331
339
102
}
  0
BLOCK_RECORD
  5
33A
330
1
100
AcDbSymbolTableRecord
100
AcDbBlockTableRecord
  2
SW_CENTERMARKSYMBOL_4
340
0
102
{BLKREFS
331
345
102
}
  0
ENDTAB
  0
ENDSEC
  0
SECTION
  2
BLOCKS
  0
BLOCK
  5
20
330
1F
100
AcDbEntity
  8
0
100
AcDbBlockBegin
  2
*Model_Space
 70
     0
 10
0.0
 20
0.0
 30
0.0
  3
*Model_Space
  1

  0
ENDBLK
  5
21
330
1F
100
AcDbEntity
  8
0
100
AcDbBlockEnd
  0
BLOCK
  5
1C
330
1B
100
AcDbEntity
 67
     1
  8
0
100
AcDbBlockBegin
  2
*Paper_Space
 70
     0
 10
0.0
 20
0.0
 30
0.0
  3
*Paper_Space
  1

  0
ENDBLK
  5
1D
330
1B
100
AcDbEntity
 67
     1
  8
0
100
AcDbBlockEnd
  0
BLOCK
  5
24
330
23
100
AcDbEntity
  8
0
100
AcDbBlockBegin
  2
*Paper_Space0
 70
     0
 10
0.0
 20
0.0
 30
0.0
  3
*Paper_Space0
  1

  0
ENDBLK
  5
25
330
23
100
AcDbEntity
  8
0
100
AcDbBlockEnd
  0
BLOCK
  5
DE
330
DD
100
AcDbEntity
  8
0
100
AcDbBlockBegin
  2
SW_NOTE_0
 70
     0
 10
0.0
 20
0.0
 30
0.0
  3
SW_NOTE_0
  1

  0
MTEXT
  5
E0
330
DD
100
AcDbEntity
  8
0
  6
Continuous
 62
     0
370
     0
100
AcDbMText
 10
0.0
 20
1.9336016097
 30
0.0
 40
1.5
 41
0.0
 71
     1
 72
     1
  1
ODSTRANIT
  7
SLDTEXTSTYLE0
 73
     1
 44
1.0
  0
MTEXT
  5
E1
330
DD
100
AcDbEntity
  8
0
  6
Continuous
 62
     0
370
     0
100
AcDbMText
 10
0.0
 20
-0.5663983345
 30
0.0
 40
1.5
 41
0.0
 71
     1
 72
     1
  1
OSTRÉ HRANY
  7
SLDTEXTSTYLE0
 73
     1
 44
1.0
  0
ENDBLK
  5
DF
330
DD
100
AcDbEntity
  8
0
100
AcDbBlockEnd
  0
BLOCK
  5
E5
330
E4
100
AcDbEntity
  8
0
100
AcDbBlockBegin
  2
SW_NOTE_0_1
 70
     0
 10
0.0
 20
0.0
 30
0.0
  3
SW_NOTE_0_1
  1

  0
MTEXT
  5
E7
330
E4
100
AcDbEntity
  8
0
  6
Continuous
 62
     0
370
     0
100
AcDbMText
 10
0.0
 20
1.9336016097
 30
0.0
 40
1.5
 41
0.0
 71
     1
 72
     1
  1
POKUD NENÍ UVEDENO JINAK:
  7
SLDTEXTSTYLE0
 73
     1
 44
1.0
  0
MTEXT
  5
E8
330
E4
100
AcDbEntity
  8
0
  6
Continuous
 62
     0
370
     0
100
AcDbMText
 10
0.0
 20
-0.5663983345
 30
0.0
 40
1.5
 41
0.0
 71
     1
 72
     1
  1
JEDNOTKY JSOU V MILIMETRECH
  7
SLDTEXTSTYLE0
 73
     1
 44
1.0
  0
MTEXT
  5
E9
330
E4
100
AcDbEntity
  8
0
  6
Continuous
 62
     0
370
     0
100
AcDbMText
 10
0.0
 20
-3.0663982786
 30
0.0
 40
1.5
 41
0.0
 71
     1
 72
     1
  1
DRSNOST:
  7
SLDTEXTSTYLE0
 73
     1
 44
1.0
  0
MTEXT
  5
EA
330
E4
100
AcDbEntity
  8
0
  6
Continuous
 62
     0
370
     0
100
AcDbMText
 10
0.0
 20
-5.5663982227
 30
0.0
 40
1.5
 41
0.0
 71
     1
 72
     1
  1
TOLERANCE:
  7
SLDTEXTSTYLE0
 73
     1
 44
1.0
  0
MTEXT
  5
EB
330
E4
100
AcDbEntity
  8
0
  6
Continuous
 62
     0
370
     0
100
AcDbMText
 10
1.6875
 20
-8.0663981668
 30
0.0
 40
1.5
 41
0.0
 71
     1
 72
     1
  1
LINEÁRNÍ:
  7
SLDTEXTSTYLE0
 73
     1
 44
1.0
  0
MTEXT
  5
EC
330
E4
100
AcDbEntity
  8
0
  6
Continuous
 62
     0
370
     0
100
AcDbMText
 10
1.6875
 20
-10.5663981109
 30
0.0
 40
1.5
 41
0.0
 71
     1
 72
     1
  1
ÚHLOVÁ:
  7
SLDTEXTSTYLE0
 73
     1
 44
1.0
  0
ENDBLK
  5
E6
330
E4
100
AcDbEntity
  8
0
100
AcDbBlockEnd
  0
BLOCK
  5
208
330
207
100
AcDbEntity
  8
0
100
AcDbBlockBegin
  2
_D
 70
     0
 10
0.0
 20
0.0
 30
0.0
  3
_D
  1

  0
SOLID
  5
20A
330
207
100
AcDbEntity
  8
0
  6
Continuous
 62
     7
370
    18
100
AcDbTrace
 10
215.94
 20
139.5500341254
 30
0.0
 11
212.638
 21
140.0580341254
 31
0.0
 12
212.638
 22
139.0420341254
 32
0.0
 13
212.638
 23
139.0420341254
 33
0.0
  0
SOLID
  5
20B
330
207
100
AcDbEntity
  8
0
  6
Continuous
 62
     7
370
    18
100
AcDbTrace
 10
65.94
 20
139.5500341254
 30
0.0
 11
69.242
 21
139.0420341254
 31
0.0
 12
69.242
 22
140.0580341254
 32
0.0
 13
69.242
 23
140.0580341254
 33
0.0
  0
LINE
  5
20C
330
207
100
AcDbEntity
  8
0
  6
Continuous
 62
     7
370
     0
100
AcDbLine
 10
215.94
 20
183.8050170627
 30
0.0
 11
215.94
 21
138.5500341254
 31
0.0
  0
LINE
  5
20D
330
207
100
AcDbEntity
  8
0
  6
Continuous
 62
     7
370
     0
100
AcDbLine
 10
65.94
 20
150.8050170627
 30
0.0
 11
65.94
 21
138.5500341254
 31
0.0
  0
LINE
  5
20E
330
207
100
AcDbEntity
  8
0
  6
Continuous
 62
     7
370
     0
100
AcDbLine
 10
215.94
 20
139.5500341254
 30
0.0
 11
65.94
 21
139.5500341254
 31
0.0
  0
MTEXT
  5
20F
330
207
100
AcDbEntity
  8
0
  6
Continuous
 62
     7
370
    18
100
AcDbMText
 10
133.8281940432
 20
144.06177104
 30
0.0
 40
3.5
 41
0.0
 71
     1
 72
     1
  1
150,00
  7
SLDTEXTSTYLE0
 73
     1
 44
1.0
  0
ENDBLK
  5
209
330
207
100
AcDbEntity
  8
0
100
AcDbBlockEnd
  0
BLOCK
  5
213
330
212
100
AcDbEntity
  8
0
100
AcDbBlockBegin
  2
_D_1
 70
     0
 10
0.0
 20
0.0
 30
0.0
  3
_D_1
  1

  0
SOLID
  5
215
330
212
100
AcDbEntity
  8
0
  6
Continuous
 62
     7
370
    18
100
AcDbTrace
 10
78.94
 20
254.06
 30
0.0
 11
82.242
 21
253.552
 31
0.0
 12
82.242
 22
254.568
 32
0.0
 13
82.242
 23
254.568
 33
0.0
  0
SOLID
  5
216
330
212
100
AcDbEntity
  8
0
  6
Continuous
 62
     7
370
    18
100
AcDbTrace
 10
65.94
 20
254.06
 30
0.0
 11
62.638
 21
254.568
 31
0.0
 12
62.638
 22
253.552
 32
0.0
 13
62.638
 23
253.552
 33
0.0
  0
LINE
  5
217
330
212
100
AcDbEntity
  8
0
  6
Continuous
 62
     7
370
     0
100
AcDbLine
 10
78.94
 20
235.4550170627
 30
0.0
 11
78.94
 21
255.06
 31
0.0
  0
LINE
  5
218
330
212
100
AcDbEntity
  8
0
  6
Continuous
 62
     7
370
     0
100
AcDbLine
 10
65.94
 20
242.8050170627
 30
0.0
 11
65.94
 21
255.06
 31
0.0
  0
LINE
  5
219
330
212
100
AcDbEntity
  8
0
  6
Continuous
 62
     7
370
     0
100
AcDbLine
 10
78.94
 20
254.06
 30
0.0
 11
85.29
 21
254.06
 31
0.0
  0
LINE
  5
21A
330
212
100
AcDbEntity
  8
0
  6
Continuous
 62
     7
370
     0
100
AcDbLine
 10
78.94
 20
254.06
 30
0.0
 11
65.94
 21
254.06
 31
0.0
  0
LINE
  5
21B
330
212
100
AcDbEntity
  8
0
  6
Continuous
 62
     7
370
     0
100
AcDbLine
 10
65.94
 20
254.06
 30
0.0
 11
59.59
 21
254.06
 31
0.0
  0
MTEXT
  5
21C
330
212
100
AcDbEntity
  8
0
  6
Continuous
 62
     7
370
    18
100
AcDbMText
 10
69.8538888065
 20
258.5717369146
 30
0.0
 40
3.5
 41
0.0
 71
     1
 72
     1
  1
13
  7
SLDTEXTSTYLE0
 73
     1
 44
1.0
  0
ENDBLK
  5
214
330
212
100
AcDbEntity
  8
0
100
AcDbBlockEnd
  0
BLOCK
  5
21F
330
21E
100
AcDbEntity
  8
0
100
AcDbBlockBegin
  2
_D_2
 70
     0
 10
0.0
 20
0.0
 30
0.0
  3
_D_2
  1

  0
SOLID
  5
221
330
21E
100
AcDbEntity
  8
0
  6
Continuous
 62
     7
370
    18
100
AcDbTrace
 10
55.94
 20
158.6550170627
 30
0.0
 11
56.448
 21
161.9570170627
 31
0.0
 12
55.432
 22
161.9570170627
 32
0.0
 13
55.432
 23
161.9570170627
 33
0.0
  0
SOLID
  5
222
330
21E
100
AcDbEntity
  8
0
  6
Continuous
 62
     7
370
    18
100
AcDbTrace
 10
55.94
 20
170.6550170627
 30
0.0
 11
55.432
 21
167.3530170627
 31
0.0
 12
56.448
 22
167.3530170627
 32
0.0
 13
56.448
 23
167.3530170627
 33
0.0
  0
LINE
  5
223
330
21E
100
AcDbEntity
  8
0
  6
Continuous
 62
     7
370
     0
100
AcDbLine
 10
78.44
 20
158.6550170627
 30
0.0
 11
54.94
 21
158.6550170627
 31
0.0
  0
LINE
  5
224
330
21E
100
AcDbEntity
  8
0
  6
Continuous
 62
     7
370
     0
100
AcDbLine
 10
78.44
 20
170.6550170627
 30
0.0
 11
54.94
 21
170.6550170627
 31
0.0
  0
LINE
  5
225
330
21E
100
AcDbEntity
  8
0
  6
Continuous
 62
     7
370
     0
100
AcDbLine
 10
55.94
 20
158.6550170627
 30
0.0
 11
55.94
 21
124.9814395097
 31
0.0
  0
LINE
  5
226
330
21E
100
AcDbEntity
  8
0
  6
Continuous
 62
     7
370
     0
100
AcDbLine
 10
55.94
 20
158.6550170627
 30
0.0
 11
55.94
 21
170.6550170627
 31
0.0
  0
MTEXT
  5
227
330
21E
100
AcDbEntity
  8
0
  6
Continuous
 62
     7
370
    18
100
AcDbMText
 10
51.3747907341
 20
124.9814395097
 30
0.0
 40
3.5
 41
0.0
 71
     1
 72
     1
  1
M12x1.25
  7
SLDTEXTSTYLE0
 11
6.123233995736766E-17
 21
1.0
 31
0.0
 73
     1
 44
1.0
  0
MTEXT
  5
228
330
21E
100
AcDbEntity
  8
0
  6
Continuous
 62
     7
370
    18
100
AcDbMText
 10
51.4282629108
 20
145.7335230198
 30
0.0
 40
3.5
 41
0.0
 71
     1
 72
     1
  1
%%c
  7
SLDTEXTSTYLE0
 11
6.123233995736766E-17
 21
1.0
 31
0.0
 73
     1
 44
1.0
  0
ENDBLK
  5
220
330
21E
100
AcDbEntity
  8
0
100
AcDbBlockEnd
  0
BLOCK
  5
22B
330
22A
100
AcDbEntity
  8
0
100
AcDbBlockBegin
  2
_D_3
 70
     0
 10
0.0
 20
0.0
 30
0.0
  3
_D_3
  1

  0
SOLID
  5
22D
330
22A
100
AcDbEntity
  8
0
  6
Continuous
 62
     7
370
    18
100
AcDbTrace
 10
215.94
 20
254.06
 30
0.0
 11
219.242
 21
253.552
 31
0.0
 12
219.242
 22
254.568
 32
0.0
 13
219.242
 23
254.568
 33
0.0
  0
SOLID
  5
22E
330
22A
100
AcDbEntity
  8
0
  6
Continuous
 62
     7
370
    18
100
AcDbTrace
 10
208.94
 20
254.06
 30
0.0
 11
205.638
 21
254.568
 31
0.0
 12
205.638
 22
253.552
 32
0.0
 13
205.638
 23
253.552
 33
0.0
  0
LINE
  5
22F
330
22A
100
AcDbEntity
  8
0
  6
Continuous
 62
     7
370
     0
100
AcDbLine
 10
215.94
 20
209.8050170627
 30
0.0
 11
215.94
 21
255.06
 31
0.0
  0
LINE
  5
230
330
22A
100
AcDbEntity
  8
0
  6
Continuous
 62
     7
370
     0
100
AcDbLine
 10
208.94
 20
242.8050170627
 30
0.0
 11
208.94
 21
255.06
 31
0.0
  0
LINE
  5
231
330
22A
100
AcDbEntity
  8
0
  6
Continuous
 62
     7
370
     0
100
AcDbLine
 10
215.94
 20
254.06
 30
0.0
 11
222.29
 21
254.06
 31
0.0
  0
LINE
  5
232
330
22A
100
AcDbEntity
  8
0
  6
Continuous
 62
     7
370
     0
100
AcDbLine
 10
215.94
 20
254.06
 30
0.0
 11
208.94
 21
254.06
 31
0.0
  0
LINE
  5
233
330
22A
100
AcDbEntity
  8
0
  6
Continuous
 62
     7
370
     0
100
AcDbLine
 10
208.94
 20
254.06
 30
0.0
 11
202.59
 21
254.06
 31
0.0
  0
MTEXT
  5
234
330
22A
100
AcDbEntity
  8
0
  6
Continuous
 62
     7
370
    18
100
AcDbMText
 10
211.1469444032
 20
258.5717369146
 30
0.0
 40
3.5
 41
0.0
 71
     1
 72
     1
  1
7
  7
SLDTEXTSTYLE0
 73
     1
 44
1.0
  0
ENDBLK
  5
22C
330
22A
100
AcDbEntity
  8
0
100
AcDbBlockEnd
  0
BLOCK
  5
238
330
237
100
AcDbEntity
  8
0
100
AcDbBlockBegin
  2
_D_4
 70
     0
 10
0.0
 20
0.0
 30
0.0
  3
_D_4
  1

  0
SOLID
  5
23A
330
237
100
AcDbEntity
  8
0
  6
Continuous
 62
     7
370
    18
100
AcDbTrace
 10
234.94
 20
182.8050170627
 30
0.0
 11
235.448
 21
186.1070170627
 31
0.0
 12
234.432
 22
186.1070170627
 32
0.0
 13
234.432
 23
186.1070170627
 33
0.0
  0
SOLID
  5
23B
330
237
100
AcDbEntity
  8
0
  6
Continuous
 62
     7
370
    18
100
AcDbTrace
 10
234.94
 20
210.8050170627
 30
0.0
 11
234.432
 21
207.5030170627
 31
0.0
 12
235.448
 22
207.5030170627
 32
0.0
 13
235.448
 23
207.5030170627
 33
0.0
  0
LINE
  5
23C
330
237
100
AcDbEntity
  8
0
  6
Continuous
 62
     7
370
     0
100
AcDbLine
 10
208.44
 20
182.8050170627
 30
0.0
 11
235.94
 21
182.8050170627
 31
0.0
  0
LINE
  5
23D
330
237
100
AcDbEntity
  8
0
  6
Continuous
 62
     7
370
     0
100
AcDbLine
 10
208.44
 20
210.8050170627
 30
0.0
 11
235.94
 21
210.8050170627
 31
0.0
  0
LINE
  5
23E
330
237
100
AcDbEntity
  8
0
  6
Continuous
 62
     7
370
     0
100
AcDbLine
 10
234.94
 20
182.8050170627
 30
0.0
 11
234.94
 21
210.8050170627
 31
0.0
  0
MTEXT
  5
23F
330
237
100
AcDbEntity
  8
0
  6
Continuous
 62
     7
370
    18
100
AcDbMText
 10
230.4282629108
 20
191.5796869372
 30
0.0
 40
3.5
 41
0.0
 71
     1
 72
     1
  1
%%c
  7
SLDTEXTSTYLE0
 11
6.123233995736766E-17
 21
1.0
 31
0.0
 73
     1
 44
1.0
  0
MTEXT
  5
240
330
237
100
AcDbEntity
  8
0
  6
Continuous
 62
     7
370
    18
100
AcDbMText
 10
230.3747907341
 20
196.8581243355
 30
0.0
 40
3.5
 41
0.0
 71
     1
 72
     1
  1
28
  7
SLDTEXTSTYLE0
 11
6.123233995736766E-17
 21
1.0
 31
0.0
 73
     1
 44
1.0
  0
ENDBLK
  5
239
330
237
100
AcDbEntity
  8
0
100
AcDbBlockEnd
  0
BLOCK
  5
2CC
330
2CB
100
AcDbEntity
  8
0
100
AcDbBlockBegin
  2
_D_5
 70
     0
 10
0.0
 20
0.0
 30
0.0
  3
_D_5
  1

  0
SOLID
  5
2CE
330
2CB
100
AcDbEntity
  8
0
  6
Continuous
 62
     7
370
    18
100
AcDbTrace
 10
69.1893827029
 20
-2.5697585326
 30
0.0
 11
72.4913827029
 21
-3.0777585326
 31
0.0
 12
72.4913827029
 22
-2.0617585326
 32
0.0
 13
72.4913827029
 23
-2.0617585326
 33
0.0
  0
SOLID
  5
2CF
330
2CB
100
AcDbEntity
  8
0
  6
Continuous
 62
     7
370
    18
100
AcDbTrace
 10
159.1893827029
 20
-2.5697585326
 30
0.0
 11
155.8873827029
 21
-2.0617585326
 31
0.0
 12
155.8873827029
 22
-3.0777585326
 32
0.0
 13
155.8873827029
 23
-3.0777585326
 33
0.0
  0
LINE
  5
2D0
330
2CB
100
AcDbEntity
  8
0
  6
Continuous
 62
     7
370
     0
100
AcDbLine
 10
69.1893827029
 20
21.3050170627
 30
0.0
 11
69.1893827029
 21
-3.5697585326
 31
0.0
  0
LINE
  5
2D1
330
2CB
100
AcDbEntity
  8
0
  6
Continuous
 62
     7
370
     0
100
AcDbLine
 10
159.1893827029
 20
21.3050170627
 30
0.0
 11
159.1893827029
 21
-3.5697585326
 31
0.0
  0
LINE
  5
2D2
330
2CB
100
AcDbEntity
  8
0
  6
Continuous
 62
     7
370
     0
100
AcDbLine
 10
69.1893827029
 20
-2.5697585326
 30
0.0
 11
159.1893827029
 21
-2.5697585326
 31
0.0
  0
MTEXT
  5
2D3
330
2CB
100
AcDbEntity
  8
0
  6
Continuous
 62
     7
370
    18
100
AcDbMText
 10
112.3771553297
 20
1.9419783819
 30
0.0
 40
3.5
 41
0.0
 71
     1
 72
     1
  1
90
  7
SLDTEXTSTYLE0
 73
     1
 44
1.0
  0
ENDBLK
  5
2CD
330
2CB
100
AcDbEntity
  8
0
100
AcDbBlockEnd
  0
BLOCK
  5
2D6
330
2D5
100
AcDbEntity
  8
0
100
AcDbBlockBegin
  2
_D_6
 70
     0
 10
0.0
 20
0.0
 30
0.0
  3
_D_6
  1

  0
SOLID
  5
2D8
330
2D5
100
AcDbEntity
  8
0
  6
Continuous
 62
     7
370
    18
100
AcDbTrace
 10
43.7844107485
 20
21.8050170627
 30
0.0
 11
44.2924107485
 21
25.1070170627
 31
0.0
 12
43.2764107485
 22
25.1070170627
 32
0.0
 13
43.2764107485
 23
25.1070170627
 33
0.0
  0
SOLID
  5
2D9
330
2D5
100
AcDbEntity
  8
0
  6
Continuous
 62
     7
370
    18
100
AcDbTrace
 10
43.7844107485
 20
111.8050170627
 30
0.0
 11
43.2764107485
 21
108.5030170627
 31
0.0
 12
44.2924107485
 22
108.5030170627
 32
0.0
 13
44.2924107485
 23
108.5030170627
 33
0.0
  0
LINE
  5
2DA
330
2D5
100
AcDbEntity
  8
0
  6
Continuous
 62
     7
370
     0
100
AcDbLine
 10
68.6893827029
 20
21.8050170627
 30
0.0
 11
42.7844107485
 21
21.8050170627
 31
0.0
  0
LINE
  5
2DB
330
2D5
100
AcDbEntity
  8
0
  6
Continuous
 62
     7
370
     0
100
AcDbLine
 10
68.6893827029
 20
111.8050170627
 30
0.0
 11
42.7844107485
 21
111.8050170627
 31
0.0
  0
LINE
  5
2DC
330
2D5
100
AcDbEntity
  8
0
  6
Continuous
 62
     7
370
     0
100
AcDbLine
 10
43.7844107485
 20
21.8050170627
 30
0.0
 11
43.7844107485
 21
111.8050170627
 31
0.0
  0
MTEXT
  5
2DD
330
2D5
100
AcDbEntity
  8
0
  6
Continuous
 62
     7
370
    18
100
AcDbMText
 10
39.2726738339
 20
64.7726956003
 30
0.0
 40
3.5
 41
0.0
 71
     1
 72
     1
  1
90
  7
SLDTEXTSTYLE0
 11
-1.608122649676637E-16
 21
1.0
 31
0.0
 73
     1
 44
1.0
  0
ENDBLK
  5
2D7
330
2D5
100
AcDbEntity
  8
0
100
AcDbBlockEnd
  0
BLOCK
  5
2E1
330
2E0
100
AcDbEntity
  8
0
100
AcDbBlockBegin
  2
_D_7
 70
     0
 10
0.0
 20
0.0
 30
0.0
  3
_D_7
  1

  0
SOLID
  5
2E3
330
2E0
100
AcDbEntity
  8
0
  6
Continuous
 62
     7
370
    18
100
AcDbTrace
 10
55.7844107485
 20
34.6550170627
 30
0.0
 11
56.2924107485
 21
37.9570170627
 31
0.0
 12
55.2764107485
 22
37.9570170627
 32
0.0
 13
55.2764107485
 23
37.9570170627
 33
0.0
  0
SOLID
  5
2E4
330
2E0
100
AcDbEntity
  8
0
  6
Continuous
 62
     7
370
    18
100
AcDbTrace
 10
55.7844107485
 20
98.9550170627
 30
0.0
 11
55.2764107485
 21
95.6530170627
 31
0.0
 12
56.2924107485
 22
95.6530170627
 32
0.0
 13
56.2924107485
 23
95.6530170627
 33
0.0
  0
LINE
  5
2E5
330
2E0
100
AcDbEntity
  8
0
  6
Continuous
 62
     7
370
     0
100
AcDbLine
 10
72.5393827029
 20
34.6550170627
 30
0.0
 11
54.7844107485
 21
34.6550170627
 31
0.0
  0
LINE
  5
2E6
330
2E0
100
AcDbEntity
  8
0
  6
Continuous
 62
     7
370
     0
100
AcDbLine
 10
72.5393827029
 20
98.9550170627
 30
0.0
 11
54.7844107485
 21
98.9550170627
 31
0.0
  0
LINE
  5
2E7
330
2E0
100
AcDbEntity
  8
0
  6
Continuous
 62
     7
370
     0
100
AcDbLine
 10
55.7844107485
 20
34.6550170627
 30
0.0
 11
55.7844107485
 21
98.9550170627
 31
0.0
  0
MTEXT
  5
2E8
330
2E0
100
AcDbEntity
  8
0
  6
Continuous
 62
     7
370
    18
100
AcDbMText
 10
51.2726738339
 20
61.3825438802
 30
0.0
 40
3.5
 41
0.0
 71
     1
 72
     1
  1
64,3
  7
SLDTEXTSTYLE0
 11
6.123233995736766E-17
 21
1.0
 31
0.0
 73
     1
 44
1.0
  0
ENDBLK
  5
2E2
330
2E0
100
AcDbEntity
  8
0
100
AcDbBlockEnd
  0
BLOCK
  5
2EB
330
2EA
100
AcDbEntity
  8
0
100
AcDbBlockBegin
  2
_D_8
 70
     0
 10
0.0
 20
0.0
 30
0.0
  3
_D_8
  1

  0
SOLID
  5
2ED
330
2EA
100
AcDbEntity
  8
0
  6
Continuous
 62
     7
370
    18
100
AcDbTrace
 10
170.5135742004
 20
87.8050170627
 30
0.0
 11
170.0055742004
 21
84.5030170627
 31
0.0
 12
171.0215742004
 22
84.5030170627
 32
0.0
 13
171.0215742004
 23
84.5030170627
 33
0.0
  0
SOLID
  5
2EE
330
2EA
100
AcDbEntity
  8
0
  6
Continuous
 62
     7
370
    18
100
AcDbTrace
 10
170.5135742004
 20
45.8050170627
 30
0.0
 11
171.0215742004
 21
49.1070170627
 31
0.0
 12
170.0055742004
 22
49.1070170627
 32
0.0
 13
170.0055742004
 23
49.1070170627
 33
0.0
  0
LINE
  5
2EF
330
2EA
100
AcDbEntity
  8
0
  6
Continuous
 62
     7
370
     0
100
AcDbLine
 10
115.1893827029
 20
87.8050170627
 30
0.0
 11
171.5135742004
 21
87.8050170627
 31
0.0
  0
LINE
  5
2F0
330
2EA
100
AcDbEntity
  8
0
  6
Continuous
 62
     7
370
     0
100
AcDbLine
 10
115.1893827029
 20
45.8050170627
 30
0.0
 11
171.5135742004
 21
45.8050170627
 31
0.0
  0
LINE
  5
2F1
330
2EA
100
AcDbEntity
  8
0
  6
Continuous
 62
     7
370
     0
100
AcDbLine
 10
170.5135742004
 20
87.8050170627
 30
0.0
 11
170.5135742004
 21
45.8050170627
 31
0.0
  0
MTEXT
  5
2F2
330
2EA
100
AcDbEntity
  8
0
  6
Continuous
 62
     7
370
    18
100
AcDbMText
 10
166.0018371112
 20
60.2236961546
 30
0.0
 40
3.5
 41
0.0
 71
     1
 72
     1
  1
%%c
  7
SLDTEXTSTYLE0
 11
-7.044195017643634E-15
 21
1.0
 31
0.0
 73
     1
 44
1.0
  0
MTEXT
  5
2F3
330
2EA
100
AcDbEntity
  8
0
  6
Continuous
 62
     7
370
    18
100
AcDbMText
 10
165.9483649345
 20
65.5021335529
 30
0.0
 40
3.5
 41
0.0
 71
     1
 72
     1
  1
42
  7
SLDTEXTSTYLE0
 11
-7.044195017643634E-15
 21
1.0
 31
0.0
 73
     1
 44
1.0
  0
ENDBLK
  5
2EC
330
2EA
100
AcDbEntity
  8
0
100
AcDbBlockEnd
  0
BLOCK
  5
2F6
330
2F5
100
AcDbEntity
  8
0
100
AcDbBlockBegin
  2
_D_9
 70
     0
 10
0.0
 20
0.0
 30
0.0
  3
_D_9
  1

  0
SOLID
  5
2F8
330
2F5
100
AcDbEntity
  8
0
  6
Continuous
 62
     7
370
    18
100
AcDbTrace
 10
82.0393827029
 20
9.5500341254
 30
0.0
 11
85.3413827029
 21
9.0420341254
 31
0.0
 12
85.3413827029
 22
10.0580341254
 32
0.0
 13
85.3413827029
 23
10.0580341254
 33
0.0
  0
SOLID
  5
2F9
330
2F5
100
AcDbEntity
  8
0
  6
Continuous
 62
     7
370
    18
100
AcDbTrace
 10
146.3393827029
 20
9.5500341254
 30
0.0
 11
143.0373827029
 21
10.0580341254
 31
0.0
 12
143.0373827029
 22
9.0420341254
 32
0.0
 13
143.0373827029
 23
9.0420341254
 33
0.0
  0
LINE
  5
2FA
330
2F5
100
AcDbEntity
  8
0
  6
Continuous
 62
     7
370
     0
100
AcDbLine
 10
82.0393827029
 20
25.1550170627
 30
0.0
 11
82.0393827029
 21
8.5500341254
 31
0.0
  0
LINE
  5
2FB
330
2F5
100
AcDbEntity
  8
0
  6
Continuous
 62
     7
370
     0
100
AcDbLine
 10
146.3393827029
 20
24.6550170627
 30
0.0
 11
146.3393827029
 21
8.5500341254
 31
0.0
  0
LINE
  5
2FC
330
2F5
100
AcDbEntity
  8
0
  6
Continuous
 62
     7
370
     0
100
AcDbLine
 10
82.0393827029
 20
9.5500341254
 30
0.0
 11
146.3393827029
 21
9.5500341254
 31
0.0
  0
MTEXT
  5
2FD
330
2F5
100
AcDbEntity
  8
0
  6
Continuous
 62
     7
370
    18
100
AcDbMText
 10
108.3706324592
 20
14.06177104
 30
0.0
 40
3.5
 41
0.0
 71
     1
 72
     1
  1
64,30
  7
SLDTEXTSTYLE0
 73
     1
 44
1.0
  0
ENDBLK
  5
2F7
330
2F5
100
AcDbEntity
  8
0
100
AcDbBlockEnd
  0
BLOCK
  5
301
330
300
100
AcDbEntity
  8
0
100
AcDbBlockBegin
  2
_None
 70
     0
 10
0.0
 20
0.0
 30
0.0
  3
_None
  1

  0
ENDBLK
  5
302
330
300
100
AcDbEntity
  8
0
100
AcDbBlockEnd
  0
BLOCK
  5
304
330
303
100
AcDbEntity
  8
0
100
AcDbBlockBegin
  2
_D_10
 70
     0
 10
0.0
 20
0.0
 30
0.0
  3
_D_10
  1

  0
SOLID
  5
306
330
303
100
AcDbEntity
  8
0
  6
Continuous
 62
     7
370
    18
100
AcDbTrace
 10
119.1075724778
 20
74.9912194385
 30
0.0
 11
121.2435361892
 21
77.560057118
 31
0.0
 12
120.3726271197
 22
78.0832907108
 32
0.0
 13
120.3726271197
 23
78.0832907108
 33
0.0
  0
LINE
  5
307
330
303
100
AcDbEntity
  8
0
  6
Continuous
 62
     7
370
     0
100
AcDbLine
 10
119.1075724778
 20
74.9912194385
 30
0.0
 11
153.2355784802
 21
131.7964214745
 31
0.0
  0
LINE
  5
308
330
303
100
AcDbEntity
  8
0
  6
Continuous
 62
     7
370
     0
100
AcDbLine
 10
119.1075724778
 20
74.9912194385
 30
0.0
 11
109.2711929279
 21
58.6188146869
 31
0.0
  0
MTEXT
  5
309
330
303
100
AcDbEntity
  8
0
  6
Continuous
 62
     7
370
    18
100
AcDbMText
 10
140.0148399816
 20
118.5469383432
 30
0.0
 40
3.5
 41
0.0
 71
     1
 72
     1
  1
M20x1.5
  7
SLDTEXTSTYLE0
 11
0.5149936937121976
 21
0.857193966052414
 31
0.0
 73
     1
 44
1.0
  0
ENDBLK
  5
305
330
303
100
AcDbEntity
  8
0
100
AcDbBlockEnd
  0
BLOCK
  5
30B
330
30A
100
AcDbEntity
  8
0
100
AcDbBlockBegin
  2
SW_CENTERMARKSYMBOL_0
 70
     0
 10
0.0
 20
0.0
 30
0.0
  3
SW_CENTERMARKSYMBOL_0
  1

  0
LINE
  5
30D
330
30A
100
AcDbEntity
  8
0
  6
Continuous
 62
     0
370
    18
100
AcDbLine
 10
0.0
 20
0.0
 30
0.0
 11
0.0
 21
2.5
 31
0.0
  0
LINE
  5
30E
330
30A
100
AcDbEntity
  8
0
  6
Continuous
 62
     0
370
    18
100
AcDbLine
 10
0.0
 20
0.0
 30
0.0
 11
-2.5
 21
0.0
 31
0.0
  0
LINE
  5
30F
330
30A
100
AcDbEntity
  8
0
  6
Continuous
 62
     0
370
    18
100
AcDbLine
 10
0.0
 20
0.0
 30
0.0
 11
0.0
 21
-2.5
 31
0.0
  0
LINE
  5
310
330
30A
100
AcDbEntity
  8
0
  6
Continuous
 62
     0
370
    18
100
AcDbLine
 10
0.0
 20
0.0
 30
0.0
 11
2.5
 21
0.0
 31
0.0
  0
LINE
  5
311
330
30A
100
AcDbEntity
  8
0
  6
Continuous
 62
     0
370
    18
100
AcDbLine
 10
0.0
 20
5.0
 30
0.0
 11
0.0
 21
9.0
 31
0.0
  0
LINE
  5
312
330
30A
100
AcDbEntity
  8
0
  6
Continuous
 62
     0
370
    18
100
AcDbLine
 10
-5.0
 20
0.0
 30
0.0
 11
-9.0
 21
0.0
 31
0.0
  0
LINE
  5
313
330
30A
100
AcDbEntity
  8
0
  6
Continuous
 62
     0
370
    18
100
AcDbLine
 10
0.0
 20
-5.0
 30
0.0
 11
0.0
 21
-9.0
 31
0.0
  0
LINE
  5
314
330
30A
100
AcDbEntity
  8
0
  6
Continuous
 62
     0
370
    18
100
AcDbLine
 10
5.0
 20
0.0
 30
0.0
 11
9.0
 21
0.0
 31
0.0
  0
ENDBLK
  5
30C
330
30A
100
AcDbEntity
  8
0
100
AcDbBlockEnd
  0
BLOCK
  5
317
330
316
100
AcDbEntity
  8
0
100
AcDbBlockBegin
  2
SW_CENTERMARKSYMBOL_1
 70
     0
 10
0.0
 20
0.0
 30
0.0
  3
SW_CENTERMARKSYMBOL_1
  1

  0
LINE
  5
319
330
316
100
AcDbEntity
  8
0
  6
Continuous
 62
     0
370
    18
100
AcDbLine
 10
0.0
 20
0.0
 30
0.0
 11
0.0
 21
2.5
 31
0.0
  0
LINE
  5
31A
330
316
100
AcDbEntity
  8
0
  6
Continuous
 62
     0
370
    18
100
AcDbLine
 10
0.0
 20
0.0
 30
0.0
 11
-2.5
 21
0.0
 31
0.0
  0
LINE
  5
31B
330
316
100
AcDbEntity
  8
0
  6
Continuous
 62
     0
370
    18
100
AcDbLine
 10
0.0
 20
0.0
 30
0.0
 11
0.0
 21
-2.5
 31
0.0
  0
LINE
  5
31C
330
316
100
AcDbEntity
  8
0
  6
Continuous
 62
     0
370
    18
100
AcDbLine
 10
0.0
 20
0.0
 30
0.0
 11
2.5
 21
0.0
 31
0.0
  0
LINE
  5
31D
330
316
100
AcDbEntity
  8
0
  6
Continuous
 62
     0
370
    18
100
AcDbLine
 10
0.0
 20
5.0
 30
0.0
 11
0.0
 21
34.0
 31
0.0
  0
LINE
  5
31E
330
316
100
AcDbEntity
  8
0
  6
Continuous
 62
     0
370
    18
100
AcDbLine
 10
-5.0
 20
0.0
 30
0.0
 11
-34.0
 21
0.0
 31
0.0
  0
LINE
  5
31F
330
316
100
AcDbEntity
  8
0
  6
Continuous
 62
     0
370
    18
100
AcDbLine
 10
0.0
 20
-5.0
 30
0.0
 11
0.0
 21
-34.0
 31
0.0
  0
LINE
  5
320
330
316
100
AcDbEntity
  8
0
  6
Continuous
 62
     0
370
    18
100
AcDbLine
 10
5.0
 20
0.0
 30
0.0
 11
34.0
 21
0.0
 31
0.0
  0
ENDBLK
  5
318
330
316
100
AcDbEntity
  8
0
100
AcDbBlockEnd
  0
BLOCK
  5
323
330
322
100
AcDbEntity
  8
0
100
AcDbBlockBegin
  2
SW_CENTERMARKSYMBOL_2
 70
     0
 10
0.0
 20
0.0
 30
0.0
  3
SW_CENTERMARKSYMBOL_2
  1

  0
LINE
  5
325
330
322
100
AcDbEntity
  8
0
  6
Continuous
 62
     0
370
    18
100
AcDbLine
 10
0.0
 20
0.0
 30
0.0
 11
0.0
 21
2.5
 31
0.0
  0
LINE
  5
326
330
322
100
AcDbEntity
  8
0
  6
Continuous
 62
     0
370
    18
100
AcDbLine
 10
0.0
 20
0.0
 30
0.0
 11
-2.5
 21
0.0
 31
0.0
  0
LINE
  5
327
330
322
100
AcDbEntity
  8
0
  6
Continuous
 62
     0
370
    18
100
AcDbLine
 10
0.0
 20
0.0
 30
0.0
 11
0.0
 21
-2.5
 31
0.0
  0
LINE
  5
328
330
322
100
AcDbEntity
  8
0
  6
Continuous
 62
     0
370
    18
100
AcDbLine
 10
0.0
 20
0.0
 30
0.0
 11
2.5
 21
0.0
 31
0.0
  0
LINE
  5
329
330
322
100
AcDbEntity
  8
0
  6
Continuous
 62
     0
370
    18
100
AcDbLine
 10
0.0
 20
5.0
 30
0.0
 11
0.0
 21
8.5
 31
0.0
  0
LINE
  5
32A
330
322
100
AcDbEntity
  8
0
  6
Continuous
 62
     0
370
    18
100
AcDbLine
 10
-5.0
 20
0.0
 30
0.0
 11
-8.5
 21
0.0
 31
0.0
  0
LINE
  5
32B
330
322
100
AcDbEntity
  8
0
  6
Continuous
 62
     0
370
    18
100
AcDbLine
 10
0.0
 20
-5.0
 30
0.0
 11
0.0
 21
-8.5
 31
0.0
  0
LINE
  5
32C
330
322
100
AcDbEntity
  8
0
  6
Continuous
 62
     0
370
    18
100
AcDbLine
 10
5.0
 20
0.0
 30
0.0
 11
8.5
 21
0.0
 31
0.0
  0
ENDBLK
  5
324
330
322
100
AcDbEntity
  8
0
100
AcDbBlockEnd
  0
BLOCK
  5
32F
330
32E
100
AcDbEntity
  8
0
100
AcDbBlockBegin
  2
SW_CENTERMARKSYMBOL_3
 70
     0
 10
0.0
 20
0.0
 30
0.0
  3
SW_CENTERMARKSYMBOL_3
  1

  0
LINE
  5
331
330
32E
100
AcDbEntity
  8
0
  6
Continuous
 62
     0
370
    18
100
AcDbLine
 10
0.0
 20
0.0
 30
0.0
 11
0.0
 21
2.5
 31
0.0
  0
LINE
  5
332
330
32E
100
AcDbEntity
  8
0
  6
Continuous
 62
     0
370
    18
100
AcDbLine
 10
0.0
 20
0.0
 30
0.0
 11
-2.5
 21
0.0
 31
0.0
  0
LINE
  5
333
330
32E
100
AcDbEntity
  8
0
  6
Continuous
 62
     0
370
    18
100
AcDbLine
 10
0.0
 20
0.0
 30
0.0
 11
0.0
 21
-2.5
 31
0.0
  0
LINE
  5
334
330
32E
100
AcDbEntity
  8
0
  6
Continuous
 62
     0
370
    18
100
AcDbLine
 10
0.0
 20
0.0
 30
0.0
 11
2.5
 21
0.0
 31
0.0
  0
LINE
  5
335
330
32E
100
AcDbEntity
  8
0
  6
Continuous
 62
     0
370
    18
100
AcDbLine
 10
0.0
 20
5.0
 30
0.0
 11
0.0
 21
8.5
 31
0.0
  0
LINE
  5
336
330
32E
100
AcDbEntity
  8
0
  6
Continuous
 62
     0
370
    18
100
AcDbLine
 10
-5.0
 20
0.0
 30
0.0
 11
-8.5
 21
0.0
 31
0.0
  0
LINE
  5
337
330
32E
100
AcDbEntity
  8
0
  6
Continuous
 62
     0
370
    18
100
AcDbLine
 10
0.0
 20
-5.0
 30
0.0
 11
0.0
 21
-8.5
 31
0.0
  0
LINE
  5
338
330
32E
100
AcDbEntity
  8
0
  6
Continuous
 62
     0
370
    18
100
AcDbLine
 10
5.0
 20
0.0
 30
0.0
 11
8.5
 21
0.0
 31
0.0
  0
ENDBLK
  5
330
330
32E
100
AcDbEntity
  8
0
100
AcDbBlockEnd
  0
BLOCK
  5
33B
330
33A
100
AcDbEntity
  8
0
100
AcDbBlockBegin
  2
SW_CENTERMARKSYMBOL_4
 70
     0
 10
0.0
 20
0.0
 30
0.0
  3
SW_CENTERMARKSYMBOL_4
  1

  0
LINE
  5
33D
330
33A
100
AcDbEntity
  8
0
  6
Continuous
 62
     0
370
    18
100
AcDbLine
 10
0.0
 20
0.0
 30
0.0
 11
0.0
 21
2.5
 31
0.0
  0
LINE
  5
33E
330
33A
100
AcDbEntity
  8
0
  6
Continuous
 62
     0
370
    18
100
AcDbLine
 10
0.0
 20
0.0
 30
0.0
 11
-2.5
 21
0.0
 31
0.0
  0
LINE
  5
33F
330
33A
100
AcDbEntity
  8
0
  6
Continuous
 62
     0
370
    18
100
AcDbLine
 10
0.0
 20
0.0
 30
0.0
 11
0.0
 21
-2.5
 31
0.0
  0
LINE
  5
340
330
33A
100
AcDbEntity
  8
0
  6
Continuous
 62
     0
370
    18
100
AcDbLine
 10
0.0
 20
0.0
 30
0.0
 11
2.5
 21
0.0
 31
0.0
  0
LINE
  5
341
330
33A
100
AcDbEntity
  8
0
  6
Continuous
 62
     0
370
    18
100
AcDbLine
 10
0.0
 20
5.0
 30
0.0
 11
0.0
 21
9.0
 31
0.0
  0
LINE
  5
342
330
33A
100
AcDbEntity
  8
0
  6
Continuous
 62
     0
370
    18
100
AcDbLine
 10
-5.0
 20
0.0
 30
0.0
 11
-9.0
 21
0.0
 31
0.0
  0
LINE
  5
343
330
33A
100
AcDbEntity
  8
0
  6
Continuous
 62
     0
370
    18
100
AcDbLine
 10
0.0
 20
-5.0
 30
0.0
 11
0.0
 21
-9.0
 31
0.0
  0
LINE
  5
344
330
33A
100
AcDbEntity
  8
0
  6
Continuous
 62
     0
370
    18
100
AcDbLine
 10
5.0
 20
0.0
 30
0.0
 11
9.0
 21
0.0
 31
0.0
  0
ENDBLK
  5
33C
330
33A
100
AcDbEntity
  8
0
100
AcDbBlockEnd
  0
ENDSEC
  0
SECTION
  2
ENTITIES
  0
LINE
  5
74
330
1F
100
AcDbEntity
  8
0
  6
Continuous
 62
     7
370
    50
100
AcDbLine
 10
230.0
 20
14.25
 30
0.0
 11
410.0
 21
14.25
 31
0.0
  0
LINE
  5
75
330
1F
100
AcDbEntity
  8
0
  6
Continuous
 62
     7
370
    50
100
AcDbLine
 10
410.0
 20
48.25
 30
0.0
 11
230.0
 21
48.25
 31
0.0
  0
LINE
  5
76
330
1F
100
AcDbEntity
  8
0
  6
Continuous
 62
     7
370
    50
100
AcDbLine
 10
230.0
 20
65.25
 30
0.0
 11
410.0
 21
65.25
 31
0.0
  0
LINE
  5
77
330
1F
100
AcDbEntity
  8
0
  6
Continuous
 62
     7
370
    50
100
AcDbLine
 10
256.9909524338
 20
48.25
 30
0.0
 11
256.9909524338
 21
10.0
 31
0.0
  0
LINE
  5
78
330
1F
100
AcDbEntity
  8
0
  6
Continuous
 62
     7
370
    50
100
AcDbLine
 10
328.8
 20
31.25
 30
0.0
 11
230.0
 21
31.25
 31
0.0
  0
LINE
  5
79
330
1F
100
AcDbEntity
  8
0
  6
Continuous
 62
     7
370
    50
100
AcDbLine
 10
328.8
 20
35.5
 30
0.0
 11
230.0
 21
35.5
 31
0.0
  0
LINE
  5
7A
330
1F
100
AcDbEntity
  8
0
  6
Continuous
 62
     7
370
    50
100
AcDbLine
 10
328.8
 20
39.75
 30
0.0
 11
230.0
 21
39.75
 31
0.0
  0
LINE
  5
7B
330
1F
100
AcDbEntity
  8
0
  6
Continuous
 62
     7
370
    50
100
AcDbLine
 10
328.8
 20
44.0
 30
0.0
 11
230.0
 21
44.0
 31
0.0
  0
LINE
  5
7C
330
1F
100
AcDbEntity
  8
0
  6
Continuous
 62
     7
370
    50
100
AcDbLine
 10
284.6
 20
10.0
 30
0.0
 11
284.6
 21
48.25
 31
0.0
  0
LINE
  5
7D
330
1F
100
AcDbEntity
  8
0
  6
Continuous
 62
     7
370
    50
100
AcDbLine
 10
230.0
 20
65.25
 30
0.0
 11
230.0
 21
10.0
 31
0.0
  0
LINE
  5
7E
330
1F
100
AcDbEntity
  8
0
  6
Continuous
 62
     7
370
    50
100
AcDbLine
 10
242.0703737145
 20
48.25
 30
0.0
 11
242.0703737145
 21
10.0
 31
0.0
  0
LINE
  5
7F
330
1F
100
AcDbEntity
  8
0
  6
Continuous
 62
     7
370
    50
100
AcDbLine
 10
263.8
 20
48.25
 30
0.0
 11
263.8
 21
65.25
 31
0.0
  0
LINE
  5
80
330
1F
100
AcDbEntity
  8
0
  6
Continuous
 62
     7
370
    50
100
AcDbLine
 10
274.3989261635
 20
48.25
 30
0.0
 11
274.3989261635
 21
10.0
 31
0.0
  0
LINE
  5
81
330
1F
100
AcDbEntity
  8
0
  6
Continuous
 62
     7
370
    50
100
AcDbLine
 10
295.0
 20
31.25
 30
0.0
 11
295.0
 21
48.25
 31
0.0
  0
LINE
  5
82
330
1F
100
AcDbEntity
  8
0
  6
Continuous
 62
     7
370
    50
100
AcDbLine
 10
284.6
 20
18.5
 30
0.0
 11
230.0
 21
18.5
 31
0.0
  0
LINE
  5
83
330
1F
100
AcDbEntity
  8
0
  6
Continuous
 62
     7
370
    50
100
AcDbLine
 10
310.6
 20
65.25
 30
0.0
 11
310.6
 21
27.0
 31
0.0
  0
LINE
  5
84
330
1F
100
AcDbEntity
  8
0
  6
Continuous
 62
     7
370
    50
100
AcDbLine
 10
284.6
 20
22.749928
 30
0.0
 11
230.0
 21
22.749928
 31
0.0
  0
LINE
  5
85
330
1F
100
AcDbEntity
  8
0
  6
Continuous
 62
     7
370
    50
100
AcDbLine
 10
284.6
 20
27.0
 30
0.0
 11
230.0
 21
27.0
 31
0.0
  0
LINE
  5
86
330
1F
100
AcDbEntity
  8
0
  6
Continuous
 62
     7
370
    50
100
AcDbLine
 10
284.6
 20
27.0
 30
0.0
 11
410.0
 21
27.0
 31
0.0
  0
LINE
  5
87
330
1F
100
AcDbEntity
  8
0
  6
Continuous
 62
     7
370
    50
100
AcDbLine
 10
328.8
 20
65.25
 30
0.0
 11
328.8
 21
10.0
 31
0.0
  0
LINE
  5
88
330
1F
100
AcDbEntity
  8
0
  6
Continuous
 62
     7
370
    50
100
AcDbLine
 10
373.0
 20
10.0
 30
0.0
 11
373.0
 21
14.25
 31
0.0
  0
LINE
  5
89
330
1F
100
AcDbEntity
  8
0
  6
Continuous
 62
     7
370
    50
100
AcDbLine
 10
380.8
 20
58.875
 30
0.0
 11
380.8
 21
65.25
 31
0.0
  0
LINE
  5
8A
330
1F
100
AcDbEntity
  8
0
  6
Continuous
 62
     7
370
    50
100
AcDbLine
 10
397.0
 20
14.25
 30
0.0
 11
397.0
 21
27.0
 31
0.0
  0
LINE
  5
8B
330
1F
100
AcDbEntity
  8
0
  6
Continuous
 62
     7
370
    50
100
AcDbLine
 10
410.0
 20
58.875
 30
0.0
 11
328.8
 21
58.875
 31
0.0
  0
LINE
  5
8C
330
1F
100
AcDbEntity
  8
0
  6
Continuous
 62
     7
370
    50
100
AcDbLine
 10
410.0
 20
18.5
 30
0.0
 11
397.0
 21
18.5
 31
0.0
  0
LINE
  5
8D
330
1F
100
AcDbEntity
  8
0
  6
Continuous
 62
     7
370
    70
100
AcDbLine
 10
20.0
 20
10.0
 30
0.0
 11
20.0
 21
287.0
 31
0.0
  0
LINE
  5
8E
330
1F
100
AcDbEntity
  8
0
  6
Continuous
 62
     7
370
    70
100
AcDbLine
 10
20.0
 20
287.0
 30
0.0
 11
410.0
 21
287.0
 31
0.0
  0
LINE
  5
8F
330
1F
100
AcDbEntity
  8
0
  6
Continuous
 62
     7
370
    70
100
AcDbLine
 10
410.0
 20
287.0
 30
0.0
 11
410.0
 21
10.0
 31
0.0
  0
LINE
  5
90
330
1F
100
AcDbEntity
  8
0
  6
Continuous
 62
     7
370
    70
100
AcDbLine
 10
410.0
 20
10.0
 30
0.0
 11
20.0
 21
10.0
 31
0.0
  0
LINE
  5
91
330
1F
100
AcDbEntity
  8
0
  6
Continuous
 62
     7
370
    70
100
AcDbLine
 10
15.0
 20
5.0
 30
0.0
 11
15.0
 21
292.0
 31
0.0
  0
LINE
  5
92
330
1F
100
AcDbEntity
  8
0
  6
Continuous
 62
     7
370
    70
100
AcDbLine
 10
15.0
 20
292.0
 30
0.0
 11
415.0
 21
292.0
 31
0.0
  0
LINE
  5
93
330
1F
100
AcDbEntity
  8
0
  6
Continuous
 62
     7
370
    70
100
AcDbLine
 10
415.0
 20
292.0
 30
0.0
 11
415.0
 21
5.0
 31
0.0
  0
LINE
  5
94
330
1F
100
AcDbEntity
  8
0
  6
Continuous
 62
     7
370
    70
100
AcDbLine
 10
415.0
 20
5.0
 30
0.0
 11
15.0
 21
5.0
 31
0.0
  0
LINE
  5
95
330
1F
100
AcDbEntity
  8
0
  6
Continuous
 62
     7
370
    35
100
AcDbLine
 10
15.0
 20
148.5
 30
0.0
 11
25.0
 21
148.5
 31
0.0
  0
LINE
  5
96
330
1F
100
AcDbEntity
  8
0
  6
Continuous
 62
     7
370
    35
100
AcDbLine
 10
215.0
 20
292.0
 30
0.0
 11
215.0
 21
282.0
 31
0.0
  0
LINE
  5
97
330
1F
100
AcDbEntity
  8
0
  6
Continuous
 62
     7
370
    35
100
AcDbLine
 10
415.0
 20
148.5
 30
0.0
 11
405.0
 21
148.5
 31
0.0
  0
LINE
  5
98
330
1F
100
AcDbEntity
  8
0
  6
Continuous
 62
     7
370
    35
100
AcDbLine
 10
215.0
 20
5.0
 30
0.0
 11
215.0
 21
15.0
 31
0.0
  0
LINE
  5
99
330
1F
100
AcDbEntity
  8
0
  6
Continuous
 62
     7
370
    35
100
AcDbLine
 10
20.0
 20
48.5
 30
0.0
 11
15.0
 21
48.5
 31
0.0
  0
LINE
  5
9A
330
1F
100
AcDbEntity
  8
0
  6
Continuous
 62
     7
370
    35
100
AcDbLine
 10
410.0
 20
48.5
 30
0.0
 11
415.0
 21
48.5
 31
0.0
  0
LINE
  5
9B
330
1F
100
AcDbEntity
  8
0
  6
Continuous
 62
     7
370
    35
100
AcDbLine
 10
20.0
 20
98.5
 30
0.0
 11
15.0
 21
98.5
 31
0.0
  0
LINE
  5
9C
330
1F
100
AcDbEntity
  8
0
  6
Continuous
 62
     7
370
    35
100
AcDbLine
 10
410.0
 20
98.5
 30
0.0
 11
415.0
 21
98.5
 31
0.0
  0
LINE
  5
9D
330
1F
100
AcDbEntity
  8
0
  6
Continuous
 62
     7
370
    35
100
AcDbLine
 10
20.0
 20
148.5
 30
0.0
 11
15.0
 21
148.5
 31
0.0
  0
LINE
  5
9E
330
1F
100
AcDbEntity
  8
0
  6
Continuous
 62
     7
370
    35
100
AcDbLine
 10
410.0
 20
148.5
 30
0.0
 11
415.0
 21
148.5
 31
0.0
  0
LINE
  5
9F
330
1F
100
AcDbEntity
  8
0
  6
Continuous
 62
     7
370
    35
100
AcDbLine
 10
20.0
 20
198.5
 30
0.0
 11
15.0
 21
198.5
 31
0.0
  0
LINE
  5
A0
330
1F
100
AcDbEntity
  8
0
  6
Continuous
 62
     7
370
    35
100
AcDbLine
 10
410.0
 20
198.5
 30
0.0
 11
415.0
 21
198.5
 31
0.0
  0
LINE
  5
A1
330
1F
100
AcDbEntity
  8
0
  6
Continuous
 62
     7
370
    35
100
AcDbLine
 10
20.0
 20
248.5
 30
0.0
 11
15.0
 21
248.5
 31
0.0
  0
LINE
  5
A2
330
1F
100
AcDbEntity
  8
0
  6
Continuous
 62
     7
370
    35
100
AcDbLine
 10
410.0
 20
248.5
 30
0.0
 11
415.0
 21
248.5
 31
0.0
  0
LINE
  5
A3
330
1F
100
AcDbEntity
  8
0
  6
Continuous
 62
     7
370
    35
100
AcDbLine
 10
65.0
 20
287.0
 30
0.0
 11
65.0
 21
292.0
 31
0.0
  0
LINE
  5
A4
330
1F
100
AcDbEntity
  8
0
  6
Continuous
 62
     7
370
    35
100
AcDbLine
 10
65.0
 20
10.0
 30
0.0
 11
65.0
 21
5.0
 31
0.0
  0
LINE
  5
A5
330
1F
100
AcDbEntity
  8
0
  6
Continuous
 62
     7
370
    35
100
AcDbLine
 10
115.0
 20
287.0
 30
0.0
 11
115.0
 21
292.0
 31
0.0
  0
LINE
  5
A6
330
1F
100
AcDbEntity
  8
0
  6
Continuous
 62
     7
370
    35
100
AcDbLine
 10
115.0
 20
10.0
 30
0.0
 11
115.0
 21
5.0
 31
0.0
  0
LINE
  5
A7
330
1F
100
AcDbEntity
  8
0
  6
Continuous
 62
     7
370
    35
100
AcDbLine
 10
165.0
 20
287.0
 30
0.0
 11
165.0
 21
292.0
 31
0.0
  0
LINE
  5
A8
330
1F
100
AcDbEntity
  8
0
  6
Continuous
 62
     7
370
    35
100
AcDbLine
 10
165.0
 20
10.0
 30
0.0
 11
165.0
 21
5.0
 31
0.0
  0
LINE
  5
A9
330
1F
100
AcDbEntity
  8
0
  6
Continuous
 62
     7
370
    35
100
AcDbLine
 10
215.0
 20
287.0
 30
0.0
 11
215.0
 21
292.0
 31
0.0
  0
LINE
  5
AA
330
1F
100
AcDbEntity
  8
0
  6
Continuous
 62
     7
370
    35
100
AcDbLine
 10
215.0
 20
10.0
 30
0.0
 11
215.0
 21
5.0
 31
0.0
  0
LINE
  5
AB
330
1F
100
AcDbEntity
  8
0
  6
Continuous
 62
     7
370
    35
100
AcDbLine
 10
265.0
 20
287.0
 30
0.0
 11
265.0
 21
292.0
 31
0.0
  0
LINE
  5
AC
330
1F
100
AcDbEntity
  8
0
  6
Continuous
 62
     7
370
    35
100
AcDbLine
 10
265.0
 20
10.0
 30
0.0
 11
265.0
 21
5.0
 31
0.0
  0
LINE
  5
AD
330
1F
100
AcDbEntity
  8
0
  6
Continuous
 62
     7
370
    35
100
AcDbLine
 10
315.0
 20
287.0
 30
0.0
 11
315.0
 21
292.0
 31
0.0
  0
LINE
  5
AE
330
1F
100
AcDbEntity
  8
0
  6
Continuous
 62
     7
370
    35
100
AcDbLine
 10
315.0
 20
10.0
 30
0.0
 11
315.0
 21
5.0
 31
0.0
  0
LINE
  5
AF
330
1F
100
AcDbEntity
  8
0
  6
Continuous
 62
     7
370
    35
100
AcDbLine
 10
365.0
 20
287.0
 30
0.0
 11
365.0
 21
292.0
 31
0.0
  0
LINE
  5
B0
330
1F
100
AcDbEntity
  8
0
  6
Continuous
 62
     7
370
    35
100
AcDbLine
 10
365.0
 20
10.0
 30
0.0
 11
365.0
 21
5.0
 31
0.0
  0
MTEXT
  5
B2
330
1F
100
AcDbEntity
  8
0
  6
Continuous
 62
     7
370
     0
100
AcDbMText
 10
17.3396881428
 20
31.167684388
 30
0.0
 40
3.96875
 41
0.0
 71
     2
 72
     1
  1
A
  7
SLDTEXTSTYLE0
 73
     1
 44
1.0
  0
MTEXT
  5
B3
330
1F
100
AcDbEntity
  8
0
  6
Continuous
 62
     7
370
     0
100
AcDbMText
 10
412.3396881428
 20
31.167684388
 30
0.0
 40
3.96875
 41
0.0
 71
     2
 72
     1
  1
A
  7
SLDTEXTSTYLE0
 73
     1
 44
1.0
  0
MTEXT
  5
B4
330
1F
100
AcDbEntity
  8
0
  6
Continuous
 62
     7
370
     0
100
AcDbMText
 10
17.4706018241
 20
75.4739273576
 30
0.0
 40
3.96875
 41
0.0
 71
     2
 72
     1
  1
B
  7
SLDTEXTSTYLE0
 73
     1
 44
1.0
  0
MTEXT
  5
B5
330
1F
100
AcDbEntity
  8
0
  6
Continuous
 62
     7
370
     0
100
AcDbMText
 10
412.4706018241
 20
75.4739273576
 30
0.0
 40
3.96875
 41
0.0
 71
     2
 72
     1
  1
B
  7
SLDTEXTSTYLE0
 73
     1
 44
1.0
  0
MTEXT
  5
B6
330
1F
100
AcDbEntity
  8
0
  6
Continuous
 62
     7
370
     0
100
AcDbMText
 10
17.458658902
 20
125.4739273576
 30
0.0
 40
3.96875
 41
0.0
 71
     2
 72
     1
  1
C
  7
SLDTEXTSTYLE0
 73
     1
 44
1.0
  0
MTEXT
  5
B7
330
1F
100
AcDbEntity
  8
0
  6
Continuous
 62
     7
370
     0
100
AcDbMText
 10
412.458658902
 20
125.4739273576
 30
0.0
 40
3.96875
 41
0.0
 71
     2
 72
     1
  1
C
  7
SLDTEXTSTYLE0
 73
     1
 44
1.0
  0
MTEXT
  5
B8
330
1F
100
AcDbEntity
  8
0
  6
Continuous
 62
     7
370
     0
100
AcDbMText
 10
17.4526872821
 20
175.4739273576
 30
0.0
 40
3.96875
 41
0.0
 71
     2
 72
     1
  1
D
  7
SLDTEXTSTYLE0
 73
     1
 44
1.0
  0
MTEXT
  5
B9
330
1F
100
AcDbEntity
  8
0
  6
Continuous
 62
     7
370
     0
100
AcDbMText
 10
412.4526872821
 20
175.4739273576
 30
0.0
 40
3.96875
 41
0.0
 71
     2
 72
     1
  1
D
  7
SLDTEXTSTYLE0
 73
     1
 44
1.0
  0
MTEXT
  5
BA
330
1F
100
AcDbEntity
  8
0
  6
Continuous
 62
     7
370
     0
100
AcDbMText
 10
17.5078089051
 20
225.4739273576
 30
0.0
 40
3.96875
 41
0.0
 71
     2
 72
     1
  1
E
  7
SLDTEXTSTYLE0
 73
     1
 44
1.0
  0
MTEXT
  5
BB
330
1F
100
AcDbEntity
  8
0
  6
Continuous
 62
     7
370
     0
100
AcDbMText
 10
412.5078089051
 20
225.4739273576
 30
0.0
 40
3.96875
 41
0.0
 71
     2
 72
     1
  1
E
  7
SLDTEXTSTYLE0
 73
     1
 44
1.0
  0
MTEXT
  5
BC
330
1F
100
AcDbEntity
  8
0
  6
Continuous
 62
     7
370
     0
100
AcDbMText
 10
17.4577402091
 20
269.7239273576
 30
0.0
 40
3.96875
 41
0.0
 71
     2
 72
     1
  1
F
  7
SLDTEXTSTYLE0
 73
     1
 44
1.0
  0
MTEXT
  5
BD
330
1F
100
AcDbEntity
  8
0
  6
Continuous
 62
     7
370
     0
100
AcDbMText
 10
412.4577402091
 20
269.7239273576
 30
0.0
 40
3.96875
 41
0.0
 71
     2
 72
     1
  1
F
  7
SLDTEXTSTYLE0
 73
     1
 44
1.0
  0
MTEXT
  5
BE
330
1F
100
AcDbEntity
  8
0
  6
Continuous
 62
     7
370
     0
100
AcDbMText
 10
42.4600369465
 20
9.4739273576
 30
0.0
 40
3.96875
 41
0.0
 71
     2
 72
     1
  1
8
  7
SLDTEXTSTYLE0
 73
     1
 44
1.0
  0
MTEXT
  5
BF
330
1F
100
AcDbEntity
  8
0
  6
Continuous
 62
     7
370
     0
100
AcDbMText
 10
42.4600369465
 20
291.4739273576
 30
0.0
 40
3.96875
 41
0.0
 71
     2
 72
     1
  1
8
  7
SLDTEXTSTYLE0
 73
     1
 44
1.0
  0
MTEXT
  5
C0
330
1F
100
AcDbEntity
  8
0
  6
Continuous
 62
     7
370
     0
100
AcDbMText
 10
89.9600369465
 20
9.4739273576
 30
0.0
 40
3.96875
 41
0.0
 71
     2
 72
     1
  1
7
  7
SLDTEXTSTYLE0
 73
     1
 44
1.0
  0
MTEXT
  5
C1
330
1F
100
AcDbEntity
  8
0
  6
Continuous
 62
     7
370
     0
100
AcDbMText
 10
89.9600369465
 20
291.4739273576
 30
0.0
 40
3.96875
 41
0.0
 71
     2
 72
     1
  1
7
  7
SLDTEXTSTYLE0
 73
     1
 44
1.0
  0
MTEXT
  5
C2
330
1F
100
AcDbEntity
  8
0
  6
Continuous
 62
     7
370
     0
100
AcDbMText
 10
139.9600369465
 20
9.4739273576
 30
0.0
 40
3.96875
 41
0.0
 71
     2
 72
     1
  1
6
  7
SLDTEXTSTYLE0
 73
     1
 44
1.0
  0
MTEXT
  5
C3
330
1F
100
AcDbEntity
  8
0
  6
Continuous
 62
     7
370
     0
100
AcDbMText
 10
139.9600369465
 20
291.4739273576
 30
0.0
 40
3.96875
 41
0.0
 71
     2
 72
     1
  1
6
  7
SLDTEXTSTYLE0
 73
     1
 44
1.0
  0
MTEXT
  5
C4
330
1F
100
AcDbEntity
  8
0
  6
Continuous
 62
     7
370
     0
100
AcDbMText
 10
189.9600369465
 20
9.4739273576
 30
0.0
 40
3.96875
 41
0.0
 71
     2
 72
     1
  1
5
  7
SLDTEXTSTYLE0
 73
     1
 44
1.0
  0
MTEXT
  5
C5
330
1F
100
AcDbEntity
  8
0
  6
Continuous
 62
     7
370
     0
100
AcDbMText
 10
189.9600369465
 20
291.4739273576
 30
0.0
 40
3.96875
 41
0.0
 71
     2
 72
     1
  1
5
  7
SLDTEXTSTYLE0
 73
     1
 44
1.0
  0
MTEXT
  5
C6
330
1F
100
AcDbEntity
  8
0
  6
Continuous
 62
     7
370
     0
100
AcDbMText
 10
239.9600369465
 20
9.4739273576
 30
0.0
 40
3.96875
 41
0.0
 71
     2
 72
     1
  1
4
  7
SLDTEXTSTYLE0
 73
     1
 44
1.0
  0
MTEXT
  5
C7
330
1F
100
AcDbEntity
  8
0
  6
Continuous
 62
     7
370
     0
100
AcDbMText
 10
239.9600369465
 20
291.4739273576
 30
0.0
 40
3.96875
 41
0.0
 71
     2
 72
     1
  1
4
  7
SLDTEXTSTYLE0
 73
     1
 44
1.0
  0
MTEXT
  5
C8
330
1F
100
AcDbEntity
  8
0
  6
Continuous
 62
     7
370
     0
100
AcDbMText
 10
289.9600369465
 20
9.4739273576
 30
0.0
 40
3.96875
 41
0.0
 71
     2
 72
     1
  1
3
  7
SLDTEXTSTYLE0
 73
     1
 44
1.0
  0
MTEXT
  5
C9
330
1F
100
AcDbEntity
  8
0
  6
Continuous
 62
     7
370
     0
100
AcDbMText
 10
289.9600369465
 20
291.4739273576
 30
0.0
 40
3.96875
 41
0.0
 71
     2
 72
     1
  1
3
  7
SLDTEXTSTYLE0
 73
     1
 44
1.0
  0
MTEXT
  5
CA
330
1F
100
AcDbEntity
  8
0
  6
Continuous
 62
     7
370
     0
100
AcDbMText
 10
339.9600369465
 20
9.4739273576
 30
0.0
 40
3.96875
 41
0.0
 71
     2
 72
     1
  1
2
  7
SLDTEXTSTYLE0
 73
     1
 44
1.0
  0
MTEXT
  5
CB
330
1F
100
AcDbEntity
  8
0
  6
Continuous
 62
     7
370
     0
100
AcDbMText
 10
339.9600369465
 20
291.4739273576
 30
0.0
 40
3.96875
 41
0.0
 71
     2
 72
     1
  1
2
  7
SLDTEXTSTYLE0
 73
     1
 44
1.0
  0
MTEXT
  5
CC
330
1F
100
AcDbEntity
  8
0
  6
Continuous
 62
     7
370
     0
100
AcDbMText
 10
387.4600369465
 20
9.4739273576
 30
0.0
 40
3.96875
 41
0.0
 71
     2
 72
     1
  1
1
  7
SLDTEXTSTYLE0
 73
     1
 44
1.0
  0
MTEXT
  5
CD
330
1F
100
AcDbEntity
  8
0
  6
Continuous
 62
     7
370
     0
100
AcDbMText
 10
387.4600369465
 20
291.4739273576
 30
0.0
 40
3.96875
 41
0.0
 71
     2
 72
     1
  1
1
  7
SLDTEXTSTYLE0
 73
     1
 44
1.0
  0
MTEXT
  5
CE
330
1F
100
AcDbEntity
  8
0
  6
Continuous
 62
     7
370
     0
100
AcDbMText
 10
364.4810343627
 20
23.347828666
 30
0.0
 40
4.2333333333
 41
0.0
 71
     2
 72
     1
  1
CR063028A0GHGM_#_#_#020#Svoboda
  7
SLDTEXTSTYLE0
 73
     1
 44
1.0
  0
MTEXT
  5
CF
330
1F
100
AcDbEntity
  8
0
  6
Continuous
 62
     7
370
     0
100
AcDbMText
 10
285.6178111281
 20
12.9493119036
 30
0.0
 40
1.4986
 41
0.0
 71
     1
 72
     1
  1
HMOTNOST:
  7
SLDTEXTSTYLE0
 73
     1
 44
1.0
  0
MTEXT
  5
D0
330
1F
100
AcDbEntity
  8
0
  6
Continuous
 62
     7
370
     0
100
AcDbMText
 10
400.8711564346
 20
24.406388569
 30
0.0
 40
2.9104166667
 41
0.0
 71
     1
 72
     1
  1
A3
  7
SLDTEXTSTYLE0
 73
     1
 44
1.0
  0
MTEXT
  5
D2
330
1F
100
AcDbEntity
  8
0
  6
Continuous
 62
     7
370
     0
100
AcDbMText
 10
374.4782944278
 20
12.9000872745
 30
0.0
 40
1.5
 41
0.0
 71
     1
 72
     1
  1
LIST 1 Z 1 LISTŮ
  7
SLDTEXTSTYLE1
 73
     1
 44
1.0
  0
MTEXT
  5
D4
330
1F
100
AcDbEntity
  8
0
  6
Continuous
 62
     7
370
     0
100
AcDbMText
 10
330.0739661175
 20
12.9000872745
 30
0.0
 40
1.5
 41
0.0
 71
     1
 72
     1
  1
MĚŘÍTKO:1:1
  7
SLDTEXTSTYLE2
 73
     1
 44
1.0
  0
MTEXT
  5
D5
330
1F
100
AcDbEntity
  8
0
  6
Continuous
 62
     7
370
     0
100
AcDbMText
 10
330.2786531243
 20
25.9860562892
 30
0.0
 40
1.5
 41
0.0
 71
     1
 72
     1
  1
Č. VÝKRESU
  7
SLDTEXTSTYLE2
 73
     1
 44
1.0
  0
MTEXT
  5
D6
330
1F
100
AcDbEntity
  8
0
  6
Continuous
 62
     7
370
     0
100
AcDbMText
 10
329.9561869366
 20
46.5761792212
 30
0.0
 40
1.5
 41
0.0
 71
     1
 72
     1
  1
NÁZEV:
  7
SLDTEXTSTYLE0
 73
     1
 44
1.0
  0
MTEXT
  5
D7
330
1F
100
AcDbEntity
  8
0
  6
Continuous
 62
     7
370
     0
100
AcDbMText
 10
383.3275816993
 20
62.3349086805
 30
0.0
 40
1.5
 41
0.0
 71
     1
 72
     1
  1
ZMĚNA
  7
SLDTEXTSTYLE2
 73
     1
 44
1.0
  0
MTEXT
  5
D8
330
1F
100
AcDbEntity
  8
0
  6
Continuous
 62
     7
370
     0
100
AcDbMText
 10
342.6146405229
 20
62.5329935751
 30
0.0
 40
1.5
 41
0.0
 71
     1
 72
     1
  1
NEUPRAVOVAT MĚŘÍTKO VÝKRESU
  7
SLDTEXTSTYLE2
 73
     1
 44
1.0
  0
MTEXT
  5
D9
330
1F
100
AcDbEntity
  8
0
  6
Continuous
 62
     7
370
     0
100
AcDbMText
 10
285.6458623088
 20
25.9860562892
 30
0.0
 40
1.5
 41
0.0
 71
     1
 72
     1
  1
MATERIÁL:
  7
SLDTEXTSTYLE0
 73
     1
 44
1.0
  0
MTEXT
  5
DA
330
1F
100
AcDbEntity
  8
0
  6
Continuous
 62
     7
370
     0
100
AcDbMText
 10
277.2147019657
 20
46.5761792212
 30
0.0
 40
1.5
 41
0.0
 71
     1
 72
     1
  1
DATUM
  7
SLDTEXTSTYLE0
 73
     1
 44
1.0
  0
MTEXT
  5
DB
330
1F
100
AcDbEntity
  8
0
  6
Continuous
 62
     7
370
     0
100
AcDbMText
 10
260.0335875632
 20
46.5617563795
 30
0.0
 40
1.5
 41
0.0
 71
     1
 72
     1
  1
PODPIS
  7
SLDTEXTSTYLE0
 73
     1
 44
1.0
  0
MTEXT
  5
DC
330
1F
100
AcDbEntity
  8
0
  6
Continuous
 62
     7
370
     0
100
AcDbMText
 10
244.3222392177
 20
46.5014826335
 30
0.0
 40
1.5
 41
0.0
 71
     1
 72
     1
  1
JMÉNO
  7
SLDTEXTSTYLE0
 73
     1
 44
1.0
  0
INSERT
  5
E2
330
1F
100
AcDbEntity
  8
0
  6
Continuous
 62
     7
370
     0
100
AcDbBlockReference
  2
SW_NOTE_0
 10
311.3092156863
 20
62.069489643
 30
0.0
  0
MTEXT
  5
E3
330
1F
100
AcDbEntity
  8
0
  6
Continuous
 62
     7
370
     0
100
AcDbMText
 10
264.3712921668
 20
63.9192719951
 30
0.0
 40
1.5
 41
0.0
 71
     1
 72
     1
  1
OPRACOVÁNÍ:
  7
SLDTEXTSTYLE0
 73
     1
 44
1.0
  0
INSERT
  5
ED
330
1F
100
AcDbEntity
  8
0
  6
Continuous
 62
     7
370
     0
100
AcDbBlockReference
  2
SW_NOTE_0_1
 10
230.5936687456
 20
61.9873698743
 30
0.0
  0
MTEXT
  5
EE
330
1F
100
AcDbEntity
  8
0
  6
Continuous
 62
     7
370
     0
100
AcDbMText
 10
230.6690428622
 20
25.3496492073
 30
0.0
 40
1.5
 41
0.0
 71
     1
 72
     1
  1
Z. JAKOSTI
  7
SLDTEXTSTYLE0
 73
     1
 44
1.0
  0
MTEXT
  5
EF
330
1F
100
AcDbEntity
  8
0
  6
Continuous
 62
     7
370
     0
100
AcDbMText
 10
230.4551864991
 20
29.7337046506
 30
0.0
 40
1.5
 41
0.0
 71
     1
 72
     1
  1
VÝROBA
  7
SLDTEXTSTYLE0
 73
     1
 44
1.0
  0
MTEXT
  5
F0
330
1F
100
AcDbEntity
  8
0
  6
Continuous
 62
     7
370
     0
100
AcDbMText
 10
230.4017224083
 20
34.0642960031
 30
0.0
 40
1.5
 41
0.0
 71
     1
 72
     1
  1
SCHVÁLIL
  7
SLDTEXTSTYLE0
 73
     1
 44
1.0
  0
MTEXT
  5
F1
330
1F
100
AcDbEntity
  8
0
  6
Continuous
 62
     7
370
     0
100
AcDbMText
 10
230.4104688676
 20
38.15440716
 30
0.0
 40
1.5
 41
0.0
 71
     1
 72
     1
  1
PŘEZKOUŠEL
  7
SLDTEXTSTYLE2
 73
     1
 44
1.0
  0
MTEXT
  5
F2
330
1F
100
AcDbEntity
  8
0
  6
Continuous
 62
     7
370
     0
100
AcDbMText
 10
230.2121492441
 20
42.4297148859
 30
0.0
 40
1.5
 41
0.0
 71
     1
 72
     1
  1
NAVRHL
  7
SLDTEXTSTYLE0
 73
     1
 44
1.0
  0
LINE
  5
F3
330
1F
100
AcDbEntity
  8
0
  6
Continuous
 62
     7
370
    25
100
AcDbLine
 10
208.94
 20
175.8050170627
 30
0.0
 11
210.026784808
 21
175.8050170627
 31
0.0
  0
LINE
  5
F4
330
1F
100
AcDbEntity
  8
0
  6
Continuous
 62
     7
370
    25
100
AcDbLine
 10
210.026784808
 20
217.8050170627
 30
0.0
 11
208.94
 21
217.8050170627
 31
0.0
  0
LINE
  5
F5
330
1F
100
AcDbEntity
  8
0
  6
Continuous
 62
     7
370
    25
100
AcDbLine
 10
219.91
 20
176.2750170627
 30
0.0
 11
219.94
 21
176.3050170627
 31
0.0
  0
LINE
  5
F6
330
1F
100
AcDbEntity
  8
0
  6
Continuous
 62
     7
370
    25
100
AcDbLine
 10
219.94
 20
217.3050170627
 30
0.0
 11
219.91
 21
217.3350170627
 31
0.0
  0
ARC
  5
F7
330
1F
100
AcDbEntity
  8
0
  6
Continuous
 62
     7
370
    25
100
AcDbCircle
 10
224.64
 20
171.8550170627
 30
0.0
 40
0.2999999999999829
100
AcDbArc
 50
0.0
 51
90.0
  0
ARC
  5
F8
330
1F
100
AcDbEntity
  8
0
  6
Continuous
 62
     7
370
    25
100
AcDbCircle
 10
224.64
 20
157.4550170627
 30
0.0
 40
0.3000000000000398
100
AcDbArc
 50
270.0
 51
0.0
  0
LINE
  5
F9
330
1F
100
AcDbEntity
  8
0
  6
Continuous
 62
     7
370
    25
100
AcDbLine
 10
222.94
 20
157.1550170627
 30
0.0
 11
224.64
 21
157.1550170627
 31
0.0
  0
LINE
  5
FA
330
1F
100
AcDbEntity
  8
0
  6
Continuous
 62
     7
370
    25
100
AcDbLine
 10
224.64
 20
172.1550170627
 30
0.0
 11
222.94
 21
172.1550170627
 31
0.0
  0
LINE
  5
FB
330
1F
100
AcDbEntity
  8
0
  6
Continuous
 62
     7
370
    25
100
AcDbLine
 10
222.94
 20
174.7182322547
 30
0.0
 11
221.383215192
 21
176.2750170627
 31
0.0
  0
LINE
  5
FC
330
1F
100
AcDbEntity
  8
0
  6
Continuous
 62
     7
370
    25
100
AcDbLine
 10
210.496784808
 20
176.2750170627
 30
0.0
 11
208.94
 21
174.7182322547
 31
0.0
  0
LINE
  5
FD
330
1F
100
AcDbEntity
  8
0
  6
Continuous
 62
     7
370
    25
100
AcDbLine
 10
221.383215192
 20
153.0350170627
 30
0.0
 11
222.94
 21
154.5918018707
 31
0.0
  0
LINE
  5
FE
330
1F
100
AcDbEntity
  8
0
  6
Continuous
 62
     7
370
    25
100
AcDbLine
 10
208.94
 20
154.5918018707
 30
0.0
 11
210.496784808
 21
153.0350170627
 31
0.0
  0
LINE
  5
FF
330
1F
100
AcDbEntity
  8
0
  6
Continuous
 62
     7
370
    25
100
AcDbLine
 10
222.94
 20
221.4550170627
 30
0.0
 11
224.64
 21
221.4550170627
 31
0.0
  0
LINE
  5
100
330
1F
100
AcDbEntity
  8
0
  6
Continuous
 62
     7
370
    25
100
AcDbLine
 10
224.64
 20
236.4550170627
 30
0.0
 11
222.94
 21
236.4550170627
 31
0.0
  0
ARC
  5
101
330
1F
100
AcDbEntity
  8
0
  6
Continuous
 62
     7
370
    25
100
AcDbCircle
 10
224.64
 20
236.1550170627
 30
0.0
 40
0.3000000000000114
100
AcDbArc
 50
0.0
 51
90.0
  0
ARC
  5
102
330
1F
100
AcDbEntity
  8
0
  6
Continuous
 62
     7
370
    25
100
AcDbCircle
 10
224.64
 20
221.7550170627
 30
0.0
 40
0.2999999999999829
100
AcDbArc
 50
270.0
 51
0.0
  0
LINE
  5
103
330
1F
100
AcDbEntity
  8
0
  6
Continuous
 62
     7
370
    25
100
AcDbLine
 10
208.94
 20
218.8918018707
 30
0.0
 11
210.496784808
 21
217.3350170627
 31
0.0
  0
LINE
  5
104
330
1F
100
AcDbEntity
  8
0
  6
Continuous
 62
     7
370
    25
100
AcDbLine
 10
221.383215192
 20
217.3350170627
 30
0.0
 11
222.94
 21
218.8918018707
 31
0.0
  0
LINE
  5
105
330
1F
100
AcDbEntity
  8
0
  6
Continuous
 62
     7
370
    25
100
AcDbLine
 10
222.94
 20
239.0182322547
 30
0.0
 11
221.383215192
 21
240.5750170627
 31
0.0
  0
LINE
  5
106
330
1F
100
AcDbEntity
  8
0
  6
Continuous
 62
     7
370
    25
100
AcDbLine
 10
210.496784808
 20
240.5750170627
 30
0.0
 11
208.94
 21
239.0182322547
 31
0.0
  0
LINE
  5
107
330
1F
100
AcDbEntity
  8
0
  6
Continuous
 62
     7
370
    25
100
AcDbLine
 10
102.94
 20
158.6550170627
 30
0.0
 11
149.94
 21
158.6550170627
 31
0.0
  0
LINE
  5
108
330
1F
100
AcDbEntity
  8
0
  6
Continuous
 62
     7
370
    25
100
AcDbLine
 10
149.94
 20
170.6550170627
 30
0.0
 11
102.94
 21
170.6550170627
 31
0.0
  0
LINE
  5
109
330
1F
100
AcDbEntity
  8
0
  6
Continuous
 62
     7
370
    25
100
AcDbLine
 10
149.94
 20
234.9550170627
 30
0.0
 11
102.94
 21
234.9550170627
 31
0.0
  0
LINE
  5
10A
330
1F
100
AcDbEntity
  8
0
  6
Continuous
 62
     7
370
    25
100
AcDbLine
 10
102.94
 20
222.9550170627
 30
0.0
 11
149.94
 21
222.9550170627
 31
0.0
  0
LINE
  5
10B
330
1F
100
AcDbEntity
  8
0
  6
Continuous
 62
     7
370
    25
100
AcDbLine
 10
219.44
 20
176.2750170627
 30
0.0
 11
219.44
 21
217.3350170627
 31
0.0
  0
LINE
  5
10C
330
1F
100
AcDbEntity
  8
0
  6
Continuous
 62
     7
370
    25
100
AcDbLine
 10
219.94
 20
217.3050170627
 30
0.0
 11
219.94
 21
176.3050170627
 31
0.0
  0
SPLINE
  5
10D
330
1F
100
AcDbEntity
  8
0
  6
Continuous
 62
     7
370
    25
100
AcDbSpline
210
0.0
220
0.0
230
1.0
 70
     8
 71
     3
 72
    11
 73
     7
 74
     0
 42
0.000000001
 43
0.00000001
 40
0.0
 40
0.0
 40
0.0
 40
0.0
 40
0.2495764276467891
 40
0.504361048811748
 40
0.7510453744754435
 40
1.0
 40
1.0
 40
1.0
 40
1.0
 10
208.94
 20
164.6550170627034
 30
0.0
 10
208.9621987845005
 20
165.1602312270839
 30
0.0
 10
209.0070596006384
 20
166.1812024310718
 30
0.0
 10
209.3539887313625
 20
167.6672730373542
 30
0.0
 10
209.8493940017315
 20
169.1041945106867
 30
0.0
 10
210.2803298978706
 20
170.0100264753035
 30
0.0
 10
210.4967848080248
 20
170.4650170627033
 30
0.0
  0
LINE
  5
10E
330
1F
100
AcDbEntity
  8
0
  6
Continuous
 62
     7
370
    25
100
AcDbLine
 10
210.496784808
 20
170.4650170627
 30
0.0
 11
221.383215192
 21
170.4650170627
 31
0.0
  0
SPLINE
  5
10F
330
1F
100
AcDbEntity
  8
0
  6
Continuous
 62
     7
370
    25
100
AcDbSpline
210
0.0
220
0.0
230
1.0
 70
     8
 71
     3
 72
    11
 73
     7
 74
     0
 42
0.000000001
 43
0.00000001
 40
0.0
 40
0.0
 40
0.0
 40
0.0
 40
0.432048913525726
 40
0.6559242718413982
 40
0.8796480113440456
 40
1.0
 40
1.0
 40
1.0
 40
1.0
 10
221.3832151919752
 20
170.4650170627033
 30
0.0
 10
221.7494731795363
 20
169.6691920512386
 30
0.0
 10
222.3055155540829
 20
168.4609933385085
 30
0.0
 10
222.7512905336749
 20
166.734235862835
 30
0.0
 10
222.9197161875875
 20
165.5943546984753
 30
0.0
 10
222.9347436445479
 20
164.8984374021696
 30
0.0
 10
222.94
 20
164.6550170627034
 30
0.0
  0
SPLINE
  5
110
330
1F
100
AcDbEntity
  8
0
  6
Continuous
 62
     7
370
    25
100
AcDbSpline
210
0.0
220
0.0
230
1.0
 70
     8
 71
     3
 72
    11
 73
     7
 74
     0
 42
0.000000001
 43
0.00000001
 40
0.0
 40
0.0
 40
0.0
 40
0.0
 40
0.2495764276467906
 40
0.5043610488117498
 40
0.7510453744754456
 40
1.0
 40
1.0
 40
1.0
 40
1.0
 10
222.94
 20
164.6550170627034
 30
0.0
 10
222.9178012154995
 20
164.1498028983228
 30
0.0
 10
222.8729403993616
 20
163.1288316943349
 30
0.0
 10
222.5260112686373
 20
161.6427610880525
 30
0.0
 10
222.0306059982684
 20
160.2058396147201
 30
0.0
 10
221.5996701021294
 20
159.3000076501032
 30
0.0
 10
221.3832151919752
 20
158.8450170627033
 30
0.0
  0
LINE
  5
111
330
1F
100
AcDbEntity
  8
0
  6
Continuous
 62
     7
370
    25
100
AcDbLine
 10
210.496784808
 20
158.8450170627
 30
0.0
 11
221.383215192
 21
158.8450170627
 31
0.0
  0
SPLINE
  5
112
330
1F
100
AcDbEntity
  8
0
  6
Continuous
 62
     7
370
    25
100
AcDbSpline
210
0.0
220
0.0
230
1.0
 70
     8
 71
     3
 72
    11
 73
     7
 74
     0
 42
0.000000001
 43
0.00000001
 40
0.0
 40
0.0
 40
0.0
 40
0.0
 40
0.432048913525725
 40
0.6559242718413967
 40
0.8796480113440435
 40
1.0
 40
1.0
 40
1.0
 40
1.0
 10
210.4967848080248
 20
158.8450170627033
 30
0.0
 10
210.1305268204637
 20
159.6408420741681
 30
0.0
 10
209.574484445917
 20
160.8490407868982
 30
0.0
 10
209.128709466325
 20
162.5757982625717
 30
0.0
 10
208.9602838124124
 20
163.7156794269314
 30
0.0
 10
208.945256355452
 20
164.4115967232371
 30
0.0
 10
208.94
 20
164.6550170627034
 30
0.0
  0
SPLINE
  5
113
330
1F
100
AcDbEntity
  8
0
  6
Continuous
 62
     7
370
    25
100
AcDbSpline
210
0.0
220
0.0
230
1.0
 70
     8
 71
     3
 72
    11
 73
     7
 74
     0
 42
0.000000001
 43
0.00000001
 40
0.0
 40
0.0
 40
0.0
 40
0.0
 40
0.4320489135257248
 40
0.6559242718413975
 40
0.8796480113440447
 40
1.0
 40
1.0
 40
1.0
 40
1.0
 10
210.4967848080248
 20
170.4650170627033
 30
0.0
 10
210.1305268204637
 20
170.8629295684357
 30
0.0
 10
209.574484445917
 20
171.4670289248008
 30
0.0
 10
209.128709466325
 20
172.3304076626376
 30
0.0
 10
208.9602838124124
 20
172.9003482448174
 30
0.0
 10
208.945256355452
 20
173.2483068929702
 30
0.0
 10
208.94
 20
173.3700170627034
 30
0.0
  0
SPLINE
  5
114
330
1F
100
AcDbEntity
  8
0
  6
Continuous
 62
     7
370
    25
100
AcDbSpline
210
0.0
220
0.0
230
1.0
 70
     8
 71
     3
 72
    11
 73
     7
 74
     0
 42
0.000000001
 43
0.00000001
 40
0.0
 40
0.0
 40
0.0
 40
0.0
 40
0.2495764276467898
 40
0.5043610488117498
 40
0.7510453744754435
 40
1.0
 40
1.0
 40
1.0
 40
1.0
 10
222.94
 20
173.3700170627034
 30
0.0
 10
222.9178012154995
 20
173.1174099805131
 30
0.0
 10
222.8729403993616
 20
172.6069243785191
 30
0.0
 10
222.5260112686373
 20
171.8638890753779
 30
0.0
 10
222.0306059982685
 20
171.1454283387117
 30
0.0
 10
221.5996701021294
 20
170.6925123564033
 30
0.0
 10
221.3832151919752
 20
170.4650170627033
 30
0.0
  0
LINE
  5
115
330
1F
100
AcDbEntity
  8
0
  6
Continuous
 62
     7
370
    25
100
AcDbLine
 10
222.94
 20
164.6550170627
 30
0.0
 11
222.94
 21
173.3700170627
 31
0.0
  0
SPLINE
  5
116
330
1F
100
AcDbEntity
  8
0
  6
Continuous
 62
     7
370
    25
100
AcDbSpline
210
0.0
220
0.0
230
1.0
 70
     8
 71
     3
 72
    11
 73
     7
 74
     0
 42
0.000000001
 43
0.00000001
 40
0.0
 40
0.0
 40
0.0
 40
0.0
 40
0.0581237806725219
 40
0.4052923505119562
 40
0.7646176100441899
 40
1.0
 40
1.0
 40
1.0
 40
1.0
 10
208.94
 20
155.9400170627034
 30
0.0
 10
208.9412944993123
 20
155.9987668536805
 30
0.0
 10
208.9503209367359
 20
156.4084243226497
 30
0.0
 10
209.1770947717816
 20
157.1789549932485
 30
0.0
 10
209.7752772445947
 20
158.087127564455
 30
0.0
 10
210.292192334219
 20
158.6301080372443
 30
0.0
 10
210.4967848080248
 20
158.8450170627033
 30
0.0
  0
SPLINE
  5
117
330
1F
100
AcDbEntity
  8
0
  6
Continuous
 62
     7
370
    25
100
AcDbSpline
210
0.0
220
0.0
230
1.0
 70
     8
 71
     3
 72
    10
 73
     6
 74
     0
 42
0.000000001
 43
0.00000001
 40
0.0
 40
0.0
 40
0.0
 40
0.0
 40
0.3528678512837013
 40
0.6719287159605561
 40
1.0
 40
1.0
 40
1.0
 40
1.0
 10
221.3832151919752
 20
158.8450170627033
 30
0.0
 10
221.6829629242204
 20
158.5212477847789
 30
0.0
 10
222.2537406476852
 20
157.9047283869595
 30
0.0
 10
222.8227446480923
 20
156.9265695842047
 30
0.0
 10
222.9005537546641
 20
156.2719063297321
 30
0.0
 10
222.94
 20
155.9400170627034
 30
0.0
  0
LINE
  5
118
330
1F
100
AcDbEntity
  8
0
  6
Continuous
 62
     7
370
    25
100
AcDbLine
 10
222.94
 20
164.6550170627
 30
0.0
 11
222.94
 21
155.9400170627
 31
0.0
  0
SPLINE
  5
119
330
1F
100
AcDbEntity
  8
0
  6
Continuous
 62
     7
370
    25
100
AcDbSpline
210
0.0
220
0.0
230
1.0
 70
     8
 71
     3
 72
    11
 73
     7
 74
     0
 42
0.000000001
 43
0.00000001
 40
0.0
 40
0.0
 40
0.0
 40
0.0
 40
0.2495764276467899
 40
0.5043610488117484
 40
0.7510453744754442
 40
1.0
 40
1.0
 40
1.0
 40
1.0
 10
208.94
 20
173.3700170627034
 30
0.0
 10
208.9621987845005
 20
173.6226241448936
 30
0.0
 10
209.0070596006383
 20
174.1331097468876
 30
0.0
 10
209.3539887313626
 20
174.8761450500288
 30
0.0
 10
209.8493940017315
 20
175.594605786695
 30
0.0
 10
210.2803298978706
 20
176.0475217690035
 30
0.0
 10
210.4967848080248
 20
176.2750170627034
 30
0.0
  0
LINE
  5
11A
330
1F
100
AcDbEntity
  8
0
  6
Continuous
 62
     7
370
    25
100
AcDbLine
 10
210.496784808
 20
176.2750170627
 30
0.0
 11
221.383215192
 21
176.2750170627
 31
0.0
  0
SPLINE
  5
11B
330
1F
100
AcDbEntity
  8
0
  6
Continuous
 62
     7
370
    25
100
AcDbSpline
210
0.0
220
0.0
230
1.0
 70
     8
 71
     3
 72
    11
 73
     7
 74
     0
 42
0.000000001
 43
0.00000001
 40
0.0
 40
0.0
 40
0.0
 40
0.0
 40
0.4320489135257236
 40
0.6559242718413976
 40
0.8796480113440442
 40
1.0
 40
1.0
 40
1.0
 40
1.0
 10
221.3832151919752
 20
176.2750170627034
 30
0.0
 10
221.7494731795363
 20
175.877104556971
 30
0.0
 10
222.3055155540829
 20
175.2730052006059
 30
0.0
 10
222.7512905336749
 20
174.4096264627692
 30
0.0
 10
222.9197161875875
 20
173.8396858805893
 30
0.0
 10
222.9347436445479
 20
173.4917272324365
 30
0.0
 10
222.94
 20
173.3700170627034
 30
0.0
  0
LINE
  5
11C
330
1F
100
AcDbEntity
  8
0
  6
Continuous
 62
     7
370
    25
100
AcDbLine
 10
224.94
 20
168.2550170627
 30
0.0
 11
224.94
 21
157.4550170627
 31
0.0
  0
LINE
  5
11D
330
1F
100
AcDbEntity
  8
0
  6
Continuous
 62
     7
370
    25
100
AcDbLine
 10
224.94
 20
171.8550170627
 30
0.0
 11
224.94
 21
168.2550170627
 31
0.0
  0
SPLINE
  5
11E
330
1F
100
AcDbEntity
  8
0
  6
Continuous
 62
     7
370
    25
100
AcDbSpline
210
0.0
220
0.0
230
1.0
 70
     8
 71
     3
 72
    11
 73
     7
 74
     0
 42
0.000000001
 43
0.00000001
 40
0.0
 40
0.0
 40
0.0
 40
0.0
 40
0.0581237806725219
 40
0.4052923505119581
 40
0.7646176100441927
 40
1.0
 40
1.0
 40
1.0
 40
1.0
 10
222.94
 20
155.9400170627034
 30
0.0
 10
222.9387055006876
 20
155.8812672717262
 30
0.0
 10
222.9296790632641
 20
155.471609802757
 30
0.0
 10
222.7029052282182
 20
154.7010791321582
 30
0.0
 10
222.1047227554053
 20
153.7929065609517
 30
0.0
 10
221.587807665781
 20
153.2499260881624
 30
0.0
 10
221.3832151919752
 20
153.0350170627034
 30
0.0
  0
LINE
  5
11F
330
1F
100
AcDbEntity
  8
0
  6
Continuous
 62
     7
370
    25
100
AcDbLine
 10
210.496784808
 20
153.0350170627
 30
0.0
 11
221.383215192
 21
153.0350170627
 31
0.0
  0
SPLINE
  5
120
330
1F
100
AcDbEntity
  8
0
  6
Continuous
 62
     7
370
    25
100
AcDbSpline
210
0.0
220
0.0
230
1.0
 70
     8
 71
     3
 72
    10
 73
     6
 74
     0
 42
0.000000001
 43
0.00000001
 40
0.0
 40
0.0
 40
0.0
 40
0.0
 40
0.3528678512837019
 40
0.6719287159605564
 40
0.9999999999999999
 40
0.9999999999999999
 40
0.9999999999999999
 40
0.9999999999999999
 10
210.4967848080248
 20
153.0350170627034
 30
0.0
 10
210.1970370757795
 20
153.3587863406278
 30
0.0
 10
209.6262593523147
 20
153.9753057384472
 30
0.0
 10
209.0572553519076
 20
154.9534645412021
 30
0.0
 10
208.9794462453358
 20
155.6081277956745
 30
0.0
 10
208.94
 20
155.9400170627034
 30
0.0
  0
LINE
  5
121
330
1F
100
AcDbEntity
  8
0
  6
Continuous
 62
     7
370
    25
100
AcDbLine
 10
222.94
 20
173.3700170627
 30
0.0
 11
222.94
 21
174.7182322547
 31
0.0
  0
LINE
  5
122
330
1F
100
AcDbEntity
  8
0
  6
Continuous
 62
     7
370
    25
100
AcDbLine
 10
222.94
 20
154.5918018707
 30
0.0
 11
222.94
 21
155.9400170627
 31
0.0
  0
SPLINE
  5
123
330
1F
100
AcDbEntity
  8
0
  6
Continuous
 62
     7
370
    25
100
AcDbSpline
210
0.0
220
0.0
230
1.0
 70
     8
 71
     3
 72
    11
 73
     7
 74
     0
 42
0.000000001
 43
0.00000001
 40
0.0
 40
0.0
 40
0.0
 40
0.0
 40
0.2495764276467894
 40
0.5043610488117487
 40
0.7510453744754446
 40
1.0
 40
1.0
 40
1.0
 40
1.0
 10
208.94
 20
228.9550170627034
 30
0.0
 10
208.9621987845005
 20
229.460231227084
 30
0.0
 10
209.0070596006383
 20
230.4812024310718
 30
0.0
 10
209.3539887313626
 20
231.9672730373543
 30
0.0
 10
209.8493940017314
 20
233.4041945106867
 30
0.0
 10
210.2803298978706
 20
234.3100264753036
 30
0.0
 10
210.4967848080248
 20
234.7650170627034
 30
0.0
  0
LINE
  5
124
330
1F
100
AcDbEntity
  8
0
  6
Continuous
 62
     7
370
    25
100
AcDbLine
 10
210.496784808
 20
234.7650170627
 30
0.0
 11
221.383215192
 21
234.7650170627
 31
0.0
  0
SPLINE
  5
125
330
1F
100
AcDbEntity
  8
0
  6
Continuous
 62
     7
370
    25
100
AcDbSpline
210
0.0
220
0.0
230
1.0
 70
     8
 71
     3
 72
    11
 73
     7
 74
     0
 42
0.000000001
 43
0.00000001
 40
0.0
 40
0.0
 40
0.0
 40
0.0
 40
0.4320489135257234
 40
0.6559242718413969
 40
0.8796480113440444
 40
0.9999999999999999
 40
0.9999999999999999
 40
0.9999999999999999
 40
0.9999999999999999
 10
221.3832151919752
 20
234.7650170627034
 30
0.0
 10
221.7494731795363
 20
233.9691920512386
 30
0.0
 10
222.305515554083
 20
232.7609933385085
 30
0.0
 10
222.751290533675
 20
231.034235862835
 30
0.0
 10
222.9197161875875
 20
229.8943546984754
 30
0.0
 10
222.9347436445479
 20
229.1984374021697
 30
0.0
 10
222.94
 20
228.9550170627034
 30
0.0
  0
SPLINE
  5
126
330
1F
100
AcDbEntity
  8
0
  6
Continuous
 62
     7
370
    25
100
AcDbSpline
210
0.0
220
0.0
230
1.0
 70
     8
 71
     3
 72
    11
 73
     7
 74
     0
 42
0.000000001
 43
0.00000001
 40
0.0
 40
0.0
 40
0.0
 40
0.0
 40
0.2495764276467897
 40
0.5043610488117493
 40
0.751045374475444
 40
1.0
 40
1.0
 40
1.0
 40
1.0
 10
222.94
 20
228.9550170627034
 30
0.0
 10
222.9178012154995
 20
228.4498028983228
 30
0.0
 10
222.8729403993617
 20
227.4288316943349
 30
0.0
 10
222.5260112686372
 20
225.9427610880525
 30
0.0
 10
222.0306059982685
 20
224.5058396147201
 30
0.0
 10
221.5996701021294
 20
223.6000076501032
 30
0.0
 10
221.3832151919752
 20
223.1450170627034
 30
0.0
  0
LINE
  5
127
330
1F
100
AcDbEntity
  8
0
  6
Continuous
 62
     7
370
    25
100
AcDbLine
 10
210.496784808
 20
223.1450170627
 30
0.0
 11
221.383215192
 21
223.1450170627
 31
0.0
  0
SPLINE
  5
128
330
1F
100
AcDbEntity
  8
0
  6
Continuous
 62
     7
370
    25
100
AcDbSpline
210
0.0
220
0.0
230
1.0
 70
     8
 71
     3
 72
    11
 73
     7
 74
     0
 42
0.000000001
 43
0.00000001
 40
0.0
 40
0.0
 40
0.0
 40
0.0
 40
0.4320489135257252
 40
0.6559242718413967
 40
0.8796480113440445
 40
1.0
 40
1.0
 40
1.0
 40
1.0
 10
210.4967848080248
 20
223.1450170627034
 30
0.0
 10
210.1305268204636
 20
223.9408420741682
 30
0.0
 10
209.574484445917
 20
225.1490407868983
 30
0.0
 10
209.128709466325
 20
226.8757982625717
 30
0.0
 10
208.9602838124125
 20
228.0156794269314
 30
0.0
 10
208.945256355452
 20
228.7115967232371
 30
0.0
 10
208.94
 20
228.9550170627034
 30
0.0
  0
SPLINE
  5
129
330
1F
100
AcDbEntity
  8
0
  6
Continuous
 62
     7
370
    25
100
AcDbSpline
210
0.0
220
0.0
230
1.0
 70
     8
 71
     3
 72
    11
 73
     7
 74
     0
 42
0.000000001
 43
0.00000001
 40
0.0
 40
0.0
 40
0.0
 40
0.0
 40
0.4320489135257262
 40
0.655924271841399
 40
0.8796480113440459
 40
1.0
 40
1.0
 40
1.0
 40
1.0
 10
221.3832151919752
 20
223.1450170627034
 30
0.0
 10
221.7494731795363
 20
222.747104556971
 30
0.0
 10
222.3055155540829
 20
222.143005200606
 30
0.0
 10
222.751290533675
 20
221.2796264627692
 30
0.0
 10
222.9197161875875
 20
220.7096858805894
 30
0.0
 10
222.9347436445479
 20
220.3617272324365
 30
0.0
 10
222.94
 20
220.2400170627034
 30
0.0
  0
LINE
  5
12A
330
1F
100
AcDbEntity
  8
0
  6
Continuous
 62
     7
370
    25
100
AcDbLine
 10
222.94
 20
220.2400170627
 30
0.0
 11
222.94
 21
228.9550170627
 31
0.0
  0
SPLINE
  5
12B
330
1F
100
AcDbEntity
  8
0
  6
Continuous
 62
     7
370
    25
100
AcDbSpline
210
0.0
220
0.0
230
1.0
 70
     8
 71
     3
 72
    11
 73
     7
 74
     0
 42
0.000000001
 43
0.00000001
 40
0.0
 40
0.0
 40
0.0
 40
0.0
 40
0.0581237806725209
 40
0.4052923505119568
 40
0.764617610044191
 40
1.0
 40
1.0
 40
1.0
 40
1.0
 10
222.94
 20
237.6700170627034
 30
0.0
 10
222.9387055006876
 20
237.6112672717262
 30
0.0
 10
222.929679063264
 20
237.201609802757
 30
0.0
 10
222.7029052282182
 20
236.4310791321582
 30
0.0
 10
222.1047227554054
 20
235.5229065609518
 30
0.0
 10
221.587807665781
 20
234.9799260881624
 30
0.0
 10
221.3832151919752
 20
234.7650170627034
 30
0.0
  0
LINE
  5
12C
330
1F
100
AcDbEntity
  8
0
  6
Continuous
 62
     7
370
    25
100
AcDbLine
 10
222.94
 20
228.9550170627
 30
0.0
 11
222.94
 21
237.6700170627
 31
0.0
  0
SPLINE
  5
12D
330
1F
100
AcDbEntity
  8
0
  6
Continuous
 62
     7
370
    25
100
AcDbSpline
210
0.0
220
0.0
230
1.0
 70
     8
 71
     3
 72
    11
 73
     7
 74
     0
 42
0.000000001
 43
0.00000001
 40
0.0
 40
0.0
 40
0.0
 40
0.0
 40
0.2495764276467892
 40
0.5043610488117479
 40
0.751045374475444
 40
1.0
 40
1.0
 40
1.0
 40
1.0
 10
208.94
 20
220.2400170627034
 30
0.0
 10
208.9621987845005
 20
220.4926241448937
 30
0.0
 10
209.0070596006383
 20
221.0031097468876
 30
0.0
 10
209.3539887313626
 20
221.7461450500288
 30
0.0
 10
209.8493940017316
 20
222.464605786695
 30
0.0
 10
210.2803298978706
 20
222.9175217690035
 30
0.0
 10
210.4967848080248
 20
223.1450170627034
 30
0.0
  0
SPLINE
  5
12E
330
1F
100
AcDbEntity
  8
0
  6
Continuous
 62
     7
370
    25
100
AcDbSpline
210
0.0
220
0.0
230
1.0
 70
     8
 71
     3
 72
    10
 73
     6
 74
     0
 42
0.000000001
 43
0.00000001
 40
0.0
 40
0.0
 40
0.0
 40
0.0
 40
0.3528678512837017
 40
0.6719287159605564
 40
1.0
 40
1.0
 40
1.0
 40
1.0
 10
210.4967848080248
 20
234.7650170627034
 30
0.0
 10
210.1970370757796
 20
235.0887863406278
 30
0.0
 10
209.6262593523148
 20
235.7053057384472
 30
0.0
 10
209.0572553519076
 20
236.6834645412021
 30
0.0
 10
208.9794462453358
 20
237.3381277956746
 30
0.0
 10
208.94
 20
237.6700170627034
 30
0.0
  0
SPLINE
  5
12F
330
1F
100
AcDbEntity
  8
0
  6
Continuous
 62
     7
370
    25
100
AcDbSpline
210
0.0
220
0.0
230
1.0
 70
     8
 71
     3
 72
    11
 73
     7
 74
     0
 42
0.000000001
 43
0.00000001
 40
0.0
 40
0.0
 40
0.0
 40
0.0
 40
0.2495764276467908
 40
0.5043610488117505
 40
0.7510453744754456
 40
0.9999999999999999
 40
0.9999999999999999
 40
0.9999999999999999
 40
0.9999999999999999
 10
222.94
 20
220.2400170627034
 30
0.0
 10
222.9178012154995
 20
219.9874099805131
 30
0.0
 10
222.8729403993616
 20
219.4769243785192
 30
0.0
 10
222.5260112686373
 20
218.7338890753779
 30
0.0
 10
222.0306059982685
 20
218.0154283387117
 30
0.0
 10
221.5996701021294
 20
217.5625123564033
 30
0.0
 10
221.3832151919752
 20
217.3350170627034
 30
0.0
  0
LINE
  5
130
330
1F
100
AcDbEntity
  8
0
  6
Continuous
 62
     7
370
    25
100
AcDbLine
 10
210.496784808
 20
217.3350170627
 30
0.0
 11
221.383215192
 21
217.3350170627
 31
0.0
  0
SPLINE
  5
131
330
1F
100
AcDbEntity
  8
0
  6
Continuous
 62
     7
370
    25
100
AcDbSpline
210
0.0
220
0.0
230
1.0
 70
     8
 71
     3
 72
    11
 73
     7
 74
     0
 42
0.000000001
 43
0.00000001
 40
0.0
 40
0.0
 40
0.0
 40
0.0
 40
0.4320489135257252
 40
0.6559242718413973
 40
0.8796480113440446
 40
1.0
 40
1.0
 40
1.0
 40
1.0
 10
210.4967848080248
 20
217.3350170627034
 30
0.0
 10
210.1305268204636
 20
217.7329295684358
 30
0.0
 10
209.574484445917
 20
218.3370289248008
 30
0.0
 10
209.1287094663249
 20
219.2004076626376
 30
0.0
 10
208.9602838124124
 20
219.7703482448174
 30
0.0
 10
208.945256355452
 20
220.1183068929703
 30
0.0
 10
208.94
 20
220.2400170627034
 30
0.0
  0
LINE
  5
132
330
1F
100
AcDbEntity
  8
0
  6
Continuous
 62
     7
370
    25
100
AcDbLine
 10
224.94
 20
236.1550170627
 30
0.0
 11
224.94
 21
221.7550170627
 31
0.0
  0
SPLINE
  5
133
330
1F
100
AcDbEntity
  8
0
  6
Continuous
 62
     7
370
    25
100
AcDbSpline
210
0.0
220
0.0
230
1.0
 70
     8
 71
     3
 72
    11
 73
     7
 74
     0
 42
0.000000001
 43
0.00000001
 40
0.0
 40
0.0
 40
0.0
 40
0.0
 40
0.0581237806725218
 40
0.4052923505119559
 40
0.7646176100441902
 40
1.0
 40
1.0
 40
1.0
 40
1.0
 10
208.94
 20
237.6700170627034
 30
0.0
 10
208.9412944993124
 20
237.7287668536806
 30
0.0
 10
208.950320936736
 20
238.1384243226497
 30
0.0
 10
209.1770947717816
 20
238.9089549932485
 30
0.0
 10
209.7752772445947
 20
239.817127564455
 30
0.0
 10
210.292192334219
 20
240.3601080372444
 30
0.0
 10
210.4967848080248
 20
240.5750170627034
 30
0.0
  0
LINE
  5
134
330
1F
100
AcDbEntity
  8
0
  6
Continuous
 62
     7
370
    25
100
AcDbLine
 10
210.496784808
 20
240.5750170627
 30
0.0
 11
221.383215192
 21
240.5750170627
 31
0.0
  0
SPLINE
  5
135
330
1F
100
AcDbEntity
  8
0
  6
Continuous
 62
     7
370
    25
100
AcDbSpline
210
0.0
220
0.0
230
1.0
 70
     8
 71
     3
 72
    10
 73
     6
 74
     0
 42
0.000000001
 43
0.00000001
 40
0.0
 40
0.0
 40
0.0
 40
0.0
 40
0.3528678512837011
 40
0.6719287159605557
 40
1.0
 40
1.0
 40
1.0
 40
1.0
 10
221.3832151919752
 20
240.5750170627034
 30
0.0
 10
221.6829629242204
 20
240.2512477847789
 30
0.0
 10
222.2537406476852
 20
239.6347283869596
 30
0.0
 10
222.8227446480924
 20
238.6565695842047
 30
0.0
 10
222.9005537546642
 20
238.0019063297322
 30
0.0
 10
222.94
 20
237.6700170627034
 30
0.0
  0
LINE
  5
136
330
1F
100
AcDbEntity
  8
0
  6
Continuous
 62
     7
370
    25
100
AcDbLine
 10
222.94
 20
218.8918018707
 30
0.0
 11
222.94
 21
220.2400170627
 31
0.0
  0
LINE
  5
137
330
1F
100
AcDbEntity
  8
0
  6
Continuous
 62
     7
370
    25
100
AcDbLine
 10
222.94
 20
239.0182322547
 30
0.0
 11
222.94
 21
237.6700170627
 31
0.0
  0
LINE
  5
138
330
1F
100
AcDbEntity
  8
0
  6
Continuous
 62
     7
370
    25
100
AcDbLine
 10
158.5912784091
 20
156.3050170627
 30
0.0
 11
158.2191193182
 21
156.3050170627
 31
0.0
  0
LINE
  5
139
330
1F
100
AcDbEntity
  8
0
  6
Continuous
 62
     7
370
    25
100
AcDbLine
 10
158.6672727273
 20
156.8050170627
 30
0.0
 11
158.5912784091
 21
156.3050170627
 31
0.0
  0
LINE
  5
13A
330
1F
100
AcDbEntity
  8
0
  6
Continuous
 62
     7
370
    25
100
AcDbLine
 10
158.3036363636
 20
156.8050170627
 30
0.0
 11
158.6672727273
 21
156.8050170627
 31
0.0
  0
LINE
  5
13B
330
1F
100
AcDbEntity
  8
0
  6
Continuous
 62
     7
370
    25
100
AcDbLine
 10
158.2191193182
 20
156.3050170627
 30
0.0
 11
158.3036363636
 21
156.8050170627
 31
0.0
  0
SPLINE
  5
13C
330
1F
100
AcDbEntity
  8
0
  6
Continuous
 62
     7
370
    25
100
AcDbSpline
210
0.0
220
0.0
230
1.0
 70
     8
 71
     3
 72
    23
 73
    19
 74
     0
 42
0.000000001
 43
0.00000001
 40
0.0
 40
0.0
 40
0.0
 40
0.0
 40
0.0320567278470601
 40
0.0655625139072254
 40
0.1004001713750864
 40
0.1382027864917
 40
0.1790139694266613
 40
0.2234514353430797
 40
0.2718664104837574
 40
0.3249281433599476
 40
0.3834483706024157
 40
0.4487951489475862
 40
0.5209568282838367
 40
0.6014006472289692
 40
0.6888140269502975
 40
0.7846110948905138
 40
0.8883046448542155
 40
1.0
 40
1.0
 40
1.0
 40
1.0
 10
156.4044886363636
 20
154.6231988808853
 30
0.0
 10
156.4197103096758
 20
154.6241130332786
 30
0.0
 10
156.4508417206227
 20
154.6259826604371
 30
0.0
 10
156.4971670990088
 20
154.638575067699
 30
0.0
 10
156.5432706461898
 20
154.6591648106517
 30
0.0
 10
156.5896929538045
 20
154.6868129479023
 30
0.0
 10
156.6350704376778
 20
154.7238377195636
 30
0.0
 10
156.6805893856982
 20
154.7681215587481
 30
0.0
 10
156.7261739738793
 20
154.8203834215822
 30
0.0
 10
156.7717847713447
 20
154.8811699521469
 30
0.0
 10
156.8174315714444
 20
154.9518585799066
 30
0.0
 10
156.8582173742582
 20
155.0356538461244
 30
0.0
 10
156.8993094389701
 20
155.1306405410265
 30
0.0
 10
156.9370227423321
 20
155.2382630078825
 30
0.0
 10
156.9722999922107
 20
155.3583769213302
 30
0.0
 10
157.006295975598
 20
155.4902896457054
 30
0.0
 10
157.0382336536115
 20
155.6345589423238
 30
0.0
 10
157.0567949998131
 20
155.7351153280809
 30
0.0
 10
157.0664204545454
 20
155.7872613808853
 30
0.0
  0
SPLINE
  5
13D
330
1F
100
AcDbEntity
  8
0
  6
Continuous
 62
     7
370
    25
100
AcDbSpline
210
0.0
220
0.0
230
1.0
 70
     8
 71
     3
 72
    11
 73
     7
 74
     0
 42
0.000000001
 43
0.00000001
 40
0.0
 40
0.0
 40
0.0
 40
0.0
 40
0.2760027940161321
 40
0.5287745356601968
 40
0.7665659864569033
 40
1.0
 40
1.0
 40
1.0
 40
1.0
 10
156.22125
 20
154.7041647899763
 30
0.0
 10
156.2354905233875
 20
154.6916996144194
 30
0.0
 10
156.2627729506129
 20
154.6678184524895
 30
0.0
 10
156.3093082855971
 20
154.6432234907058
 30
0.0
 10
156.3561552660484
 20
154.6258455383538
 30
0.0
 10
156.3884771400667
 20
154.6240756446198
 30
0.0
 10
156.4044886363636
 20
154.6231988808853
 30
0.0
  0
LINE
  5
13E
330
1F
100
AcDbEntity
  8
0
  6
Continuous
 62
     7
370
    25
100
AcDbLine
 10
156.0763636364
 20
154.3064375172
 30
0.0
 11
156.22125
 21
154.70416479
 31
0.0
  0
SPLINE
  5
13F
330
1F
100
AcDbEntity
  8
0
  6
Continuous
 62
     7
370
    25
100
AcDbSpline
210
0.0
220
0.0
230
1.0
 70
     8
 71
     3
 72
    11
 73
     7
 74
     0
 42
0.000000001
 43
0.00000001
 40
0.0
 40
0.0
 40
0.0
 40
0.0
 40
0.2007338374434063
 40
0.4314288553531133
 40
0.6959759948133384
 40
1.0
 40
1.0
 40
1.0
 40
1.0
 10
156.3235227272727
 20
154.2141079717944
 30
0.0
 10
156.3056369803261
 20
154.2152917224417
 30
0.0
 10
156.2671958912173
 20
154.2178359082816
 30
0.0
 10
156.208090840097
 20
154.2378167523474
 30
0.0
 10
156.1427510987286
 20
154.2659736204198
 30
0.0
 10
156.0994939301846
 20
154.2923393458555
 30
0.0
 10
156.0763636363636
 20
154.306437517249
 30
0.0
  0
SPLINE
  5
140
330
1F
100
AcDbEntity
  8
0
  6
Continuous
 62
     7
370
    25
100
AcDbSpline
210
0.0
220
0.0
230
1.0
 70
     8
 71
     3
 72
    15
 73
    11
 74
     0
 42
0.000000001
 43
0.00000001
 40
0.0
 40
0.0
 40
0.0
 40
0.0
 40
0.1784706993996112
 40
0.337989084936837
 40
0.4816100177309101
 40
0.6086632371891184
 40
0.7213717501697183
 40
0.8219672142332559
 40
0.9132902838278593
 40
0.9999999999999999
 40
0.9999999999999999
 40
0.9999999999999999
 40
0.9999999999999999
 10
156.9137215909091
 20
154.7858409263399
 30
0.0
 10
156.8896572020251
 20
154.7407802719701
 30
0.0
 10
156.844083890519
 20
154.6554440829579
 30
0.0
 10
156.7706082614458
 20
154.5386961001265
 30
0.0
 10
156.6974005907342
 20
154.4395298107361
 30
0.0
 10
156.6234035949498
 20
154.3582406883996
 30
0.0
 10
156.5493311844573
 20
154.2944887502899
 30
0.0
 10
156.4749459216399
 20
154.2483950606806
 30
0.0
 10
156.3993434362998
 20
154.2201186590614
 30
0.0
 10
156.3483558844408
 20
154.216076620512
 30
0.0
 10
156.3235227272727
 20
154.2141079717944
 30
0.0
  0
LINE
  5
141
330
1F
100
AcDbEntity
  8
0
  6
Continuous
 62
     7
370
    25
100
AcDbLine
 10
156.8213920455
 20
154.2595625172
 30
0.0
 11
156.9137215909
 21
154.7858409263
 31
0.0
  0
LINE
  5
142
330
1F
100
AcDbEntity
  8
0
  6
Continuous
 62
     7
370
    25
100
AcDbLine
 10
157.19
 20
154.2595625172
 30
0.0
 11
156.8213920455
 21
154.2595625172
 31
0.0
  0
LINE
  5
143
330
1F
100
AcDbEntity
  8
0
  6
Continuous
 62
     7
370
    25
100
AcDbLine
 10
157.6196875
 20
156.8050170627
 30
0.0
 11
157.19
 21
154.2595625172
 31
0.0
  0
LINE
  5
144
330
1F
100
AcDbEntity
  8
0
  6
Continuous
 62
     7
370
    25
100
AcDbLine
 10
157.2510795455
 20
156.8050170627
 30
0.0
 11
157.6196875
 21
156.8050170627
 31
0.0
  0
LINE
  5
145
330
1F
100
AcDbEntity
  8
0
  6
Continuous
 62
     7
370
    25
100
AcDbLine
 10
157.0664204545
 20
155.7872613809
 30
0.0
 11
157.2510795455
 21
156.8050170627
 31
0.0
  0
LINE
  5
146
330
1F
100
AcDbEntity
  8
0
  6
Continuous
 62
     7
370
    25
100
AcDbLine
 10
156.1367329545
 20
156.3050170627
 30
0.0
 11
155.7645738636
 21
156.3050170627
 31
0.0
  0
LINE
  5
147
330
1F
100
AcDbEntity
  8
0
  6
Continuous
 62
     7
370
    25
100
AcDbLine
 10
156.2127272727
 20
156.8050170627
 30
0.0
 11
156.1367329545
 21
156.3050170627
 31
0.0
  0
LINE
  5
148
330
1F
100
AcDbEntity
  8
0
  6
Continuous
 62
     7
370
    25
100
AcDbLine
 10
155.8490909091
 20
156.8050170627
 30
0.0
 11
156.2127272727
 21
156.8050170627
 31
0.0
  0
LINE
  5
149
330
1F
100
AcDbEntity
  8
0
  6
Continuous
 62
     7
370
    25
100
AcDbLine
 10
155.7645738636
 20
156.3050170627
 30
0.0
 11
155.8490909091
 21
156.8050170627
 31
0.0
  0
SPLINE
  5
14A
330
1F
100
AcDbEntity
  8
0
  6
Continuous
 62
     7
370
    25
100
AcDbSpline
210
0.0
220
0.0
230
1.0
 70
     8
 71
     3
 72
    23
 73
    19
 74
     0
 42
0.000000001
 43
0.00000001
 40
0.0
 40
0.0
 40
0.0
 40
0.0
 40
0.0589564899088125
 40
0.1156824852753097
 40
0.1713601759381958
 40
0.2259595972109255
 40
0.2805137102049933
 40
0.3359456247695642
 40
0.3925292949255172
 40
0.4509085296751718
 40
0.5111012148065724
 40
0.5724964578048745
 40
0.6355555115349975
 40
0.7009661634926652
 40
0.7699089804136499
 40
0.8424091104238255
 40
0.9188181387755326
 40
1.0
 40
1.0
 40
1.0
 40
1.0
 10
153.9250852272727
 20
154.2141079717944
 30
0.0
 10
153.8949769505231
 20
154.2149095323146
 30
0.0
 10
153.8358994802201
 20
154.2164823280019
 30
0.0
 10
153.7491065769261
 20
154.2294010299552
 30
0.0
 10
153.6666978962503
 20
154.2517530960165
 30
0.0
 10
153.5876869196237
 20
154.2812791417645
 30
0.0
 10
153.5134478837326
 20
154.3210828215457
 30
0.0
 10
153.4428076925857
 20
154.3687038963888
 30
0.0
 10
153.3765410681894
 20
154.4253269112356
 30
0.0
 10
153.3145289882426
 20
154.4899813528759
 30
0.0
 10
153.2586363787317
 20
154.5631390356075
 30
0.0
 10
153.209362147772
 20
154.6437114889071
 30
0.0
 10
153.1681028986113
 20
154.7316386040736
 30
0.0
 10
153.1347685970873
 20
154.8269123821922
 30
0.0
 10
153.1087255513676
 20
154.9293793336543
 30
0.0
 10
153.0896031204699
 20
155.0390395973825
 30
0.0
 10
153.0780900905624
 20
155.1560952777075
 30
0.0
 10
153.0769506244714
 20
155.2365716021514
 30
0.0
 10
153.0763636363637
 20
155.2780284263399
 30
0.0
  0
SPLINE
  5
14B
330
1F
100
AcDbEntity
  8
0
  6
Continuous
 62
     7
370
    25
100
AcDbSpline
210
0.0
220
0.0
230
1.0
 70
     8
 71
     3
 72
    23
 73
    19
 74
     0
 42
0.000000001
 43
0.00000001
 40
0.0
 40
0.0
 40
0.0
 40
0.0
 40
0.0753614946399933
 40
0.1481167448249851
 40
0.2185236429807987
 40
0.286637011918306
 40
0.3534497018101079
 40
0.4184500389317413
 40
0.4829584831181611
 40
0.5466728064148471
 40
0.6085388288378345
 40
0.6672965788844345
 40
0.723238805381931
 40
0.7779178132543884
 40
0.8319683982367011
 40
0.8865062890455162
 40
0.9422129217808195
 40
1.0
 40
1.0
 40
1.0
 40
1.0
 10
155.0763636363637
 20
155.8362670627035
 30
0.0
 10
155.0754645808272
 20
155.7805949799155
 30
0.0
 10
155.0736975620053
 20
155.6711761351914
 30
0.0
 10
155.0581285043641
 20
155.5103884138473
 30
0.0
 10
155.0345965686205
 20
155.3560296063183
 30
0.0
 10
155.0001846380301
 20
155.2081872258058
 30
0.0
 10
154.9566314844644
 20
155.0669425114586
 30
0.0
 10
154.9020832852151
 20
154.9324103020462
 30
0.0
 10
154.8382126688031
 20
154.8046491920665
 30
0.0
 10
154.7657527103354
 20
154.6841907006727
 30
0.0
 10
154.6846801292944
 20
154.5745557264689
 30
0.0
 10
154.596810064937
 20
154.4778128733447
 30
0.0
 10
154.5012634374696
 20
154.3965003535433
 30
0.0
 10
154.3990473356873
 20
154.3300372834275
 30
0.0
 10
154.2901569664303
 20
154.2773345340644
 30
0.0
 10
154.1741682367759
 20
154.240588332859
 30
0.0
 10
154.0516905618604
 20
154.2178139435385
 30
0.0
 10
153.9677996052721
 20
154.2153583004512
 30
0.0
 10
153.9250852272728
 20
154.2141079717944
 30
0.0
  0
SPLINE
  5
14C
330
1F
100
AcDbEntity
  8
0
  6
Continuous
 62
     7
370
    25
100
AcDbSpline
210
0.0
220
0.0
230
1.0
 70
     8
 71
     3
 72
    23
 73
    19
 74
     0
 42
0.000000001
 43
0.00000001
 40
0.0
 40
0.0
 40
0.0
 40
0.0
 40
0.0616654615849808
 40
0.1205692146008593
 40
0.1782617024584801
 40
0.2353851224625559
 40
0.2917547900932277
 40
0.3482696560285733
 40
0.4065140894219307
 40
0.4664906247742517
 40
0.5274695608460457
 40
0.58885218951653
 40
0.6509421969372607
 40
0.7154443592576185
 40
0.7817725446502876
 40
0.8507296521552355
 40
0.9236741286389637
 40
1.0
 40
1.0
 40
1.0
 40
1.0
 10
154.2105965909091
 20
156.8504716081581
 30
0.0
 10
154.2414203389248
 20
156.8497002209315
 30
0.0
 10
154.3016873829683
 20
156.8481919933163
 30
0.0
 10
154.3899913710522
 20
156.8349562801101
 30
0.0
 10
154.4742514905841
 20
156.8136502891761
 30
0.0
 10
154.5547043068176
 20
156.7840267292671
 30
0.0
 10
154.6303938278128
 20
156.7451076526256
 30
0.0
 10
154.7023359022142
 20
156.6986160443711
 30
0.0
 10
154.769796043878
 20
156.6428999438738
 30
0.0
 10
154.8327201893892
 20
156.5790333161377
 30
0.0
 10
154.8904129506279
 20
156.5083094581029
 30
0.0
 10
154.9401458296529
 20
156.4304885298854
 30
0.0
 10
154.9823552574258
 20
156.3464384851287
 30
0.0
 10
155.0172455862437
 20
156.2563978758478
 30
0.0
 10
155.0431296122185
 20
156.1598318497841
 30
0.0
 10
155.0622537843849
 20
156.0575102276691
 30
0.0
 10
155.0748138384085
 20
155.9490310446255
 30
0.0
 10
155.0758392938912
 20
155.8744184519805
 30
0.0
 10
155.0763636363637
 20
155.8362670627035
 30
0.0
  0
SPLINE
  5
14D
330
1F
100
AcDbEntity
  8
0
  6
Continuous
 62
     7
370
    25
100
AcDbSpline
210
0.0
220
0.0
230
1.0
 70
     8
 71
     3
 72
    31
 73
    27
 74
     0
 42
0.000000001
 43
0.00000001
 40
0.0
 40
0.0
 40
0.0
 40
0.0
 40
0.0538870009329435
 40
0.106209788352646
 40
0.1571243490601964
 40
0.2074378945814178
 40
0.2565128744512556
 40
0.3045440172282134
 40
0.3520997960827615
 40
0.3992345404108419
 40
0.4453573297882717
 40
0.4894323597456898
 40
0.5321724820733632
 40
0.5733586522160674
 40
0.6132624888996152
 40
0.6520672325236285
 40
0.6899720666216398
 40
0.7274523659398802
 40
0.7639343499078404
 40
0.7994376387565345
 40
0.8338806083483531
 40
0.8677656760356859
 40
0.9009092933980895
 40
0.9339654626070901
 40
0.9669240109615771
 40
1.0
 40
1.0
 40
1.0
 40
1.0
 10
153.0763636363637
 20
155.2780284263399
 30
0.0
 10
153.0770237220005
 20
155.3166261338526
 30
0.0
 10
153.0783247325333
 20
155.3927011477677
 30
0.0
 10
153.0851955725022
 20
155.5050949312421
 30
0.0
 10
153.0979881190707
 20
155.6144063328109
 30
0.0
 10
153.1166887887514
 20
155.7204780928705
 30
0.0
 10
153.1391628526136
 20
155.823693504362
 30
0.0
 10
153.1668283112104
 20
155.9236298439104
 30
0.0
 10
153.2004130743247
 20
156.0202553242034
 30
0.0
 10
153.2385689698881
 20
156.1136759327594
 30
0.0
 10
153.2808127130808
 20
156.202588790608
 30
0.0
 10
153.3267039381736
 20
156.2860636150774
 30
0.0
 10
153.3744338173604
 20
156.3644325935261
 30
0.0
 10
153.4266746284413
 20
156.4362206425761
 30
0.0
 10
153.4813275354333
 20
156.5025466124681
 30
0.0
 10
153.5390101126141
 20
156.5630547299636
 30
0.0
 10
153.5994890540175
 20
156.6182792427712
 30
0.0
 10
153.6634184561755
 20
156.6667017469522
 30
0.0
 10
153.7285277627836
 20
156.7105625103805
 30
0.0
 10
153.7956460187999
 20
156.7468280214721
 30
0.0
 10
153.8623906147749
 20
156.7798411222128
 30
0.0
 10
153.9308106650493
 20
156.8046239488761
 30
0.0
 10
153.9992693945603
 20
156.8261572421849
 30
0.0
 10
154.0690656369733
 20
156.8398863861091
 30
0.0
 10
154.1395746302339
 20
156.8488653213448
 30
0.0
 10
154.1868945516065
 20
156.8499355447656
 30
0.0
 10
154.2105965909091
 20
156.8504716081581
 30
0.0
  0
SPLINE
  5
14E
330
1F
100
AcDbEntity
  8
0
  6
Continuous
 62
     7
370
    25
100
AcDbSpline
210
0.0
220
0.0
230
1.0
 70
     8
 71
     3
 72
    27
 73
    23
 74
     0
 42
0.000000001
 43
0.00000001
 40
0.0
 40
0.0
 40
0.0
 40
0.0
 40
0.0524522171021228
 40
0.1038152251651966
 40
0.1538474331226029
 40
0.2032510131134611
 40
0.251540258962242
 40
0.2991142589917137
 40
0.3460004955355044
 40
0.3924805224706856
 40
0.482122193389117
 40
0.5664026012726153
 40
0.6461463133959234
 40
0.7220037208448024
 40
0.7584976817432594
 40
0.7943252020270003
 40
0.8294199048812884
 40
0.8641461921101807
 40
0.8981688532014033
 40
0.9319844516704922
 40
0.9660483742471621
 40
1.0
 40
1.0
 40
1.0
 40
1.0
 10
164.7581818181818
 20
154.7375454717944
 30
0.0
 10
164.7584509660625
 20
154.7794638461321
 30
0.0
 10
164.7589836727693
 20
154.8624301287957
 30
0.0
 10
164.7674548853538
 20
154.9851201482107
 30
0.0
 10
164.7792173921057
 20
155.1050519717695
 30
0.0
 10
164.7962117787206
 20
155.2219011802599
 30
0.0
 10
164.8181816884438
 20
155.3359226887919
 30
0.0
 10
164.8454721256854
 20
155.4466946685946
 30
0.0
 10
164.8762189185369
 20
155.5550871526599
 30
0.0
 10
164.9254115881269
 20
155.692859508709
 30
0.0
 10
164.9932951496062
 20
155.8555086546247
 30
0.0
 10
165.0855998449013
 20
156.0362213432285
 30
0.0
 10
165.1873310802917
 20
156.1989065559703
 30
0.0
 10
165.2802713913963
 20
156.3214805335301
 30
0.0
 10
165.3603526656954
 20
156.4087459560765
 30
0.0
 10
165.4210404623259
 20
156.4695077732229
 30
0.0
 10
165.485340038913
 20
156.5243503389551
 30
0.0
 10
165.5520762537102
 20
156.5736965001884
 30
0.0
 10
165.6203158039608
 20
156.6192312272053
 30
0.0
 10
165.6920226652267
 20
156.6579273558675
 30
0.0
 10
165.7653887693872
 20
156.6933125394945
 30
0.0
 10
165.8164834672766
 20
156.7119212507944
 30
0.0
 10
165.8419886363636
 20
156.7212102445217
 30
0.0
  0
SPLINE
  5
14F
330
1F
100
AcDbEntity
  8
0
  6
Continuous
 62
     7
370
    25
100
AcDbSpline
210
0.0
220
0.0
230
1.0
 70
     8
 71
     3
 72
    19
 73
    15
 74
     0
 42
0.000000001
 43
0.00000001
 40
0.0
 40
0.0
 40
0.0
 40
0.0
 40
0.0683990243010596
 40
0.1366600999988563
 40
0.2059933883539477
 40
0.2775885035156996
 40
0.3518830425212562
 40
0.4292788789734233
 40
0.5112997402475064
 40
0.5985757450851499
 40
0.6912951594049574
 40
0.7885288960445002
 40
0.8914047837864045
 40
0.9999999999999999
 40
0.9999999999999999
 40
0.9999999999999999
 40
0.9999999999999999
 10
165.5294886363636
 20
153.3504716081581
 30
0.0
 10
165.49239019003
 20
153.3624739917728
 30
0.0
 10
165.4182681182963
 20
153.3864545523403
 30
0.0
 10
165.3138223685403
 20
153.4409861163103
 30
0.0
 10
165.2160595932804
 20
153.5093290344304
 30
0.0
 10
165.123632031905
 20
153.5902600368713
 30
0.0
 10
165.0404423764741
 20
153.6868928044519
 30
0.0
 10
164.966826404669
 20
153.7981130282793
 30
0.0
 10
164.9039363542097
 20
153.9239967905043
 30
0.0
 10
164.8506798528689
 20
154.0635643632929
 30
0.0
 10
164.8092429823963
 20
154.2161111046438
 30
0.0
 10
164.7799765431215
 20
154.3803532634257
 30
0.0
 10
164.7608133799889
 20
154.5552741855202
 30
0.0
 10
164.7590746800839
 20
154.6757026957972
 30
0.0
 10
164.7581818181818
 20
154.7375454717944
 30
0.0
  0
SPLINE
  5
150
330
1F
100
AcDbEntity
  8
0
  6
Continuous
 62
     7
370
    25
100
AcDbSpline
210
0.0
220
0.0
230
1.0
 70
     8
 71
     3
 72
    11
 73
     7
 74
     0
 42
0.000000001
 43
0.00000001
 40
0.0
 40
0.0
 40
0.0
 40
0.0
 40
0.3060295612379215
 40
0.5748099443670426
 40
0.8056598864433984
 40
1.0
 40
1.0
 40
1.0
 40
1.0
 10
165.9762215909091
 20
153.3050170627035
 30
0.0
 10
165.9302726190409
 20
153.3054678681208
 30
0.0
 10
165.8439674730399
 20
153.3063146080102
 30
0.0
 10
165.7233118951585
 20
153.3148617161424
 30
0.0
 10
165.6197065475764
 20
153.3275829644752
 30
0.0
 10
165.5577890484854
 20
153.3432916807975
 30
0.0
 10
165.5294886363636
 20
153.3504716081581
 30
0.0
  0
LINE
  5
151
330
1F
100
AcDbEntity
  8
0
  6
Continuous
 62
     7
370
    25
100
AcDbLine
 10
166.8483806818
 20
153.3050170627
 30
0.0
 11
165.9762215909
 21
153.3050170627
 31
0.0
  0
LINE
  5
152
330
1F
100
AcDbEntity
  8
0
  6
Continuous
 62
     7
370
    25
100
AcDbLine
 10
167.44
 20
156.8050170627
 30
0.0
 11
166.8483806818
 21
153.3050170627
 31
0.0
  0
LINE
  5
153
330
1F
100
AcDbEntity
  8
0
  6
Continuous
 62
     7
370
    25
100
AcDbLine
 10
166.4037784091
 20
156.8050170627
 30
0.0
 11
167.44
 21
156.8050170627
 31
0.0
  0
SPLINE
  5
154
330
1F
100
AcDbEntity
  8
0
  6
Continuous
 62
     7
370
    25
100
AcDbSpline
210
0.0
220
0.0
230
1.0
 70
     8
 71
     3
 72
    11
 73
     7
 74
     0
 42
0.000000001
 43
0.00000001
 40
0.0
 40
0.0
 40
0.0
 40
0.0
 40
0.2248248322031383
 40
0.4657331686667331
 40
0.7235704030057375
 40
1.0
 40
1.0
 40
1.0
 40
1.0
 10
165.8419886363636
 20
156.7212102445217
 30
0.0
 10
165.8827137683025
 20
156.7343997064454
 30
0.0
 10
165.9670774240268
 20
156.7617221771641
 30
0.0
 10
166.102772500586
 20
156.7865928453
 30
0.0
 10
166.249500281847
 20
156.8026421461646
 30
0.0
 10
166.351172971286
 20
156.8042072685576
 30
0.0
 10
166.4037784090909
 20
156.8050170627035
 30
0.0
  0
SPLINE
  5
155
330
1F
100
AcDbEntity
  8
0
  6
Continuous
 62
     7
370
    25
100
AcDbSpline
210
0.0
220
0.0
230
1.0
 70
     8
 71
     3
 72
    23
 73
    19
 74
     0
 42
0.000000001
 43
0.00000001
 40
0.0
 40
0.0
 40
0.0
 40
0.0
 40
0.0588521623302238
 40
0.1160184704123166
 40
0.1720998041470447
 40
0.2277322106394003
 40
0.2840672758195407
 40
0.3412198746258939
 40
0.3998024571630719
 40
0.4603841198017493
 40
0.5223242329120857
 40
0.584436163587189
 40
0.6470431981057342
 40
0.7123338100914481
 40
0.7793163777801742
 40
0.8489286852874396
 40
0.9226882961675746
 40
1.0
 40
1.0
 40
1.0
 40
1.0
 10
159.0309090909091
 20
156.1132556990671
 30
0.0
 10
159.0315681766421
 20
156.1381532449298
 30
0.0
 10
159.0328674682157
 20
156.1872351320454
 30
0.0
 10
159.0438678805614
 20
156.2593576538794
 30
0.0
 10
159.0615471783244
 20
156.3286688309178
 30
0.0
 10
159.0867508557266
 20
156.395260092888
 30
0.0
 10
159.1187339886427
 20
156.459363802736
 30
0.0
 10
159.1580934570283
 20
156.5207230037071
 30
0.0
 10
159.2045693070095
 20
156.5791773453111
 30
0.0
 10
159.2577931377063
 20
156.634375248552
 30
0.0
 10
159.3169106266257
 20
156.6855998421759
 30
0.0
 10
159.3826233139943
 20
156.7296987276977
 30
0.0
 10
159.4540169126223
 20
156.7667926426051
 30
0.0
 10
159.5303292769523
 20
156.7983232218612
 30
0.0
 10
159.6127182699983
 20
156.8212453077698
 30
0.0
 10
159.700035891636
 20
156.8386294296849
 30
0.0
 10
159.7930016139896
 20
156.848317807399
 30
0.0
 10
159.8568824437108
 20
156.8497425083876
 30
0.0
 10
159.8895738636364
 20
156.8504716081581
 30
0.0
  0
SPLINE
  5
156
330
1F
100
AcDbEntity
  8
0
  6
Continuous
 62
     7
370
    25
100
AcDbSpline
210
0.0
220
0.0
230
1.0
 70
     8
 71
     3
 72
    15
 73
    11
 74
     0
 42
0.000000001
 43
0.00000001
 40
0.0
 40
0.0
 40
0.0
 40
0.0
 40
0.1272562319668499
 40
0.251680431222871
 40
0.3738979488418166
 40
0.4947208349720961
 40
0.6170808988273411
 40
0.7413181579012955
 40
0.8690605083175102
 40
1.0
 40
1.0
 40
1.0
 40
1.0
 10
159.2141477272727
 20
155.6508977445217
 30
0.0
 10
159.1996872233469
 20
155.6670147535828
 30
0.0
 10
159.1710880277908
 20
155.6988900946
 30
0.0
 10
159.1330629500274
 20
155.7500484326913
 30
0.0
 10
159.1018596808702
 20
155.8043626353559
 30
0.0
 10
159.076187238139
 20
155.8610370011998
 30
0.0
 10
159.0551385904636
 20
155.9200226313939
 30
0.0
 10
159.0412842635675
 20
155.982293188681
 30
0.0
 10
159.0324806336509
 20
156.0469506662296
 30
0.0
 10
159.0314372370601
 20
156.0909726602728
 30
0.0
 10
159.0309090909091
 20
156.1132556990671
 30
0.0
  0
SPLINE
  5
157
330
1F
100
AcDbEntity
  8
0
  6
Continuous
 62
     7
370
    25
100
AcDbSpline
210
0.0
220
0.0
230
1.0
 70
     8
 71
     3
 72
    15
 73
    11
 74
     0
 42
0.000000001
 43
0.00000001
 40
0.0
 40
0.0
 40
0.0
 40
0.0
 40
0.1751042941891341
 40
0.3366410971376748
 40
0.4835451996908658
 40
0.6154622123321191
 40
0.732507295594067
 40
0.8357659825914816
 40
0.9245279673430021
 40
1.0
 40
1.0
 40
1.0
 40
1.0
 10
159.7404261363636
 20
155.3149602445217
 30
0.0
 10
159.7081336892351
 20
155.3320687168057
 30
0.0
 10
159.6460508894902
 20
155.3649600568308
 30
0.0
 10
159.5583969374373
 20
155.4149714839916
 30
0.0
 10
159.4786894872136
 20
155.4607132156782
 30
0.0
 10
159.4082876414174
 20
155.5039689017571
 30
0.0
 10
159.3469897548337
 20
155.5445590444008
 30
0.0
 10
159.2943904665605
 20
155.5818983091871
 30
0.0
 10
159.2505497137325
 20
155.616559479331
 30
0.0
 10
159.2256089812132
 20
155.6400862582403
 30
0.0
 10
159.2141477272727
 20
155.6508977445217
 30
0.0
  0
SPLINE
  5
158
330
1F
100
AcDbEntity
  8
0
  6
Continuous
 62
     7
370
    25
100
AcDbSpline
210
0.0
220
0.0
230
1.0
 70
     8
 71
     3
 72
    15
 73
    11
 74
     0
 42
0.000000001
 43
0.00000001
 40
0.0
 40
0.0
 40
0.0
 40
0.0
 40
0.068489530256882
 40
0.1509491867215958
 40
0.248595201438235
 40
0.3639657509556166
 40
0.4964639046939485
 40
0.6449737887028688
 40
0.8138957703902538
 40
1.0
 40
1.0
 40
1.0
 40
1.0
 10
160.0401420454546
 20
155.0883977445217
 30
0.0
 10
160.0360810326048
 20
155.0960940514381
 30
0.0
 10
160.0271306633345
 20
155.1130565165834
 30
0.0
 10
160.0075822243674
 20
155.1380985764275
 30
0.0
 10
159.9796936773455
 20
155.163278267513
 30
0.0
 10
159.9457435279693
 20
155.1910495407142
 30
0.0
 10
159.9044023916287
 20
155.2197877080351
 30
0.0
 10
159.8563000947079
 20
155.2505540249018
 30
0.0
 10
159.8013180496304
 20
155.2831804209785
 30
0.0
 10
159.7613679310795
 20
155.3040306069879
 30
0.0
 10
159.7404261363636
 20
155.3149602445217
 30
0.0
  0
SPLINE
  5
159
330
1F
100
AcDbEntity
  8
0
  6
Continuous
 62
     7
370
    25
100
AcDbSpline
210
0.0
220
0.0
230
1.0
 70
     8
 71
     3
 72
    11
 73
     7
 74
     0
 42
0.000000001
 43
0.00000001
 40
0.0
 40
0.0
 40
0.0
 40
0.0
 40
0.2769740499280888
 40
0.5323750065481722
 40
0.7747519076052273
 40
0.9999999999999999
 40
0.9999999999999999
 40
0.9999999999999999
 40
0.9999999999999999
 10
160.0763636363637
 20
154.8824318354308
 30
0.0
 10
160.0760772244933
 20
154.9018761081771
 30
0.0
 10
160.0755267089436
 20
154.9392501684304
 30
0.0
 10
160.0678895876803
 20
154.9931333230692
 30
0.0
 10
160.0572834381779
 20
155.0428583313877
 30
0.0
 10
160.0457145898221
 20
155.0735932065093
 30
0.0
 10
160.0401420454546
 20
155.0883977445217
 30
0.0
  0
SPLINE
  5
15A
330
1F
100
AcDbEntity
  8
0
  6
Continuous
 62
     7
370
    25
100
AcDbSpline
210
0.0
220
0.0
230
1.0
 70
     8
 71
     3
 72
    15
 73
    11
 74
     0
 42
0.000000001
 43
0.00000001
 40
0.0
 40
0.0
 40
0.0
 40
0.0
 40
0.1408251251502946
 40
0.2722704465591989
 40
0.398399120008634
 40
0.5253367990638176
 40
0.6502269619441351
 40
0.7687625601639595
 40
0.8824859194387841
 40
1.0
 40
1.0
 40
1.0
 40
1.0
 10
159.6942613636364
 20
154.5322897899762
 30
0.0
 10
159.7213807772754
 20
154.533367695175
 30
0.0
 10
159.7738132878381
 20
154.535451710577
 30
0.0
 10
159.8483891282144
 20
154.5557760623787
 30
0.0
 10
159.9146121973584
 20
154.5898422901486
 30
0.0
 10
159.9709191483409
 20
154.6364243815292
 30
0.0
 10
160.0180223348805
 20
154.6903879741283
 30
0.0
 10
160.0515949582436
 20
154.7507162039887
 30
0.0
 10
160.0731298561678
 20
154.8151823452618
 30
0.0
 10
160.0752739932102
 20
154.8597716847412
 30
0.0
 10
160.0763636363637
 20
154.8824318354308
 30
0.0
  0
SPLINE
  5
15B
330
1F
100
AcDbEntity
  8
0
  6
Continuous
 62
     7
370
    25
100
AcDbSpline
210
0.0
220
0.0
230
1.0
 70
     8
 71
     3
 72
    15
 73
    11
 74
     0
 42
0.000000001
 43
0.00000001
 40
0.0
 40
0.0
 40
0.0
 40
0.0
 40
0.1450584102998438
 40
0.2765042470335488
 40
0.3983062803534597
 40
0.5152629788256099
 40
0.6300974426092982
 40
0.7457933065089718
 40
0.8680005598004555
 40
1.0
 40
1.0
 40
1.0
 40
1.0
 10
159.2127272727273
 20
155.0322897899762
 30
0.0
 10
159.2152611135608
 20
154.9944698056431
 30
0.0
 10
159.2200910144974
 20
154.9223789405272
 30
0.0
 10
159.2467393976347
 20
154.8213255432032
 30
0.0
 10
159.2877032147992
 20
154.7331155325203
 30
0.0
 10
159.3457394402902
 20
154.660434272874
 30
0.0
 10
159.4162746598408
 20
154.6023351884572
 30
0.0
 10
159.4994880086027
 20
154.5616355001094
 30
0.0
 10
159.5933049095738
 20
154.5358739652719
 30
0.0
 10
159.6597559680503
 20
154.5335148071143
 30
0.0
 10
159.6942613636364
 20
154.5322897899762
 30
0.0
  0
LINE
  5
15C
330
1F
100
AcDbEntity
  8
0
  6
Continuous
 62
     7
370
    25
100
AcDbLine
 10
158.8490909091
 20
154.9868352445
 30
0.0
 11
159.2127272727
 21
155.03228979
 31
0.0
  0
SPLINE
  5
15D
330
1F
100
AcDbEntity
  8
0
  6
Continuous
 62
     7
370
    25
100
AcDbSpline
210
0.0
220
0.0
230
1.0
 70
     8
 71
     3
 72
    23
 73
    19
 74
     0
 42
0.000000001
 43
0.00000001
 40
0.0
 40
0.0
 40
0.0
 40
0.0
 40
0.0722496157943978
 40
0.1410177031229168
 40
0.2060590598673129
 40
0.2691643413366465
 40
0.3300268286607451
 40
0.3894059563906465
 40
0.4479529554362005
 40
0.5063469039677867
 40
0.5644866421929461
 40
0.6223710537099759
 40
0.6801994622357568
 40
0.7395993737001841
 40
0.8007350378866622
 40
0.8641938531108183
 40
0.9304200142882281
 40
1.0
 40
1.0
 40
1.0
 40
1.0
 10
159.6772159090909
 20
154.2141079717944
 30
0.0
 10
159.6464047638806
 20
154.2144844011447
 30
0.0
 10
159.5862671855646
 20
154.2152191206554
 30
0.0
 10
159.4989707744138
 20
154.2258207165591
 30
0.0
 10
159.4163086293616
 20
154.2408527948814
 30
0.0
 10
159.3390055993644
 20
154.2639638818478
 30
0.0
 10
159.2660113563805
 20
154.2921256638217
 30
0.0
 10
159.19816031537
 20
154.3271314838273
 30
0.0
 10
159.1352456097148
 20
154.3684956034885
 30
0.0
 10
159.0777410976871
 20
154.4162362901662
 30
0.0
 10
159.0254417314214
 20
154.469324170718
 30
0.0
 10
158.9809654336318
 20
154.5287928848858
 30
0.0
 10
158.9419257995006
 20
154.5925439459415
 30
0.0
 10
158.9101332456173
 20
154.6617758976373
 30
0.0
 10
158.8845547111507
 20
154.7360154601887
 30
0.0
 10
158.8653110670966
 20
154.8151510897413
 30
0.0
 10
158.8532785403964
 20
154.8993709984305
 30
0.0
 10
158.8505095799754
 20
154.9572044173756
 30
0.0
 10
158.8490909090909
 20
154.9868352445217
 30
0.0
  0
SPLINE
  5
15E
330
1F
100
AcDbEntity
  8
0
  6
Continuous
 62
     7
370
    25
100
AcDbSpline
210
0.0
220
0.0
230
1.0
 70
     8
 71
     3
 72
    23
 73
    19
 74
     0
 42
0.000000001
 43
0.00000001
 40
0.0
 40
0.0
 40
0.0
 40
0.0
 40
0.065574766576706
 40
0.1285621902141109
 40
0.1897816823679602
 40
0.2494566609341859
 40
0.308599698605095
 40
0.3673475360838296
 40
0.4278071718735573
 40
0.4886122941086493
 40
0.5499526075395536
 40
0.611151447831648
 40
0.6716827253596936
 40
0.7330760071689791
 40
0.796747786867616
 40
0.861808320346953
 40
0.9290446411000332
 40
1.0
 40
1.0
 40
1.0
 40
1.0
 10
160.44
 20
154.9385397899762
 30
0.0
 10
160.4391871793633
 20
154.9127185819316
 30
0.0
 10
160.4375936090502
 20
154.8620949772511
 30
0.0
 10
160.428927819733
 20
154.7876423156834
 30
0.0
 10
160.4111411166584
 20
154.7173039528029
 30
0.0
 10
160.3889567841002
 20
154.6498051706056
 30
0.0
 10
160.3584978926883
 20
154.5866798443683
 30
0.0
 10
160.3229966247892
 20
154.525908034881
 30
0.0
 10
160.2794852129873
 20
154.4697110859544
 30
0.0
 10
160.230559594463
 20
154.4168306459407
 30
0.0
 10
160.1758012380875
 20
154.3695362166028
 30
0.0
 10
160.1171076404815
 20
154.3274294134638
 30
0.0
 10
160.0538899752764
 20
154.2923258756221
 30
0.0
 10
159.9864144936585
 20
154.2639266144802
 30
0.0
 10
159.9149716287643
 20
154.2409478283805
 30
0.0
 10
159.8391462900379
 20
154.2259832895739
 30
0.0
 10
159.7596756161713
 20
154.2151801466337
 30
0.0
 10
159.7051912423835
 20
154.2144717185204
 30
0.0
 10
159.6772159090909
 20
154.2141079717944
 30
0.0
  0
SPLINE
  5
15F
330
1F
100
AcDbEntity
  8
0
  6
Continuous
 62
     7
370
    25
100
AcDbSpline
210
0.0
220
0.0
230
1.0
 70
     8
 71
     3
 72
    23
 73
    19
 74
     0
 42
0.000000001
 43
0.00000001
 40
0.0
 40
0.0
 40
0.0
 40
0.0
 40
0.0818814137770572
 40
0.1573351785435866
 40
0.2254411081666429
 40
0.2871576233194378
 40
0.3421523217630227
 40
0.39024408001043
 40
0.432081326765258
 40
0.4673281748426365
 40
0.5305865620795214
 40
0.5936688200565858
 40
0.6577932153498417
 40
0.7230302273948187
 40
0.789229016308533
 40
0.8568220638777505
 40
0.9269825182991699
 40
1.0
 40
1.0
 40
1.0
 40
1.0
 10
159.8192613636364
 20
155.6793068354308
 30
0.0
 10
159.8441649528809
 20
155.6661334612651
 30
0.0
 10
159.8920172123793
 20
155.6408208160532
 30
0.0
 10
159.9598590786954
 20
155.6032146661391
 30
0.0
 10
160.0213572925524
 20
155.5684706762232
 30
0.0
 10
160.075821553214
 20
155.53564639334
 30
0.0
 10
160.1242952081372
 20
155.5062146140119
 30
0.0
 10
160.1657064386734
 20
155.4784020657809
 30
0.0
 10
160.2003996201881
 20
155.4528720405185
 30
0.0
 10
160.2383548814656
 20
155.4229877354654
 30
0.0
 10
160.2782597960665
 20
155.3840201737656
 30
0.0
 10
160.3196114589292
 20
155.3330636184661
 30
0.0
 10
160.3562617344491
 20
155.277723614003
 30
0.0
 10
160.3856483411427
 20
155.2170247353014
 30
0.0
 10
160.4100146675292
 20
155.1529480706863
 30
0.0
 10
160.4281719019494
 20
155.0849916485532
 30
0.0
 10
160.4378000344016
 20
155.0129186331863
 30
0.0
 10
160.439256987269
 20
154.9636603770715
 30
0.0
 10
160.44
 20
154.9385397899762
 30
0.0
  0
SPLINE
  5
160
330
1F
100
AcDbEntity
  8
0
  6
Continuous
 62
     7
370
    25
100
AcDbSpline
210
0.0
220
0.0
230
1.0
 70
     8
 71
     3
 72
    15
 73
    11
 74
     0
 42
0.000000001
 43
0.00000001
 40
0.0
 40
0.0
 40
0.0
 40
0.0
 40
0.0802826659629707
 40
0.1711029575925149
 40
0.2765324386878191
 40
0.3935635294928145
 40
0.5243923414753533
 40
0.6687491845825858
 40
0.8277322108393493
 40
1.0
 40
1.0
 40
1.0
 40
1.0
 10
159.4705397727273
 20
155.9200738808853
 30
0.0
 10
159.4779384311021
 20
155.9113804516356
 30
0.0
 10
159.4937068702161
 20
155.8928525236153
 30
0.0
 10
159.5230917368612
 20
155.8666675481931
 30
0.0
 10
159.5574012399115
 20
155.8383176330424
 30
0.0
 10
159.5985430587561
 20
155.8095339069877
 30
0.0
 10
159.6443881940741
 20
155.7778684048113
 30
0.0
 10
159.6973571488012
 20
155.7462243944718
 30
0.0
 10
159.7561368464441
 20
155.7129326012165
 30
0.0
 10
159.7976647018255
 20
155.6908111498257
 30
0.0
 10
159.8192613636364
 20
155.6793068354308
 30
0.0
  0
SPLINE
  5
161
330
1F
100
AcDbEntity
  8
0
  6
Continuous
 62
     7
370
    25
100
AcDbSpline
210
0.0
220
0.0
230
1.0
 70
     8
 71
     3
 72
    11
 73
     7
 74
     0
 42
0.000000001
 43
0.00000001
 40
0.0
 40
0.0
 40
0.0
 40
0.0
 40
0.2511722015287141
 40
0.4968941709300541
 40
0.7437877536505164
 40
1.0
 40
1.0
 40
1.0
 40
1.0
 10
159.3945454545455
 20
156.1416647899762
 30
0.0
 10
159.3955129009256
 20
156.1216836370078
 30
0.0
 10
159.3974268008878
 20
156.0821549058105
 30
0.0
 10
159.4124139138123
 20
156.0246512986833
 30
0.0
 10
159.4356359997351
 20
155.9694806453084
 30
0.0
 10
159.4587623972454
 20
155.9367449157355
 30
0.0
 10
159.4705397727273
 20
155.9200738808853
 30
0.0
  0
SPLINE
  5
162
330
1F
100
AcDbEntity
  8
0
  6
Continuous
 62
     7
370
    25
100
AcDbSpline
210
0.0
220
0.0
230
1.0
 70
     8
 71
     3
 72
    15
 73
    11
 74
     0
 42
0.000000001
 43
0.00000001
 40
0.0
 40
0.0
 40
0.0
 40
0.0
 40
0.1511226330693683
 40
0.2887389660723147
 40
0.4165538257356572
 40
0.5397415730312547
 40
0.6565289389082596
 40
0.7692831913413827
 40
0.8815090550860074
 40
1.0
 40
1.0
 40
1.0
 40
1.0
 10
159.8725284090909
 20
156.5322897899762
 30
0.0
 10
159.8376100841264
 20
156.531022088395
 30
0.0
 10
159.7708941935781
 20
156.5285999836686
 30
0.0
 10
159.6764969630356
 20
156.5077308114213
 30
0.0
 10
159.5928388954498
 20
156.4738336704693
 30
0.0
 10
159.522515500446
 20
156.4251959639512
 30
0.0
 10
159.465139246948
 20
156.3665852971317
 30
0.0
 10
159.4239567182373
 20
156.298584681189
 30
0.0
 10
159.3984487809955
 20
156.2224956035893
 30
0.0
 10
159.39586990635
 20
156.1690917854688
 30
0.0
 10
159.3945454545455
 20
156.1416647899762
 30
0.0
  0
SPLINE
  5
163
330
1F
100
AcDbEntity
  8
0
  6
Continuous
 62
     7
370
    25
100
AcDbSpline
210
0.0
220
0.0
230
1.0
 70
     8
 71
     3
 72
    23
 73
    19
 74
     0
 42
0.000000001
 43
0.00000001
 40
0.0
 40
0.0
 40
0.0
 40
0.0
 40
0.0826389746764167
 40
0.160258242991398
 40
0.2331630548393042
 40
0.3017426108260476
 40
0.3659919239292909
 40
0.427723531382692
 40
0.4862244481077619
 40
0.5429348833670142
 40
0.5986795944062541
 40
0.6536144118732409
 40
0.7080923284160752
 40
0.7626808815263593
 40
0.8190253736075332
 40
0.8765806286752716
 40
0.9370425800248705
 40
1.0
 40
1.0
 40
1.0
 40
1.0
 10
160.3945454545455
 20
155.8959261536126
 30
0.0
 10
160.3944631703737
 20
155.9217458481224
 30
0.0
 10
160.3943036001847
 20
155.9718168817104
 30
0.0
 10
160.387650017468
 20
156.0444238224103
 30
0.0
 10
160.3771139504655
 20
156.1120625748834
 30
0.0
 10
160.3626949569802
 20
156.1747956644434
 30
0.0
 10
160.3423185050124
 20
156.2321416490278
 30
0.0
 10
160.3186262489903
 20
156.2847724692299
 30
0.0
 10
160.2898692237691
 20
156.3321069597054
 30
0.0
 10
160.2571551239236
 20
156.3745005442505
 30
0.0
 10
160.2197433781598
 20
156.4111464115322
 30
0.0
 10
160.1802243925905
 20
156.4444635299033
 30
0.0
 10
160.13641276035
 20
156.471337967758
 30
0.0
 10
160.0896739680438
 20
156.4934599161957
 30
0.0
 10
160.0401075827334
 20
156.5115525335484
 30
0.0
 10
159.9868007637268
 20
156.5230832847879
 30
0.0
 10
159.9308004514419
 20
156.5315409807846
 30
0.0
 10
159.892212498604
 20
156.5320368448835
 30
0.0
 10
159.8725284090909
 20
156.5322897899762
 30
0.0
  0
LINE
  5
164
330
1F
100
AcDbEntity
  8
0
  6
Continuous
 62
     7
370
    25
100
AcDbLine
 10
160.7581818182
 20
155.9413806991
 30
0.0
 11
160.3945454545
 21
155.8959261536
 31
0.0
  0
LINE
  5
165
330
1F
100
AcDbEntity
  8
0
  6
Continuous
 62
     7
370
    25
100
AcDbLine
 10
160.7581818182
 20
155.9882556991
 30
0.0
 11
160.7581818182
 21
155.9413806991
 31
0.0
  0
SPLINE
  5
166
330
1F
100
AcDbEntity
  8
0
  6
Continuous
 62
     7
370
    25
100
AcDbSpline
210
0.0
220
0.0
230
1.0
 70
     8
 71
     3
 72
    23
 73
    19
 74
     0
 42
0.000000001
 43
0.00000001
 40
0.0
 40
0.0
 40
0.0
 40
0.0
 40
0.0710793448130197
 40
0.1389696679515758
 40
0.2031117783295319
 40
0.2648853419759186
 40
0.3251480906719829
 40
0.3834706656666733
 40
0.4411629511826031
 40
0.4990923988995064
 40
0.5566033329710199
 40
0.614764485906326
 40
0.673335048299191
 40
0.732854335747559
 40
0.7952630008979975
 40
0.8600089199239049
 40
0.9278992430624549
 40
1.0
 40
1.0
 40
1.0
 40
1.0
 10
159.8895738636364
 20
156.8504716081581
 30
0.0
 10
159.9225082550005
 20
156.8498096451595
 30
0.0
 10
159.9868994145433
 20
156.8485154185688
 30
0.0
 10
160.0805548252887
 20
156.8378790074101
 30
0.0
 10
160.16859975565
 20
156.8198704791388
 30
0.0
 10
160.2516275957392
 20
156.7960806147171
 30
0.0
 10
160.3291093768675
 20
156.7642445410609
 30
0.0
 10
160.4005879544439
 20
156.724502488478
 30
0.0
 10
160.4674643532959
 20
156.6792383441745
 30
0.0
 10
160.5274445023868
 20
156.6256831631281
 30
0.0
 10
160.5819629586678
 20
156.5664029903322
 30
0.0
 10
160.6297739321201
 20
156.5010871350673
 30
0.0
 10
160.669308614104
 20
156.4294773780335
 30
0.0
 10
160.7028814867243
 20
156.3526872208853
 30
0.0
 10
160.726740592189
 20
156.2693895446641
 30
0.0
 10
160.7457445465225
 20
156.1809776444112
 30
0.0
 10
160.756229266484
 20
156.0865190847741
 30
0.0
 10
160.7575180469714
 20
156.0216604004855
 30
0.0
 10
160.7581818181818
 20
155.9882556990672
 30
0.0
  0
SPLINE
  5
167
330
1F
100
AcDbEntity
  8
0
  6
Continuous
 62
     7
370
    25
100
AcDbSpline
210
0.0
220
0.0
230
1.0
 70
     8
 71
     3
 72
    11
 73
     7
 74
     0
 42
0.000000001
 43
0.00000001
 40
0.0
 40
0.0
 40
0.0
 40
0.0
 40
0.2155138168373357
 40
0.4547053244133487
 40
0.7153144235925717
 40
1.0
 40
1.0
 40
1.0
 40
1.0
 10
184.9485227272727
 20
153.8398181990671
 30
0.0
 10
184.9538875258841
 20
153.8997465856886
 30
0.0
 10
184.9652065333092
 20
154.0261874648869
 30
0.0
 10
184.9896730505335
 20
154.2244125715617
 30
0.0
 10
185.0218196029934
 20
154.4410656091888
 30
0.0
 10
185.0478559150311
 20
154.5910567779811
 30
0.0
 10
185.0614488636363
 20
154.6693636536126
 30
0.0
  0
SPLINE
  5
168
330
1F
100
AcDbEntity
  8
0
  6
Continuous
 62
     7
370
    25
100
AcDbSpline
210
0.0
220
0.0
230
1.0
 70
     8
 71
     3
 72
    11
 73
     7
 74
     0
 42
0.000000001
 43
0.00000001
 40
0.0
 40
0.0
 40
0.0
 40
0.0
 40
0.2791352987209191
 40
0.5384445167415931
 40
0.7791571478745398
 40
1.0
 40
1.0
 40
1.0
 40
1.0
 10
184.6679829545454
 20
154.7929431990672
 30
0.0
 10
184.6963806086085
 20
154.7049463434639
 30
0.0
 10
184.7511589228834
 20
154.5352027653239
 30
0.0
 10
184.826786586081
 20
154.2884228577528
 30
0.0
 10
184.8924273317328
 20
154.0588029529996
 30
0.0
 10
184.9303687158987
 20
153.9106876826558
 30
0.0
 10
184.9485227272727
 20
153.8398181990672
 30
0.0
  0
LINE
  5
169
330
1F
100
AcDbEntity
  8
0
  6
Continuous
 62
     7
370
    25
100
AcDbLine
 10
183.94
 20
156.8050170627
 30
0.0
 11
184.6679829545
 21
154.7929431991
 31
0.0
  0
LINE
  5
16A
330
1F
100
AcDbEntity
  8
0
  6
Continuous
 62
     7
370
    25
100
AcDbLine
 10
183.5564772727
 20
156.8050170627
 30
0.0
 11
183.94
 21
156.8050170627
 31
0.0
  0
LINE
  5
16B
330
1F
100
AcDbEntity
  8
0
  6
Continuous
 62
     7
370
    25
100
AcDbLine
 10
182.9641477273
 20
153.3050170627
 30
0.0
 11
183.5564772727
 21
156.8050170627
 31
0.0
  0
LINE
  5
16C
330
1F
100
AcDbEntity
  8
0
  6
Continuous
 62
     7
370
    25
100
AcDbLine
 10
183.3334659091
 20
153.3050170627
 30
0.0
 11
182.9641477273
 21
153.3050170627
 31
0.0
  0
LINE
  5
16D
330
1F
100
AcDbEntity
  8
0
  6
Continuous
 62
     7
370
    25
100
AcDbLine
 10
183.6892897727
 20
155.3561534263
 30
0.0
 11
183.3334659091
 21
153.3050170627
 31
0.0
  0
SPLINE
  5
16E
330
1F
100
AcDbEntity
  8
0
  6
Continuous
 62
     7
370
    25
100
AcDbSpline
210
0.0
220
0.0
230
1.0
 70
     8
 71
     3
 72
     9
 73
     5
 74
     0
 42
0.000000001
 43
0.00000001
 40
0.0
 40
0.0
 40
0.0
 40
0.0
 40
0.4961591109685734
 40
1.0
 40
1.0
 40
1.0
 40
1.0
 10
183.8206818181818
 20
156.275187517249
 30
0.0
 10
183.8013501326743
 20
156.1228490561126
 30
0.0
 10
183.7623874590477
 20
155.8158135552649
 30
0.0
 10
183.7137801317343
 20
155.5101561334741
 30
0.0
 10
183.6892897727272
 20
155.3561534263399
 30
0.0
  0
SPLINE
  5
16F
330
1F
100
AcDbEntity
  8
0
  6
Continuous
 62
     7
370
    25
100
AcDbSpline
210
0.0
220
0.0
230
1.0
 70
     8
 71
     3
 72
    11
 73
     7
 74
     0
 42
0.000000001
 43
0.00000001
 40
0.0
 40
0.0
 40
0.0
 40
0.0
 40
0.2121774586276838
 40
0.4489009667349215
 40
0.7114906539182634
 40
1.0
 40
1.0
 40
1.0
 40
1.0
 10
184.0074715909091
 20
155.5898181990671
 30
0.0
 10
183.9925549517885
 20
155.6378063239
 30
0.0
 10
183.9609960210473
 20
155.7393341476782
 30
0.0
 10
183.9160547620286
 20
155.9017541605943
 30
0.0
 10
183.8683583033549
 20
156.0821381348595
 30
0.0
 10
183.8370645888867
 20
156.2088511722997
 30
0.0
 10
183.8206818181818
 20
156.275187517249
 30
0.0
  0
SPLINE
  5
170
330
1F
100
AcDbEntity
  8
0
  6
Continuous
 62
     7
370
    25
100
AcDbSpline
210
0.0
220
0.0
230
1.0
 70
     8
 71
     3
 72
    15
 73
    11
 74
     0
 42
0.000000001
 43
0.00000001
 40
0.0
 40
0.0
 40
0.0
 40
0.0
 40
0.1473319395763514
 40
0.2884946194558118
 40
0.4226039186233311
 40
0.5507849952645105
 40
0.672580149686022
 40
0.7884487574136444
 40
0.8972927867977957
 40
1.0
 40
1.0
 40
1.0
 40
1.0
 10
184.3455397727273
 20
154.6239091081581
 30
0.0
 10
184.3279917253536
 20
154.6710098341027
 30
0.0
 10
184.2936304234947
 20
154.7632390278984
 30
0.0
 10
184.2437864318064
 20
154.898527412893
 30
0.0
 10
184.1979429896454
 20
155.0283110742816
 30
0.0
 10
184.1533642124894
 20
155.1515342378716
 30
0.0
 10
184.1133802647741
 20
155.2697718520017
 30
0.0
 10
184.0746918857471
 20
155.3814774761939
 30
0.0
 10
184.0399178783575
 20
155.487633878665
 30
0.0
 10
184.0180758171477
 20
155.5564219082493
 30
0.0
 10
184.0074715909091
 20
155.5898181990671
 30
0.0
  0
LINE
  5
171
330
1F
100
AcDbEntity
  8
0
  6
Continuous
 62
     7
370
    25
100
AcDbLine
 10
184.8221022727
 20
153.3050170627
 30
0.0
 11
184.3455397727
 21
154.6239091082
 31
0.0
  0
LINE
  5
172
330
1F
100
AcDbEntity
  8
0
  6
Continuous
 62
     7
370
    25
100
AcDbLine
 10
185.205625
 20
153.3050170627
 30
0.0
 11
184.8221022727
 21
153.3050170627
 31
0.0
  0
LINE
  5
173
330
1F
100
AcDbEntity
  8
0
  6
Continuous
 62
     7
370
    25
100
AcDbLine
 10
185.8036363636
 20
156.8050170627
 30
0.0
 11
185.205625
 21
153.3050170627
 31
0.0
  0
LINE
  5
174
330
1F
100
AcDbEntity
  8
0
  6
Continuous
 62
     7
370
    25
100
AcDbLine
 10
185.4357386364
 20
156.8050170627
 30
0.0
 11
185.8036363636
 21
156.8050170627
 31
0.0
  0
LINE
  5
175
330
1F
100
AcDbEntity
  8
0
  6
Continuous
 62
     7
370
    25
100
AcDbLine
 10
185.0614488636
 20
154.6693636536
 30
0.0
 11
185.4357386364
 21
156.8050170627
 31
0.0
  0
LINE
  5
176
330
1F
100
AcDbEntity
  8
0
  6
Continuous
 62
     7
370
    25
100
AcDbLine
 10
186.6480965909
 20
155.8504716082
 30
0.0
 11
187.8909943182
 21
155.8504716082
 31
0.0
  0
LINE
  5
177
330
1F
100
AcDbEntity
  8
0
  6
Continuous
 62
     7
370
    25
100
AcDbLine
 10
186.5309090909
 20
156.8050170627
 30
0.0
 11
186.6480965909
 21
155.8504716082
 31
0.0
  0
LINE
  5
178
330
1F
100
AcDbEntity
  8
0
  6
Continuous
 62
     7
370
    25
100
AcDbLine
 10
186.1651420455
 20
156.8050170627
 30
0.0
 11
186.5309090909
 21
156.8050170627
 31
0.0
  0
LINE
  5
179
330
1F
100
AcDbEntity
  8
0
  6
Continuous
 62
     7
370
    25
100
AcDbLine
 10
186.6445454545
 20
153.3050170627
 30
0.0
 11
186.1651420455
 21
156.8050170627
 31
0.0
  0
LINE
  5
17A
330
1F
100
AcDbEntity
  8
0
  6
Continuous
 62
     7
370
    25
100
AcDbLine
 10
187.0891477273
 20
153.3050170627
 30
0.0
 11
186.6445454545
 21
153.3050170627
 31
0.0
  0
LINE
  5
17B
330
1F
100
AcDbEntity
  8
0
  6
Continuous
 62
     7
370
    25
100
AcDbLine
 10
188.7148579545
 20
156.8050170627
 30
0.0
 11
187.0891477273
 21
153.3050170627
 31
0.0
  0
LINE
  5
17C
330
1F
100
AcDbEntity
  8
0
  6
Continuous
 62
     7
370
    25
100
AcDbLine
 10
188.3206818182
 20
156.8050170627
 30
0.0
 11
188.7148579545
 21
156.8050170627
 31
0.0
  0
LINE
  5
17D
330
1F
100
AcDbEntity
  8
0
  6
Continuous
 62
     7
370
    25
100
AcDbLine
 10
187.8909943182
 20
155.8504716082
 30
0.0
 11
188.3206818182
 21
156.8050170627
 31
0.0
  0
SPLINE
  5
17E
330
1F
100
AcDbEntity
  8
0
  6
Continuous
 62
     7
370
    25
100
AcDbSpline
210
0.0
220
0.0
230
1.0
 70
     8
 71
     3
 72
    15
 73
    11
 74
     0
 42
0.000000001
 43
0.00000001
 40
0.0
 40
0.0
 40
0.0
 40
0.0
 40
0.1266079463577314
 40
0.2474347576742193
 40
0.3659694680941825
 40
0.484666852026749
 40
0.6055442235070024
 40
0.7298140232730617
 40
0.8602232911045085
 40
1.0
 40
1.0
 40
1.0
 40
1.0
 10
171.2858806818182
 20
155.009562517249
 30
0.0
 10
171.2519191875185
 20
155.0253288795446
 30
0.0
 10
171.1855469387453
 20
155.0561416851089
 30
0.0
 10
171.0972220742767
 20
155.1193806938048
 30
0.0
 10
171.0208556369334
 20
155.1930037097592
 30
0.0
 10
170.9578183808153
 20
155.2784976185399
 30
0.0
 10
170.9085859971421
 20
155.3744660319421
 30
0.0
 10
170.8738105276742
 20
155.4801276992272
 30
0.0
 10
170.8529674178702
 20
155.5951552509113
 30
0.0
 10
170.850412604109
 20
155.6749552877722
 30
0.0
 10
170.8490909090909
 20
155.7162386536126
 30
0.0
  0
SPLINE
  5
17F
330
1F
100
AcDbEntity
  8
0
  6
Continuous
 62
     7
370
    25
100
AcDbSpline
210
0.0
220
0.0
230
1.0
 70
     8
 71
     3
 72
    15
 73
    11
 74
     0
 42
0.000000001
 43
0.00000001
 40
0.0
 40
0.0
 40
0.0
 40
0.0
 40
0.1397365641356332
 40
0.2708504146265269
 40
0.3965724511891127
 40
0.5186775119245451
 40
0.6381937934848873
 40
0.7563043459892591
 40
0.8756267044711645
 40
1.0
 40
1.0
 40
1.0
 40
1.0
 10
170.8036363636364
 20
154.1558693354308
 30
0.0
 10
170.8050693966788
 20
154.2042649520255
 30
0.0
 10
170.8078470347014
 20
154.2980698405446
 30
0.0
 10
170.8312407689762
 20
154.4337636915944
 30
0.0
 10
170.8684122499681
 20
154.5599148708399
 30
0.0
 10
170.9220196247659
 20
154.6756948579796
 30
0.0
 10
170.9901854177195
 20
154.7805334383634
 30
0.0
 10
171.0745411917944
 20
154.8714707072024
 30
0.0
 10
171.1730309285741
 20
154.949947096801
 30
0.0
 10
171.2477478924912
 20
154.9894180135772
 30
0.0
 10
171.2858806818182
 20
155.009562517249
 30
0.0
  0
SPLINE
  5
180
330
1F
100
AcDbEntity
  8
0
  6
Continuous
 62
     7
370
    25
100
AcDbSpline
210
0.0
220
0.0
230
1.0
 70
     8
 71
     3
 72
    15
 73
    11
 74
     0
 42
0.000000001
 43
0.00000001
 40
0.0
 40
0.0
 40
0.0
 40
0.0
 40
0.119928225809555
 40
0.2352687333574112
 40
0.3505073832312409
 40
0.4679795394891615
 40
0.5897309334995212
 40
0.7176240374819253
 40
0.8533080888327775
 40
1.0
 40
1.0
 40
1.0
 40
1.0
 10
171.2858806818182
 20
153.3632556990672
 30
0.0
 10
171.2490039356738
 20
153.3783102027375
 30
0.0
 10
171.176661121485
 20
153.4078433171144
 30
0.0
 10
171.0801525246792
 20
153.4738712790102
 30
0.0
 10
170.9959085257733
 20
153.5532593247654
 30
0.0
 10
170.9256396476756
 20
153.6481920624843
 30
0.0
 10
170.8710547546141
 20
153.7574670544981
 30
0.0
 10
170.8312260208284
 20
153.8791889022439
 30
0.0
 10
170.807694730522
 20
154.0136315197169
 30
0.0
 10
170.8050238587885
 20
154.1072403461566
 30
0.0
 10
170.8036363636364
 20
154.1558693354308
 30
0.0
  0
SPLINE
  5
181
330
1F
100
AcDbEntity
  8
0
  6
Continuous
 62
     7
370
    25
100
AcDbSpline
210
0.0
220
0.0
230
1.0
 70
     8
 71
     3
 72
    15
 73
    11
 74
     0
 42
0.000000001
 43
0.00000001
 40
0.0
 40
0.0
 40
0.0
 40
0.0
 40
0.160667244781324
 40
0.3113075093114046
 40
0.4506262229304822
 40
0.580101252089721
 40
0.6998506863181622
 40
0.8088578036716967
 40
0.9089061274206233
 40
1.0
 40
1.0
 40
1.0
 40
1.0
 10
171.7709659090909
 20
153.3050170627035
 30
0.0
 10
171.7446852539788
 20
153.3050968709098
 30
0.0
 10
171.6937640765034
 20
153.3052515066227
 30
0.0
 10
171.6200908821771
 20
153.3080338746387
 30
0.0
 10
171.5516627340692
 20
153.3131126718916
 30
0.0
 10
171.4884272212144
 20
153.3194742708035
 30
0.0
 10
171.430288015774
 20
153.3269284056644
 30
0.0
 10
171.3774059866684
 20
153.3368775127224
 30
0.0
 10
171.3297368273473
 20
153.3488054386098
 30
0.0
 10
171.3000355917421
 20
153.3585917658217
 30
0.0
 10
171.2858806818182
 20
153.3632556990672
 30
0.0
  0
LINE
  5
182
330
1F
100
AcDbEntity
  8
0
  6
Continuous
 62
     7
370
    25
100
AcDbLine
 10
172.6665625
 20
153.3050170627
 30
0.0
 11
171.7709659091
 21
153.3050170627
 31
0.0
  0
LINE
  5
183
330
1F
100
AcDbEntity
  8
0
  6
Continuous
 62
     7
370
    25
100
AcDbLine
 10
173.2581818182
 20
156.8050170627
 30
0.0
 11
172.6665625
 21
153.3050170627
 31
0.0
  0
LINE
  5
184
330
1F
100
AcDbEntity
  8
0
  6
Continuous
 62
     7
370
    25
100
AcDbLine
 10
171.8561931818
 20
156.8050170627
 30
0.0
 11
173.2581818182
 21
156.8050170627
 31
0.0
  0
SPLINE
  5
185
330
1F
100
AcDbEntity
  8
0
  6
Continuous
 62
     7
370
    25
100
AcDbSpline
210
0.0
220
0.0
230
1.0
 70
     8
 71
     3
 72
    19
 73
    15
 74
     0
 42
0.000000001
 43
0.00000001
 40
0.0
 40
0.0
 40
0.0
 40
0.0
 40
0.0885780588079921
 40
0.1763653486433842
 40
0.2640477241599691
 40
0.3539282721747505
 40
0.4424674853295926
 40
0.5267236542612362
 40
0.6072594672863053
 40
0.68656913521231
 40
0.7650621824435564
 40
0.8422521071387926
 40
0.9200562976820024
 40
1.0
 40
1.0
 40
1.0
 40
1.0
 10
170.8490909090909
 20
155.7162386536126
 30
0.0
 10
170.8509136541414
 20
155.7648921537168
 30
0.0
 10
170.8545428719256
 20
155.8617648062006
 30
0.0
 10
170.882321178447
 20
156.0046390695519
 30
0.0
 10
170.9282424538985
 20
156.143293286576
 30
0.0
 10
170.9921473402877
 20
156.2750262924855
 30
0.0
 10
171.0680971006853
 20
156.3980259329788
 30
0.0
 10
171.1567947732124
 20
156.5056232398849
 30
0.0
 10
171.2540078034114
 20
156.5985217705757
 30
0.0
 10
171.3622312270472
 20
156.6729087315671
 30
0.0
 10
171.4772104969863
 20
156.7322232365129
 30
0.0
 10
171.5986179426874
 20
156.7745249400554
 30
0.0
 10
171.7256222465824
 20
156.800116211332
 30
0.0
 10
171.8122777713048
 20
156.8033687410502
 30
0.0
 10
171.8561931818182
 20
156.8050170627035
 30
0.0
  0
LINE
  5
186
330
1F
100
AcDbEntity
  8
0
  6
Continuous
 62
     7
370
    25
100
AcDbLine
 10
208.94
 20
241.3050170627
 30
0.0
 11
149.94
 21
241.3050170627
 31
0.0
  0
LINE
  5
187
330
1F
100
AcDbEntity
  8
0
  6
Continuous
 62
     7
370
    25
100
AcDbLine
 10
208.94
 20
152.3050170627
 30
0.0
 11
208.94
 21
241.3050170627
 31
0.0
  0
LINE
  5
188
330
1F
100
AcDbEntity
  8
0
  6
Continuous
 62
     7
370
    25
100
AcDbLine
 10
149.94
 20
152.3050170627
 30
0.0
 11
208.94
 21
152.3050170627
 31
0.0
  0
LINE
  5
189
330
1F
100
AcDbEntity
  8
0
  6
Continuous
 62
     7
370
    25
100
AcDbLine
 10
149.94
 20
152.3050170627
 30
0.0
 11
149.94
 21
241.3050170627
 31
0.0
  0
LINE
  5
18A
330
1F
100
AcDbEntity
  8
0
  6
Continuous
 62
     7
370
    25
100
AcDbLine
 10
152.7730965909
 20
156.3050170627
 30
0.0
 11
152.4009375
 21
156.3050170627
 31
0.0
  0
LINE
  5
18B
330
1F
100
AcDbEntity
  8
0
  6
Continuous
 62
     7
370
    25
100
AcDbLine
 10
152.8490909091
 20
156.8050170627
 30
0.0
 11
152.7730965909
 21
156.3050170627
 31
0.0
  0
LINE
  5
18C
330
1F
100
AcDbEntity
  8
0
  6
Continuous
 62
     7
370
    25
100
AcDbLine
 10
152.4854545455
 20
156.8050170627
 30
0.0
 11
152.8490909091
 21
156.8050170627
 31
0.0
  0
LINE
  5
18D
330
1F
100
AcDbEntity
  8
0
  6
Continuous
 62
     7
370
    25
100
AcDbLine
 10
152.4009375
 20
156.3050170627
 30
0.0
 11
152.4854545455
 21
156.8050170627
 31
0.0
  0
SPLINE
  5
18E
330
1F
100
AcDbEntity
  8
0
  6
Continuous
 62
     7
370
    25
100
AcDbSpline
210
0.0
220
0.0
230
1.0
 70
     8
 71
     3
 72
    23
 73
    19
 74
     0
 42
0.000000001
 43
0.00000001
 40
0.0
 40
0.0
 40
0.0
 40
0.0
 40
0.0572634327750007
 40
0.1125680570640922
 40
0.1669845284142367
 40
0.2207415784534422
 40
0.2751039573987241
 40
0.3304580237118289
 40
0.3875842853978111
 40
0.4471512336609391
 40
0.5081971405965205
 40
0.5705729247016895
 40
0.6343933180777892
 40
0.7008523166253892
 40
0.7701283036819968
 40
0.8428097211193446
 40
0.9193141925768289
 40
1.0
 40
1.0
 40
1.0
 40
1.0
 10
174.6488068181818
 20
153.259562517249
 30
0.0
 10
174.606596262822
 20
153.2607589962834
 30
0.0
 10
174.5236190472728
 20
153.2631110264307
 30
0.0
 10
174.4017406045491
 20
153.2826657283549
 30
0.0
 10
174.2856783127964
 20
153.3156555583024
 30
0.0
 10
174.1742662946025
 20
153.3604047688551
 30
0.0
 10
174.0690264261605
 20
153.419524354235
 30
0.0
 10
173.967916819981
 20
153.489886985341
 30
0.0
 10
173.8734360775286
 20
153.5748045467527
 30
0.0
 10
173.7841119430763
 20
153.6708161719488
 30
0.0
 10
173.7029461151279
 20
153.7788512366505
 30
0.0
 10
173.6328481885535
 20
153.8979726010568
 30
0.0
 10
173.5727432288695
 20
154.0268069790887
 30
0.0
 10
173.5238065981732
 20
154.1657149330896
 30
0.0
 10
173.4864697211029
 20
154.3148772905422
 30
0.0
 10
173.4597783995783
 20
154.4737462054241
 30
0.0
 10
173.4431936364869
 20
154.642497980546
 30
0.0
 10
173.4410832578532
 20
154.7583396151179
 30
0.0
 10
173.44
 20
154.8178011536126
 30
0.0
  0
SPLINE
  5
18F
330
1F
100
AcDbEntity
  8
0
  6
Continuous
 62
     7
370
    25
100
AcDbSpline
210
0.0
220
0.0
230
1.0
 70
     8
 71
     3
 72
    15
 73
    11
 74
     0
 42
0.000000001
 43
0.00000001
 40
0.0
 40
0.0
 40
0.0
 40
0.0
 40
0.1366486092688866
 40
0.2673174602160079
 40
0.3924622863728364
 40
0.5145038537149265
 40
0.63434928262964
 40
0.7539910928012366
 40
0.8757134371801419
 40
1.0
 40
1.0
 40
1.0
 40
1.0
 10
175.6878693181818
 20
153.7879716081581
 30
0.0
 10
175.6522665966664
 20
153.7459756862221
 30
0.0
 10
175.582619132684
 20
153.6638215885592
 30
0.0
 10
175.4659445871765
 20
153.5567374145648
 30
0.0
 10
175.3446957465922
 20
153.4644944757431
 30
0.0
 10
175.2170063789362
 20
153.3893863968319
 30
0.0
 10
175.0831031990839
 20
153.331420392166
 30
0.0
 10
174.9434018837493
 20
153.2900600654063
 30
0.0
 10
174.7979419144177
 20
153.2644985351963
 30
0.0
 10
174.6988627600113
 20
153.2612192501943
 30
0.0
 10
174.6488068181818
 20
153.259562517249
 30
0.0
  0
SPLINE
  5
190
330
1F
100
AcDbEntity
  8
0
  6
Continuous
 62
     7
370
    25
100
AcDbSpline
210
0.0
220
0.0
230
1.0
 70
     8
 71
     3
 72
    15
 73
    11
 74
     0
 42
0.000000001
 43
0.00000001
 40
0.0
 40
0.0
 40
0.0
 40
0.0
 40
0.1409754907900333
 40
0.2756587093978872
 40
0.4052540319038674
 40
0.5296609519050449
 40
0.650588519724434
 40
0.7685867380843168
 40
0.8846940504466464
 40
0.9999999999999999
 40
0.9999999999999999
 40
0.9999999999999999
 40
0.9999999999999999
 10
176.1672727272727
 20
155.3369772899763
 30
0.0
 10
176.1657126468266
 20
155.2592752155265
 30
0.0
 10
176.1626621182567
 20
155.1073392056548
 30
0.0
 10
176.1405710909916
 20
154.8848261561904
 30
0.0
 10
176.1032410164843
 20
154.673671548146
 30
0.0
 10
176.0505523314005
 20
154.4736267142843
 30
0.0
 10
175.9832573974879
 20
154.2847249140393
 30
0.0
 10
175.9004333596964
 20
154.1072067569744
 30
0.0
 10
175.8036115958988
 20
153.940210697891
 30
0.0
 10
175.7263609067473
 20
153.8386006826948
 30
0.0
 10
175.6878693181818
 20
153.7879716081581
 30
0.0
  0
SPLINE
  5
191
330
1F
100
AcDbEntity
  8
0
  6
Continuous
 62
     7
370
    25
100
AcDbSpline
210
0.0
220
0.0
230
1.0
 70
     8
 71
     3
 72
    31
 73
    27
 74
     0
 42
0.000000001
 43
0.00000001
 40
0.0
 40
0.0
 40
0.0
 40
0.0
 40
0.0378713464109285
 40
0.0752373637875361
 40
0.1117100053357609
 40
0.1480293779298888
 40
0.1837275779421367
 40
0.2198555742787952
 40
0.2560644308236267
 40
0.2926970928545348
 40
0.3296945900129154
 40
0.3673249162395021
 40
0.4054911409512005
 40
0.4446574501178602
 40
0.4850732355790512
 40
0.5267893868922991
 40
0.5696934240132835
 40
0.6144400279784301
 40
0.6601209498234313
 40
0.7064610481271767
 40
0.7528957169671191
 40
0.8002348284767894
 40
0.8487179112267808
 40
0.8978269804014983
 40
0.948311859011129
 40
1.0
 40
1.0
 40
1.0
 40
1.0
 10
174.9655681818182
 20
156.8504716081581
 30
0.0
 10
174.9928058583957
 20
156.8498417229532
 30
0.0
 10
175.0469177708466
 20
156.8485903572955
 30
0.0
 10
175.1270451906264
 20
156.8411579407663
 30
0.0
 10
175.2049758818169
 20
156.8263701534553
 30
0.0
 10
175.2807201985474
 20
156.8074373446289
 30
0.0
 10
175.3547785746001
 20
156.7833014110945
 30
0.0
 10
175.4261931868736
 20
156.7524461737808
 30
0.0
 10
175.4961463377158
 20
156.7169803780237
 30
0.0
 10
175.5637495446871
 20
156.6758634966557
 30
0.0
 10
175.6282249470639
 20
156.6283870426939
 30
0.0
 10
175.6913861441473
 20
156.5772637813843
 30
0.0
 10
175.7490786186132
 20
156.5178790508936
 30
0.0
 10
175.8060554033179
 20
156.4551150883246
 30
0.0
 10
175.8578013771641
 20
156.3847570672658
 30
0.0
 10
175.9089839724847
 20
156.3107309946845
 30
0.0
 10
175.9545909036433
 20
156.2295149229103
 30
0.0
 10
175.9987576120618
 20
156.1443591961263
 30
0.0
 10
176.0383816900467
 20
156.0542279936518
 30
0.0
 10
176.0730634251636
 20
155.9608134219178
 30
0.0
 10
176.1024857077356
 20
155.8643406351502
 30
0.0
 10
176.1257121069443
 20
155.7646153567283
 30
0.0
 10
176.1440069952541
 20
155.6619433458222
 30
0.0
 10
176.1577624148204
 20
155.556271720272
 30
0.0
 10
176.1654726577451
 20
155.447651977709
 30
0.0
 10
176.16666801165
 20
155.3741573609024
 30
0.0
 10
176.1672727272727
 20
155.3369772899763
 30
0.0
  0
SPLINE
  5
192
330
1F
100
AcDbEntity
  8
0
  6
Continuous
 62
     7
370
    25
100
AcDbSpline
210
0.0
220
0.0
230
1.0
 70
     8
 71
     3
 72
    31
 73
    27
 74
     0
 42
0.000000001
 43
0.00000001
 40
0.0
 40
0.0
 40
0.0
 40
0.0
 40
0.0517952777530676
 40
0.1027059929816693
 40
0.1523631572913455
 40
0.201410151565746
 40
0.2497463249649673
 40
0.2974554366623598
 40
0.344845213858722
 40
0.3920089530556485
 40
0.4383222843616493
 40
0.4829040335041049
 40
0.5259902873728418
 40
0.5675157157543346
 40
0.6078447330163509
 40
0.6469627677216175
 40
0.6854328466640998
 40
0.7231187995704227
 40
0.760179966968229
 40
0.7960229833957798
 40
0.8308293117986162
 40
0.8653586757878788
 40
0.8990131680465292
 40
0.9327972666946308
 40
0.9663824943586458
 40
1.0
 40
1.0
 40
1.0
 40
1.0
 10
173.44
 20
154.8178011536126
 30
0.0
 10
173.440675414045
 20
154.8663523916048
 30
0.0
 10
173.442014707378
 20
154.9626257069493
 30
0.0
 10
173.4528963121024
 20
155.1051128595862
 30
0.0
 10
173.4706564457718
 20
155.2442651504672
 30
0.0
 10
173.4953584949014
 20
155.3799346069532
 30
0.0
 10
173.5276054880641
 20
155.5121073974796
 30
0.0
 10
173.5655784177099
 20
155.6411478623524
 30
0.0
 10
173.6119648018739
 20
155.7662770451298
 30
0.0
 10
173.6653508631646
 20
155.8870868102231
 30
0.0
 10
173.722832427246
 20
156.0030939696194
 30
0.0
 10
173.7857006901254
 20
156.1118806707734
 30
0.0
 10
173.8514437127205
 20
156.2136485958165
 30
0.0
 10
173.9213680253062
 20
156.3076811459199
 30
0.0
 10
173.9943369885755
 20
156.3945717953537
 30
0.0
 10
174.071456345837
 20
156.4738771038668
 30
0.0
 10
174.1522967326183
 20
156.5457238583512
 30
0.0
 10
174.2371232004955
 20
156.6096545699855
 30
0.0
 10
174.3240797552829
 20
156.6662055992192
 30
0.0
 10
174.4122927895262
 20
156.7154756314204
 30
0.0
 10
174.501785710846
 20
156.7570421289737
 30
0.0
 10
174.5922377061018
 20
156.7910229571211
 30
0.0
 10
174.6841420726746
 20
156.8176145305892
 30
0.0
 10
174.7769574650789
 20
156.8367415191361
 30
0.0
 10
174.8710369958071
 20
156.8485754411775
 30
0.0
 10
174.93404769831
 20
156.8498393501429
 30
0.0
 10
174.9655681818182
 20
156.8504716081581
 30
0.0
  0
LINE
  5
193
330
1F
100
AcDbEntity
  8
0
  6
Continuous
 62
     7
370
    25
100
AcDbLine
 10
176.6061931818
 20
153.3050170627
 30
0.0
 11
176.2141477273
 21
153.3050170627
 31
0.0
  0
LINE
  5
194
330
1F
100
AcDbEntity
  8
0
  6
Continuous
 62
     7
370
    25
100
AcDbLine
 10
177.6211079545
 20
155.5940795627
 30
0.0
 11
176.6061931818
 21
153.3050170627
 31
0.0
  0
SPLINE
  5
195
330
1F
100
AcDbEntity
  8
0
  6
Continuous
 62
     7
370
    25
100
AcDbSpline
210
0.0
220
0.0
230
1.0
 70
     8
 71
     3
 72
    15
 73
    11
 74
     0
 42
0.000000001
 43
0.00000001
 40
0.0
 40
0.0
 40
0.0
 40
0.0
 40
0.1551393386909345
 40
0.3012024969288358
 40
0.4388836879579296
 40
0.5686907597159465
 40
0.6885671642288509
 40
0.8009304254617111
 40
0.9050612981926017
 40
0.9999999999999999
 40
0.9999999999999999
 40
0.9999999999999999
 40
0.9999999999999999
 10
177.9172727272727
 20
156.3050170627035
 30
0.0
 10
177.9023100701964
 20
156.268104620689
 30
0.0
 10
177.8732601225164
 20
156.1964392404164
 30
0.0
 10
177.8317202998075
 20
156.0916959844254
 30
0.0
 10
177.7909173369614
 20
155.993673031097
 30
0.0
 10
177.7527068674439
 20
155.9018580636906
 30
0.0
 10
177.717329047087
 20
155.8158994276306
 30
0.0
 10
177.682739778499
 20
155.736767504337
 30
0.0
 10
177.6522863248185
 20
155.6628280043291
 30
0.0
 10
177.6311758139778
 20
155.6162792364009
 30
0.0
 10
177.6211079545454
 20
155.5940795627035
 30
0.0
  0
SPLINE
  5
196
330
1F
100
AcDbEntity
  8
0
  6
Continuous
 62
     7
370
    25
100
AcDbSpline
210
0.0
220
0.0
230
1.0
 70
     8
 71
     3
 72
    15
 73
    11
 74
     0
 42
0.000000001
 43
0.00000001
 40
0.0
 40
0.0
 40
0.0
 40
0.0
 40
0.15192854347851
 40
0.2959003752522374
 40
0.4325740366344265
 40
0.5614202412368939
 40
0.6823405234676702
 40
0.7961128507033476
 40
0.9019920966230066
 40
1.0
 40
1.0
 40
1.0
 40
1.0
 10
178.0387215909091
 20
155.3895341081581
 30
0.0
 10
178.0311038749555
 20
155.43569161352
 30
0.0
 10
178.0162673935567
 20
155.5255892907082
 30
0.0
 10
177.9952760967454
 20
155.6571307778005
 30
0.0
 10
177.9780428082916
 20
155.7820434325232
 30
0.0
 10
177.9613877225935
 20
155.8998657414659
 30
0.0
 10
177.9471454960106
 20
156.010902043421
 30
0.0
 10
177.9350975583211
 20
156.1150787427009
 30
0.0
 10
177.9249925442697
 20
156.2123757930875
 30
0.0
 10
177.9197789063957
 20
156.274941788131
 30
0.0
 10
177.9172727272727
 20
156.3050170627035
 30
0.0
  0
LINE
  5
197
330
1F
100
AcDbEntity
  8
0
  6
Continuous
 62
     7
370
    25
100
AcDbLine
 10
178.3760795455
 20
153.3050170627
 30
0.0
 11
178.0387215909
 21
155.3895341082
 31
0.0
  0
LINE
  5
198
330
1F
100
AcDbEntity
  8
0
  6
Continuous
 62
     7
370
    25
100
AcDbLine
 10
178.7432670455
 20
153.3050170627
 30
0.0
 11
178.3760795455
 21
153.3050170627
 31
0.0
  0
LINE
  5
199
330
1F
100
AcDbEntity
  8
0
  6
Continuous
 62
     7
370
    25
100
AcDbLine
 10
178.2077556818
 20
156.8050170627
 30
0.0
 11
178.7432670455
 21
153.3050170627
 31
0.0
  0
LINE
  5
19A
330
1F
100
AcDbEntity
  8
0
  6
Continuous
 62
     7
370
    25
100
AcDbLine
 10
177.7432670455
 20
156.8050170627
 30
0.0
 11
178.2077556818
 21
156.8050170627
 31
0.0
  0
LINE
  5
19B
330
1F
100
AcDbEntity
  8
0
  6
Continuous
 62
     7
370
    25
100
AcDbLine
 10
176.2141477273
 20
153.3050170627
 30
0.0
 11
177.7432670455
 21
156.8050170627
 31
0.0
  0
SPLINE
  5
19C
330
1F
100
AcDbEntity
  8
0
  6
Continuous
 62
     7
370
    25
100
AcDbSpline
210
0.0
220
0.0
230
1.0
 70
     8
 71
     3
 72
    23
 73
    19
 74
     0
 42
0.000000001
 43
0.00000001
 40
0.0
 40
0.0
 40
0.0
 40
0.0
 40
0.0759971182937073
 40
0.1458615052441968
 40
0.2093459961738546
 40
0.2665927078770801
 40
0.3183132692296896
 40
0.363686881339681
 40
0.4037158194105159
 40
0.4377558664539989
 40
0.5011824643789087
 40
0.565345670967989
 40
0.6311669200577731
 40
0.6996974428134072
 40
0.7706078368709488
 40
0.8439607273006212
 40
0.9202774201976738
 40
1.0
 40
1.0
 40
1.0
 40
1.0
 10
180.1765056818182
 20
154.8433693354308
 30
0.0
 10
180.1477783915498
 20
154.8586104929956
 30
0.0
 10
180.0926420140895
 20
154.88786289406
 30
0.0
 10
180.0148001757696
 20
154.9321802187845
 30
0.0
 10
179.9440098487433
 20
154.9727229015042
 30
0.0
 10
179.8822193050403
 20
155.0130822397169
 30
0.0
 10
179.8274396994715
 20
155.050016797588
 30
0.0
 10
179.7810924926682
 20
155.0860188888371
 30
0.0
 10
179.7417252210367
 20
155.1186937438226
 30
0.0
 10
179.7006968191385
 20
155.1609859453653
 30
0.0
 10
179.6581858784474
 20
155.2157489357928
 30
0.0
 10
179.6139446576872
 20
155.285814885491
 30
0.0
 10
179.5754443766565
 20
155.3616577547063
 30
0.0
 10
179.5426631430513
 20
155.4432759707273
 30
0.0
 10
179.5172727882403
 20
155.5308678647662
 30
0.0
 10
179.498996959989
 20
155.6235420777308
 30
0.0
 10
179.4871809174894
 20
155.7211423769427
 30
0.0
 10
179.4860383160301
 20
155.7879364962076
 30
0.0
 10
179.4854545454546
 20
155.822062517249
 30
0.0
  0
SPLINE
  5
19D
330
1F
100
AcDbEntity
  8
0
  6
Continuous
 62
     7
370
    25
100
AcDbSpline
210
0.0
220
0.0
230
1.0
 70
     8
 71
     3
 72
    15
 73
    11
 74
     0
 42
0.000000001
 43
0.00000001
 40
0.0
 40
0.0
 40
0.0
 40
0.0
 40
0.0684754166354009
 40
0.1523118016416655
 40
0.2524779237969342
 40
0.3687380718314034
 40
0.501962905585789
 40
0.6512336726315743
 40
0.8175311130318114
 40
1.0
 40
1.0
 40
1.0
 40
1.0
 10
180.8036363636364
 20
154.4790227445217
 30
0.0
 10
180.7904734459171
 20
154.4890963255517
 30
0.0
 10
180.7611947965684
 20
154.5115032761197
 30
0.0
 10
180.7103323936487
 20
154.5454375372381
 30
0.0
 10
180.6483928047667
 20
154.5834396951678
 30
0.0
 10
180.5757746702356
 20
154.6268832101028
 30
0.0
 10
180.4922701128658
 20
154.6752793783497
 30
0.0
 10
180.3966255512397
 20
154.7267688903981
 30
0.0
 10
180.2902964644286
 20
154.7835268121911
 30
0.0
 10
180.2155905859996
 20
154.8228146012674
 30
0.0
 10
180.1765056818182
 20
154.8433693354308
 30
0.0
  0
SPLINE
  5
19E
330
1F
100
AcDbEntity
  8
0
  6
Continuous
 62
     7
370
    25
100
AcDbSpline
210
0.0
220
0.0
230
1.0
 70
     8
 71
     3
 72
    15
 73
    11
 74
     0
 42
0.000000001
 43
0.00000001
 40
0.0
 40
0.0
 40
0.0
 40
0.0
 40
0.1388331307871752
 40
0.2727325342737769
 40
0.3990061069977596
 40
0.5211149485155313
 40
0.6406823640987429
 40
0.7594359250803717
 40
0.8776267102211976
 40
1.0
 40
1.0
 40
1.0
 40
1.0
 10
180.94
 20
154.1665227445217
 30
0.0
 10
180.9395994525092
 20
154.1828781547927
 30
0.0
 10
180.9388125918252
 20
154.2150077514317
 30
0.0
 10
180.9324161913256
 20
154.2616713126585
 30
0.0
 10
180.9217575087965
 20
154.3054929293856
 30
0.0
 10
180.9068126063592
 20
154.3462785548082
 30
0.0
 10
180.8874978525377
 20
154.3841858302716
 30
0.0
 10
180.8641064162907
 20
154.4191900858199
 30
0.0
 10
180.835857908085
 20
154.4508963554663
 30
0.0
 10
180.8145006525729
 20
154.4695392382942
 30
0.0
 10
180.8036363636364
 20
154.4790227445217
 30
0.0
  0
SPLINE
  5
19F
330
1F
100
AcDbEntity
  8
0
  6
Continuous
 62
     7
370
    25
100
AcDbSpline
210
0.0
220
0.0
230
1.0
 70
     8
 71
     3
 72
    23
 73
    19
 74
     0
 42
0.000000001
 43
0.00000001
 40
0.0
 40
0.0
 40
0.0
 40
0.0
 40
0.0788743244917973
 40
0.1532382342519459
 40
0.2234665353502316
 40
0.2915613871494096
 40
0.3556867428150664
 40
0.4182903149954609
 40
0.4785821349530765
 40
0.5382752558173561
 40
0.5968907653170972
 40
0.6534382912727884
 40
0.7096644566546492
 40
0.7654283230060898
 40
0.8214527019602331
 40
0.8786205534584055
 40
0.9380093374193238
 40
0.9999999999999999
 40
0.9999999999999999
 40
0.9999999999999999
 40
0.9999999999999999
 10
180.3363068181818
 20
153.6686534263399
 30
0.0
 10
180.3595224929849
 20
153.6690400198205
 30
0.0
 10
180.4046262582052
 20
153.6697910994999
 30
0.0
 10
180.470154518736
 20
153.676230604309
 30
0.0
 10
180.5318699575577
 20
153.6869550511055
 30
0.0
 10
180.5897089934155
 20
153.7015177896355
 30
0.0
 10
180.6438425715477
 20
153.7207596838126
 30
0.0
 10
180.693328517314
 20
153.7450551184932
 30
0.0
 10
180.7394140592448
 20
153.7728556900348
 30
0.0
 10
180.781194751725
 20
153.8048843165086
 30
0.0
 10
180.8189775501443
 20
153.8400135275529
 30
0.0
 10
180.8509945340362
 20
153.8790975185478
 30
0.0
 10
180.8792500170793
 20
153.920028422395
 30
0.0
 10
180.9007678697342
 20
153.9646617413563
 30
0.0
 10
180.9193254683811
 20
154.0109158667072
 30
0.0
 10
180.9307073609628
 20
154.0605283223559
 30
0.0
 10
180.9392729400266
 20
154.1124849988648
 30
0.0
 10
180.9397542078711
 20
154.1482545781685
 30
0.0
 10
180.94
 20
154.1665227445217
 30
0.0
  0
SPLINE
  5
1A0
330
1F
100
AcDbEntity
  8
0
  6
Continuous
 62
     7
370
    25
100
AcDbSpline
210
0.0
220
0.0
230
1.0
 70
     8
 71
     3
 72
    19
 73
    15
 74
     0
 42
0.000000001
 43
0.00000001
 40
0.0
 40
0.0
 40
0.0
 40
0.0
 40
0.0821801282358585
 40
0.1628997848937324
 40
0.2433293951352157
 40
0.3249845876517182
 40
0.4061546472060714
 40
0.4855842939332316
 40
0.5655973110383379
 40
0.6479223453123705
 40
0.7317774646712792
 40
0.8174304321968009
 40
0.906897501063528
 40
0.9999999999999999
 40
0.9999999999999999
 40
0.9999999999999999
 40
0.9999999999999999
 10
179.6651420454546
 20
154.306437517249
 30
0.0
 10
179.6660071367258
 20
154.2779496260621
 30
0.0
 10
179.6677219452207
 20
154.2214801188219
 30
0.0
 10
179.6842305798519
 20
154.1385170325623
 30
0.0
 10
179.7096415875788
 20
154.0581694640708
 30
0.0
 10
179.7460310420599
 20
153.981960050021
 30
0.0
 10
179.7906999616283
 20
153.9105944812468
 30
0.0
 10
179.8465737867699
 20
153.8483306544994
 30
0.0
 10
179.9102440954924
 20
153.7935872601103
 30
0.0
 10
179.9828549682006
 20
153.7482880200476
 30
0.0
 10
180.0628111942506
 20
153.7128188707582
 30
0.0
 10
180.1489613997006
 20
153.6872446899267
 30
0.0
 10
180.2407743046294
 20
153.6711848553904
 30
0.0
 10
180.3040427014485
 20
153.6695083637779
 30
0.0
 10
180.3363068181818
 20
153.6686534263399
 30
0.0
  0
LINE
  5
1A1
330
1F
100
AcDbEntity
  8
0
  6
Continuous
 62
     7
370
    25
100
AcDbLine
 10
179.6672727273
 20
154.3866931991
 30
0.0
 11
179.6651420455
 21
154.3064375172
 31
0.0
  0
LINE
  5
1A2
330
1F
100
AcDbEntity
  8
0
  6
Continuous
 62
     7
370
    25
100
AcDbLine
 10
179.3036363636
 20
154.3504716082
 30
0.0
 11
179.6672727273
 21
154.3866931991
 31
0.0
  0
LINE
  5
1A3
330
1F
100
AcDbEntity
  8
0
  6
Continuous
 62
     7
370
    25
100
AcDbLine
 10
179.3015056818
 20
154.2737670627
 30
0.0
 11
179.3036363636
 21
154.3504716082
 31
0.0
  0
SPLINE
  5
1A4
330
1F
100
AcDbEntity
  8
0
  6
Continuous
 62
     7
370
    25
100
AcDbSpline
210
0.0
220
0.0
230
1.0
 70
     8
 71
     3
 72
    19
 73
    15
 74
     0
 42
0.000000001
 43
0.00000001
 40
0.0
 40
0.0
 40
0.0
 40
0.0
 40
0.0937047711031232
 40
0.1814612720743211
 40
0.2647014142339186
 40
0.3446980461374636
 40
0.4232925716077225
 40
0.5019938573241804
 40
0.5818721705960299
 40
0.6650009329264149
 40
0.7493238967177924
 40
0.8324096915429386
 40
0.9154815461882112
 40
1.0
 40
1.0
 40
1.0
 40
1.0
 10
180.3242329545455
 20
153.259562517249
 30
0.0
 10
180.2737163171021
 20
153.2609764900692
 30
0.0
 10
180.1758897797393
 20
153.2637146783559
 30
0.0
 10
180.0346733540729
 20
153.2872413385568
 30
0.0
 10
179.9050940484695
 20
153.3272148009135
 30
0.0
 10
179.7863356962404
 20
153.3819883624947
 30
0.0
 10
179.6795326618085
 20
153.4531804439183
 30
0.0
 10
179.5842371211281
 20
153.5390542284309
 30
0.0
 10
179.5013962807235
 20
153.6400879192755
 30
0.0
 10
179.4300266522622
 20
153.7530448664189
 30
0.0
 10
179.373069690946
 20
153.8758521309581
 30
0.0
 10
179.3313461719666
 20
154.0045388322951
 30
0.0
 10
179.3066790990896
 20
154.1378823319038
 30
0.0
 10
179.3032400492585
 20
154.2282122504056
 30
0.0
 10
179.3015056818182
 20
154.2737670627035
 30
0.0
  0
SPLINE
  5
1A5
330
1F
100
AcDbEntity
  8
0
  6
Continuous
 62
     7
370
    25
100
AcDbSpline
210
0.0
220
0.0
230
1.0
 70
     8
 71
     3
 72
    23
 73
    19
 74
     0
 42
0.000000001
 43
0.00000001
 40
0.0
 40
0.0
 40
0.0
 40
0.0
 40
0.0666934546844496
 40
0.1310220238068354
 40
0.1926333827530901
 40
0.2524602873052741
 40
0.3112714121821664
 40
0.3697697244766124
 40
0.428016949938178
 40
0.4873847897951764
 40
0.5468257337801734
 40
0.6064162608590405
 40
0.666885746386167
 40
0.7280727309168278
 40
0.791763561712515
 40
0.8578355336719184
 40
0.927253715823735
 40
1.0
 40
1.0
 40
1.0
 40
1.0
 10
181.3036363636364
 20
154.1885397899763
 30
0.0
 10
181.3027721171769
 20
154.1546536067823
 30
0.0
 10
181.3010742696036
 20
154.0880828117594
 30
0.0
 10
181.289109819737
 20
153.9907529989333
 30
0.0
 10
181.268300439461
 20
153.8985663206589
 30
0.0
 10
181.2400591577173
 20
153.8112861357885
 30
0.0
 10
181.2028847268815
 20
153.7291232471905
 30
0.0
 10
181.1573756592563
 20
153.6521875046449
 30
0.0
 10
181.1033018743243
 20
153.5807213527919
 30
0.0
 10
181.0427767674434
 20
153.513964756911
 30
0.0
 10
180.9743399849549
 20
153.4542308894279
 30
0.0
 10
180.8993324526986
 20
153.4020153873847
 30
0.0
 10
180.8181235304179
 20
153.3582852450718
 30
0.0
 10
180.7313521602896
 20
153.3212507041974
 30
0.0
 10
180.6380030455745
 20
153.2941280229831
 30
0.0
 10
180.5386963879259
 20
153.2742330062616
 30
0.0
 10
180.4334357461318
 20
153.2620324637146
 30
0.0
 10
180.3611975888922
 20
153.2603985825787
 30
0.0
 10
180.3242329545455
 20
153.259562517249
 30
0.0
  0
SPLINE
  5
1A6
330
1F
100
AcDbEntity
  8
0
  6
Continuous
 62
     7
370
    25
100
AcDbSpline
210
0.0
220
0.0
230
1.0
 70
     8
 71
     3
 72
    15
 73
    11
 74
     0
 42
0.000000001
 43
0.00000001
 40
0.0
 40
0.0
 40
0.0
 40
0.0
 40
0.1395177794906486
 40
0.2704089020153908
 40
0.3947415535738357
 40
0.513130887852619
 40
0.6303609990347119
 40
0.7486905623727568
 40
0.8719598426545035
 40
1.0
 40
1.0
 40
1.0
 40
1.0
 10
180.8917045454546
 20
154.9534545627035
 30
0.0
 10
180.9252109186947
 20
154.927884811619
 30
0.0
 10
180.9901519006359
 20
154.8783263371304
 30
0.0
 10
181.0750952869109
 20
154.7943228941818
 30
0.0
 10
181.1467905945895
 20
154.7069988208689
 30
0.0
 10
181.2047576093761
 20
154.6147014510678
 30
0.0
 10
181.2489043992046
 20
154.5171095860764
 30
0.0
 10
181.281671999347
 20
154.4135720049242
 30
0.0
 10
181.2998484026116
 20
154.3030548794245
 30
0.0
 10
181.3023578302412
 20
154.2271915514799
 30
0.0
 10
181.3036363636364
 20
154.1885397899763
 30
0.0
  0
SPLINE
  5
1A7
330
1F
100
AcDbEntity
  8
0
  6
Continuous
 62
     7
370
    25
100
AcDbSpline
210
0.0
220
0.0
230
1.0
 70
     8
 71
     3
 72
    15
 73
    11
 74
     0
 42
0.000000001
 43
0.00000001
 40
0.0
 40
0.0
 40
0.0
 40
0.0
 40
0.1726418875523963
 40
0.3309193384753013
 40
0.4766517779054605
 40
0.6080914625119149
 40
0.7270042168469114
 40
0.8309993185236236
 40
0.9224993359265363
 40
1.0
 40
1.0
 40
1.0
 40
1.0
 10
180.4542045454546
 20
155.2070056990671
 30
0.0
 10
180.4800806531008
 20
155.1936440074891
 30
0.0
 10
180.5296798815732
 20
155.1680323659539
 30
0.0
 10
180.5999918083917
 20
155.1290360667534
 30
0.0
 10
180.6646986867544
 20
155.0942600921388
 30
0.0
 10
180.722211748604
 20
155.0602524426569
 30
0.0
 10
180.7739735134408
 20
155.0303497315416
 30
0.0
 10
180.8188347893746
 20
155.0020717977621
 30
0.0
 10
180.8581038372506
 20
154.9779715082558
 30
0.0
 10
180.8811403954158
 20
154.9611627541421
 30
0.0
 10
180.8917045454546
 20
154.9534545627035
 30
0.0
  0
SPLINE
  5
1A8
330
1F
100
AcDbEntity
  8
0
  6
Continuous
 62
     7
370
    25
100
AcDbSpline
210
0.0
220
0.0
230
1.0
 70
     8
 71
     3
 72
    15
 73
    11
 74
     0
 42
0.000000001
 43
0.00000001
 40
0.0
 40
0.0
 40
0.0
 40
0.0
 40
0.07165547358486
 40
0.1570520993965054
 40
0.2575314687216507
 40
0.3738636975007365
 40
0.5061246569992724
 40
0.6544903653502923
 40
0.819085181410203
 40
1.0
 40
1.0
 40
1.0
 40
1.0
 10
179.9435511363636
 20
155.5493352445217
 30
0.0
 10
179.9529846354747
 20
155.5379444391192
 30
0.0
 10
179.9736606671291
 20
155.5129784482077
 30
0.0
 10
180.0140149529388
 20
155.4782763233719
 30
0.0
 10
180.0619970543655
 20
155.4385899967289
 30
0.0
 10
180.1215303774936
 20
155.3980633901166
 30
0.0
 10
180.1904227477147
 20
155.3539813137985
 30
0.0
 10
180.2694163875181
 20
155.3072801450379
 30
0.0
 10
180.3582193999844
 20
155.2575534668227
 30
0.0
 10
180.4212175991355
 20
155.2243773089484
 30
0.0
 10
180.4542045454546
 20
155.2070056990671
 30
0.0
  0
SPLINE
  5
1A9
330
1F
100
AcDbEntity
  8
0
  6
Continuous
 62
     7
370
    25
100
AcDbSpline
210
0.0
220
0.0
230
1.0
 70
     8
 71
     3
 72
    11
 73
     7
 74
     0
 42
0.000000001
 43
0.00000001
 40
0.0
 40
0.0
 40
0.0
 40
0.0
 40
0.2623513372929955
 40
0.5126828216524008
 40
0.7553307468634765
 40
1.0
 40
1.0
 40
1.0
 40
1.0
 10
179.8490909090909
 20
155.8554431990672
 30
0.0
 10
179.8500681342212
 20
155.8269327376761
 30
0.0
 10
179.8519778120691
 20
155.7712180462877
 30
0.0
 10
179.8702643253171
 20
155.6908451273522
 30
0.0
 10
179.9001816251908
 20
155.6160846142586
 30
0.0
 10
179.9290547120433
 20
155.5716464756298
 30
0.0
 10
179.9435511363636
 20
155.5493352445217
 30
0.0
  0
SPLINE
  5
1AA
330
1F
100
AcDbEntity
  8
0
  6
Continuous
 62
     7
370
    25
100
AcDbSpline
210
0.0
220
0.0
230
1.0
 70
     8
 71
     3
 72
    23
 73
    19
 74
     0
 42
0.000000001
 43
0.00000001
 40
0.0
 40
0.0
 40
0.0
 40
0.0
 40
0.0771040173472258
 40
0.1511069390552294
 40
0.2210116082551456
 40
0.28811092652792
 40
0.3536580073187778
 40
0.4164274427866951
 40
0.4788528299699019
 40
0.5405268348779378
 40
0.6008585062634217
 40
0.6589152508298238
 40
0.7153975198825764
 40
0.7714085341165366
 40
0.8267308098742275
 40
0.8829695292380714
 40
0.9407688871594025
 40
1.0
 40
1.0
 40
1.0
 40
1.0
 10
180.5593181818182
 20
156.4413806990672
 30
0.0
 10
180.5327829557093
 20
156.4408052870426
 30
0.0
 10
180.4807797406708
 20
156.4396776058565
 30
0.0
 10
180.4050572528056
 20
156.4317665296986
 30
0.0
 10
180.3334572553246
 20
156.4192646324023
 30
0.0
 10
180.2661482412143
 20
156.4007034892058
 30
0.0
 10
180.203293851924
 20
156.3765555283618
 30
0.0
 10
180.1441283536882
 20
156.3479565264037
 30
0.0
 10
180.0892745763542
 20
156.314092636863
 30
0.0
 10
180.0398581556298
 20
156.2740518431683
 30
0.0
 10
179.9953291954768
 20
156.2308958811674
 30
0.0
 10
179.9556737219543
 20
156.1854711071938
 30
0.0
 10
179.922901170889
 20
156.1366266965106
 30
0.0
 10
179.8957085019017
 20
156.0855548557664
 30
0.0
 10
179.8749732494122
 20
156.0315918382992
 30
0.0
 10
179.8601462468724
 20
155.9751552404543
 30
0.0
 10
179.8504866110577
 20
155.9161435507816
 30
0.0
 10
179.8495599221283
 20
155.8758410039001
 30
0.0
 10
179.8490909090909
 20
155.8554431990672
 30
0.0
  0
SPLINE
  5
1AB
330
1F
100
AcDbEntity
  8
0
  6
Continuous
 62
     7
370
    25
100
AcDbSpline
210
0.0
220
0.0
230
1.0
 70
     8
 71
     3
 72
    15
 73
    11
 74
     0
 42
0.000000001
 43
0.00000001
 40
0.0
 40
0.0
 40
0.0
 40
0.0
 40
0.1016325882549019
 40
0.2071784412693448
 40
0.3190021679967123
 40
0.4408272229545661
 40
0.5695581242190492
 40
0.7044896318148135
 40
0.8478065612669241
 40
0.9999999999999999
 40
0.9999999999999999
 40
0.9999999999999999
 40
0.9999999999999999
 10
181.2105965909091
 20
156.1388238808854
 30
0.0
 10
181.1974159052016
 20
156.1607138513207
 30
0.0
 10
181.1705470241995
 20
156.2053366443843
 30
0.0
 10
181.11406686965
 20
156.2628506640168
 30
0.0
 10
181.0462499579029
 20
156.3144343804304
 30
0.0
 10
180.96699084751
 20
156.3593582406189
 30
0.0
 10
180.8774555624199
 20
156.396483691087
 30
0.0
 10
180.778489570244
 20
156.4221389382647
 30
0.0
 10
180.6716485438629
 20
156.4391657980217
 30
0.0
 10
180.5975040176533
 20
156.4406277606258
 30
0.0
 10
180.5593181818182
 20
156.4413806990672
 30
0.0
  0
SPLINE
  5
1AC
330
1F
100
AcDbEntity
  8
0
  6
Continuous
 62
     7
370
    25
100
AcDbSpline
210
0.0
220
0.0
230
1.0
 70
     8
 71
     3
 72
    11
 73
     7
 74
     0
 42
0.000000001
 43
0.00000001
 40
0.0
 40
0.0
 40
0.0
 40
0.0
 40
0.2636440923137259
 40
0.5155515481879223
 40
0.7605841254471136
 40
1.0
 40
1.0
 40
1.0
 40
1.0
 10
181.3064772727273
 20
155.736125017249
 30
0.0
 10
181.3056011416172
 20
155.7729201966513
 30
0.0
 10
181.3038878821003
 20
155.8448725455175
 30
0.0
 10
181.2841348935251
 20
155.9493284195129
 30
0.0
 10
181.2556302341677
 20
156.0483281052684
 30
0.0
 10
181.2254913283514
 20
156.1088926845637
 30
0.0
 10
181.2105965909091
 20
156.1388238808854
 30
0.0
  0
LINE
  5
1AD
330
1F
100
AcDbEntity
  8
0
  6
Continuous
 62
     7
370
    25
100
AcDbLine
 10
181.3036363636
 20
155.6231988809
 30
0.0
 11
181.3064772727
 21
155.7361250172
 31
0.0
  0
LINE
  5
1AE
330
1F
100
AcDbEntity
  8
0
  6
Continuous
 62
     7
370
    25
100
AcDbLine
 10
181.6672727273
 20
155.6658125172
 30
0.0
 11
181.3036363636
 21
155.6231988809
 31
0.0
  0
SPLINE
  5
1AF
330
1F
100
AcDbEntity
  8
0
  6
Continuous
 62
     7
370
    25
100
AcDbSpline
210
0.0
220
0.0
230
1.0
 70
     8
 71
     3
 72
    23
 73
    19
 74
     0
 42
0.000000001
 43
0.00000001
 40
0.0
 40
0.0
 40
0.0
 40
0.0
 40
0.0698134016162512
 40
0.135756040305007
 40
0.1982791963763488
 40
0.2578008330946319
 40
0.3144991381795967
 40
0.3697276476210705
 40
0.4238622803433938
 40
0.4773340150096265
 40
0.5317766027442756
 40
0.5878065351004
 40
0.6465971391529138
 40
0.7085484232541972
 40
0.7742800124540323
 40
0.8446267329969513
 40
0.919771093659246
 40
1.0
 40
1.0
 40
1.0
 40
1.0
 10
180.5834659090909
 20
156.8504716081581
 30
0.0
 10
180.6263529584795
 20
156.8497523185162
 30
0.0
 10
180.7097492100667
 20
156.8483536198227
 30
0.0
 10
180.8309464701952
 20
156.8346935786435
 30
0.0
 10
180.9442927211507
 20
156.8120675830312
 30
0.0
 10
181.0497176984361
 20
156.7809689139227
 30
0.0
 10
181.1475360592401
 20
156.74135860106
 30
0.0
 10
181.2365669133372
 20
156.6911222425883
 30
0.0
 10
181.3180960682318
 20
156.6328632379293
 30
0.0
 10
181.3915125466617
 20
156.5652776678958
 30
0.0
 10
181.4565133936663
 20
156.4880374072007
 30
0.0
 10
181.5130276585994
 20
156.4004697621574
 30
0.0
 10
181.5604538972645
 20
156.3025506085685
 30
0.0
 10
181.5993555651552
 20
156.194666265222
 30
0.0
 10
181.6300829004518
 20
156.0767949895876
 30
0.0
 10
181.6504386175036
 20
155.9485614866964
 30
0.0
 10
181.6644307873994
 20
155.810529506384
 30
0.0
 10
181.6663049699524
 20
155.7150925625153
 30
0.0
 10
181.6672727272727
 20
155.665812517249
 30
0.0
  0
SPLINE
  5
1B0
330
1F
100
AcDbEntity
  8
0
  6
Continuous
 62
     7
370
    25
100
AcDbSpline
210
0.0
220
0.0
230
1.0
 70
     8
 71
     3
 72
    23
 73
    19
 74
     0
 42
0.000000001
 43
0.00000001
 40
0.0
 40
0.0
 40
0.0
 40
0.0
 40
0.0640634305032972
 40
0.1261069565219139
 40
0.1862559074707005
 40
0.2452488267937798
 40
0.3040053971388836
 40
0.3631423702007594
 40
0.423185134217276
 40
0.4845391386303133
 40
0.546602660721283
 40
0.6079292120606158
 40
0.6695556364250235
 40
0.7315848755882631
 40
0.795103666740826
 40
0.8609141306758209
 40
0.928802164200483
 40
0.9999999999999999
 40
0.9999999999999999
 40
0.9999999999999999
 40
0.9999999999999999
 10
179.4854545454546
 20
155.822062517249
 30
0.0
 10
179.4864254277169
 20
155.8580967972112
 30
0.0
 10
179.4883365805582
 20
155.9290292049951
 30
0.0
 10
179.5029427638101
 20
156.032945384764
 30
0.0
 10
179.5260047326148
 20
156.1323522581517
 30
0.0
 10
179.5598748435478
 20
156.2267062259147
 30
0.0
 10
179.6027032609215
 20
156.3166348250951
 30
0.0
 10
179.6546047208773
 20
156.4024125657943
 30
0.0
 10
179.7169142801687
 20
156.4828091681237
 30
0.0
 10
179.7878766461308
 20
156.5578877021775
 30
0.0
 10
179.8661157629556
 20
156.6264664849313
 30
0.0
 10
179.9511612618736
 20
156.6867867301922
 30
0.0
 10
180.0425434968036
 20
156.7368132664604
 30
0.0
 10
180.138899644288
 20
156.7795737806433
 30
0.0
 10
180.2419728629498
 20
156.8113310324441
 30
0.0
 10
180.3507171938687
 20
156.8334888090381
 30
0.0
 10
180.4651473273911
 20
156.8486048619038
 30
0.0
 10
180.5434056155606
 20
156.8498395653984
 30
0.0
 10
180.5834659090909
 20
156.8504716081581
 30
0.0
  0
SPLINE
  5
1B1
330
1F
100
AcDbEntity
  8
0
  6
Continuous
 62
     7
370
    25
100
AcDbSpline
210
0.0
220
0.0
230
1.0
 70
     8
 71
     3
 72
    23
 73
    19
 74
     0
 42
0.000000001
 43
0.00000001
 40
0.0
 40
0.0
 40
0.0
 40
0.0
 40
0.0911126537636124
 40
0.1765800696039824
 40
0.2556845860823225
 40
0.3297893522729404
 40
0.3981379158075912
 40
0.462079067054346
 40
0.5214380676844865
 40
0.5768138317737731
 40
0.6303117502478067
 40
0.6822058483736761
 40
0.7332336985795442
 40
0.7847403808678601
 40
0.8364741952409223
 40
0.8892249475537713
 40
0.943603670525443
 40
1.0
 40
1.0
 40
1.0
 40
1.0
 10
188.9584659090909
 20
155.8703579717944
 30
0.0
 10
188.9663428438562
 20
155.9132895585356
 30
0.0
 10
188.9816086673358
 20
155.9964927390139
 30
0.0
 10
189.0103872954975
 20
156.1156443856632
 30
0.0
 10
189.0444556207756
 20
156.2248145875519
 30
0.0
 10
189.079631315114
 20
156.3250187488227
 30
0.0
 10
189.120431955553
 20
156.4152167906991
 30
0.0
 10
189.1649668896762
 20
156.4956049416298
 30
0.0
 10
189.2131746253067
 20
156.5665181449609
 30
0.0
 10
189.2657895916008
 20
156.6277641604115
 30
0.0
 10
189.3219941152261
 20
156.6806555893025
 30
0.0
 10
189.3822538411512
 20
156.7253993843766
 30
0.0
 10
189.4452537886016
 20
156.7643456286211
 30
0.0
 10
189.5119752090432
 20
156.7965010304609
 30
0.0
 10
189.5828789436681
 20
156.8206394598135
 30
0.0
 10
189.6571904162002
 20
156.8374048569437
 30
0.0
 10
189.7348816693257
 20
156.8485808147255
 30
0.0
 10
189.7879715713196
 20
156.8498337369616
 30
0.0
 10
189.815
 20
156.8504716081581
 30
0.0
  0
LINE
  5
1B2
330
1F
100
AcDbEntity
  8
0
  6
Continuous
 62
     7
370
    25
100
AcDbLine
 10
188.5252272727
 20
153.3050170627
 30
0.0
 11
188.9584659091
 21
155.8703579718
 31
0.0
  0
LINE
  5
1B3
330
1F
100
AcDbEntity
  8
0
  6
Continuous
 62
     7
370
    25
100
AcDbLine
 10
188.8938352273
 20
153.3050170627
 30
0.0
 11
188.5252272727
 21
153.3050170627
 31
0.0
  0
LINE
  5
1B4
330
1F
100
AcDbEntity
  8
0
  6
Continuous
 62
     7
370
    25
100
AcDbLine
 10
189.3135795455
 20
155.7830000172
 30
0.0
 11
188.8938352273
 21
153.3050170627
 31
0.0
  0
SPLINE
  5
1B5
330
1F
100
AcDbEntity
  8
0
  6
Continuous
 62
     7
370
    25
100
AcDbSpline
210
0.0
220
0.0
230
1.0
 70
     8
 71
     3
 72
    23
 73
    19
 74
     0
 42
0.000000001
 43
0.00000001
 40
0.0
 40
0.0
 40
0.0
 40
0.0
 40
0.0631846891658382
 40
0.1250224895901029
 40
0.185101943370911
 40
0.2460898383242752
 40
0.3071184733589778
 40
0.3701258983966984
 40
0.4358744649828307
 40
0.506577541468207
 40
0.5457221382137307
 40
0.5911144757929372
 40
0.6432179052634508
 40
0.7013632099082934
 40
0.7663656625718536
 40
0.8373319027826993
 40
0.9152471708503367
 40
1.0
 40
1.0
 40
1.0
 40
1.0
 10
189.7915625
 20
156.4413806990672
 30
0.0
 10
189.772576201539
 20
156.4407039169571
 30
0.0
 10
189.7350083297485
 20
156.4393647794947
 30
0.0
 10
189.6802029124583
 20
156.4285666668649
 30
0.0
 10
189.628231960928
 20
156.4103860466554
 30
0.0
 10
189.5791194703332
 20
156.3858369337101
 30
0.0
 10
189.5339777539928
 20
156.3531245674183
 30
0.0
 10
189.4921614882319
 20
156.3140583440279
 30
0.0
 10
189.456052837186
 20
156.2659960130095
 30
0.0
 10
189.4287310904437
 20
156.2207733970352
 30
0.0
 10
189.4088900571433
 20
156.1785124368521
 30
0.0
 10
189.3950588587655
 20
156.1398358458664
 30
0.0
 10
189.3809814756399
 20
156.0952606762157
 30
0.0
 10
189.3667916287844
 20
156.0445668959237
 30
0.0
 10
189.3525591319537
 20
155.9880202503089
 30
0.0
 10
189.3393264632275
 20
155.9251543340244
 30
0.0
 10
189.3255733587602
 20
155.85634047898
 30
0.0
 10
189.3176879675871
 20
155.8081224339908
 30
0.0
 10
189.3135795454545
 20
155.783000017249
 30
0.0
  0
SPLINE
  5
1B6
330
1F
100
AcDbEntity
  8
0
  6
Continuous
 62
     7
370
    25
100
AcDbSpline
210
0.0
220
0.0
230
1.0
 70
     8
 71
     3
 72
    15
 73
    11
 74
     0
 42
0.000000001
 43
0.00000001
 40
0.0
 40
0.0
 40
0.0
 40
0.0
 40
0.148499005288414
 40
0.2825157645263454
 40
0.4071628118033761
 40
0.5265829692207913
 40
0.6434294538395902
 40
0.7566073868398489
 40
0.8747372118289279
 40
1.0
 40
1.0
 40
1.0
 40
1.0
 10
190.1672727272727
 20
156.0187954717944
 30
0.0
 10
190.166271582382
 20
156.050409559578
 30
0.0
 10
190.1643669284508
 20
156.1105545966617
 30
0.0
 10
190.1439458769462
 20
156.1952430365443
 30
0.0
 10
190.111470567121
 20
156.2693113980873
 30
0.0
 10
190.0651750940638
 20
156.3312854939771
 30
0.0
 10
190.0089132235674
 20
156.3805660148755
 30
0.0
 10
189.9437016309345
 20
156.4167445035039
 30
0.0
 10
189.8699723597707
 20
156.43739064831
 30
0.0
 10
189.8182048267352
 20
156.4400249481926
 30
0.0
 10
189.7915625
 20
156.4413806990672
 30
0.0
  0
SPLINE
  5
1B7
330
1F
100
AcDbEntity
  8
0
  6
Continuous
 62
     7
370
    25
100
AcDbSpline
210
0.0
220
0.0
230
1.0
 70
     8
 71
     3
 72
    11
 73
     7
 74
     0
 42
0.000000001
 43
0.00000001
 40
0.0
 40
0.0
 40
0.0
 40
0.0
 40
0.3140156463087439
 40
0.5868196412658802
 40
0.8146583949752833
 40
0.9999999999999999
 40
0.9999999999999999
 40
0.9999999999999999
 40
0.9999999999999999
 10
190.1338920454546
 20
155.7141079717944
 30
0.0
 10
190.1391620731803
 20
155.7457907857892
 30
0.0
 10
190.1490104862
 20
155.8049983372639
 30
0.0
 10
190.1583420318452
 20
155.8877853661125
 30
0.0
 10
190.1657054962168
 20
155.9575895443664
 30
0.0
 10
190.1667874098793
 20
155.9998421074846
 30
0.0
 10
190.1672727272727
 20
156.0187954717944
 30
0.0
  0
LINE
  5
1B8
330
1F
100
AcDbEntity
  8
0
  6
Continuous
 62
     7
370
    25
100
AcDbLine
 10
190.4989488636
 20
155.7595625172
 30
0.0
 11
190.1338920455
 21
155.7141079718
 31
0.0
  0
SPLINE
  5
1B9
330
1F
100
AcDbEntity
  8
0
  6
Continuous
 62
     7
370
    25
100
AcDbSpline
210
0.0
220
0.0
230
1.0
 70
     8
 71
     3
 72
     9
 73
     5
 74
     0
 42
0.000000001
 43
0.00000001
 40
0.0
 40
0.0
 40
0.0
 40
0.0
 40
0.5007640933970591
 40
1.0
 40
1.0
 40
1.0
 40
1.0
 10
190.5309090909091
 20
156.0784545627035
 30
0.0
 10
190.5296744426547
 20
156.024813409358
 30
0.0
 10
190.5272089139341
 20
155.9176947999114
 30
0.0
 10
190.508359278481
 20
155.8122195495082
 30
0.0
 10
190.4989488636364
 20
155.759562517249
 30
0.0
  0
SPLINE
  5
1BA
330
1F
100
AcDbEntity
  8
0
  6
Continuous
 62
     7
370
    25
100
AcDbSpline
210
0.0
220
0.0
230
1.0
 70
     8
 71
     3
 72
    23
 73
    19
 74
     0
 42
0.000000001
 43
0.00000001
 40
0.0
 40
0.0
 40
0.0
 40
0.0
 40
0.0681299729089228
 40
0.1325358139356429
 40
0.1943163794817942
 40
0.2536925314478429
 40
0.3112245777777533
 40
0.367698869088071
 40
0.4240706464046158
 40
0.4802274715617609
 40
0.5368722072479993
 40
0.5945107860407416
 40
0.6538278689989557
 40
0.7160607141225829
 40
0.7811272007047784
 40
0.8497595684802686
 40
0.9224018296617241
 40
1.0
 40
1.0
 40
1.0
 40
1.0
 10
189.815
 20
156.8504716081581
 30
0.0
 10
189.8422495998075
 20
156.8500026303019
 30
0.0
 10
189.895259277277
 20
156.8490903099349
 30
0.0
 10
189.9725758519959
 20
156.8397964766911
 30
0.0
 10
190.0450560629753
 20
156.8237344730325
 30
0.0
 10
190.1138794445109
 20
156.8039929527481
 30
0.0
 10
190.1773011973648
 20
156.7755634512578
 30
0.0
 10
190.2368528640672
 20
156.7422703201209
 30
0.0
 10
190.2915950179641
 20
156.702347263476
 30
0.0
 10
190.3415257796626
 20
156.6565574409891
 30
0.0
 10
190.386870346131
 20
156.6054245702643
 30
0.0
 10
190.4250580596573
 20
156.5472237300306
 30
0.0
 10
190.458015060506
 20
156.4834787069157
 30
0.0
 10
190.4849659412176
 20
156.4137283899039
 30
0.0
 10
190.505322483954
 20
156.3379497123659
 30
0.0
 10
190.5200386830271
 20
156.2567057484202
 30
0.0
 10
190.5296259502651
 20
156.1695920039914
 30
0.0
 10
190.5304720738038
 20
156.1094945121922
 30
0.0
 10
190.5309090909091
 20
156.0784545627035
 30
0.0
  0
LINE
  5
1BB
330
1F
100
AcDbEntity
  8
0
  6
Continuous
 62
     7
370
    25
100
AcDbLine
 10
162.6935511364
 20
155.8504716082
 30
0.0
 11
163.9364488636
 21
155.8504716082
 31
0.0
  0
LINE
  5
1BC
330
1F
100
AcDbEntity
  8
0
  6
Continuous
 62
     7
370
    25
100
AcDbLine
 10
162.5763636364
 20
156.8050170627
 30
0.0
 11
162.6935511364
 21
155.8504716082
 31
0.0
  0
LINE
  5
1BD
330
1F
100
AcDbEntity
  8
0
  6
Continuous
 62
     7
370
    25
100
AcDbLine
 10
162.2105965909
 20
156.8050170627
 30
0.0
 11
162.5763636364
 21
156.8050170627
 31
0.0
  0
LINE
  5
1BE
330
1F
100
AcDbEntity
  8
0
  6
Continuous
 62
     7
370
    25
100
AcDbLine
 10
162.69
 20
153.3050170627
 30
0.0
 11
162.2105965909
 21
156.8050170627
 31
0.0
  0
LINE
  5
1BF
330
1F
100
AcDbEntity
  8
0
  6
Continuous
 62
     7
370
    25
100
AcDbLine
 10
163.1346022727
 20
153.3050170627
 30
0.0
 11
162.69
 21
153.3050170627
 31
0.0
  0
LINE
  5
1C0
330
1F
100
AcDbEntity
  8
0
  6
Continuous
 62
     7
370
    25
100
AcDbLine
 10
164.7603125
 20
156.8050170627
 30
0.0
 11
163.1346022727
 21
153.3050170627
 31
0.0
  0
LINE
  5
1C1
330
1F
100
AcDbEntity
  8
0
  6
Continuous
 62
     7
370
    25
100
AcDbLine
 10
164.3661363636
 20
156.8050170627
 30
0.0
 11
164.7603125
 21
156.8050170627
 31
0.0
  0
LINE
  5
1C2
330
1F
100
AcDbEntity
  8
0
  6
Continuous
 62
     7
370
    25
100
AcDbLine
 10
163.9364488636
 20
155.8504716082
 30
0.0
 11
164.3661363636
 21
156.8050170627
 31
0.0
  0
SPLINE
  5
1C3
330
1F
100
AcDbEntity
  8
0
  6
Continuous
 62
     7
370
    25
100
AcDbSpline
210
0.0
220
0.0
230
1.0
 70
     8
 71
     3
 72
    23
 73
    19
 74
     0
 42
0.000000001
 43
0.00000001
 40
0.0
 40
0.0
 40
0.0
 40
0.0
 40
0.0572634327750007
 40
0.1125680570640922
 40
0.1669845284142367
 40
0.2207415784534422
 40
0.2751039573987241
 40
0.3304580237118289
 40
0.3875842853978111
 40
0.4471512336609391
 40
0.5081971405965205
 40
0.5705729247016895
 40
0.6343933180777892
 40
0.7008523166253892
 40
0.7701283036819968
 40
0.8428097211193414
 40
0.9193141925768289
 40
1.0
 40
1.0
 40
1.0
 40
1.0
 10
168.830625
 20
153.259562517249
 30
0.0
 10
168.7884144446402
 20
153.2607589962834
 30
0.0
 10
168.7054372290911
 20
153.2631110264307
 30
0.0
 10
168.5835587863673
 20
153.2826657283549
 30
0.0
 10
168.4674964946147
 20
153.3156555583024
 30
0.0
 10
168.3560844764207
 20
153.3604047688551
 30
0.0
 10
168.2508446079787
 20
153.419524354235
 30
0.0
 10
168.1497350017992
 20
153.489886985341
 30
0.0
 10
168.0552542593468
 20
153.5748045467527
 30
0.0
 10
167.9659301248946
 20
153.6708161719487
 30
0.0
 10
167.8847642969461
 20
153.7788512366505
 30
0.0
 10
167.8146663703717
 20
153.8979726010568
 30
0.0
 10
167.7545614106877
 20
154.0268069790887
 30
0.0
 10
167.7056247799914
 20
154.1657149330896
 30
0.0
 10
167.6682879029211
 20
154.3148772905422
 30
0.0
 10
167.6415965813965
 20
154.4737462054241
 30
0.0
 10
167.6250118183052
 20
154.642497980546
 30
0.0
 10
167.6229014396714
 20
154.7583396151179
 30
0.0
 10
167.6218181818183
 20
154.8178011536126
 30
0.0
  0
SPLINE
  5
1C4
330
1F
100
AcDbEntity
  8
0
  6
Continuous
 62
     7
370
    25
100
AcDbSpline
210
0.0
220
0.0
230
1.0
 70
     8
 71
     3
 72
    15
 73
    11
 74
     0
 42
0.000000001
 43
0.00000001
 40
0.0
 40
0.0
 40
0.0
 40
0.0
 40
0.1366486092688866
 40
0.2673174602160079
 40
0.3924622863728364
 40
0.5145038537149265
 40
0.63434928262964
 40
0.7539910928012366
 40
0.8757134371801419
 40
1.0
 40
1.0
 40
1.0
 40
1.0
 10
169.8696875
 20
153.787971608158
 30
0.0
 10
169.8340847784846
 20
153.7459756862221
 30
0.0
 10
169.7644373145023
 20
153.6638215885592
 30
0.0
 10
169.6477627689947
 20
153.5567374145648
 30
0.0
 10
169.5265139284105
 20
153.4644944757431
 30
0.0
 10
169.3988245607544
 20
153.3893863968319
 30
0.0
 10
169.2649213809022
 20
153.3314203921659
 30
0.0
 10
169.1252200655676
 20
153.2900600654062
 30
0.0
 10
168.9797600962359
 20
153.2644985351963
 30
0.0
 10
168.8806809418295
 20
153.2612192501943
 30
0.0
 10
168.830625
 20
153.259562517249
 30
0.0
  0
SPLINE
  5
1C5
330
1F
100
AcDbEntity
  8
0
  6
Continuous
 62
     7
370
    25
100
AcDbSpline
210
0.0
220
0.0
230
1.0
 70
     8
 71
     3
 72
    15
 73
    11
 74
     0
 42
0.000000001
 43
0.00000001
 40
0.0
 40
0.0
 40
0.0
 40
0.0
 40
0.1409754907900333
 40
0.2756587093978872
 40
0.4052540319038674
 40
0.5296609519050449
 40
0.650588519724434
 40
0.7685867380843168
 40
0.8846940504466464
 40
0.9999999999999999
 40
0.9999999999999999
 40
0.9999999999999999
 40
0.9999999999999999
 10
170.349090909091
 20
155.3369772899763
 30
0.0
 10
170.3475308286448
 20
155.2592752155265
 30
0.0
 10
170.3444803000749
 20
155.1073392056548
 30
0.0
 10
170.3223892728099
 20
154.8848261561904
 30
0.0
 10
170.2850591983025
 20
154.673671548146
 30
0.0
 10
170.2323705132187
 20
154.4736267142843
 30
0.0
 10
170.1650755793061
 20
154.2847249140393
 30
0.0
 10
170.0822515415146
 20
154.1072067569744
 30
0.0
 10
169.985429777717
 20
153.940210697891
 30
0.0
 10
169.9081790885655
 20
153.8386006826948
 30
0.0
 10
169.8696875
 20
153.787971608158
 30
0.0
  0
SPLINE
  5
1C6
330
1F
100
AcDbEntity
  8
0
  6
Continuous
 62
     7
370
    25
100
AcDbSpline
210
0.0
220
0.0
230
1.0
 70
     8
 71
     3
 72
    31
 73
    27
 74
     0
 42
0.000000001
 43
0.00000001
 40
0.0
 40
0.0
 40
0.0
 40
0.0
 40
0.0378713464109285
 40
0.0752373637875361
 40
0.1117100053357609
 40
0.1480293779298888
 40
0.1837275779421367
 40
0.2198555742787952
 40
0.2560644308236267
 40
0.2926970928545348
 40
0.3296945900129154
 40
0.3673249162395021
 40
0.4054911409512005
 40
0.4446574501178602
 40
0.4850732355790512
 40
0.5267893868922991
 40
0.5696934240132835
 40
0.6144400279784301
 40
0.6601209498234313
 40
0.7064610481271767
 40
0.7528957169671191
 40
0.8002348284767894
 40
0.8487179112267808
 40
0.8978269804014983
 40
0.948311859011129
 40
1.0
 40
1.0
 40
1.0
 40
1.0
 10
169.1473863636364
 20
156.8504716081581
 30
0.0
 10
169.1746240402139
 20
156.8498417229532
 30
0.0
 10
169.2287359526649
 20
156.8485903572955
 30
0.0
 10
169.3088633724446
 20
156.8411579407663
 30
0.0
 10
169.3867940636352
 20
156.8263701534553
 30
0.0
 10
169.4625383803656
 20
156.8074373446289
 30
0.0
 10
169.5365967564184
 20
156.7833014110945
 30
0.0
 10
169.6080113686918
 20
156.7524461737807
 30
0.0
 10
169.677964519534
 20
156.7169803780237
 30
0.0
 10
169.7455677265053
 20
156.6758634966557
 30
0.0
 10
169.8100431288821
 20
156.6283870426939
 30
0.0
 10
169.8732043259655
 20
156.5772637813843
 30
0.0
 10
169.9308968004314
 20
156.5178790508936
 30
0.0
 10
169.9878735851362
 20
156.4551150883245
 30
0.0
 10
170.0396195589823
 20
156.3847570672658
 30
0.0
 10
170.0908021543029
 20
156.3107309946845
 30
0.0
 10
170.1364090854616
 20
156.2295149229103
 30
0.0
 10
170.18057579388
 20
156.1443591961263
 30
0.0
 10
170.220199871865
 20
156.0542279936518
 30
0.0
 10
170.2548816069818
 20
155.9608134219178
 30
0.0
 10
170.2843038895539
 20
155.8643406351501
 30
0.0
 10
170.3075302887626
 20
155.7646153567283
 30
0.0
 10
170.3258251770723
 20
155.6619433458222
 30
0.0
 10
170.3395805966387
 20
155.556271720272
 30
0.0
 10
170.3472908395634
 20
155.4476519777089
 30
0.0
 10
170.3484861934683
 20
155.3741573609024
 30
0.0
 10
170.349090909091
 20
155.3369772899763
 30
0.0
  0
SPLINE
  5
1C7
330
1F
100
AcDbEntity
  8
0
  6
Continuous
 62
     7
370
    25
100
AcDbSpline
210
0.0
220
0.0
230
1.0
 70
     8
 71
     3
 72
    31
 73
    27
 74
     0
 42
0.000000001
 43
0.00000001
 40
0.0
 40
0.0
 40
0.0
 40
0.0
 40
0.0517952777530676
 40
0.1027059929816693
 40
0.1523631572913455
 40
0.201410151565746
 40
0.2497463249649673
 40
0.2974554366623598
 40
0.344845213858722
 40
0.3920089530556485
 40
0.4383222843616493
 40
0.4829040335041049
 40
0.5259902873728418
 40
0.5675157157543346
 40
0.6078447330163509
 40
0.6469627677216175
 40
0.6854328466640998
 40
0.7231187995704227
 40
0.760179966968229
 40
0.7960229833957798
 40
0.8308293117986162
 40
0.8653586757878788
 40
0.8990131680465292
 40
0.9327972666946308
 40
0.9663824943586458
 40
1.0
 40
1.0
 40
1.0
 40
1.0
 10
167.6218181818182
 20
154.8178011536126
 30
0.0
 10
167.6224935958633
 20
154.8663523916048
 30
0.0
 10
167.6238328891962
 20
154.9626257069493
 30
0.0
 10
167.6347144939207
 20
155.1051128595861
 30
0.0
 10
167.6524746275901
 20
155.2442651504672
 30
0.0
 10
167.6771766767197
 20
155.3799346069532
 30
0.0
 10
167.7094236698824
 20
155.5121073974795
 30
0.0
 10
167.7473965995281
 20
155.6411478623524
 30
0.0
 10
167.7937829836921
 20
155.7662770451298
 30
0.0
 10
167.8471690449828
 20
155.8870868102231
 30
0.0
 10
167.9046506090643
 20
156.0030939696194
 30
0.0
 10
167.9675188719436
 20
156.1118806707734
 30
0.0
 10
168.0332618945387
 20
156.2136485958165
 30
0.0
 10
168.1031862071245
 20
156.3076811459198
 30
0.0
 10
168.1761551703937
 20
156.3945717953537
 30
0.0
 10
168.2532745276553
 20
156.4738771038668
 30
0.0
 10
168.3341149144365
 20
156.5457238583512
 30
0.0
 10
168.4189413823137
 20
156.6096545699854
 30
0.0
 10
168.5058979371011
 20
156.6662055992192
 30
0.0
 10
168.5941109713444
 20
156.7154756314204
 30
0.0
 10
168.6836038926642
 20
156.7570421289737
 30
0.0
 10
168.77405588792
 20
156.7910229571211
 30
0.0
 10
168.8659602544929
 20
156.8176145305892
 30
0.0
 10
168.9587756468971
 20
156.8367415191361
 30
0.0
 10
169.0528551776253
 20
156.8485754411775
 30
0.0
 10
169.1158658801282
 20
156.8498393501429
 30
0.0
 10
169.1473863636364
 20
156.850471608158
 30
0.0
  0
SPLINE
  5
1C8
330
1F
100
AcDbEntity
  8
0
  6
Continuous
 62
     7
370
    25
100
AcDbSpline
210
0.0
220
0.0
230
1.0
 70
     8
 71
     3
 72
    23
 73
    19
 74
     0
 42
0.000000001
 43
0.00000001
 40
0.0
 40
0.0
 40
0.0
 40
0.0
 40
0.0802326734030863
 40
0.1566863913389074
 40
0.2289346548216617
 40
0.2981581398344674
 40
0.3650796822572317
 40
0.4297252619193053
 40
0.4925024487413873
 40
0.5545694486634416
 40
0.6151555615502388
 40
0.6729060019049424
 40
0.7287300999690447
 40
0.7826770297091754
 40
0.8362747229524126
 40
0.8900406382016058
 40
0.9441869325498207
 40
1.0
 40
1.0
 40
1.0
 40
1.0
 10
173.8036363636363
 20
154.7794488808854
 30
0.0
 10
173.8045647954389
 20
154.737526121345
 30
0.0
 10
173.806377929946
 20
154.6556551624359
 30
0.0
 10
173.8172523075695
 20
154.5363569002122
 30
0.0
 10
173.8376345932465
 20
154.424209509992
 30
0.0
 10
173.8640737514208
 20
154.3184465718204
 30
0.0
 10
173.8996489945667
 20
154.2195248836029
 30
0.0
 10
173.9431913174249
 20
154.1276383158012
 30
0.0
 10
173.9935132876828
 20
154.0421220634041
 30
0.0
 10
174.0527188186359
 20
153.9651440143516
 30
0.0
 10
174.1169531838602
 20
153.8959918307789
 30
0.0
 10
174.1846603271719
 20
153.8349668662061
 30
0.0
 10
174.2557173867308
 20
153.7834845259281
 30
0.0
 10
174.330525706953
 20
153.7419841104282
 30
0.0
 10
174.4082638248414
 20
153.7089459432184
 30
0.0
 10
174.4895220215263
 20
153.6853826516048
 30
0.0
 10
174.5742494712566
 20
153.6717713141558
 30
0.0
 10
174.6317132646531
 20
153.6697031719686
 30
0.0
 10
174.6608806818182
 20
153.6686534263399
 30
0.0
  0
SPLINE
  5
1C9
330
1F
100
AcDbEntity
  8
0
  6
Continuous
 62
     7
370
    25
100
AcDbSpline
210
0.0
220
0.0
230
1.0
 70
     8
 71
     3
 72
    31
 73
    27
 74
     0
 42
0.000000001
 43
0.00000001
 40
0.0
 40
0.0
 40
0.0
 40
0.0
 40
0.0301756518175108
 40
0.0602932964483566
 40
0.0908028780173974
 40
0.1217410141489673
 40
0.1536658708313834
 40
0.1866556031144471
 40
0.2205936461813648
 40
0.2559100790264962
 40
0.2924251345961442
 40
0.3298624081485454
 40
0.3689121943544725
 40
0.4095877027264641
 40
0.452023212082441
 40
0.4961916846599377
 40
0.5426783412182853
 40
0.5914668601692747
 40
0.6412571298571981
 40
0.6908580015722783
 40
0.741213212461635
 40
0.7915520782362547
 40
0.8426454606106201
 40
0.8940039102596143
 40
0.9467438101360459
 40
1.0
 40
1.0
 40
1.0
 40
1.0
 10
174.9392897727273
 20
156.4413806990672
 30
0.0
 10
174.9169966326521
 20
156.4409230177939
 30
0.0
 10
174.8724532069975
 20
156.4400085350563
 30
0.0
 10
174.8060797565785
 20
156.4298057615667
 30
0.0
 10
174.7398284416446
 20
156.4161943269987
 30
0.0
 10
174.6740423695458
 20
156.3951904116908
 30
0.0
 10
174.6086974891692
 20
156.3679208840095
 30
0.0
 10
174.5433278059889
 20
156.3353479827629
 30
0.0
 10
174.4785353337566
 20
156.2965403162808
 30
0.0
 10
174.4138231615835
 20
156.2527749079169
 30
0.0
 10
174.3506548781011
 20
156.202460292855
 30
0.0
 10
174.2899901469066
 20
156.1450939812854
 30
0.0
 10
174.2316103752997
 20
156.0811611972611
 30
0.0
 10
174.1765101650116
 20
156.0096926586405
 30
0.0
 10
174.1230788837592
 20
155.9323550355429
 30
0.0
 10
174.0726660925314
 20
155.8479657574141
 30
0.0
 10
174.0243100001776
 20
155.7570566705289
 30
0.0
 10
173.9793080928465
 20
155.6598264549187
 30
0.0
 10
173.9386428496386
 20
155.5582556511378
 30
0.0
 10
173.9017436029278
 20
155.4540028400689
 30
0.0
 10
173.8716623748593
 20
155.3471501965469
 30
0.0
 10
173.8465223297485
 20
155.2379217837291
 30
0.0
 10
173.8274737286684
 20
155.1266929075873
 30
0.0
 10
173.814140503796
 20
155.0128886882533
 30
0.0
 10
173.8052219713353
 20
154.8970150345779
 30
0.0
 10
173.8041666130298
 20
154.8187646471537
 30
0.0
 10
173.8036363636363
 20
154.7794488808854
 30
0.0
  0
SPLINE
  5
1CA
330
1F
100
AcDbEntity
  8
0
  6
Continuous
 62
     7
370
    25
100
AcDbSpline
210
0.0
220
0.0
230
1.0
 70
     8
 71
     3
 72
    23
 73
    19
 74
     0
 42
0.000000001
 43
0.00000001
 40
0.0
 40
0.0
 40
0.0
 40
0.0
 40
0.0780325357412824
 40
0.1522985270717747
 40
0.2236497358165468
 40
0.2920865500904303
 40
0.3578578370732177
 40
0.4224800794262323
 40
0.486131144850268
 40
0.5491776410002697
 40
0.6108387757840074
 40
0.6697010909339732
 40
0.7262272621469513
 40
0.7814770110557909
 40
0.835572068287214
 40
0.8895736835765928
 40
0.9444009501337872
 40
1.0
 40
1.0
 40
1.0
 40
1.0
 10
175.8036363636363
 20
155.3540227445217
 30
0.0
 10
175.8028107092976
 20
155.3943008216914
 30
0.0
 10
175.8011992540441
 20
155.4729127976825
 30
0.0
 10
175.7888511272826
 20
155.5878194011368
 30
0.0
 10
175.7691826627798
 20
155.6966148677017
 30
0.0
 10
175.7418278376066
 20
155.7992674671835
 30
0.0
 10
175.7053568058458
 20
155.8954084081606
 30
0.0
 10
175.6601026256727
 20
155.984859717403
 30
0.0
 10
175.608865987449
 20
156.0695121801939
 30
0.0
 10
175.5478157342432
 20
156.1453836949425
 30
0.0
 10
175.483522230805
 20
156.2151461746107
 30
0.0
 10
175.4139425392093
 20
156.274620501653
 30
0.0
 10
175.3427720559776
 20
156.3266676515103
 30
0.0
 10
175.268012085766
 20
156.3688857388173
 30
0.0
 10
175.1897844157387
 20
156.4007331731547
 30
0.0
 10
175.1090514326262
 20
156.4248301668094
 30
0.0
 10
175.0249562179752
 20
156.4381456312722
 30
0.0
 10
174.9679779971092
 20
156.4402973303044
 30
0.0
 10
174.9392897727273
 20
156.4413806990672
 30
0.0
  0
SPLINE
  5
1CB
330
1F
100
AcDbEntity
  8
0
  6
Continuous
 62
     7
370
    25
100
AcDbSpline
210
0.0
220
0.0
230
1.0
 70
     8
 71
     3
 72
    15
 73
    11
 74
     0
 42
0.000000001
 43
0.00000001
 40
0.0
 40
0.0
 40
0.0
 40
0.0
 40
0.1130347842828601
 40
0.226833482211054
 40
0.3435029415735588
 40
0.4639328931901993
 40
0.5883359110333798
 40
0.7189972985797182
 40
0.8559435506265419
 40
1.0
 40
1.0
 40
1.0
 40
1.0
 10
175.4016477272727
 20
154.0571477445217
 30
0.0
 10
175.4340463390393
 20
154.098163533769
 30
0.0
 10
175.4990625194341
 20
154.1804723058839
 30
0.0
 10
175.5808363651534
 20
154.3170236088895
 30
0.0
 10
175.6495776479846
 20
154.4640616236884
 30
0.0
 10
175.7067646085631
 20
154.6212853055045
 30
0.0
 10
175.7494193702029
 20
154.7896692687772
 30
0.0
 10
175.7817377358487
 20
154.9680347604699
 30
0.0
 10
175.7999239385595
 20
155.1576222957969
 30
0.0
 10
175.8023781886879
 20
155.2874608289723
 30
0.0
 10
175.8036363636363
 20
155.3540227445217
 30
0.0
  0
SPLINE
  5
1CC
330
1F
100
AcDbEntity
  8
0
  6
Continuous
 62
     7
370
    25
100
AcDbSpline
210
0.0
220
0.0
230
1.0
 70
     8
 71
     3
 72
    15
 73
    11
 74
     0
 42
0.000000001
 43
0.00000001
 40
0.0
 40
0.0
 40
0.0
 40
0.0
 40
0.1177275761199063
 40
0.2337686221826915
 40
0.3509645643764795
 40
0.4701001219487883
 40
0.5935383012539079
 40
0.7220435396388049
 40
0.8569583974415027
 40
1.0
 40
1.0
 40
1.0
 40
1.0
 10
174.6608806818182
 20
153.6686534263399
 30
0.0
 10
174.694807508948
 20
153.6699837910768
 30
0.0
 10
174.7621751376256
 20
153.6726254621431
 30
0.0
 10
174.8620260219701
 20
153.6908041848414
 30
0.0
 10
174.9590263125211
 20
153.7216093644967
 30
0.0
 10
175.0535023896019
 20
153.7648300185097
 30
0.0
 10
175.1454508391763
 20
153.8198193215001
 30
0.0
 10
175.234462873083
 20
153.8872128719107
 30
0.0
 10
175.3209526599593
 20
153.9664967746416
 30
0.0
 10
175.3742301385384
 20
154.0263474602753
 30
0.0
 10
175.4016477272727
 20
154.0571477445217
 30
0.0
  0
SPLINE
  5
1CD
330
1F
100
AcDbEntity
  8
0
  6
Continuous
 62
     7
370
    25
100
AcDbSpline
210
0.0
220
0.0
230
1.0
 70
     8
 71
     3
 72
    31
 73
    27
 74
     0
 42
0.000000001
 43
0.00000001
 40
0.0
 40
0.0
 40
0.0
 40
0.0
 40
0.0301756518175108
 40
0.0602932964483566
 40
0.0908028780173974
 40
0.1217410141489673
 40
0.1536658708313834
 40
0.1866556031144471
 40
0.2205936461813648
 40
0.2559100790264962
 40
0.2924251345961442
 40
0.3298624081485454
 40
0.3689121943544725
 40
0.4095877027264641
 40
0.452023212082441
 40
0.4961916846599377
 40
0.5426783412182853
 40
0.5914668601692747
 40
0.6412571298571981
 40
0.6908580015722783
 40
0.741213212461635
 40
0.7915520782362547
 40
0.8426454606106201
 40
0.8940039102596143
 40
0.9467438101360459
 40
1.0
 40
1.0
 40
1.0
 40
1.0
 10
169.1211079545455
 20
156.4413806990672
 30
0.0
 10
169.0988148144704
 20
156.4409230177939
 30
0.0
 10
169.0542713888157
 20
156.4400085350563
 30
0.0
 10
168.9878979383967
 20
156.4298057615667
 30
0.0
 10
168.9216466234629
 20
156.4161943269987
 30
0.0
 10
168.8558605513641
 20
156.3951904116908
 30
0.0
 10
168.7905156709874
 20
156.3679208840095
 30
0.0
 10
168.7251459878071
 20
156.3353479827629
 30
0.0
 10
168.6603535155748
 20
156.2965403162808
 30
0.0
 10
168.5956413434018
 20
156.2527749079169
 30
0.0
 10
168.5324730599193
 20
156.202460292855
 30
0.0
 10
168.4718083287248
 20
156.1450939812854
 30
0.0
 10
168.4134285571179
 20
156.0811611972611
 30
0.0
 10
168.3583283468298
 20
156.0096926586405
 30
0.0
 10
168.3048970655774
 20
155.9323550355428
 30
0.0
 10
168.2544842743497
 20
155.8479657574141
 30
0.0
 10
168.2061281819959
 20
155.7570566705289
 30
0.0
 10
168.1611262746647
 20
155.6598264549187
 30
0.0
 10
168.1204610314568
 20
155.5582556511378
 30
0.0
 10
168.0835617847461
 20
155.4540028400689
 30
0.0
 10
168.0534805566776
 20
155.3471501965469
 30
0.0
 10
168.0283405115668
 20
155.2379217837291
 30
0.0
 10
168.0092919104866
 20
155.1266929075873
 30
0.0
 10
167.9959586856142
 20
155.0128886882533
 30
0.0
 10
167.9870401531535
 20
154.8970150345779
 30
0.0
 10
167.985984794848
 20
154.8187646471537
 30
0.0
 10
167.9854545454546
 20
154.7794488808853
 30
0.0
  0
SPLINE
  5
1CE
330
1F
100
AcDbEntity
  8
0
  6
Continuous
 62
     7
370
    25
100
AcDbSpline
210
0.0
220
0.0
230
1.0
 70
     8
 71
     3
 72
    23
 73
    19
 74
     0
 42
0.000000001
 43
0.00000001
 40
0.0
 40
0.0
 40
0.0
 40
0.0
 40
0.0780325357412825
 40
0.1522985270717749
 40
0.223649735816547
 40
0.2920865500904306
 40
0.357857837073218
 40
0.4224800794262326
 40
0.4861311448502685
 40
0.5491776410002758
 40
0.6108387757840074
 40
0.6697010909339801
 40
0.726227262146951
 40
0.7814770110557907
 40
0.8355720682872138
 40
0.8895736835765926
 40
0.9444009501337871
 40
1.0
 40
1.0
 40
1.0
 40
1.0
 10
169.9854545454546
 20
155.3540227445217
 30
0.0
 10
169.9846288911158
 20
155.3943008216914
 30
0.0
 10
169.9830174358623
 20
155.4729127976825
 30
0.0
 10
169.9706693091008
 20
155.5878194011368
 30
0.0
 10
169.951000844598
 20
155.6966148677017
 30
0.0
 10
169.9236460194248
 20
155.7992674671835
 30
0.0
 10
169.887174987664
 20
155.8954084081606
 30
0.0
 10
169.841920807491
 20
155.9848597174029
 30
0.0
 10
169.7906841692672
 20
156.0695121801939
 30
0.0
 10
169.7296339160615
 20
156.1453836949425
 30
0.0
 10
169.6653404126232
 20
156.2151461746107
 30
0.0
 10
169.5957607210275
 20
156.274620501653
 30
0.0
 10
169.5245902377958
 20
156.3266676515103
 30
0.0
 10
169.4498302675843
 20
156.3688857388173
 30
0.0
 10
169.3716025975569
 20
156.4007331731546
 30
0.0
 10
169.2908696144445
 20
156.4248301668094
 30
0.0
 10
169.2067743997935
 20
156.4381456312721
 30
0.0
 10
169.1497961789274
 20
156.4402973303044
 30
0.0
 10
169.1211079545455
 20
156.4413806990672
 30
0.0
  0
SPLINE
  5
1CF
330
1F
100
AcDbEntity
  8
0
  6
Continuous
 62
     7
370
    25
100
AcDbSpline
210
0.0
220
0.0
230
1.0
 70
     8
 71
     3
 72
    15
 73
    11
 74
     0
 42
0.000000001
 43
0.00000001
 40
0.0
 40
0.0
 40
0.0
 40
0.0
 40
0.1130347842828601
 40
0.226833482211054
 40
0.3435029415735588
 40
0.4639328931901993
 40
0.5883359110333798
 40
0.7189972985797182
 40
0.8559435506265419
 40
1.0
 40
1.0
 40
1.0
 40
1.0
 10
169.583465909091
 20
154.0571477445217
 30
0.0
 10
169.6158645208576
 20
154.098163533769
 30
0.0
 10
169.6808807012523
 20
154.1804723058839
 30
0.0
 10
169.7626545469717
 20
154.3170236088895
 30
0.0
 10
169.8313958298028
 20
154.4640616236884
 30
0.0
 10
169.8885827903813
 20
154.6212853055045
 30
0.0
 10
169.9312375520211
 20
154.7896692687772
 30
0.0
 10
169.9635559176669
 20
154.9680347604699
 30
0.0
 10
169.9817421203778
 20
155.1576222957969
 30
0.0
 10
169.9841963705062
 20
155.2874608289723
 30
0.0
 10
169.9854545454546
 20
155.3540227445217
 30
0.0
  0
SPLINE
  5
1D0
330
1F
100
AcDbEntity
  8
0
  6
Continuous
 62
     7
370
    25
100
AcDbSpline
210
0.0
220
0.0
230
1.0
 70
     8
 71
     3
 72
    15
 73
    11
 74
     0
 42
0.000000001
 43
0.00000001
 40
0.0
 40
0.0
 40
0.0
 40
0.0
 40
0.1177275761199057
 40
0.2337686221826922
 40
0.3509645643764802
 40
0.4701001219487889
 40
0.5935383012539084
 40
0.7220435396388052
 40
0.8569583974415029
 40
1.0
 40
1.0
 40
1.0
 40
1.0
 10
168.8426988636364
 20
153.6686534263399
 30
0.0
 10
168.8766256907662
 20
153.6699837910768
 30
0.0
 10
168.9439933194438
 20
153.6726254621431
 30
0.0
 10
169.0438442037883
 20
153.6908041848414
 30
0.0
 10
169.1408444943393
 20
153.7216093644967
 30
0.0
 10
169.2353205714201
 20
153.7648300185097
 30
0.0
 10
169.3272690209945
 20
153.8198193215001
 30
0.0
 10
169.4162810549013
 20
153.8872128719107
 30
0.0
 10
169.5027708417775
 20
153.9664967746416
 30
0.0
 10
169.5560483203566
 20
154.0263474602753
 30
0.0
 10
169.583465909091
 20
154.0571477445217
 30
0.0
  0
SPLINE
  5
1D1
330
1F
100
AcDbEntity
  8
0
  6
Continuous
 62
     7
370
    25
100
AcDbSpline
210
0.0
220
0.0
230
1.0
 70
     8
 71
     3
 72
    23
 73
    19
 74
     0
 42
0.000000001
 43
0.00000001
 40
0.0
 40
0.0
 40
0.0
 40
0.0
 40
0.0802326734030863
 40
0.1566863913389074
 40
0.2289346548216617
 40
0.2981581398344674
 40
0.3650796822572317
 40
0.4297252619193053
 40
0.4925024487413873
 40
0.5545694486634416
 40
0.6151555615502388
 40
0.6729060019049424
 40
0.7287300999690447
 40
0.7826770297091754
 40
0.8362747229524126
 40
0.8900406382016058
 40
0.9441869325498207
 40
1.0
 40
1.0
 40
1.0
 40
1.0
 10
167.9854545454546
 20
154.7794488808853
 30
0.0
 10
167.9863829772571
 20
154.737526121345
 30
0.0
 10
167.9881961117642
 20
154.6556551624359
 30
0.0
 10
167.9990704893878
 20
154.5363569002121
 30
0.0
 10
168.0194527750647
 20
154.424209509992
 30
0.0
 10
168.045891933239
 20
154.3184465718204
 30
0.0
 10
168.081467176385
 20
154.2195248836029
 30
0.0
 10
168.1250094992431
 20
154.1276383158012
 30
0.0
 10
168.175331469501
 20
154.0421220634041
 30
0.0
 10
168.2345370004541
 20
153.9651440143516
 30
0.0
 10
168.2987713656784
 20
153.8959918307789
 30
0.0
 10
168.3664785089902
 20
153.8349668662061
 30
0.0
 10
168.437535568549
 20
153.7834845259281
 30
0.0
 10
168.5123438887712
 20
153.7419841104282
 30
0.0
 10
168.5900820066597
 20
153.7089459432184
 30
0.0
 10
168.6713402033445
 20
153.6853826516048
 30
0.0
 10
168.7560676530748
 20
153.6717713141558
 30
0.0
 10
168.8135314464713
 20
153.6697031719686
 30
0.0
 10
168.8426988636364
 20
153.6686534263399
 30
0.0
  0
SPLINE
  5
1D2
330
1F
100
AcDbEntity
  8
0
  6
Continuous
 62
     7
370
    25
100
AcDbSpline
210
0.0
220
0.0
230
1.0
 70
     8
 71
     3
 72
    15
 73
    11
 74
     0
 42
0.000000001
 43
0.00000001
 40
0.0
 40
0.0
 40
0.0
 40
0.0
 40
0.0888850639833435
 40
0.1885604992980148
 40
0.2964207560055921
 40
0.4167458488366069
 40
0.5457914368464765
 40
0.6867289581444842
 40
0.8380762687167773
 40
0.9999999999999999
 40
0.9999999999999999
 40
0.9999999999999999
 40
0.9999999999999999
 10
165.5614488636363
 20
153.7730568354308
 30
0.0
 10
165.5744067921635
 20
153.7683569510278
 30
0.0
 10
165.6018957015871
 20
153.7583866308192
 30
0.0
 10
165.6464438780705
 20
153.7469955962142
 30
0.0
 10
165.6960038740555
 20
153.7356190314597
 30
0.0
 10
165.7509963311665
 20
153.7287144336519
 30
0.0
 10
165.8111156954142
 20
153.7221100742161
 30
0.0
 10
165.8762470872889
 20
153.7171625760064
 30
0.0
 10
165.9466026515866
 20
153.7143306271724
 30
0.0
 10
165.9951582393597
 20
153.7141838421357
 30
0.0
 10
166.0202556818182
 20
153.7141079717944
 30
0.0
  0
SPLINE
  5
1D3
330
1F
100
AcDbEntity
  8
0
  6
Continuous
 62
     7
370
    25
100
AcDbSpline
210
0.0
220
0.0
230
1.0
 70
     8
 71
     3
 72
    23
 73
    19
 74
     0
 42
0.000000001
 43
0.00000001
 40
0.0
 40
0.0
 40
0.0
 40
0.0
 40
0.0629146460526536
 40
0.1209315349946726
 40
0.1745411124553721
 40
0.2241494446847019
 40
0.271663827215392
 40
0.3194602966361597
 40
0.3688676139482364
 40
0.4205642567138753
 40
0.4757378977585195
 40
0.5360113800178269
 40
0.6020247859115546
 40
0.6741562728592352
 40
0.7505794982871689
 40
0.8296454383855258
 40
0.9126786760714783
 40
1.0
 40
1.0
 40
1.0
 40
1.0
 10
166.5351704545455
 20
156.3959261536126
 30
0.0
 10
166.4825821391363
 20
156.395203209289
 30
0.0
 10
166.3814993848936
 20
156.3938136001558
 30
0.0
 10
166.2361100010603
 20
156.3806494751344
 30
0.0
 10
166.1027394091625
 20
156.3608085339268
 30
0.0
 10
165.9800673433814
 20
156.3312595399146
 30
0.0
 10
165.8661256661105
 20
156.2891555069085
 30
0.0
 10
165.7597308029251
 20
156.2306975077006
 30
0.0
 10
165.6599426547469
 20
156.1558169657757
 30
0.0
 10
165.5651427181667
 20
156.0655166036884
 30
0.0
 10
165.4771819962293
 20
155.9565377142023
 30
0.0
 10
165.395709190474
 20
155.8283371685287
 30
0.0
 10
165.3200101688699
 20
155.6805901555686
 30
0.0
 10
165.2509964863076
 20
155.5149176394906
 30
0.0
 10
165.1924320993893
 20
155.3336014638429
 30
0.0
 10
165.1518910626479
 20
155.1381404073136
 30
0.0
 10
165.1265297063057
 20
154.9309230201678
 30
0.0
 10
165.1234148254277
 20
154.7885214464685
 30
0.0
 10
165.1218181818182
 20
154.7155284263399
 30
0.0
  0
LINE
  5
1D4
330
1F
100
AcDbEntity
  8
0
  6
Continuous
 62
     7
370
    25
100
AcDbLine
 10
167.0025
 20
156.3959261536
 30
0.0
 11
166.5351704545
 21
156.3959261536
 31
0.0
  0
LINE
  5
1D5
330
1F
100
AcDbEntity
  8
0
  6
Continuous
 62
     7
370
    25
100
AcDbLine
 10
166.549375
 20
153.7141079718
 30
0.0
 11
167.0025
 21
156.3959261536
 31
0.0
  0
LINE
  5
1D6
330
1F
100
AcDbEntity
  8
0
  6
Continuous
 62
     7
370
    25
100
AcDbLine
 10
166.0202556818
 20
153.7141079718
 30
0.0
 11
166.549375
 21
153.7141079718
 31
0.0
  0
SPLINE
  5
1D7
330
1F
100
AcDbEntity
  8
0
  6
Continuous
 62
     7
370
    25
100
AcDbSpline
210
0.0
220
0.0
230
1.0
 70
     8
 71
     3
 72
    23
 73
    19
 74
     0
 42
0.000000001
 43
0.00000001
 40
0.0
 40
0.0
 40
0.0
 40
0.0
 40
0.0874471253209896
 40
0.1698532365731059
 40
0.2487233605391789
 40
0.3230176537768715
 40
0.3933723588794132
 40
0.4601284551383314
 40
0.5231789542235921
 40
0.5838819851265944
 40
0.6417016078346148
 40
0.6973283864639708
 40
0.7504393443940262
 40
0.8013819101248626
 40
0.8519376935375613
 40
0.9015653905945151
 40
0.9505224122680807
 40
1.0
 40
1.0
 40
1.0
 40
1.0
 10
165.1218181818182
 20
154.7155284263399
 30
0.0
 10
165.122331344286
 20
154.6833262119189
 30
0.0
 10
165.1233280872403
 20
154.6207781255849
 30
0.0
 10
165.1280537618963
 20
154.5292732116997
 30
0.0
 10
165.137002509894
 20
154.4429210543485
 30
0.0
 10
165.1508708902745
 20
154.3617404665558
 30
0.0
 10
165.1669372294867
 20
154.2855421781769
 30
0.0
 10
165.1864307706218
 20
154.2143688999711
 30
0.0
 10
165.2109645282376
 20
154.148550250057
 30
0.0
 10
165.2385879367066
 20
154.0876142696761
 30
0.0
 10
165.2689430940466
 20
154.0310220584705
 30
0.0
 10
165.3032333511499
 20
153.9800614001846
 30
0.0
 10
165.3394481435864
 20
153.9336812796415
 30
0.0
 10
165.3780959742033
 20
153.891721182507
 30
0.0
 10
165.4201748525187
 20
153.8551914700185
 30
0.0
 10
165.4639842789556
 20
153.8219247059564
 30
0.0
 10
165.5114873289059
 20
153.7948110399025
 30
0.0
 10
165.5447364067485
 20
153.7803337576936
 30
0.0
 10
165.5614488636363
 20
153.7730568354308
 30
0.0
  0
SPLINE
  5
1D8
330
1F
100
AcDbEntity
  8
0
  6
Continuous
 62
     7
370
    25
100
AcDbSpline
210
0.0
220
0.0
230
1.0
 70
     8
 71
     3
 72
    23
 73
    19
 74
     0
 42
0.000000001
 43
0.00000001
 40
0.0
 40
0.0
 40
0.0
 40
0.0
 40
0.0534248788120506
 40
0.1094776745490437
 40
0.1691115031767303
 40
0.234618288081956
 40
0.269752234568514
 40
0.3067365855413109
 40
0.3457606475791321
 40
0.3871708766523055
 40
0.4313131166952686
 40
0.4778805983088638
 40
0.5274191677239687
 40
0.5798297631974525
 40
0.6861612429797418
 40
0.7910273572963138
 40
0.8953390052638497
 40
1.0
 40
1.0
 40
1.0
 40
1.0
 10
154.2077556818182
 20
156.5322897899762
 30
0.0
 10
154.1791565264942
 20
156.5306249749263
 30
0.0
 10
154.1205514516946
 20
156.5272134542215
 30
0.0
 10
154.0337220444043
 20
156.4990573712316
 30
0.0
 10
153.9475623594719
 20
156.4544460825308
 30
0.0
 10
153.8770384067949
 20
156.4052434625135
 30
0.0
 10
153.8221368822625
 20
156.356138770025
 30
0.0
 10
153.7820055056989
 20
156.3122911975668
 30
0.0
 10
153.7415507301491
 20
156.2642297527601
 30
0.0
 10
153.7045134590197
 20
156.2088145796013
 30
0.0
 10
153.6672063276602
 20
156.148836000439
 30
0.0
 10
153.6328403830104
 20
156.0821660465782
 30
0.0
 10
153.5985785847584
 20
156.010563365748
 30
0.0
 10
153.5553750279731
 20
155.9079424411405
 30
0.0
 10
153.5093915144016
 20
155.7745406879214
 30
0.0
 10
153.4696603372282
 20
155.610499131643
 30
0.0
 10
153.444285966505
 20
155.4443037265865
 30
0.0
 10
153.4414302468367
 20
155.3325688204229
 30
0.0
 10
153.44
 20
155.2766079717944
 30
0.0
  0
SPLINE
  5
1D9
330
1F
100
AcDbEntity
  8
0
  6
Continuous
 62
     7
370
    25
100
AcDbSpline
210
0.0
220
0.0
230
1.0
 70
     8
 71
     3
 72
    23
 73
    19
 74
     0
 42
0.000000001
 43
0.00000001
 40
0.0
 40
0.0
 40
0.0
 40
0.0
 40
0.0881844926297952
 40
0.1716697626267814
 40
0.2492911852220296
 40
0.322781605915885
 40
0.3920406632923389
 40
0.4573946107644669
 40
0.5194151872373413
 40
0.5791736687483038
 40
0.6361612253081227
 40
0.6909787473269154
 40
0.7431699809285591
 40
0.7945018801205315
 40
0.8448193721053734
 40
0.8954173539747738
 40
0.947312361387738
 40
1.0
 40
1.0
 40
1.0
 40
1.0
 10
154.7127272727273
 20
155.7972045627035
 30
0.0
 10
154.7124019447856
 20
155.8265762638171
 30
0.0
 10
154.7117686251522
 20
155.8837544910513
 30
0.0
 10
154.7044943980785
 20
155.9665279475114
 30
0.0
 10
154.6931536464444
 20
156.043849729185
 30
0.0
 10
154.6779504163622
 20
156.115723220007
 30
0.0
 10
154.6572525913282
 20
156.181965199372
 30
0.0
 10
154.6324251830809
 20
156.2426233251945
 30
0.0
 10
154.6034779889722
 20
156.2979826579504
 30
0.0
 10
154.5690546377431
 20
156.3466954856747
 30
0.0
 10
154.532203451899
 20
156.3904724565282
 30
0.0
 10
154.4923014619693
 20
156.4279043328401
 30
0.0
 10
154.4508090991008
 20
156.4605640426723
 30
0.0
 10
154.4067497505226
 20
156.4870645936742
 30
0.0
 10
154.3599155978592
 20
156.5067460017675
 30
0.0
 10
154.3113394590023
 20
156.5222466394381
 30
0.0
 10
154.2601281240958
 20
156.5306015548501
 30
0.0
 10
154.2253011470555
 20
156.5317242087387
 30
0.0
 10
154.2077556818182
 20
156.5322897899762
 30
0.0
  0
SPLINE
  5
1DA
330
1F
100
AcDbEntity
  8
0
  6
Continuous
 62
     7
370
    25
100
AcDbSpline
210
0.0
220
0.0
230
1.0
 70
     8
 71
     3
 72
    23
 73
    19
 74
     0
 42
0.000000001
 43
0.00000001
 40
0.0
 40
0.0
 40
0.0
 40
0.0
 40
0.0565773340948677
 40
0.114643471483666
 40
0.1753838366757045
 40
0.2407895678675638
 40
0.2754624472849147
 40
0.3122204355087038
 40
0.3504134675726091
 40
0.3908758971688501
 40
0.4337902850947122
 40
0.4791060516064624
 40
0.5265958957558831
 40
0.5773601131623437
 40
0.681625049406703
 40
0.7858790107796625
 40
0.8920470796367246
 40
1.0
 40
1.0
 40
1.0
 40
1.0
 10
153.9407102272727
 20
154.5322897899762
 30
0.0
 10
153.9714106072223
 20
154.5339898249528
 30
0.0
 10
154.0336192317463
 20
154.5374346304474
 30
0.0
 10
154.1257607115332
 20
154.5642032971055
 30
0.0
 10
154.2152891566427
 20
154.6091023937713
 30
0.0
 10
154.2879237595383
 20
154.6578634439105
 30
0.0
 10
154.344223248827
 20
154.7063375100259
 30
0.0
 10
154.3849852619457
 20
154.7497088546767
 30
0.0
 10
154.424317243692
 20
154.7984325487712
 30
0.0
 10
154.4618842558114
 20
154.852641558677
 30
0.0
 10
154.498178968817
 20
154.9122802061029
 30
0.0
 10
154.5320111732744
 20
154.9776709631091
 30
0.0
 10
154.564165824883
 20
155.0485865028062
 30
0.0
 10
154.6045542901183
 20
155.1506967593108
 30
0.0
 10
154.6488459713367
 20
155.2843515297426
 30
0.0
 10
154.685206632249
 20
155.4512346740205
 30
0.0
 10
154.7091251265333
 20
155.6225024919145
 30
0.0
 10
154.7115199032706
 20
155.738647820993
 30
0.0
 10
154.7127272727273
 20
155.7972045627035
 30
0.0
  0
SPLINE
  5
1DB
330
1F
100
AcDbEntity
  8
0
  6
Continuous
 62
     7
370
    25
100
AcDbSpline
210
0.0
220
0.0
230
1.0
 70
     8
 71
     3
 72
    23
 73
    19
 74
     0
 42
0.000000001
 43
0.00000001
 40
0.0
 40
0.0
 40
0.0
 40
0.0
 40
0.0885786273656098
 40
0.1717665497732585
 40
0.2498123554470573
 40
0.32373337502021
 40
0.3932168337134468
 40
0.4589936296702706
 40
0.5214195023544639
 40
0.5821336346096078
 40
0.6394591842730633
 40
0.6945708264409691
 40
0.7470134211878535
 40
0.7981624927207656
 40
0.848235665120284
 40
0.8977697234125942
 40
0.9482073959699504
 40
1.0
 40
1.0
 40
1.0
 40
1.0
 10
153.44
 20
155.2766079717944
 30
0.0
 10
153.440314245086
 20
155.2469983202194
 30
0.0
 10
153.4409236109772
 20
155.1895809968505
 30
0.0
 10
153.4483065359368
 20
155.1063513101549
 30
0.0
 10
153.459499358989
 20
155.0285247749472
 30
0.0
 10
153.4750172894914
 20
154.9561098750886
 30
0.0
 10
153.4945796782806
 20
154.8888940608532
 30
0.0
 10
153.5196114014901
 20
154.8276462861068
 30
0.0
 10
153.5487398625774
 20
154.7715002337371
 30
0.0
 10
153.582732133662
 20
154.7215432885452
 30
0.0
 10
153.6198142163934
 20
154.6769655589127
 30
0.0
 10
153.659748538973
 20
154.638920747349
 30
0.0
 10
153.7009164339796
 20
154.6052178113929
 30
0.0
 10
153.7455344543681
 20
154.5795901998974
 30
0.0
 10
153.7908309105168
 20
154.557155541702
 30
0.0
 10
153.8393089082865
 20
154.5437254850284
 30
0.0
 10
153.8891510477637
 20
154.5335875606488
 30
0.0
 10
153.9233726462736
 20
154.5327261856747
 30
0.0
 10
153.9407102272727
 20
154.5322897899762
 30
0.0
  0
SPLINE
  5
1DC
330
1F
100
AcDbEntity
  8
0
  6
Continuous
 62
     7
370
    25
100
AcDbSpline
210
0.0
220
0.0
230
1.0
 70
     8
 71
     3
 72
    15
 73
    11
 74
     0
 42
0.000000001
 43
0.00000001
 40
0.0
 40
0.0
 40
0.0
 40
0.0
 40
0.14700353928029
 40
0.2872715534845759
 40
0.421720536404481
 40
0.5494635590464916
 40
0.671406965801788
 40
0.7875597556586394
 40
0.8970633487028926
 40
0.9999999999999999
 40
0.9999999999999999
 40
0.9999999999999999
 40
0.9999999999999999
 10
186.8249431818182
 20
154.5606988808853
 30
0.0
 10
186.8309763920567
 20
154.5181005623463
 30
0.0
 10
186.8427663781088
 20
154.4348557289061
 30
0.0
 10
186.8581461034724
 20
154.3123929845852
 30
0.0
 10
186.8726298054015
 20
154.1954989687103
 30
0.0
 10
186.8845444498837
 20
154.0837052800049
 30
0.0
 10
186.8952083337272
 20
153.9771705703684
 30
0.0
 10
186.9046646452954
 20
153.875876627855
 30
0.0
 10
186.9116423765295
 20
153.7799572206489
 30
0.0
 10
186.9154350230555
 20
153.7178993386823
 30
0.0
 10
186.9172727272727
 20
153.6878295627035
 30
0.0
  0
LINE
  5
1DD
330
1F
100
AcDbEntity
  8
0
  6
Continuous
 62
     7
370
    25
100
AcDbLine
 10
186.6992329545
 20
155.4413806991
 30
0.0
 11
186.8249431818
 21
154.5606988809
 31
0.0
  0
LINE
  5
1DE
330
1F
100
AcDbEntity
  8
0
  6
Continuous
 62
     7
370
    25
100
AcDbLine
 10
187.6914204545
 20
155.4413806991
 30
0.0
 11
186.6992329545
 21
155.4413806991
 31
0.0
  0
LINE
  5
1DF
330
1F
100
AcDbEntity
  8
0
  6
Continuous
 62
     7
370
    25
100
AcDbLine
 10
187.2077556818
 20
154.4030284263
 30
0.0
 11
187.6914204545
 21
155.4413806991
 31
0.0
  0
SPLINE
  5
1E0
330
1F
100
AcDbEntity
  8
0
  6
Continuous
 62
     7
370
    25
100
AcDbSpline
210
0.0
220
0.0
230
1.0
 70
     8
 71
     3
 72
    11
 73
     7
 74
     0
 42
0.000000001
 43
0.00000001
 40
0.0
 40
0.0
 40
0.0
 40
0.0
 40
0.2160703134542942
 40
0.4547988730342493
 40
0.7156038406523333
 40
0.9999999999999999
 40
0.9999999999999999
 40
0.9999999999999999
 40
0.9999999999999999
 10
186.9172727272727
 20
153.6878295627035
 30
0.0
 10
186.935104112588
 20
153.7405295852088
 30
0.0
 10
186.9726367741386
 20
153.8514560260564
 30
0.0
 10
187.0400115169764
 20
154.022998490894
 30
0.0
 10
187.1192377471704
 20
154.208642837321
 30
0.0
 10
187.1774106444579
 20
154.3363906541803
 30
0.0
 10
187.2077556818182
 20
154.4030284263399
 30
0.0
  0
SPLINE
  5
1E1
330
1F
100
AcDbEntity
  8
0
  6
Continuous
 62
     7
370
    25
100
AcDbSpline
210
0.0
220
0.0
230
1.0
 70
     8
 71
     3
 72
    15
 73
    11
 74
     0
 42
0.000000001
 43
0.00000001
 40
0.0
 40
0.0
 40
0.0
 40
0.0
 40
0.14700353928029
 40
0.2872715534845759
 40
0.421720536404481
 40
0.5494635590464916
 40
0.671406965801788
 40
0.7875597556586394
 40
0.8970633487028926
 40
0.9999999999999999
 40
0.9999999999999999
 40
0.9999999999999999
 40
0.9999999999999999
 10
162.8703977272727
 20
154.5606988808853
 30
0.0
 10
162.8764309375113
 20
154.5181005623463
 30
0.0
 10
162.8882209235633
 20
154.4348557289061
 30
0.0
 10
162.903600648927
 20
154.3123929845852
 30
0.0
 10
162.918084350856
 20
154.1954989687103
 30
0.0
 10
162.9299989953383
 20
154.0837052800049
 30
0.0
 10
162.9406628791817
 20
153.9771705703684
 30
0.0
 10
162.95011919075
 20
153.875876627855
 30
0.0
 10
162.9570969219841
 20
153.7799572206489
 30
0.0
 10
162.9608895685101
 20
153.7178993386823
 30
0.0
 10
162.9627272727272
 20
153.6878295627035
 30
0.0
  0
LINE
  5
1E2
330
1F
100
AcDbEntity
  8
0
  6
Continuous
 62
     7
370
    25
100
AcDbLine
 10
162.7446875
 20
155.4413806991
 30
0.0
 11
162.8703977273
 21
154.5606988809
 31
0.0
  0
LINE
  5
1E3
330
1F
100
AcDbEntity
  8
0
  6
Continuous
 62
     7
370
    25
100
AcDbLine
 10
163.736875
 20
155.4413806991
 30
0.0
 11
162.7446875
 21
155.4413806991
 31
0.0
  0
LINE
  5
1E4
330
1F
100
AcDbEntity
  8
0
  6
Continuous
 62
     7
370
    25
100
AcDbLine
 10
163.2532102273
 20
154.4030284263
 30
0.0
 11
163.736875
 21
155.4413806991
 31
0.0
  0
SPLINE
  5
1E5
330
1F
100
AcDbEntity
  8
0
  6
Continuous
 62
     7
370
    25
100
AcDbSpline
210
0.0
220
0.0
230
1.0
 70
     8
 71
     3
 72
    11
 73
     7
 74
     0
 42
0.000000001
 43
0.00000001
 40
0.0
 40
0.0
 40
0.0
 40
0.0
 40
0.2160703134542942
 40
0.4547988730342493
 40
0.7156038406523333
 40
0.9999999999999999
 40
0.9999999999999999
 40
0.9999999999999999
 40
0.9999999999999999
 10
162.9627272727272
 20
153.6878295627035
 30
0.0
 10
162.9805586580425
 20
153.7405295852088
 30
0.0
 10
163.0180913195931
 20
153.8514560260564
 30
0.0
 10
163.085466062431
 20
154.022998490894
 30
0.0
 10
163.1646922926249
 20
154.208642837321
 30
0.0
 10
163.2228651899124
 20
154.3363906541803
 30
0.0
 10
163.2532102272727
 20
154.4030284263399
 30
0.0
  0
SPLINE
  5
1E6
330
1F
100
AcDbEntity
  8
0
  6
Continuous
 62
     7
370
    25
100
AcDbSpline
210
0.0
220
0.0
230
1.0
 70
     8
 71
     3
 72
    23
 73
    19
 74
     0
 42
0.000000001
 43
0.00000001
 40
0.0
 40
0.0
 40
0.0
 40
0.0
 40
0.0662661988515399
 40
0.1290617423589507
 40
0.1874385509259945
 40
0.242568489068479
 40
0.2947445471778668
 40
0.3452673825337202
 40
0.3944888823328483
 40
0.4434743630314707
 40
0.4941803771812255
 40
0.54899407980013
 40
0.6094961447347377
 40
0.6743257828968667
 40
0.7456865948809666
 40
0.8239599365103284
 40
0.9086240974616159
 40
1.0
 40
1.0
 40
1.0
 40
1.0
 10
171.2127272727273
 20
155.7062954717944
 30
0.0
 10
171.2131373188373
 20
155.6856853641457
 30
0.0
 10
171.2139359351203
 20
155.6455445917843
 30
0.0
 10
171.2200568679972
 20
155.5874708602087
 30
0.0
 10
171.2314962679682
 20
155.5337427114727
 30
0.0
 10
171.2472501856481
 20
155.4846127549059
 30
0.0
 10
171.2662001742985
 20
155.4392465818197
 30
0.0
 10
171.2902641527354
 20
155.398321845321
 30
0.0
 10
171.3201705007453
 20
155.3628814811718
 30
0.0
 10
171.3529136389921
 20
155.3299958092775
 30
0.0
 10
171.392130363884
 20
155.3017787270864
 30
0.0
 10
171.4384729081964
 20
155.2787333141425
 30
0.0
 10
171.4906523480021
 20
155.2581261010721
 30
0.0
 10
171.5497598787205
 20
155.2419657696692
 30
0.0
 10
171.6153011853585
 20
155.2293831499613
 30
0.0
 10
171.6876391434515
 20
155.2201427551309
 30
0.0
 10
171.7666477311718
 20
155.2156281387523
 30
0.0
 10
171.8213876591828
 20
155.2146274120876
 30
0.0
 10
171.8498011363637
 20
155.2141079717944
 30
0.0
  0
SPLINE
  5
1E7
330
1F
100
AcDbEntity
  8
0
  6
Continuous
 62
     7
370
    25
100
AcDbSpline
210
0.0
220
0.0
230
1.0
 70
     8
 71
     3
 72
    19
 73
    15
 74
     0
 42
0.000000001
 43
0.00000001
 40
0.0
 40
0.0
 40
0.0
 40
0.0
 40
0.0844041230911673
 40
0.1647797158497364
 40
0.2435568974014919
 40
0.3199880815852187
 40
0.3960935911781417
 40
0.4739401568396905
 40
0.5550728787110235
 40
0.6418716713576414
 40
0.7308444968531863
 40
0.8189541465401602
 40
0.9082362838842442
 40
0.9999999999999999
 40
0.9999999999999999
 40
0.9999999999999999
 40
0.9999999999999999
 10
171.7801988636364
 20
156.3774602445217
 30
0.0
 10
171.7537716156355
 20
156.3715995604659
 30
0.0
 10
171.7021784676138
 20
156.360157917356
 30
0.0
 10
171.6284353317807
 20
156.3342660589246
 30
0.0
 10
171.5586085527821
 20
156.3053333441695
 30
0.0
 10
171.4940666794563
 20
156.2685445546396
 30
0.0
 10
171.4340657694667
 20
156.2251798094753
 30
0.0
 10
171.3804600203424
 20
156.1718299112002
 30
0.0
 10
171.3325544373105
 20
156.1090811827645
 30
0.0
 10
171.2905255167245
 20
156.0380965028662
 30
0.0
 10
171.2559221513861
 20
155.9607169457954
 30
0.0
 10
171.2308999279632
 20
155.8789314542359
 30
0.0
 10
171.2154777890233
 20
155.7937627801984
 30
0.0
 10
171.213652451404
 20
155.7357164531415
 30
0.0
 10
171.2127272727273
 20
155.7062954717944
 30
0.0
  0
SPLINE
  5
1E8
330
1F
100
AcDbEntity
  8
0
  6
Continuous
 62
     7
370
    25
100
AcDbSpline
210
0.0
220
0.0
230
1.0
 70
     8
 71
     3
 72
    15
 73
    11
 74
     0
 42
0.000000001
 43
0.00000001
 40
0.0
 40
0.0
 40
0.0
 40
0.0
 40
0.1797515631756798
 40
0.3437483816151865
 40
0.4919479394321445
 40
0.6243514477431379
 40
0.7411611991481563
 40
0.8423840685814762
 40
0.929856274786424
 40
1.0
 40
1.0
 40
1.0
 40
1.0
 10
172.1388636363637
 20
156.3959261536126
 30
0.0
 10
172.1173185396869
 20
156.396064775427
 30
0.0
 10
172.0761167165509
 20
156.3963298692238
 30
0.0
 10
172.0171757514573
 20
156.3945327091905
 30
0.0
 10
171.9639129442385
 20
156.3930669569152
 30
0.0
 10
171.9162851398447
 20
156.392114035175
 30
0.0
 10
171.8743644918221
 20
156.3892220039256
 30
0.0
 10
171.8379577783087
 20
156.3853851763215
 30
0.0
 10
171.8070535442907
 20
156.3824216889845
 30
0.0
 10
171.7884693684675
 20
156.3789882332894
 30
0.0
 10
171.7801988636364
 20
156.3774602445217
 30
0.0
  0
LINE
  5
1E9
330
1F
100
AcDbEntity
  8
0
  6
Continuous
 62
     7
370
    25
100
AcDbLine
 10
172.8206818182
 20
156.3959261536
 30
0.0
 11
172.1388636364
 21
156.3959261536
 31
0.0
  0
LINE
  5
1EA
330
1F
100
AcDbEntity
  8
0
  6
Continuous
 62
     7
370
    25
100
AcDbLine
 10
172.6211079545
 20
155.2141079718
 30
0.0
 11
172.8206818182
 21
156.3959261536
 31
0.0
  0
LINE
  5
1EB
330
1F
100
AcDbEntity
  8
0
  6
Continuous
 62
     7
370
    25
100
AcDbLine
 10
171.8498011364
 20
155.2141079718
 30
0.0
 11
172.6211079545
 21
155.2141079718
 31
0.0
  0
SPLINE
  5
1EC
330
1F
100
AcDbEntity
  8
0
  6
Continuous
 62
     7
370
    25
100
AcDbSpline
210
0.0
220
0.0
230
1.0
 70
     8
 71
     3
 72
    19
 73
    15
 74
     0
 42
0.000000001
 43
0.00000001
 40
0.0
 40
0.0
 40
0.0
 40
0.0
 40
0.0873835900090904
 40
0.1690669541682998
 40
0.2457953790143975
 40
0.3204904784763592
 40
0.3910116533399673
 40
0.4569074950221896
 40
0.5202336872758181
 40
0.5819701241358372
 40
0.6534441996581792
 40
0.7470120304585218
 40
0.8620356682386928
 40
1.0
 40
1.0
 40
1.0
 40
1.0
 10
171.1672727272727
 20
154.1707841081581
 30
0.0
 10
171.1681799692649
 20
154.1458915959672
 30
0.0
 10
171.1699352718371
 20
154.0977303654973
 30
0.0
 10
171.1808661722896
 20
154.0282761112197
 30
0.0
 10
171.2012568191895
 20
153.9648545867336
 30
0.0
 10
171.2283742410673
 20
153.9074202585083
 30
0.0
 10
171.2629527248104
 20
153.858007204829
 30
0.0
 10
171.3004004431138
 20
153.8148125990983
 30
0.0
 10
171.3437803609142
 20
153.7815506307951
 30
0.0
 10
171.3926446288734
 20
153.7535447253821
 30
0.0
 10
171.4551365903304
 20
153.7354115432719
 30
0.0
 10
171.5339829493447
 20
153.722767201339
 30
0.0
 10
171.6325856549153
 20
153.7155883899481
 30
0.0
 10
171.704667950173
 20
153.7146304010029
 30
0.0
 10
171.7439772727273
 20
153.7141079717944
 30
0.0
  0
SPLINE
  5
1ED
330
1F
100
AcDbEntity
  8
0
  6
Continuous
 62
     7
370
    25
100
AcDbSpline
210
0.0
220
0.0
230
1.0
 70
     8
 71
     3
 72
    15
 73
    11
 74
     0
 42
0.000000001
 43
0.00000001
 40
0.0
 40
0.0
 40
0.0
 40
0.0
 40
0.1234670095574908
 40
0.2449450005387662
 40
0.3642728934610217
 40
0.4854920854918555
 40
0.6070538929442171
 40
0.7328365362852173
 40
0.8643976903441559
 40
1.0
 40
1.0
 40
1.0
 40
1.0
 10
171.3682670454546
 20
154.6601306990671
 30
0.0
 10
171.3523192171381
 20
154.6443343816694
 30
0.0
 10
171.3206804755053
 20
154.612996221076
 30
0.0
 10
171.2792972805416
 20
154.561085357768
 30
0.0
 10
171.2449386332545
 20
154.5048260293445
 30
0.0
 10
171.2166270204346
 20
154.4453175702633
 30
0.0
 10
171.194174648061
 20
154.3820565283253
 30
0.0
 10
171.1790202607785
 20
154.3148058943293
 30
0.0
 10
171.1684523523738
 20
154.2440340299247
 30
0.0
 10
171.167669880901
 20
154.1954457334261
 30
0.0
 10
171.1672727272727
 20
154.1707841081581
 30
0.0
  0
LINE
  5
1EE
330
1F
100
AcDbEntity
  8
0
  6
Continuous
 62
     7
370
    25
100
AcDbLine
 10
172.5515056818
 20
154.8050170627
 30
0.0
 11
171.9598863636
 21
154.8050170627
 31
0.0
  0
LINE
  5
1EF
330
1F
100
AcDbEntity
  8
0
  6
Continuous
 62
     7
370
    25
100
AcDbLine
 10
172.3675568182
 20
153.7141079718
 30
0.0
 11
172.5515056818
 21
154.8050170627
 31
0.0
  0
LINE
  5
1F0
330
1F
100
AcDbEntity
  8
0
  6
Continuous
 62
     7
370
    25
100
AcDbLine
 10
171.7439772727
 20
153.7141079718
 30
0.0
 11
172.3675568182
 21
153.7141079718
 31
0.0
  0
SPLINE
  5
1F1
330
1F
100
AcDbEntity
  8
0
  6
Continuous
 62
     7
370
    25
100
AcDbSpline
210
0.0
220
0.0
230
1.0
 70
     8
 71
     3
 72
    15
 73
    11
 74
     0
 42
0.000000001
 43
0.00000001
 40
0.0
 40
0.0
 40
0.0
 40
0.0
 40
0.1647800076632271
 40
0.317369127064118
 40
0.4581393300075244
 40
0.5864778876096105
 40
0.7034014452776746
 40
0.8106869453324209
 40
0.9084754112504378
 40
1.0
 40
1.0
 40
1.0
 40
1.0
 10
171.9598863636364
 20
154.8050170627035
 30
0.0
 10
171.9257809065577
 20
154.8047096925621
 30
0.0
 10
171.8600932100061
 20
154.8041176923866
 30
0.0
 10
171.7655032125176
 20
154.7967913018875
 30
0.0
 10
171.6789174089774
 20
154.7857004814967
 30
0.0
 10
171.6003929329266
 20
154.7705513983063
 30
0.0
 10
171.5303056713752
 20
154.7498499301152
 30
0.0
 10
171.4683450492218
 20
154.7252120992039
 30
0.0
 10
171.4137611298686
 20
154.696469655421
 30
0.0
 10
171.3830935028905
 20
154.6719735132832
 30
0.0
 10
171.3682670454546
 20
154.6601306990671
 30
0.0
  0
LINE
  5
1F2
330
1F
100
AcDbEntity
  8
0
  6
Continuous
 62
     7
370
    25
100
AcDbLine
 10
149.94
 20
241.3050170627
 30
0.0
 11
149.94
 21
241.8050170627
 31
0.0
  0
LINE
  5
1F3
330
1F
100
AcDbEntity
  8
0
  6
Continuous
 62
     7
370
    25
100
AcDbLine
 10
149.94
 20
241.8050170627
 30
0.0
 11
208.94
 21
241.8050170627
 31
0.0
  0
LINE
  5
1F4
330
1F
100
AcDbEntity
  8
0
  6
Continuous
 62
     7
370
    25
100
AcDbLine
 10
208.94
 20
241.8050170627
 30
0.0
 11
208.94
 21
241.3050170627
 31
0.0
  0
LINE
  5
1F5
330
1F
100
AcDbEntity
  8
0
  6
Continuous
 62
     7
370
    25
100
AcDbLine
 10
208.94
 20
151.8050170627
 30
0.0
 11
149.94
 21
151.8050170627
 31
0.0
  0
LINE
  5
1F6
330
1F
100
AcDbEntity
  8
0
  6
Continuous
 62
     7
370
    25
100
AcDbLine
 10
149.94
 20
151.8050170627
 30
0.0
 11
149.94
 21
152.3050170627
 31
0.0
  0
LINE
  5
1F7
330
1F
100
AcDbEntity
  8
0
  6
Continuous
 62
     7
370
    25
100
AcDbLine
 10
208.94
 20
152.3050170627
 30
0.0
 11
208.94
 21
151.8050170627
 31
0.0
  0
LINE
  5
1F8
330
1F
100
AcDbEntity
  8
0
  6
Continuous
 62
     7
370
    25
100
AcDbLine
 10
65.94
 20
152.3050170627
 30
0.0
 11
102.94
 21
152.3050170627
 31
0.0
  0
LINE
  5
1F9
330
1F
100
AcDbEntity
  8
0
  6
Continuous
 62
     7
370
    25
100
AcDbLine
 10
65.94
 20
152.3050170627
 30
0.0
 11
65.94
 21
241.3050170627
 31
0.0
  0
LINE
  5
1FA
330
1F
100
AcDbEntity
  8
0
  6
Continuous
 62
     7
370
    25
100
AcDbLine
 10
102.94
 20
241.3050170627
 30
0.0
 11
65.94
 21
241.3050170627
 31
0.0
  0
LINE
  5
1FB
330
1F
100
AcDbEntity
  8
0
  6
Continuous
 62
     7
370
    25
100
AcDbLine
 10
102.94
 20
152.3050170627
 30
0.0
 11
102.94
 21
241.3050170627
 31
0.0
  0
LINE
  5
1FC
330
1F
100
AcDbEntity
  8
0
  6
Continuous
 62
     7
370
    25
100
AcDbLine
 10
65.94
 20
241.8050170627
 30
0.0
 11
102.94
 21
241.8050170627
 31
0.0
  0
LINE
  5
1FD
330
1F
100
AcDbEntity
  8
0
  6
Continuous
 62
     7
370
    25
100
AcDbLine
 10
102.94
 20
241.8050170627
 30
0.0
 11
102.94
 21
241.3050170627
 31
0.0
  0
LINE
  5
1FE
330
1F
100
AcDbEntity
  8
0
  6
Continuous
 62
     7
370
    25
100
AcDbLine
 10
65.94
 20
241.3050170627
 30
0.0
 11
65.94
 21
241.8050170627
 31
0.0
  0
LINE
  5
1FF
330
1F
100
AcDbEntity
  8
0
  6
Continuous
 62
     7
370
    25
100
AcDbLine
 10
102.94
 20
151.8050170627
 30
0.0
 11
65.94
 21
151.8050170627
 31
0.0
  0
LINE
  5
200
330
1F
100
AcDbEntity
  8
0
  6
Continuous
 62
     7
370
    25
100
AcDbLine
 10
102.94
 20
152.3050170627
 30
0.0
 11
102.94
 21
151.8050170627
 31
0.0
  0
LINE
  5
201
330
1F
100
AcDbEntity
  8
0
  6
Continuous
 62
     7
370
    25
100
AcDbLine
 10
65.94
 20
151.8050170627
 30
0.0
 11
65.94
 21
152.3050170627
 31
0.0
  0
LINE
  5
202
330
1F
100
AcDbEntity
  8
0
  6
Continuous
 62
     8
370
    25
100
AcDbLine
 10
224.64
 20
168.4050170627
 30
0.0
 11
224.64
 21
172.1550170627
 31
0.0
  0
LINE
  5
203
330
1F
100
AcDbEntity
  8
0
  6
Continuous
 62
     8
370
    25
100
AcDbLine
 10
224.64
 20
157.1550170627
 30
0.0
 11
224.64
 21
168.4050170627
 31
0.0
  0
LINE
  5
204
330
1F
100
AcDbEntity
  8
0
  6
Continuous
 62
     8
370
    25
100
AcDbLine
 10
224.64
 20
221.4550170627
 30
0.0
 11
224.64
 21
236.4550170627
 31
0.0
  0
DIMENSION
  5
205
330
1F
100
AcDbEntity
  8
0
  6
Continuous
 62
     7
370
    18
100
AcDbDimension
  2
_D
 10
65.94
 20
139.5500341254
 30
0.0
 11
140.94
 21
139.5500341254
 31
0.0
 70
   160
  1
<>
 71
     2
 42
-1.0
  3
SLDDIMSTYLE0
100
AcDbAlignedDimension
 13
215.94
 23
184.8050170627
 33
0.0
 14
65.94
 24
151.8050170627
 34
0.0
100
AcDbRotatedDimension
  0
DIMENSION
  5
210
330
1F
100
AcDbEntity
  8
0
  6
Continuous
 62
     7
370
    18
100
AcDbDimension
  2
_D_1
 10
65.94
 20
254.06
 30
0.0
 11
72.44
 21
254.06
 31
0.0
 70
   160
  1
<>
 71
     2
 42
-1.0
  3
SLDDIMSTYLE1
100
AcDbAlignedDimension
 13
78.94
 23
234.4550170627
 33
0.0
 14
65.94
 24
241.8050170627
 34
0.0
100
AcDbRotatedDimension
  0
DIMENSION
  5
21D
330
1F
100
AcDbEntity
  8
0
  6
Continuous
 62
     7
370
    18
100
AcDbDimension
  2
_D_2
 10
55.94
 20
170.6550170627
 30
0.0
 11
55.94
 21
137.9967004296
 31
0.0
 70
   160
  1
M12x1.25%%c
 71
     2
 42
-1.0
  3
SLDDIMSTYLE0
100
AcDbAlignedDimension
 13
79.44
 23
158.6550170627
 33
0.0
 14
79.44
 24
170.6550170627
 34
0.0
 50
90.0
100
AcDbRotatedDimension
  0
DIMENSION
  5
229
330
1F
100
AcDbEntity
  8
0
  6
Continuous
 62
     7
370
    18
100
AcDbDimension
  2
_D_3
 10
208.94
 20
254.06
 30
0.0
 11
212.44
 21
254.06
 31
0.0
 70
   160
  1
<>
 71
     2
 42
-1.0
  3
SLDDIMSTYLE1
100
AcDbAlignedDimension
 13
215.94
 23
208.8050170627
 33
0.0
 14
208.94
 24
241.8050170627
 34
0.0
100
AcDbRotatedDimension
  0
DIMENSION
  5
235
330
1F
100
AcDbEntity
  8
0
  6
Continuous
 62
     7
370
    18
100
AcDbDimension
  2
_D_4
 10
234.94
 20
210.8050170627
 30
0.0
 11
234.94
 21
196.8050170627
 31
0.0
 70
   160
  1
%%c<>
 71
     2
 42
-1.0
  3
SLDDIMSTYLE2
100
AcDbAlignedDimension
 13
207.44
 23
182.8050170627
 33
0.0
 14
207.44
 24
210.8050170627
 34
0.0
 50
90.0
100
AcDbRotatedDimension
  0
LINE
  5
241
330
1F
100
AcDbEntity
  8
0
  6
CENTERX2
 62
     7
370
    18
100
AcDbLine
 10
77.44
 20
228.9550170627
 30
0.0
 11
226.44
 21
228.9550170627
 31
0.0
  0
LINE
  5
242
330
1F
100
AcDbEntity
  8
0
  6
CENTERX2
 62
     7
370
    18
100
AcDbLine
 10
77.44
 20
164.6550170627
 30
0.0
 11
226.44
 21
164.6550170627
 31
0.0
  0
LINE
  5
243
330
1F
100
AcDbEntity
  8
0
  6
CENTERX2
 62
     7
370
    18
100
AcDbLine
 10
209.44
 20
196.8050170627
 30
0.0
 11
127.94
 21
196.8050170627
 31
0.0
  0
LINE
  5
244
330
1F
100
AcDbEntity
  8
0
  6
CENTERX2
 62
     7
370
    18
100
AcDbLine
 10
151.94
 20
196.8050170627
 30
0.0
 11
89.94
 21
196.8050170627
 31
0.0
  0
LINE
  5
245
330
1F
100
AcDbEntity
  8
0
  6
CENTERX2
 62
     7
370
    18
100
AcDbLine
 10
63.94
 20
196.8050170627
 30
0.0
 11
89.94
 21
196.8050170627
 31
0.0
  0
ARC
  5
246
330
1F
100
AcDbEntity
  8
0
  6
Continuous
 62
     7
370
    25
100
AcDbCircle
 10
114.1893827029
 20
66.8050170627
 30
0.0
 40
13.5
100
AcDbArc
 50
297.2660444507
 51
332.7339555493
  0
LINE
  5
247
330
1F
100
AcDbEntity
  8
0
  6
Continuous
 62
     7
370
    25
100
AcDbLine
 10
120.3740411413
 20
54.8050170627
 30
0.0
 11
119.1893827029
 21
54.8050170627
 31
0.0
  0
ARC
  5
248
330
1F
100
AcDbEntity
  8
0
  6
Continuous
 62
     7
370
    25
100
AcDbCircle
 10
114.1893827029
 20
66.8050170627
 30
0.0
 40
12.99999999999999
100
AcDbArc
 50
292.619864948
 51
337.380135052
  0
LINE
  5
249
330
1F
100
AcDbEntity
  8
0
  6
Continuous
 62
     7
370
    25
100
AcDbLine
 10
126.1893827029
 20
61.8050170627
 30
0.0
 11
126.1893827029
 21
60.6203586243
 31
0.0
  0
ARC
  5
24A
330
1F
100
AcDbEntity
  8
0
  6
Continuous
 62
     7
370
    25
100
AcDbCircle
 10
114.1893827029
 20
66.8050170627
 30
0.0
 40
13.50000000000001
100
AcDbArc
 50
27.2660444507
 51
62.7339555493
  0
ARC
  5
24B
330
1F
100
AcDbEntity
  8
0
  6
Continuous
 62
     7
370
    25
100
AcDbCircle
 10
114.1893827029
 20
66.8050170627
 30
0.0
 40
13.0
100
AcDbArc
 50
22.619864948
 51
67.380135052
  0
LINE
  5
24C
330
1F
100
AcDbEntity
  8
0
  6
Continuous
 62
     7
370
    25
100
AcDbLine
 10
119.1893827029
 20
78.8050170627
 30
0.0
 11
120.3740411413
 21
78.8050170627
 31
0.0
  0
LINE
  5
24D
330
1F
100
AcDbEntity
  8
0
  6
Continuous
 62
     7
370
    25
100
AcDbLine
 10
126.1893827029
 20
72.9896755011
 30
0.0
 11
126.1893827029
 21
71.8050170627
 31
0.0
  0
LINE
  5
24E
330
1F
100
AcDbEntity
  8
0
  6
Continuous
 62
     7
370
    25
100
AcDbLine
 10
109.1893827029
 20
54.8050170627
 30
0.0
 11
119.1893827029
 21
54.8050170627
 31
0.0
  0
ARC
  5
24F
330
1F
100
AcDbEntity
  8
0
  6
Continuous
 62
     7
370
    25
100
AcDbCircle
 10
114.1893827029
 20
66.8050170627
 30
0.0
 40
13.0
100
AcDbArc
 50
202.619864948
 51
247.380135052
  0
LINE
  5
250
330
1F
100
AcDbEntity
  8
0
  6
Continuous
 62
     7
370
    25
100
AcDbLine
 10
102.1893827029
 20
71.8050170627
 30
0.0
 11
102.1893827029
 21
61.8050170627
 31
0.0
  0
ARC
  5
251
330
1F
100
AcDbEntity
  8
0
  6
Continuous
 62
     7
370
    25
100
AcDbCircle
 10
114.1893827029
 20
66.8050170627
 30
0.0
 40
13.00000000000003
100
AcDbArc
 50
112.619864948
 51
157.380135052
  0
LINE
  5
252
330
1F
100
AcDbEntity
  8
0
  6
Continuous
 62
     7
370
    25
100
AcDbLine
 10
119.1893827029
 20
78.8050170627
 30
0.0
 11
109.1893827029
 21
78.8050170627
 31
0.0
  0
CIRCLE
  5
253
330
1F
100
AcDbEntity
  8
0
  6
Continuous
 62
     7
370
    25
100
AcDbCircle
 10
114.1893827029
 20
66.8050170627
 30
0.0
 40
9.550000000000011
  0
LINE
  5
254
330
1F
100
AcDbEntity
  8
0
  6
Continuous
 62
     7
370
    25
100
AcDbLine
 10
126.1893827029
 20
61.8050170627
 30
0.0
 11
126.1893827029
 21
71.8050170627
 31
0.0
  0
CIRCLE
  5
255
330
1F
100
AcDbEntity
  8
0
  6
Continuous
 62
     7
370
    25
100
AcDbCircle
 10
114.1893827029
 20
66.8050170627
 30
0.0
 40
9.25
  0
ARC
  5
256
330
1F
100
AcDbEntity
  8
0
  6
Continuous
 62
     7
370
    25
100
AcDbCircle
 10
114.1893827029
 20
66.8050170627
 30
0.0
 40
13.50000000000001
100
AcDbArc
 50
207.2660444507
 51
242.7339555493
  0
LINE
  5
257
330
1F
100
AcDbEntity
  8
0
  6
Continuous
 62
     7
370
    25
100
AcDbLine
 10
102.1893827029
 20
60.6203586243
 30
0.0
 11
102.1893827029
 21
61.8050170627
 31
0.0
  0
LINE
  5
258
330
1F
100
AcDbEntity
  8
0
  6
Continuous
 62
     7
370
    25
100
AcDbLine
 10
109.1893827029
 20
54.8050170627
 30
0.0
 11
108.0047242645
 21
54.8050170627
 31
0.0
  0
ARC
  5
259
330
1F
100
AcDbEntity
  8
0
  6
Continuous
 62
     7
370
    25
100
AcDbCircle
 10
114.1893827029
 20
66.8050170627
 30
0.0
 40
13.50000000000002
100
AcDbArc
 50
117.2660444507
 51
152.7339555493
  0
LINE
  5
25A
330
1F
100
AcDbEntity
  8
0
  6
Continuous
 62
     7
370
    25
100
AcDbLine
 10
102.1893827029
 20
71.8050170627
 30
0.0
 11
102.1893827029
 21
72.9896755011
 31
0.0
  0
LINE
  5
25B
330
1F
100
AcDbEntity
  8
0
  6
Continuous
 62
     7
370
    25
100
AcDbLine
 10
108.0047242645
 20
78.8050170627
 30
0.0
 11
109.1893827029
 21
78.8050170627
 31
0.0
  0
ARC
  5
25C
330
1F
100
AcDbEntity
  8
0
  6
Continuous
 62
     7
370
    25
100
AcDbCircle
 10
114.1893827029
 20
66.8050170627
 30
0.0
 40
13.50000000000001
100
AcDbArc
 50
332.7339555493
 51
27.2660444507
  0
ARC
  5
25D
330
1F
100
AcDbEntity
  8
0
  6
Continuous
 62
     7
370
    25
100
AcDbCircle
 10
114.1893827029
 20
66.8050170627
 30
0.0
 40
13.50000000000002
100
AcDbArc
 50
152.7339555493
 51
207.2660444507
  0
ARC
  5
25E
330
1F
100
AcDbEntity
  8
0
  6
Continuous
 62
     7
370
    25
100
AcDbCircle
 10
114.1893827029
 20
66.8050170627
 30
0.0
 40
13.5
100
AcDbArc
 50
242.7339555493
 51
297.2660444507
  0
ARC
  5
25F
330
1F
100
AcDbEntity
  8
0
  6
Continuous
 62
     7
370
    25
100
AcDbCircle
 10
114.1893827029
 20
66.8050170627
 30
0.0
 40
13.50000000000001
100
AcDbArc
 50
62.7339555493
 51
117.2660444507
  0
CIRCLE
  5
260
330
1F
100
AcDbEntity
  8
0
  6
Continuous
 62
     7
370
    25
100
AcDbCircle
 10
114.1893827029
 20
66.8050170627
 30
0.0
 40
20.50000000000001
  0
CIRCLE
  5
261
330
1F
100
AcDbEntity
  8
0
  6
Continuous
 62
     7
370
    25
100
AcDbCircle
 10
114.1893827029
 20
66.8050170627
 30
0.0
 40
15.5
  0
CIRCLE
  5
262
330
1F
100
AcDbEntity
  8
0
  6
Continuous
 62
     7
370
    25
100
AcDbCircle
 10
114.1893827029
 20
66.8050170627
 30
0.0
 40
21.00000000000001
  0
CIRCLE
  5
263
330
1F
100
AcDbEntity
  8
0
  6
Continuous
 62
     7
370
    25
100
AcDbCircle
 10
114.1893827029
 20
66.8050170627
 30
0.0
 40
14.0
  0
CIRCLE
  5
264
330
1F
100
AcDbEntity
  8
0
  6
Continuous
 62
     7
370
    25
100
AcDbCircle
 10
114.1893827029
 20
66.8050170627
 30
0.0
 40
30.0
  0
CIRCLE
  5
265
330
1F
100
AcDbEntity
  8
0
  6
Continuous
 62
     7
370
    25
100
AcDbCircle
 10
146.3393827029
 20
98.9550170627
 30
0.0
 40
5.999999999999993
  0
CIRCLE
  5
266
330
1F
100
AcDbEntity
  8
0
  6
Continuous
 62
     7
370
    25
100
AcDbCircle
 10
146.3393827029
 20
98.9550170627
 30
0.0
 40
6.499999999999992
  0
CIRCLE
  5
267
330
1F
100
AcDbEntity
  8
0
  6
Continuous
 62
     7
370
    25
100
AcDbCircle
 10
146.3393827029
 20
98.9550170627
 30
0.0
 40
7.199999999999992
  0
CIRCLE
  5
268
330
1F
100
AcDbEntity
  8
0
  6
Continuous
 62
     7
370
    25
100
AcDbCircle
 10
146.3393827029
 20
98.9550170627
 30
0.0
 40
7.499999999999968
  0
ARC
  5
269
330
1F
100
AcDbEntity
  8
0
  6
Continuous
 62
     7
370
    25
100
AcDbCircle
 10
146.3393827029
 20
98.9550170627
 30
0.0
 40
10.06321519197521
100
AcDbArc
 50
0.0
 51
60.0
  0
SPLINE
  5
26A
330
1F
100
AcDbEntity
  8
0
  6
Continuous
 62
     7
370
    25
100
AcDbSpline
210
0.0
220
0.0
230
1.0
 70
    24
 71
     3
 72
    10
 73
     6
 74
     0
 42
0.000000001
 43
0.00000001
 40
0.0
 40
0.0
 40
0.0
 40
0.0
 40
0.3528678512837017
 40
0.6719287159605569
 40
1.0
 40
1.0
 40
1.0
 40
1.0
 10
156.4025978948592
 20
104.7650170627034
 30
0.0
 10
155.8418130555642
 20
105.0887863406279
 30
0.0
 10
154.7739701346893
 20
105.7053057384473
 30
0.0
 10
153.0797493904471
 20
106.6834645412021
 30
0.0
 10
151.9458393718523
 20
107.3381277956746
 30
0.0
 10
151.3709902988716
 20
107.6700170627034
 30
0.0
  0
SPLINE
  5
26B
330
1F
100
AcDbEntity
  8
0
  6
Continuous
 62
     7
370
    25
100
AcDbSpline
210
0.0
220
0.0
230
1.0
 70
    24
 71
     3
 72
    11
 73
     7
 74
     0
 42
0.000000001
 43
0.00000001
 40
0.0
 40
0.0
 40
0.0
 40
0.0
 40
0.2495764276467891
 40
0.5043610488117503
 40
0.751045374475448
 40
1.0
 40
1.0
 40
1.0
 40
1.0
 10
156.4025978948592
 20
98.95501706270343
 30
0.0
 10
156.4025978948592
 20
99.460231227084
 30
0.0
 10
156.4025978948592
 20
100.4812024310719
 30
0.0
 10
156.4025978948592
 20
101.9672730373543
 30
0.0
 10
156.4025978948592
 20
103.4041945106867
 30
0.0
 10
156.4025978948592
 20
104.3100264753036
 30
0.0
 10
156.4025978948592
 20
104.7650170627034
 30
0.0
  0
ARC
  5
26C
330
1F
100
AcDbEntity
  8
0
  6
Continuous
 62
     7
370
    25
100
AcDbCircle
 10
146.3393827029
 20
98.9550170627
 30
0.0
 40
10.06321519197517
100
AcDbArc
 50
300.0
 51
0.0
  0
ARC
  5
26D
330
1F
100
AcDbEntity
  8
0
  6
Continuous
 62
     7
370
    25
100
AcDbCircle
 10
146.3393827029
 20
98.9550170627
 30
0.0
 40
10.06321519197518
100
AcDbArc
 50
240.0
 51
300.0
  0
ARC
  5
26E
330
1F
100
AcDbEntity
  8
0
  6
Continuous
 62
     7
370
    25
100
AcDbCircle
 10
146.3393827029
 20
98.9550170627
 30
0.0
 40
10.06321519197522
100
AcDbArc
 50
180.0
 51
240.0
  0
ARC
  5
26F
330
1F
100
AcDbEntity
  8
0
  6
Continuous
 62
     7
370
    25
100
AcDbCircle
 10
146.3393827029
 20
98.9550170627
 30
0.0
 40
10.06321519197522
100
AcDbArc
 50
120.0
 51
180.0
  0
ARC
  5
270
330
1F
100
AcDbEntity
  8
0
  6
Continuous
 62
     7
370
    25
100
AcDbCircle
 10
146.3393827029
 20
98.9550170627
 30
0.0
 40
10.06321519197521
100
AcDbArc
 50
60.0
 51
120.0
  0
SPLINE
  5
271
330
1F
100
AcDbEntity
  8
0
  6
Continuous
 62
     7
370
    25
100
AcDbSpline
210
0.0
220
0.0
230
1.0
 70
    24
 71
     3
 72
    11
 73
     7
 74
     0
 42
0.000000001
 43
0.00000001
 40
0.0
 40
0.0
 40
0.0
 40
0.0
 40
0.4320436111190986
 40
0.6543464494911995
 40
0.8796494883878743
 40
1.0
 40
1.0
 40
1.0
 40
1.0
 10
156.4025978948592
 20
93.14501706270343
 30
0.0
 10
156.4025978948592
 20
93.94089615295162
 30
0.0
 10
156.4025978948592
 20
95.14628524684247
 30
0.0
 10
156.4025978948592
 20
96.87242184340906
 30
0.0
 10
156.4025978948592
 20
98.01250284417988
 30
0.0
 10
156.4025978948592
 20
98.71160272874945
 30
0.0
 10
156.4025978948592
 20
98.95501706270343
 30
0.0
  0
SPLINE
  5
272
330
1F
100
AcDbEntity
  8
0
  6
Continuous
 62
     7
370
    25
100
AcDbSpline
210
0.0
220
0.0
230
1.0
 70
    24
 71
     3
 72
    11
 73
     7
 74
     0
 42
0.000000001
 43
0.00000001
 40
0.0
 40
0.0
 40
0.0
 40
0.0
 40
0.2495764276467891
 40
0.5043610488117467
 40
0.7510453744754411
 40
1.0
 40
1.0
 40
1.0
 40
1.0
 10
151.3709902988716
 20
90.24001706270342
 30
0.0
 10
151.808518599577
 20
90.49262414489371
 30
0.0
 10
152.6927055987629
 20
91.00310974688766
 30
0.0
 10
153.9796804956207
 20
91.74614505002883
 30
0.0
 10
155.22409099477
 20
92.46460578669509
 30
0.0
 10
156.0085644876882
 20
92.91752176900353
 30
0.0
 10
156.4025978948592
 20
93.14501706270343
 30
0.0
  0
SPLINE
  5
273
330
1F
100
AcDbEntity
  8
0
  6
Continuous
 62
     7
370
    25
100
AcDbSpline
210
0.0
220
0.0
230
1.0
 70
    24
 71
     3
 72
    11
 73
     7
 74
     0
 42
0.000000001
 43
0.00000001
 40
0.0
 40
0.0
 40
0.0
 40
0.0
 40
0.4320436111190983
 40
0.6543464494911995
 40
0.8796494883878743
 40
1.0
 40
1.0
 40
1.0
 40
1.0
 10
146.3393827028841
 20
87.33501706270341
 30
0.0
 10
147.0286342133798
 20
87.7329566078275
 30
0.0
 10
148.072531790134
 20
88.33565115477292
 30
0.0
 10
149.5674099331627
 20
89.19871945305624
 30
0.0
 10
150.5547490422022
 20
89.76875995344163
 30
0.0
 10
151.1601873020223
 20
90.11830989572643
 30
0.0
 10
151.3709902988716
 20
90.24001706270342
 30
0.0
  0
SPLINE
  5
274
330
1F
100
AcDbEntity
  8
0
  6
Continuous
 62
     7
370
    25
100
AcDbSpline
210
0.0
220
0.0
230
1.0
 70
    24
 71
     3
 72
    11
 73
     7
 74
     0
 42
0.000000001
 43
0.00000001
 40
0.0
 40
0.0
 40
0.0
 40
0.0
 40
0.0581237806725219
 40
0.4052923505119566
 40
0.7646176100441904
 40
1.0
 40
1.0
 40
1.0
 40
1.0
 10
141.3077751068965
 20
90.2400170627034
 30
0.0
 10
141.409532729803
 20
90.18126727172623
 30
0.0
 10
142.1190802797576
 20
89.77160980275706
 30
0.0
 10
143.4536785500249
 20
89.00107913215827
 30
0.0
 10
145.026679585395
 20
88.0929065609518
 30
0.0
 10
145.9671493517839
 20
87.54992608816242
 30
0.0
 10
146.3393827028841
 20
87.33501706270341
 30
0.0
  0
SPLINE
  5
275
330
1F
100
AcDbEntity
  8
0
  6
Continuous
 62
     7
370
    25
100
AcDbSpline
210
0.0
220
0.0
230
1.0
 70
    24
 71
     3
 72
    11
 73
     7
 74
     0
 42
0.000000001
 43
0.00000001
 40
0.0
 40
0.0
 40
0.0
 40
0.0
 40
0.0581237806725192
 40
0.4052923505119568
 40
0.764617610044191
 40
0.9999999999999999
 40
0.9999999999999999
 40
0.9999999999999999
 40
0.9999999999999999
 10
151.3709902988716
 20
107.6700170627034
 30
0.0
 10
151.2692326759651
 20
107.7287668536806
 30
0.0
 10
150.5596851260105
 20
108.1384243226498
 30
0.0
 10
149.2250868557432
 20
108.9089549932486
 30
0.0
 10
147.6520858203731
 20
109.817127564455
 30
0.0
 10
146.7116160539841
 20
110.3601080372444
 30
0.0
 10
146.339382702884
 20
110.5750170627034
 30
0.0
  0
SPLINE
  5
276
330
1F
100
AcDbEntity
  8
0
  6
Continuous
 62
     7
370
    25
100
AcDbSpline
210
0.0
220
0.0
230
1.0
 70
    24
 71
     3
 72
    11
 73
     7
 74
     0
 42
0.000000001
 43
0.00000001
 40
0.0
 40
0.0
 40
0.0
 40
0.0
 40
0.4320436111190994
 40
0.6543464494912001
 40
0.8796494883878738
 40
1.0
 40
1.0
 40
1.0
 40
1.0
 10
146.339382702884
 20
110.5750170627034
 30
0.0
 10
145.6501311923882
 20
110.1770775175793
 30
0.0
 10
144.606233615634
 20
109.5743829706339
 30
0.0
 10
143.1113554726054
 20
108.7113146723506
 30
0.0
 10
142.1240163635659
 20
108.1412741719652
 30
0.0
 10
141.5185781037459
 20
107.7917242296804
 30
0.0
 10
141.3077751068964
 20
107.6700170627034
 30
0.0
  0
SPLINE
  5
277
330
1F
100
AcDbEntity
  8
0
  6
Continuous
 62
     7
370
    25
100
AcDbSpline
210
0.0
220
0.0
230
1.0
 70
    24
 71
     3
 72
    11
 73
     7
 74
     0
 42
0.000000001
 43
0.00000001
 40
0.0
 40
0.0
 40
0.0
 40
0.0
 40
0.2495764276467908
 40
0.5043610488117505
 40
0.7510453744754432
 40
1.0
 40
1.0
 40
1.0
 40
1.0
 10
141.3077751068964
 20
107.6700170627034
 30
0.0
 10
140.8702468061911
 20
107.4174099805131
 30
0.0
 10
139.9860598070052
 20
106.9069243785192
 30
0.0
 10
138.6990849101473
 20
106.163889075378
 30
0.0
 10
137.4546744109981
 20
105.4454283387118
 30
0.0
 10
136.6702009180799
 20
104.9925123564033
 30
0.0
 10
136.2761675109088
 20
104.7650170627034
 30
0.0
  0
SPLINE
  5
278
330
1F
100
AcDbEntity
  8
0
  6
Continuous
 62
     7
370
    25
100
AcDbSpline
210
0.0
220
0.0
230
1.0
 70
    24
 71
     3
 72
    11
 73
     7
 74
     0
 42
0.000000001
 43
0.00000001
 40
0.0
 40
0.0
 40
0.0
 40
0.0
 40
0.4320436111191002
 40
0.6543464494912005
 40
0.8796494883878734
 40
1.0
 40
1.0
 40
1.0
 40
1.0
 10
136.2761675109088
 20
104.7650170627034
 30
0.0
 10
136.2761675109088
 20
103.9691379724552
 30
0.0
 10
136.2761675109088
 20
102.7637488785643
 30
0.0
 10
136.2761675109088
 20
101.0376122819978
 30
0.0
 10
136.2761675109089
 20
99.89753128122695
 30
0.0
 10
136.2761675109088
 20
99.19843139665738
 30
0.0
 10
136.2761675109088
 20
98.9550170627034
 30
0.0
  0
SPLINE
  5
279
330
1F
100
AcDbEntity
  8
0
  6
Continuous
 62
     7
370
    25
100
AcDbSpline
210
0.0
220
0.0
230
1.0
 70
    24
 71
     3
 72
    11
 73
     7
 74
     0
 42
0.000000001
 43
0.00000001
 40
0.0
 40
0.0
 40
0.0
 40
0.0
 40
0.2495764276467916
 40
0.5043610488117525
 40
0.7510453744754466
 40
1.0
 40
1.0
 40
1.0
 40
1.0
 10
136.2761675109088
 20
98.9550170627034
 30
0.0
 10
136.2761675109088
 20
98.44980289832283
 30
0.0
 10
136.2761675109089
 20
97.42883169433493
 30
0.0
 10
136.2761675109089
 20
95.94276108805252
 30
0.0
 10
136.2761675109089
 20
94.50583961472013
 30
0.0
 10
136.2761675109088
 20
93.60000765010322
 30
0.0
 10
136.2761675109088
 20
93.14501706270339
 30
0.0
  0
SPLINE
  5
27A
330
1F
100
AcDbEntity
  8
0
  6
Continuous
 62
     7
370
    25
100
AcDbSpline
210
0.0
220
0.0
230
1.0
 70
    24
 71
     3
 72
    10
 73
     6
 74
     0
 42
0.000000001
 43
0.00000001
 40
0.0
 40
0.0
 40
0.0
 40
0.0
 40
0.352867851283702
 40
0.6719287159605574
 40
1.0
 40
1.0
 40
1.0
 40
1.0
 10
136.2761675109088
 20
93.14501706270339
 30
0.0
 10
136.8369523502039
 20
92.82124778477896
 30
0.0
 10
137.9047952710789
 20
92.20472838695956
 30
0.0
 10
139.599016015321
 20
91.2265695842047
 30
0.0
 10
140.7329260339158
 20
90.5719063297322
 30
0.0
 10
141.3077751068965
 20
90.2400170627034
 30
0.0
  0
CIRCLE
  5
27B
330
1F
100
AcDbEntity
  8
0
  6
Continuous
 62
     7
370
    25
100
AcDbCircle
 10
82.0393827029
 20
34.6550170627
 30
0.0
 40
7.199999999999996
  0
CIRCLE
  5
27C
330
1F
100
AcDbEntity
  8
0
  6
Continuous
 62
     7
370
    25
100
AcDbCircle
 10
82.0393827029
 20
34.6550170627
 30
0.0
 40
7.500000000000012
  0
CIRCLE
  5
27D
330
1F
100
AcDbEntity
  8
0
  6
Continuous
 62
     7
370
    25
100
AcDbCircle
 10
82.0393827029
 20
34.6550170627
 30
0.0
 40
6.500000000000016
  0
CIRCLE
  5
27E
330
1F
100
AcDbEntity
  8
0
  6
Continuous
 62
     7
370
    25
100
AcDbCircle
 10
82.0393827029
 20
34.6550170627
 30
0.0
 40
5.999999999999996
  0
SPLINE
  5
27F
330
1F
100
AcDbEntity
  8
0
  6
Continuous
 62
     7
370
    25
100
AcDbSpline
210
0.0
220
0.0
230
1.0
 70
    24
 71
     3
 72
    11
 73
     7
 74
     0
 42
0.000000001
 43
0.00000001
 40
0.0
 40
0.0
 40
0.0
 40
0.0
 40
0.2495764276467916
 40
0.5043610488117525
 40
0.7510453744754466
 40
1.0
 40
1.0
 40
1.0
 40
1.0
 10
92.10259789485923
 20
34.6550170627034
 30
0.0
 10
92.10259789485923
 20
35.16023122708398
 30
0.0
 10
92.10259789485923
 20
36.18120243107188
 30
0.0
 10
92.10259789485923
 20
37.66727303735429
 30
0.0
 10
92.10259789485923
 20
39.10419451068668
 30
0.0
 10
92.10259789485923
 20
40.01002647530359
 30
0.0
 10
92.10259789485923
 20
40.46501706270341
 30
0.0
  0
ARC
  5
280
330
1F
100
AcDbEntity
  8
0
  6
Continuous
 62
     7
370
    25
100
AcDbCircle
 10
82.0393827029
 20
34.6550170627
 30
0.0
 40
10.06321519197518
100
AcDbArc
 50
0.0
 51
60.0
  0
SPLINE
  5
281
330
1F
100
AcDbEntity
  8
0
  6
Continuous
 62
     7
370
    25
100
AcDbSpline
210
0.0
220
0.0
230
1.0
 70
    24
 71
     3
 72
    10
 73
     6
 74
     0
 42
0.000000001
 43
0.00000001
 40
0.0
 40
0.0
 40
0.0
 40
0.0
 40
0.352867851283702
 40
0.6719287159605574
 40
1.0
 40
1.0
 40
1.0
 40
1.0
 10
92.10259789485923
 20
40.46501706270341
 30
0.0
 10
91.5418130555642
 20
40.78878634062786
 30
0.0
 10
90.47397013468925
 20
41.40530573844725
 30
0.0
 10
88.77974939044705
 20
42.38346454120212
 30
0.0
 10
87.64583937185232
 20
43.0381277956746
 30
0.0
 10
87.07099029887164
 20
43.37001706270341
 30
0.0
  0
SPLINE
  5
282
330
1F
100
AcDbEntity
  8
0
  6
Continuous
 62
     7
370
    25
100
AcDbSpline
210
0.0
220
0.0
230
1.0
 70
    24
 71
     3
 72
    11
 73
     7
 74
     0
 42
0.000000001
 43
0.00000001
 40
0.0
 40
0.0
 40
0.0
 40
0.0
 40
0.2495764276467908
 40
0.5043610488117505
 40
0.7510453744754432
 40
1.0
 40
1.0
 40
1.0
 40
1.0
 10
87.07099029887165
 20
25.94001706270339
 30
0.0
 10
87.50851859957696
 20
26.19262414489368
 30
0.0
 10
88.39270559876287
 20
26.70310974688764
 30
0.0
 10
89.67968049562074
 20
27.44614505002883
 30
0.0
 10
90.92409099477001
 20
28.16460578669502
 30
0.0
 10
91.70856448768821
 20
28.61752176900349
 30
0.0
 10
92.10259789485923
 20
28.84501706270341
 30
0.0
  0
ARC
  5
283
330
1F
100
AcDbEntity
  8
0
  6
Continuous
 62
     7
370
    25
100
AcDbCircle
 10
82.0393827029
 20
34.6550170627
 30
0.0
 40
10.06321519197519
100
AcDbArc
 50
300.0
 51
0.0
  0
SPLINE
  5
284
330
1F
100
AcDbEntity
  8
0
  6
Continuous
 62
     7
370
    25
100
AcDbSpline
210
0.0
220
0.0
230
1.0
 70
    24
 71
     3
 72
    11
 73
     7
 74
     0
 42
0.000000001
 43
0.00000001
 40
0.0
 40
0.0
 40
0.0
 40
0.0
 40
0.4320436111191002
 40
0.6543464494912005
 40
0.8796494883878734
 40
1.0
 40
1.0
 40
1.0
 40
1.0
 10
92.10259789485923
 20
28.84501706270341
 30
0.0
 10
92.10259789485923
 20
29.64089615295159
 30
0.0
 10
92.10259789485924
 20
30.84628524684246
 30
0.0
 10
92.10259789485923
 20
32.572421843409
 30
0.0
 10
92.10259789485923
 20
33.71250284417987
 30
0.0
 10
92.10259789485923
 20
34.41160272874943
 30
0.0
 10
92.10259789485923
 20
34.6550170627034
 30
0.0
  0
ARC
  5
285
330
1F
100
AcDbEntity
  8
0
  6
Continuous
 62
     7
370
    25
100
AcDbCircle
 10
82.0393827029
 20
34.6550170627
 30
0.0
 40
10.06321519197521
100
AcDbArc
 50
180.0
 51
240.0
  0
ARC
  5
286
330
1F
100
AcDbEntity
  8
0
  6
Continuous
 62
     7
370
    25
100
AcDbCircle
 10
82.0393827029
 20
34.6550170627
 30
0.0
 40
10.06321519197519
100
AcDbArc
 50
120.0
 51
180.0
  0
ARC
  5
287
330
1F
100
AcDbEntity
  8
0
  6
Continuous
 62
     7
370
    25
100
AcDbCircle
 10
82.0393827029
 20
34.6550170627
 30
0.0
 40
10.06321519197519
100
AcDbArc
 50
60.0
 51
120.0
  0
ARC
  5
288
330
1F
100
AcDbEntity
  8
0
  6
Continuous
 62
     7
370
    25
100
AcDbCircle
 10
82.0393827029
 20
34.6550170627
 30
0.0
 40
10.06321519197521
100
AcDbArc
 50
240.0
 51
300.0
  0
SPLINE
  5
289
330
1F
100
AcDbEntity
  8
0
  6
Continuous
 62
     7
370
    25
100
AcDbSpline
210
0.0
220
0.0
230
1.0
 70
    24
 71
     3
 72
    11
 73
     7
 74
     0
 42
0.000000001
 43
0.00000001
 40
0.0
 40
0.0
 40
0.0
 40
0.0
 40
0.4320436111190983
 40
0.6543464494911995
 40
0.8796494883878743
 40
1.0
 40
1.0
 40
1.0
 40
1.0
 10
82.03938270288403
 20
46.27501706270341
 30
0.0
 10
81.35013119238823
 20
45.87707751757932
 30
0.0
 10
80.30623361563404
 20
45.27438297063389
 30
0.0
 10
78.81135547260541
 20
44.41131467235058
 30
0.0
 10
77.82401636356587
 20
43.84127417196517
 30
0.0
 10
77.21857810374586
 20
43.49172422968038
 30
0.0
 10
77.00777510689643
 20
43.3700170627034
 30
0.0
  0
SPLINE
  5
28A
330
1F
100
AcDbEntity
  8
0
  6
Continuous
 62
     7
370
    25
100
AcDbSpline
210
0.0
220
0.0
230
1.0
 70
    24
 71
     3
 72
    11
 73
     7
 74
     0
 42
0.000000001
 43
0.00000001
 40
0.0
 40
0.0
 40
0.0
 40
0.0
 40
0.0581237806725219
 40
0.4052923505119566
 40
0.7646176100441904
 40
1.0
 40
1.0
 40
1.0
 40
1.0
 10
87.07099029887164
 20
43.37001706270341
 30
0.0
 10
86.96923267596512
 20
43.42876685368058
 30
0.0
 10
86.25968512601045
 20
43.83842432264976
 30
0.0
 10
84.9250868557432
 20
44.60895499324855
 30
0.0
 10
83.35208582037309
 20
45.51712756445502
 30
0.0
 10
82.41161605398416
 20
46.06010803724439
 30
0.0
 10
82.03938270288403
 20
46.27501706270341
 30
0.0
  0
SPLINE
  5
28B
330
1F
100
AcDbEntity
  8
0
  6
Continuous
 62
     7
370
    25
100
AcDbSpline
210
0.0
220
0.0
230
1.0
 70
    24
 71
     3
 72
    11
 73
     7
 74
     0
 42
0.000000001
 43
0.00000001
 40
0.0
 40
0.0
 40
0.0
 40
0.0
 40
0.0581237806725192
 40
0.4052923505119568
 40
0.764617610044191
 40
0.9999999999999999
 40
0.9999999999999999
 40
0.9999999999999999
 40
0.9999999999999999
 10
77.00777510689646
 20
25.94001706270337
 30
0.0
 10
77.10953272980298
 20
25.8812672717262
 30
0.0
 10
77.81908027975761
 20
25.47160980275701
 30
0.0
 10
79.15367855002492
 20
24.70107913215826
 30
0.0
 10
80.72667958539498
 20
23.79290656095177
 30
0.0
 10
81.66714935178395
 20
23.24992608816239
 30
0.0
 10
82.03938270288407
 20
23.03501706270337
 30
0.0
  0
SPLINE
  5
28C
330
1F
100
AcDbEntity
  8
0
  6
Continuous
 62
     7
370
    25
100
AcDbSpline
210
0.0
220
0.0
230
1.0
 70
    24
 71
     3
 72
    11
 73
     7
 74
     0
 42
0.000000001
 43
0.00000001
 40
0.0
 40
0.0
 40
0.0
 40
0.0
 40
0.4320436111190994
 40
0.6543464494912001
 40
0.8796494883878738
 40
1.0
 40
1.0
 40
1.0
 40
1.0
 10
82.03938270288408
 20
23.03501706270338
 30
0.0
 10
82.72863421337986
 20
23.43295660782749
 30
0.0
 10
83.77253179013405
 20
24.03565115477292
 30
0.0
 10
85.2674099331627
 20
24.8987194530562
 30
0.0
 10
86.25474904220223
 20
25.46875995344159
 30
0.0
 10
86.86018730202224
 20
25.8183098957264
 30
0.0
 10
87.07099029887165
 20
25.94001706270339
 30
0.0
  0
SPLINE
  5
28D
330
1F
100
AcDbEntity
  8
0
  6
Continuous
 62
     7
370
    25
100
AcDbSpline
210
0.0
220
0.0
230
1.0
 70
    24
 71
     3
 72
    10
 73
     6
 74
     0
 42
0.000000001
 43
0.00000001
 40
0.0
 40
0.0
 40
0.0
 40
0.0
 40
0.3528678512837017
 40
0.6719287159605569
 40
1.0
 40
1.0
 40
1.0
 40
1.0
 10
71.97616751090885
 20
28.8450170627034
 30
0.0
 10
72.53695235020388
 20
28.52124778477894
 30
0.0
 10
73.60479527107886
 20
27.90472838695952
 30
0.0
 10
75.29901601532104
 20
26.92656958420469
 30
0.0
 10
76.43292603391578
 20
26.27190632973219
 30
0.0
 10
77.00777510689646
 20
25.94001706270337
 30
0.0
  0
SPLINE
  5
28E
330
1F
100
AcDbEntity
  8
0
  6
Continuous
 62
     7
370
    25
100
AcDbSpline
210
0.0
220
0.0
230
1.0
 70
    24
 71
     3
 72
    11
 73
     7
 74
     0
 42
0.000000001
 43
0.00000001
 40
0.0
 40
0.0
 40
0.0
 40
0.0
 40
0.2495764276467891
 40
0.5043610488117503
 40
0.751045374475448
 40
1.0
 40
1.0
 40
1.0
 40
1.0
 10
71.97616751090885
 20
34.65501706270338
 30
0.0
 10
71.97616751090887
 20
34.14980289832281
 30
0.0
 10
71.97616751090887
 20
33.12883169433491
 30
0.0
 10
71.97616751090888
 20
31.64276108805252
 30
0.0
 10
71.97616751090885
 20
30.20583961472011
 30
0.0
 10
71.97616751090885
 20
29.30000765010321
 30
0.0
 10
71.97616751090885
 20
28.84501706270339
 30
0.0
  0
SPLINE
  5
28F
330
1F
100
AcDbEntity
  8
0
  6
Continuous
 62
     7
370
    25
100
AcDbSpline
210
0.0
220
0.0
230
1.0
 70
    24
 71
     3
 72
    11
 73
     7
 74
     0
 42
0.000000001
 43
0.00000001
 40
0.0
 40
0.0
 40
0.0
 40
0.0
 40
0.4320436111190986
 40
0.6543464494911995
 40
0.8796494883878743
 40
1.0
 40
1.0
 40
1.0
 40
1.0
 10
71.97616751090882
 20
40.46501706270337
 30
0.0
 10
71.97616751090885
 20
39.66913797245519
 30
0.0
 10
71.97616751090888
 20
38.46374887856435
 30
0.0
 10
71.97616751090885
 20
36.73761228199776
 30
0.0
 10
71.97616751090887
 20
35.59753128122694
 30
0.0
 10
71.97616751090887
 20
34.89843139665736
 30
0.0
 10
71.97616751090887
 20
34.65501706270339
 30
0.0
  0
SPLINE
  5
290
330
1F
100
AcDbEntity
  8
0
  6
Continuous
 62
     7
370
    25
100
AcDbSpline
210
0.0
220
0.0
230
1.0
 70
    24
 71
     3
 72
    11
 73
     7
 74
     0
 42
0.000000001
 43
0.00000001
 40
0.0
 40
0.0
 40
0.0
 40
0.0
 40
0.2495764276467891
 40
0.5043610488117467
 40
0.7510453744754411
 40
1.0
 40
1.0
 40
1.0
 40
1.0
 10
77.00777510689643
 20
43.3700170627034
 30
0.0
 10
76.57024680619112
 20
43.1174099805131
 30
0.0
 10
75.68605980700522
 20
42.60692437851916
 30
0.0
 10
74.39908491014735
 20
41.86388907537798
 30
0.0
 10
73.15467441099807
 20
41.14542833871172
 30
0.0
 10
72.37020091807989
 20
40.69251235640329
 30
0.0
 10
71.97616751090884
 20
40.46501706270337
 30
0.0
  0
CIRCLE
  5
291
330
1F
100
AcDbEntity
  8
0
  6
Continuous
 62
     7
370
    25
100
AcDbCircle
 10
82.0393827029
 20
98.9550170627
 30
0.0
 40
7.200000000000012
  0
CIRCLE
  5
292
330
1F
100
AcDbEntity
  8
0
  6
Continuous
 62
     7
370
    25
100
AcDbCircle
 10
82.0393827029
 20
98.9550170627
 30
0.0
 40
6.500000000000004
  0
CIRCLE
  5
293
330
1F
100
AcDbEntity
  8
0
  6
Continuous
 62
     7
370
    25
100
AcDbCircle
 10
82.0393827029
 20
98.9550170627
 30
0.0
 40
6.0
  0
CIRCLE
  5
294
330
1F
100
AcDbEntity
  8
0
  6
Continuous
 62
     7
370
    25
100
AcDbCircle
 10
82.0393827029
 20
98.9550170627
 30
0.0
 40
7.5
  0
ARC
  5
295
330
1F
100
AcDbEntity
  8
0
  6
Continuous
 62
     7
370
    25
100
AcDbCircle
 10
82.0393827029
 20
98.9550170627
 30
0.0
 40
10.06321519197522
100
AcDbArc
 50
60.0
 51
120.0
  0
ARC
  5
296
330
1F
100
AcDbEntity
  8
0
  6
Continuous
 62
     7
370
    25
100
AcDbCircle
 10
82.0393827029
 20
98.9550170627
 30
0.0
 40
10.06321519197519
100
AcDbArc
 50
0.0
 51
60.0
  0
ARC
  5
297
330
1F
100
AcDbEntity
  8
0
  6
Continuous
 62
     7
370
    25
100
AcDbCircle
 10
82.0393827029
 20
98.9550170627
 30
0.0
 40
10.06321519197519
100
AcDbArc
 50
300.0
 51
0.0
  0
ARC
  5
298
330
1F
100
AcDbEntity
  8
0
  6
Continuous
 62
     7
370
    25
100
AcDbCircle
 10
82.0393827029
 20
98.9550170627
 30
0.0
 40
10.0632151919752
100
AcDbArc
 50
240.0
 51
300.0
  0
ARC
  5
299
330
1F
100
AcDbEntity
  8
0
  6
Continuous
 62
     7
370
    25
100
AcDbCircle
 10
82.0393827029
 20
98.9550170627
 30
0.0
 40
10.0632151919752
100
AcDbArc
 50
180.0
 51
240.0
  0
ARC
  5
29A
330
1F
100
AcDbEntity
  8
0
  6
Continuous
 62
     7
370
    25
100
AcDbCircle
 10
82.0393827029
 20
98.9550170627
 30
0.0
 40
10.06321519197522
100
AcDbArc
 50
120.0
 51
180.0
  0
SPLINE
  5
29B
330
1F
100
AcDbEntity
  8
0
  6
Continuous
 62
     7
370
    25
100
AcDbSpline
210
0.0
220
0.0
230
1.0
 70
    24
 71
     3
 72
    11
 73
     7
 74
     0
 42
0.000000001
 43
0.00000001
 40
0.0
 40
0.0
 40
0.0
 40
0.0
 40
0.058123780672522
 40
0.4052923505119566
 40
0.7646176100441899
 40
1.0
 40
1.0
 40
1.0
 40
1.0
 10
87.07099029887164
 20
90.24001706270342
 30
0.0
 10
87.17274792177817
 20
90.29876685368058
 30
0.0
 10
87.88229547173285
 20
90.70842432264972
 30
0.0
 10
89.21689374200007
 20
91.47895499324856
 30
0.0
 10
90.78989477737015
 20
92.38712756445504
 30
0.0
 10
91.73036454375911
 20
92.93010803724441
 30
0.0
 10
92.10259789485923
 20
93.14501706270342
 30
0.0
  0
SPLINE
  5
29C
330
1F
100
AcDbEntity
  8
0
  6
Continuous
 62
     7
370
    25
100
AcDbSpline
210
0.0
220
0.0
230
1.0
 70
    24
 71
     3
 72
    11
 73
     7
 74
     0
 42
0.000000001
 43
0.00000001
 40
0.0
 40
0.0
 40
0.0
 40
0.0
 40
0.4320436111190988
 40
0.6543464494911995
 40
0.8796494883878756
 40
1.0
 40
1.0
 40
1.0
 40
1.0
 10
92.10259789485923
 20
93.14501706270342
 30
0.0
 10
92.10259789485923
 20
93.94089615295161
 30
0.0
 10
92.10259789485924
 20
95.14628524684247
 30
0.0
 10
92.10259789485922
 20
96.87242184340904
 30
0.0
 10
92.10259789485924
 20
98.01250284417988
 30
0.0
 10
92.10259789485924
 20
98.71160272874944
 30
0.0
 10
92.10259789485924
 20
98.95501706270342
 30
0.0
  0
SPLINE
  5
29D
330
1F
100
AcDbEntity
  8
0
  6
Continuous
 62
     7
370
    25
100
AcDbSpline
210
0.0
220
0.0
230
1.0
 70
    24
 71
     3
 72
    11
 73
     7
 74
     0
 42
0.000000001
 43
0.00000001
 40
0.0
 40
0.0
 40
0.0
 40
0.0
 40
0.432043611119098
 40
0.6543464494911995
 40
0.8796494883878746
 40
0.9999999999999999
 40
0.9999999999999999
 40
0.9999999999999999
 40
0.9999999999999999
 10
92.10259789485923
 20
104.7650170627034
 30
0.0
 10
91.41334638436346
 20
105.1629566078275
 30
0.0
 10
90.36944880760927
 20
105.7656511547729
 30
0.0
 10
88.87457066458062
 20
106.6287194530562
 30
0.0
 10
87.88723155554106
 20
107.1987599534417
 30
0.0
 10
87.28179329572106
 20
107.5483098957264
 30
0.0
 10
87.07099029887164
 20
107.6700170627034
 30
0.0
  0
SPLINE
  5
29E
330
1F
100
AcDbEntity
  8
0
  6
Continuous
 62
     7
370
    25
100
AcDbSpline
210
0.0
220
0.0
230
1.0
 70
    24
 71
     3
 72
    11
 73
     7
 74
     0
 42
0.000000001
 43
0.00000001
 40
0.0
 40
0.0
 40
0.0
 40
0.0
 40
0.2495764276467899
 40
0.5043610488117474
 40
0.7510453744754413
 40
1.0
 40
1.0
 40
1.0
 40
1.0
 10
92.10259789485924
 20
98.95501706270342
 30
0.0
 10
92.10259789485924
 20
99.460231227084
 30
0.0
 10
92.10259789485924
 20
100.4812024310719
 30
0.0
 10
92.10259789485924
 20
101.9672730373543
 30
0.0
 10
92.10259789485923
 20
103.4041945106867
 30
0.0
 10
92.10259789485923
 20
104.3100264753036
 30
0.0
 10
92.10259789485923
 20
104.7650170627034
 30
0.0
  0
SPLINE
  5
29F
330
1F
100
AcDbEntity
  8
0
  6
Continuous
 62
     7
370
    25
100
AcDbSpline
210
0.0
220
0.0
230
1.0
 70
    24
 71
     3
 72
    11
 73
     7
 74
     0
 42
0.000000001
 43
0.00000001
 40
0.0
 40
0.0
 40
0.0
 40
0.0
 40
0.2495764276467922
 40
0.5043610488117528
 40
0.7510453744754457
 40
1.0
 40
1.0
 40
1.0
 40
1.0
 10
77.00777510689643
 20
90.2400170627034
 30
0.0
 10
77.44530340760176
 20
89.98740998051314
 30
0.0
 10
78.32949040678766
 20
89.47692437851919
 30
0.0
 10
79.6164653036456
 20
88.73388907537796
 30
0.0
 10
80.8608758027948
 20
88.01542833871176
 30
0.0
 10
81.645349295713
 20
87.5625123564033
 30
0.0
 10
82.03938270288405
 20
87.3350170627034
 30
0.0
  0
SPLINE
  5
2A0
330
1F
100
AcDbEntity
  8
0
  6
Continuous
 62
     7
370
    25
100
AcDbSpline
210
0.0
220
0.0
230
1.0
 70
    24
 71
     3
 72
    10
 73
     6
 74
     0
 42
0.000000001
 43
0.00000001
 40
0.0
 40
0.0
 40
0.0
 40
0.0
 40
0.3528678512837015
 40
0.6719287159605574
 40
1.0
 40
1.0
 40
1.0
 40
1.0
 10
82.03938270288405
 20
87.3350170627034
 30
0.0
 10
82.60016754217908
 20
87.65878634062784
 30
0.0
 10
83.66801046305405
 20
88.27530573844724
 30
0.0
 10
85.36223120729622
 20
89.25346454120212
 30
0.0
 10
86.49614122589095
 20
89.9081277956746
 30
0.0
 10
87.07099029887164
 20
90.24001706270342
 30
0.0
  0
SPLINE
  5
2A1
330
1F
100
AcDbEntity
  8
0
  6
Continuous
 62
     7
370
    25
100
AcDbSpline
210
0.0
220
0.0
230
1.0
 70
    24
 71
     3
 72
    10
 73
     6
 74
     0
 42
0.000000001
 43
0.00000001
 40
0.0
 40
0.0
 40
0.0
 40
0.0
 40
0.3528678512837004
 40
0.671928715960556
 40
1.0
 40
1.0
 40
1.0
 40
1.0
 10
82.03938270288407
 20
110.5750170627034
 30
0.0
 10
81.47859786358902
 20
110.251247784779
 30
0.0
 10
80.41075494271405
 20
109.6347283869596
 30
0.0
 10
78.71653419847189
 20
108.6565695842047
 30
0.0
 10
77.58262417987714
 20
108.0019063297322
 30
0.0
 10
77.00777510689643
 20
107.6700170627034
 30
0.0
  0
SPLINE
  5
2A2
330
1F
100
AcDbEntity
  8
0
  6
Continuous
 62
     7
370
    25
100
AcDbSpline
210
0.0
220
0.0
230
1.0
 70
    24
 71
     3
 72
    11
 73
     7
 74
     0
 42
0.000000001
 43
0.00000001
 40
0.0
 40
0.0
 40
0.0
 40
0.0
 40
0.2495764276467893
 40
0.5043610488117491
 40
0.7510453744754474
 40
1.0
 40
1.0
 40
1.0
 40
1.0
 10
87.07099029887165
 20
107.6700170627034
 30
0.0
 10
86.63346199816634
 20
107.9226241448937
 30
0.0
 10
85.74927499898044
 20
108.4331097468877
 30
0.0
 10
84.46230010212255
 20
109.1761450500289
 30
0.0
 10
83.21788960297332
 20
109.8946057866951
 30
0.0
 10
82.4334161100551
 20
110.3475217690035
 30
0.0
 10
82.03938270288407
 20
110.5750170627034
 30
0.0
  0
SPLINE
  5
2A3
330
1F
100
AcDbEntity
  8
0
  6
Continuous
 62
     7
370
    25
100
AcDbSpline
210
0.0
220
0.0
230
1.0
 70
    24
 71
     3
 72
    11
 73
     7
 74
     0
 42
0.000000001
 43
0.00000001
 40
0.0
 40
0.0
 40
0.0
 40
0.0
 40
0.0581237806725198
 40
0.4052923505119564
 40
0.7646176100441907
 40
0.9999999999999999
 40
0.9999999999999999
 40
0.9999999999999999
 40
0.9999999999999999
 10
77.00777510689643
 20
107.6700170627034
 30
0.0
 10
76.90601748398993
 20
107.6112672717263
 30
0.0
 10
76.19646993403528
 20
107.2016098027571
 30
0.0
 10
74.86187166376804
 20
106.4310791321583
 30
0.0
 10
73.28887062839792
 20
105.5229065609518
 30
0.0
 10
72.34840086200897
 20
104.9799260881624
 30
0.0
 10
71.97616751090885
 20
104.7650170627034
 30
0.0
  0
SPLINE
  5
2A4
330
1F
100
AcDbEntity
  8
0
  6
Continuous
 62
     7
370
    25
100
AcDbSpline
210
0.0
220
0.0
230
1.0
 70
    24
 71
     3
 72
    11
 73
     7
 74
     0
 42
0.000000001
 43
0.00000001
 40
0.0
 40
0.0
 40
0.0
 40
0.0
 40
0.4320436111190995
 40
0.6543464494912002
 40
0.8796494883878742
 40
1.0
 40
1.0
 40
1.0
 40
1.0
 10
71.97616751090885
 20
104.7650170627034
 30
0.0
 10
71.97616751090887
 20
103.9691379724552
 30
0.0
 10
71.97616751090887
 20
102.7637488785644
 30
0.0
 10
71.97616751090887
 20
101.0376122819978
 30
0.0
 10
71.97616751090882
 20
99.89753128122697
 30
0.0
 10
71.97616751090885
 20
99.1984313966574
 30
0.0
 10
71.97616751090885
 20
98.95501706270343
 30
0.0
  0
SPLINE
  5
2A5
330
1F
100
AcDbEntity
  8
0
  6
Continuous
 62
     7
370
    25
100
AcDbSpline
210
0.0
220
0.0
230
1.0
 70
    24
 71
     3
 72
    11
 73
     7
 74
     0
 42
0.000000001
 43
0.00000001
 40
0.0
 40
0.0
 40
0.0
 40
0.0
 40
0.249576427646791
 40
0.50436104881175
 40
0.7510453744754433
 40
1.0
 40
1.0
 40
1.0
 40
1.0
 10
71.97616751090885
 20
98.95501706270343
 30
0.0
 10
71.97616751090885
 20
98.44980289832283
 30
0.0
 10
71.97616751090885
 20
97.42883169433495
 30
0.0
 10
71.97616751090888
 20
95.94276108805254
 30
0.0
 10
71.97616751090882
 20
94.50583961472013
 30
0.0
 10
71.97616751090885
 20
93.60000765010324
 30
0.0
 10
71.97616751090887
 20
93.14501706270342
 30
0.0
  0
SPLINE
  5
2A6
330
1F
100
AcDbEntity
  8
0
  6
Continuous
 62
     7
370
    25
100
AcDbSpline
210
0.0
220
0.0
230
1.0
 70
    24
 71
     3
 72
    11
 73
     7
 74
     0
 42
0.000000001
 43
0.00000001
 40
0.0
 40
0.0
 40
0.0
 40
0.0
 40
0.4320436111191007
 40
0.6543464494912005
 40
0.8796494883878735
 40
1.0
 40
1.0
 40
1.0
 40
1.0
 10
71.97616751090887
 20
93.14501706270342
 30
0.0
 10
72.66541902140463
 20
92.74707751757933
 30
0.0
 10
73.70931659815882
 20
92.1443829706339
 30
0.0
 10
75.2041947411875
 20
91.28131467235059
 30
0.0
 10
76.19153385022703
 20
90.7112741719652
 30
0.0
 10
76.79697211004704
 20
90.3617242296804
 30
0.0
 10
77.00777510689643
 20
90.2400170627034
 30
0.0
  0
CIRCLE
  5
2A7
330
1F
100
AcDbEntity
  8
0
  6
Continuous
 62
     7
370
    25
100
AcDbCircle
 10
146.3393827029
 20
34.6550170627
 30
0.0
 40
7.200000000000019
  0
CIRCLE
  5
2A8
330
1F
100
AcDbEntity
  8
0
  6
Continuous
 62
     7
370
    25
100
AcDbCircle
 10
146.3393827029
 20
34.6550170627
 30
0.0
 40
6.500000000000019
  0
CIRCLE
  5
2A9
330
1F
100
AcDbEntity
  8
0
  6
Continuous
 62
     7
370
    25
100
AcDbCircle
 10
146.3393827029
 20
34.6550170627
 30
0.0
 40
7.499999999999998
  0
CIRCLE
  5
2AA
330
1F
100
AcDbEntity
  8
0
  6
Continuous
 62
     7
370
    25
100
AcDbCircle
 10
146.3393827029
 20
34.6550170627
 30
0.0
 40
6.000000000000023
  0
ARC
  5
2AB
330
1F
100
AcDbEntity
  8
0
  6
Continuous
 62
     7
370
    25
100
AcDbCircle
 10
146.3393827029
 20
34.6550170627
 30
0.0
 40
10.0632151919752
100
AcDbArc
 50
240.0
 51
300.0
  0
ARC
  5
2AC
330
1F
100
AcDbEntity
  8
0
  6
Continuous
 62
     7
370
    25
100
AcDbCircle
 10
146.3393827029
 20
34.6550170627
 30
0.0
 40
10.06321519197522
100
AcDbArc
 50
180.0
 51
240.0
  0
ARC
  5
2AD
330
1F
100
AcDbEntity
  8
0
  6
Continuous
 62
     7
370
    25
100
AcDbCircle
 10
146.3393827029
 20
34.6550170627
 30
0.0
 40
10.06321519197522
100
AcDbArc
 50
120.0
 51
180.0
  0
ARC
  5
2AE
330
1F
100
AcDbEntity
  8
0
  6
Continuous
 62
     7
370
    25
100
AcDbCircle
 10
146.3393827029
 20
34.6550170627
 30
0.0
 40
10.06321519197518
100
AcDbArc
 50
60.0
 51
120.0
  0
ARC
  5
2AF
330
1F
100
AcDbEntity
  8
0
  6
Continuous
 62
     7
370
    25
100
AcDbCircle
 10
146.3393827029
 20
34.6550170627
 30
0.0
 40
10.06321519197518
100
AcDbArc
 50
0.0
 51
60.0
  0
ARC
  5
2B0
330
1F
100
AcDbEntity
  8
0
  6
Continuous
 62
     7
370
    25
100
AcDbCircle
 10
146.3393827029
 20
34.6550170627
 30
0.0
 40
10.0632151919752
100
AcDbArc
 50
300.0
 51
0.0
  0
SPLINE
  5
2B1
330
1F
100
AcDbEntity
  8
0
  6
Continuous
 62
     7
370
    25
100
AcDbSpline
210
0.0
220
0.0
230
1.0
 70
    24
 71
     3
 72
    11
 73
     7
 74
     0
 42
0.000000001
 43
0.00000001
 40
0.0
 40
0.0
 40
0.0
 40
0.0
 40
0.0581237806725198
 40
0.4052923505119564
 40
0.7646176100441907
 40
0.9999999999999999
 40
0.9999999999999999
 40
0.9999999999999999
 40
0.9999999999999999
 10
151.3709902988716
 20
25.94001706270338
 30
0.0
 10
151.4727479217781
 20
25.99876685368055
 30
0.0
 10
152.1822954717328
 20
26.40842432264974
 30
0.0
 10
153.5168937420001
 20
27.17895499324854
 30
0.0
 10
155.0898947773701
 20
28.08712756445499
 30
0.0
 10
156.0303645437591
 20
28.63010803724438
 30
0.0
 10
156.4025978948592
 20
28.8450170627034
 30
0.0
  0
SPLINE
  5
2B2
330
1F
100
AcDbEntity
  8
0
  6
Continuous
 62
     7
370
    25
100
AcDbSpline
210
0.0
220
0.0
230
1.0
 70
    24
 71
     3
 72
    11
 73
     7
 74
     0
 42
0.000000001
 43
0.00000001
 40
0.0
 40
0.0
 40
0.0
 40
0.0
 40
0.4320436111190995
 40
0.6543464494912002
 40
0.8796494883878742
 40
1.0
 40
1.0
 40
1.0
 40
1.0
 10
156.4025978948592
 20
28.8450170627034
 30
0.0
 10
156.4025978948592
 20
29.64089615295158
 30
0.0
 10
156.4025978948592
 20
30.84628524684245
 30
0.0
 10
156.4025978948592
 20
32.57242184340902
 30
0.0
 10
156.4025978948593
 20
33.71250284417984
 30
0.0
 10
156.4025978948592
 20
34.41160272874942
 30
0.0
 10
156.4025978948592
 20
34.65501706270339
 30
0.0
  0
SPLINE
  5
2B3
330
1F
100
AcDbEntity
  8
0
  6
Continuous
 62
     7
370
    25
100
AcDbSpline
210
0.0
220
0.0
230
1.0
 70
    24
 71
     3
 72
    11
 73
     7
 74
     0
 42
0.000000001
 43
0.00000001
 40
0.0
 40
0.0
 40
0.0
 40
0.0
 40
0.249576427646791
 40
0.50436104881175
 40
0.7510453744754433
 40
1.0
 40
1.0
 40
1.0
 40
1.0
 10
156.4025978948592
 20
34.65501706270339
 30
0.0
 10
156.4025978948592
 20
35.16023122708397
 30
0.0
 10
156.4025978948592
 20
36.18120243107186
 30
0.0
 10
156.4025978948592
 20
37.66727303735427
 30
0.0
 10
156.4025978948593
 20
39.10419451068668
 30
0.0
 10
156.4025978948592
 20
40.01002647530358
 30
0.0
 10
156.4025978948592
 20
40.4650170627034
 30
0.0
  0
SPLINE
  5
2B4
330
1F
100
AcDbEntity
  8
0
  6
Continuous
 62
     7
370
    25
100
AcDbSpline
210
0.0
220
0.0
230
1.0
 70
    24
 71
     3
 72
    11
 73
     7
 74
     0
 42
0.000000001
 43
0.00000001
 40
0.0
 40
0.0
 40
0.0
 40
0.0
 40
0.4320436111191007
 40
0.6543464494912005
 40
0.8796494883878735
 40
1.0
 40
1.0
 40
1.0
 40
1.0
 10
156.4025978948592
 20
40.4650170627034
 30
0.0
 10
155.7133463843634
 20
40.86295660782749
 30
0.0
 10
154.6694488076093
 20
41.46565115477291
 30
0.0
 10
153.1745706645806
 20
42.32871945305622
 30
0.0
 10
152.1872315555411
 20
42.89875995344161
 30
0.0
 10
151.581793295721
 20
43.24830989572641
 30
0.0
 10
151.3709902988716
 20
43.3700170627034
 30
0.0
  0
SPLINE
  5
2B5
330
1F
100
AcDbEntity
  8
0
  6
Continuous
 62
     7
370
    25
100
AcDbSpline
210
0.0
220
0.0
230
1.0
 70
    24
 71
     3
 72
    11
 73
     7
 74
     0
 42
0.000000001
 43
0.00000001
 40
0.0
 40
0.0
 40
0.0
 40
0.0
 40
0.2495764276467922
 40
0.5043610488117528
 40
0.7510453744754457
 40
1.0
 40
1.0
 40
1.0
 40
1.0
 10
151.3709902988716
 20
43.3700170627034
 30
0.0
 10
150.9334619981663
 20
43.62262414489368
 30
0.0
 10
150.0492749989804
 20
44.13310974688763
 30
0.0
 10
148.7623001021225
 20
44.87614505002885
 30
0.0
 10
147.5178896029733
 20
45.59460578669506
 30
0.0
 10
146.7334161100551
 20
46.04752176900351
 30
0.0
 10
146.3393827028841
 20
46.27501706270341
 30
0.0
  0
SPLINE
  5
2B6
330
1F
100
AcDbEntity
  8
0
  6
Continuous
 62
     7
370
    25
100
AcDbSpline
210
0.0
220
0.0
230
1.0
 70
    24
 71
     3
 72
    10
 73
     6
 74
     0
 42
0.000000001
 43
0.00000001
 40
0.0
 40
0.0
 40
0.0
 40
0.0
 40
0.3528678512837015
 40
0.6719287159605574
 40
1.0
 40
1.0
 40
1.0
 40
1.0
 10
146.3393827028841
 20
46.27501706270341
 30
0.0
 10
145.778597863589
 20
45.95124778477896
 30
0.0
 10
144.710754942714
 20
45.33472838695957
 30
0.0
 10
143.0165341984719
 20
44.35656958420469
 30
0.0
 10
141.8826241798771
 20
43.70190632973221
 30
0.0
 10
141.3077751068965
 20
43.3700170627034
 30
0.0
  0
SPLINE
  5
2B7
330
1F
100
AcDbEntity
  8
0
  6
Continuous
 62
     7
370
    25
100
AcDbSpline
210
0.0
220
0.0
230
1.0
 70
    24
 71
     3
 72
    10
 73
     6
 74
     0
 42
0.000000001
 43
0.00000001
 40
0.0
 40
0.0
 40
0.0
 40
0.0
 40
0.3528678512837004
 40
0.671928715960556
 40
1.0
 40
1.0
 40
1.0
 40
1.0
 10
146.339382702884
 20
23.03501706270339
 30
0.0
 10
146.900167542179
 20
23.35878634062783
 30
0.0
 10
147.968010463054
 20
23.97530573844721
 30
0.0
 10
149.6622312072962
 20
24.95346454120211
 30
0.0
 10
150.7961412258909
 20
25.60812779567459
 30
0.0
 10
151.3709902988716
 20
25.94001706270338
 30
0.0
  0
SPLINE
  5
2B8
330
1F
100
AcDbEntity
  8
0
  6
Continuous
 62
     7
370
    25
100
AcDbSpline
210
0.0
220
0.0
230
1.0
 70
    24
 71
     3
 72
    11
 73
     7
 74
     0
 42
0.000000001
 43
0.00000001
 40
0.0
 40
0.0
 40
0.0
 40
0.0
 40
0.2495764276467893
 40
0.5043610488117491
 40
0.7510453744754474
 40
1.0
 40
1.0
 40
1.0
 40
1.0
 10
141.3077751068964
 20
25.94001706270339
 30
0.0
 10
141.7453034076017
 20
25.6874099805131
 30
0.0
 10
142.6294904067877
 20
25.17692437851916
 30
0.0
 10
143.9164653036455
 20
24.43388907537794
 30
0.0
 10
145.1608758027948
 20
23.71542833871174
 30
0.0
 10
145.945349295713
 20
23.2625123564033
 30
0.0
 10
146.339382702884
 20
23.03501706270339
 30
0.0
  0
SPLINE
  5
2B9
330
1F
100
AcDbEntity
  8
0
  6
Continuous
 62
     7
370
    25
100
AcDbSpline
210
0.0
220
0.0
230
1.0
 70
    24
 71
     3
 72
    11
 73
     7
 74
     0
 42
0.000000001
 43
0.00000001
 40
0.0
 40
0.0
 40
0.0
 40
0.0
 40
0.432043611119098
 40
0.6543464494911995
 40
0.8796494883878746
 40
0.9999999999999999
 40
0.9999999999999999
 40
0.9999999999999999
 40
0.9999999999999999
 10
136.2761675109088
 20
28.84501706270337
 30
0.0
 10
136.9654190214046
 20
28.44707751757928
 30
0.0
 10
138.0093165981588
 20
27.84438297063387
 30
0.0
 10
139.5041947411875
 20
26.98131467235059
 30
0.0
 10
140.491533850227
 20
26.41127417196514
 30
0.0
 10
141.096972110047
 20
26.06172422968037
 30
0.0
 10
141.3077751068965
 20
25.94001706270339
 30
0.0
  0
SPLINE
  5
2BA
330
1F
100
AcDbEntity
  8
0
  6
Continuous
 62
     7
370
    25
100
AcDbSpline
210
0.0
220
0.0
230
1.0
 70
    24
 71
     3
 72
    11
 73
     7
 74
     0
 42
0.000000001
 43
0.00000001
 40
0.0
 40
0.0
 40
0.0
 40
0.0
 40
0.2495764276467899
 40
0.5043610488117474
 40
0.7510453744754413
 40
1.0
 40
1.0
 40
1.0
 40
1.0
 10
136.2761675109088
 20
34.65501706270339
 30
0.0
 10
136.2761675109088
 20
34.14980289832282
 30
0.0
 10
136.2761675109088
 20
33.12883169433493
 30
0.0
 10
136.2761675109088
 20
31.64276108805252
 30
0.0
 10
136.2761675109089
 20
30.20583961472008
 30
0.0
 10
136.2761675109088
 20
29.3000076501032
 30
0.0
 10
136.2761675109088
 20
28.84501706270337
 30
0.0
  0
SPLINE
  5
2BB
330
1F
100
AcDbEntity
  8
0
  6
Continuous
 62
     7
370
    25
100
AcDbSpline
210
0.0
220
0.0
230
1.0
 70
    24
 71
     3
 72
    11
 73
     7
 74
     0
 42
0.000000001
 43
0.00000001
 40
0.0
 40
0.0
 40
0.0
 40
0.0
 40
0.4320436111190988
 40
0.6543464494911995
 40
0.8796494883878756
 40
1.0
 40
1.0
 40
1.0
 40
1.0
 10
136.2761675109088
 20
40.46501706270339
 30
0.0
 10
136.2761675109088
 20
39.6691379724552
 30
0.0
 10
136.2761675109088
 20
38.46374887856434
 30
0.0
 10
136.2761675109089
 20
36.73761228199778
 30
0.0
 10
136.2761675109088
 20
35.59753128122694
 30
0.0
 10
136.2761675109088
 20
34.89843139665737
 30
0.0
 10
136.2761675109088
 20
34.65501706270339
 30
0.0
  0
SPLINE
  5
2BC
330
1F
100
AcDbEntity
  8
0
  6
Continuous
 62
     7
370
    25
100
AcDbSpline
210
0.0
220
0.0
230
1.0
 70
    24
 71
     3
 72
    11
 73
     7
 74
     0
 42
0.000000001
 43
0.00000001
 40
0.0
 40
0.0
 40
0.0
 40
0.0
 40
0.058123780672522
 40
0.4052923505119566
 40
0.7646176100441899
 40
1.0
 40
1.0
 40
1.0
 40
1.0
 10
141.3077751068965
 20
43.3700170627034
 30
0.0
 10
141.2060174839899
 20
43.31126727172623
 30
0.0
 10
140.4964699340352
 20
42.90160980275709
 30
0.0
 10
139.161871663768
 20
42.13107913215824
 30
0.0
 10
137.588870628398
 20
41.22290656095178
 30
0.0
 10
136.648400862009
 20
40.6799260881624
 30
0.0
 10
136.2761675109088
 20
40.4650170627034
 30
0.0
  0
CIRCLE
  5
2BD
330
1F
100
AcDbEntity
  8
0
  6
Continuous
 62
     7
370
    25
100
AcDbCircle
 10
82.0393827029
 20
34.6550170627
 30
0.0
 40
5.500000000000036
  0
CIRCLE
  5
2BE
330
1F
100
AcDbEntity
  8
0
  6
Continuous
 62
     7
370
    25
100
AcDbCircle
 10
82.0393827029
 20
98.9550170627
 30
0.0
 40
5.5
  0
CIRCLE
  5
2BF
330
1F
100
AcDbEntity
  8
0
  6
Continuous
 62
     7
370
    25
100
AcDbCircle
 10
146.3393827029
 20
34.6550170627
 30
0.0
 40
5.500000000000021
  0
CIRCLE
  5
2C0
330
1F
100
AcDbEntity
  8
0
  6
Continuous
 62
     7
370
    25
100
AcDbCircle
 10
146.3393827029
 20
98.9550170627
 30
0.0
 40
5.500000000000028
  0
LINE
  5
2C1
330
1F
100
AcDbEntity
  8
0
  6
Continuous
 62
     7
370
    25
100
AcDbLine
 10
158.6893827029
 20
21.8050170627
 30
0.0
 11
159.1893827029
 21
22.3050170627
 31
0.0
  0
LINE
  5
2C2
330
1F
100
AcDbEntity
  8
0
  6
Continuous
 62
     7
370
    25
100
AcDbLine
 10
69.6893827029
 20
21.8050170627
 30
0.0
 11
158.6893827029
 21
21.8050170627
 31
0.0
  0
LINE
  5
2C3
330
1F
100
AcDbEntity
  8
0
  6
Continuous
 62
     7
370
    25
100
AcDbLine
 10
69.1893827029
 20
22.3050170627
 30
0.0
 11
69.6893827029
 21
21.8050170627
 31
0.0
  0
LINE
  5
2C4
330
1F
100
AcDbEntity
  8
0
  6
Continuous
 62
     7
370
    25
100
AcDbLine
 10
69.1893827029
 20
22.3050170627
 30
0.0
 11
69.1893827029
 21
111.3050170627
 31
0.0
  0
LINE
  5
2C5
330
1F
100
AcDbEntity
  8
0
  6
Continuous
 62
     7
370
    25
100
AcDbLine
 10
69.6893827029
 20
111.8050170627
 30
0.0
 11
69.1893827029
 21
111.3050170627
 31
0.0
  0
LINE
  5
2C6
330
1F
100
AcDbEntity
  8
0
  6
Continuous
 62
     7
370
    25
100
AcDbLine
 10
69.6893827029
 20
111.8050170627
 30
0.0
 11
158.6893827029
 21
111.8050170627
 31
0.0
  0
CIRCLE
  5
2C7
330
1F
100
AcDbEntity
  8
0
  6
Continuous
 62
     7
370
    25
100
AcDbCircle
 10
114.1893827029
 20
66.8050170627
 30
0.0
 40
31.49999999999999
  0
LINE
  5
2C8
330
1F
100
AcDbEntity
  8
0
  6
Continuous
 62
     7
370
    25
100
AcDbLine
 10
159.1893827029
 20
22.3050170627
 30
0.0
 11
159.1893827029
 21
111.3050170627
 31
0.0
  0
LINE
  5
2C9
330
1F
100
AcDbEntity
  8
0
  6
Continuous
 62
     7
370
    25
100
AcDbLine
 10
159.1893827029
 20
111.3050170627
 30
0.0
 11
158.6893827029
 21
111.8050170627
 31
0.0
  0
DIMENSION
  5
2CA
330
1F
100
AcDbEntity
  8
0
  6
Continuous
 62
     7
370
    18
100
AcDbDimension
  2
_D_5
 10
159.1893827029
 20
-2.5697585326
 30
0.0
 11
114.9632665232
 21
-2.5697585326
 31
0.0
 70
   160
  1
<>
 71
     2
 42
-1.0
  3
SLDDIMSTYLE2
100
AcDbAlignedDimension
 13
69.1893827029
 23
22.3050170627
 33
0.0
 14
159.1893827029
 24
22.3050170627
 34
0.0
 50
0.0
100
AcDbRotatedDimension
  0
DIMENSION
  5
2D4
330
1F
100
AcDbEntity
  8
0
  6
Continuous
 62
     7
370
    18
100
AcDbDimension
  2
_D_6
 10
43.7844107485
 20
111.8050170627
 30
0.0
 11
43.7844107485
 21
67.3588067939
 31
0.0
 70
   160
  1
<>
 71
     2
 42
-1.0
  3
SLDDIMSTYLE2
100
AcDbAlignedDimension
 13
69.6893827029
 23
21.8050170627
 33
0.0
 14
69.6893827029
 24
111.8050170627
 34
0.0
 50
90.0
100
AcDbRotatedDimension
  0
DIMENSION
  5
2DE
330
1F
100
AcDbEntity
  8
0
  6
Continuous
 62
     7
370
    18
100
AcDbDimension
  2
_D_7
 10
55.7844107485
 20
98.9550170627
 30
0.0
 11
55.7844107485
 21
65.9082384107
 31
0.0
 70
   160
  1
<>
 71
     2
 42
-1.0
  3
SLDDIMSTYLE3
100
AcDbAlignedDimension
 13
73.5393827029
 23
34.6550170627
 33
0.0
 14
73.5393827029
 24
98.9550170627
 34
0.0
 50
90.0
100
AcDbRotatedDimension
  0
DIMENSION
  5
2E9
330
1F
100
AcDbEntity
  8
0
  6
Continuous
 62
     7
370
    18
100
AcDbDimension
  2
_D_8
 10
170.5135742004
 20
45.8050170627
 30
0.0
 11
170.5135742004
 21
65.4490262801
 31
0.0
 70
   160
  1
%%c<>
 71
     2
 42
-1.0
  3
SLDDIMSTYLE2
100
AcDbAlignedDimension
 13
114.1893827029
 23
87.8050170627
 33
0.0
 14
114.1893827029
 24
45.8050170627
 34
0.0
 50
90.0
100
AcDbRotatedDimension
  0
DIMENSION
  5
2F4
330
1F
100
AcDbEntity
  8
0
  6
Continuous
 62
     7
370
    18
100
AcDbDimension
  2
_D_9
 10
146.3393827029
 20
9.5500341254
 30
0.0
 11
114.1893827029
 21
9.5500341254
 31
0.0
 70
   160
  1
<>
 71
     2
 42
-1.0
  3
SLDDIMSTYLE0
100
AcDbAlignedDimension
 13
82.0393827029
 23
26.1550170627
 33
0.0
 14
146.3393827029
 24
25.6550170627
 34
0.0
 50
0.0
100
AcDbRotatedDimension
  0
DIMENSION
  5
2FE
330
1F
100
AcDbEntity
  8
0
  6
Continuous
 62
     7
370
    18
100
AcDbDimension
  2
_D_10
 10
109.2711929279
 20
58.6188146869
 30
0.0
 11
148.5876226415
 21
124.06001
 31
0.0
 70
   163
  1
M20x1.5
 71
     1
 42
-1.0
  3
SLDDIMSTYLE4
100
AcDbDiametricDimension
 15
119.1075724778
 25
74.9912194385
 35
0.0
 40
0.0
  0
INSERT
  5
315
330
1F
100
AcDbEntity
  8
0
  6
Continuous
 62
     7
370
     0
100
AcDbBlockReference
  2
SW_CENTERMARKSYMBOL_0
 10
146.3393827029
 20
98.9550170627
 30
0.0
  0
INSERT
  5
321
330
1F
100
AcDbEntity
  8
0
  6
Continuous
 62
     7
370
     0
100
AcDbBlockReference
  2
SW_CENTERMARKSYMBOL_1
 10
114.1893827029
 20
66.8050170627
 30
0.0
  0
INSERT
  5
32D
330
1F
100
AcDbEntity
  8
0
  6
Continuous
 62
     7
370
     0
100
AcDbBlockReference
  2
SW_CENTERMARKSYMBOL_2
 10
82.0393827029
 20
98.9550170627
 30
0.0
  0
INSERT
  5
339
330
1F
100
AcDbEntity
  8
0
  6
Continuous
 62
     7
370
     0
100
AcDbBlockReference
  2
SW_CENTERMARKSYMBOL_3
 10
82.0393827029
 20
34.6550170627
 30
0.0
  0
INSERT
  5
345
330
1F
100
AcDbEntity
  8
0
  6
Continuous
 62
     7
370
     0
100
AcDbBlockReference
  2
SW_CENTERMARKSYMBOL_4
 10
146.3393827029
 20
34.6550170627
 30
0.0
  0
ENDSEC
  0
SECTION
  2
OBJECTS
  0
DICTIONARY
  5
C
330
0
100
AcDbDictionary
281
     1
  3
ACAD_GROUP
350
D
  3
ACAD_LAYOUT
350
1A
  3
ACAD_MLINESTYLE
350
17
  3
ACAD_PLOTSETTINGS
350
19
  3
ACAD_PLOTSTYLENAME
350
E
  3
ACAD_SCALELIST
350
47
  0
DICTIONARY
  5
D
102
{ACAD_REACTORS
330
C
102
}
330
C
100
AcDbDictionary
281
     1
  0
DICTIONARY
  5
1A
102
{ACAD_REACTORS
330
C
102
}
330
C
100
AcDbDictionary
281
     1
  3
Layout1
350
1E
  3
Layout2
350
26
  3
Model
350
22
  0
DICTIONARY
  5
17
102
{ACAD_REACTORS
330
C
102
}
330
C
100
AcDbDictionary
281
     1
  3
Standard
350
18
  0
DICTIONARY
  5
19
102
{ACAD_REACTORS
330
C
102
}
330
C
100
AcDbDictionary
281
     1
  0
ACDBDICTIONARYWDFLT
  5
E
102
{ACAD_REACTORS
330
C
102
}
330
C
100
AcDbDictionary
281
     1
  3
Normal
350
F
100
AcDbDictionaryWithDefault
340
F
  0
DICTIONARY
  5
47
102
{ACAD_REACTORS
330
C
102
}
330
C
100
AcDbDictionary
281
     1
  3
A0
350
48
  3
A1
350
49
  3
A2
350
4A
  3
A3
350
4B
  3
A4
350
4C
  3
A5
350
4D
  3
A6
350
4E
  3
A7
350
4F
  3
A8
350
50
  3
A9
350
51
  3
B0
350
52
  3
B1
350
53
  3
B2
350
54
  3
B3
350
55
  3
B4
350
56
  3
B5
350
57
  3
B6
350
58
  3
B7
350
59
  3
B8
350
5A
  3
B9
350
5B
  3
C0
350
5C
  3
C1
350
5D
  3
C2
350
5E
  3
C3
350
5F
  3
C4
350
60
  3
C5
350
61
  3
C6
350
62
  3
C7
350
63
  3
C8
350
64
  3
C9
350
65
  3
D0
350
66
  3
D1
350
67
  3
D2
350
68
  0
LAYOUT
  5
1E
102
{ACAD_REACTORS
330
1A
102
}
330
1A
100
AcDbPlotSettings
  1

  2
none_device
  4

  6

 40
0.0
 41
0.0
 42
0.0
 43
0.0
 44
0.0
 45
0.0
 46
0.0
 47
0.0
 48
0.0
 49
0.0
140
0.0
141
0.0
142
1.0
143
1.0
 70
   688
 72
     1
 73
     0
 74
     5
  7

 75
    16
147
1.0
148
0.0
149
0.0
100
AcDbLayout
  1
Layout1
 70
     1
 71
     1
 10
0.0
 20
0.0
 11
420.0
 21
297.0
 12
0.0
 22
0.0
 32
0.0
 14
1.0000000000E+20
 24
1.0000000000E+20
 34
1.0000000000E+20
 15
-1.0000000000E+20
 25
-1.0000000000E+20
 35
-1.0000000000E+20
146
0.0
 13
0.0
 23
0.0
 33
0.0
 16
1.0
 26
0.0
 36
0.0
 17
0.0
 27
1.0
 37
0.0
 76
     0
330
1B
  0
LAYOUT
  5
26
102
{ACAD_REACTORS
330
1A
102
}
330
1A
100
AcDbPlotSettings
  1

  2
none_device
  4

  6

 40
0.0
 41
0.0
 42
0.0
 43
0.0
 44
0.0
 45
0.0
 46
0.0
 47
0.0
 48
0.0
 49
0.0
140
0.0
141
0.0
142
1.0
143
1.0
 70
   688
 72
     1
 73
     0
 74
     5
  7

 75
    16
147
1.0
148
0.0
149
0.0
100
AcDbLayout
  1
Layout2
 70
     1
 71
     2
 10
0.0
 20
0.0
 11
0.0
 21
0.0
 12
0.0
 22
0.0
 32
0.0
 14
0.0
 24
0.0
 34
0.0
 15
0.0
 25
0.0
 35
0.0
146
0.0
 13
0.0
 23
0.0
 33
0.0
 16
1.0
 26
0.0
 36
0.0
 17
0.0
 27
1.0
 37
0.0
 76
     0
330
23
  0
LAYOUT
  5
22
102
{ACAD_REACTORS
330
1A
102
}
330
1A
100
AcDbPlotSettings
  1

  2
none_device
  4
Letter_(8.50_x_11.00_Inches)
  6

 40
6.35
 41
6.35
 42
6.35000508
 43
6.35000508
 44
215.9
 45
279.4
 46
0.0
 47
0.0
 48
0.0
 49
0.0
140
0.0
141
0.0
142
1.0
143
1.0
 70
  1712
 72
     1
 73
     0
 74
     0
  7

 75
     0
147
1.0
148
0.0
149
0.0
100
AcDbLayout
  1
Model
 70
     1
 71
     0
 10
0.0
 20
0.0
 11
420.0
 21
297.0
 12
0.0
 22
0.0
 32
0.0
 14
0.0
 24
0.0
 34
0.0
 15
420.0
 25
297.0
 35
0.0
146
0.0
 13
0.0
 23
0.0
 33
0.0
 16
1.0
 26
0.0
 36
0.0
 17
0.0
 27
1.0
 37
0.0
 76
     0
330
1F
331
29
  0
MLINESTYLE
  5
18
102
{ACAD_REACTORS
330
17
102
}
330
17
100
AcDbMlineStyle
  2
Standard
 70
     0
  3

 62
   256
 51
90.0
 52
90.0
 71
     2
 49
0.5
 62
   256
  6
BYLAYER
 49
-0.5
 62
   256
  6
BYLAYER
  0
ACDBPLACEHOLDER
  5
F
102
{ACAD_REACTORS
330
E
102
}
330
E
  0
SCALE
  5
48
102
{ACAD_REACTORS
330
47
102
}
330
47
100
AcDbScale
 70
     0
300
1:1
140
1.0
141
1.0
290
     1
  0
SCALE
  5
49
102
{ACAD_REACTORS
330
47
102
}
330
47
100
AcDbScale
 70
     0
300
1:2
140
1.0
141
2.0
290
     0
  0
SCALE
  5
4A
102
{ACAD_REACTORS
330
47
102
}
330
47
100
AcDbScale
 70
     0
300
1:4
140
1.0
141
4.0
290
     0
  0
SCALE
  5
4B
102
{ACAD_REACTORS
330
47
102
}
330
47
100
AcDbScale
 70
     0
300
1:5
140
1.0
141
5.0
290
     0
  0
SCALE
  5
4C
102
{ACAD_REACTORS
330
47
102
}
330
47
100
AcDbScale
 70
     0
300
1:8
140
1.0
141
8.0
290
     0
  0
SCALE
  5
4D
102
{ACAD_REACTORS
330
47
102
}
330
47
100
AcDbScale
 70
     0
300
1:10
140
1.0
141
10.0
290
     0
  0
SCALE
  5
4E
102
{ACAD_REACTORS
330
47
102
}
330
47
100
AcDbScale
 70
     0
300
1:16
140
1.0
141
16.0
290
     0
  0
SCALE
  5
4F
102
{ACAD_REACTORS
330
47
102
}
330
47
100
AcDbScale
 70
     0
300
1:20
140
1.0
141
20.0
290
     0
  0
SCALE
  5
50
102
{ACAD_REACTORS
330
47
102
}
330
47
100
AcDbScale
 70
     0
300
1:30
140
1.0
141
30.0
290
     0
  0
SCALE
  5
51
102
{ACAD_REACTORS
330
47
102
}
330
47
100
AcDbScale
 70
     0
300
1:40
140
1.0
141
40.0
290
     0
  0
SCALE
  5
52
102
{ACAD_REACTORS
330
47
102
}
330
47
100
AcDbScale
 70
     0
300
1:50
140
1.0
141
50.0
290
     0
  0
SCALE
  5
53
102
{ACAD_REACTORS
330
47
102
}
330
47
100
AcDbScale
 70
     0
300
1:100
140
1.0
141
100.0
290
     0
  0
SCALE
  5
54
102
{ACAD_REACTORS
330
47
102
}
330
47
100
AcDbScale
 70
     0
300
2:1
140
2.0
141
1.0
290
     0
  0
SCALE
  5
55
102
{ACAD_REACTORS
330
47
102
}
330
47
100
AcDbScale
 70
     0
300
4:1
140
4.0
141
1.0
290
     0
  0
SCALE
  5
56
102
{ACAD_REACTORS
330
47
102
}
330
47
100
AcDbScale
 70
     0
300
8:1
140
8.0
141
1.0
290
     0
  0
SCALE
  5
57
102
{ACAD_REACTORS
330
47
102
}
330
47
100
AcDbScale
 70
     0
300
10:1
140
10.0
141
1.0
290
     0
  0
SCALE
  5
58
102
{ACAD_REACTORS
330
47
102
}
330
47
100
AcDbScale
 70
     0
300
100:1
140
100.0
141
1.0
290
     0
  0
SCALE
  5
59
102
{ACAD_REACTORS
330
47
102
}
330
47
100
AcDbScale
 70
     0
300
1/128" = 1'-0"
140
0.0078125
141
12.0
290
     0
  0
SCALE
  5
5A
102
{ACAD_REACTORS
330
47
102
}
330
47
100
AcDbScale
 70
     0
300
1/64" = 1'-0"
140
0.015625
141
12.0
290
     0
  0
SCALE
  5
5B
102
{ACAD_REACTORS
330
47
102
}
330
47
100
AcDbScale
 70
     0
300
1/32" = 1'-0"
140
0.03125
141
12.0
290
     0
  0
SCALE
  5
5C
102
{ACAD_REACTORS
330
47
102
}
330
47
100
AcDbScale
 70
     0
300
1/16" = 1'-0"
140
0.0625
141
12.0
290
     0
  0
SCALE
  5
5D
102
{ACAD_REACTORS
330
47
102
}
330
47
100
AcDbScale
 70
     0
300
3/32" = 1'-0"
140
0.09375
141
12.0
290
     0
  0
SCALE
  5
5E
102
{ACAD_REACTORS
330
47
102
}
330
47
100
AcDbScale
 70
     0
300
1/8" = 1'-0"
140
0.125
141
12.0
290
     0
  0
SCALE
  5
5F
102
{ACAD_REACTORS
330
47
102
}
330
47
100
AcDbScale
 70
     0
300
3/16" = 1'-0"
140
0.1875
141
12.0
290
     0
  0
SCALE
  5
60
102
{ACAD_REACTORS
330
47
102
}
330
47
100
AcDbScale
 70
     0
300
1/4" = 1'-0"
140
0.25
141
12.0
290
     0
  0
SCALE
  5
61
102
{ACAD_REACTORS
330
47
102
}
330
47
100
AcDbScale
 70
     0
300
3/8" = 1'-0"
140
0.375
141
12.0
290
     0
  0
SCALE
  5
62
102
{ACAD_REACTORS
330
47
102
}
330
47
100
AcDbScale
 70
     0
300
1/2" = 1'-0"
140
0.5
141
12.0
290
     0
  0
SCALE
  5
63
102
{ACAD_REACTORS
330
47
102
}
330
47
100
AcDbScale
 70
     0
300
3/4" = 1'-0"
140
0.75
141
12.0
290
     0
  0
SCALE
  5
64
102
{ACAD_REACTORS
330
47
102
}
330
47
100
AcDbScale
 70
     0
300
1" = 1'-0"
140
1.0
141
12.0
290
     0
  0
SCALE
  5
65
102
{ACAD_REACTORS
330
47
102
}
330
47
100
AcDbScale
 70
     0
300
1-1/2" = 1'-0"
140
1.5
141
12.0
290
     0
  0
SCALE
  5
66
102
{ACAD_REACTORS
330
47
102
}
330
47
100
AcDbScale
 70
     0
300
3" = 1'-0"
140
3.0
141
12.0
290
     0
  0
SCALE
  5
67
102
{ACAD_REACTORS
330
47
102
}
330
47
100
AcDbScale
 70
     0
300
6" = 1'-0"
140
6.0
141
12.0
290
     0
  0
SCALE
  5
68
102
{ACAD_REACTORS
330
47
102
}
330
47
100
AcDbScale
 70
     0
300
1'-0" = 1'-0"
140
12.0
141
12.0
290
     0
  0
ENDSEC
  0
EOF
