  0
SECTION
  2
HEADER
  9
$ACADVER
  1
AC1015
  9
$ACADMAINTVER
 70
     6
  9
$DWGCODEPAGE
  3
ANSI_1250
  9
$INSBASE
 10
0.0
 20
0.0
 30
0.0
  9
$EXTMIN
 10
0.0
 20
0.0
 30
0.0
  9
$EXTMAX
 10
420.0
 20
297.0
 30
0.0
  9
$LIMMIN
 10
0.0
 20
0.0
  9
$LIMMAX
 10
420.0
 20
297.0
  9
$ORTHOMODE
 70
     0
  9
$REGENMODE
 70
     1
  9
$FILLMODE
 70
     1
  9
$QTEXTMODE
 70
     0
  9
$MIRRTEXT
 70
     1
  9
$LTSCALE
 40
1.0
  9
$ATTMODE
 70
     1
  9
$TEXTSIZE
 40
3.5
  9
$TRACEWID
 40
1.0
  9
$TEXTSTYLE
  7
Standard
  9
$CLAYER
  8
0
  9
$CELTYPE
  6
ByLayer
  9
$CECOLOR
 62
   256
  9
$CELTSCALE
 40
1.0
  9
$DISPSILH
 70
     0
  9
$DIMSCALE
 40
1.0
  9
$DIMASZ
 40
3.302
  9
$DIMEXO
 40
1.0
  9
$DIMDLI
 40
3.75
  9
$DIMRND
 40
0.0
  9
$DIMDLE
 40
0.0
  9
$DIMEXE
 40
1.0
  9
$DIMTP
 40
0.0
  9
$DIMTM
 40
0.0
  9
$DIMTXT
 40
3.5
  9
$DIMCEN
 40
2.5
  9
$DIMTSZ
 40
0.0
  9
$DIMTOL
 70
     0
  9
$DIMLIM
 70
     0
  9
$DIMTIH
 70
     1
  9
$DIMTOH
 70
     1
  9
$DIMSE1
 70
     0
  9
$DIMSE2
 70
     0
  9
$DIMTAD
 70
     1
  9
$DIMZIN
 70
     1
  9
$DIMBLK
  1

  9
$DIMASO
 70
     1
  9
$DIMSHO
 70
     1
  9
$DIMPOST
  1

  9
$DIMAPOST
  1

  9
$DIMALT
 70
     0
  9
$DIMALTD
 70
     3
  9
$DIMALTF
 40
0.0393700787
  9
$DIMLFAC
 40
1.0
  9
$DIMTOFL
 70
     1
  9
$DIMTVP
 40
0.0
  9
$DIMTIX
 70
     0
  9
$DIMSOXD
 70
     0
  9
$DIMSAH
 70
     0
  9
$DIMBLK1
  1

  9
$DIMBLK2
  1

  9
$DIMSTYLE
  2
ISO-25
  9
$DIMCLRD
 70
     0
  9
$DIMCLRE
 70
     0
  9
$DIMCLRT
 70
     0
  9
$DIMTFAC
 40
1.0
  9
$DIMGAP
 40
1.524
  9
$DIMJUST
 70
     0
  9
$DIMSD1
 70
     0
  9
$DIMSD2
 70
     0
  9
$DIMTOLJ
 70
     0
  9
$DIMTZIN
 70
     1
  9
$DIMALTZ
 70
     0
  9
$DIMALTTZ
 70
     0
  9
$DIMUPT
 70
     0
  9
$DIMDEC
 70
     2
  9
$DIMTDEC
 70
     2
  9
$DIMALTU
 70
     2
  9
$DIMALTTD
 70
     3
  9
$DIMTXSTY
  7
Standard
  9
$DIMAUNIT
 70
     0
  9
$DIMADEC
 70
     2
  9
$DIMALTRND
 40
0.0
  9
$DIMAZIN
 70
     0
  9
$DIMDSEP
 70
    44
  9
$DIMATFIT
 70
     3
  9
$DIMFRAC
 70
     0
  9
$DIMLDRBLK
  1

  9
$DIMLUNIT
 70
     2
  9
$DIMLWD
 70
    -2
  9
$DIMLWE
 70
    -2
  9
$DIMTMOVE
 70
     0
  9
$LUNITS
 70
     2
  9
$LUPREC
 70
     2
  9
$SKETCHINC
 40
1.0
  9
$FILLETRAD
 40
10.0
  9
$AUNITS
 70
     0
  9
$AUPREC
 70
     2
  9
$MENU
  1
.
  9
$ELEVATION
 40
0.0
  9
$PELEVATION
 40
0.0
  9
$THICKNESS
 40
0.0
  9
$LIMCHECK
 70
     0
  9
$CHAMFERA
 40
0.0
  9
$CHAMFERB
 40
0.0
  9
$CHAMFERC
 40
0.0
  9
$CHAMFERD
 40
0.0
  9
$SKPOLY
 70
     0
  9
$TDCREATE
 40
2460236.701561701
  9
$TDUCREATE
 40
2460236.618228368
  9
$TDUPDATE
 40
2460236.701564595
  9
$TDUUPDATE
 40
2460236.618231262
  9
$TDINDWG
 40
0.0000000116
  9
$TDUSRTIMER
 40
0.0000000116
  9
$USRTIMER
 70
     1
  9
$ANGBASE
 50
0.0
  9
$ANGDIR
 70
     0
  9
$PDMODE
 70
     0
  9
$PDSIZE
 40
-1.0
  9
$PLINEWID
 40
0.0
  9
$SPLFRAME
 70
     0
  9
$SPLINETYPE
 70
     6
  9
$SPLINESEGS
 70
     8
  9
$HANDSEED
  5
42E
  9
$SURFTAB1
 70
     6
  9
$SURFTAB2
 70
     6
  9
$SURFTYPE
 70
     6
  9
$SURFU
 70
     6
  9
$SURFV
 70
     6
  9
$UCSBASE
  2

  9
$UCSNAME
  2

  9
$UCSORG
 10
0.0
 20
0.0
 30
0.0
  9
$UCSXDIR
 10
1.0
 20
0.0
 30
0.0
  9
$UCSYDIR
 10
0.0
 20
1.0
 30
0.0
  9
$UCSORTHOREF
  2

  9
$UCSORTHOVIEW
 70
     0
  9
$UCSORGTOP
 10
0.0
 20
0.0
 30
0.0
  9
$UCSORGBOTTOM
 10
0.0
 20
0.0
 30
0.0
  9
$UCSORGLEFT
 10
0.0
 20
0.0
 30
0.0
  9
$UCSORGRIGHT
 10
0.0
 20
0.0
 30
0.0
  9
$UCSORGFRONT
 10
0.0
 20
0.0
 30
0.0
  9
$UCSORGBACK
 10
0.0
 20
0.0
 30
0.0
  9
$PUCSBASE
  2

  9
$PUCSNAME
  2

  9
$PUCSORG
 10
0.0
 20
0.0
 30
0.0
  9
$PUCSXDIR
 10
1.0
 20
0.0
 30
0.0
  9
$PUCSYDIR
 10
0.0
 20
1.0
 30
0.0
  9
$PUCSORTHOREF
  2

  9
$PUCSORTHOVIEW
 70
     0
  9
$PUCSORGTOP
 10
0.0
 20
0.0
 30
0.0
  9
$PUCSORGBOTTOM
 10
0.0
 20
0.0
 30
0.0
  9
$PUCSORGLEFT
 10
0.0
 20
0.0
 30
0.0
  9
$PUCSORGRIGHT
 10
0.0
 20
0.0
 30
0.0
  9
$PUCSORGFRONT
 10
0.0
 20
0.0
 30
0.0
  9
$PUCSORGBACK
 10
0.0
 20
0.0
 30
0.0
  9
$USERI1
 70
     0
  9
$USERI2
 70
     0
  9
$USERI3
 70
     0
  9
$USERI4
 70
     0
  9
$USERI5
 70
     0
  9
$USERR1
 40
0.0
  9
$USERR2
 40
0.0
  9
$USERR3
 40
0.0
  9
$USERR4
 40
0.0
  9
$USERR5
 40
0.0
  9
$WORLDVIEW
 70
     1
  9
$SHADEDGE
 70
     3
  9
$SHADEDIF
 70
    70
  9
$TILEMODE
 70
     1
  9
$MAXACTVP
 70
    64
  9
$PINSBASE
 10
0.0
 20
0.0
 30
0.0
  9
$PLIMCHECK
 70
     0
  9
$PEXTMIN
 10
1.0000000000E+20
 20
1.0000000000E+20
 30
1.0000000000E+20
  9
$PEXTMAX
 10
-1.0000000000E+20
 20
-1.0000000000E+20
 30
-1.0000000000E+20
  9
$PLIMMIN
 10
0.0
 20
0.0
  9
$PLIMMAX
 10
420.0
 20
297.0
  9
$UNITMODE
 70
     0
  9
$VISRETAIN
 70
     1
  9
$PLINEGEN
 70
     0
  9
$PSLTSCALE
 70
     1
  9
$TREEDEPTH
 70
  3020
  9
$CMLSTYLE
  2
Standard
  9
$CMLJUST
 70
     0
  9
$CMLSCALE
 40
20.0
  9
$PROXYGRAPHICS
 70
     1
  9
$MEASUREMENT
 70
     1
  9
$CELWEIGHT
370
    -1
  9
$ENDCAPS
280
     0
  9
$JOINSTYLE
280
     0
  9
$LWDISPLAY
290
     1
  9
$INSUNITS
 70
     4
  9
$HYPERLINKBASE
  1

  9
$STYLESHEET
  1

  9
$XEDIT
290
     1
  9
$CEPSNTYPE
380
     0
  9
$PSTYLEMODE
290
     1
  9
$FINGERPRINTGUID
  2
{0677f954-25c7-4d33-8432-859485ced654}
  9
$VERSIONGUID
  2
{FAEB1C32-E019-11D5-929B-00C0DF256EC4}
  9
$EXTNAMES
290
     1
  9
$PSVPSCALE
 40
0.0
  9
$OLESTARTUP
290
     0
  0
ENDSEC
  0
SECTION
  2
CLASSES
  0
CLASS
  1
ACDBDICTIONARYWDFLT
  2
AcDbDictionaryWithDefault
  3
ObjectDBX Classes
 90
        0
280
     0
281
     0
  0
CLASS
  1
VISUALSTYLE
  2
AcDbVisualStyle
  3
ObjectDBX Classes
 90
     4095
280
     0
281
     0
  0
CLASS
  1
MATERIAL
  2
AcDbMaterial
  3
ObjectDBX Classes
 90
     1153
280
     0
281
     0
  0
CLASS
  1
SCALE
  2
AcDbScale
  3
ObjectDBX Classes
 90
     1153
280
     0
281
     0
  0
CLASS
  1
TABLESTYLE
  2
AcDbTableStyle
  3
ObjectDBX Classes
 90
     4095
280
     0
281
     0
  0
CLASS
  1
MLEADERSTYLE
  2
AcDbMLeaderStyle
  3
ACDB_MLEADERSTYLE_CLASS
 90
     4095
280
     0
281
     0
  0
CLASS
  1
SUN
  2
AcDbSun
  3
SCENEOE
 90
     1153
280
     0
281
     0
  0
CLASS
  1
ACDBPLACEHOLDER
  2
AcDbPlaceHolder
  3
ObjectDBX Classes
 90
        0
280
     0
281
     0
  0
CLASS
  1
LAYOUT
  2
AcDbLayout
  3
ObjectDBX Classes
 90
        0
280
     0
281
     0
  0
ENDSEC
  0
SECTION
  2
TABLES
  0
TABLE
  2
VPORT
  5
8
330
0
100
AcDbSymbolTable
 70
     1
  0
VPORT
  5
29
330
8
100
AcDbSymbolTableRecord
100
AcDbViewportTableRecord
  2
*Active
 70
     0
 10
0.0
 20
0.0
 11
1.0
 21
1.0
 12
210.0
 22
148.5
 13
0.0
 23
0.0
 14
10.0
 24
10.0
 15
10.0
 25
10.0
 16
0.0
 26
0.0
 36
1.0
 17
0.0
 27
0.0
 37
0.0
 40
297.0
 41
1.4141414141
 42
50.0
 43
0.0
 44
0.0
 50
0.0
 51
0.0
 71
     0
 72
  2000
 73
     1
 74
     3
 75
     0
 76
     0
 77
     0
 78
     0
281
     0
 65
     1
110
0.0
120
0.0
130
0.0
111
1.0
121
0.0
131
0.0
112
0.0
122
1.0
132
0.0
 79
     0
146
0.0
  0
ENDTAB
  0
TABLE
  2
LTYPE
  5
5
330
0
100
AcDbSymbolTable
 70
     6
  0
LTYPE
  5
14
330
5
100
AcDbSymbolTableRecord
100
AcDbLinetypeTableRecord
  2
ByBlock
 70
     0
  3

 72
    65
 73
     0
 40
0.0
  0
LTYPE
  5
15
330
5
100
AcDbSymbolTableRecord
100
AcDbLinetypeTableRecord
  2
ByLayer
 70
     0
  3

 72
    65
 73
     0
 40
0.0
  0
LTYPE
  5
16
330
5
100
AcDbSymbolTableRecord
100
AcDbLinetypeTableRecord
  2
Continuous
 70
     0
  3
Solid line
 72
    65
 73
     0
 40
0.0
  0
LTYPE
  5
6E
330
5
100
AcDbSymbolTableRecord
100
AcDbLinetypeTableRecord
  2
HIDDEN
 70
     0
  3
Hidden __ __ __ __ __ __ __ __ __ __ __ __ __ __
 72
    65
 73
     2
 40
1.905
 49
1.27
 74
     0
 49
-0.635
 74
     0
  0
LTYPE
  5
6F
330
5
100
AcDbSymbolTableRecord
100
AcDbLinetypeTableRecord
  2
PHANTOM
 70
     0
  3
Phantom ______  __  __  ______  __  __  ______
 72
    65
 73
     6
 40
12.7
 49
6.35
 74
     0
 49
-1.27
 74
     0
 49
1.27
 74
     0
 49
-1.27
 74
     0
 49
1.27
 74
     0
 49
-1.27
 74
     0
  0
LTYPE
  5
70
330
5
100
AcDbSymbolTableRecord
100
AcDbLinetypeTableRecord
  2
CENTER
 70
     0
  3
Center ____ _ ____ _ ____ _ ____ _ ____ _ ____
 72
    65
 73
     4
 40
10.16
 49
6.35
 74
     0
 49
-1.27
 74
     0
 49
1.27
 74
     0
 49
-1.27
 74
     0
  0
LTYPE
  5
71
330
5
100
AcDbSymbolTableRecord
100
AcDbLinetypeTableRecord
  2
CENTERX2
 70
     0
  3
Center (2x) ________  __  ________  __  _____
 72
    65
 73
     4
 40
20.32
 49
12.7
 74
     0
 49
-2.54
 74
     0
 49
2.54
 74
     0
 49
-2.54
 74
     0
  0
LTYPE
  5
72
330
5
100
AcDbSymbolTableRecord
100
AcDbLinetypeTableRecord
  2
DOT2
 70
     0
  3
Dot (.5x) ........................................
 72
    65
 73
     2
 40
0.635
 49
0.0
 74
     0
 49
-0.635
 74
     0
  0
ENDTAB
  0
TABLE
  2
LAYER
  5
2
330
0
100
AcDbSymbolTable
 70
     2
  0
LAYER
  5
10
330
2
100
AcDbSymbolTableRecord
100
AcDbLayerTableRecord
  2
0
 70
     0
 62
     7
  6
Continuous
370
    -3
390
F
  0
LAYER
  5
73
330
2
100
AcDbSymbolTableRecord
100
AcDbLayerTableRecord
  2
FORMAT
 70
     0
 62
     7
  6
Continuous
370
    -3
390
F
  0
ENDTAB
  0
TABLE
  2
STYLE
  5
3
330
0
100
AcDbSymbolTable
 70
     4
  0
STYLE
  5
11
330
3
100
AcDbSymbolTableRecord
100
AcDbTextStyleTableRecord
  2
Standard
 70
     0
 40
0.0
 41
1.0
 50
0.0
 71
     0
 42
3.5
  3
txt
  4

  0
STYLE
  5
B1
330
3
100
AcDbSymbolTableRecord
100
AcDbTextStyleTableRecord
  2
SLDTEXTSTYLE0
 70
     0
 40
0.0
 41
0.75
 50
0.0
 71
     0
 42
3.5
  3
TXT
  4

  0
STYLE
  5
D1
330
3
100
AcDbSymbolTableRecord
100
AcDbTextStyleTableRecord
  2
SLDTEXTSTYLE1
 70
     0
 40
0.0
 41
0.6875
 50
0.0
 71
     0
 42
3.5
  3
TXT
  4
bigfont
  0
STYLE
  5
D3
330
3
100
AcDbSymbolTableRecord
100
AcDbTextStyleTableRecord
  2
SLDTEXTSTYLE2
 70
     0
 40
0.0
 41
0.75
 50
0.0
 71
     0
 42
3.5
  3
TXT
  4
bigfont
  0
ENDTAB
  0
TABLE
  2
VIEW
  5
6
330
0
100
AcDbSymbolTable
 70
     0
  0
ENDTAB
  0
TABLE
  2
UCS
  5
7
330
0
100
AcDbSymbolTable
 70
     0
  0
ENDTAB
  0
TABLE
  2
APPID
  5
9
330
0
100
AcDbSymbolTable
 70
     1
  0
APPID
  5
12
330
9
100
AcDbSymbolTableRecord
100
AcDbRegAppTableRecord
  2
ACAD
 70
     0
  0
ENDTAB
  0
TABLE
  2
DIMSTYLE
  5
A
330
0
100
AcDbSymbolTable
 70
     9
100
AcDbDimStyleTable
  0
DIMSTYLE
105
27
330
A
100
AcDbSymbolTableRecord
100
AcDbDimStyleTableRecord
  2
ISO-25
 70
     0
 41
2.5
 42
0.625
 43
3.75
 44
1.25
 73
     0
 74
     0
 77
     1
 78
     8
140
2.5
141
2.5
143
0.0393700787
147
0.625
171
     3
172
     1
178
     0
271
     2
272
     2
274
     3
278
    44
283
     0
284
     8
340
11
  0
DIMSTYLE
105
294
102
{ACAD_REACTORS
330
293
330
2FF
102
}
330
A
100
AcDbSymbolTableRecord
100
AcDbDimStyleTableRecord
  2
SLDDIMSTYLE0
 70
     0
 41
3.302
 44
0.0
 45
0.000000001
 73
     0
 74
     0
 77
     1
 78
    12
 79
     3
140
3.5
147
0.875
172
     1
173
     1
178
     0
271
     0
272
     2
276
     2
284
    12
289
     0
340
B1
  0
DIMSTYLE
105
2A1
102
{ACAD_REACTORS
330
2A0
330
2D2
330
2F5
330
30B
330
384
330
38E
330
398
330
3BA
330
3C4
102
}
330
A
100
AcDbSymbolTableRecord
100
AcDbDimStyleTableRecord
  2
SLDDIMSTYLE1
 70
     0
 41
3.302
 44
0.0
 45
0.000000001
 73
     0
 74
     0
 77
     1
 78
    12
 79
     3
140
3.5
147
0.875
173
     1
178
     0
271
     0
272
     0
276
     2
284
    12
340
B1
  0
DIMSTYLE
105
2AC
102
{ACAD_REACTORS
330
2AB
330
2B9
102
}
330
A
100
AcDbSymbolTableRecord
100
AcDbDimStyleTableRecord
  2
SLDDIMSTYLE2
 70
     0
 41
3.302
 44
0.0
 45
0.000000001
 73
     0
 74
     0
 77
     1
 78
    12
 79
     3
140
3.5
147
0.875
172
     1
173
     1
178
     0
271
     0
272
     0
276
     2
284
    12
289
     0
340
B1
  0
DIMSTYLE
105
2C6
102
{ACAD_REACTORS
330
2C5
330
2E9
102
}
330
A
100
AcDbSymbolTableRecord
100
AcDbDimStyleTableRecord
  2
SLDDIMSTYLE3
 70
     0
 41
3.302
 44
0.0
 45
0.000000001
 73
     0
 74
     0
 77
     1
 78
    12
 79
     3
140
3.5
147
0.875
172
     1
173
     1
178
     0
271
     1
272
     2
276
     2
284
    12
289
     0
340
B1
  0
DIMSTYLE
105
2DF
102
{ACAD_REACTORS
330
2DE
102
}
330
A
100
AcDbSymbolTableRecord
100
AcDbDimStyleTableRecord
  2
SLDDIMSTYLE4
 70
     0
 41
3.302
 44
0.0
 45
0.000000001
 73
     0
 74
     0
 77
     1
 78
    12
 79
     3
140
3.5
147
0.875
173
     1
178
     0
271
     0
272
     2
276
     2
284
    12
340
B1
  0
DIMSTYLE
105
3A3
102
{ACAD_REACTORS
330
3A2
102
}
330
A
100
AcDbSymbolTableRecord
100
AcDbDimStyleTableRecord
  2
SLDDIMSTYLE5
 70
     0
 41
3.302
 44
0.0
 45
0.000000001
 73
     0
 74
     0
 77
     1
 78
    12
 79
     3
140
3.5
147
0.875
173
     1
178
     0
271
     1
272
     1
276
     2
284
    12
340
B1
  0
DIMSTYLE
105
3B0
102
{ACAD_REACTORS
330
3AF
330
3CE
102
}
330
A
100
AcDbSymbolTableRecord
100
AcDbDimStyleTableRecord
  2
SLDDIMSTYLE6
 70
     0
 41
3.302
 44
0.0
 45
0.000000001
 73
     0
 74
     0
 77
     1
 78
    12
 79
     3
140
3.5
147
0.875
173
     1
178
     0
271
     2
272
     2
276
     2
284
    12
340
B1
  0
DIMSTYLE
105
3D9
102
{ACAD_REACTORS
330
3D8
102
}
330
A
100
AcDbSymbolTableRecord
100
AcDbDimStyleTableRecord
  2
SLDDIMSTYLE7
 70
     0
  3
<>
 41
3.302
 44
0.0
 45
0.000000001
 73
     0
 74
     0
 77
     1
 78
    12
 79
     3
140
3.5
141
0.0
147
0.875
172
     1
173
     1
178
     0
271
     2
272
     2
276
     2
284
    12
340
B1
341
3DA
343
3DA
  0
ENDTAB
  0
TABLE
  2
BLOCK_RECORD
  5
1
330
0
100
AcDbSymbolTable
 70
    32
  0
BLOCK_RECORD
  5
1F
330
1
100
AcDbSymbolTableRecord
100
AcDbBlockTableRecord
  2
*Model_Space
340
22
  0
BLOCK_RECORD
  5
1B
330
1
100
AcDbSymbolTableRecord
100
AcDbBlockTableRecord
  2
*Paper_Space
340
1E
  0
BLOCK_RECORD
  5
23
330
1
100
AcDbSymbolTableRecord
100
AcDbBlockTableRecord
  2
*Paper_Space0
340
26
  0
BLOCK_RECORD
  5
DD
330
1
100
AcDbSymbolTableRecord
100
AcDbBlockTableRecord
  2
SW_NOTE_0
340
0
102
{BLKREFS
331
E2
102
}
  0
BLOCK_RECORD
  5
E4
330
1
100
AcDbSymbolTableRecord
100
AcDbBlockTableRecord
  2
SW_NOTE_0_1
340
0
102
{BLKREFS
331
ED
102
}
  0
BLOCK_RECORD
  5
295
330
1
100
AcDbSymbolTableRecord
100
AcDbBlockTableRecord
  2
_D
340
0
  0
BLOCK_RECORD
  5
2A2
330
1
100
AcDbSymbolTableRecord
100
AcDbBlockTableRecord
  2
_D_1
340
0
  0
BLOCK_RECORD
  5
2AD
330
1
100
AcDbSymbolTableRecord
100
AcDbBlockTableRecord
  2
_D_2
340
0
  0
BLOCK_RECORD
  5
2BA
330
1
100
AcDbSymbolTableRecord
100
AcDbBlockTableRecord
  2
_D_3
340
0
  0
BLOCK_RECORD
  5
2C7
330
1
100
AcDbSymbolTableRecord
100
AcDbBlockTableRecord
  2
_D_4
340
0
  0
BLOCK_RECORD
  5
2D3
330
1
100
AcDbSymbolTableRecord
100
AcDbBlockTableRecord
  2
_D_5
340
0
  0
BLOCK_RECORD
  5
2E0
330
1
100
AcDbSymbolTableRecord
100
AcDbBlockTableRecord
  2
_D_6
340
0
  0
BLOCK_RECORD
  5
2EA
330
1
100
AcDbSymbolTableRecord
100
AcDbBlockTableRecord
  2
_D_7
340
0
  0
BLOCK_RECORD
  5
2F6
330
1
100
AcDbSymbolTableRecord
100
AcDbBlockTableRecord
  2
_D_8
340
0
  0
BLOCK_RECORD
  5
300
330
1
100
AcDbSymbolTableRecord
100
AcDbBlockTableRecord
  2
_D_9
340
0
  0
BLOCK_RECORD
  5
30C
330
1
100
AcDbSymbolTableRecord
100
AcDbBlockTableRecord
  2
_D_10
340
0
  0
BLOCK_RECORD
  5
317
330
1
100
AcDbSymbolTableRecord
100
AcDbBlockTableRecord
  2
SW_CENTERMARKSYMBOL_0
340
0
102
{BLKREFS
331
322
102
}
  0
BLOCK_RECORD
  5
323
330
1
100
AcDbSymbolTableRecord
100
AcDbBlockTableRecord
  2
SW_CENTERMARKSYMBOL_1
340
0
102
{BLKREFS
331
32E
102
}
  0
BLOCK_RECORD
  5
385
330
1
100
AcDbSymbolTableRecord
100
AcDbBlockTableRecord
  2
_D_11
340
0
  0
BLOCK_RECORD
  5
38F
330
1
100
AcDbSymbolTableRecord
100
AcDbBlockTableRecord
  2
_D_12
340
0
  0
BLOCK_RECORD
  5
399
330
1
100
AcDbSymbolTableRecord
100
AcDbBlockTableRecord
  2
_D_13
340
0
  0
BLOCK_RECORD
  5
3A4
330
1
100
AcDbSymbolTableRecord
100
AcDbBlockTableRecord
  2
_D_14
340
0
  0
BLOCK_RECORD
  5
3B1
330
1
100
AcDbSymbolTableRecord
100
AcDbBlockTableRecord
  2
_D_15
340
0
  0
BLOCK_RECORD
  5
3BB
330
1
100
AcDbSymbolTableRecord
100
AcDbBlockTableRecord
  2
_D_16
340
0
  0
BLOCK_RECORD
  5
3C5
330
1
100
AcDbSymbolTableRecord
100
AcDbBlockTableRecord
  2
_D_17
340
0
  0
BLOCK_RECORD
  5
3CF
330
1
100
AcDbSymbolTableRecord
100
AcDbBlockTableRecord
  2
_D_18
340
0
  0
BLOCK_RECORD
  5
3DA
330
1
100
AcDbSymbolTableRecord
100
AcDbBlockTableRecord
  2
_None
340
0
  0
BLOCK_RECORD
  5
3DD
330
1
100
AcDbSymbolTableRecord
100
AcDbBlockTableRecord
  2
_D_19
340
0
  0
BLOCK_RECORD
  5
3E4
330
1
100
AcDbSymbolTableRecord
100
AcDbBlockTableRecord
  2
SW_CENTERMARKSYMBOL_2
340
0
102
{BLKREFS
331
3EF
102
}
  0
BLOCK_RECORD
  5
3F0
330
1
100
AcDbSymbolTableRecord
100
AcDbBlockTableRecord
  2
SW_CENTERMARKSYMBOL_3
340
0
102
{BLKREFS
331
3FB
102
}
  0
BLOCK_RECORD
  5
3FC
330
1
100
AcDbSymbolTableRecord
100
AcDbBlockTableRecord
  2
SW_CENTERMARKSYMBOL_4
340
0
102
{BLKREFS
331
407
102
}
  0
BLOCK_RECORD
  5
408
330
1
100
AcDbSymbolTableRecord
100
AcDbBlockTableRecord
  2
SW_CENTERMARKSYMBOL_5
340
0
102
{BLKREFS
331
413
102
}
  0
BLOCK_RECORD
  5
414
330
1
100
AcDbSymbolTableRecord
100
AcDbBlockTableRecord
  2
SW_CENTERMARKSYMBOL_6
340
0
102
{BLKREFS
331
41F
102
}
  0
BLOCK_RECORD
  5
420
330
1
100
AcDbSymbolTableRecord
100
AcDbBlockTableRecord
  2
SW_CENTERMARKSYMBOL_7
340
0
102
{BLKREFS
331
42B
102
}
  0
ENDTAB
  0
ENDSEC
  0
SECTION
  2
BLOCKS
  0
BLOCK
  5
20
330
1F
100
AcDbEntity
  8
0
100
AcDbBlockBegin
  2
*Model_Space
 70
     0
 10
0.0
 20
0.0
 30
0.0
  3
*Model_Space
  1

  0
ENDBLK
  5
21
330
1F
100
AcDbEntity
  8
0
100
AcDbBlockEnd
  0
BLOCK
  5
1C
330
1B
100
AcDbEntity
 67
     1
  8
0
100
AcDbBlockBegin
  2
*Paper_Space
 70
     0
 10
0.0
 20
0.0
 30
0.0
  3
*Paper_Space
  1

  0
ENDBLK
  5
1D
330
1B
100
AcDbEntity
 67
     1
  8
0
100
AcDbBlockEnd
  0
BLOCK
  5
24
330
23
100
AcDbEntity
  8
0
100
AcDbBlockBegin
  2
*Paper_Space0
 70
     0
 10
0.0
 20
0.0
 30
0.0
  3
*Paper_Space0
  1

  0
ENDBLK
  5
25
330
23
100
AcDbEntity
  8
0
100
AcDbBlockEnd
  0
BLOCK
  5
DE
330
DD
100
AcDbEntity
  8
0
100
AcDbBlockBegin
  2
SW_NOTE_0
 70
     0
 10
0.0
 20
0.0
 30
0.0
  3
SW_NOTE_0
  1

  0
MTEXT
  5
E0
330
DD
100
AcDbEntity
  8
0
  6
Continuous
 62
     0
370
     0
100
AcDbMText
 10
0.0
 20
1.9336016097
 30
0.0
 40
1.5
 41
0.0
 71
     1
 72
     1
  1
ODSTRANIT
  7
SLDTEXTSTYLE0
 73
     1
 44
1.0
  0
MTEXT
  5
E1
330
DD
100
AcDbEntity
  8
0
  6
Continuous
 62
     0
370
     0
100
AcDbMText
 10
0.0
 20
-0.5663983345
 30
0.0
 40
1.5
 41
0.0
 71
     1
 72
     1
  1
OSTRÉ HRANY
  7
SLDTEXTSTYLE0
 73
     1
 44
1.0
  0
ENDBLK
  5
DF
330
DD
100
AcDbEntity
  8
0
100
AcDbBlockEnd
  0
BLOCK
  5
E5
330
E4
100
AcDbEntity
  8
0
100
AcDbBlockBegin
  2
SW_NOTE_0_1
 70
     0
 10
0.0
 20
0.0
 30
0.0
  3
SW_NOTE_0_1
  1

  0
MTEXT
  5
E7
330
E4
100
AcDbEntity
  8
0
  6
Continuous
 62
     0
370
     0
100
AcDbMText
 10
0.0
 20
1.9336016097
 30
0.0
 40
1.5
 41
0.0
 71
     1
 72
     1
  1
POKUD NENÍ UVEDENO JINAK:
  7
SLDTEXTSTYLE0
 73
     1
 44
1.0
  0
MTEXT
  5
E8
330
E4
100
AcDbEntity
  8
0
  6
Continuous
 62
     0
370
     0
100
AcDbMText
 10
0.0
 20
-0.5663983345
 30
0.0
 40
1.5
 41
0.0
 71
     1
 72
     1
  1
JEDNOTKY JSOU V MILIMETRECH
  7
SLDTEXTSTYLE0
 73
     1
 44
1.0
  0
MTEXT
  5
E9
330
E4
100
AcDbEntity
  8
0
  6
Continuous
 62
     0
370
     0
100
AcDbMText
 10
0.0
 20
-3.0663982786
 30
0.0
 40
1.5
 41
0.0
 71
     1
 72
     1
  1
DRSNOST:
  7
SLDTEXTSTYLE0
 73
     1
 44
1.0
  0
MTEXT
  5
EA
330
E4
100
AcDbEntity
  8
0
  6
Continuous
 62
     0
370
     0
100
AcDbMText
 10
0.0
 20
-5.5663982227
 30
0.0
 40
1.5
 41
0.0
 71
     1
 72
     1
  1
TOLERANCE:
  7
SLDTEXTSTYLE0
 73
     1
 44
1.0
  0
MTEXT
  5
EB
330
E4
100
AcDbEntity
  8
0
  6
Continuous
 62
     0
370
     0
100
AcDbMText
 10
1.6875
 20
-8.0663981668
 30
0.0
 40
1.5
 41
0.0
 71
     1
 72
     1
  1
LINEÁRNÍ:
  7
SLDTEXTSTYLE0
 73
     1
 44
1.0
  0
MTEXT
  5
EC
330
E4
100
AcDbEntity
  8
0
  6
Continuous
 62
     0
370
     0
100
AcDbMText
 10
1.6875
 20
-10.5663981109
 30
0.0
 40
1.5
 41
0.0
 71
     1
 72
     1
  1
ÚHLOVÁ:
  7
SLDTEXTSTYLE0
 73
     1
 44
1.0
  0
ENDBLK
  5
E6
330
E4
100
AcDbEntity
  8
0
100
AcDbBlockEnd
  0
BLOCK
  5
296
330
295
100
AcDbEntity
  8
0
100
AcDbBlockBegin
  2
_D
 70
     0
 10
0.0
 20
0.0
 30
0.0
  3
_D
  1

  0
SOLID
  5
298
330
295
100
AcDbEntity
  8
0
  6
Continuous
 62
     7
370
    18
100
AcDbTrace
 10
55.94
 20
169.06
 30
0.0
 11
52.638
 21
169.568
 31
0.0
 12
52.638
 22
168.552
 32
0.0
 13
52.638
 23
168.552
 33
0.0
  0
SOLID
  5
299
330
295
100
AcDbEntity
  8
0
  6
Continuous
 62
     7
370
    18
100
AcDbTrace
 10
71.94
 20
169.06
 30
0.0
 11
75.242
 21
168.552
 31
0.0
 12
75.242
 22
169.568
 32
0.0
 13
75.242
 23
169.568
 33
0.0
  0
LINE
  5
29A
330
295
100
AcDbEntity
  8
0
  6
Continuous
 62
     7
370
     0
100
AcDbLine
 10
55.94
 20
182.21
 30
0.0
 11
55.94
 21
168.06
 31
0.0
  0
LINE
  5
29B
330
295
100
AcDbEntity
  8
0
  6
Continuous
 62
     7
370
     0
100
AcDbLine
 10
71.94
 20
178.06
 30
0.0
 11
71.94
 21
168.06
 31
0.0
  0
LINE
  5
29C
330
295
100
AcDbEntity
  8
0
  6
Continuous
 62
     7
370
     0
100
AcDbLine
 10
55.94
 20
169.06
 30
0.0
 11
49.59
 21
169.06
 31
0.0
  0
LINE
  5
29D
330
295
100
AcDbEntity
  8
0
  6
Continuous
 62
     7
370
     0
100
AcDbLine
 10
55.94
 20
169.06
 30
0.0
 11
71.94
 21
169.06
 31
0.0
  0
LINE
  5
29E
330
295
100
AcDbEntity
  8
0
  6
Continuous
 62
     7
370
     0
100
AcDbLine
 10
71.94
 20
169.06
 30
0.0
 11
78.29
 21
169.06
 31
0.0
  0
MTEXT
  5
29F
330
295
100
AcDbEntity
  8
0
  6
Continuous
 62
     7
370
    18
100
AcDbMText
 10
61.3538888065
 20
173.5717369146
 30
0.0
 40
3.5
 41
0.0
 71
     1
 72
     1
  1
16
  7
SLDTEXTSTYLE0
 73
     1
 44
1.0
  0
ENDBLK
  5
297
330
295
100
AcDbEntity
  8
0
100
AcDbBlockEnd
  0
BLOCK
  5
2A3
330
2A2
100
AcDbEntity
  8
0
100
AcDbBlockBegin
  2
_D_1
 70
     0
 10
0.0
 20
0.0
 30
0.0
  3
_D_1
  1

  0
SOLID
  5
2A5
330
2A2
100
AcDbEntity
  8
0
  6
Continuous
 62
     7
370
    18
100
AcDbTrace
 10
71.94
 20
151.06
 30
0.0
 11
75.242
 21
150.552
 31
0.0
 12
75.242
 22
151.568
 32
0.0
 13
75.242
 23
151.568
 33
0.0
  0
SOLID
  5
2A6
330
2A2
100
AcDbEntity
  8
0
  6
Continuous
 62
     7
370
    18
100
AcDbTrace
 10
224.94
 20
151.06
 30
0.0
 11
221.638
 21
151.568
 31
0.0
 12
221.638
 22
150.552
 32
0.0
 13
221.638
 23
150.552
 33
0.0
  0
LINE
  5
2A7
330
2A2
100
AcDbEntity
  8
0
  6
Continuous
 62
     7
370
     0
100
AcDbLine
 10
71.94
 20
178.06
 30
0.0
 11
71.94
 21
150.06
 31
0.0
  0
LINE
  5
2A8
330
2A2
100
AcDbEntity
  8
0
  6
Continuous
 62
     7
370
     0
100
AcDbLine
 10
224.94
 20
199.06
 30
0.0
 11
224.94
 21
150.06
 31
0.0
  0
LINE
  5
2A9
330
2A2
100
AcDbEntity
  8
0
  6
Continuous
 62
     7
370
     0
100
AcDbLine
 10
71.94
 20
151.06
 30
0.0
 11
224.94
 21
151.06
 31
0.0
  0
MTEXT
  5
2AA
330
2A2
100
AcDbEntity
  8
0
  6
Continuous
 62
     7
370
    18
100
AcDbMText
 10
144.5608333261
 20
155.5717369146
 30
0.0
 40
3.5
 41
0.0
 71
     1
 72
     1
  1
153
  7
SLDTEXTSTYLE0
 73
     1
 44
1.0
  0
ENDBLK
  5
2A4
330
2A2
100
AcDbEntity
  8
0
100
AcDbBlockEnd
  0
BLOCK
  5
2AE
330
2AD
100
AcDbEntity
  8
0
100
AcDbBlockBegin
  2
_D_2
 70
     0
 10
0.0
 20
0.0
 30
0.0
  3
_D_2
  1

  0
SOLID
  5
2B0
330
2AD
100
AcDbEntity
  8
0
  6
Continuous
 62
     7
370
    18
100
AcDbTrace
 10
224.94
 20
270.06
 30
0.0
 11
228.242
 21
269.552
 31
0.0
 12
228.242
 22
270.568
 32
0.0
 13
228.242
 23
270.568
 33
0.0
  0
SOLID
  5
2B1
330
2AD
100
AcDbEntity
  8
0
  6
Continuous
 62
     7
370
    18
100
AcDbTrace
 10
214.94
 20
270.06
 30
0.0
 11
211.638
 21
270.568
 31
0.0
 12
211.638
 22
269.552
 32
0.0
 13
211.638
 23
269.552
 33
0.0
  0
LINE
  5
2B2
330
2AD
100
AcDbEntity
  8
0
  6
Continuous
 62
     7
370
     0
100
AcDbLine
 10
224.94
 20
233.06
 30
0.0
 11
224.94
 21
233.298
 31
0.0
  0
LINE
  5
2B3
330
2AD
100
AcDbEntity
  8
0
  6
Continuous
 62
     7
370
     0
100
AcDbLine
 10
224.94
 20
234.822
 30
0.0
 11
224.94
 21
271.06
 31
0.0
  0
LINE
  5
2B4
330
2AD
100
AcDbEntity
  8
0
  6
Continuous
 62
     7
370
     0
100
AcDbLine
 10
214.94
 20
255.06
 30
0.0
 11
214.94
 21
271.06
 31
0.0
  0
LINE
  5
2B5
330
2AD
100
AcDbEntity
  8
0
  6
Continuous
 62
     7
370
     0
100
AcDbLine
 10
224.94
 20
270.06
 30
0.0
 11
231.29
 21
270.06
 31
0.0
  0
LINE
  5
2B6
330
2AD
100
AcDbEntity
  8
0
  6
Continuous
 62
     7
370
     0
100
AcDbLine
 10
224.94
 20
270.06
 30
0.0
 11
214.94
 21
270.06
 31
0.0
  0
LINE
  5
2B7
330
2AD
100
AcDbEntity
  8
0
  6
Continuous
 62
     7
370
     0
100
AcDbLine
 10
214.94
 20
270.06
 30
0.0
 11
208.59
 21
270.06
 31
0.0
  0
MTEXT
  5
2B8
330
2AD
100
AcDbEntity
  8
0
  6
Continuous
 62
     7
370
    18
100
AcDbMText
 10
217.3538888065
 20
274.5717369146
 30
0.0
 40
3.5
 41
0.0
 71
     1
 72
     1
  1
10
  7
SLDTEXTSTYLE0
 73
     1
 44
1.0
  0
ENDBLK
  5
2AF
330
2AD
100
AcDbEntity
  8
0
100
AcDbBlockEnd
  0
BLOCK
  5
2BB
330
2BA
100
AcDbEntity
  8
0
100
AcDbBlockBegin
  2
_D_3
 70
     0
 10
0.0
 20
0.0
 30
0.0
  3
_D_3
  1

  0
SOLID
  5
2BD
330
2BA
100
AcDbEntity
  8
0
  6
Continuous
 62
     7
370
    18
100
AcDbTrace
 10
170.94
 20
169.06
 30
0.0
 11
167.638
 21
169.568
 31
0.0
 12
167.638
 22
168.552
 32
0.0
 13
167.638
 23
168.552
 33
0.0
  0
SOLID
  5
2BE
330
2BA
100
AcDbEntity
  8
0
  6
Continuous
 62
     7
370
    18
100
AcDbTrace
 10
182.94
 20
169.06
 30
0.0
 11
186.242
 21
168.552
 31
0.0
 12
186.242
 22
169.568
 32
0.0
 13
186.242
 23
169.568
 33
0.0
  0
LINE
  5
2BF
330
2BA
100
AcDbEntity
  8
0
  6
Continuous
 62
     7
370
     0
100
AcDbLine
 10
170.94
 20
178.06
 30
0.0
 11
170.94
 21
168.06
 31
0.0
  0
LINE
  5
2C0
330
2BA
100
AcDbEntity
  8
0
  6
Continuous
 62
     7
370
     0
100
AcDbLine
 10
182.94
 20
178.06
 30
0.0
 11
182.94
 21
168.06
 31
0.0
  0
LINE
  5
2C1
330
2BA
100
AcDbEntity
  8
0
  6
Continuous
 62
     7
370
     0
100
AcDbLine
 10
170.94
 20
169.06
 30
0.0
 11
164.59
 21
169.06
 31
0.0
  0
LINE
  5
2C2
330
2BA
100
AcDbEntity
  8
0
  6
Continuous
 62
     7
370
     0
100
AcDbLine
 10
170.94
 20
169.06
 30
0.0
 11
182.94
 21
169.06
 31
0.0
  0
LINE
  5
2C3
330
2BA
100
AcDbEntity
  8
0
  6
Continuous
 62
     7
370
     0
100
AcDbLine
 10
182.94
 20
169.06
 30
0.0
 11
189.29
 21
169.06
 31
0.0
  0
MTEXT
  5
2C4
330
2BA
100
AcDbEntity
  8
0
  6
Continuous
 62
     7
370
    18
100
AcDbMText
 10
174.3538888065
 20
173.5717369146
 30
0.0
 40
3.5
 41
0.0
 71
     1
 72
     1
  1
12
  7
SLDTEXTSTYLE0
 73
     1
 44
1.0
  0
ENDBLK
  5
2BC
330
2BA
100
AcDbEntity
  8
0
100
AcDbBlockEnd
  0
BLOCK
  5
2C8
330
2C7
100
AcDbEntity
  8
0
100
AcDbBlockBegin
  2
_D_4
 70
     0
 10
0.0
 20
0.0
 30
0.0
  3
_D_4
  1

  0
SOLID
  5
2CA
330
2C7
100
AcDbEntity
  8
0
  6
Continuous
 62
     7
370
    18
100
AcDbTrace
 10
270.94
 20
179.06
 30
0.0
 11
270.432
 21
175.758
 31
0.0
 12
271.448
 22
175.758
 32
0.0
 13
271.448
 23
175.758
 33
0.0
  0
SOLID
  5
2CB
330
2C7
100
AcDbEntity
  8
0
  6
Continuous
 62
     7
370
    18
100
AcDbTrace
 10
270.94
 20
184.56
 30
0.0
 11
271.448
 21
187.862
 31
0.0
 12
270.432
 22
187.862
 32
0.0
 13
270.432
 23
187.862
 33
0.0
  0
LINE
  5
2CC
330
2C7
100
AcDbEntity
  8
0
  6
Continuous
 62
     7
370
     0
100
AcDbLine
 10
171.94
 20
179.06
 30
0.0
 11
271.94
 21
179.06
 31
0.0
  0
LINE
  5
2CD
330
2C7
100
AcDbEntity
  8
0
  6
Continuous
 62
     7
370
     0
100
AcDbLine
 10
183.94
 20
184.56
 30
0.0
 11
271.94
 21
184.56
 31
0.0
  0
LINE
  5
2CE
330
2C7
100
AcDbEntity
  8
0
  6
Continuous
 62
     7
370
     0
100
AcDbLine
 10
270.94
 20
179.06
 30
0.0
 11
270.94
 21
164.9516666523
 31
0.0
  0
LINE
  5
2CF
330
2C7
100
AcDbEntity
  8
0
  6
Continuous
 62
     7
370
     0
100
AcDbLine
 10
270.94
 20
179.06
 30
0.0
 11
270.94
 21
184.56
 31
0.0
  0
LINE
  5
2D0
330
2C7
100
AcDbEntity
  8
0
  6
Continuous
 62
     7
370
     0
100
AcDbLine
 10
270.94
 20
184.56
 30
0.0
 11
270.94
 21
190.91
 31
0.0
  0
MTEXT
  5
2D1
330
2C7
100
AcDbEntity
  8
0
  6
Continuous
 62
     7
370
    18
100
AcDbMText
 10
266.4282630854
 20
164.9516666523
 30
0.0
 40
3.5
 41
0.0
 71
     1
 72
     1
  1
5,5
  7
SLDTEXTSTYLE0
 11
6.123233995736766E-17
 21
1.0
 31
0.0
 73
     1
 44
1.0
  0
ENDBLK
  5
2C9
330
2C7
100
AcDbEntity
  8
0
100
AcDbBlockEnd
  0
BLOCK
  5
2D4
330
2D3
100
AcDbEntity
  8
0
100
AcDbBlockBegin
  2
_D_5
 70
     0
 10
0.0
 20
0.0
 30
0.0
  3
_D_5
  1

  0
SOLID
  5
2D6
330
2D3
100
AcDbEntity
  8
0
  6
Continuous
 62
     7
370
    18
100
AcDbTrace
 10
270.94
 20
198.06
 30
0.0
 11
271.448
 21
201.362
 31
0.0
 12
270.432
 22
201.362
 32
0.0
 13
270.432
 23
201.362
 33
0.0
  0
SOLID
  5
2D7
330
2D3
100
AcDbEntity
  8
0
  6
Continuous
 62
     7
370
    18
100
AcDbTrace
 10
270.94
 20
234.06
 30
0.0
 11
270.432
 21
230.758
 31
0.0
 12
271.448
 22
230.758
 32
0.0
 13
271.448
 23
230.758
 33
0.0
  0
LINE
  5
2D8
330
2D3
100
AcDbEntity
  8
0
  6
Continuous
 62
     7
370
     0
100
AcDbLine
 10
214.44
 20
198.06
 30
0.0
 11
224.178
 21
198.06
 31
0.0
  0
LINE
  5
2D9
330
2D3
100
AcDbEntity
  8
0
  6
Continuous
 62
     7
370
     0
100
AcDbLine
 10
225.702
 20
198.06
 30
0.0
 11
271.94
 21
198.06
 31
0.0
  0
LINE
  5
2DA
330
2D3
100
AcDbEntity
  8
0
  6
Continuous
 62
     7
370
     0
100
AcDbLine
 10
214.44
 20
234.06
 30
0.0
 11
271.94
 21
234.06
 31
0.0
  0
LINE
  5
2DB
330
2D3
100
AcDbEntity
  8
0
  6
Continuous
 62
     7
370
     0
100
AcDbLine
 10
270.94
 20
198.06
 30
0.0
 11
270.94
 21
234.06
 31
0.0
  0
MTEXT
  5
2DC
330
2D3
100
AcDbEntity
  8
0
  6
Continuous
 62
     7
370
    18
100
AcDbMText
 10
266.4282629108
 20
210.8346698745
 30
0.0
 40
3.5
 41
0.0
 71
     1
 72
     1
  1
%%c
  7
SLDTEXTSTYLE0
 11
6.123233995736766E-17
 21
1.0
 31
0.0
 73
     1
 44
1.0
  0
MTEXT
  5
2DD
330
2D3
100
AcDbEntity
  8
0
  6
Continuous
 62
     7
370
    18
100
AcDbMText
 10
266.3747907341
 20
216.1131072728
 30
0.0
 40
3.5
 41
0.0
 71
     1
 72
     1
  1
36
  7
SLDTEXTSTYLE0
 11
6.123233995736766E-17
 21
1.0
 31
0.0
 73
     1
 44
1.0
  0
ENDBLK
  5
2D5
330
2D3
100
AcDbEntity
  8
0
100
AcDbBlockEnd
  0
BLOCK
  5
2E1
330
2E0
100
AcDbEntity
  8
0
100
AcDbBlockBegin
  2
_D_6
 70
     0
 10
0.0
 20
0.0
 30
0.0
  3
_D_6
  1

  0
SOLID
  5
2E3
330
2E0
100
AcDbEntity
  8
0
  6
Continuous
 62
     7
370
    18
100
AcDbTrace
 10
204.94
 20
169.06
 30
0.0
 11
201.638
 21
169.568
 31
0.0
 12
201.638
 22
168.552
 32
0.0
 13
201.638
 23
168.552
 33
0.0
  0
SOLID
  5
2E4
330
2E0
100
AcDbEntity
  8
0
  6
Continuous
 62
     7
370
    18
100
AcDbTrace
 10
182.94
 20
169.06
 30
0.0
 11
186.242
 21
168.552
 31
0.0
 12
186.242
 22
169.568
 32
0.0
 13
186.242
 23
169.568
 33
0.0
  0
LINE
  5
2E5
330
2E0
100
AcDbEntity
  8
0
  6
Continuous
 62
     7
370
     0
100
AcDbLine
 10
204.94
 20
194.06
 30
0.0
 11
204.94
 21
168.06
 31
0.0
  0
LINE
  5
2E6
330
2E0
100
AcDbEntity
  8
0
  6
Continuous
 62
     7
370
     0
100
AcDbLine
 10
182.94
 20
178.06
 30
0.0
 11
182.94
 21
168.06
 31
0.0
  0
LINE
  5
2E7
330
2E0
100
AcDbEntity
  8
0
  6
Continuous
 62
     7
370
     0
100
AcDbLine
 10
204.94
 20
169.06
 30
0.0
 11
182.94
 21
169.06
 31
0.0
  0
MTEXT
  5
2E8
330
2E0
100
AcDbEntity
  8
0
  6
Continuous
 62
     7
370
    18
100
AcDbMText
 10
191.3538888065
 20
173.5717369146
 30
0.0
 40
3.5
 41
0.0
 71
     1
 72
     1
  1
22
  7
SLDTEXTSTYLE0
 73
     1
 44
1.0
  0
ENDBLK
  5
2E2
330
2E0
100
AcDbEntity
  8
0
100
AcDbBlockEnd
  0
BLOCK
  5
2EB
330
2EA
100
AcDbEntity
  8
0
100
AcDbBlockBegin
  2
_D_7
 70
     0
 10
0.0
 20
0.0
 30
0.0
  3
_D_7
  1

  0
SOLID
  5
2ED
330
2EA
100
AcDbEntity
  8
0
  6
Continuous
 62
     7
370
    18
100
AcDbTrace
 10
204.94
 20
169.06
 30
0.0
 11
201.638
 21
169.568
 31
0.0
 12
201.638
 22
168.552
 32
0.0
 13
201.638
 23
168.552
 33
0.0
  0
SOLID
  5
2EE
330
2EA
100
AcDbEntity
  8
0
  6
Continuous
 62
     7
370
    18
100
AcDbTrace
 10
224.94
 20
169.06
 30
0.0
 11
228.242
 21
168.552
 31
0.0
 12
228.242
 22
169.568
 32
0.0
 13
228.242
 23
169.568
 33
0.0
  0
LINE
  5
2EF
330
2EA
100
AcDbEntity
  8
0
  6
Continuous
 62
     7
370
     0
100
AcDbLine
 10
204.94
 20
194.06
 30
0.0
 11
204.94
 21
168.06
 31
0.0
  0
LINE
  5
2F0
330
2EA
100
AcDbEntity
  8
0
  6
Continuous
 62
     7
370
     0
100
AcDbLine
 10
224.94
 20
199.06
 30
0.0
 11
224.94
 21
168.06
 31
0.0
  0
LINE
  5
2F1
330
2EA
100
AcDbEntity
  8
0
  6
Continuous
 62
     7
370
     0
100
AcDbLine
 10
204.94
 20
169.06
 30
0.0
 11
198.59
 21
169.06
 31
0.0
  0
LINE
  5
2F2
330
2EA
100
AcDbEntity
  8
0
  6
Continuous
 62
     7
370
     0
100
AcDbLine
 10
204.94
 20
169.06
 30
0.0
 11
224.94
 21
169.06
 31
0.0
  0
LINE
  5
2F3
330
2EA
100
AcDbEntity
  8
0
  6
Continuous
 62
     7
370
     0
100
AcDbLine
 10
224.94
 20
169.06
 30
0.0
 11
231.29
 21
169.06
 31
0.0
  0
MTEXT
  5
2F4
330
2EA
100
AcDbEntity
  8
0
  6
Continuous
 62
     7
370
    18
100
AcDbMText
 10
210.4143054695
 20
173.5717369146
 30
0.0
 40
3.5
 41
0.0
 71
     1
 72
     1
  1
20,0
  7
SLDTEXTSTYLE0
 73
     1
 44
1.0
  0
ENDBLK
  5
2EC
330
2EA
100
AcDbEntity
  8
0
100
AcDbBlockEnd
  0
BLOCK
  5
2F7
330
2F6
100
AcDbEntity
  8
0
100
AcDbBlockBegin
  2
_D_8
 70
     0
 10
0.0
 20
0.0
 30
0.0
  3
_D_8
  1

  0
SOLID
  5
2F9
330
2F6
100
AcDbEntity
  8
0
  6
Continuous
 62
     7
370
    18
100
AcDbTrace
 10
164.94
 20
157.06
 30
0.0
 11
168.242
 21
156.552
 31
0.0
 12
168.242
 22
157.568
 32
0.0
 13
168.242
 23
157.568
 33
0.0
  0
SOLID
  5
2FA
330
2F6
100
AcDbEntity
  8
0
  6
Continuous
 62
     7
370
    18
100
AcDbTrace
 10
204.94
 20
157.06
 30
0.0
 11
201.638
 21
157.568
 31
0.0
 12
201.638
 22
156.552
 32
0.0
 13
201.638
 23
156.552
 33
0.0
  0
LINE
  5
2FB
330
2F6
100
AcDbEntity
  8
0
  6
Continuous
 62
     7
370
     0
100
AcDbLine
 10
164.94
 20
194.06
 30
0.0
 11
164.94
 21
156.06
 31
0.0
  0
LINE
  5
2FC
330
2F6
100
AcDbEntity
  8
0
  6
Continuous
 62
     7
370
     0
100
AcDbLine
 10
204.94
 20
194.06
 30
0.0
 11
204.94
 21
156.06
 31
0.0
  0
LINE
  5
2FD
330
2F6
100
AcDbEntity
  8
0
  6
Continuous
 62
     7
370
     0
100
AcDbLine
 10
164.94
 20
157.06
 30
0.0
 11
204.94
 21
157.06
 31
0.0
  0
MTEXT
  5
2FE
330
2F6
100
AcDbEntity
  8
0
  6
Continuous
 62
     7
370
    18
100
AcDbMText
 10
182.3538888065
 20
161.5717369146
 30
0.0
 40
3.5
 41
0.0
 71
     1
 72
     1
  1
40
  7
SLDTEXTSTYLE0
 73
     1
 44
1.0
  0
ENDBLK
  5
2F8
330
2F6
100
AcDbEntity
  8
0
100
AcDbBlockEnd
  0
BLOCK
  5
301
330
300
100
AcDbEntity
  8
0
100
AcDbBlockBegin
  2
_D_9
 70
     0
 10
0.0
 20
0.0
 30
0.0
  3
_D_9
  1

  0
SOLID
  5
303
330
300
100
AcDbEntity
  8
0
  6
Continuous
 62
     7
370
    18
100
AcDbTrace
 10
223.94
 20
264.06
 30
0.0
 11
227.242
 21
263.552
 31
0.0
 12
227.242
 22
264.568
 32
0.0
 13
227.242
 23
264.568
 33
0.0
  0
SOLID
  5
304
330
300
100
AcDbEntity
  8
0
  6
Continuous
 62
     7
370
    18
100
AcDbTrace
 10
214.94
 20
264.06
 30
0.0
 11
211.638
 21
264.568
 31
0.0
 12
211.638
 22
263.552
 32
0.0
 13
211.638
 23
263.552
 33
0.0
  0
LINE
  5
305
330
300
100
AcDbEntity
  8
0
  6
Continuous
 62
     7
370
     0
100
AcDbLine
 10
223.94
 20
241.56
 30
0.0
 11
223.94
 21
265.06
 31
0.0
  0
LINE
  5
306
330
300
100
AcDbEntity
  8
0
  6
Continuous
 62
     7
370
     0
100
AcDbLine
 10
214.94
 20
255.06
 30
0.0
 11
214.94
 21
265.06
 31
0.0
  0
LINE
  5
307
330
300
100
AcDbEntity
  8
0
  6
Continuous
 62
     7
370
     0
100
AcDbLine
 10
223.94
 20
264.06
 30
0.0
 11
230.29
 21
264.06
 31
0.0
  0
LINE
  5
308
330
300
100
AcDbEntity
  8
0
  6
Continuous
 62
     7
370
     0
100
AcDbLine
 10
223.94
 20
264.06
 30
0.0
 11
214.94
 21
264.06
 31
0.0
  0
LINE
  5
309
330
300
100
AcDbEntity
  8
0
  6
Continuous
 62
     7
370
     0
100
AcDbLine
 10
214.94
 20
264.06
 30
0.0
 11
208.59
 21
264.06
 31
0.0
  0
MTEXT
  5
30A
330
300
100
AcDbEntity
  8
0
  6
Continuous
 62
     7
370
    18
100
AcDbMText
 10
218.1469444032
 20
268.5717369146
 30
0.0
 40
3.5
 41
0.0
 71
     1
 72
     1
  1
9
  7
SLDTEXTSTYLE0
 73
     1
 44
1.0
  0
ENDBLK
  5
302
330
300
100
AcDbEntity
  8
0
100
AcDbBlockEnd
  0
BLOCK
  5
30D
330
30C
100
AcDbEntity
  8
0
100
AcDbBlockBegin
  2
_D_10
 70
     0
 10
0.0
 20
0.0
 30
0.0
  3
_D_10
  1

  0
SOLID
  5
30F
330
30C
100
AcDbEntity
  8
0
  6
Continuous
 62
     7
370
    18
100
AcDbTrace
 10
276.94
 20
241.06
 30
0.0
 11
276.432
 21
237.758
 31
0.0
 12
277.448
 22
237.758
 32
0.0
 13
277.448
 23
237.758
 33
0.0
  0
SOLID
  5
310
330
30C
100
AcDbEntity
  8
0
  6
Continuous
 62
     7
370
    18
100
AcDbTrace
 10
276.94
 20
191.06
 30
0.0
 11
277.448
 21
194.362
 31
0.0
 12
276.432
 22
194.362
 32
0.0
 13
276.432
 23
194.362
 33
0.0
  0
LINE
  5
311
330
30C
100
AcDbEntity
  8
0
  6
Continuous
 62
     7
370
     0
100
AcDbLine
 10
224.44
 20
241.06
 30
0.0
 11
277.94
 21
241.06
 31
0.0
  0
LINE
  5
312
330
30C
100
AcDbEntity
  8
0
  6
Continuous
 62
     7
370
     0
100
AcDbLine
 10
224.44
 20
191.06
 30
0.0
 11
277.94
 21
191.06
 31
0.0
  0
LINE
  5
313
330
30C
100
AcDbEntity
  8
0
  6
Continuous
 62
     7
370
     0
100
AcDbLine
 10
276.94
 20
241.06
 30
0.0
 11
276.94
 21
191.06
 31
0.0
  0
MTEXT
  5
314
330
30C
100
AcDbEntity
  8
0
  6
Continuous
 62
     7
370
    18
100
AcDbMText
 10
272.4282629108
 20
208.1634891158
 30
0.0
 40
3.5
 41
0.0
 71
     1
 72
     1
  1
%%c
  7
SLDTEXTSTYLE0
 11
-7.044195017643634E-15
 21
1.0
 31
0.0
 73
     1
 44
1.0
  0
MTEXT
  5
315
330
30C
100
AcDbEntity
  8
0
  6
Continuous
 62
     7
370
    18
100
AcDbMText
 10
272.3747907341
 20
213.4419265142
 30
0.0
 40
3.5
 41
0.0
 71
     1
 72
     1
  1
50
  7
SLDTEXTSTYLE0
 11
-7.044195017643634E-15
 21
1.0
 31
0.0
 73
     1
 44
1.0
  0
MTEXT
  5
316
330
30C
100
AcDbEntity
  8
0
  6
Continuous
 62
     7
370
    18
100
AcDbMText
 10
272.3747907341
 20
219.9266484356
 30
0.0
 40
3.5
 41
0.0
 71
     1
 72
     1
  1
f9
  7
SLDTEXTSTYLE0
 11
-7.044195017643634E-15
 21
1.0
 31
0.0
 73
     1
 44
1.0
  0
ENDBLK
  5
30E
330
30C
100
AcDbEntity
  8
0
100
AcDbBlockEnd
  0
BLOCK
  5
318
330
317
100
AcDbEntity
  8
0
100
AcDbBlockBegin
  2
SW_CENTERMARKSYMBOL_0
 70
     0
 10
0.0
 20
0.0
 30
0.0
  3
SW_CENTERMARKSYMBOL_0
  1

  0
LINE
  5
31A
330
317
100
AcDbEntity
  8
0
  6
Continuous
 62
     0
370
    18
100
AcDbLine
 10
0.0
 20
0.0
 30
0.0
 11
0.0
 21
2.5
 31
0.0
  0
LINE
  5
31B
330
317
100
AcDbEntity
  8
0
  6
Continuous
 62
     0
370
    18
100
AcDbLine
 10
0.0
 20
0.0
 30
0.0
 11
-2.5
 21
0.0
 31
0.0
  0
LINE
  5
31C
330
317
100
AcDbEntity
  8
0
  6
Continuous
 62
     0
370
    18
100
AcDbLine
 10
0.0
 20
0.0
 30
0.0
 11
0.0
 21
-2.5
 31
0.0
  0
LINE
  5
31D
330
317
100
AcDbEntity
  8
0
  6
Continuous
 62
     0
370
    18
100
AcDbLine
 10
0.0
 20
0.0
 30
0.0
 11
2.5
 21
0.0
 31
0.0
  0
LINE
  5
31E
330
317
100
AcDbEntity
  8
0
  6
Continuous
 62
     0
370
    18
100
AcDbLine
 10
0.0
 20
5.0
 30
0.0
 11
0.0
 21
17.5
 31
0.0
  0
LINE
  5
31F
330
317
100
AcDbEntity
  8
0
  6
Continuous
 62
     0
370
    18
100
AcDbLine
 10
-5.0
 20
0.0
 30
0.0
 11
-17.5
 21
0.0
 31
0.0
  0
LINE
  5
320
330
317
100
AcDbEntity
  8
0
  6
Continuous
 62
     0
370
    18
100
AcDbLine
 10
0.0
 20
-5.0
 30
0.0
 11
0.0
 21
-17.5
 31
0.0
  0
LINE
  5
321
330
317
100
AcDbEntity
  8
0
  6
Continuous
 62
     0
370
    18
100
AcDbLine
 10
5.0
 20
0.0
 30
0.0
 11
17.5
 21
0.0
 31
0.0
  0
ENDBLK
  5
319
330
317
100
AcDbEntity
  8
0
100
AcDbBlockEnd
  0
BLOCK
  5
324
330
323
100
AcDbEntity
  8
0
100
AcDbBlockBegin
  2
SW_CENTERMARKSYMBOL_1
 70
     0
 10
0.0
 20
0.0
 30
0.0
  3
SW_CENTERMARKSYMBOL_1
  1

  0
LINE
  5
326
330
323
100
AcDbEntity
  8
0
  6
Continuous
 62
     0
370
    18
100
AcDbLine
 10
0.0
 20
0.0
 30
0.0
 11
0.0
 21
2.5
 31
0.0
  0
LINE
  5
327
330
323
100
AcDbEntity
  8
0
  6
Continuous
 62
     0
370
    18
100
AcDbLine
 10
0.0
 20
0.0
 30
0.0
 11
-2.5
 21
0.0
 31
0.0
  0
LINE
  5
328
330
323
100
AcDbEntity
  8
0
  6
Continuous
 62
     0
370
    18
100
AcDbLine
 10
0.0
 20
0.0
 30
0.0
 11
0.0
 21
-2.5
 31
0.0
  0
LINE
  5
329
330
323
100
AcDbEntity
  8
0
  6
Continuous
 62
     0
370
    18
100
AcDbLine
 10
0.0
 20
0.0
 30
0.0
 11
2.5
 21
0.0
 31
0.0
  0
LINE
  5
32A
330
323
100
AcDbEntity
  8
0
  6
Continuous
 62
     0
370
    18
100
AcDbLine
 10
0.0
 20
5.0
 30
0.0
 11
0.0
 21
17.5
 31
0.0
  0
LINE
  5
32B
330
323
100
AcDbEntity
  8
0
  6
Continuous
 62
     0
370
    18
100
AcDbLine
 10
-5.0
 20
0.0
 30
0.0
 11
-17.5
 21
0.0
 31
0.0
  0
LINE
  5
32C
330
323
100
AcDbEntity
  8
0
  6
Continuous
 62
     0
370
    18
100
AcDbLine
 10
0.0
 20
-5.0
 30
0.0
 11
0.0
 21
-17.5
 31
0.0
  0
LINE
  5
32D
330
323
100
AcDbEntity
  8
0
  6
Continuous
 62
     0
370
    18
100
AcDbLine
 10
5.0
 20
0.0
 30
0.0
 11
17.5
 21
0.0
 31
0.0
  0
ENDBLK
  5
325
330
323
100
AcDbEntity
  8
0
100
AcDbBlockEnd
  0
BLOCK
  5
386
330
385
100
AcDbEntity
  8
0
100
AcDbBlockBegin
  2
_D_11
 70
     0
 10
0.0
 20
0.0
 30
0.0
  3
_D_11
  1

  0
SOLID
  5
388
330
385
100
AcDbEntity
  8
0
  6
Continuous
 62
     7
370
    18
100
AcDbTrace
 10
45.94
 20
71.06
 30
0.0
 11
45.432
 21
67.758
 31
0.0
 12
46.448
 22
67.758
 32
0.0
 13
46.448
 23
67.758
 33
0.0
  0
SOLID
  5
389
330
385
100
AcDbEntity
  8
0
  6
Continuous
 62
     7
370
    18
100
AcDbTrace
 10
45.94
 20
34.06
 30
0.0
 11
46.448
 21
37.362
 31
0.0
 12
45.432
 22
37.362
 32
0.0
 13
45.432
 23
37.362
 33
0.0
  0
LINE
  5
38A
330
385
100
AcDbEntity
  8
0
  6
Continuous
 62
     7
370
     0
100
AcDbLine
 10
87.94
 20
71.06
 30
0.0
 11
44.94
 21
71.06
 31
0.0
  0
LINE
  5
38B
330
385
100
AcDbEntity
  8
0
  6
Continuous
 62
     7
370
     0
100
AcDbLine
 10
54.94
 20
34.06
 30
0.0
 11
44.94
 21
34.06
 31
0.0
  0
LINE
  5
38C
330
385
100
AcDbEntity
  8
0
  6
Continuous
 62
     7
370
     0
100
AcDbLine
 10
45.94
 20
71.06
 30
0.0
 11
45.94
 21
34.06
 31
0.0
  0
MTEXT
  5
38D
330
385
100
AcDbEntity
  8
0
  6
Continuous
 62
     7
370
    18
100
AcDbMText
 10
41.4282630854
 20
49.9738888065
 30
0.0
 40
3.5
 41
0.0
 71
     1
 72
     1
  1
37
  7
SLDTEXTSTYLE0
 11
-7.044195017643634E-15
 21
1.0
 31
0.0
 73
     1
 44
1.0
  0
ENDBLK
  5
387
330
385
100
AcDbEntity
  8
0
100
AcDbBlockEnd
  0
BLOCK
  5
390
330
38F
100
AcDbEntity
  8
0
100
AcDbBlockBegin
  2
_D_12
 70
     0
 10
0.0
 20
0.0
 30
0.0
  3
_D_12
  1

  0
SOLID
  5
392
330
38F
100
AcDbEntity
  8
0
  6
Continuous
 62
     7
370
    18
100
AcDbTrace
 10
68.44
 20
18.06
 30
0.0
 11
71.742
 21
17.552
 31
0.0
 12
71.742
 22
18.568
 32
0.0
 13
71.742
 23
18.568
 33
0.0
  0
SOLID
  5
393
330
38F
100
AcDbEntity
  8
0
  6
Continuous
 62
     7
370
    18
100
AcDbTrace
 10
170.44
 20
18.06
 30
0.0
 11
167.138
 21
18.568
 31
0.0
 12
167.138
 22
17.552
 32
0.0
 13
167.138
 23
17.552
 33
0.0
  0
LINE
  5
394
330
38F
100
AcDbEntity
  8
0
  6
Continuous
 62
     7
370
     0
100
AcDbLine
 10
68.44
 20
49.06
 30
0.0
 11
68.44
 21
17.06
 31
0.0
  0
LINE
  5
395
330
38F
100
AcDbEntity
  8
0
  6
Continuous
 62
     7
370
     0
100
AcDbLine
 10
170.44
 20
49.06
 30
0.0
 11
170.44
 21
17.06
 31
0.0
  0
LINE
  5
396
330
38F
100
AcDbEntity
  8
0
  6
Continuous
 62
     7
370
     0
100
AcDbLine
 10
68.44
 20
18.06
 30
0.0
 11
170.44
 21
18.06
 31
0.0
  0
MTEXT
  5
397
330
38F
100
AcDbEntity
  8
0
  6
Continuous
 62
     7
370
    18
100
AcDbMText
 10
115.5608333261
 20
22.5717369146
 30
0.0
 40
3.5
 41
0.0
 71
     1
 72
     1
  1
102
  7
SLDTEXTSTYLE0
 73
     1
 44
1.0
  0
ENDBLK
  5
391
330
38F
100
AcDbEntity
  8
0
100
AcDbBlockEnd
  0
BLOCK
  5
39A
330
399
100
AcDbEntity
  8
0
100
AcDbBlockBegin
  2
_D_13
 70
     0
 10
0.0
 20
0.0
 30
0.0
  3
_D_13
  1

  0
SOLID
  5
39C
330
399
100
AcDbEntity
  8
0
  6
Continuous
 62
     7
370
    18
100
AcDbTrace
 10
55.94
 20
12.06
 30
0.0
 11
59.242
 21
11.552
 31
0.0
 12
59.242
 22
12.568
 32
0.0
 13
59.242
 23
12.568
 33
0.0
  0
SOLID
  5
39D
330
399
100
AcDbEntity
  8
0
  6
Continuous
 62
     7
370
    18
100
AcDbTrace
 10
182.94
 20
12.06
 30
0.0
 11
179.638
 21
12.568
 31
0.0
 12
179.638
 22
11.552
 32
0.0
 13
179.638
 23
11.552
 33
0.0
  0
LINE
  5
39E
330
399
100
AcDbEntity
  8
0
  6
Continuous
 62
     7
370
     0
100
AcDbLine
 10
55.94
 20
33.06
 30
0.0
 11
55.94
 21
11.06
 31
0.0
  0
LINE
  5
39F
330
399
100
AcDbEntity
  8
0
  6
Continuous
 62
     7
370
     0
100
AcDbLine
 10
182.94
 20
33.06
 30
0.0
 11
182.94
 21
11.06
 31
0.0
  0
LINE
  5
3A0
330
399
100
AcDbEntity
  8
0
  6
Continuous
 62
     7
370
     0
100
AcDbLine
 10
55.94
 20
12.06
 30
0.0
 11
182.94
 21
12.06
 31
0.0
  0
MTEXT
  5
3A1
330
399
100
AcDbEntity
  8
0
  6
Continuous
 62
     7
370
    18
100
AcDbMText
 10
115.5608333261
 20
16.5717369146
 30
0.0
 40
3.5
 41
0.0
 71
     1
 72
     1
  1
127
  7
SLDTEXTSTYLE0
 73
     1
 44
1.0
  0
ENDBLK
  5
39B
330
399
100
AcDbEntity
  8
0
100
AcDbBlockEnd
  0
BLOCK
  5
3A5
330
3A4
100
AcDbEntity
  8
0
100
AcDbBlockBegin
  2
_D_14
 70
     0
 10
0.0
 20
0.0
 30
0.0
  3
_D_14
  1

  0
SOLID
  5
3A7
330
3A4
100
AcDbEntity
  8
0
  6
Continuous
 62
     7
370
    18
100
AcDbTrace
 10
164.9405
 20
24.06
 30
0.0
 11
168.2425
 21
23.552
 31
0.0
 12
168.2425
 22
24.568
 32
0.0
 13
168.2425
 23
24.568
 33
0.0
  0
SOLID
  5
3A8
330
3A4
100
AcDbEntity
  8
0
  6
Continuous
 62
     7
370
    18
100
AcDbTrace
 10
175.9395
 20
24.06
 30
0.0
 11
172.6375
 21
24.568
 31
0.0
 12
172.6375
 22
23.552
 32
0.0
 13
172.6375
 23
23.552
 33
0.0
  0
LINE
  5
3A9
330
3A4
100
AcDbEntity
  8
0
  6
Continuous
 62
     7
370
     0
100
AcDbLine
 10
164.9405
 20
33.56
 30
0.0
 11
164.9405
 21
23.06
 31
0.0
  0
LINE
  5
3AA
330
3A4
100
AcDbEntity
  8
0
  6
Continuous
 62
     7
370
     0
100
AcDbLine
 10
175.9395
 20
33.56
 30
0.0
 11
175.9395
 21
23.06
 31
0.0
  0
LINE
  5
3AB
330
3A4
100
AcDbEntity
  8
0
  6
Continuous
 62
     7
370
     0
100
AcDbLine
 10
164.9405
 20
24.06
 30
0.0
 11
175.9395
 21
24.06
 31
0.0
  0
LINE
  5
3AC
330
3A4
100
AcDbEntity
  8
0
  6
Continuous
 62
     7
370
     0
100
AcDbLine
 10
175.9395
 20
24.06
 30
0.0
 11
208.1617752956
 21
24.06
 31
0.0
  0
MTEXT
  5
3AD
330
3A4
100
AcDbEntity
  8
0
  6
Continuous
 62
     7
370
    18
100
AcDbMText
 10
193.831947905
 20
28.5717370892
 30
0.0
 40
3.5
 41
0.0
 71
     1
 72
     1
  1
%%c
  7
SLDTEXTSTYLE0
 73
     1
 44
1.0
  0
MTEXT
  5
3AE
330
3A4
100
AcDbEntity
  8
0
  6
Continuous
 62
     7
370
    18
100
AcDbMText
 10
199.1103853034
 20
28.6252092659
 30
0.0
 40
3.5
 41
0.0
 71
     1
 72
     1
  1
11,0
  7
SLDTEXTSTYLE0
 73
     1
 44
1.0
  0
ENDBLK
  5
3A6
330
3A4
100
AcDbEntity
  8
0
100
AcDbBlockEnd
  0
BLOCK
  5
3B2
330
3B1
100
AcDbEntity
  8
0
100
AcDbBlockBegin
  2
_D_15
 70
     0
 10
0.0
 20
0.0
 30
0.0
  3
_D_15
  1

  0
SOLID
  5
3B4
330
3B1
100
AcDbEntity
  8
0
  6
Continuous
 62
     7
370
    18
100
AcDbTrace
 10
145.59
 20
119.06
 30
0.0
 11
142.288
 21
119.568
 31
0.0
 12
142.288
 22
118.552
 32
0.0
 13
142.288
 23
118.552
 33
0.0
  0
SOLID
  5
3B5
330
3B1
100
AcDbEntity
  8
0
  6
Continuous
 62
     7
370
    18
100
AcDbTrace
 10
93.29
 20
119.06
 30
0.0
 11
96.592
 21
118.552
 31
0.0
 12
96.592
 22
119.568
 32
0.0
 13
96.592
 23
119.568
 33
0.0
  0
LINE
  5
3B6
330
3B1
100
AcDbEntity
  8
0
  6
Continuous
 62
     7
370
     0
100
AcDbLine
 10
145.59
 20
106.71
 30
0.0
 11
145.59
 21
120.06
 31
0.0
  0
LINE
  5
3B7
330
3B1
100
AcDbEntity
  8
0
  6
Continuous
 62
     7
370
     0
100
AcDbLine
 10
93.29
 20
107.21
 30
0.0
 11
93.29
 21
120.06
 31
0.0
  0
LINE
  5
3B8
330
3B1
100
AcDbEntity
  8
0
  6
Continuous
 62
     7
370
     0
100
AcDbLine
 10
145.59
 20
119.06
 30
0.0
 11
93.29
 21
119.06
 31
0.0
  0
MTEXT
  5
3B9
330
3B1
100
AcDbEntity
  8
0
  6
Continuous
 62
     7
370
    18
100
AcDbMText
 10
113.6212497564
 20
123.5717369146
 30
0.0
 40
3.5
 41
0.0
 71
     1
 72
     1
  1
52,30
  7
SLDTEXTSTYLE0
 73
     1
 44
1.0
  0
ENDBLK
  5
3B3
330
3B1
100
AcDbEntity
  8
0
100
AcDbBlockEnd
  0
BLOCK
  5
3BC
330
3BB
100
AcDbEntity
  8
0
100
AcDbBlockBegin
  2
_D_16
 70
     0
 10
0.0
 20
0.0
 30
0.0
  3
_D_16
  1

  0
SOLID
  5
3BE
330
3BB
100
AcDbEntity
  8
0
  6
Continuous
 62
     7
370
    18
100
AcDbTrace
 10
81.94
 20
125.06
 30
0.0
 11
85.242
 21
124.552
 31
0.0
 12
85.242
 22
125.568
 32
0.0
 13
85.242
 23
125.568
 33
0.0
  0
SOLID
  5
3BF
330
3BB
100
AcDbEntity
  8
0
  6
Continuous
 62
     7
370
    18
100
AcDbTrace
 10
156.94
 20
125.06
 30
0.0
 11
153.638
 21
125.568
 31
0.0
 12
153.638
 22
124.552
 32
0.0
 13
153.638
 23
124.552
 33
0.0
  0
LINE
  5
3C0
330
3BB
100
AcDbEntity
  8
0
  6
Continuous
 62
     7
370
     0
100
AcDbLine
 10
81.94
 20
109.56
 30
0.0
 11
81.94
 21
126.06
 31
0.0
  0
LINE
  5
3C1
330
3BB
100
AcDbEntity
  8
0
  6
Continuous
 62
     7
370
     0
100
AcDbLine
 10
156.94
 20
109.56
 30
0.0
 11
156.94
 21
126.06
 31
0.0
  0
LINE
  5
3C2
330
3BB
100
AcDbEntity
  8
0
  6
Continuous
 62
     7
370
     0
100
AcDbLine
 10
81.94
 20
125.06
 30
0.0
 11
156.94
 21
125.06
 31
0.0
  0
MTEXT
  5
3C3
330
3BB
100
AcDbEntity
  8
0
  6
Continuous
 62
     7
370
    18
100
AcDbMText
 10
116.8538888065
 20
129.5717369146
 30
0.0
 40
3.5
 41
0.0
 71
     1
 72
     1
  1
75
  7
SLDTEXTSTYLE0
 73
     1
 44
1.0
  0
ENDBLK
  5
3BD
330
3BB
100
AcDbEntity
  8
0
100
AcDbBlockEnd
  0
BLOCK
  5
3C6
330
3C5
100
AcDbEntity
  8
0
100
AcDbBlockBegin
  2
_D_17
 70
     0
 10
0.0
 20
0.0
 30
0.0
  3
_D_17
  1

  0
SOLID
  5
3C8
330
3C5
100
AcDbEntity
  8
0
  6
Continuous
 62
     7
370
    18
100
AcDbTrace
 10
198.94
 20
109.06
 30
0.0
 11
198.432
 21
105.758
 31
0.0
 12
199.448
 22
105.758
 32
0.0
 13
199.448
 23
105.758
 33
0.0
  0
SOLID
  5
3C9
330
3C5
100
AcDbEntity
  8
0
  6
Continuous
 62
     7
370
    18
100
AcDbTrace
 10
198.94
 20
34.06
 30
0.0
 11
199.448
 21
37.362
 31
0.0
 12
198.432
 22
37.362
 32
0.0
 13
198.432
 23
37.362
 33
0.0
  0
LINE
  5
3CA
330
3C5
100
AcDbEntity
  8
0
  6
Continuous
 62
     7
370
     0
100
AcDbLine
 10
157.44
 20
109.06
 30
0.0
 11
199.94
 21
109.06
 31
0.0
  0
LINE
  5
3CB
330
3C5
100
AcDbEntity
  8
0
  6
Continuous
 62
     7
370
     0
100
AcDbLine
 10
183.94
 20
34.06
 30
0.0
 11
199.94
 21
34.06
 31
0.0
  0
LINE
  5
3CC
330
3C5
100
AcDbEntity
  8
0
  6
Continuous
 62
     7
370
     0
100
AcDbLine
 10
198.94
 20
109.06
 30
0.0
 11
198.94
 21
34.06
 31
0.0
  0
MTEXT
  5
3CD
330
3C5
100
AcDbEntity
  8
0
  6
Continuous
 62
     7
370
    18
100
AcDbMText
 10
194.4282630854
 20
68.9738888065
 30
0.0
 40
3.5
 41
0.0
 71
     1
 72
     1
  1
75
  7
SLDTEXTSTYLE0
 11
-7.044195017643634E-15
 21
1.0
 31
0.0
 73
     1
 44
1.0
  0
ENDBLK
  5
3C7
330
3C5
100
AcDbEntity
  8
0
100
AcDbBlockEnd
  0
BLOCK
  5
3D0
330
3CF
100
AcDbEntity
  8
0
100
AcDbBlockBegin
  2
_D_18
 70
     0
 10
0.0
 20
0.0
 30
0.0
  3
_D_18
  1

  0
SOLID
  5
3D2
330
3CF
100
AcDbEntity
  8
0
  6
Continuous
 62
     7
370
    18
100
AcDbTrace
 10
192.94
 20
45.41
 30
0.0
 11
193.448
 21
48.712
 31
0.0
 12
192.432
 22
48.712
 32
0.0
 13
192.432
 23
48.712
 33
0.0
  0
SOLID
  5
3D3
330
3CF
100
AcDbEntity
  8
0
  6
Continuous
 62
     7
370
    18
100
AcDbTrace
 10
192.94
 20
97.71
 30
0.0
 11
192.432
 21
94.408
 31
0.0
 12
193.448
 22
94.408
 32
0.0
 13
193.448
 23
94.408
 33
0.0
  0
LINE
  5
3D4
330
3CF
100
AcDbEntity
  8
0
  6
Continuous
 62
     7
370
     0
100
AcDbLine
 10
155.09
 20
45.41
 30
0.0
 11
193.94
 21
45.41
 31
0.0
  0
LINE
  5
3D5
330
3CF
100
AcDbEntity
  8
0
  6
Continuous
 62
     7
370
     0
100
AcDbLine
 10
154.59
 20
97.71
 30
0.0
 11
193.94
 21
97.71
 31
0.0
  0
LINE
  5
3D6
330
3CF
100
AcDbEntity
  8
0
  6
Continuous
 62
     7
370
     0
100
AcDbLine
 10
192.94
 20
45.41
 30
0.0
 11
192.94
 21
97.71
 31
0.0
  0
MTEXT
  5
3D7
330
3CF
100
AcDbEntity
  8
0
  6
Continuous
 62
     7
370
    18
100
AcDbMText
 10
188.4282630854
 20
65.7412497564
 30
0.0
 40
3.5
 41
0.0
 71
     1
 72
     1
  1
52,30
  7
SLDTEXTSTYLE0
 11
6.123233995736766E-17
 21
1.0
 31
0.0
 73
     1
 44
1.0
  0
ENDBLK
  5
3D1
330
3CF
100
AcDbEntity
  8
0
100
AcDbBlockEnd
  0
BLOCK
  5
3DB
330
3DA
100
AcDbEntity
  8
0
100
AcDbBlockBegin
  2
_None
 70
     0
 10
0.0
 20
0.0
 30
0.0
  3
_None
  1

  0
ENDBLK
  5
3DC
330
3DA
100
AcDbEntity
  8
0
100
AcDbBlockEnd
  0
BLOCK
  5
3DE
330
3DD
100
AcDbEntity
  8
0
100
AcDbBlockBegin
  2
_D_19
 70
     0
 10
0.0
 20
0.0
 30
0.0
  3
_D_19
  1

  0
SOLID
  5
3E0
330
3DD
100
AcDbEntity
  8
0
  6
Continuous
 62
     7
370
    18
100
AcDbTrace
 10
129.5398716232
 20
79.3240845346
 30
0.0
 11
132.4171077185
 21
81.0219598104
 31
0.0
 12
131.7737123248
 22
81.8082793176
 32
0.0
 13
131.7737123248
 23
81.8082793176
 33
0.0
  0
LINE
  5
3E1
330
3DD
100
AcDbEntity
  8
0
  6
Continuous
 62
     7
370
     0
100
AcDbLine
 10
129.5398716232
 20
79.3240845346
 30
0.0
 11
182.695972003
 21
122.8183509429
 31
0.0
  0
LINE
  5
3E2
330
3DD
100
AcDbEntity
  8
0
  6
Continuous
 62
     7
370
     0
100
AcDbLine
 10
129.5398716232
 20
79.3240845346
 30
0.0
 11
109.3401283768
 21
62.7959154654
 31
0.0
  0
MTEXT
  5
3E3
330
3DD
100
AcDbEntity
  8
0
  6
Continuous
 62
     7
370
    18
100
AcDbMText
 10
168.7829908589
 20
117.2613524408
 30
0.0
 40
3.5
 41
0.0
 71
     1
 72
     1
  1
M27x2
  7
SLDTEXTSTYLE0
 11
0.7739365228499789
 21
0.6332631827280693
 31
0.0
 73
     1
 44
1.0
  0
ENDBLK
  5
3DF
330
3DD
100
AcDbEntity
  8
0
100
AcDbBlockEnd
  0
BLOCK
  5
3E5
330
3E4
100
AcDbEntity
  8
0
100
AcDbBlockBegin
  2
SW_CENTERMARKSYMBOL_2
 70
     0
 10
0.0
 20
0.0
 30
0.0
  3
SW_CENTERMARKSYMBOL_2
  1

  0
LINE
  5
3E7
330
3E4
100
AcDbEntity
  8
0
  6
Continuous
 62
     0
370
    18
100
AcDbLine
 10
0.0
 20
0.0
 30
0.0
 11
0.0
 21
2.5
 31
0.0
  0
LINE
  5
3E8
330
3E4
100
AcDbEntity
  8
0
  6
Continuous
 62
     0
370
    18
100
AcDbLine
 10
0.0
 20
0.0
 30
0.0
 11
-2.5
 21
0.0
 31
0.0
  0
LINE
  5
3E9
330
3E4
100
AcDbEntity
  8
0
  6
Continuous
 62
     0
370
    18
100
AcDbLine
 10
0.0
 20
0.0
 30
0.0
 11
0.0
 21
-2.5
 31
0.0
  0
LINE
  5
3EA
330
3E4
100
AcDbEntity
  8
0
  6
Continuous
 62
     0
370
    18
100
AcDbLine
 10
0.0
 20
0.0
 30
0.0
 11
2.5
 21
0.0
 31
0.0
  0
LINE
  5
3EB
330
3E4
100
AcDbEntity
  8
0
  6
Continuous
 62
     0
370
    18
100
AcDbLine
 10
0.0
 20
5.0
 30
0.0
 11
0.0
 21
8.5
 31
0.0
  0
LINE
  5
3EC
330
3E4
100
AcDbEntity
  8
0
  6
Continuous
 62
     0
370
    18
100
AcDbLine
 10
-5.0
 20
0.0
 30
0.0
 11
-8.5
 21
0.0
 31
0.0
  0
LINE
  5
3ED
330
3E4
100
AcDbEntity
  8
0
  6
Continuous
 62
     0
370
    18
100
AcDbLine
 10
0.0
 20
-5.0
 30
0.0
 11
0.0
 21
-8.5
 31
0.0
  0
LINE
  5
3EE
330
3E4
100
AcDbEntity
  8
0
  6
Continuous
 62
     0
370
    18
100
AcDbLine
 10
5.0
 20
0.0
 30
0.0
 11
8.5
 21
0.0
 31
0.0
  0
ENDBLK
  5
3E6
330
3E4
100
AcDbEntity
  8
0
100
AcDbBlockEnd
  0
BLOCK
  5
3F1
330
3F0
100
AcDbEntity
  8
0
100
AcDbBlockBegin
  2
SW_CENTERMARKSYMBOL_3
 70
     0
 10
0.0
 20
0.0
 30
0.0
  3
SW_CENTERMARKSYMBOL_3
  1

  0
LINE
  5
3F3
330
3F0
100
AcDbEntity
  8
0
  6
Continuous
 62
     0
370
    18
100
AcDbLine
 10
0.0
 20
0.0
 30
0.0
 11
0.0
 21
2.5
 31
0.0
  0
LINE
  5
3F4
330
3F0
100
AcDbEntity
  8
0
  6
Continuous
 62
     0
370
    18
100
AcDbLine
 10
0.0
 20
0.0
 30
0.0
 11
-2.5
 21
0.0
 31
0.0
  0
LINE
  5
3F5
330
3F0
100
AcDbEntity
  8
0
  6
Continuous
 62
     0
370
    18
100
AcDbLine
 10
0.0
 20
0.0
 30
0.0
 11
0.0
 21
-2.5
 31
0.0
  0
LINE
  5
3F6
330
3F0
100
AcDbEntity
  8
0
  6
Continuous
 62
     0
370
    18
100
AcDbLine
 10
0.0
 20
0.0
 30
0.0
 11
2.5
 21
0.0
 31
0.0
  0
LINE
  5
3F7
330
3F0
100
AcDbEntity
  8
0
  6
Continuous
 62
     0
370
    18
100
AcDbLine
 10
0.0
 20
5.0
 30
0.0
 11
0.0
 21
8.0
 31
0.0
  0
LINE
  5
3F8
330
3F0
100
AcDbEntity
  8
0
  6
Continuous
 62
     0
370
    18
100
AcDbLine
 10
-5.0
 20
0.0
 30
0.0
 11
-8.0
 21
0.0
 31
0.0
  0
LINE
  5
3F9
330
3F0
100
AcDbEntity
  8
0
  6
Continuous
 62
     0
370
    18
100
AcDbLine
 10
0.0
 20
-5.0
 30
0.0
 11
0.0
 21
-8.0
 31
0.0
  0
LINE
  5
3FA
330
3F0
100
AcDbEntity
  8
0
  6
Continuous
 62
     0
370
    18
100
AcDbLine
 10
5.0
 20
0.0
 30
0.0
 11
8.0
 21
0.0
 31
0.0
  0
ENDBLK
  5
3F2
330
3F0
100
AcDbEntity
  8
0
100
AcDbBlockEnd
  0
BLOCK
  5
3FD
330
3FC
100
AcDbEntity
  8
0
100
AcDbBlockBegin
  2
SW_CENTERMARKSYMBOL_4
 70
     0
 10
0.0
 20
0.0
 30
0.0
  3
SW_CENTERMARKSYMBOL_4
  1

  0
LINE
  5
3FF
330
3FC
100
AcDbEntity
  8
0
  6
Continuous
 62
     0
370
    18
100
AcDbLine
 10
0.0
 20
0.0
 30
0.0
 11
0.0
 21
2.5
 31
0.0
  0
LINE
  5
400
330
3FC
100
AcDbEntity
  8
0
  6
Continuous
 62
     0
370
    18
100
AcDbLine
 10
0.0
 20
0.0
 30
0.0
 11
-2.5
 21
0.0
 31
0.0
  0
LINE
  5
401
330
3FC
100
AcDbEntity
  8
0
  6
Continuous
 62
     0
370
    18
100
AcDbLine
 10
0.0
 20
0.0
 30
0.0
 11
0.0
 21
-2.5
 31
0.0
  0
LINE
  5
402
330
3FC
100
AcDbEntity
  8
0
  6
Continuous
 62
     0
370
    18
100
AcDbLine
 10
0.0
 20
0.0
 30
0.0
 11
2.5
 21
0.0
 31
0.0
  0
LINE
  5
403
330
3FC
100
AcDbEntity
  8
0
  6
Continuous
 62
     0
370
    18
100
AcDbLine
 10
0.0
 20
5.0
 30
0.0
 11
0.0
 21
8.5
 31
0.0
  0
LINE
  5
404
330
3FC
100
AcDbEntity
  8
0
  6
Continuous
 62
     0
370
    18
100
AcDbLine
 10
-5.0
 20
0.0
 30
0.0
 11
-8.5
 21
0.0
 31
0.0
  0
LINE
  5
405
330
3FC
100
AcDbEntity
  8
0
  6
Continuous
 62
     0
370
    18
100
AcDbLine
 10
0.0
 20
-5.0
 30
0.0
 11
0.0
 21
-8.5
 31
0.0
  0
LINE
  5
406
330
3FC
100
AcDbEntity
  8
0
  6
Continuous
 62
     0
370
    18
100
AcDbLine
 10
5.0
 20
0.0
 30
0.0
 11
8.5
 21
0.0
 31
0.0
  0
ENDBLK
  5
3FE
330
3FC
100
AcDbEntity
  8
0
100
AcDbBlockEnd
  0
BLOCK
  5
409
330
408
100
AcDbEntity
  8
0
100
AcDbBlockBegin
  2
SW_CENTERMARKSYMBOL_5
 70
     0
 10
0.0
 20
0.0
 30
0.0
  3
SW_CENTERMARKSYMBOL_5
  1

  0
LINE
  5
40B
330
408
100
AcDbEntity
  8
0
  6
Continuous
 62
     0
370
    18
100
AcDbLine
 10
0.0
 20
0.0
 30
0.0
 11
0.0
 21
2.5
 31
0.0
  0
LINE
  5
40C
330
408
100
AcDbEntity
  8
0
  6
Continuous
 62
     0
370
    18
100
AcDbLine
 10
0.0
 20
0.0
 30
0.0
 11
-2.5
 21
0.0
 31
0.0
  0
LINE
  5
40D
330
408
100
AcDbEntity
  8
0
  6
Continuous
 62
     0
370
    18
100
AcDbLine
 10
0.0
 20
0.0
 30
0.0
 11
0.0
 21
-2.5
 31
0.0
  0
LINE
  5
40E
330
408
100
AcDbEntity
  8
0
  6
Continuous
 62
     0
370
    18
100
AcDbLine
 10
0.0
 20
0.0
 30
0.0
 11
2.5
 21
0.0
 31
0.0
  0
LINE
  5
40F
330
408
100
AcDbEntity
  8
0
  6
Continuous
 62
     0
370
    18
100
AcDbLine
 10
0.0
 20
5.0
 30
0.0
 11
0.0
 21
8.0
 31
0.0
  0
LINE
  5
410
330
408
100
AcDbEntity
  8
0
  6
Continuous
 62
     0
370
    18
100
AcDbLine
 10
-5.0
 20
0.0
 30
0.0
 11
-8.0
 21
0.0
 31
0.0
  0
LINE
  5
411
330
408
100
AcDbEntity
  8
0
  6
Continuous
 62
     0
370
    18
100
AcDbLine
 10
0.0
 20
-5.0
 30
0.0
 11
0.0
 21
-8.0
 31
0.0
  0
LINE
  5
412
330
408
100
AcDbEntity
  8
0
  6
Continuous
 62
     0
370
    18
100
AcDbLine
 10
5.0
 20
0.0
 30
0.0
 11
8.0
 21
0.0
 31
0.0
  0
ENDBLK
  5
40A
330
408
100
AcDbEntity
  8
0
100
AcDbBlockEnd
  0
BLOCK
  5
415
330
414
100
AcDbEntity
  8
0
100
AcDbBlockBegin
  2
SW_CENTERMARKSYMBOL_6
 70
     0
 10
0.0
 20
0.0
 30
0.0
  3
SW_CENTERMARKSYMBOL_6
  1

  0
LINE
  5
417
330
414
100
AcDbEntity
  8
0
  6
Continuous
 62
     0
370
    18
100
AcDbLine
 10
0.0
 20
0.0
 30
0.0
 11
0.0
 21
2.5
 31
0.0
  0
LINE
  5
418
330
414
100
AcDbEntity
  8
0
  6
Continuous
 62
     0
370
    18
100
AcDbLine
 10
0.0
 20
0.0
 30
0.0
 11
-2.5
 21
0.0
 31
0.0
  0
LINE
  5
419
330
414
100
AcDbEntity
  8
0
  6
Continuous
 62
     0
370
    18
100
AcDbLine
 10
0.0
 20
0.0
 30
0.0
 11
0.0
 21
-2.5
 31
0.0
  0
LINE
  5
41A
330
414
100
AcDbEntity
  8
0
  6
Continuous
 62
     0
370
    18
100
AcDbLine
 10
0.0
 20
0.0
 30
0.0
 11
2.5
 21
0.0
 31
0.0
  0
LINE
  5
41B
330
414
100
AcDbEntity
  8
0
  6
Continuous
 62
     0
370
    18
100
AcDbLine
 10
0.0
 20
5.0
 30
0.0
 11
0.0
 21
15.55
 31
0.0
  0
LINE
  5
41C
330
414
100
AcDbEntity
  8
0
  6
Continuous
 62
     0
370
    18
100
AcDbLine
 10
-5.0
 20
0.0
 30
0.0
 11
-15.55
 21
0.0
 31
0.0
  0
LINE
  5
41D
330
414
100
AcDbEntity
  8
0
  6
Continuous
 62
     0
370
    18
100
AcDbLine
 10
0.0
 20
-5.0
 30
0.0
 11
0.0
 21
-15.55
 31
0.0
  0
LINE
  5
41E
330
414
100
AcDbEntity
  8
0
  6
Continuous
 62
     0
370
    18
100
AcDbLine
 10
5.0
 20
0.0
 30
0.0
 11
15.55
 21
0.0
 31
0.0
  0
ENDBLK
  5
416
330
414
100
AcDbEntity
  8
0
100
AcDbBlockEnd
  0
BLOCK
  5
421
330
420
100
AcDbEntity
  8
0
100
AcDbBlockBegin
  2
SW_CENTERMARKSYMBOL_7
 70
     0
 10
0.0
 20
0.0
 30
0.0
  3
SW_CENTERMARKSYMBOL_7
  1

  0
LINE
  5
423
330
420
100
AcDbEntity
  8
0
  6
Continuous
 62
     0
370
    18
100
AcDbLine
 10
0.0
 20
0.0
 30
0.0
 11
0.0
 21
2.5
 31
0.0
  0
LINE
  5
424
330
420
100
AcDbEntity
  8
0
  6
Continuous
 62
     0
370
    18
100
AcDbLine
 10
0.0
 20
0.0
 30
0.0
 11
-2.5
 21
0.0
 31
0.0
  0
LINE
  5
425
330
420
100
AcDbEntity
  8
0
  6
Continuous
 62
     0
370
    18
100
AcDbLine
 10
0.0
 20
0.0
 30
0.0
 11
0.0
 21
-2.5
 31
0.0
  0
LINE
  5
426
330
420
100
AcDbEntity
  8
0
  6
Continuous
 62
     0
370
    18
100
AcDbLine
 10
0.0
 20
0.0
 30
0.0
 11
2.5
 21
0.0
 31
0.0
  0
LINE
  5
427
330
420
100
AcDbEntity
  8
0
  6
Continuous
 62
     0
370
    18
100
AcDbLine
 10
0.0
 20
5.0
 30
0.0
 11
0.0
 21
30.5
 31
0.0
  0
LINE
  5
428
330
420
100
AcDbEntity
  8
0
  6
Continuous
 62
     0
370
    18
100
AcDbLine
 10
-5.0
 20
0.0
 30
0.0
 11
-30.5
 21
0.0
 31
0.0
  0
LINE
  5
429
330
420
100
AcDbEntity
  8
0
  6
Continuous
 62
     0
370
    18
100
AcDbLine
 10
0.0
 20
-5.0
 30
0.0
 11
0.0
 21
-30.5
 31
0.0
  0
LINE
  5
42A
330
420
100
AcDbEntity
  8
0
  6
Continuous
 62
     0
370
    18
100
AcDbLine
 10
5.0
 20
0.0
 30
0.0
 11
30.5
 21
0.0
 31
0.0
  0
ENDBLK
  5
422
330
420
100
AcDbEntity
  8
0
100
AcDbBlockEnd
  0
ENDSEC
  0
SECTION
  2
ENTITIES
  0
LINE
  5
74
330
1F
100
AcDbEntity
  8
0
  6
Continuous
 62
     7
370
    50
100
AcDbLine
 10
230.0
 20
14.25
 30
0.0
 11
410.0
 21
14.25
 31
0.0
  0
LINE
  5
75
330
1F
100
AcDbEntity
  8
0
  6
Continuous
 62
     7
370
    50
100
AcDbLine
 10
410.0
 20
48.25
 30
0.0
 11
230.0
 21
48.25
 31
0.0
  0
LINE
  5
76
330
1F
100
AcDbEntity
  8
0
  6
Continuous
 62
     7
370
    50
100
AcDbLine
 10
230.0
 20
65.25
 30
0.0
 11
410.0
 21
65.25
 31
0.0
  0
LINE
  5
77
330
1F
100
AcDbEntity
  8
0
  6
Continuous
 62
     7
370
    50
100
AcDbLine
 10
256.9909524338
 20
48.25
 30
0.0
 11
256.9909524338
 21
10.0
 31
0.0
  0
LINE
  5
78
330
1F
100
AcDbEntity
  8
0
  6
Continuous
 62
     7
370
    50
100
AcDbLine
 10
328.8
 20
31.25
 30
0.0
 11
230.0
 21
31.25
 31
0.0
  0
LINE
  5
79
330
1F
100
AcDbEntity
  8
0
  6
Continuous
 62
     7
370
    50
100
AcDbLine
 10
328.8
 20
35.5
 30
0.0
 11
230.0
 21
35.5
 31
0.0
  0
LINE
  5
7A
330
1F
100
AcDbEntity
  8
0
  6
Continuous
 62
     7
370
    50
100
AcDbLine
 10
328.8
 20
39.75
 30
0.0
 11
230.0
 21
39.75
 31
0.0
  0
LINE
  5
7B
330
1F
100
AcDbEntity
  8
0
  6
Continuous
 62
     7
370
    50
100
AcDbLine
 10
328.8
 20
44.0
 30
0.0
 11
230.0
 21
44.0
 31
0.0
  0
LINE
  5
7C
330
1F
100
AcDbEntity
  8
0
  6
Continuous
 62
     7
370
    50
100
AcDbLine
 10
284.6
 20
10.0
 30
0.0
 11
284.6
 21
48.25
 31
0.0
  0
LINE
  5
7D
330
1F
100
AcDbEntity
  8
0
  6
Continuous
 62
     7
370
    50
100
AcDbLine
 10
230.0
 20
65.25
 30
0.0
 11
230.0
 21
10.0
 31
0.0
  0
LINE
  5
7E
330
1F
100
AcDbEntity
  8
0
  6
Continuous
 62
     7
370
    50
100
AcDbLine
 10
242.0703737145
 20
48.25
 30
0.0
 11
242.0703737145
 21
10.0
 31
0.0
  0
LINE
  5
7F
330
1F
100
AcDbEntity
  8
0
  6
Continuous
 62
     7
370
    50
100
AcDbLine
 10
263.8
 20
48.25
 30
0.0
 11
263.8
 21
65.25
 31
0.0
  0
LINE
  5
80
330
1F
100
AcDbEntity
  8
0
  6
Continuous
 62
     7
370
    50
100
AcDbLine
 10
274.3989261635
 20
48.25
 30
0.0
 11
274.3989261635
 21
10.0
 31
0.0
  0
LINE
  5
81
330
1F
100
AcDbEntity
  8
0
  6
Continuous
 62
     7
370
    50
100
AcDbLine
 10
295.0
 20
31.25
 30
0.0
 11
295.0
 21
48.25
 31
0.0
  0
LINE
  5
82
330
1F
100
AcDbEntity
  8
0
  6
Continuous
 62
     7
370
    50
100
AcDbLine
 10
284.6
 20
18.5
 30
0.0
 11
230.0
 21
18.5
 31
0.0
  0
LINE
  5
83
330
1F
100
AcDbEntity
  8
0
  6
Continuous
 62
     7
370
    50
100
AcDbLine
 10
310.6
 20
65.25
 30
0.0
 11
310.6
 21
27.0
 31
0.0
  0
LINE
  5
84
330
1F
100
AcDbEntity
  8
0
  6
Continuous
 62
     7
370
    50
100
AcDbLine
 10
284.6
 20
22.749928
 30
0.0
 11
230.0
 21
22.749928
 31
0.0
  0
LINE
  5
85
330
1F
100
AcDbEntity
  8
0
  6
Continuous
 62
     7
370
    50
100
AcDbLine
 10
284.6
 20
27.0
 30
0.0
 11
230.0
 21
27.0
 31
0.0
  0
LINE
  5
86
330
1F
100
AcDbEntity
  8
0
  6
Continuous
 62
     7
370
    50
100
AcDbLine
 10
284.6
 20
27.0
 30
0.0
 11
410.0
 21
27.0
 31
0.0
  0
LINE
  5
87
330
1F
100
AcDbEntity
  8
0
  6
Continuous
 62
     7
370
    50
100
AcDbLine
 10
328.8
 20
65.25
 30
0.0
 11
328.8
 21
10.0
 31
0.0
  0
LINE
  5
88
330
1F
100
AcDbEntity
  8
0
  6
Continuous
 62
     7
370
    50
100
AcDbLine
 10
373.0
 20
10.0
 30
0.0
 11
373.0
 21
14.25
 31
0.0
  0
LINE
  5
89
330
1F
100
AcDbEntity
  8
0
  6
Continuous
 62
     7
370
    50
100
AcDbLine
 10
380.8
 20
58.875
 30
0.0
 11
380.8
 21
65.25
 31
0.0
  0
LINE
  5
8A
330
1F
100
AcDbEntity
  8
0
  6
Continuous
 62
     7
370
    50
100
AcDbLine
 10
397.0
 20
14.25
 30
0.0
 11
397.0
 21
27.0
 31
0.0
  0
LINE
  5
8B
330
1F
100
AcDbEntity
  8
0
  6
Continuous
 62
     7
370
    50
100
AcDbLine
 10
410.0
 20
58.875
 30
0.0
 11
328.8
 21
58.875
 31
0.0
  0
LINE
  5
8C
330
1F
100
AcDbEntity
  8
0
  6
Continuous
 62
     7
370
    50
100
AcDbLine
 10
410.0
 20
18.5
 30
0.0
 11
397.0
 21
18.5
 31
0.0
  0
LINE
  5
8D
330
1F
100
AcDbEntity
  8
0
  6
Continuous
 62
     7
370
    70
100
AcDbLine
 10
20.0
 20
10.0
 30
0.0
 11
20.0
 21
287.0
 31
0.0
  0
LINE
  5
8E
330
1F
100
AcDbEntity
  8
0
  6
Continuous
 62
     7
370
    70
100
AcDbLine
 10
20.0
 20
287.0
 30
0.0
 11
410.0
 21
287.0
 31
0.0
  0
LINE
  5
8F
330
1F
100
AcDbEntity
  8
0
  6
Continuous
 62
     7
370
    70
100
AcDbLine
 10
410.0
 20
287.0
 30
0.0
 11
410.0
 21
10.0
 31
0.0
  0
LINE
  5
90
330
1F
100
AcDbEntity
  8
0
  6
Continuous
 62
     7
370
    70
100
AcDbLine
 10
410.0
 20
10.0
 30
0.0
 11
20.0
 21
10.0
 31
0.0
  0
LINE
  5
91
330
1F
100
AcDbEntity
  8
0
  6
Continuous
 62
     7
370
    70
100
AcDbLine
 10
15.0
 20
5.0
 30
0.0
 11
15.0
 21
292.0
 31
0.0
  0
LINE
  5
92
330
1F
100
AcDbEntity
  8
0
  6
Continuous
 62
     7
370
    70
100
AcDbLine
 10
15.0
 20
292.0
 30
0.0
 11
415.0
 21
292.0
 31
0.0
  0
LINE
  5
93
330
1F
100
AcDbEntity
  8
0
  6
Continuous
 62
     7
370
    70
100
AcDbLine
 10
415.0
 20
292.0
 30
0.0
 11
415.0
 21
5.0
 31
0.0
  0
LINE
  5
94
330
1F
100
AcDbEntity
  8
0
  6
Continuous
 62
     7
370
    70
100
AcDbLine
 10
415.0
 20
5.0
 30
0.0
 11
15.0
 21
5.0
 31
0.0
  0
LINE
  5
95
330
1F
100
AcDbEntity
  8
0
  6
Continuous
 62
     7
370
    35
100
AcDbLine
 10
15.0
 20
148.5
 30
0.0
 11
25.0
 21
148.5
 31
0.0
  0
LINE
  5
96
330
1F
100
AcDbEntity
  8
0
  6
Continuous
 62
     7
370
    35
100
AcDbLine
 10
215.0
 20
292.0
 30
0.0
 11
215.0
 21
282.0
 31
0.0
  0
LINE
  5
97
330
1F
100
AcDbEntity
  8
0
  6
Continuous
 62
     7
370
    35
100
AcDbLine
 10
415.0
 20
148.5
 30
0.0
 11
405.0
 21
148.5
 31
0.0
  0
LINE
  5
98
330
1F
100
AcDbEntity
  8
0
  6
Continuous
 62
     7
370
    35
100
AcDbLine
 10
215.0
 20
5.0
 30
0.0
 11
215.0
 21
15.0
 31
0.0
  0
LINE
  5
99
330
1F
100
AcDbEntity
  8
0
  6
Continuous
 62
     7
370
    35
100
AcDbLine
 10
20.0
 20
48.5
 30
0.0
 11
15.0
 21
48.5
 31
0.0
  0
LINE
  5
9A
330
1F
100
AcDbEntity
  8
0
  6
Continuous
 62
     7
370
    35
100
AcDbLine
 10
410.0
 20
48.5
 30
0.0
 11
415.0
 21
48.5
 31
0.0
  0
LINE
  5
9B
330
1F
100
AcDbEntity
  8
0
  6
Continuous
 62
     7
370
    35
100
AcDbLine
 10
20.0
 20
98.5
 30
0.0
 11
15.0
 21
98.5
 31
0.0
  0
LINE
  5
9C
330
1F
100
AcDbEntity
  8
0
  6
Continuous
 62
     7
370
    35
100
AcDbLine
 10
410.0
 20
98.5
 30
0.0
 11
415.0
 21
98.5
 31
0.0
  0
LINE
  5
9D
330
1F
100
AcDbEntity
  8
0
  6
Continuous
 62
     7
370
    35
100
AcDbLine
 10
20.0
 20
148.5
 30
0.0
 11
15.0
 21
148.5
 31
0.0
  0
LINE
  5
9E
330
1F
100
AcDbEntity
  8
0
  6
Continuous
 62
     7
370
    35
100
AcDbLine
 10
410.0
 20
148.5
 30
0.0
 11
415.0
 21
148.5
 31
0.0
  0
LINE
  5
9F
330
1F
100
AcDbEntity
  8
0
  6
Continuous
 62
     7
370
    35
100
AcDbLine
 10
20.0
 20
198.5
 30
0.0
 11
15.0
 21
198.5
 31
0.0
  0
LINE
  5
A0
330
1F
100
AcDbEntity
  8
0
  6
Continuous
 62
     7
370
    35
100
AcDbLine
 10
410.0
 20
198.5
 30
0.0
 11
415.0
 21
198.5
 31
0.0
  0
LINE
  5
A1
330
1F
100
AcDbEntity
  8
0
  6
Continuous
 62
     7
370
    35
100
AcDbLine
 10
20.0
 20
248.5
 30
0.0
 11
15.0
 21
248.5
 31
0.0
  0
LINE
  5
A2
330
1F
100
AcDbEntity
  8
0
  6
Continuous
 62
     7
370
    35
100
AcDbLine
 10
410.0
 20
248.5
 30
0.0
 11
415.0
 21
248.5
 31
0.0
  0
LINE
  5
A3
330
1F
100
AcDbEntity
  8
0
  6
Continuous
 62
     7
370
    35
100
AcDbLine
 10
65.0
 20
287.0
 30
0.0
 11
65.0
 21
292.0
 31
0.0
  0
LINE
  5
A4
330
1F
100
AcDbEntity
  8
0
  6
Continuous
 62
     7
370
    35
100
AcDbLine
 10
65.0
 20
10.0
 30
0.0
 11
65.0
 21
5.0
 31
0.0
  0
LINE
  5
A5
330
1F
100
AcDbEntity
  8
0
  6
Continuous
 62
     7
370
    35
100
AcDbLine
 10
115.0
 20
287.0
 30
0.0
 11
115.0
 21
292.0
 31
0.0
  0
LINE
  5
A6
330
1F
100
AcDbEntity
  8
0
  6
Continuous
 62
     7
370
    35
100
AcDbLine
 10
115.0
 20
10.0
 30
0.0
 11
115.0
 21
5.0
 31
0.0
  0
LINE
  5
A7
330
1F
100
AcDbEntity
  8
0
  6
Continuous
 62
     7
370
    35
100
AcDbLine
 10
165.0
 20
287.0
 30
0.0
 11
165.0
 21
292.0
 31
0.0
  0
LINE
  5
A8
330
1F
100
AcDbEntity
  8
0
  6
Continuous
 62
     7
370
    35
100
AcDbLine
 10
165.0
 20
10.0
 30
0.0
 11
165.0
 21
5.0
 31
0.0
  0
LINE
  5
A9
330
1F
100
AcDbEntity
  8
0
  6
Continuous
 62
     7
370
    35
100
AcDbLine
 10
215.0
 20
287.0
 30
0.0
 11
215.0
 21
292.0
 31
0.0
  0
LINE
  5
AA
330
1F
100
AcDbEntity
  8
0
  6
Continuous
 62
     7
370
    35
100
AcDbLine
 10
215.0
 20
10.0
 30
0.0
 11
215.0
 21
5.0
 31
0.0
  0
LINE
  5
AB
330
1F
100
AcDbEntity
  8
0
  6
Continuous
 62
     7
370
    35
100
AcDbLine
 10
265.0
 20
287.0
 30
0.0
 11
265.0
 21
292.0
 31
0.0
  0
LINE
  5
AC
330
1F
100
AcDbEntity
  8
0
  6
Continuous
 62
     7
370
    35
100
AcDbLine
 10
265.0
 20
10.0
 30
0.0
 11
265.0
 21
5.0
 31
0.0
  0
LINE
  5
AD
330
1F
100
AcDbEntity
  8
0
  6
Continuous
 62
     7
370
    35
100
AcDbLine
 10
315.0
 20
287.0
 30
0.0
 11
315.0
 21
292.0
 31
0.0
  0
LINE
  5
AE
330
1F
100
AcDbEntity
  8
0
  6
Continuous
 62
     7
370
    35
100
AcDbLine
 10
315.0
 20
10.0
 30
0.0
 11
315.0
 21
5.0
 31
0.0
  0
LINE
  5
AF
330
1F
100
AcDbEntity
  8
0
  6
Continuous
 62
     7
370
    35
100
AcDbLine
 10
365.0
 20
287.0
 30
0.0
 11
365.0
 21
292.0
 31
0.0
  0
LINE
  5
B0
330
1F
100
AcDbEntity
  8
0
  6
Continuous
 62
     7
370
    35
100
AcDbLine
 10
365.0
 20
10.0
 30
0.0
 11
365.0
 21
5.0
 31
0.0
  0
MTEXT
  5
B2
330
1F
100
AcDbEntity
  8
0
  6
Continuous
 62
     7
370
     0
100
AcDbMText
 10
17.3396881428
 20
31.1962239326
 30
0.0
 40
3.96875
 41
0.0
 71
     2
 72
     1
  1
A
  7
SLDTEXTSTYLE0
 73
     1
 44
1.0
  0
MTEXT
  5
B3
330
1F
100
AcDbEntity
  8
0
  6
Continuous
 62
     7
370
     0
100
AcDbMText
 10
412.3396881428
 20
31.1962239326
 30
0.0
 40
3.96875
 41
0.0
 71
     2
 72
     1
  1
A
  7
SLDTEXTSTYLE0
 73
     1
 44
1.0
  0
MTEXT
  5
B4
330
1F
100
AcDbEntity
  8
0
  6
Continuous
 62
     7
370
     0
100
AcDbMText
 10
17.4706018241
 20
75.4957779464
 30
0.0
 40
3.96875
 41
0.0
 71
     2
 72
     1
  1
B
  7
SLDTEXTSTYLE0
 73
     1
 44
1.0
  0
MTEXT
  5
B5
330
1F
100
AcDbEntity
  8
0
  6
Continuous
 62
     7
370
     0
100
AcDbMText
 10
412.4706018241
 20
75.4957779464
 30
0.0
 40
3.96875
 41
0.0
 71
     2
 72
     1
  1
B
  7
SLDTEXTSTYLE0
 73
     1
 44
1.0
  0
MTEXT
  5
B6
330
1F
100
AcDbEntity
  8
0
  6
Continuous
 62
     7
370
     0
100
AcDbMText
 10
17.458658902
 20
125.4462239326
 30
0.0
 40
3.96875
 41
0.0
 71
     2
 72
     1
  1
C
  7
SLDTEXTSTYLE0
 73
     1
 44
1.0
  0
MTEXT
  5
B7
330
1F
100
AcDbEntity
  8
0
  6
Continuous
 62
     7
370
     0
100
AcDbMText
 10
412.458658902
 20
125.4462239326
 30
0.0
 40
3.96875
 41
0.0
 71
     2
 72
     1
  1
C
  7
SLDTEXTSTYLE0
 73
     1
 44
1.0
  0
MTEXT
  5
B8
330
1F
100
AcDbEntity
  8
0
  6
Continuous
 62
     7
370
     0
100
AcDbMText
 10
17.4526872821
 20
175.4957779464
 30
0.0
 40
3.96875
 41
0.0
 71
     2
 72
     1
  1
D
  7
SLDTEXTSTYLE0
 73
     1
 44
1.0
  0
MTEXT
  5
B9
330
1F
100
AcDbEntity
  8
0
  6
Continuous
 62
     7
370
     0
100
AcDbMText
 10
412.4526872821
 20
175.4957779464
 30
0.0
 40
3.96875
 41
0.0
 71
     2
 72
     1
  1
D
  7
SLDTEXTSTYLE0
 73
     1
 44
1.0
  0
MTEXT
  5
BA
330
1F
100
AcDbEntity
  8
0
  6
Continuous
 62
     7
370
     0
100
AcDbMText
 10
17.5078089051
 20
225.4462239326
 30
0.0
 40
3.96875
 41
0.0
 71
     2
 72
     1
  1
E
  7
SLDTEXTSTYLE0
 73
     1
 44
1.0
  0
MTEXT
  5
BB
330
1F
100
AcDbEntity
  8
0
  6
Continuous
 62
     7
370
     0
100
AcDbMText
 10
412.5078089051
 20
225.4462239326
 30
0.0
 40
3.96875
 41
0.0
 71
     2
 72
     1
  1
E
  7
SLDTEXTSTYLE0
 73
     1
 44
1.0
  0
MTEXT
  5
BC
330
1F
100
AcDbEntity
  8
0
  6
Continuous
 62
     7
370
     0
100
AcDbMText
 10
17.4577402091
 20
269.7457779464
 30
0.0
 40
3.96875
 41
0.0
 71
     2
 72
     1
  1
F
  7
SLDTEXTSTYLE0
 73
     1
 44
1.0
  0
MTEXT
  5
BD
330
1F
100
AcDbEntity
  8
0
  6
Continuous
 62
     7
370
     0
100
AcDbMText
 10
412.4577402091
 20
269.7457779464
 30
0.0
 40
3.96875
 41
0.0
 71
     2
 72
     1
  1
F
  7
SLDTEXTSTYLE0
 73
     1
 44
1.0
  0
MTEXT
  5
BE
330
1F
100
AcDbEntity
  8
0
  6
Continuous
 62
     7
370
     0
100
AcDbMText
 10
42.4600369465
 20
9.4957779464
 30
0.0
 40
3.96875
 41
0.0
 71
     2
 72
     1
  1
8
  7
SLDTEXTSTYLE0
 73
     1
 44
1.0
  0
MTEXT
  5
BF
330
1F
100
AcDbEntity
  8
0
  6
Continuous
 62
     7
370
     0
100
AcDbMText
 10
42.4600369465
 20
291.4462239326
 30
0.0
 40
3.96875
 41
0.0
 71
     2
 72
     1
  1
8
  7
SLDTEXTSTYLE0
 73
     1
 44
1.0
  0
MTEXT
  5
C0
330
1F
100
AcDbEntity
  8
0
  6
Continuous
 62
     7
370
     0
100
AcDbMText
 10
89.9600369465
 20
9.4957779464
 30
0.0
 40
3.96875
 41
0.0
 71
     2
 72
     1
  1
7
  7
SLDTEXTSTYLE0
 73
     1
 44
1.0
  0
MTEXT
  5
C1
330
1F
100
AcDbEntity
  8
0
  6
Continuous
 62
     7
370
     0
100
AcDbMText
 10
89.9600369465
 20
291.4462239326
 30
0.0
 40
3.96875
 41
0.0
 71
     2
 72
     1
  1
7
  7
SLDTEXTSTYLE0
 73
     1
 44
1.0
  0
MTEXT
  5
C2
330
1F
100
AcDbEntity
  8
0
  6
Continuous
 62
     7
370
     0
100
AcDbMText
 10
139.9600369465
 20
9.4957779464
 30
0.0
 40
3.96875
 41
0.0
 71
     2
 72
     1
  1
6
  7
SLDTEXTSTYLE0
 73
     1
 44
1.0
  0
MTEXT
  5
C3
330
1F
100
AcDbEntity
  8
0
  6
Continuous
 62
     7
370
     0
100
AcDbMText
 10
139.9600369465
 20
291.4462239326
 30
0.0
 40
3.96875
 41
0.0
 71
     2
 72
     1
  1
6
  7
SLDTEXTSTYLE0
 73
     1
 44
1.0
  0
MTEXT
  5
C4
330
1F
100
AcDbEntity
  8
0
  6
Continuous
 62
     7
370
     0
100
AcDbMText
 10
189.9600369465
 20
9.4957779464
 30
0.0
 40
3.96875
 41
0.0
 71
     2
 72
     1
  1
5
  7
SLDTEXTSTYLE0
 73
     1
 44
1.0
  0
MTEXT
  5
C5
330
1F
100
AcDbEntity
  8
0
  6
Continuous
 62
     7
370
     0
100
AcDbMText
 10
189.9600369465
 20
291.4462239326
 30
0.0
 40
3.96875
 41
0.0
 71
     2
 72
     1
  1
5
  7
SLDTEXTSTYLE0
 73
     1
 44
1.0
  0
MTEXT
  5
C6
330
1F
100
AcDbEntity
  8
0
  6
Continuous
 62
     7
370
     0
100
AcDbMText
 10
239.9600369465
 20
9.4957779464
 30
0.0
 40
3.96875
 41
0.0
 71
     2
 72
     1
  1
4
  7
SLDTEXTSTYLE0
 73
     1
 44
1.0
  0
MTEXT
  5
C7
330
1F
100
AcDbEntity
  8
0
  6
Continuous
 62
     7
370
     0
100
AcDbMText
 10
239.9600369465
 20
291.4462239326
 30
0.0
 40
3.96875
 41
0.0
 71
     2
 72
     1
  1
4
  7
SLDTEXTSTYLE0
 73
     1
 44
1.0
  0
MTEXT
  5
C8
330
1F
100
AcDbEntity
  8
0
  6
Continuous
 62
     7
370
     0
100
AcDbMText
 10
289.9600369465
 20
9.4957779464
 30
0.0
 40
3.96875
 41
0.0
 71
     2
 72
     1
  1
3
  7
SLDTEXTSTYLE0
 73
     1
 44
1.0
  0
MTEXT
  5
C9
330
1F
100
AcDbEntity
  8
0
  6
Continuous
 62
     7
370
     0
100
AcDbMText
 10
289.9600369465
 20
291.4462239326
 30
0.0
 40
3.96875
 41
0.0
 71
     2
 72
     1
  1
3
  7
SLDTEXTSTYLE0
 73
     1
 44
1.0
  0
MTEXT
  5
CA
330
1F
100
AcDbEntity
  8
0
  6
Continuous
 62
     7
370
     0
100
AcDbMText
 10
339.9600369465
 20
9.4957779464
 30
0.0
 40
3.96875
 41
0.0
 71
     2
 72
     1
  1
2
  7
SLDTEXTSTYLE0
 73
     1
 44
1.0
  0
MTEXT
  5
CB
330
1F
100
AcDbEntity
  8
0
  6
Continuous
 62
     7
370
     0
100
AcDbMText
 10
339.9600369465
 20
291.4462239326
 30
0.0
 40
3.96875
 41
0.0
 71
     2
 72
     1
  1
2
  7
SLDTEXTSTYLE0
 73
     1
 44
1.0
  0
MTEXT
  5
CC
330
1F
100
AcDbEntity
  8
0
  6
Continuous
 62
     7
370
     0
100
AcDbMText
 10
387.4600369465
 20
9.4957779464
 30
0.0
 40
3.96875
 41
0.0
 71
     2
 72
     1
  1
1
  7
SLDTEXTSTYLE0
 73
     1
 44
1.0
  0
MTEXT
  5
CD
330
1F
100
AcDbEntity
  8
0
  6
Continuous
 62
     7
370
     0
100
AcDbMText
 10
387.4600369465
 20
291.4462239326
 30
0.0
 40
3.96875
 41
0.0
 71
     2
 72
     1
  1
1
  7
SLDTEXTSTYLE0
 73
     1
 44
1.0
  0
MTEXT
  5
CE
330
1F
100
AcDbEntity
  8
0
  6
Continuous
 62
     7
370
     0
100
AcDbMText
 10
364.7823601131
 20
23.347828666
 30
0.0
 40
4.2333333333
 41
0.0
 71
     2
 72
     1
  1
CR050036F3GGFN_#_#_##Svoboda
  7
SLDTEXTSTYLE0
 73
     1
 44
1.0
  0
MTEXT
  5
CF
330
1F
100
AcDbEntity
  8
0
  6
Continuous
 62
     7
370
     0
100
AcDbMText
 10
285.6178111281
 20
12.9493119036
 30
0.0
 40
1.4986
 41
0.0
 71
     1
 72
     1
  1
HMOTNOST:
  7
SLDTEXTSTYLE0
 73
     1
 44
1.0
  0
MTEXT
  5
D0
330
1F
100
AcDbEntity
  8
0
  6
Continuous
 62
     7
370
     0
100
AcDbMText
 10
400.8711564346
 20
24.406388569
 30
0.0
 40
2.9104166667
 41
0.0
 71
     1
 72
     1
  1
A3
  7
SLDTEXTSTYLE0
 73
     1
 44
1.0
  0
MTEXT
  5
D2
330
1F
100
AcDbEntity
  8
0
  6
Continuous
 62
     7
370
     0
100
AcDbMText
 10
374.4782944278
 20
12.9000872745
 30
0.0
 40
1.5
 41
0.0
 71
     1
 72
     1
  1
LIST 1 Z 1 LISTŮ
  7
SLDTEXTSTYLE1
 73
     1
 44
1.0
  0
MTEXT
  5
D4
330
1F
100
AcDbEntity
  8
0
  6
Continuous
 62
     7
370
     0
100
AcDbMText
 10
330.0739661175
 20
12.9000872745
 30
0.0
 40
1.5
 41
0.0
 71
     1
 72
     1
  1
MĚŘÍTKO:1:1
  7
SLDTEXTSTYLE2
 73
     1
 44
1.0
  0
MTEXT
  5
D5
330
1F
100
AcDbEntity
  8
0
  6
Continuous
 62
     7
370
     0
100
AcDbMText
 10
330.2786531243
 20
25.9860562892
 30
0.0
 40
1.5
 41
0.0
 71
     1
 72
     1
  1
Č. VÝKRESU
  7
SLDTEXTSTYLE2
 73
     1
 44
1.0
  0
MTEXT
  5
D6
330
1F
100
AcDbEntity
  8
0
  6
Continuous
 62
     7
370
     0
100
AcDbMText
 10
329.9561869366
 20
46.5761792212
 30
0.0
 40
1.5
 41
0.0
 71
     1
 72
     1
  1
NÁZEV:
  7
SLDTEXTSTYLE0
 73
     1
 44
1.0
  0
MTEXT
  5
D7
330
1F
100
AcDbEntity
  8
0
  6
Continuous
 62
     7
370
     0
100
AcDbMText
 10
383.3275816993
 20
62.3349086805
 30
0.0
 40
1.5
 41
0.0
 71
     1
 72
     1
  1
ZMĚNA
  7
SLDTEXTSTYLE2
 73
     1
 44
1.0
  0
MTEXT
  5
D8
330
1F
100
AcDbEntity
  8
0
  6
Continuous
 62
     7
370
     0
100
AcDbMText
 10
342.6146405229
 20
62.5329935751
 30
0.0
 40
1.5
 41
0.0
 71
     1
 72
     1
  1
NEUPRAVOVAT MĚŘÍTKO VÝKRESU
  7
SLDTEXTSTYLE2
 73
     1
 44
1.0
  0
MTEXT
  5
D9
330
1F
100
AcDbEntity
  8
0
  6
Continuous
 62
     7
370
     0
100
AcDbMText
 10
285.6458623088
 20
25.9860562892
 30
0.0
 40
1.5
 41
0.0
 71
     1
 72
     1
  1
MATERIÁL:
  7
SLDTEXTSTYLE0
 73
     1
 44
1.0
  0
MTEXT
  5
DA
330
1F
100
AcDbEntity
  8
0
  6
Continuous
 62
     7
370
     0
100
AcDbMText
 10
277.2147019657
 20
46.5761792212
 30
0.0
 40
1.5
 41
0.0
 71
     1
 72
     1
  1
DATUM
  7
SLDTEXTSTYLE0
 73
     1
 44
1.0
  0
MTEXT
  5
DB
330
1F
100
AcDbEntity
  8
0
  6
Continuous
 62
     7
370
     0
100
AcDbMText
 10
260.0335875632
 20
46.5617563795
 30
0.0
 40
1.5
 41
0.0
 71
     1
 72
     1
  1
PODPIS
  7
SLDTEXTSTYLE0
 73
     1
 44
1.0
  0
MTEXT
  5
DC
330
1F
100
AcDbEntity
  8
0
  6
Continuous
 62
     7
370
     0
100
AcDbMText
 10
244.3222392177
 20
46.5014826335
 30
0.0
 40
1.5
 41
0.0
 71
     1
 72
     1
  1
JMÉNO
  7
SLDTEXTSTYLE0
 73
     1
 44
1.0
  0
INSERT
  5
E2
330
1F
100
AcDbEntity
  8
0
  6
Continuous
 62
     7
370
     0
100
AcDbBlockReference
  2
SW_NOTE_0
 10
311.3092156863
 20
62.069489643
 30
0.0
  0
MTEXT
  5
E3
330
1F
100
AcDbEntity
  8
0
  6
Continuous
 62
     7
370
     0
100
AcDbMText
 10
264.3712921668
 20
63.9192719951
 30
0.0
 40
1.5
 41
0.0
 71
     1
 72
     1
  1
OPRACOVÁNÍ:
  7
SLDTEXTSTYLE0
 73
     1
 44
1.0
  0
INSERT
  5
ED
330
1F
100
AcDbEntity
  8
0
  6
Continuous
 62
     7
370
     0
100
AcDbBlockReference
  2
SW_NOTE_0_1
 10
230.5936687456
 20
61.9873698743
 30
0.0
  0
MTEXT
  5
EE
330
1F
100
AcDbEntity
  8
0
  6
Continuous
 62
     7
370
     0
100
AcDbMText
 10
230.6690428622
 20
25.3496492073
 30
0.0
 40
1.5
 41
0.0
 71
     1
 72
     1
  1
Z. JAKOSTI
  7
SLDTEXTSTYLE0
 73
     1
 44
1.0
  0
MTEXT
  5
EF
330
1F
100
AcDbEntity
  8
0
  6
Continuous
 62
     7
370
     0
100
AcDbMText
 10
230.4551864991
 20
29.7337046506
 30
0.0
 40
1.5
 41
0.0
 71
     1
 72
     1
  1
VÝROBA
  7
SLDTEXTSTYLE0
 73
     1
 44
1.0
  0
MTEXT
  5
F0
330
1F
100
AcDbEntity
  8
0
  6
Continuous
 62
     7
370
     0
100
AcDbMText
 10
230.4017224083
 20
34.0642960031
 30
0.0
 40
1.5
 41
0.0
 71
     1
 72
     1
  1
SCHVÁLIL
  7
SLDTEXTSTYLE0
 73
     1
 44
1.0
  0
MTEXT
  5
F1
330
1F
100
AcDbEntity
  8
0
  6
Continuous
 62
     7
370
     0
100
AcDbMText
 10
230.4104688676
 20
38.15440716
 30
0.0
 40
1.5
 41
0.0
 71
     1
 72
     1
  1
PŘEZKOUŠEL
  7
SLDTEXTSTYLE2
 73
     1
 44
1.0
  0
MTEXT
  5
F2
330
1F
100
AcDbEntity
  8
0
  6
Continuous
 62
     7
370
     0
100
AcDbMText
 10
230.2121492441
 20
42.4297148859
 30
0.0
 40
1.5
 41
0.0
 71
     1
 72
     1
  1
NAVRHL
  7
SLDTEXTSTYLE0
 73
     1
 44
1.0
  0
ARC
  5
F3
330
1F
100
AcDbEntity
  8
0
  6
Continuous
 62
     7
370
    25
100
AcDbCircle
 10
260.44
 20
233.06
 30
0.0
 40
0.5
100
AcDbArc
 50
0.0
 51
90.0
  0
ARC
  5
F4
330
1F
100
AcDbEntity
  8
0
  6
Continuous
 62
     7
370
    25
100
AcDbCircle
 10
260.44
 20
199.06
 30
0.0
 40
0.5
100
AcDbArc
 50
270.0
 51
0.0
  0
LINE
  5
F5
330
1F
100
AcDbEntity
  8
0
  6
Continuous
 62
     7
370
    25
100
AcDbLine
 10
260.44
 20
233.56
 30
0.0
 11
243.44
 21
233.56
 31
0.0
  0
LINE
  5
F6
330
1F
100
AcDbEntity
  8
0
  6
Continuous
 62
     7
370
    25
100
AcDbLine
 10
243.44
 20
198.56
 30
0.0
 11
260.44
 21
198.56
 31
0.0
  0
ARC
  5
F7
330
1F
100
AcDbEntity
  8
0
  6
Continuous
 62
     7
370
    25
100
AcDbCircle
 10
243.44
 20
233.06
 30
0.0
 40
0.5
100
AcDbArc
 50
90.0
 51
180.0
  0
ARC
  5
F8
330
1F
100
AcDbEntity
  8
0
  6
Continuous
 62
     7
370
    25
100
AcDbCircle
 10
243.44
 20
199.06
 30
0.0
 40
0.5
100
AcDbArc
 50
180.0
 51
270.0
  0
LINE
  5
F9
330
1F
100
AcDbEntity
  8
0
  6
Continuous
 62
     7
370
    25
100
AcDbLine
 10
224.94
 20
202.06
 30
0.0
 11
225.44
 21
202.56
 31
0.0
  0
LINE
  5
FA
330
1F
100
AcDbEntity
  8
0
  6
Continuous
 62
     7
370
    25
100
AcDbLine
 10
225.44
 20
229.56
 30
0.0
 11
224.94
 21
230.06
 31
0.0
  0
LINE
  5
FB
330
1F
100
AcDbEntity
  8
0
  6
Continuous
 62
     7
370
    25
100
AcDbLine
 10
242.94
 20
226.56
 30
0.0
 11
225.44
 21
226.56
 31
0.0
  0
LINE
  5
FC
330
1F
100
AcDbEntity
  8
0
  6
Continuous
 62
     7
370
    25
100
AcDbLine
 10
225.44
 20
205.56
 30
0.0
 11
242.94
 21
205.56
 31
0.0
  0
LINE
  5
FD
330
1F
100
AcDbEntity
  8
0
  6
Continuous
 62
     7
370
    25
100
AcDbLine
 10
57.94
 20
197.91
 30
0.0
 11
56.24
 21
197.91
 31
0.0
  0
LINE
  5
FE
330
1F
100
AcDbEntity
  8
0
  6
Continuous
 62
     7
370
    25
100
AcDbLine
 10
56.24
 20
182.91
 30
0.0
 11
57.94
 21
182.91
 31
0.0
  0
ARC
  5
FF
330
1F
100
AcDbEntity
  8
0
  6
Continuous
 62
     7
370
    25
100
AcDbCircle
 10
56.24
 20
183.21
 30
0.0
 40
0.3000000000000114
100
AcDbArc
 50
180.0
 51
270.0
  0
ARC
  5
100
330
1F
100
AcDbEntity
  8
0
  6
Continuous
 62
     7
370
    25
100
AcDbCircle
 10
56.24
 20
197.61
 30
0.0
 40
0.3000000000000114
100
AcDbArc
 50
90.0
 51
180.0
  0
LINE
  5
101
330
1F
100
AcDbEntity
  8
0
  6
Continuous
 62
     7
370
    25
100
AcDbLine
 10
57.94
 20
250.21
 30
0.0
 11
56.24
 21
250.21
 31
0.0
  0
LINE
  5
102
330
1F
100
AcDbEntity
  8
0
  6
Continuous
 62
     7
370
    25
100
AcDbLine
 10
56.24
 20
235.21
 30
0.0
 11
57.94
 21
235.21
 31
0.0
  0
ARC
  5
103
330
1F
100
AcDbEntity
  8
0
  6
Continuous
 62
     7
370
    25
100
AcDbCircle
 10
56.24
 20
235.51
 30
0.0
 40
0.3000000000000043
100
AcDbArc
 50
180.0
 51
270.0
  0
ARC
  5
104
330
1F
100
AcDbEntity
  8
0
  6
Continuous
 62
     7
370
    25
100
AcDbCircle
 10
56.24
 20
249.91
 30
0.0
 40
0.3000000000000043
100
AcDbArc
 50
90.0
 51
180.0
  0
LINE
  5
105
330
1F
100
AcDbEntity
  8
0
  6
Continuous
 62
     7
370
    25
100
AcDbLine
 10
108.94
 20
184.41
 30
0.0
 11
149.44
 21
184.41
 31
0.0
  0
LINE
  5
106
330
1F
100
AcDbEntity
  8
0
  6
Continuous
 62
     7
370
    25
100
AcDbLine
 10
149.44
 20
196.41
 30
0.0
 11
108.94
 21
196.41
 31
0.0
  0
LINE
  5
107
330
1F
100
AcDbEntity
  8
0
  6
Continuous
 62
     7
370
    25
100
AcDbLine
 10
149.44
 20
184.41
 30
0.0
 11
149.94
 21
184.91
 31
0.0
  0
LINE
  5
108
330
1F
100
AcDbEntity
  8
0
  6
Continuous
 62
     7
370
    25
100
AcDbLine
 10
149.94
 20
195.91
 30
0.0
 11
149.44
 21
196.41
 31
0.0
  0
LINE
  5
109
330
1F
100
AcDbEntity
  8
0
  6
Continuous
 62
     7
370
    25
100
AcDbLine
 10
149.44
 20
248.71
 30
0.0
 11
108.94
 21
248.71
 31
0.0
  0
LINE
  5
10A
330
1F
100
AcDbEntity
  8
0
  6
Continuous
 62
     7
370
    25
100
AcDbLine
 10
108.94
 20
236.71
 30
0.0
 11
149.44
 21
236.71
 31
0.0
  0
LINE
  5
10B
330
1F
100
AcDbEntity
  8
0
  6
Continuous
 62
     7
370
    25
100
AcDbLine
 10
149.44
 20
236.71
 30
0.0
 11
149.94
 21
237.21
 31
0.0
  0
LINE
  5
10C
330
1F
100
AcDbEntity
  8
0
  6
Continuous
 62
     7
370
    25
100
AcDbLine
 10
149.94
 20
248.21
 30
0.0
 11
149.44
 21
248.71
 31
0.0
  0
LINE
  5
10D
330
1F
100
AcDbEntity
  8
0
  6
Continuous
 62
     7
370
    25
100
AcDbLine
 10
223.44
 20
191.06
 30
0.0
 11
223.94
 21
191.56
 31
0.0
  0
LINE
  5
10E
330
1F
100
AcDbEntity
  8
0
  6
Continuous
 62
     7
370
    25
100
AcDbLine
 10
223.94
 20
240.56
 30
0.0
 11
223.44
 21
241.06
 31
0.0
  0
LINE
  5
10F
330
1F
100
AcDbEntity
  8
0
  6
Continuous
 62
     7
370
    25
100
AcDbLine
 10
214.94
 20
191.06
 30
0.0
 11
223.44
 21
191.06
 31
0.0
  0
LINE
  5
110
330
1F
100
AcDbEntity
  8
0
  6
Continuous
 62
     7
370
    25
100
AcDbLine
 10
223.44
 20
241.06
 30
0.0
 11
214.94
 21
241.06
 31
0.0
  0
LINE
  5
111
330
1F
100
AcDbEntity
  8
0
  6
Continuous
 62
     7
370
    25
100
AcDbLine
 10
149.94
 20
188.06
 30
0.0
 11
155.94
 21
188.06
 31
0.0
  0
LINE
  5
112
330
1F
100
AcDbEntity
  8
0
  6
Continuous
 62
     7
370
    25
100
AcDbLine
 10
155.94
 20
244.06
 30
0.0
 11
149.94
 21
244.06
 31
0.0
  0
ARC
  5
113
330
1F
100
AcDbEntity
  8
0
  6
Continuous
 62
     7
370
    25
100
AcDbCircle
 10
90.44
 20
216.56
 30
0.0
 40
6.499999999999996
100
AcDbArc
 50
184.4117257858
 51
355.5882742142
  0
LINE
  5
114
330
1F
100
AcDbEntity
  8
0
  6
Continuous
 62
     7
370
    25
100
AcDbLine
 10
96.9207406984
 20
216.06
 30
0.0
 11
97.4221200219
 21
216.06
 31
0.0
  0
ARC
  5
115
330
1F
100
AcDbEntity
  8
0
  6
Continuous
 62
     7
370
    25
100
AcDbCircle
 10
90.44
 20
216.56
 30
0.0
 40
7.000000000000013
100
AcDbArc
 50
184.0960437582
 51
355.9039562418
  0
LINE
  5
116
330
1F
100
AcDbEntity
  8
0
  6
Continuous
 62
     7
370
    25
100
AcDbLine
 10
83.4578799781
 20
216.06
 30
0.0
 11
83.9592593016
 21
216.06
 31
0.0
  0
ARC
  5
117
330
1F
100
AcDbEntity
  8
0
  6
Continuous
 62
     7
370
    25
100
AcDbCircle
 10
90.44
 20
216.56
 30
0.0
 40
6.499999999999996
100
AcDbArc
 50
4.4117257858
 51
175.5882742142
  0
LINE
  5
118
330
1F
100
AcDbEntity
  8
0
  6
Continuous
 62
     7
370
    25
100
AcDbLine
 10
96.9207406984
 20
217.06
 30
0.0
 11
83.9592593016
 21
217.06
 31
0.0
  0
LINE
  5
119
330
1F
100
AcDbEntity
  8
0
  6
Continuous
 62
     7
370
    25
100
AcDbLine
 10
83.9592593016
 20
217.06
 30
0.0
 11
83.4578799781
 21
217.06
 31
0.0
  0
ARC
  5
11A
330
1F
100
AcDbEntity
  8
0
  6
Continuous
 62
     7
370
    25
100
AcDbCircle
 10
90.44
 20
216.56
 30
0.0
 40
7.000000000000013
100
AcDbArc
 50
4.0960437582
 51
175.9039562418
  0
LINE
  5
11B
330
1F
100
AcDbEntity
  8
0
  6
Continuous
 62
     7
370
    25
100
AcDbLine
 10
97.4221200219
 20
217.06
 30
0.0
 11
96.9207406984
 21
217.06
 31
0.0
  0
LINE
  5
11C
330
1F
100
AcDbEntity
  8
0
  6
Continuous
 62
     7
370
    25
100
AcDbLine
 10
83.9592593016
 20
216.06
 30
0.0
 11
96.9207406984
 21
216.06
 31
0.0
  0
ARC
  5
11D
330
1F
100
AcDbEntity
  8
0
  6
Continuous
 62
     7
370
    25
100
AcDbCircle
 10
90.44
 20
216.56
 30
0.0
 40
8.500000000000014
100
AcDbArc
 50
120.0
 51
180.0
  0
SPLINE
  5
11E
330
1F
100
AcDbEntity
  8
0
  6
Continuous
 62
     7
370
    25
100
AcDbSpline
210
0.0
220
0.0
230
1.0
 70
    24
 71
     3
 72
    10
 73
     6
 74
     0
 42
0.000000001
 43
0.00000001
 40
0.0
 40
0.0
 40
0.0
 40
0.0
 40
0.338872364539013
 40
0.6646901103026059
 40
1.0
 40
1.0
 40
1.0
 40
1.0
 10
81.94000000000001
 20
221.4674772881118
 30
0.0
 10
81.94000000000001
 20
220.9425527800418
 30
0.0
 10
81.94
 20
219.9129258004436
 30
0.0
 10
81.94
 20
218.2629378843969
 30
0.0
 10
81.94
 20
217.133053402508
 30
0.0
 10
81.94
 20
216.56
 30
0.0
  0
SPLINE
  5
11F
330
1F
100
AcDbEntity
  8
0
  6
Continuous
 62
     7
370
    25
100
AcDbSpline
210
0.0
220
0.0
230
1.0
 70
    24
 71
     3
 72
    10
 73
     6
 74
     0
 42
0.000000001
 43
0.00000001
 40
0.0
 40
0.0
 40
0.0
 40
0.0
 40
0.2497057580813435
 40
0.5046223899004489
 40
1.0
 40
1.0
 40
1.0
 40
1.0
 10
86.19
 20
223.9212159321678
 30
0.0
 10
85.82064527522638
 20
223.7079688823933
 30
0.0
 10
85.07422811060668
 20
223.2770247314723
 30
0.0
 10
83.62338364584652
 20
222.4393792891908
 30
0.0
 10
82.60944642444078
 20
221.8539823614708
 30
0.0
 10
81.94
 20
221.4674772881118
 30
0.0
  0
ARC
  5
120
330
1F
100
AcDbEntity
  8
0
  6
Continuous
 62
     7
370
    25
100
AcDbCircle
 10
90.44
 20
216.56
 30
0.0
 40
8.500000000000002
100
AcDbArc
 50
300.0
 51
0.0
  0
SPLINE
  5
121
330
1F
100
AcDbEntity
  8
0
  6
Continuous
 62
     7
370
    25
100
AcDbSpline
210
0.0
220
0.0
230
1.0
 70
    24
 71
     3
 72
    10
 73
     6
 74
     0
 42
0.000000001
 43
0.00000001
 40
0.0
 40
0.0
 40
0.0
 40
0.0
 40
0.3388723645390124
 40
0.6646901103026058
 40
1.0
 40
1.0
 40
1.0
 40
1.0
 10
98.94
 20
211.6525227118882
 30
0.0
 10
98.94
 20
212.1774472199583
 30
0.0
 10
98.94
 20
213.2070741995565
 30
0.0
 10
98.94
 20
214.8570621156032
 30
0.0
 10
98.94
 20
215.9869465974921
 30
0.0
 10
98.94
 20
216.56
 30
0.0
  0
SPLINE
  5
122
330
1F
100
AcDbEntity
  8
0
  6
Continuous
 62
     7
370
    25
100
AcDbSpline
210
0.0
220
0.0
230
1.0
 70
    24
 71
     3
 72
    10
 73
     6
 74
     0
 42
0.000000001
 43
0.00000001
 40
0.0
 40
0.0
 40
0.0
 40
0.0
 40
0.2497057580813442
 40
0.5046223899004504
 40
1.0
 40
1.0
 40
1.0
 40
1.0
 10
94.69
 20
209.1987840678323
 30
0.0
 10
95.05935472477363
 20
209.4120311176068
 30
0.0
 10
95.80577188939334
 20
209.8429752685277
 30
0.0
 10
97.25661635415351
 20
210.6806207108093
 30
0.0
 10
98.27055357555922
 20
211.2660176385293
 30
0.0
 10
98.94
 20
211.6525227118882
 30
0.0
  0
ARC
  5
123
330
1F
100
AcDbEntity
  8
0
  6
Continuous
 62
     7
370
    25
100
AcDbCircle
 10
90.44
 20
216.56
 30
0.0
 40
8.500000000000002
100
AcDbArc
 50
0.0
 51
60.0
  0
SPLINE
  5
124
330
1F
100
AcDbEntity
  8
0
  6
Continuous
 62
     7
370
    25
100
AcDbSpline
210
0.0
220
0.0
230
1.0
 70
    24
 71
     3
 72
    10
 73
     6
 74
     0
 42
0.000000001
 43
0.00000001
 40
0.0
 40
0.0
 40
0.0
 40
0.0
 40
0.4323846487392499
 40
0.8795530568379594
 40
1.0
 40
1.0
 40
1.0
 40
1.0
 10
98.94
 20
221.4674772881119
 30
0.0
 10
98.35808458271688
 20
221.8034463109259
 30
0.0
 10
97.17435734914169
 20
222.4868715478776
 30
0.0
 10
95.7067820301337
 20
223.3341765533629
 30
0.0
 10
94.86799011569794
 20
223.8184532909565
 30
0.0
 10
94.69
 20
223.9212159321678
 30
0.0
  0
SPLINE
  5
125
330
1F
100
AcDbEntity
  8
0
  6
Continuous
 62
     7
370
    25
100
AcDbSpline
210
0.0
220
0.0
230
1.0
 70
    24
 71
     3
 72
    11
 73
     7
 74
     0
 42
0.000000001
 43
0.00000001
 40
0.0
 40
0.0
 40
0.0
 40
0.0
 40
0.0498563691383165
 40
0.3999064981623694
 40
0.7625185509028873
 40
1.0
 40
1.0
 40
1.0
 40
1.0
 10
98.94
 20
216.56
 30
0.0
 10
98.94
 20
216.6451270710775
 30
0.0
 10
98.94
 20
217.3279459261562
 30
0.0
 10
98.94
 20
218.6269663536545
 30
0.0
 10
98.94
 20
220.1755429509477
 30
0.0
 10
98.94
 20
221.1011692482336
 30
0.0
 10
98.94
 20
221.4674772881119
 30
0.0
  0
ARC
  5
126
330
1F
100
AcDbEntity
  8
0
  6
Continuous
 62
     7
370
    25
100
AcDbCircle
 10
90.44
 20
216.56
 30
0.0
 40
8.500000000000014
100
AcDbArc
 50
240.0
 51
300.0
  0
SPLINE
  5
127
330
1F
100
AcDbEntity
  8
0
  6
Continuous
 62
     7
370
    25
100
AcDbSpline
210
0.0
220
0.0
230
1.0
 70
    24
 71
     3
 72
    10
 73
     6
 74
     0
 42
0.000000001
 43
0.00000001
 40
0.0
 40
0.0
 40
0.0
 40
0.0
 40
0.2497057580813441
 40
0.504622389900451
 40
1.0
 40
1.0
 40
1.0
 40
1.0
 10
86.19
 20
209.1987840678323
 30
0.0
 10
86.55935472477364
 20
208.9855370180578
 30
0.0
 10
87.30577188939333
 20
208.5545928671368
 30
0.0
 10
88.7566163541535
 20
207.7169474248553
 30
0.0
 10
89.77055357555923
 20
207.1315504971353
 30
0.0
 10
90.44
 20
206.7450454237764
 30
0.0
  0
SPLINE
  5
128
330
1F
100
AcDbEntity
  8
0
  6
Continuous
 62
     7
370
    25
100
AcDbSpline
210
0.0
220
0.0
230
1.0
 70
    24
 71
     3
 72
    10
 73
     6
 74
     0
 42
0.000000001
 43
0.00000001
 40
0.0
 40
0.0
 40
0.0
 40
0.0
 40
0.4323846487392503
 40
0.8795530568379601
 40
0.9999999999999999
 40
0.9999999999999999
 40
0.9999999999999999
 40
0.9999999999999999
 10
90.44000000000001
 20
206.7450454237764
 30
0.0
 10
91.02191541728313
 20
207.0810144465904
 30
0.0
 10
92.20564265085832
 20
207.7644396835421
 30
0.0
 10
93.67321796986627
 20
208.6117446890274
 30
0.0
 10
94.51200988430207
 20
209.096021426621
 30
0.0
 10
94.69
 20
209.1987840678323
 30
0.0
  0
ARC
  5
129
330
1F
100
AcDbEntity
  8
0
  6
Continuous
 62
     7
370
    25
100
AcDbCircle
 10
90.44
 20
216.56
 30
0.0
 40
8.500000000000014
100
AcDbArc
 50
60.0
 51
120.0
  0
SPLINE
  5
12A
330
1F
100
AcDbEntity
  8
0
  6
Continuous
 62
     7
370
    25
100
AcDbSpline
210
0.0
220
0.0
230
1.0
 70
    24
 71
     3
 72
    10
 73
     6
 74
     0
 42
0.000000001
 43
0.00000001
 40
0.0
 40
0.0
 40
0.0
 40
0.0
 40
0.2497057580813442
 40
0.5046223899004505
 40
1.0
 40
1.0
 40
1.0
 40
1.0
 10
94.69
 20
223.9212159321678
 30
0.0
 10
94.32064527522638
 20
224.1344629819423
 30
0.0
 10
93.57422811060667
 20
224.5654071328632
 30
0.0
 10
92.1233836458465
 20
225.4030525751448
 30
0.0
 10
91.10944642444079
 20
225.9884495028648
 30
0.0
 10
90.44000000000001
 20
226.3749545762237
 30
0.0
  0
SPLINE
  5
12B
330
1F
100
AcDbEntity
  8
0
  6
Continuous
 62
     7
370
    25
100
AcDbSpline
210
0.0
220
0.0
230
1.0
 70
    24
 71
     3
 72
    10
 73
     6
 74
     0
 42
0.000000001
 43
0.00000001
 40
0.0
 40
0.0
 40
0.0
 40
0.0
 40
0.4323846487392496
 40
0.8795530568379583
 40
1.0
 40
1.0
 40
1.0
 40
1.0
 10
90.44000000000001
 20
226.3749545762237
 30
0.0
 10
89.85808458271688
 20
226.0389855534097
 30
0.0
 10
88.67435734914169
 20
225.3555603164579
 30
0.0
 10
87.20678203013372
 20
224.5082553109726
 30
0.0
 10
86.36799011569795
 20
224.0239785733791
 30
0.0
 10
86.19
 20
223.9212159321678
 30
0.0
  0
ARC
  5
12C
330
1F
100
AcDbEntity
  8
0
  6
Continuous
 62
     7
370
    25
100
AcDbCircle
 10
90.44
 20
216.56
 30
0.0
 40
8.500000000000014
100
AcDbArc
 50
180.0
 51
240.0
  0
SPLINE
  5
12D
330
1F
100
AcDbEntity
  8
0
  6
Continuous
 62
     7
370
    25
100
AcDbSpline
210
0.0
220
0.0
230
1.0
 70
    24
 71
     3
 72
    10
 73
     6
 74
     0
 42
0.000000001
 43
0.00000001
 40
0.0
 40
0.0
 40
0.0
 40
0.0
 40
0.4323846487392499
 40
0.8795530568379595
 40
0.9999999999999999
 40
0.9999999999999999
 40
0.9999999999999999
 40
0.9999999999999999
 10
81.94
 20
211.6525227118882
 30
0.0
 10
82.52191541728313
 20
211.3165536890742
 30
0.0
 10
83.70564265085834
 20
210.6331284521225
 30
0.0
 10
85.1732179698663
 20
209.7858234466372
 30
0.0
 10
86.01200988430207
 20
209.3015467090436
 30
0.0
 10
86.19
 20
209.1987840678323
 30
0.0
  0
SPLINE
  5
12E
330
1F
100
AcDbEntity
  8
0
  6
Continuous
 62
     7
370
    25
100
AcDbSpline
210
0.0
220
0.0
230
1.0
 70
    24
 71
     3
 72
    11
 73
     7
 74
     0
 42
0.000000001
 43
0.00000001
 40
0.0
 40
0.0
 40
0.0
 40
0.0
 40
0.049856369138317
 40
0.3999064981623696
 40
0.762518550902887
 40
1.0
 40
1.0
 40
1.0
 40
1.0
 10
81.94
 20
216.56
 30
0.0
 10
81.94
 20
216.4748729289226
 30
0.0
 10
81.94
 20
215.7920540738439
 30
0.0
 10
81.94000000000001
 20
214.4930336463456
 30
0.0
 10
81.94
 20
212.9444570490523
 30
0.0
 10
81.94
 20
212.0188307517665
 30
0.0
 10
81.94
 20
211.6525227118882
 30
0.0
  0
LINE
  5
12F
330
1F
100
AcDbEntity
  8
0
  6
Continuous
 62
     7
370
    25
100
AcDbLine
 10
97.44
 20
216.06
 30
0.0
 11
97.44
 21
217.06
 31
0.0
  0
LINE
  5
130
330
1F
100
AcDbEntity
  8
0
  6
Continuous
 62
     7
370
    25
100
AcDbLine
 10
83.44
 20
217.06
 30
0.0
 11
83.44
 21
216.06
 31
0.0
  0
LINE
  5
131
330
1F
100
AcDbEntity
  8
0
  6
Continuous
 62
     7
370
    25
100
AcDbLine
 10
83.4578799781
 20
217.06
 30
0.0
 11
83.44
 21
217.06
 31
0.0
  0
LINE
  5
132
330
1F
100
AcDbEntity
  8
0
  6
Continuous
 62
     7
370
    25
100
AcDbLine
 10
97.44
 20
217.06
 30
0.0
 11
97.4221200219
 21
217.06
 31
0.0
  0
LINE
  5
133
330
1F
100
AcDbEntity
  8
0
  6
Continuous
 62
     7
370
    25
100
AcDbLine
 10
97.4221200219
 20
216.06
 30
0.0
 11
97.44
 21
216.06
 31
0.0
  0
LINE
  5
134
330
1F
100
AcDbEntity
  8
0
  6
Continuous
 62
     7
370
    25
100
AcDbLine
 10
83.44
 20
216.06
 30
0.0
 11
83.4578799781
 21
216.06
 31
0.0
  0
ARC
  5
135
330
1F
100
AcDbEntity
  8
0
  6
Continuous
 62
     7
370
    25
100
AcDbCircle
 10
90.44
 20
216.56
 30
0.0
 40
12.00000000000001
100
AcDbArc
 50
180.0
 51
240.0
  0
SPLINE
  5
136
330
1F
100
AcDbEntity
  8
0
  6
Continuous
 62
     7
370
    25
100
AcDbSpline
210
0.0
220
0.0
230
1.0
 70
    24
 71
     3
 72
    11
 73
     7
 74
     0
 42
0.000000001
 43
0.00000001
 40
0.0
 40
0.0
 40
0.0
 40
0.0
 40
0.432049432943182
 40
0.6559250873348014
 40
0.8796491222701236
 40
1.0
 40
1.0
 40
1.0
 40
1.0
 10
78.44000000000001
 20
209.6317967697245
 30
0.0
 10
79.2618512771412
 20
209.1573007136332
 30
0.0
 10
80.50956237136211
 20
208.4369343775139
 30
0.0
 10
82.29279109955652
 20
207.4073867912642
 30
0.0
 10
83.46994795267173
 20
206.7277549652397
 30
0.0
 10
84.18862159304221
 20
206.3128285455123
 30
0.0
 10
84.44
 20
206.1676951545868
 30
0.0
  0
SPLINE
  5
137
330
1F
100
AcDbEntity
  8
0
  6
Continuous
 62
     7
370
    25
100
AcDbSpline
210
0.0
220
0.0
230
1.0
 70
    24
 71
     3
 72
    11
 73
     7
 74
     0
 42
0.000000001
 43
0.00000001
 40
0.0
 40
0.0
 40
0.0
 40
0.0
 40
0.0405778104788576
 40
0.394190623067553
 40
0.7608637224128542
 40
1.0
 40
1.0
 40
1.0
 40
1.0
 10
78.44000000000001
 20
216.56
 30
0.0
 10
78.44000000000001
 20
216.4621910391189
 30
0.0
 10
78.44000000000001
 20
215.5120319552178
 30
0.0
 10
78.44
 20
213.6806740368927
 30
0.0
 10
78.44000000000001
 20
211.4718092321129
 30
0.0
 10
78.44000000000001
 20
210.1525565708027
 30
0.0
 10
78.44000000000001
 20
209.6317967697245
 30
0.0
  0
ARC
  5
138
330
1F
100
AcDbEntity
  8
0
  6
Continuous
 62
     7
370
    25
100
AcDbCircle
 10
90.44
 20
216.56
 30
0.0
 40
12.00000000000001
100
AcDbArc
 50
240.0
 51
300.0
  0
SPLINE
  5
139
330
1F
100
AcDbEntity
  8
0
  6
Continuous
 62
     7
370
    25
100
AcDbSpline
210
0.0
220
0.0
230
1.0
 70
    24
 71
     3
 72
    11
 73
     7
 74
     0
 42
0.000000001
 43
0.00000001
 40
0.0
 40
0.0
 40
0.0
 40
0.0
 40
0.4320494329431813
 40
0.6559250873348006
 40
0.8796491222701223
 40
0.9999999999999999
 40
0.9999999999999999
 40
0.9999999999999999
 40
0.9999999999999999
 10
90.44000000000001
 20
202.703593539449
 30
0.0
 10
91.2618512771412
 20
203.1780895955403
 30
0.0
 10
92.50956237136211
 20
203.8984559316596
 30
0.0
 10
94.2927910995565
 20
204.9280035179094
 30
0.0
 10
95.46994795267172
 20
205.6076353439339
 30
0.0
 10
96.18862159304223
 20
206.0225617636612
 30
0.0
 10
96.44
 20
206.1676951545868
 30
0.0
  0
SPLINE
  5
13A
330
1F
100
AcDbEntity
  8
0
  6
Continuous
 62
     7
370
    25
100
AcDbSpline
210
0.0
220
0.0
230
1.0
 70
    24
 71
     3
 72
    11
 73
     7
 74
     0
 42
0.000000001
 43
0.00000001
 40
0.0
 40
0.0
 40
0.0
 40
0.0
 40
0.2495768535213329
 40
0.504361925821458
 40
0.7510458202383333
 40
0.9999999999999999
 40
0.9999999999999999
 40
0.9999999999999999
 40
0.9999999999999999
 10
84.44
 20
206.1676951545868
 30
0.0
 10
84.96173668909407
 20
205.8664703366922
 30
0.0
 10
86.01609777094295
 20
205.2577346822637
 30
0.0
 10
87.55076701231512
 20
204.3716929826404
 30
0.0
 10
89.03467802914177
 20
203.5149565576221
 30
0.0
 10
89.97013105266046
 20
202.9748725026793
 30
0.0
 10
90.44
 20
202.703593539449
 30
0.0
  0
ARC
  5
13B
330
1F
100
AcDbEntity
  8
0
  6
Continuous
 62
     7
370
    25
100
AcDbCircle
 10
90.44
 20
216.56
 30
0.0
 40
12.00000000000001
100
AcDbArc
 50
60.0
 51
120.0
  0
SPLINE
  5
13C
330
1F
100
AcDbEntity
  8
0
  6
Continuous
 62
     7
370
    25
100
AcDbSpline
210
0.0
220
0.0
230
1.0
 70
    24
 71
     3
 72
    11
 73
     7
 74
     0
 42
0.000000001
 43
0.00000001
 40
0.0
 40
0.0
 40
0.0
 40
0.0
 40
0.2495768535213329
 40
0.5043619258214572
 40
0.7510458202383327
 40
1.0
 40
1.0
 40
1.0
 40
1.0
 10
96.44
 20
226.9523048454133
 30
0.0
 10
95.91826331090594
 20
227.2535296633079
 30
0.0
 10
94.86390222905705
 20
227.8622653177364
 30
0.0
 10
93.32923298768489
 20
228.7483070173596
 30
0.0
 10
91.84532197085822
 20
229.605043442378
 30
0.0
 10
90.90986894733953
 20
230.1451274973207
 30
0.0
 10
90.44000000000001
 20
230.4164064605511
 30
0.0
  0
SPLINE
  5
13D
330
1F
100
AcDbEntity
  8
0
  6
Continuous
 62
     7
370
    25
100
AcDbSpline
210
0.0
220
0.0
230
1.0
 70
    24
 71
     3
 72
    11
 73
     7
 74
     0
 42
0.000000001
 43
0.00000001
 40
0.0
 40
0.0
 40
0.0
 40
0.0
 40
0.4320494329431815
 40
0.6559250873348004
 40
0.8796491222701219
 40
1.0
 40
1.0
 40
1.0
 40
1.0
 10
90.44000000000001
 20
230.4164064605511
 30
0.0
 10
89.61814872285879
 20
229.9419104044597
 30
0.0
 10
88.37043762863789
 20
229.2215440683404
 30
0.0
 10
86.5872089004435
 20
228.1919964820907
 30
0.0
 10
85.41005204732826
 20
227.5123646560662
 30
0.0
 10
84.69137840695778
 20
227.0974382363388
 30
0.0
 10
84.44
 20
226.9523048454133
 30
0.0
  0
ARC
  5
13E
330
1F
100
AcDbEntity
  8
0
  6
Continuous
 62
     7
370
    25
100
AcDbCircle
 10
90.44
 20
216.56
 30
0.0
 40
12.00000000000001
100
AcDbArc
 50
120.0
 51
180.0
  0
SPLINE
  5
13F
330
1F
100
AcDbEntity
  8
0
  6
Continuous
 62
     7
370
    25
100
AcDbSpline
210
0.0
220
0.0
230
1.0
 70
    24
 71
     3
 72
    10
 73
     6
 74
     0
 42
0.000000001
 43
0.00000001
 40
0.0
 40
0.0
 40
0.0
 40
0.0
 40
0.3224976220939141
 40
0.6562140891574922
 40
0.9999999999999999
 40
0.9999999999999999
 40
0.9999999999999999
 40
0.9999999999999999
 10
78.44000000000001
 20
223.4882032302756
 30
0.0
 10
78.44000000000001
 20
222.7834623642517
 30
0.0
 10
78.44000000000001
 20
221.3494645490516
 30
0.0
 10
78.44000000000001
 20
219.0241695726714
 30
0.0
 10
78.44000000000001
 20
217.3894883925961
 30
0.0
 10
78.44000000000001
 20
216.56
 30
0.0
  0
SPLINE
  5
140
330
1F
100
AcDbEntity
  8
0
  6
Continuous
 62
     7
370
    25
100
AcDbSpline
210
0.0
220
0.0
230
1.0
 70
    24
 71
     3
 72
    11
 73
     7
 74
     0
 42
0.000000001
 43
0.00000001
 40
0.0
 40
0.0
 40
0.0
 40
0.0
 40
0.2495768535213317
 40
0.5043619258214551
 40
0.7510458202383322
 40
1.0
 40
1.0
 40
1.0
 40
1.0
 10
84.44
 20
226.9523048454133
 30
0.0
 10
83.91826331090593
 20
226.6510800275187
 30
0.0
 10
82.86390222905708
 20
226.0423443730902
 30
0.0
 10
81.32923298768489
 20
225.1563026734669
 30
0.0
 10
79.84532197085822
 20
224.2995662484486
 30
0.0
 10
78.90986894733953
 20
223.7594821935058
 30
0.0
 10
78.44000000000001
 20
223.4882032302756
 30
0.0
  0
SPLINE
  5
141
330
1F
100
AcDbEntity
  8
0
  6
Continuous
 62
     7
370
    25
100
AcDbSpline
210
0.0
220
0.0
230
1.0
 70
    24
 71
     3
 72
    11
 73
     7
 74
     0
 42
0.000000001
 43
0.00000001
 40
0.0
 40
0.0
 40
0.0
 40
0.0
 40
0.0405778104788589
 40
0.3941906230675545
 40
0.7608637224128559
 40
1.0
 40
1.0
 40
1.0
 40
1.0
 10
102.44
 20
216.56
 30
0.0
 10
102.44
 20
216.6578089608811
 30
0.0
 10
102.44
 20
217.6079680447823
 30
0.0
 10
102.44
 20
219.4393259631074
 30
0.0
 10
102.44
 20
221.6481907678871
 30
0.0
 10
102.44
 20
222.9674434291973
 30
0.0
 10
102.44
 20
223.4882032302756
 30
0.0
  0
ARC
  5
142
330
1F
100
AcDbEntity
  8
0
  6
Continuous
 62
     7
370
    25
100
AcDbCircle
 10
90.44
 20
216.56
 30
0.0
 40
11.99999999999999
100
AcDbArc
 50
0.0
 51
60.0
  0
SPLINE
  5
143
330
1F
100
AcDbEntity
  8
0
  6
Continuous
 62
     7
370
    25
100
AcDbSpline
210
0.0
220
0.0
230
1.0
 70
    24
 71
     3
 72
    11
 73
     7
 74
     0
 42
0.000000001
 43
0.00000001
 40
0.0
 40
0.0
 40
0.0
 40
0.0
 40
0.4320494329431819
 40
0.6559250873348009
 40
0.8796491222701234
 40
1.0
 40
1.0
 40
1.0
 40
1.0
 10
102.44
 20
223.4882032302756
 30
0.0
 10
101.6181487228588
 20
223.9626992863669
 30
0.0
 10
100.3704376286379
 20
224.6830656224862
 30
0.0
 10
98.58720890044349
 20
225.7126132087359
 30
0.0
 10
97.41005204732828
 20
226.3922450347604
 30
0.0
 10
96.69137840695778
 20
226.8071714544878
 30
0.0
 10
96.44
 20
226.9523048454133
 30
0.0
  0
ARC
  5
144
330
1F
100
AcDbEntity
  8
0
  6
Continuous
 62
     7
370
    25
100
AcDbCircle
 10
90.44
 20
216.56
 30
0.0
 40
11.99999999999999
100
AcDbArc
 50
300.0
 51
0.0
  0
SPLINE
  5
145
330
1F
100
AcDbEntity
  8
0
  6
Continuous
 62
     7
370
    25
100
AcDbSpline
210
0.0
220
0.0
230
1.0
 70
    24
 71
     3
 72
    10
 73
     6
 74
     0
 42
0.000000001
 43
0.00000001
 40
0.0
 40
0.0
 40
0.0
 40
0.0
 40
0.3224976220939159
 40
0.6562140891574935
 40
1.0
 40
1.0
 40
1.0
 40
1.0
 10
102.44
 20
209.6317967697245
 30
0.0
 10
102.44
 20
210.3365376357484
 30
0.0
 10
102.44
 20
211.7705354509485
 30
0.0
 10
102.44
 20
214.0958304273287
 30
0.0
 10
102.44
 20
215.730511607404
 30
0.0
 10
102.44
 20
216.56
 30
0.0
  0
SPLINE
  5
146
330
1F
100
AcDbEntity
  8
0
  6
Continuous
 62
     7
370
    25
100
AcDbSpline
210
0.0
220
0.0
230
1.0
 70
    24
 71
     3
 72
    11
 73
     7
 74
     0
 42
0.000000001
 43
0.00000001
 40
0.0
 40
0.0
 40
0.0
 40
0.0
 40
0.2495768535213321
 40
0.5043619258214556
 40
0.7510458202383322
 40
0.9999999999999999
 40
0.9999999999999999
 40
0.9999999999999999
 40
0.9999999999999999
 10
96.44
 20
206.1676951545868
 30
0.0
 10
96.96173668909407
 20
206.4689199724813
 30
0.0
 10
98.01609777094295
 20
207.0776556269098
 30
0.0
 10
99.55076701231513
 20
207.9636973265331
 30
0.0
 10
101.0346780291418
 20
208.8204337515514
 30
0.0
 10
101.9701310526605
 20
209.3605178064942
 30
0.0
 10
102.44
 20
209.6317967697245
 30
0.0
  0
ARC
  5
147
330
1F
100
AcDbEntity
  8
0
  6
Continuous
 62
     7
370
    25
100
AcDbCircle
 10
185.94
 20
216.56
 30
0.0
 40
6.500000000000025
100
AcDbArc
 50
184.4117257858
 51
355.5882742142
  0
LINE
  5
148
330
1F
100
AcDbEntity
  8
0
  6
Continuous
 62
     7
370
    25
100
AcDbLine
 10
192.4207406984
 20
216.06
 30
0.0
 11
192.9221200219
 21
216.06
 31
0.0
  0
ARC
  5
149
330
1F
100
AcDbEntity
  8
0
  6
Continuous
 62
     7
370
    25
100
AcDbCircle
 10
185.94
 20
216.56
 30
0.0
 40
6.999999999999999
100
AcDbArc
 50
184.0960437582
 51
355.9039562418
  0
LINE
  5
14A
330
1F
100
AcDbEntity
  8
0
  6
Continuous
 62
     7
370
    25
100
AcDbLine
 10
178.9578799781
 20
216.06
 30
0.0
 11
179.4592593016
 21
216.06
 31
0.0
  0
LINE
  5
14B
330
1F
100
AcDbEntity
  8
0
  6
Continuous
 62
     7
370
    25
100
AcDbLine
 10
179.4592593016
 20
216.06
 30
0.0
 11
192.4207406984
 21
216.06
 31
0.0
  0
ARC
  5
14C
330
1F
100
AcDbEntity
  8
0
  6
Continuous
 62
     7
370
    25
100
AcDbCircle
 10
185.94
 20
216.56
 30
0.0
 40
6.500000000000025
100
AcDbArc
 50
4.4117257858
 51
175.5882742142
  0
ARC
  5
14D
330
1F
100
AcDbEntity
  8
0
  6
Continuous
 62
     7
370
    25
100
AcDbCircle
 10
185.94
 20
216.56
 30
0.0
 40
6.999999999999999
100
AcDbArc
 50
4.0960437582
 51
175.9039562418
  0
LINE
  5
14E
330
1F
100
AcDbEntity
  8
0
  6
Continuous
 62
     7
370
    25
100
AcDbLine
 10
179.4592593016
 20
217.06
 30
0.0
 11
178.9578799781
 21
217.06
 31
0.0
  0
LINE
  5
14F
330
1F
100
AcDbEntity
  8
0
  6
Continuous
 62
     7
370
    25
100
AcDbLine
 10
192.9221200219
 20
217.06
 30
0.0
 11
192.4207406984
 21
217.06
 31
0.0
  0
LINE
  5
150
330
1F
100
AcDbEntity
  8
0
  6
Continuous
 62
     7
370
    25
100
AcDbLine
 10
192.4207406984
 20
217.06
 30
0.0
 11
179.4592593016
 21
217.06
 31
0.0
  0
SPLINE
  5
151
330
1F
100
AcDbEntity
  8
0
  6
Continuous
 62
     7
370
    25
100
AcDbSpline
210
0.0
220
0.0
230
1.0
 70
    24
 71
     3
 72
    11
 73
     7
 74
     0
 42
0.000000001
 43
0.00000001
 40
0.0
 40
0.0
 40
0.0
 40
0.0
 40
0.0498563691383165
 40
0.3999064981623694
 40
0.7625185509028873
 40
1.0
 40
1.0
 40
1.0
 40
1.0
 10
194.44
 20
216.56
 30
0.0
 10
194.44
 20
216.6451270710775
 30
0.0
 10
194.44
 20
217.3279459261562
 30
0.0
 10
194.44
 20
218.6269663536545
 30
0.0
 10
194.44
 20
220.1755429509477
 30
0.0
 10
194.4399999999999
 20
221.1011692482336
 30
0.0
 10
194.44
 20
221.4674772881119
 30
0.0
  0
ARC
  5
152
330
1F
100
AcDbEntity
  8
0
  6
Continuous
 62
     7
370
    25
100
AcDbCircle
 10
185.94
 20
216.56
 30
0.0
 40
8.500000000000009
100
AcDbArc
 50
0.0
 51
60.0
  0
SPLINE
  5
153
330
1F
100
AcDbEntity
  8
0
  6
Continuous
 62
     7
370
    25
100
AcDbSpline
210
0.0
220
0.0
230
1.0
 70
    24
 71
     3
 72
    10
 73
     6
 74
     0
 42
0.000000001
 43
0.00000001
 40
0.0
 40
0.0
 40
0.0
 40
0.0
 40
0.4323846487392493
 40
0.8795530568379593
 40
1.0
 40
1.0
 40
1.0
 40
1.0
 10
194.44
 20
221.4674772881119
 30
0.0
 10
193.8580845827169
 20
221.8034463109259
 30
0.0
 10
192.6743573491417
 20
222.4868715478776
 30
0.0
 10
191.2067820301338
 20
223.3341765533629
 30
0.0
 10
190.3679901156979
 20
223.8184532909565
 30
0.0
 10
190.19
 20
223.9212159321678
 30
0.0
  0
ARC
  5
154
330
1F
100
AcDbEntity
  8
0
  6
Continuous
 62
     7
370
    25
100
AcDbCircle
 10
185.94
 20
216.56
 30
0.0
 40
8.500000000000009
100
AcDbArc
 50
120.0
 51
180.0
  0
SPLINE
  5
155
330
1F
100
AcDbEntity
  8
0
  6
Continuous
 62
     7
370
    25
100
AcDbSpline
210
0.0
220
0.0
230
1.0
 70
    24
 71
     3
 72
    10
 73
     6
 74
     0
 42
0.000000001
 43
0.00000001
 40
0.0
 40
0.0
 40
0.0
 40
0.0
 40
0.3388723645390129
 40
0.664690110302606
 40
0.9999999999999999
 40
0.9999999999999999
 40
0.9999999999999999
 40
0.9999999999999999
 10
177.44
 20
221.4674772881119
 30
0.0
 10
177.44
 20
220.9425527800418
 30
0.0
 10
177.44
 20
219.9129258004436
 30
0.0
 10
177.44
 20
218.2629378843969
 30
0.0
 10
177.44
 20
217.133053402508
 30
0.0
 10
177.44
 20
216.56
 30
0.0
  0
SPLINE
  5
156
330
1F
100
AcDbEntity
  8
0
  6
Continuous
 62
     7
370
    25
100
AcDbSpline
210
0.0
220
0.0
230
1.0
 70
    24
 71
     3
 72
    10
 73
     6
 74
     0
 42
0.000000001
 43
0.00000001
 40
0.0
 40
0.0
 40
0.0
 40
0.0
 40
0.2497057580813424
 40
0.5046223899004492
 40
1.0
 40
1.0
 40
1.0
 40
1.0
 10
181.69
 20
223.9212159321678
 30
0.0
 10
181.3206452752264
 20
223.7079688823933
 30
0.0
 10
180.5742281106067
 20
223.2770247314723
 30
0.0
 10
179.1233836458464
 20
222.4393792891908
 30
0.0
 10
178.1094464244408
 20
221.8539823614708
 30
0.0
 10
177.44
 20
221.4674772881119
 30
0.0
  0
ARC
  5
157
330
1F
100
AcDbEntity
  8
0
  6
Continuous
 62
     7
370
    25
100
AcDbCircle
 10
185.94
 20
216.56
 30
0.0
 40
8.500000000000009
100
AcDbArc
 50
60.0
 51
120.0
  0
SPLINE
  5
158
330
1F
100
AcDbEntity
  8
0
  6
Continuous
 62
     7
370
    25
100
AcDbSpline
210
0.0
220
0.0
230
1.0
 70
    24
 71
     3
 72
    10
 73
     6
 74
     0
 42
0.000000001
 43
0.00000001
 40
0.0
 40
0.0
 40
0.0
 40
0.0
 40
0.4323846487392483
 40
0.8795530568379571
 40
1.0
 40
1.0
 40
1.0
 40
1.0
 10
185.94
 20
226.3749545762237
 30
0.0
 10
185.3580845827169
 20
226.0389855534097
 30
0.0
 10
184.1743573491417
 20
225.3555603164579
 30
0.0
 10
182.7067820301338
 20
224.5082553109726
 30
0.0
 10
181.8679901156979
 20
224.0239785733791
 30
0.0
 10
181.69
 20
223.9212159321678
 30
0.0
  0
SPLINE
  5
159
330
1F
100
AcDbEntity
  8
0
  6
Continuous
 62
     7
370
    25
100
AcDbSpline
210
0.0
220
0.0
230
1.0
 70
    24
 71
     3
 72
    10
 73
     6
 74
     0
 42
0.000000001
 43
0.00000001
 40
0.0
 40
0.0
 40
0.0
 40
0.0
 40
0.2497057580813447
 40
0.5046223899004515
 40
1.0
 40
1.0
 40
1.0
 40
1.0
 10
190.19
 20
223.9212159321678
 30
0.0
 10
189.8206452752264
 20
224.1344629819423
 30
0.0
 10
189.0742281106067
 20
224.5654071328632
 30
0.0
 10
187.6233836458466
 20
225.4030525751448
 30
0.0
 10
186.6094464244408
 20
225.9884495028648
 30
0.0
 10
185.94
 20
226.3749545762237
 30
0.0
  0
ARC
  5
15A
330
1F
100
AcDbEntity
  8
0
  6
Continuous
 62
     7
370
    25
100
AcDbCircle
 10
185.94
 20
216.56
 30
0.0
 40
8.500000000000009
100
AcDbArc
 50
240.0
 51
300.0
  0
ARC
  5
15B
330
1F
100
AcDbEntity
  8
0
  6
Continuous
 62
     7
370
    25
100
AcDbCircle
 10
185.94
 20
216.56
 30
0.0
 40
8.5
100
AcDbArc
 50
180.0
 51
240.0
  0
ARC
  5
15C
330
1F
100
AcDbEntity
  8
0
  6
Continuous
 62
     7
370
    25
100
AcDbCircle
 10
185.94
 20
216.56
 30
0.0
 40
8.500000000000009
100
AcDbArc
 50
300.0
 51
0.0
  0
LINE
  5
15D
330
1F
100
AcDbEntity
  8
0
  6
Continuous
 62
     7
370
    25
100
AcDbLine
 10
178.94
 20
217.06
 30
0.0
 11
178.94
 21
216.06
 31
0.0
  0
LINE
  5
15E
330
1F
100
AcDbEntity
  8
0
  6
Continuous
 62
     7
370
    25
100
AcDbLine
 10
192.94
 20
216.06
 30
0.0
 11
192.94
 21
217.06
 31
0.0
  0
LINE
  5
15F
330
1F
100
AcDbEntity
  8
0
  6
Continuous
 62
     7
370
    25
100
AcDbLine
 10
192.9221200219
 20
216.06
 30
0.0
 11
192.94
 21
216.06
 31
0.0
  0
LINE
  5
160
330
1F
100
AcDbEntity
  8
0
  6
Continuous
 62
     7
370
    25
100
AcDbLine
 10
178.94
 20
216.06
 30
0.0
 11
178.9578799781
 21
216.06
 31
0.0
  0
LINE
  5
161
330
1F
100
AcDbEntity
  8
0
  6
Continuous
 62
     7
370
    25
100
AcDbLine
 10
178.9578799781
 20
217.06
 30
0.0
 11
178.94
 21
217.06
 31
0.0
  0
LINE
  5
162
330
1F
100
AcDbEntity
  8
0
  6
Continuous
 62
     7
370
    25
100
AcDbLine
 10
192.94
 20
217.06
 30
0.0
 11
192.9221200219
 21
217.06
 31
0.0
  0
SPLINE
  5
163
330
1F
100
AcDbEntity
  8
0
  6
Continuous
 62
     7
370
    25
100
AcDbSpline
210
0.0
220
0.0
230
1.0
 70
    24
 71
     3
 72
    10
 73
     6
 74
     0
 42
0.000000001
 43
0.00000001
 40
0.0
 40
0.0
 40
0.0
 40
0.0
 40
0.2497057580813426
 40
0.5046223899004496
 40
1.0
 40
1.0
 40
1.0
 40
1.0
 10
190.19
 20
209.1987840678323
 30
0.0
 10
190.5593547247736
 20
209.4120311176068
 30
0.0
 10
191.3057718893933
 20
209.8429752685278
 30
0.0
 10
192.7566163541535
 20
210.6806207108093
 30
0.0
 10
193.7705535755592
 20
211.2660176385293
 30
0.0
 10
194.44
 20
211.6525227118882
 30
0.0
  0
SPLINE
  5
164
330
1F
100
AcDbEntity
  8
0
  6
Continuous
 62
     7
370
    25
100
AcDbSpline
210
0.0
220
0.0
230
1.0
 70
    24
 71
     3
 72
    10
 73
     6
 74
     0
 42
0.000000001
 43
0.00000001
 40
0.0
 40
0.0
 40
0.0
 40
0.0
 40
0.3388723645390124
 40
0.6646901103026058
 40
1.0
 40
1.0
 40
1.0
 40
1.0
 10
194.44
 20
211.6525227118882
 30
0.0
 10
194.44
 20
212.1774472199583
 30
0.0
 10
194.44
 20
213.2070741995565
 30
0.0
 10
194.44
 20
214.8570621156032
 30
0.0
 10
194.44
 20
215.9869465974921
 30
0.0
 10
194.44
 20
216.56
 30
0.0
  0
SPLINE
  5
165
330
1F
100
AcDbEntity
  8
0
  6
Continuous
 62
     7
370
    25
100
AcDbSpline
210
0.0
220
0.0
230
1.0
 70
    24
 71
     3
 72
    10
 73
     6
 74
     0
 42
0.000000001
 43
0.00000001
 40
0.0
 40
0.0
 40
0.0
 40
0.0
 40
0.4323846487392503
 40
0.8795530568379597
 40
1.0
 40
1.0
 40
1.0
 40
1.0
 10
177.44
 20
211.6525227118882
 30
0.0
 10
178.0219154172831
 20
211.3165536890742
 30
0.0
 10
179.2056426508583
 20
210.6331284521225
 30
0.0
 10
180.6732179698663
 20
209.7858234466372
 30
0.0
 10
181.512009884302
 20
209.3015467090436
 30
0.0
 10
181.69
 20
209.1987840678323
 30
0.0
  0
SPLINE
  5
166
330
1F
100
AcDbEntity
  8
0
  6
Continuous
 62
     7
370
    25
100
AcDbSpline
210
0.0
220
0.0
230
1.0
 70
    24
 71
     3
 72
    11
 73
     7
 74
     0
 42
0.000000001
 43
0.00000001
 40
0.0
 40
0.0
 40
0.0
 40
0.0
 40
0.049856369138317
 40
0.3999064981623696
 40
0.762518550902887
 40
1.0
 40
1.0
 40
1.0
 40
1.0
 10
177.44
 20
216.56
 30
0.0
 10
177.44
 20
216.4748729289226
 30
0.0
 10
177.4399999999999
 20
215.7920540738439
 30
0.0
 10
177.44
 20
214.4930336463456
 30
0.0
 10
177.44
 20
212.9444570490523
 30
0.0
 10
177.44
 20
212.0188307517665
 30
0.0
 10
177.44
 20
211.6525227118882
 30
0.0
  0
SPLINE
  5
167
330
1F
100
AcDbEntity
  8
0
  6
Continuous
 62
     7
370
    25
100
AcDbSpline
210
0.0
220
0.0
230
1.0
 70
    24
 71
     3
 72
    10
 73
     6
 74
     0
 42
0.000000001
 43
0.00000001
 40
0.0
 40
0.0
 40
0.0
 40
0.0
 40
0.4323846487392506
 40
0.8795530568379598
 40
1.0
 40
1.0
 40
1.0
 40
1.0
 10
185.94
 20
206.7450454237764
 30
0.0
 10
186.5219154172831
 20
207.0810144465904
 30
0.0
 10
187.7056426508584
 20
207.7644396835421
 30
0.0
 10
189.1732179698663
 20
208.6117446890274
 30
0.0
 10
190.012009884302
 20
209.096021426621
 30
0.0
 10
190.19
 20
209.1987840678323
 30
0.0
  0
SPLINE
  5
168
330
1F
100
AcDbEntity
  8
0
  6
Continuous
 62
     7
370
    25
100
AcDbSpline
210
0.0
220
0.0
230
1.0
 70
    24
 71
     3
 72
    10
 73
     6
 74
     0
 42
0.000000001
 43
0.00000001
 40
0.0
 40
0.0
 40
0.0
 40
0.0
 40
0.249705758081345
 40
0.5046223899004522
 40
1.0
 40
1.0
 40
1.0
 40
1.0
 10
181.69
 20
209.1987840678323
 30
0.0
 10
182.0593547247736
 20
208.9855370180578
 30
0.0
 10
182.8057718893934
 20
208.5545928671368
 30
0.0
 10
184.2566163541535
 20
207.7169474248553
 30
0.0
 10
185.2705535755592
 20
207.1315504971353
 30
0.0
 10
185.94
 20
206.7450454237764
 30
0.0
  0
ARC
  5
169
330
1F
100
AcDbEntity
  8
0
  6
Continuous
 62
     7
370
    25
100
AcDbCircle
 10
185.94
 20
216.56
 30
0.0
 40
12.0
100
AcDbArc
 50
60.0
 51
120.0
  0
SPLINE
  5
16A
330
1F
100
AcDbEntity
  8
0
  6
Continuous
 62
     7
370
    25
100
AcDbSpline
210
0.0
220
0.0
230
1.0
 70
    24
 71
     3
 72
    11
 73
     7
 74
     0
 42
0.000000001
 43
0.00000001
 40
0.0
 40
0.0
 40
0.0
 40
0.0
 40
0.4320494329431809
 40
0.6559250873348001
 40
0.8796491222701209
 40
1.0
 40
1.0
 40
1.0
 40
1.0
 10
185.94
 20
230.4164064605511
 30
0.0
 10
185.1181487228588
 20
229.9419104044597
 30
0.0
 10
183.8704376286379
 20
229.2215440683404
 30
0.0
 10
182.0872089004435
 20
228.1919964820907
 30
0.0
 10
180.9100520473283
 20
227.5123646560662
 30
0.0
 10
180.1913784069578
 20
227.0974382363388
 30
0.0
 10
179.94
 20
226.9523048454133
 30
0.0
  0
SPLINE
  5
16B
330
1F
100
AcDbEntity
  8
0
  6
Continuous
 62
     7
370
    25
100
AcDbSpline
210
0.0
220
0.0
230
1.0
 70
    24
 71
     3
 72
    11
 73
     7
 74
     0
 42
0.000000001
 43
0.00000001
 40
0.0
 40
0.0
 40
0.0
 40
0.0
 40
0.2495768535213327
 40
0.5043619258214574
 40
0.7510458202383332
 40
1.0
 40
1.0
 40
1.0
 40
1.0
 10
191.94
 20
226.9523048454133
 30
0.0
 10
191.418263310906
 20
227.2535296633079
 30
0.0
 10
190.3639022290571
 20
227.8622653177364
 30
0.0
 10
188.8292329876849
 20
228.7483070173597
 30
0.0
 10
187.3453219708582
 20
229.605043442378
 30
0.0
 10
186.4098689473395
 20
230.1451274973207
 30
0.0
 10
185.94
 20
230.4164064605511
 30
0.0
  0
ARC
  5
16C
330
1F
100
AcDbEntity
  8
0
  6
Continuous
 62
     7
370
    25
100
AcDbCircle
 10
185.94
 20
216.56
 30
0.0
 40
12.0
100
AcDbArc
 50
120.0
 51
180.0
  0
SPLINE
  5
16D
330
1F
100
AcDbEntity
  8
0
  6
Continuous
 62
     7
370
    25
100
AcDbSpline
210
0.0
220
0.0
230
1.0
 70
    24
 71
     3
 72
    10
 73
     6
 74
     0
 42
0.000000001
 43
0.00000001
 40
0.0
 40
0.0
 40
0.0
 40
0.0
 40
0.3224976220939141
 40
0.6562140891574922
 40
0.9999999999999999
 40
0.9999999999999999
 40
0.9999999999999999
 40
0.9999999999999999
 10
173.94
 20
223.4882032302756
 30
0.0
 10
173.94
 20
222.7834623642517
 30
0.0
 10
173.94
 20
221.3494645490516
 30
0.0
 10
173.94
 20
219.0241695726714
 30
0.0
 10
173.94
 20
217.3894883925961
 30
0.0
 10
173.94
 20
216.56
 30
0.0
  0
SPLINE
  5
16E
330
1F
100
AcDbEntity
  8
0
  6
Continuous
 62
     7
370
    25
100
AcDbSpline
210
0.0
220
0.0
230
1.0
 70
    24
 71
     3
 72
    11
 73
     7
 74
     0
 42
0.000000001
 43
0.00000001
 40
0.0
 40
0.0
 40
0.0
 40
0.0
 40
0.2495768535213315
 40
0.5043619258214546
 40
0.751045820238333
 40
1.0
 40
1.0
 40
1.0
 40
1.0
 10
179.94
 20
226.9523048454133
 30
0.0
 10
179.4182633109059
 20
226.6510800275187
 30
0.0
 10
178.363902229057
 20
226.0423443730902
 30
0.0
 10
176.8292329876849
 20
225.1563026734669
 30
0.0
 10
175.3453219708582
 20
224.2995662484486
 30
0.0
 10
174.4098689473395
 20
223.7594821935058
 30
0.0
 10
173.94
 20
223.4882032302756
 30
0.0
  0
ARC
  5
16F
330
1F
100
AcDbEntity
  8
0
  6
Continuous
 62
     7
370
    25
100
AcDbCircle
 10
185.94
 20
216.56
 30
0.0
 40
12.0
100
AcDbArc
 50
180.0
 51
240.0
  0
SPLINE
  5
170
330
1F
100
AcDbEntity
  8
0
  6
Continuous
 62
     7
370
    25
100
AcDbSpline
210
0.0
220
0.0
230
1.0
 70
    24
 71
     3
 72
    11
 73
     7
 74
     0
 42
0.000000001
 43
0.00000001
 40
0.0
 40
0.0
 40
0.0
 40
0.0
 40
0.4320494329431817
 40
0.6559250873348014
 40
0.8796491222701243
 40
0.9999999999999999
 40
0.9999999999999999
 40
0.9999999999999999
 40
0.9999999999999999
 10
173.94
 20
209.6317967697245
 30
0.0
 10
174.7618512771412
 20
209.1573007136332
 30
0.0
 10
176.0095623713621
 20
208.4369343775139
 30
0.0
 10
177.7927910995565
 20
207.4073867912642
 30
0.0
 10
178.9699479526717
 20
206.7277549652397
 30
0.0
 10
179.6886215930422
 20
206.3128285455123
 30
0.0
 10
179.94
 20
206.1676951545868
 30
0.0
  0
SPLINE
  5
171
330
1F
100
AcDbEntity
  8
0
  6
Continuous
 62
     7
370
    25
100
AcDbSpline
210
0.0
220
0.0
230
1.0
 70
    24
 71
     3
 72
    11
 73
     7
 74
     0
 42
0.000000001
 43
0.00000001
 40
0.0
 40
0.0
 40
0.0
 40
0.0
 40
0.0405778104788576
 40
0.394190623067553
 40
0.7608637224128542
 40
1.0
 40
1.0
 40
1.0
 40
1.0
 10
173.94
 20
216.56
 30
0.0
 10
173.94
 20
216.4621910391189
 30
0.0
 10
173.94
 20
215.5120319552178
 30
0.0
 10
173.94
 20
213.6806740368927
 30
0.0
 10
173.94
 20
211.4718092321129
 30
0.0
 10
173.94
 20
210.1525565708027
 30
0.0
 10
173.94
 20
209.6317967697245
 30
0.0
  0
ARC
  5
172
330
1F
100
AcDbEntity
  8
0
  6
Continuous
 62
     7
370
    25
100
AcDbCircle
 10
185.94
 20
216.56
 30
0.0
 40
12.0
100
AcDbArc
 50
240.0
 51
300.0
  0
SPLINE
  5
173
330
1F
100
AcDbEntity
  8
0
  6
Continuous
 62
     7
370
    25
100
AcDbSpline
210
0.0
220
0.0
230
1.0
 70
    24
 71
     3
 72
    11
 73
     7
 74
     0
 42
0.000000001
 43
0.00000001
 40
0.0
 40
0.0
 40
0.0
 40
0.0
 40
0.4320494329431808
 40
0.6559250873348003
 40
0.8796491222701212
 40
1.0
 40
1.0
 40
1.0
 40
1.0
 10
185.94
 20
202.703593539449
 30
0.0
 10
186.7618512771412
 20
203.1780895955403
 30
0.0
 10
188.0095623713621
 20
203.8984559316597
 30
0.0
 10
189.7927910995566
 20
204.9280035179094
 30
0.0
 10
190.9699479526717
 20
205.6076353439339
 30
0.0
 10
191.6886215930422
 20
206.0225617636612
 30
0.0
 10
191.94
 20
206.1676951545868
 30
0.0
  0
SPLINE
  5
174
330
1F
100
AcDbEntity
  8
0
  6
Continuous
 62
     7
370
    25
100
AcDbSpline
210
0.0
220
0.0
230
1.0
 70
    24
 71
     3
 72
    11
 73
     7
 74
     0
 42
0.000000001
 43
0.00000001
 40
0.0
 40
0.0
 40
0.0
 40
0.0
 40
0.2495768535213329
 40
0.5043619258214579
 40
0.7510458202383338
 40
1.0
 40
1.0
 40
1.0
 40
1.0
 10
179.94
 20
206.1676951545868
 30
0.0
 10
180.461736689094
 20
205.8664703366922
 30
0.0
 10
181.516097770943
 20
205.2577346822637
 30
0.0
 10
183.0507670123151
 20
204.3716929826404
 30
0.0
 10
184.5346780291418
 20
203.5149565576221
 30
0.0
 10
185.4701310526604
 20
202.9748725026793
 30
0.0
 10
185.94
 20
202.703593539449
 30
0.0
  0
ARC
  5
175
330
1F
100
AcDbEntity
  8
0
  6
Continuous
 62
     7
370
    25
100
AcDbCircle
 10
185.94
 20
216.56
 30
0.0
 40
12.0
100
AcDbArc
 50
300.0
 51
0.0
  0
SPLINE
  5
176
330
1F
100
AcDbEntity
  8
0
  6
Continuous
 62
     7
370
    25
100
AcDbSpline
210
0.0
220
0.0
230
1.0
 70
    24
 71
     3
 72
    10
 73
     6
 74
     0
 42
0.000000001
 43
0.00000001
 40
0.0
 40
0.0
 40
0.0
 40
0.0
 40
0.3224976220939159
 40
0.6562140891574935
 40
1.0
 40
1.0
 40
1.0
 40
1.0
 10
197.94
 20
209.6317967697245
 30
0.0
 10
197.94
 20
210.3365376357484
 30
0.0
 10
197.94
 20
211.7705354509485
 30
0.0
 10
197.94
 20
214.0958304273287
 30
0.0
 10
197.94
 20
215.730511607404
 30
0.0
 10
197.94
 20
216.56
 30
0.0
  0
SPLINE
  5
177
330
1F
100
AcDbEntity
  8
0
  6
Continuous
 62
     7
370
    25
100
AcDbSpline
210
0.0
220
0.0
230
1.0
 70
    24
 71
     3
 72
    11
 73
     7
 74
     0
 42
0.000000001
 43
0.00000001
 40
0.0
 40
0.0
 40
0.0
 40
0.0
 40
0.2495768535213311
 40
0.5043619258214538
 40
0.7510458202383316
 40
1.0
 40
1.0
 40
1.0
 40
1.0
 10
191.94
 20
206.1676951545868
 30
0.0
 10
192.4617366890941
 20
206.4689199724813
 30
0.0
 10
193.5160977709429
 20
207.0776556269099
 30
0.0
 10
195.0507670123151
 20
207.9636973265331
 30
0.0
 10
196.5346780291418
 20
208.8204337515514
 30
0.0
 10
197.4701310526604
 20
209.3605178064942
 30
0.0
 10
197.94
 20
209.6317967697245
 30
0.0
  0
ARC
  5
178
330
1F
100
AcDbEntity
  8
0
  6
Continuous
 62
     7
370
    25
100
AcDbCircle
 10
185.94
 20
216.56
 30
0.0
 40
12.0
100
AcDbArc
 50
0.0
 51
60.0
  0
SPLINE
  5
179
330
1F
100
AcDbEntity
  8
0
  6
Continuous
 62
     7
370
    25
100
AcDbSpline
210
0.0
220
0.0
230
1.0
 70
    24
 71
     3
 72
    11
 73
     7
 74
     0
 42
0.000000001
 43
0.00000001
 40
0.0
 40
0.0
 40
0.0
 40
0.0
 40
0.0405778104788589
 40
0.3941906230675545
 40
0.7608637224128559
 40
1.0
 40
1.0
 40
1.0
 40
1.0
 10
197.94
 20
216.56
 30
0.0
 10
197.94
 20
216.6578089608811
 30
0.0
 10
197.94
 20
217.6079680447823
 30
0.0
 10
197.94
 20
219.4393259631074
 30
0.0
 10
197.94
 20
221.6481907678871
 30
0.0
 10
197.94
 20
222.9674434291973
 30
0.0
 10
197.94
 20
223.4882032302756
 30
0.0
  0
SPLINE
  5
17A
330
1F
100
AcDbEntity
  8
0
  6
Continuous
 62
     7
370
    25
100
AcDbSpline
210
0.0
220
0.0
230
1.0
 70
    24
 71
     3
 72
    11
 73
     7
 74
     0
 42
0.000000001
 43
0.00000001
 40
0.0
 40
0.0
 40
0.0
 40
0.0
 40
0.4320494329431824
 40
0.6559250873348016
 40
0.8796491222701244
 40
1.0
 40
1.0
 40
1.0
 40
1.0
 10
197.94
 20
223.4882032302756
 30
0.0
 10
197.1181487228588
 20
223.9626992863669
 30
0.0
 10
195.8704376286379
 20
224.6830656224862
 30
0.0
 10
194.0872089004434
 20
225.7126132087359
 30
0.0
 10
192.9100520473283
 20
226.3922450347604
 30
0.0
 10
192.1913784069578
 20
226.8071714544878
 30
0.0
 10
191.94
 20
226.9523048454133
 30
0.0
  0
LINE
  5
17B
330
1F
100
AcDbEntity
  8
0
  6
Continuous
 62
     7
370
    25
100
AcDbLine
 10
260.94
 20
233.06
 30
0.0
 11
260.94
 21
199.06
 31
0.0
  0
LINE
  5
17C
330
1F
100
AcDbEntity
  8
0
  6
Continuous
 62
     7
370
    25
100
AcDbLine
 10
242.94
 20
199.06
 30
0.0
 11
242.94
 21
233.06
 31
0.0
  0
LINE
  5
17D
330
1F
100
AcDbEntity
  8
0
  6
Continuous
 62
     7
370
    25
100
AcDbLine
 10
225.44
 20
216.06
 30
0.0
 11
225.44
 21
202.56
 31
0.0
  0
LINE
  5
17E
330
1F
100
AcDbEntity
  8
0
  6
Continuous
 62
     7
370
    25
100
AcDbLine
 10
225.44
 20
229.56
 30
0.0
 11
225.44
 21
216.06
 31
0.0
  0
LINE
  5
17F
330
1F
100
AcDbEntity
  8
0
  6
Continuous
 62
     7
370
    25
100
AcDbLine
 10
224.44
 20
223.1487234394
 30
0.0
 11
224.44
 21
232.06
 31
0.0
  0
LINE
  5
180
330
1F
100
AcDbEntity
  8
0
  6
Continuous
 62
     7
370
    25
100
AcDbLine
 10
224.44
 20
232.06
 30
0.0
 11
224.94
 21
232.06
 31
0.0
  0
LINE
  5
181
330
1F
100
AcDbEntity
  8
0
  6
Continuous
 62
     7
370
    25
100
AcDbLine
 10
224.94
 20
221.8045626465
 30
0.0
 11
224.44
 21
223.1487234394
 31
0.0
  0
LINE
  5
182
330
1F
100
AcDbEntity
  8
0
  6
Continuous
 62
     7
370
    25
100
AcDbLine
 10
224.94
 20
232.06
 30
0.0
 11
224.94
 21
221.8045626465
 31
0.0
  0
LINE
  5
183
330
1F
100
AcDbEntity
  8
0
  6
Continuous
 62
     7
370
    25
100
AcDbLine
 10
224.44
 20
200.06
 30
0.0
 11
224.44
 21
208.9712765606
 31
0.0
  0
LINE
  5
184
330
1F
100
AcDbEntity
  8
0
  6
Continuous
 62
     7
370
    25
100
AcDbLine
 10
224.44
 20
208.9712765606
 30
0.0
 11
224.94
 21
210.3154373535
 31
0.0
  0
LINE
  5
185
330
1F
100
AcDbEntity
  8
0
  6
Continuous
 62
     7
370
    25
100
AcDbLine
 10
224.94
 20
200.06
 30
0.0
 11
224.44
 21
200.06
 31
0.0
  0
LINE
  5
186
330
1F
100
AcDbEntity
  8
0
  6
Continuous
 62
     7
370
    25
100
AcDbLine
 10
224.94
 20
210.3154373535
 30
0.0
 11
224.94
 21
200.06
 31
0.0
  0
LINE
  5
187
330
1F
100
AcDbEntity
  8
0
  6
Continuous
 62
     7
370
    25
100
AcDbLine
 10
223.94
 20
232.06
 30
0.0
 11
224.44
 21
232.06
 31
0.0
  0
LINE
  5
188
330
1F
100
AcDbEntity
  8
0
  6
Continuous
 62
     7
370
    25
100
AcDbLine
 10
223.94
 20
223.1487234394
 30
0.0
 11
224.44
 21
223.1487234394
 31
0.0
  0
LINE
  5
189
330
1F
100
AcDbEntity
  8
0
  6
Continuous
 62
     7
370
    25
100
AcDbLine
 10
223.94
 20
208.9712765606
 30
0.0
 11
224.44
 21
208.9712765606
 31
0.0
  0
LINE
  5
18A
330
1F
100
AcDbEntity
  8
0
  6
Continuous
 62
     7
370
    25
100
AcDbLine
 10
224.94
 20
221.8045626465
 30
0.0
 11
224.94
 21
210.3154373535
 31
0.0
  0
LINE
  5
18B
330
1F
100
AcDbEntity
  8
0
  6
Continuous
 62
     7
370
    25
100
AcDbLine
 10
223.94
 20
200.06
 30
0.0
 11
224.44
 21
200.06
 31
0.0
  0
SPLINE
  5
18C
330
1F
100
AcDbEntity
  8
0
  6
Continuous
 62
     7
370
    25
100
AcDbSpline
210
0.0
220
0.0
230
1.0
 70
     8
 71
     3
 72
    11
 73
     7
 74
     0
 42
0.000000001
 43
0.00000001
 40
0.0
 40
0.0
 40
0.0
 40
0.0
 40
0.2495764276467892
 40
0.5043610488117489
 40
0.7510453744754443
 40
1.0
 40
1.0
 40
1.0
 40
1.0
 10
71.94
 20
195.4416075959876
 30
0.0
 10
71.91780121549952
 20
195.0040792952823
 30
0.0
 10
71.87294039936167
 20
194.1198922960964
 30
0.0
 10
71.52601126863735
 20
192.8329173992385
 30
0.0
 10
71.03060599826851
 20
191.5885069000893
 30
0.0
 10
70.59967010212944
 20
190.8040334071711
 30
0.0
 10
70.3832151919752
 20
190.41
 30
0.0
  0
LINE
  5
18D
330
1F
100
AcDbEntity
  8
0
  6
Continuous
 62
     7
370
    25
100
AcDbLine
 10
70.383215192
 20
190.41
 30
0.0
 11
59.496784808
 21
190.41
 31
0.0
  0
SPLINE
  5
18E
330
1F
100
AcDbEntity
  8
0
  6
Continuous
 62
     7
370
    25
100
AcDbSpline
210
0.0
220
0.0
230
1.0
 70
     8
 71
     3
 72
    11
 73
     7
 74
     0
 42
0.000000001
 43
0.00000001
 40
0.0
 40
0.0
 40
0.0
 40
0.0
 40
0.4320489135257252
 40
0.6559242718413973
 40
0.879648011344045
 40
1.0
 40
1.0
 40
1.0
 40
1.0
 10
59.49678480802481
 20
190.41
 30
0.0
 10
59.13052682046367
 20
191.0992046768956
 30
0.0
 10
58.57448444591704
 20
192.1455354549395
 30
0.0
 10
58.12870946632502
 20
193.6409512950474
 30
0.0
 10
57.96028381241246
 20
194.6281173406782
 30
0.0
 10
57.94525635545206
 20
195.230799398212
 30
0.0
 10
57.94
 20
195.4416075959876
 30
0.0
  0
SPLINE
  5
18F
330
1F
100
AcDbEntity
  8
0
  6
Continuous
 62
     7
370
    25
100
AcDbSpline
210
0.0
220
0.0
230
1.0
 70
     8
 71
     3
 72
    11
 73
     7
 74
     0
 42
0.000000001
 43
0.00000001
 40
0.0
 40
0.0
 40
0.0
 40
0.0
 40
0.2495764276467895
 40
0.5043610488117489
 40
0.751045374475444
 40
1.0
 40
1.0
 40
1.0
 40
1.0
 10
57.94
 20
195.4416075959876
 30
0.0
 10
57.96219878450049
 20
195.8791358966929
 30
0.0
 10
58.00705960063834
 20
196.7633228958788
 30
0.0
 10
58.35398873136266
 20
198.0502977927367
 30
0.0
 10
58.8493940017315
 20
199.2947082918859
 30
0.0
 10
59.28032989787057
 20
200.0791817848041
 30
0.0
 10
59.49678480802481
 20
200.4732151919752
 30
0.0
  0
LINE
  5
190
330
1F
100
AcDbEntity
  8
0
  6
Continuous
 62
     7
370
    25
100
AcDbLine
 10
70.383215192
 20
200.473215192
 30
0.0
 11
59.496784808
 21
200.473215192
 31
0.0
  0
SPLINE
  5
191
330
1F
100
AcDbEntity
  8
0
  6
Continuous
 62
     7
370
    25
100
AcDbSpline
210
0.0
220
0.0
230
1.0
 70
     8
 71
     3
 72
    11
 73
     7
 74
     0
 42
0.000000001
 43
0.00000001
 40
0.0
 40
0.0
 40
0.0
 40
0.0
 40
0.432048913525724
 40
0.655924271841397
 40
0.8796480113440438
 40
0.9999999999999999
 40
0.9999999999999999
 40
0.9999999999999999
 40
0.9999999999999999
 10
70.38321519197518
 20
200.4732151919752
 30
0.0
 10
70.74947317953634
 20
199.7840105150797
 30
0.0
 10
71.30551555408297
 20
198.7376797370357
 30
0.0
 10
71.75129053367499
 20
197.2422638969278
 30
0.0
 10
71.91971618758755
 20
196.2550978512969
 30
0.0
 10
71.93474364454795
 20
195.6524157937632
 30
0.0
 10
71.94
 20
195.4416075959876
 30
0.0
  0
SPLINE
  5
192
330
1F
100
AcDbEntity
  8
0
  6
Continuous
 62
     7
370
    25
100
AcDbSpline
210
0.0
220
0.0
230
1.0
 70
     8
 71
     3
 72
    11
 73
     7
 74
     0
 42
0.000000001
 43
0.00000001
 40
0.0
 40
0.0
 40
0.0
 40
0.0
 40
0.249576427646789
 40
0.504361048811749
 40
0.7510453744754446
 40
1.0
 40
1.0
 40
1.0
 40
1.0
 10
57.94
 20
185.3783924040124
 30
0.0
 10
57.96219878450049
 20
185.8159207047177
 30
0.0
 10
58.00705960063834
 20
186.7001077039036
 30
0.0
 10
58.35398873136266
 20
187.9870826007615
 30
0.0
 10
58.8493940017315
 20
189.2314930999108
 30
0.0
 10
59.28032989787057
 20
190.015966592829
 30
0.0
 10
59.49678480802481
 20
190.41
 30
0.0
  0
LINE
  5
193
330
1F
100
AcDbEntity
  8
0
  6
Continuous
 62
     7
370
    25
100
AcDbLine
 10
57.94
 20
195.441607596
 30
0.0
 11
57.94
 21
185.378392404
 31
0.0
  0
SPLINE
  5
194
330
1F
100
AcDbEntity
  8
0
  6
Continuous
 62
     7
370
    25
100
AcDbSpline
210
0.0
220
0.0
230
1.0
 70
     8
 71
     3
 72
    11
 73
     7
 74
     0
 42
0.000000001
 43
0.00000001
 40
0.0
 40
0.0
 40
0.0
 40
0.0
 40
0.4320489135257249
 40
0.6559242718413975
 40
0.8796480113440448
 40
0.9999999999999999
 40
0.9999999999999999
 40
0.9999999999999999
 40
0.9999999999999999
 10
70.3832151919752
 20
190.41
 30
0.0
 10
70.74947317953634
 20
189.7207953231045
 30
0.0
 10
71.30551555408297
 20
188.6744645450606
 30
0.0
 10
71.75129053367499
 20
187.1790487049526
 30
0.0
 10
71.91971618758755
 20
186.1918826593218
 30
0.0
 10
71.93474364454795
 20
185.589200601788
 30
0.0
 10
71.94
 20
185.3783924040124
 30
0.0
  0
SPLINE
  5
195
330
1F
100
AcDbEntity
  8
0
  6
Continuous
 62
     7
370
    25
100
AcDbSpline
210
0.0
220
0.0
230
1.0
 70
     8
 71
     3
 72
    11
 73
     7
 74
     0
 42
0.000000001
 43
0.00000001
 40
0.0
 40
0.0
 40
0.0
 40
0.0
 40
0.2495764276467892
 40
0.5043610488117491
 40
0.7510453744754445
 40
0.9999999999999999
 40
0.9999999999999999
 40
0.9999999999999999
 40
0.9999999999999999
 10
71.94
 20
185.3783924040124
 30
0.0
 10
71.91780121549952
 20
184.9408641033071
 30
0.0
 10
71.87294039936167
 20
184.0566771041212
 30
0.0
 10
71.52601126863735
 20
182.7697022072633
 30
0.0
 10
71.03060599826851
 20
181.5252917081141
 30
0.0
 10
70.59967010212942
 20
180.7408182151959
 30
0.0
 10
70.38321519197518
 20
180.3467848080249
 30
0.0
  0
LINE
  5
196
330
1F
100
AcDbEntity
  8
0
  6
Continuous
 62
     7
370
    25
100
AcDbLine
 10
70.383215192
 20
180.346784808
 30
0.0
 11
59.496784808
 21
180.346784808
 31
0.0
  0
SPLINE
  5
197
330
1F
100
AcDbEntity
  8
0
  6
Continuous
 62
     7
370
    25
100
AcDbSpline
210
0.0
220
0.0
230
1.0
 70
     8
 71
     3
 72
    11
 73
     7
 74
     0
 42
0.000000001
 43
0.00000001
 40
0.0
 40
0.0
 40
0.0
 40
0.0
 40
0.4320489135257243
 40
0.6559242718413975
 40
0.8796480113440438
 40
1.0
 40
1.0
 40
1.0
 40
1.0
 10
59.49678480802481
 20
180.3467848080249
 30
0.0
 10
59.13052682046367
 20
181.0359894849204
 30
0.0
 10
58.57448444591704
 20
182.0823202629643
 30
0.0
 10
58.12870946632502
 20
183.5777361030722
 30
0.0
 10
57.96028381241246
 20
184.5649021487031
 30
0.0
 10
57.94525635545206
 20
185.1675842062368
 30
0.0
 10
57.94
 20
185.3783924040124
 30
0.0
  0
SPLINE
  5
198
330
1F
100
AcDbEntity
  8
0
  6
Continuous
 62
     7
370
    25
100
AcDbSpline
210
0.0
220
0.0
230
1.0
 70
    24
 71
     3
 72
    11
 73
     7
 74
     0
 42
0.000000001
 43
0.00000001
 40
0.0
 40
0.0
 40
0.0
 40
0.0
 40
0.0581237806725208
 40
0.4052923505119559
 40
0.76461761004419
 40
1.0
 40
1.0
 40
1.0
 40
1.0
 10
71.94
 20
200.4732151919752
 30
0.0
 10
71.9387055006876
 20
200.4732151919752
 30
0.0
 10
71.92967906326409
 20
200.4732151919752
 30
0.0
 10
71.70290522821827
 20
200.4732151919752
 30
0.0
 10
71.10472275540536
 20
200.4732151919752
 30
0.0
 10
70.587807665781
 20
200.4732151919752
 30
0.0
 10
70.38321519197518
 20
200.4732151919752
 30
0.0
  0
SPLINE
  5
199
330
1F
100
AcDbEntity
  8
0
  6
Continuous
 62
     7
370
    25
100
AcDbSpline
210
0.0
220
0.0
230
1.0
 70
    24
 71
     3
 72
    11
 73
     7
 74
     0
 42
0.000000001
 43
0.00000001
 40
0.0
 40
0.0
 40
0.0
 40
0.0
 40
0.0581237806725214
 40
0.4052923505119564
 40
0.764617610044191
 40
1.0
 40
1.0
 40
1.0
 40
1.0
 10
57.94
 20
180.3467848080249
 30
0.0
 10
57.9412944993124
 20
180.3467848080249
 30
0.0
 10
57.95032093673594
 20
180.3467848080249
 30
0.0
 10
58.17709477178173
 20
180.3467848080249
 30
0.0
 10
58.77527724459463
 20
180.3467848080249
 30
0.0
 10
59.292192334219
 20
180.3467848080249
 30
0.0
 10
59.49678480802481
 20
180.3467848080249
 30
0.0
  0
LINE
  5
19A
330
1F
100
AcDbEntity
  8
0
  6
Continuous
 62
     7
370
    25
100
AcDbLine
 10
57.94
 20
185.378392404
 30
0.0
 11
57.94
 21
180.346784808
 31
0.0
  0
SPLINE
  5
19B
330
1F
100
AcDbEntity
  8
0
  6
Continuous
 62
     7
370
    25
100
AcDbSpline
210
0.0
220
0.0
230
1.0
 70
    24
 71
     3
 72
    10
 73
     6
 74
     0
 42
0.000000001
 43
0.00000001
 40
0.0
 40
0.0
 40
0.0
 40
0.0
 40
0.3528678512837001
 40
0.6719287159605555
 40
1.0
 40
1.0
 40
1.0
 40
1.0
 10
59.49678480802481
 20
200.4732151919752
 30
0.0
 10
59.19703707577958
 20
200.4732151919752
 30
0.0
 10
58.62625935231478
 20
200.4732151919752
 30
0.0
 10
58.0572553519076
 20
200.4732151919752
 30
0.0
 10
57.97944624533582
 20
200.4732151919752
 30
0.0
 10
57.94
 20
200.4732151919752
 30
0.0
  0
LINE
  5
19C
330
1F
100
AcDbEntity
  8
0
  6
Continuous
 62
     7
370
    25
100
AcDbLine
 10
57.94
 20
200.473215192
 30
0.0
 11
57.94
 21
195.441607596
 31
0.0
  0
SPLINE
  5
19D
330
1F
100
AcDbEntity
  8
0
  6
Continuous
 62
     7
370
    25
100
AcDbSpline
210
0.0
220
0.0
230
1.0
 70
    24
 71
     3
 72
    10
 73
     6
 74
     0
 42
0.000000001
 43
0.00000001
 40
0.0
 40
0.0
 40
0.0
 40
0.0
 40
0.3528678512837006
 40
0.6719287159605561
 40
0.9999999999999999
 40
0.9999999999999999
 40
0.9999999999999999
 40
0.9999999999999999
 10
70.38321519197518
 20
180.3467848080249
 30
0.0
 10
70.68296292422042
 20
180.3467848080249
 30
0.0
 10
71.25374064768523
 20
180.3467848080249
 30
0.0
 10
71.8227446480924
 20
180.3467848080249
 30
0.0
 10
71.90055375466417
 20
180.3467848080249
 30
0.0
 10
71.94
 20
180.3467848080249
 30
0.0
  0
LINE
  5
19E
330
1F
100
AcDbEntity
  8
0
  6
Continuous
 62
     7
370
    25
100
AcDbLine
 10
55.94
 20
183.21
 30
0.0
 11
55.94
 21
197.61
 31
0.0
  0
SPLINE
  5
19F
330
1F
100
AcDbEntity
  8
0
  6
Continuous
 62
     7
370
    25
100
AcDbSpline
210
0.0
220
0.0
230
1.0
 70
     8
 71
     3
 72
    11
 73
     7
 74
     0
 42
0.000000001
 43
0.00000001
 40
0.0
 40
0.0
 40
0.0
 40
0.0
 40
0.2495764276467894
 40
0.504361048811749
 40
0.7510453744754448
 40
1.0
 40
1.0
 40
1.0
 40
1.0
 10
71.94
 20
237.6783924040124
 30
0.0
 10
71.91780121549952
 20
237.2408641033071
 30
0.0
 10
71.87294039936167
 20
236.3566771041212
 30
0.0
 10
71.52601126863735
 20
235.0697022072634
 30
0.0
 10
71.03060599826851
 20
233.8252917081141
 30
0.0
 10
70.59967010212944
 20
233.0408182151959
 30
0.0
 10
70.38321519197518
 20
232.6467848080249
 30
0.0
  0
LINE
  5
1A0
330
1F
100
AcDbEntity
  8
0
  6
Continuous
 62
     7
370
    25
100
AcDbLine
 10
70.383215192
 20
232.646784808
 30
0.0
 11
59.496784808
 21
232.646784808
 31
0.0
  0
SPLINE
  5
1A1
330
1F
100
AcDbEntity
  8
0
  6
Continuous
 62
     7
370
    25
100
AcDbSpline
210
0.0
220
0.0
230
1.0
 70
     8
 71
     3
 72
    11
 73
     7
 74
     0
 42
0.000000001
 43
0.00000001
 40
0.0
 40
0.0
 40
0.0
 40
0.0
 40
0.4320489135257238
 40
0.6559242718413967
 40
0.8796480113440437
 40
1.0
 40
1.0
 40
1.0
 40
1.0
 10
59.49678480802481
 20
232.6467848080249
 30
0.0
 10
59.13052682046367
 20
233.3359894849204
 30
0.0
 10
58.57448444591704
 20
234.3823202629643
 30
0.0
 10
58.12870946632501
 20
235.8777361030723
 30
0.0
 10
57.96028381241247
 20
236.8649021487031
 30
0.0
 10
57.94525635545206
 20
237.4675842062368
 30
0.0
 10
57.94
 20
237.6783924040124
 30
0.0
  0
SPLINE
  5
1A2
330
1F
100
AcDbEntity
  8
0
  6
Continuous
 62
     7
370
    25
100
AcDbSpline
210
0.0
220
0.0
230
1.0
 70
     8
 71
     3
 72
    11
 73
     7
 74
     0
 42
0.000000001
 43
0.00000001
 40
0.0
 40
0.0
 40
0.0
 40
0.0
 40
0.2495764276467888
 40
0.5043610488117481
 40
0.7510453744754446
 40
1.0
 40
1.0
 40
1.0
 40
1.0
 10
57.94
 20
237.6783924040124
 30
0.0
 10
57.96219878450049
 20
238.1159207047178
 30
0.0
 10
58.00705960063834
 20
239.0001077039037
 30
0.0
 10
58.35398873136266
 20
240.2870826007616
 30
0.0
 10
58.8493940017315
 20
241.5314930999108
 30
0.0
 10
59.28032989787057
 20
242.315966592829
 30
0.0
 10
59.49678480802481
 20
242.71
 30
0.0
  0
LINE
  5
1A3
330
1F
100
AcDbEntity
  8
0
  6
Continuous
 62
     7
370
    25
100
AcDbLine
 10
70.383215192
 20
242.71
 30
0.0
 11
59.496784808
 21
242.71
 31
0.0
  0
SPLINE
  5
1A4
330
1F
100
AcDbEntity
  8
0
  6
Continuous
 62
     7
370
    25
100
AcDbSpline
210
0.0
220
0.0
230
1.0
 70
     8
 71
     3
 72
    11
 73
     7
 74
     0
 42
0.000000001
 43
0.00000001
 40
0.0
 40
0.0
 40
0.0
 40
0.0
 40
0.4320489135257247
 40
0.6559242718413975
 40
0.879648011344045
 40
1.0
 40
1.0
 40
1.0
 40
1.0
 10
70.38321519197518
 20
242.71
 30
0.0
 10
70.74947317953634
 20
242.0207953231045
 30
0.0
 10
71.30551555408297
 20
240.9744645450606
 30
0.0
 10
71.75129053367499
 20
239.4790487049526
 30
0.0
 10
71.91971618758754
 20
238.4918826593218
 30
0.0
 10
71.93474364454795
 20
237.8892006017881
 30
0.0
 10
71.94
 20
237.6783924040124
 30
0.0
  0
SPLINE
  5
1A5
330
1F
100
AcDbEntity
  8
0
  6
Continuous
 62
     7
370
    25
100
AcDbSpline
210
0.0
220
0.0
230
1.0
 70
     8
 71
     3
 72
    11
 73
     7
 74
     0
 42
0.000000001
 43
0.00000001
 40
0.0
 40
0.0
 40
0.0
 40
0.0
 40
0.2495764276467899
 40
0.5043610488117491
 40
0.7510453744754452
 40
1.0
 40
1.0
 40
1.0
 40
1.0
 10
71.94
 20
247.7416075959876
 30
0.0
 10
71.91780121549952
 20
247.3040792952823
 30
0.0
 10
71.87294039936167
 20
246.4198922960964
 30
0.0
 10
71.52601126863735
 20
245.1329173992386
 30
0.0
 10
71.03060599826851
 20
243.8885069000893
 30
0.0
 10
70.59967010212942
 20
243.1040334071711
 30
0.0
 10
70.38321519197518
 20
242.71
 30
0.0
  0
LINE
  5
1A6
330
1F
100
AcDbEntity
  8
0
  6
Continuous
 62
     7
370
    25
100
AcDbLine
 10
57.94
 20
247.741607596
 30
0.0
 11
57.94
 21
237.678392404
 31
0.0
  0
SPLINE
  5
1A7
330
1F
100
AcDbEntity
  8
0
  6
Continuous
 62
     7
370
    25
100
AcDbSpline
210
0.0
220
0.0
230
1.0
 70
     8
 71
     3
 72
    11
 73
     7
 74
     0
 42
0.000000001
 43
0.00000001
 40
0.0
 40
0.0
 40
0.0
 40
0.0
 40
0.4320489135257249
 40
0.6559242718413978
 40
0.8796480113440455
 40
1.0
 40
1.0
 40
1.0
 40
1.0
 10
59.49678480802481
 20
242.71
 30
0.0
 10
59.13052682046367
 20
243.3992046768956
 30
0.0
 10
58.57448444591704
 20
244.4455354549395
 30
0.0
 10
58.12870946632502
 20
245.9409512950475
 30
0.0
 10
57.96028381241247
 20
246.9281173406783
 30
0.0
 10
57.94525635545206
 20
247.5307993982121
 30
0.0
 10
57.94
 20
247.7416075959877
 30
0.0
  0
SPLINE
  5
1A8
330
1F
100
AcDbEntity
  8
0
  6
Continuous
 62
     7
370
    25
100
AcDbSpline
210
0.0
220
0.0
230
1.0
 70
     8
 71
     3
 72
    11
 73
     7
 74
     0
 42
0.000000001
 43
0.00000001
 40
0.0
 40
0.0
 40
0.0
 40
0.0
 40
0.2495764276467902
 40
0.5043610488117498
 40
0.7510453744754451
 40
1.0
 40
1.0
 40
1.0
 40
1.0
 10
57.94
 20
247.7416075959876
 30
0.0
 10
57.96219878450049
 20
248.1791358966929
 30
0.0
 10
58.00705960063834
 20
249.0633228958789
 30
0.0
 10
58.35398873136268
 20
250.3502977927368
 30
0.0
 10
58.8493940017315
 20
251.594708291886
 30
0.0
 10
59.28032989787057
 20
252.3791817848042
 30
0.0
 10
59.49678480802483
 20
252.7732151919752
 30
0.0
  0
LINE
  5
1A9
330
1F
100
AcDbEntity
  8
0
  6
Continuous
 62
     7
370
    25
100
AcDbLine
 10
70.383215192
 20
252.773215192
 30
0.0
 11
59.496784808
 21
252.773215192
 31
0.0
  0
SPLINE
  5
1AA
330
1F
100
AcDbEntity
  8
0
  6
Continuous
 62
     7
370
    25
100
AcDbSpline
210
0.0
220
0.0
230
1.0
 70
     8
 71
     3
 72
    11
 73
     7
 74
     0
 42
0.000000001
 43
0.00000001
 40
0.0
 40
0.0
 40
0.0
 40
0.0
 40
0.4320489135257252
 40
0.6559242718413969
 40
0.8796480113440448
 40
1.0
 40
1.0
 40
1.0
 40
1.0
 10
70.38321519197518
 20
252.7732151919752
 30
0.0
 10
70.74947317953634
 20
252.0840105150797
 30
0.0
 10
71.30551555408297
 20
251.0376797370357
 30
0.0
 10
71.75129053367499
 20
249.5422638969278
 30
0.0
 10
71.91971618758754
 20
248.555097851297
 30
0.0
 10
71.93474364454795
 20
247.9524157937633
 30
0.0
 10
71.94
 20
247.7416075959877
 30
0.0
  0
SPLINE
  5
1AB
330
1F
100
AcDbEntity
  8
0
  6
Continuous
 62
     7
370
    25
100
AcDbSpline
210
0.0
220
0.0
230
1.0
 70
    24
 71
     3
 72
    11
 73
     7
 74
     0
 42
0.000000001
 43
0.00000001
 40
0.0
 40
0.0
 40
0.0
 40
0.0
 40
0.0581237806725225
 40
0.4052923505119571
 40
0.7646176100441908
 40
1.0
 40
1.0
 40
1.0
 40
1.0
 10
71.94
 20
252.7732151919753
 30
0.0
 10
71.9387055006876
 20
252.7732151919753
 30
0.0
 10
71.92967906326408
 20
252.7732151919753
 30
0.0
 10
71.70290522821827
 20
252.7732151919752
 30
0.0
 10
71.10472275540536
 20
252.7732151919753
 30
0.0
 10
70.587807665781
 20
252.7732151919752
 30
0.0
 10
70.38321519197518
 20
252.7732151919752
 30
0.0
  0
SPLINE
  5
1AC
330
1F
100
AcDbEntity
  8
0
  6
Continuous
 62
     7
370
    25
100
AcDbSpline
210
0.0
220
0.0
230
1.0
 70
    24
 71
     3
 72
    11
 73
     7
 74
     0
 42
0.000000001
 43
0.00000001
 40
0.0
 40
0.0
 40
0.0
 40
0.0
 40
0.0581237806725213
 40
0.4052923505119566
 40
0.7646176100441903
 40
1.0
 40
1.0
 40
1.0
 40
1.0
 10
57.94
 20
232.6467848080249
 30
0.0
 10
57.9412944993124
 20
232.6467848080249
 30
0.0
 10
57.95032093673594
 20
232.6467848080249
 30
0.0
 10
58.17709477178173
 20
232.6467848080249
 30
0.0
 10
58.77527724459465
 20
232.6467848080249
 30
0.0
 10
59.292192334219
 20
232.6467848080249
 30
0.0
 10
59.49678480802481
 20
232.6467848080249
 30
0.0
  0
LINE
  5
1AD
330
1F
100
AcDbEntity
  8
0
  6
Continuous
 62
     7
370
    25
100
AcDbLine
 10
57.94
 20
237.678392404
 30
0.0
 11
57.94
 21
232.646784808
 31
0.0
  0
SPLINE
  5
1AE
330
1F
100
AcDbEntity
  8
0
  6
Continuous
 62
     7
370
    25
100
AcDbSpline
210
0.0
220
0.0
230
1.0
 70
    24
 71
     3
 72
    10
 73
     6
 74
     0
 42
0.000000001
 43
0.00000001
 40
0.0
 40
0.0
 40
0.0
 40
0.0
 40
0.3528678512836995
 40
0.6719287159605554
 40
1.0
 40
1.0
 40
1.0
 40
1.0
 10
70.38321519197518
 20
232.6467848080249
 30
0.0
 10
70.68296292422042
 20
232.6467848080249
 30
0.0
 10
71.25374064768523
 20
232.6467848080249
 30
0.0
 10
71.8227446480924
 20
232.6467848080249
 30
0.0
 10
71.90055375466417
 20
232.6467848080249
 30
0.0
 10
71.94
 20
232.6467848080249
 30
0.0
  0
SPLINE
  5
1AF
330
1F
100
AcDbEntity
  8
0
  6
Continuous
 62
     7
370
    25
100
AcDbSpline
210
0.0
220
0.0
230
1.0
 70
    24
 71
     3
 72
    10
 73
     6
 74
     0
 42
0.000000001
 43
0.00000001
 40
0.0
 40
0.0
 40
0.0
 40
0.0
 40
0.3528678512837007
 40
0.671928715960556
 40
1.0
 40
1.0
 40
1.0
 40
1.0
 10
59.49678480802483
 20
252.7732151919752
 30
0.0
 10
59.19703707577958
 20
252.7732151919752
 30
0.0
 10
58.62625935231478
 20
252.7732151919752
 30
0.0
 10
58.05725535190761
 20
252.7732151919752
 30
0.0
 10
57.97944624533584
 20
252.7732151919752
 30
0.0
 10
57.94
 20
252.7732151919752
 30
0.0
  0
LINE
  5
1B0
330
1F
100
AcDbEntity
  8
0
  6
Continuous
 62
     7
370
    25
100
AcDbLine
 10
57.94
 20
247.741607596
 30
0.0
 11
57.94
 21
252.773215192
 31
0.0
  0
LINE
  5
1B1
330
1F
100
AcDbEntity
  8
0
  6
Continuous
 62
     7
370
    25
100
AcDbLine
 10
55.94
 20
242.71
 30
0.0
 11
55.94
 21
249.91
 31
0.0
  0
LINE
  5
1B2
330
1F
100
AcDbEntity
  8
0
  6
Continuous
 62
     7
370
    25
100
AcDbLine
 10
55.94
 20
235.51
 30
0.0
 11
55.94
 21
242.71
 31
0.0
  0
LINE
  5
1B3
330
1F
100
AcDbEntity
  8
0
  6
Continuous
 62
     7
370
    25
100
AcDbLine
 10
149.44
 20
184.41
 30
0.0
 11
149.44
 21
196.41
 31
0.0
  0
LINE
  5
1B4
330
1F
100
AcDbEntity
  8
0
  6
Continuous
 62
     7
370
    25
100
AcDbLine
 10
149.94
 20
195.91
 30
0.0
 11
149.94
 21
184.91
 31
0.0
  0
LINE
  5
1B5
330
1F
100
AcDbEntity
  8
0
  6
Continuous
 62
     7
370
    25
100
AcDbLine
 10
149.44
 20
236.71
 30
0.0
 11
149.44
 21
248.71
 31
0.0
  0
LINE
  5
1B6
330
1F
100
AcDbEntity
  8
0
  6
Continuous
 62
     7
370
    25
100
AcDbLine
 10
149.94
 20
248.21
 30
0.0
 11
149.94
 21
237.21
 31
0.0
  0
LINE
  5
1B7
330
1F
100
AcDbEntity
  8
0
  6
Continuous
 62
     7
370
    25
100
AcDbLine
 10
223.94
 20
216.06
 30
0.0
 11
223.94
 21
191.56
 31
0.0
  0
LINE
  5
1B8
330
1F
100
AcDbEntity
  8
0
  6
Continuous
 62
     7
370
    25
100
AcDbLine
 10
223.94
 20
240.56
 30
0.0
 11
223.94
 21
216.06
 31
0.0
  0
LINE
  5
1B9
330
1F
100
AcDbEntity
  8
0
  6
Continuous
 62
     7
370
    25
100
AcDbLine
 10
223.44
 20
216.06
 30
0.0
 11
223.44
 21
241.06
 31
0.0
  0
LINE
  5
1BA
330
1F
100
AcDbEntity
  8
0
  6
Continuous
 62
     7
370
    25
100
AcDbLine
 10
223.44
 20
191.06
 30
0.0
 11
223.44
 21
216.06
 31
0.0
  0
LINE
  5
1BB
330
1F
100
AcDbEntity
  8
0
  6
Continuous
 62
     7
370
    25
100
AcDbLine
 10
182.94
 20
184.56
 30
0.0
 11
170.94
 21
184.56
 31
0.0
  0
LINE
  5
1BC
330
1F
100
AcDbEntity
  8
0
  6
Continuous
 62
     7
370
    25
100
AcDbLine
 10
170.94
 20
184.56
 30
0.0
 11
170.94
 21
179.06
 31
0.0
  0
LINE
  5
1BD
330
1F
100
AcDbEntity
  8
0
  6
Continuous
 62
     7
370
    25
100
AcDbLine
 10
170.94
 20
179.06
 30
0.0
 11
155.94
 21
179.06
 31
0.0
  0
LINE
  5
1BE
330
1F
100
AcDbEntity
  8
0
  6
Continuous
 62
     7
370
    25
100
AcDbLine
 10
155.94
 20
198.06
 30
0.0
 11
155.94
 21
179.06
 31
0.0
  0
LINE
  5
1BF
330
1F
100
AcDbEntity
  8
0
  6
Continuous
 62
     7
370
    25
100
AcDbLine
 10
182.94
 20
184.56
 30
0.0
 11
182.94
 21
179.06
 31
0.0
  0
LINE
  5
1C0
330
1F
100
AcDbEntity
  8
0
  6
Continuous
 62
     7
370
    25
100
AcDbLine
 10
214.94
 20
198.06
 30
0.0
 11
155.94
 21
198.06
 31
0.0
  0
LINE
  5
1C1
330
1F
100
AcDbEntity
  8
0
  6
Continuous
 62
     7
370
    25
100
AcDbLine
 10
214.94
 20
198.06
 30
0.0
 11
214.94
 21
179.06
 31
0.0
  0
LINE
  5
1C2
330
1F
100
AcDbEntity
  8
0
  6
Continuous
 62
     7
370
    25
100
AcDbLine
 10
214.94
 20
179.06
 30
0.0
 11
182.94
 21
179.06
 31
0.0
  0
LINE
  5
1C3
330
1F
100
AcDbEntity
  8
0
  6
Continuous
 62
     7
370
    25
100
AcDbLine
 10
214.94
 20
253.56
 30
0.0
 11
155.94
 21
253.56
 31
0.0
  0
CIRCLE
  5
1C4
330
1F
100
AcDbEntity
  8
0
  6
Continuous
 62
     7
370
    25
100
AcDbCircle
 10
185.94
 20
216.56
 30
0.0
 40
15.0
  0
LINE
  5
1C5
330
1F
100
AcDbEntity
  8
0
  6
Continuous
 62
     7
370
    25
100
AcDbLine
 10
155.94
 20
253.56
 30
0.0
 11
155.94
 21
198.06
 31
0.0
  0
LINE
  5
1C6
330
1F
100
AcDbEntity
  8
0
  6
Continuous
 62
     7
370
    25
100
AcDbLine
 10
214.94
 20
253.56
 30
0.0
 11
214.94
 21
198.06
 31
0.0
  0
LINE
  5
1C7
330
1F
100
AcDbEntity
  8
0
  6
Continuous
 62
     7
370
    25
100
AcDbLine
 10
108.94
 20
253.56
 30
0.0
 11
71.94
 21
253.56
 31
0.0
  0
LINE
  5
1C8
330
1F
100
AcDbEntity
  8
0
  6
Continuous
 62
     7
370
    25
100
AcDbLine
 10
71.94
 20
179.56
 30
0.0
 11
108.94
 21
179.56
 31
0.0
  0
LINE
  5
1C9
330
1F
100
AcDbEntity
  8
0
  6
Continuous
 62
     7
370
    25
100
AcDbLine
 10
71.94
 20
253.56
 30
0.0
 11
71.94
 21
179.56
 31
0.0
  0
CIRCLE
  5
1CA
330
1F
100
AcDbEntity
  8
0
  6
Continuous
 62
     7
370
    25
100
AcDbCircle
 10
90.44
 20
216.56
 30
0.0
 40
15.0
  0
LINE
  5
1CB
330
1F
100
AcDbEntity
  8
0
  6
Continuous
 62
     7
370
    25
100
AcDbLine
 10
108.94
 20
253.56
 30
0.0
 11
108.94
 21
179.56
 31
0.0
  0
LINE
  5
1CC
330
1F
100
AcDbEntity
  8
0
  6
Continuous
 62
     7
370
    25
100
AcDbLine
 10
71.94
 20
253.56
 30
0.0
 11
71.94
 21
254.06
 31
0.0
  0
LINE
  5
1CD
330
1F
100
AcDbEntity
  8
0
  6
Continuous
 62
     7
370
    25
100
AcDbLine
 10
71.94
 20
254.06
 30
0.0
 11
108.94
 21
254.06
 31
0.0
  0
LINE
  5
1CE
330
1F
100
AcDbEntity
  8
0
  6
Continuous
 62
     7
370
    25
100
AcDbLine
 10
108.94
 20
254.06
 30
0.0
 11
108.94
 21
253.56
 31
0.0
  0
LINE
  5
1CF
330
1F
100
AcDbEntity
  8
0
  6
Continuous
 62
     7
370
    25
100
AcDbLine
 10
155.94
 20
254.06
 30
0.0
 11
214.94
 21
254.06
 31
0.0
  0
LINE
  5
1D0
330
1F
100
AcDbEntity
  8
0
  6
Continuous
 62
     7
370
    25
100
AcDbLine
 10
155.94
 20
253.56
 30
0.0
 11
155.94
 21
254.06
 31
0.0
  0
LINE
  5
1D1
330
1F
100
AcDbEntity
  8
0
  6
Continuous
 62
     7
370
    25
100
AcDbLine
 10
214.94
 20
254.06
 30
0.0
 11
214.94
 21
253.56
 31
0.0
  0
LINE
  5
1D2
330
1F
100
AcDbEntity
  8
0
  6
Continuous
 62
     7
370
    25
100
AcDbLine
 10
108.94
 20
179.06
 30
0.0
 11
71.94
 21
179.06
 31
0.0
  0
LINE
  5
1D3
330
1F
100
AcDbEntity
  8
0
  6
Continuous
 62
     7
370
    25
100
AcDbLine
 10
71.94
 20
179.06
 30
0.0
 11
71.94
 21
179.56
 31
0.0
  0
LINE
  5
1D4
330
1F
100
AcDbEntity
  8
0
  6
Continuous
 62
     7
370
    25
100
AcDbLine
 10
108.94
 20
179.56
 30
0.0
 11
108.94
 21
179.06
 31
0.0
  0
SPLINE
  5
1D5
330
1F
100
AcDbEntity
  8
0
  6
Continuous
 62
     7
370
    25
100
AcDbSpline
210
0.0
220
0.0
230
1.0
 70
     8
 71
     3
 72
    12
 73
     8
 74
     0
 42
0.000000001
 43
0.00000001
 40
0.0
 40
0.0
 40
0.0
 40
0.0
 40
0.2140881856920265
 40
0.4292624406750997
 40
0.6350200590337798
 40
0.8360879692392669
 40
1.0
 40
1.0
 40
1.0
 40
1.0
 10
129.2765384615385
 20
218.3121033653846
 30
0.0
 10
129.261554706813
 20
218.1423806037974
 30
0.0
 10
129.2315111847795
 20
217.8020740771129
 30
0.0
 10
128.9690033382623
 20
217.3550833165806
 30
0.0
 10
128.587825774672
 20
217.0356437942754
 30
0.0
 10
128.1628489108172
 20
216.8565071057041
 30
0.0
 10
127.8737294174528
 20
216.8376841395636
 30
0.0
 10
127.7438862179487
 20
216.8292307692308
 30
0.0
  0
SPLINE
  5
1D6
330
1F
100
AcDbEntity
  8
0
  6
Continuous
 62
     7
370
    25
100
AcDbSpline
210
0.0
220
0.0
230
1.0
 70
     8
 71
     3
 72
    12
 73
     8
 74
     0
 42
0.000000001
 43
0.00000001
 40
0.0
 40
0.0
 40
0.0
 40
0.0
 40
0.2308594654115884
 40
0.4635737388709708
 40
0.6767148683098485
 40
0.8949484267247739
 40
1.0
 40
1.0
 40
1.0
 40
1.0
 10
127.7438862179487
 20
216.8292307692308
 30
0.0
 10
127.562138150431
 20
216.84471658798
 30
0.0
 10
127.197181785997
 20
216.8758126441207
 30
0.0
 10
126.7331687833939
 20
217.1626844879399
 30
0.0
 10
126.3872178511993
 20
217.5567450615005
 30
0.0
 10
126.2394848625175
 20
217.9624635102194
 30
0.0
 10
126.2287460044891
 20
218.2141816879526
 30
0.0
 10
126.2252564102564
 20
218.2959775641026
 30
0.0
  0
SPLINE
  5
1D7
330
1F
100
AcDbEntity
  8
0
  6
Continuous
 62
     7
370
    25
100
AcDbSpline
210
0.0
220
0.0
230
1.0
 70
     8
 71
     3
 72
    12
 73
     8
 74
     0
 42
0.000000001
 43
0.00000001
 40
0.0
 40
0.0
 40
0.0
 40
0.0
 40
0.2318285753121708
 40
0.463787062135653
 40
0.7010147076821244
 40
0.9017678363909712
 40
1.0
 40
1.0
 40
1.0
 40
1.0
 10
127.7438862179487
 20
219.7907692307693
 30
0.0
 10
127.9274351684736
 20
219.7719254846727
 30
0.0
 10
128.2946359262203
 20
219.7342274328687
 30
0.0
 10
128.7845164566867
 20
219.4464529686576
 30
0.0
 10
129.1280570842306
 20
219.0340298447847
 30
0.0
 10
129.2635563727164
 20
218.624243550703
 30
0.0
 10
129.2733279816008
 20
218.3892958585534
 30
0.0
 10
129.2765384615385
 20
218.3121033653846
 30
0.0
  0
SPLINE
  5
1D8
330
1F
100
AcDbEntity
  8
0
  6
Continuous
 62
     7
370
    25
100
AcDbSpline
210
0.0
220
0.0
230
1.0
 70
     8
 71
     3
 72
    12
 73
     8
 74
     0
 42
0.000000001
 43
0.00000001
 40
0.0
 40
0.0
 40
0.0
 40
0.0
 40
0.2166590159444693
 40
0.434521100471962
 40
0.6366977212539093
 40
0.8517529267629057
 40
1.0
 40
1.0
 40
1.0
 40
1.0
 10
126.2252564102564
 20
218.2959775641026
 30
0.0
 10
126.2405358636183
 20
218.4672925371294
 30
0.0
 10
126.271179614401
 20
218.8108737644438
 30
0.0
 10
126.5353666229281
 20
219.2556871848347
 30
0.0
 10
126.9209939254139
 20
219.5801644639626
 30
0.0
 10
127.339410214979
 20
219.7643549388469
 30
0.0
 10
127.6266690161237
 20
219.7831143653023
 30
0.0
 10
127.7438862179487
 20
219.7907692307693
 30
0.0
  0
SPLINE
  5
1D9
330
1F
100
AcDbEntity
  8
0
  6
Continuous
 62
     7
370
    25
100
AcDbSpline
210
0.0
220
0.0
230
1.0
 70
     8
 71
     3
 72
    10
 73
     6
 74
     0
 42
0.000000001
 43
0.00000001
 40
0.0
 40
0.0
 40
0.0
 40
0.0
 40
0.2502839916644262
 40
0.5005687664360262
 40
1.0
 40
1.0
 40
1.0
 40
1.0
 10
130.8309254807693
 20
218.2202564102564
 30
0.0
 10
130.8857112171174
 20
218.2197989262752
 30
0.0
 10
130.9952828612314
 20
218.2188839568814
 30
0.0
 10
131.2143503900994
 20
218.2149068459122
 30
0.0
 10
131.3772535664892
 20
218.1932903087748
 30
0.0
 10
131.4857732371795
 20
218.178890224359
 30
0.0
  0
SPLINE
  5
1DA
330
1F
100
AcDbEntity
  8
0
  6
Continuous
 62
     7
370
    25
100
AcDbSpline
210
0.0
220
0.0
230
1.0
 70
     8
 71
     3
 72
    11
 73
     7
 74
     0
 42
0.000000001
 43
0.00000001
 40
0.0
 40
0.0
 40
0.0
 40
0.0
 40
0.350857449905162
 40
0.5783501144241082
 40
0.8063278987406277
 40
1.0
 40
1.0
 40
1.0
 40
1.0
 10
131.4857732371795
 20
218.178890224359
 30
0.0
 10
131.5894810438616
 20
218.1459790878539
 30
0.0
 10
131.760432015196
 20
218.0917286805483
 30
0.0
 10
131.9434909767703
 20
217.9200041170938
 30
0.0
 10
132.0433062064748
 20
217.7422886105885
 30
0.0
 10
132.0537792625553
 20
217.6129139255583
 30
0.0
 10
132.0585897435897
 20
217.5534895833334
 30
0.0
  0
SPLINE
  5
1DB
330
1F
100
AcDbEntity
  8
0
  6
Continuous
 62
     7
370
    25
100
AcDbSpline
210
0.0
220
0.0
230
1.0
 70
     8
 71
     3
 72
    12
 73
     8
 74
     0
 42
0.000000001
 43
0.00000001
 40
0.0
 40
0.0
 40
0.0
 40
0.0
 40
0.1542697735950129
 40
0.3094749552703537
 40
0.4652421078092107
 40
0.6253032408525901
 40
1.0
 40
1.0
 40
1.0
 40
1.0
 10
132.0585897435897
 20
217.5534895833334
 30
0.0
 10
132.0511817675749
 20
217.485220630103
 30
0.0
 10
132.036320897604
 20
217.3482687778057
 30
0.0
 10
131.9220366888246
 20
217.1709403254719
 30
0.0
 10
131.7629509614723
 20
217.0338349058229
 30
0.0
 10
131.4746617133195
 20
216.9213011791567
 30
0.0
 10
131.2367259793853
 20
216.9199330125809
 30
0.0
 10
131.0700080128206
 20
216.9189743589744
 30
0.0
  0
LINE
  5
1DC
330
1F
100
AcDbEntity
  8
0
  6
Continuous
 62
     7
370
    25
100
AcDbLine
 10
131.0700080128
 20
216.918974359
 30
0.0
 11
130.6226923077
 21
216.918974359
 31
0.0
  0
LINE
  5
1DD
330
1F
100
AcDbEntity
  8
0
  6
Continuous
 62
     7
370
    25
100
AcDbLine
 10
130.6226923077
 20
216.918974359
 30
0.0
 11
130.6226923077
 21
218.2202564103
 31
0.0
  0
LINE
  5
1DE
330
1F
100
AcDbEntity
  8
0
  6
Continuous
 62
     7
370
    25
100
AcDbLine
 10
130.6226923077
 20
218.2202564103
 30
0.0
 11
130.8309254808
 21
218.2202564103
 31
0.0
  0
SPLINE
  5
1DF
330
1F
100
AcDbEntity
  8
0
  6
Continuous
 62
     7
370
    25
100
AcDbSpline
210
0.0
220
0.0
230
1.0
 70
     8
 71
     3
 72
    12
 73
     8
 74
     0
 42
0.000000001
 43
0.00000001
 40
0.0
 40
0.0
 40
0.0
 40
0.0
 40
0.262550105421509
 40
0.5100295412956537
 40
0.7370308904094863
 40
0.9489695020228601
 40
1.0
 40
1.0
 40
1.0
 40
1.0
 10
150.4560256410256
 20
188.0699607463752
 30
0.0
 10
150.4602722576655
 20
188.0689365450281
 30
0.0
 10
150.4685217304029
 20
188.0669469326361
 30
0.0
 10
150.5395535760036
 20
188.0650985008081
 30
0.0
 10
150.625385067711
 20
188.0639944916445
 30
0.0
 10
150.7000772226479
 20
188.0637390737679
 30
0.0
 10
150.7399540129859
 20
188.0637056826941
 30
0.0
 10
150.7476923076923
 20
188.0636992029858
 30
0.0
  0
SPLINE
  5
1E0
330
1F
100
AcDbEntity
  8
0
  6
Continuous
 62
     7
370
    25
100
AcDbSpline
210
0.0
220
0.0
230
1.0
 70
     8
 71
     3
 72
    12
 73
     8
 74
     0
 42
0.000000001
 43
0.00000001
 40
0.0
 40
0.0
 40
0.0
 40
0.0
 40
0.2780399133896728
 40
0.5252202241429879
 40
0.7407521971018415
 40
0.9592611469201533
 40
1.0
 40
1.0
 40
1.0
 40
1.0
 10
150.7476923076923
 20
188.0636992029858
 30
0.0
 10
150.7904179956457
 20
188.0637792908176
 30
0.0
 10
150.8711272547228
 20
188.0639305775462
 30
0.0
 10
150.9624023651895
 20
188.0652201870805
 30
0.0
 10
151.0222758060976
 20
188.0670151347409
 30
0.0
 10
151.0369345697879
 20
188.0687580181544
 30
0.0
 10
151.0390297348423
 20
188.0697974132158
 30
0.0
 10
151.039358974359
 20
188.0699607463752
 30
0.0
  0
SPLINE
  5
1E1
330
1F
100
AcDbEntity
  8
0
  6
Continuous
 62
     7
370
    25
100
AcDbSpline
210
0.0
220
0.0
230
1.0
 70
     8
 71
     3
 72
    12
 73
     8
 74
     0
 42
0.000000001
 43
0.00000001
 40
0.0
 40
0.0
 40
0.0
 40
0.0
 40
0.2846232789788411
 40
0.5284652295694634
 40
0.7495372587947767
 40
0.9599280608564352
 40
1.0
 40
1.0
 40
1.0
 40
1.0
 10
151.039358974359
 20
188.0699607463752
 30
0.0
 10
151.034095827239
 20
188.0711935368465
 30
0.0
 10
151.0243236460563
 20
188.0734824813831
 30
0.0
 10
150.9506556187134
 20
188.0765876565672
 30
0.0
 10
150.8639745260193
 20
188.0786810302301
 30
0.0
 10
150.7917800225507
 20
188.0791751979398
 30
0.0
 10
150.7537730971687
 20
188.0792515897585
 30
0.0
 10
150.7476923076923
 20
188.0792638118091
 30
0.0
  0
SPLINE
  5
1E2
330
1F
100
AcDbEntity
  8
0
  6
Continuous
 62
     7
370
    25
100
AcDbSpline
210
0.0
220
0.0
230
1.0
 70
     8
 71
     3
 72
    12
 73
     8
 74
     0
 42
0.000000001
 43
0.00000001
 40
0.0
 40
0.0
 40
0.0
 40
0.0
 40
0.2782943318976307
 40
0.5260032707738355
 40
0.7426031590937401
 40
0.9631729534782275
 40
1.0
 40
1.0
 40
1.0
 40
1.0
 10
150.7476923076923
 20
188.0792638118091
 30
0.0
 10
150.7047149768631
 20
188.0790825336427
 30
0.0
 10
150.6234836545032
 20
188.0787399003312
 30
0.0
 10
150.5321395677205
 20
188.0761190973322
 30
0.0
 10
150.4709262555461
 20
188.073299016151
 30
0.0
 10
150.4585299912515
 20
188.0711602611032
 30
0.0
 10
150.4563391023937
 20
188.0701108857302
 30
0.0
 10
150.4560256410256
 20
188.0699607463752
 30
0.0
  0
SPLINE
  5
1E3
330
1F
100
AcDbEntity
  8
0
  6
Continuous
 62
     7
370
    25
100
AcDbSpline
210
0.0
220
0.0
230
1.0
 70
     8
 71
     3
 72
    12
 73
     8
 74
     0
 42
0.000000001
 43
0.00000001
 40
0.0
 40
0.0
 40
0.0
 40
0.0
 40
0.2625501054210267
 40
0.5100295412960247
 40
0.7370308904093869
 40
0.9489695020228596
 40
1.0
 40
1.0
 40
1.0
 40
1.0
 10
154.9880769230769
 20
188.0699607463752
 30
0.0
 10
154.9923235397168
 20
188.0689365450281
 30
0.0
 10
155.0005730124542
 20
188.0669469326361
 30
0.0
 10
155.0716048580549
 20
188.0650985008082
 30
0.0
 10
155.1574363497624
 20
188.0639944916444
 30
0.0
 10
155.2321285046991
 20
188.063739073768
 30
0.0
 10
155.2720052950372
 20
188.0637056826942
 30
0.0
 10
155.2797435897436
 20
188.0636992029858
 30
0.0
  0
SPLINE
  5
1E4
330
1F
100
AcDbEntity
  8
0
  6
Continuous
 62
     7
370
    25
100
AcDbSpline
210
0.0
220
0.0
230
1.0
 70
     8
 71
     3
 72
    12
 73
     8
 74
     0
 42
0.000000001
 43
0.00000001
 40
0.0
 40
0.0
 40
0.0
 40
0.0
 40
0.2780399133895455
 40
0.5252202241429363
 40
0.7407521971022796
 40
0.9592611469181511
 40
1.0
 40
1.0
 40
1.0
 40
1.0
 10
155.2797435897436
 20
188.0636992029858
 30
0.0
 10
155.3224692776969
 20
188.0637792908176
 30
0.0
 10
155.403178536774
 20
188.0639305775462
 30
0.0
 10
155.4944536472408
 20
188.0652201870805
 30
0.0
 10
155.5543270881487
 20
188.0670151347409
 30
0.0
 10
155.5689858518392
 20
188.0687580181544
 30
0.0
 10
155.5710810168936
 20
188.0697974132158
 30
0.0
 10
155.5714102564103
 20
188.0699607463752
 30
0.0
  0
SPLINE
  5
1E5
330
1F
100
AcDbEntity
  8
0
  6
Continuous
 62
     7
370
    25
100
AcDbSpline
210
0.0
220
0.0
230
1.0
 70
     8
 71
     3
 72
    12
 73
     8
 74
     0
 42
0.000000001
 43
0.00000001
 40
0.0
 40
0.0
 40
0.0
 40
0.0
 40
0.2846232789770637
 40
0.5284652295668
 40
0.7495372587925673
 40
0.9599280608550955
 40
0.9999999999999999
 40
0.9999999999999999
 40
0.9999999999999999
 40
0.9999999999999999
 10
155.5714102564103
 20
188.0699607463752
 30
0.0
 10
155.5661471092905
 20
188.0711935368465
 30
0.0
 10
155.5563749281079
 20
188.0734824813831
 30
0.0
 10
155.4827069007654
 20
188.0765876565672
 30
0.0
 10
155.3960258080716
 20
188.0786810302301
 30
0.0
 10
155.3238313046026
 20
188.0791751979397
 30
0.0
 10
155.2858243792202
 20
188.0792515897585
 30
0.0
 10
155.2797435897436
 20
188.0792638118091
 30
0.0
  0
SPLINE
  5
1E6
330
1F
100
AcDbEntity
  8
0
  6
Continuous
 62
     7
370
    25
100
AcDbSpline
210
0.0
220
0.0
230
1.0
 70
     8
 71
     3
 72
    12
 73
     8
 74
     0
 42
0.000000001
 43
0.00000001
 40
0.0
 40
0.0
 40
0.0
 40
0.0
 40
0.2782943318980563
 40
0.5260032707737318
 40
0.742603159094154
 40
0.9631729534795418
 40
1.0
 40
1.0
 40
1.0
 40
1.0
 10
155.2797435897436
 20
188.0792638118091
 30
0.0
 10
155.2367662589143
 20
188.0790825336427
 30
0.0
 10
155.1555349365545
 20
188.0787399003312
 30
0.0
 10
155.0641908497717
 20
188.0761190973322
 30
0.0
 10
155.0029775375972
 20
188.0732990161509
 30
0.0
 10
154.9905812733029
 20
188.0711602611033
 30
0.0
 10
154.988390384445
 20
188.0701108857302
 30
0.0
 10
154.9880769230769
 20
188.0699607463752
 30
0.0
  0
SPLINE
  5
1E7
330
1F
100
AcDbEntity
  8
0
  6
Continuous
 62
     7
370
    25
100
AcDbSpline
210
0.0
220
0.0
230
1.0
 70
     8
 71
     3
 72
    13
 73
     9
 74
     0
 42
0.000000001
 43
0.00000001
 40
0.0
 40
0.0
 40
0.0
 40
0.0
 40
0.3906185480603278
 40
0.5395451550805642
 40
0.6899144268640282
 40
0.8254968958709412
 40
0.9634724635070685
 40
1.0
 40
1.0
 40
1.0
 40
1.0
 10
110.5201282051282
 20
217.7315745192308
 30
0.0
 10
110.5198922497117
 20
217.5806442278893
 30
0.0
 10
110.519566334308
 20
217.3721704934684
 30
0.0
 10
110.4665749539429
 20
217.107682677744
 30
0.0
 10
110.3701469599079
 20
216.9642222739353
 30
0.0
 10
110.2356330054851
 20
216.8658926827927
 30
0.0
 10
110.1171925502354
 20
216.8322372273226
 30
0.0
 10
110.0497668117115
 20
216.8297511605225
 30
0.0
 10
110.0356530448718
 20
216.8292307692308
 30
0.0
  0
SPLINE
  5
1E8
330
1F
100
AcDbEntity
  8
0
  6
Continuous
 62
     7
370
    25
100
AcDbSpline
210
0.0
220
0.0
230
1.0
 70
     8
 71
     3
 72
    10
 73
     6
 74
     0
 42
0.000000001
 43
0.00000001
 40
0.0
 40
0.0
 40
0.0
 40
0.0
 40
0.2509657134402898
 40
0.5023336660766892
 40
1.0
 40
1.0
 40
1.0
 40
1.0
 10
110.0356530448718
 20
216.8292307692308
 30
0.0
 10
110.0158771647648
 20
216.8297694158187
 30
0.0
 10
109.9762937084516
 20
216.8308475723187
 30
0.0
 10
109.8984958701235
 20
216.8451571926355
 30
0.0
 10
109.8431551680588
 20
216.8659179024227
 30
0.0
 10
109.8063862179487
 20
216.8797115384616
 30
0.0
  0
SPLINE
  5
1E9
330
1F
100
AcDbEntity
  8
0
  6
Continuous
 62
     7
370
    25
100
AcDbSpline
210
0.0
220
0.0
230
1.0
 70
     8
 71
     3
 72
    10
 73
     6
 74
     0
 42
0.000000001
 43
0.00000001
 40
0.0
 40
0.0
 40
0.0
 40
0.0
 40
0.2502704288681611
 40
0.500636955303517
 40
1.0
 40
1.0
 40
1.0
 40
1.0
 10
109.8063862179487
 20
216.8797115384616
 30
0.0
 10
109.7670033821871
 20
216.8979552056784
 30
0.0
 10
109.6882225886429
 20
216.9344495452228
 30
0.0
 10
109.5382627428492
 20
217.0217832876065
 30
0.0
 10
109.430708097127
 20
217.0947399783267
 30
0.0
 10
109.3590705128205
 20
217.1433333333333
 30
0.0
  0
LINE
  5
1EA
330
1F
100
AcDbEntity
  8
0
  6
Continuous
 62
     7
370
    25
100
AcDbLine
 10
109.3590705128
 20
217.1433333333
 30
0.0
 11
109.173974359
 21
216.8741025641
 31
0.0
  0
SPLINE
  5
1EB
330
1F
100
AcDbEntity
  8
0
  6
Continuous
 62
     7
370
    25
100
AcDbSpline
210
0.0
220
0.0
230
1.0
 70
     8
 71
     3
 72
    12
 73
     8
 74
     0
 42
0.000000001
 43
0.00000001
 40
0.0
 40
0.0
 40
0.0
 40
0.0
 40
0.2104760221127522
 40
0.3536628955454325
 40
0.496955359704607
 40
0.6371977791794176
 40
1.0
 40
1.0
 40
1.0
 40
1.0
 10
110.018125
 20
216.4702564102564
 30
0.0
 10
110.1384525350464
 20
216.4809339555613
 30
0.0
 10
110.3406389125311
 20
216.4988754367425
 30
0.0
 10
110.5795462664076
 20
216.6592199247663
 30
0.0
 10
110.7312370072775
 20
216.8519713509087
 30
0.0
 10
110.8343766419848
 20
217.2069490447812
 30
0.0
 10
110.8342918920014
 20
217.4913818539637
 30
0.0
 10
110.8342307692308
 20
217.6965184294872
 30
0.0
  0
LINE
  5
1EC
330
1F
100
AcDbEntity
  8
0
  6
Continuous
 62
     7
370
    25
100
AcDbLine
 10
110.8342307692
 20
217.6965184295
 30
0.0
 11
110.8342307692
 21
220.06
 31
0.0
  0
LINE
  5
1ED
330
1F
100
AcDbEntity
  8
0
  6
Continuous
 62
     7
370
    25
100
AcDbLine
 10
110.8342307692
 20
220.06
 30
0.0
 11
110.5201282051
 21
220.06
 31
0.0
  0
LINE
  5
1EE
330
1F
100
AcDbEntity
  8
0
  6
Continuous
 62
     7
370
    25
100
AcDbLine
 10
110.5201282051
 20
220.06
 30
0.0
 11
110.5201282051
 21
217.7315745192
 31
0.0
  0
LINE
  5
1EF
330
1F
100
AcDbEntity
  8
0
  6
Continuous
 62
     7
370
    25
100
AcDbLine
 10
115.6355128205
 20
216.56
 30
0.0
 11
115.6355128205
 21
219.3083974359
 31
0.0
  0
LINE
  5
1F0
330
1F
100
AcDbEntity
  8
0
  6
Continuous
 62
     7
370
    25
100
AcDbLine
 10
115.6355128205
 20
219.3083974359
 30
0.0
 11
117.9422035256
 21
216.56
 31
0.0
  0
LINE
  5
1F1
330
1F
100
AcDbEntity
  8
0
  6
Continuous
 62
     7
370
    25
100
AcDbLine
 10
117.9422035256
 20
216.56
 30
0.0
 11
118.0137179487
 21
216.56
 31
0.0
  0
LINE
  5
1F2
330
1F
100
AcDbEntity
  8
0
  6
Continuous
 62
     7
370
    25
100
AcDbLine
 10
118.0137179487
 20
216.56
 30
0.0
 11
118.0137179487
 21
220.06
 31
0.0
  0
LINE
  5
1F3
330
1F
100
AcDbEntity
  8
0
  6
Continuous
 62
     7
370
    25
100
AcDbLine
 10
118.0137179487
 20
220.06
 30
0.0
 11
117.6996153846
 21
220.06
 31
0.0
  0
LINE
  5
1F4
330
1F
100
AcDbEntity
  8
0
  6
Continuous
 62
     7
370
    25
100
AcDbLine
 10
117.6996153846
 20
220.06
 30
0.0
 11
117.6996153846
 21
217.3052924679
 31
0.0
  0
LINE
  5
1F5
330
1F
100
AcDbEntity
  8
0
  6
Continuous
 62
     7
370
    25
100
AcDbLine
 10
117.6996153846
 20
217.3052924679
 30
0.0
 11
115.3873157051
 21
220.06
 31
0.0
  0
LINE
  5
1F6
330
1F
100
AcDbEntity
  8
0
  6
Continuous
 62
     7
370
    25
100
AcDbLine
 10
115.3873157051
 20
220.06
 30
0.0
 11
115.3214102564
 21
220.06
 31
0.0
  0
LINE
  5
1F7
330
1F
100
AcDbEntity
  8
0
  6
Continuous
 62
     7
370
    25
100
AcDbLine
 10
115.3214102564
 20
220.06
 30
0.0
 11
115.3214102564
 21
216.56
 31
0.0
  0
LINE
  5
1F8
330
1F
100
AcDbEntity
  8
0
  6
Continuous
 62
     7
370
    25
100
AcDbLine
 10
115.3214102564
 20
216.56
 30
0.0
 11
115.6355128205
 21
216.56
 31
0.0
  0
LINE
  5
1F9
330
1F
100
AcDbEntity
  8
0
  6
Continuous
 62
     7
370
    25
100
AcDbLine
 10
123.8919230769
 20
216.56
 30
0.0
 11
123.9367948718
 21
216.56
 31
0.0
  0
LINE
  5
1FA
330
1F
100
AcDbEntity
  8
0
  6
Continuous
 62
     7
370
    25
100
AcDbLine
 10
123.9367948718
 20
216.56
 30
0.0
 11
125.4175641026
 21
220.06
 31
0.0
  0
LINE
  5
1FB
330
1F
100
AcDbEntity
  8
0
  6
Continuous
 62
     7
370
    25
100
AcDbLine
 10
125.4175641026
 20
220.06
 30
0.0
 11
125.081025641
 21
220.06
 31
0.0
  0
LINE
  5
1FC
330
1F
100
AcDbEntity
  8
0
  6
Continuous
 62
     7
370
    25
100
AcDbLine
 10
125.081025641
 20
220.06
 30
0.0
 11
123.9143589744
 21
217.301786859
 31
0.0
  0
LINE
  5
1FD
330
1F
100
AcDbEntity
  8
0
  6
Continuous
 62
     7
370
    25
100
AcDbLine
 10
123.9143589744
 20
217.301786859
 30
0.0
 11
122.7476923077
 21
220.06
 31
0.0
  0
LINE
  5
1FE
330
1F
100
AcDbEntity
  8
0
  6
Continuous
 62
     7
370
    25
100
AcDbLine
 10
122.7476923077
 20
220.06
 30
0.0
 11
122.4111538462
 21
220.06
 31
0.0
  0
LINE
  5
1FF
330
1F
100
AcDbEntity
  8
0
  6
Continuous
 62
     7
370
    25
100
AcDbLine
 10
122.4111538462
 20
220.06
 30
0.0
 11
123.8919230769
 21
216.56
 31
0.0
  0
LINE
  5
200
330
1F
100
AcDbEntity
  8
0
  6
Continuous
 62
     7
370
    25
100
AcDbLine
 10
130.3085897436
 20
216.56
 30
0.0
 11
131.2551041667
 21
216.56
 31
0.0
  0
SPLINE
  5
201
330
1F
100
AcDbEntity
  8
0
  6
Continuous
 62
     7
370
    25
100
AcDbSpline
210
0.0
220
0.0
230
1.0
 70
     8
 71
     3
 72
    10
 73
     6
 74
     0
 42
0.000000001
 43
0.00000001
 40
0.0
 40
0.0
 40
0.0
 40
0.0
 40
0.3416529535538832
 40
0.6863894670391254
 40
1.0
 40
1.0
 40
1.0
 40
1.0
 10
131.6989142628206
 20
218.4481209935898
 30
0.0
 10
131.7806022977755
 20
218.509051791056
 30
0.0
 10
131.9447156361586
 20
218.6314633117645
 30
0.0
 10
132.080798259251
 20
218.9069469291545
 30
0.0
 10
132.0961490350947
 20
219.1005076544617
 30
0.0
 10
132.1034615384615
 20
219.1927123397436
 30
0.0
  0
SPLINE
  5
202
330
1F
100
AcDbEntity
  8
0
  6
Continuous
 62
     7
370
    25
100
AcDbSpline
210
0.0
220
0.0
230
1.0
 70
     8
 71
     3
 72
    12
 73
     8
 74
     0
 42
0.000000001
 43
0.00000001
 40
0.0
 40
0.0
 40
0.0
 40
0.0
 40
0.2010811756931121
 40
0.4038562369624679
 40
0.5807137130587481
 40
0.7430042503873815
 40
0.9999999999999999
 40
0.9999999999999999
 40
0.9999999999999999
 40
0.9999999999999999
 10
132.1034615384615
 20
219.1927123397436
 30
0.0
 10
132.092792822305
 20
219.2999904978982
 30
0.0
 10
132.0713655179074
 20
219.5154505135422
 30
0.0
 10
131.8997065176687
 20
219.7851083134477
 30
0.0
 10
131.6635866697084
 20
219.9604570501274
 30
0.0
 10
131.353453552004
 20
220.0501124164732
 30
0.0
 10
131.1290360103183
 20
220.0562425928784
 30
0.0
 10
130.9914823717949
 20
220.06
 30
0.0
  0
LINE
  5
203
330
1F
100
AcDbEntity
  8
0
  6
Continuous
 62
     7
370
    25
100
AcDbLine
 10
130.9914823718
 20
220.06
 30
0.0
 11
130.3085897436
 21
220.06
 31
0.0
  0
LINE
  5
204
330
1F
100
AcDbEntity
  8
0
  6
Continuous
 62
     7
370
    25
100
AcDbLine
 10
130.3085897436
 20
220.06
 30
0.0
 11
130.3085897436
 21
216.56
 31
0.0
  0
SPLINE
  5
205
330
1F
100
AcDbEntity
  8
0
  6
Continuous
 62
     7
370
    25
100
AcDbSpline
210
0.0
220
0.0
230
1.0
 70
     8
 71
     3
 72
    13
 73
     9
 74
     0
 42
0.000000001
 43
0.00000001
 40
0.0
 40
0.0
 40
0.0
 40
0.0
 40
0.2531683767313743
 40
0.4136398700517572
 40
0.5741766690187322
 40
0.7413542734088551
 40
0.9441283205928717
 40
0.9999999999999999
 40
0.9999999999999999
 40
0.9999999999999999
 40
0.9999999999999999
 10
138.3932251602564
 20
216.56
 30
0.0
 10
138.6321524935256
 20
216.5683917574458
 30
0.0
 10
139.0225245943435
 20
216.5821026541391
 30
0.0
 10
139.5263655501028
 20
216.8037775147237
 30
0.0
 10
139.8531312125423
 20
217.1350346243047
 30
0.0
 10
140.0947748425929
 20
217.5748270242957
 30
0.0
 10
140.1746632234473
 20
217.9724147536645
 30
0.0
 10
140.1793682526334
 20
218.2137064088975
 30
0.0
 10
140.1803846153846
 20
218.2658293269231
 30
0.0
  0
SPLINE
  5
206
330
1F
100
AcDbEntity
  8
0
  6
Continuous
 62
     7
370
    25
100
AcDbSpline
210
0.0
220
0.0
230
1.0
 70
     8
 71
     3
 72
    11
 73
     7
 74
     0
 42
0.000000001
 43
0.00000001
 40
0.0
 40
0.0
 40
0.0
 40
0.0
 40
0.3932658064279219
 40
0.6500075707693816
 40
0.9078545828186108
 40
1.0
 40
1.0
 40
1.0
 40
1.0
 10
140.1803846153846
 20
218.2658293269231
 30
0.0
 10
140.1548319922511
 20
218.5446631823579
 30
0.0
 10
140.1125974571902
 20
219.0055324317484
 30
0.0
 10
139.7595326417705
 20
219.5530113790639
 30
0.0
 10
139.414856309048
 20
219.8196008223848
 30
0.0
 10
139.1861190073617
 20
219.9099983643543
 30
0.0
 10
139.1258974358975
 20
219.9337980769231
 30
0.0
  0
SPLINE
  5
207
330
1F
100
AcDbEntity
  8
0
  6
Continuous
 62
     7
370
    25
100
AcDbSpline
210
0.0
220
0.0
230
1.0
 70
     8
 71
     3
 72
    10
 73
     6
 74
     0
 42
0.000000001
 43
0.00000001
 40
0.0
 40
0.0
 40
0.0
 40
0.0
 40
0.2509550079241738
 40
0.5015853392105513
 40
1.0
 40
1.0
 40
1.0
 40
1.0
 10
139.1258974358974
 20
219.9337980769231
 30
0.0
 10
139.0355418049919
 20
219.9596080785185
 30
0.0
 10
138.8549474420732
 20
220.0111946896498
 30
0.0
 10
138.4818352004856
 20
220.0515246730264
 30
0.0
 10
138.2017135230248
 20
220.0566137363971
 30
0.0
 10
138.0153205128205
 20
220.06
 30
0.0
  0
LINE
  5
208
330
1F
100
AcDbEntity
  8
0
  6
Continuous
 62
     7
370
    25
100
AcDbLine
 10
138.0153205128
 20
220.06
 30
0.0
 11
137.3085897436
 21
220.06
 31
0.0
  0
LINE
  5
209
330
1F
100
AcDbEntity
  8
0
  6
Continuous
 62
     7
370
    25
100
AcDbLine
 10
137.3085897436
 20
220.06
 30
0.0
 11
137.3085897436
 21
216.56
 31
0.0
  0
LINE
  5
20A
330
1F
100
AcDbEntity
  8
0
  6
Continuous
 62
     7
370
    25
100
AcDbLine
 10
137.3085897436
 20
216.56
 30
0.0
 11
138.3932251603
 21
216.56
 31
0.0
  0
SPLINE
  5
20B
330
1F
100
AcDbEntity
  8
0
  6
Continuous
 62
     7
370
    25
100
AcDbSpline
210
0.0
220
0.0
230
1.0
 70
     8
 71
     3
 72
    12
 73
     8
 74
     0
 42
0.000000001
 43
0.00000001
 40
0.0
 40
0.0
 40
0.0
 40
0.0
 40
0.2218320014695619
 40
0.4457411191973289
 40
0.6368834355416901
 40
0.8542133186169314
 40
1.0
 40
1.0
 40
1.0
 40
1.0
 10
146.3011778846154
 20
219.1625641025641
 30
0.0
 10
146.2235230320973
 20
219.1562400846286
 30
0.0
 10
146.0674862085406
 20
219.1435328340347
 30
0.0
 10
145.8735742722112
 20
219.0219159700856
 30
0.0
 10
145.7327966486443
 20
218.8517749726238
 30
0.0
 10
145.6630867230021
 20
218.6677306321181
 30
0.0
 10
145.6571336662857
 20
218.5420498001193
 30
0.0
 10
145.6547435897436
 20
218.4915905448718
 30
0.0
  0
SPLINE
  5
20C
330
1F
100
AcDbEntity
  8
0
  6
Continuous
 62
     7
370
    25
100
AcDbSpline
210
0.0
220
0.0
230
1.0
 70
     8
 71
     3
 72
    10
 73
     6
 74
     0
 42
0.000000001
 43
0.00000001
 40
0.0
 40
0.0
 40
0.0
 40
0.0
 40
0.2510785893711133
 40
0.5029814016597648
 40
0.9999999999999999
 40
0.9999999999999999
 40
0.9999999999999999
 40
0.9999999999999999
 10
145.6547435897436
 20
218.4915905448718
 30
0.0
 10
145.6559099071727
 20
218.4567605200609
 30
0.0
 10
145.6582463707348
 20
218.3869861329132
 30
0.0
 10
145.6871058042157
 20
218.2499510817979
 30
0.0
 10
145.7380331842479
 20
218.1583504661069
 30
0.0
 10
145.7718309294872
 20
218.0975600961539
 30
0.0
  0
SPLINE
  5
20D
330
1F
100
AcDbEntity
  8
0
  6
Continuous
 62
     7
370
    25
100
AcDbSpline
210
0.0
220
0.0
230
1.0
 70
     8
 71
     3
 72
    10
 73
     6
 74
     0
 42
0.000000001
 43
0.00000001
 40
0.0
 40
0.0
 40
0.0
 40
0.0
 40
0.2513689381763718
 40
0.5025711212391717
 40
1.0
 40
1.0
 40
1.0
 40
1.0
 10
145.7718309294872
 20
218.0975600961539
 30
0.0
 10
145.8015735966766
 20
218.0604121488041
 30
0.0
 10
145.8610392001298
 20
217.9861408976035
 30
0.0
 10
146.0095985461515
 20
217.8675617852859
 30
0.0
 10
146.1317036464202
 20
217.7959704186225
 30
0.0
 10
146.2128365384616
 20
217.7484014423077
 30
0.0
  0
SPLINE
  5
20E
330
1F
100
AcDbEntity
  8
0
  6
Continuous
 62
     7
370
    25
100
AcDbSpline
210
0.0
220
0.0
230
1.0
 70
     8
 71
     3
 72
    10
 73
     6
 74
     0
 42
0.000000001
 43
0.00000001
 40
0.0
 40
0.0
 40
0.0
 40
0.0
 40
0.2507549514696384
 40
0.5015289065402325
 40
1.0
 40
1.0
 40
1.0
 40
1.0
 10
146.2128365384616
 20
217.7484014423077
 30
0.0
 10
146.2473097283906
 20
217.7295376927096
 30
0.0
 10
146.3162587208183
 20
217.6918087639137
 30
0.0
 10
146.4531958858347
 20
217.6146156365174
 30
0.0
 10
146.5416851661847
 20
217.5366500090269
 30
0.0
 10
146.6005568910257
 20
217.4847796474359
 30
0.0
  0
SPLINE
  5
20F
330
1F
100
AcDbEntity
  8
0
  6
Continuous
 62
     7
370
    25
100
AcDbSpline
210
0.0
220
0.0
230
1.0
 70
     8
 71
     3
 72
    10
 73
     6
 74
     0
 42
0.000000001
 43
0.00000001
 40
0.0
 40
0.0
 40
0.0
 40
0.0
 40
0.251970267631023
 40
0.7010055611601802
 40
1.0
 40
1.0
 40
1.0
 40
1.0
 10
146.6005568910257
 20
217.4847796474359
 30
0.0
 10
146.6136846528294
 20
217.466950152688
 30
0.0
 10
146.6502073509893
 20
217.4173467804786
 30
0.0
 10
146.6814264947755
 20
217.3326797471215
 30
0.0
 10
146.6852618461795
 20
217.2670300551
 30
0.0
 10
146.6867948717949
 20
217.2407892628206
 30
0.0
  0
SPLINE
  5
210
330
1F
100
AcDbEntity
  8
0
  6
Continuous
 62
     7
370
    25
100
AcDbSpline
210
0.0
220
0.0
230
1.0
 70
     8
 71
     3
 72
    12
 73
     8
 74
     0
 42
0.000000001
 43
0.00000001
 40
0.0
 40
0.0
 40
0.0
 40
0.0
 40
0.2450631320213123
 40
0.4597986845772506
 40
0.6698789919187728
 40
0.8962618781139051
 40
1.0
 40
1.0
 40
1.0
 40
1.0
 10
146.6867948717949
 20
217.2407892628206
 30
0.0
 10
146.6799853248191
 20
217.1850286047011
 30
0.0
 10
146.6672089405617
 20
217.0804079012806
 30
0.0
 10
146.5704578337666
 20
216.9581053666419
 30
0.0
 10
146.4523701033343
 20
216.8694164786628
 30
0.0
 10
146.3328245109833
 20
216.8333418032495
 30
0.0
 10
146.2585976775635
 20
216.830213740243
 30
0.0
 10
146.2352724358975
 20
216.8292307692308
 30
0.0
  0
LINE
  5
211
330
1F
100
AcDbEntity
  8
0
  6
Continuous
 62
     7
370
    25
100
AcDbLine
 10
145.7283613782
 20
217.0984615385
 30
0.0
 11
145.5201282051
 21
216.8614823718
 31
0.0
  0
SPLINE
  5
212
330
1F
100
AcDbEntity
  8
0
  6
Continuous
 62
     7
370
    25
100
AcDbSpline
210
0.0
220
0.0
230
1.0
 70
     8
 71
     3
 72
    12
 73
     8
 74
     0
 42
0.000000001
 43
0.00000001
 40
0.0
 40
0.0
 40
0.0
 40
0.0
 40
0.2365446707743435
 40
0.4754181042183808
 40
0.6811598979478726
 40
0.9004272673530554
 40
1.0
 40
1.0
 40
1.0
 40
1.0
 10
146.2513982371795
 20
216.5151282051282
 30
0.0
 10
146.3444305553268
 20
216.5230733973673
 30
0.0
 10
146.5314110870793
 20
216.5390420016042
 30
0.0
 10
146.7629873629518
 20
216.6881185378158
 30
0.0
 10
146.9276109684367
 20
216.891549558526
 30
0.0
 10
146.9946190200712
 20
217.0911395068709
 30
0.0
 10
146.9994033158116
 20
217.2153271710576
 30
0.0
 10
147.0008974358975
 20
217.2541105769231
 30
0.0
  0
SPLINE
  5
213
330
1F
100
AcDbEntity
  8
0
  6
Continuous
 62
     7
370
    25
100
AcDbSpline
210
0.0
220
0.0
230
1.0
 70
     8
 71
     3
 72
    10
 73
     6
 74
     0
 42
0.000000001
 43
0.00000001
 40
0.0
 40
0.0
 40
0.0
 40
0.0
 40
0.2513985136866814
 40
0.5023660572089547
 40
1.0
 40
1.0
 40
1.0
 40
1.0
 10
146.8817067307693
 20
217.6495432692308
 30
0.0
 10
146.8502554969913
 20
217.6876400512901
 30
0.0
 10
146.7874069459967
 20
217.7637683064448
 30
0.0
 10
146.6320721890702
 20
217.8851841189108
 30
0.0
 10
146.5053250555775
 20
217.9592693569114
 30
0.0
 10
146.4210697115385
 20
218.0085176282052
 30
0.0
  0
SPLINE
  5
214
330
1F
100
AcDbEntity
  8
0
  6
Continuous
 62
     7
370
    25
100
AcDbSpline
210
0.0
220
0.0
230
1.0
 70
     8
 71
     3
 72
    10
 73
     6
 74
     0
 42
0.000000001
 43
0.00000001
 40
0.0
 40
0.0
 40
0.0
 40
0.0
 40
0.2507840270056898
 40
0.5016603860330685
 40
1.0
 40
1.0
 40
1.0
 40
1.0
 10
146.4210697115385
 20
218.0085176282052
 30
0.0
 10
146.3880457042692
 20
218.026907870228
 30
0.0
 10
146.3219855311677
 20
218.0636951250727
 30
0.0
 10
146.1929849687345
 20
218.1425623564036
 30
0.0
 10
146.1105900702323
 20
218.2203794966578
 30
0.0
 10
146.0557852564103
 20
218.272139423077
 30
0.0
  0
SPLINE
  5
215
330
1F
100
AcDbEntity
  8
0
  6
Continuous
 62
     7
370
    25
100
AcDbSpline
210
0.0
220
0.0
230
1.0
 70
     8
 71
     3
 72
    10
 73
     6
 74
     0
 42
0.000000001
 43
0.00000001
 40
0.0
 40
0.0
 40
0.0
 40
0.0
 40
0.2516962165235327
 40
0.7482815949945744
 40
0.9999999999999999
 40
0.9999999999999999
 40
0.9999999999999999
 40
0.9999999999999999
 10
146.0557852564103
 20
218.272139423077
 30
0.0
 10
146.043434632315
 20
218.2892800108308
 30
0.0
 10
146.0067167792425
 20
218.3402382116361
 30
0.0
 10
145.9737715406228
 20
218.4202925072329
 30
0.0
 10
145.9700859368407
 20
218.4830874428803
 30
0.0
 10
145.9688461538462
 20
218.5042107371795
 30
0.0
  0
SPLINE
  5
216
330
1F
100
AcDbEntity
  8
0
  6
Continuous
 62
     7
370
    25
100
AcDbSpline
210
0.0
220
0.0
230
1.0
 70
     8
 71
     3
 72
    11
 73
     7
 74
     0
 42
0.000000001
 43
0.00000001
 40
0.0
 40
0.0
 40
0.0
 40
0.0
 40
0.2887237118964602
 40
0.5360524911316965
 40
0.7761491901118739
 40
1.0
 40
1.0
 40
1.0
 40
1.0
 10
145.9688461538462
 20
218.5042107371795
 30
0.0
 10
145.9752974549889
 20
218.5554440815681
 30
0.0
 10
145.9872751205082
 20
218.6505653367921
 30
0.0
 10
146.0736619901389
 20
218.7611363387058
 30
0.0
 10
146.1787393540179
 20
218.8362622383001
 30
0.0
 10
146.261329045954
 20
218.8444911547797
 30
0.0
 10
146.3011778846154
 20
218.8484615384616
 30
0.0
  0
SPLINE
  5
217
330
1F
100
AcDbEntity
  8
0
  6
Continuous
 62
     7
370
    25
100
AcDbSpline
210
0.0
220
0.0
230
1.0
 70
     8
 71
     3
 72
    10
 73
     6
 74
     0
 42
0.000000001
 43
0.00000001
 40
0.0
 40
0.0
 40
0.0
 40
0.0
 40
0.275351382873897
 40
0.6360601536017351
 40
1.0
 40
1.0
 40
1.0
 40
1.0
 10
146.3011778846154
 20
218.8484615384616
 30
0.0
 10
146.3501647338129
 20
218.8419318575809
 30
0.0
 10
146.463324081334
 20
218.826848331286
 30
0.0
 10
146.6134910941333
 20
218.7214134914219
 30
0.0
 10
146.699625422561
 20
218.6267656823854
 30
0.0
 10
146.7428846153846
 20
218.5792307692308
 30
0.0
  0
LINE
  5
218
330
1F
100
AcDbEntity
  8
0
  6
Continuous
 62
     7
370
    25
100
AcDbLine
 10
146.7428846154
 20
218.5792307692
 30
0.0
 11
146.956025641
 21
218.798681891
 31
0.0
  0
SPLINE
  5
219
330
1F
100
AcDbEntity
  8
0
  6
Continuous
 62
     7
370
    25
100
AcDbSpline
210
0.0
220
0.0
230
1.0
 70
     8
 71
     3
 72
    11
 73
     7
 74
     0
 42
0.000000001
 43
0.00000001
 40
0.0
 40
0.0
 40
0.0
 40
0.0
 40
0.2515763646087093
 40
0.5035839172188377
 40
0.8544201626380445
 40
1.0
 40
1.0
 40
1.0
 40
1.0
 10
146.9560256410257
 20
218.7986818910257
 30
0.0
 10
146.9114205539251
 20
218.8454045986605
 30
0.0
 10
146.822133929067
 20
218.9389300940717
 30
0.0
 10
146.646445481484
 20
219.0699545759763
 30
0.0
 10
146.4664217670649
 20
219.1533614555661
 30
0.0
 10
146.3386488042541
 20
219.1604772982539
 30
0.0
 10
146.3011778846154
 20
219.1625641025641
 30
0.0
  0
LINE
  5
21A
330
1F
100
AcDbEntity
  8
0
  6
Continuous
 62
     7
370
    25
100
AcDbLine
 10
148.8855128205
 20
216.56
 30
0.0
 11
149.1996153846
 21
216.56
 31
0.0
  0
LINE
  5
21B
330
1F
100
AcDbEntity
  8
0
  6
Continuous
 62
     7
370
    25
100
AcDbLine
 10
149.1996153846
 20
216.56
 30
0.0
 11
149.1996153846
 21
217.4195753205
 31
0.0
  0
SPLINE
  5
21C
330
1F
100
AcDbEntity
  8
0
  6
Continuous
 62
     7
370
    25
100
AcDbSpline
210
0.0
220
0.0
230
1.0
 70
     8
 71
     3
 72
    10
 73
     6
 74
     0
 42
0.000000001
 43
0.00000001
 40
0.0
 40
0.0
 40
0.0
 40
0.0
 40
0.4982676388063702
 40
0.7484166527727599
 40
1.0
 40
1.0
 40
1.0
 40
1.0
 10
149.1996153846154
 20
217.4195753205129
 30
0.0
 10
149.20098719791
 20
217.5659460147793
 30
0.0
 10
149.2030477128505
 20
217.7858002789041
 30
0.0
 10
149.2174094869283
 20
218.0794783205781
 30
0.0
 10
149.2429156091377
 20
218.2246076819007
 30
0.0
 10
149.2557051282051
 20
218.2973798076924
 30
0.0
  0
SPLINE
  5
21D
330
1F
100
AcDbEntity
  8
0
  6
Continuous
 62
     7
370
    25
100
AcDbSpline
210
0.0
220
0.0
230
1.0
 70
     8
 71
     3
 72
    11
 73
     7
 74
     0
 42
0.000000001
 43
0.00000001
 40
0.0
 40
0.0
 40
0.0
 40
0.0
 40
0.4354923133789386
 40
0.6860482133281739
 40
0.8514426941631082
 40
1.0
 40
1.0
 40
1.0
 40
1.0
 10
149.2557051282051
 20
218.2973798076924
 30
0.0
 10
149.291191167235
 20
218.4101112722545
 30
0.0
 10
149.3470937237824
 20
218.5877015935363
 30
0.0
 10
149.5062445073419
 20
218.7568428834117
 30
0.0
 10
149.6395536002972
 20
218.8351536602705
 30
0.0
 10
149.7240404917657
 20
218.8441870656729
 30
0.0
 10
149.7640184294872
 20
218.8484615384616
 30
0.0
  0
SPLINE
  5
21E
330
1F
100
AcDbEntity
  8
0
  6
Continuous
 62
     7
370
    25
100
AcDbSpline
210
0.0
220
0.0
230
1.0
 70
     8
 71
     3
 72
    10
 73
     6
 74
     0
 42
0.000000001
 43
0.00000001
 40
0.0
 40
0.0
 40
0.0
 40
0.0
 40
0.2513732094236504
 40
0.503300973530585
 40
0.9999999999999999
 40
0.9999999999999999
 40
0.9999999999999999
 40
0.9999999999999999
 10
149.7640184294872
 20
218.8484615384616
 30
0.0
 10
149.7781150582847
 20
218.8476017290353
 30
0.0
 10
149.8063394144663
 20
218.8458802133565
 30
0.0
 10
149.860751031774
 20
218.8311963274365
 30
0.0
 10
149.899118960701
 20
218.8141791689283
 30
0.0
 10
149.9245753205128
 20
218.8028886217949
 30
0.0
  0
LINE
  5
21F
330
1F
100
AcDbEntity
  8
0
  6
Continuous
 62
     7
370
    25
100
AcDbLine
 10
149.9245753205
 20
218.8028886218
 30
0.0
 11
150.0970512821
 21
219.0749238782
 31
0.0
  0
SPLINE
  5
220
330
1F
100
AcDbEntity
  8
0
  6
Continuous
 62
     7
370
    25
100
AcDbSpline
210
0.0
220
0.0
230
1.0
 70
     8
 71
     3
 72
    10
 73
     6
 74
     0
 42
0.000000001
 43
0.00000001
 40
0.0
 40
0.0
 40
0.0
 40
0.0
 40
0.2516123159779798
 40
0.5037548122491673
 40
1.0
 40
1.0
 40
1.0
 40
1.0
 10
150.0970512820513
 20
219.0749238782052
 30
0.0
 10
150.0759595577306
 20
219.0869849590933
 30
0.0
 10
150.0337316660478
 20
219.1111325351558
 30
0.0
 10
149.9441538875752
 20
219.1491698614183
 30
0.0
 10
149.8716740965857
 20
219.1572237103385
 30
0.0
 10
149.8236137820513
 20
219.1625641025641
 30
0.0
  0
SPLINE
  5
221
330
1F
100
AcDbEntity
  8
0
  6
Continuous
 62
     7
370
    25
100
AcDbSpline
210
0.0
220
0.0
230
1.0
 70
     8
 71
     3
 72
    10
 73
     6
 74
     0
 42
0.000000001
 43
0.00000001
 40
0.0
 40
0.0
 40
0.0
 40
0.0
 40
0.2779566814556708
 40
0.5566989762827218
 40
0.9999999999999999
 40
0.9999999999999999
 40
0.9999999999999999
 40
0.9999999999999999
 10
149.8236137820513
 20
219.1625641025641
 30
0.0
 10
149.7505137089497
 20
219.1540551235576
 30
0.0
 10
149.6041069535921
 20
219.1370131158702
 30
0.0
 10
149.3762309704519
 20
218.9916092163052
 30
0.0
 10
149.2668005651379
 20
218.8364502775793
 30
0.0
 10
149.1996153846154
 20
218.7411899038462
 30
0.0
  0
LINE
  5
222
330
1F
100
AcDbEntity
  8
0
  6
Continuous
 62
     7
370
    25
100
AcDbLine
 10
149.1996153846
 20
218.7411899038
 30
0.0
 11
149.1996153846
 21
219.1176923077
 31
0.0
  0
LINE
  5
223
330
1F
100
AcDbEntity
  8
0
  6
Continuous
 62
     7
370
    25
100
AcDbLine
 10
149.1996153846
 20
219.1176923077
 30
0.0
 11
148.8855128205
 21
219.1176923077
 31
0.0
  0
LINE
  5
224
330
1F
100
AcDbEntity
  8
0
  6
Continuous
 62
     7
370
    25
100
AcDbLine
 10
148.8855128205
 20
219.1176923077
 30
0.0
 11
148.8855128205
 21
216.56
 31
0.0
  0
SPLINE
  5
225
330
1F
100
AcDbEntity
  8
0
  6
Continuous
 62
     7
370
    25
100
AcDbSpline
210
0.0
220
0.0
230
1.0
 70
     8
 71
     3
 72
    12
 73
     8
 74
     0
 42
0.000000001
 43
0.00000001
 40
0.0
 40
0.0
 40
0.0
 40
0.0
 40
0.2230514027976716
 40
0.4473380363159483
 40
0.6644543411278356
 40
0.8749165017300043
 40
1.0
 40
1.0
 40
1.0
 40
1.0
 10
151.6675641025641
 20
217.8318349358975
 30
0.0
 10
151.6819347157564
 20
217.6766447587927
 30
0.0
 10
151.7107555247962
 20
217.3654049808277
 30
0.0
 10
151.9601972624363
 20
216.9630479720413
 30
0.0
 10
152.3030653128909
 20
216.6605022123883
 30
0.0
 10
152.6739429426581
 20
216.528852192318
 30
0.0
 10
152.9061303224191
 20
216.518854943441
 30
0.0
 10
152.9926842948719
 20
216.5151282051282
 30
0.0
  0
SPLINE
  5
226
330
1F
100
AcDbEntity
  8
0
  6
Continuous
 62
     7
370
    25
100
AcDbSpline
210
0.0
220
0.0
230
1.0
 70
     8
 71
     3
 72
    12
 73
     8
 74
     0
 42
0.000000001
 43
0.00000001
 40
0.0
 40
0.0
 40
0.0
 40
0.0
 40
0.2349666515982965
 40
0.4322957426191666
 40
0.6290105292813783
 40
0.8567672729318111
 40
1.0
 40
1.0
 40
1.0
 40
1.0
 10
152.9926842948719
 20
216.5151282051282
 30
0.0
 10
153.1565124583747
 20
216.5286677198459
 30
0.0
 10
153.4579263701858
 20
216.553577955106
 30
0.0
 10
153.8417496533645
 20
216.7836003383559
 30
0.0
 10
154.1286319614061
 20
217.1077892289437
 30
0.0
 10
154.2943194165318
 20
217.4763643722791
 30
0.0
 10
154.3092395789598
 20
217.7328212829695
 30
0.0
 10
154.315
 20
217.8318349358975
 30
0.0
  0
SPLINE
  5
227
330
1F
100
AcDbEntity
  8
0
  6
Continuous
 62
     7
370
    25
100
AcDbSpline
210
0.0
220
0.0
230
1.0
 70
     8
 71
     3
 72
    10
 73
     6
 74
     0
 42
0.000000001
 43
0.00000001
 40
0.0
 40
0.0
 40
0.0
 40
0.0
 40
0.2509306226011757
 40
0.6895495854776753
 40
1.0
 40
1.0
 40
1.0
 40
1.0
 10
154.315
 20
217.8318349358975
 30
0.0
 10
154.3110371204172
 20
217.9151071441498
 30
0.0
 10
154.3001472499608
 20
218.1439365954418
 30
0.0
 10
154.1858506718882
 20
218.4668387062744
 30
0.0
 10
154.0293150152189
 20
218.6608021247218
 30
0.0
 10
153.9644391025641
 20
218.7411899038462
 30
0.0
  0
SPLINE
  5
228
330
1F
100
AcDbEntity
  8
0
  6
Continuous
 62
     7
370
    25
100
AcDbSpline
210
0.0
220
0.0
230
1.0
 70
     8
 71
     3
 72
    10
 73
     6
 74
     0
 42
0.000000001
 43
0.00000001
 40
0.0
 40
0.0
 40
0.0
 40
0.0
 40
0.2518708499198473
 40
0.6331188431721582
 40
1.0
 40
1.0
 40
1.0
 40
1.0
 10
153.9644391025641
 20
218.7411899038462
 30
0.0
 10
153.8991305099696
 20
218.8051415744269
 30
0.0
 10
153.7349666116631
 20
218.965894625881
 30
0.0
 10
153.3989150389797
 20
219.132318194924
 30
0.0
 10
153.1263497905304
 20
219.1526120388787
 30
0.0
 10
152.9926842948719
 20
219.1625641025641
 30
0.0
  0
SPLINE
  5
229
330
1F
100
AcDbEntity
  8
0
  6
Continuous
 62
     7
370
    25
100
AcDbSpline
210
0.0
220
0.0
230
1.0
 70
     8
 71
     3
 72
    10
 73
     6
 74
     0
 42
0.000000001
 43
0.00000001
 40
0.0
 40
0.0
 40
0.0
 40
0.0
 40
0.251858568664815
 40
0.6433368596180887
 40
1.0
 40
1.0
 40
1.0
 40
1.0
 10
152.9926842948719
 20
219.1625641025641
 30
0.0
 10
152.9009532873993
 20
219.1578312959486
 30
0.0
 10
152.6666394874368
 20
219.1457420152012
 30
0.0
 10
152.3126357730565
 20
219.0161401052605
 30
0.0
 10
152.1132016677508
 20
218.8285275108454
 30
0.0
 10
152.018125
 20
218.7390865384616
 30
0.0
  0
SPLINE
  5
22A
330
1F
100
AcDbEntity
  8
0
  6
Continuous
 62
     7
370
    25
100
AcDbSpline
210
0.0
220
0.0
230
1.0
 70
     8
 71
     3
 72
    12
 73
     8
 74
     0
 42
0.000000001
 43
0.00000001
 40
0.0
 40
0.0
 40
0.0
 40
0.0
 40
0.2846232789770647
 40
0.5284652295674331
 40
0.7495372587932755
 40
0.9599280608548209
 40
0.9999999999999999
 40
0.9999999999999999
 40
0.9999999999999999
 40
0.9999999999999999
 10
155.5714102564103
 20
216.8067948717949
 30
0.0
 10
155.5661471092904
 20
216.8506154152921
 30
0.0
 10
155.5563749281078
 20
216.9319778170684
 30
0.0
 10
155.4827069007653
 20
217.0244110560479
 30
0.0
 10
155.3960258080714
 20
217.0828873325528
 30
0.0
 10
155.3238313046026
 20
217.0960676783641
 30
0.0
 10
155.2858243792202
 20
217.0981313657743
 30
0.0
 10
155.2797435897436
 20
217.0984615384616
 30
0.0
  0
SPLINE
  5
22B
330
1F
100
AcDbEntity
  8
0
  6
Continuous
 62
     7
370
    25
100
AcDbSpline
210
0.0
220
0.0
230
1.0
 70
     8
 71
     3
 72
    12
 73
     8
 74
     0
 42
0.000000001
 43
0.00000001
 40
0.0
 40
0.0
 40
0.0
 40
0.0
 40
0.2782943318980589
 40
0.5260032707742893
 40
0.7426031590941718
 40
0.963172953478514
 40
1.0
 40
1.0
 40
1.0
 40
1.0
 10
155.2797435897436
 20
217.0984615384616
 30
0.0
 10
155.2367662589143
 20
217.0936720509767
 30
0.0
 10
155.1555349365544
 20
217.0846194552404
 30
0.0
 10
155.0641908497716
 20
217.0111246243084
 30
0.0
 10
155.0029775375973
 20
216.9245070856529
 30
0.0
 10
154.9905812733028
 20
216.8514461531298
 30
0.0
 10
154.988390384445
 20
216.8123837273747
 30
0.0
 10
154.9880769230769
 20
216.8067948717949
 30
0.0
  0
SPLINE
  5
22C
330
1F
100
AcDbEntity
  8
0
  6
Continuous
 62
     7
370
    25
100
AcDbSpline
210
0.0
220
0.0
230
1.0
 70
     8
 71
     3
 72
    12
 73
     8
 74
     0
 42
0.000000001
 43
0.00000001
 40
0.0
 40
0.0
 40
0.0
 40
0.0
 40
0.2625501054215262
 40
0.510029541296215
 40
0.7370308904097413
 40
0.9489695020227982
 40
0.9999999999999999
 40
0.9999999999999999
 40
0.9999999999999999
 40
0.9999999999999999
 10
150.4560256410256
 20
216.8067948717949
 30
0.0
 10
150.4602722576655
 20
216.7663734829299
 30
0.0
 10
150.468521730403
 20
216.6878509381064
 30
0.0
 10
150.5395535760037
 20
216.595847913452
 30
0.0
 10
150.6253850677111
 20
216.5335790404072
 30
0.0
 10
150.7000772226479
 20
216.5175622955619
 30
0.0
 10
150.7399540129859
 20
216.5155237879378
 30
0.0
 10
150.7476923076923
 20
216.5151282051282
 30
0.0
  0
SPLINE
  5
22D
330
1F
100
AcDbEntity
  8
0
  6
Continuous
 62
     7
370
    25
100
AcDbSpline
210
0.0
220
0.0
230
1.0
 70
     8
 71
     3
 72
    12
 73
     8
 74
     0
 42
0.000000001
 43
0.00000001
 40
0.0
 40
0.0
 40
0.0
 40
0.0
 40
0.2780399133896806
 40
0.5252202241432449
 40
0.7407521971023546
 40
0.959261146919328
 40
1.0
 40
1.0
 40
1.0
 40
1.0
 10
150.7476923076923
 20
216.5151282051282
 30
0.0
 10
150.7904179956457
 20
216.5202568558607
 30
0.0
 10
150.8711272547228
 20
216.5299449292541
 30
0.0
 10
150.9624023651896
 20
216.6026892603441
 30
0.0
 10
151.0222758060975
 20
216.6889103854379
 30
0.0
 10
151.0369345697879
 20
216.7613707694183
 30
0.0
 10
151.0390297348423
 20
216.8006261779675
 30
0.0
 10
151.039358974359
 20
216.8067948717949
 30
0.0
  0
SPLINE
  5
22E
330
1F
100
AcDbEntity
  8
0
  6
Continuous
 62
     7
370
    25
100
AcDbSpline
210
0.0
220
0.0
230
1.0
 70
     8
 71
     3
 72
    12
 73
     8
 74
     0
 42
0.000000001
 43
0.00000001
 40
0.0
 40
0.0
 40
0.0
 40
0.0
 40
0.2846232789788221
 40
0.5284652295688617
 40
0.7495372587949679
 40
0.959928060856405
 40
0.9999999999999999
 40
0.9999999999999999
 40
0.9999999999999999
 40
0.9999999999999999
 10
151.039358974359
 20
216.8067948717949
 30
0.0
 10
151.0340958272391
 20
216.8506154152924
 30
0.0
 10
151.0243236460564
 20
216.9319778170689
 30
0.0
 10
150.9506556187134
 20
217.0244110560484
 30
0.0
 10
150.8639745260194
 20
217.0828873325531
 30
0.0
 10
150.7917800225507
 20
217.0960676783641
 30
0.0
 10
150.7537730971687
 20
217.0981313657743
 30
0.0
 10
150.7476923076923
 20
217.0984615384616
 30
0.0
  0
SPLINE
  5
22F
330
1F
100
AcDbEntity
  8
0
  6
Continuous
 62
     7
370
    25
100
AcDbSpline
210
0.0
220
0.0
230
1.0
 70
     8
 71
     3
 72
    12
 73
     8
 74
     0
 42
0.000000001
 43
0.00000001
 40
0.0
 40
0.0
 40
0.0
 40
0.0
 40
0.2782943318976585
 40
0.5260032707738114
 40
0.742603159093654
 40
0.9631729534783479
 40
1.0
 40
1.0
 40
1.0
 40
1.0
 10
150.7476923076923
 20
217.0984615384616
 30
0.0
 10
150.7047149768631
 20
217.0936720509767
 30
0.0
 10
150.6234836545032
 20
217.0846194552405
 30
0.0
 10
150.5321395677205
 20
217.0111246243085
 30
0.0
 10
150.4709262555461
 20
216.9245070856531
 30
0.0
 10
150.4585299912516
 20
216.8514461531299
 30
0.0
 10
150.4563391023937
 20
216.8123837273748
 30
0.0
 10
150.4560256410256
 20
216.8067948717949
 30
0.0
  0
SPLINE
  5
230
330
1F
100
AcDbEntity
  8
0
  6
Continuous
 62
     7
370
    25
100
AcDbSpline
210
0.0
220
0.0
230
1.0
 70
     8
 71
     3
 72
    12
 73
     8
 74
     0
 42
0.000000001
 43
0.00000001
 40
0.0
 40
0.0
 40
0.0
 40
0.0
 40
0.2780399133889885
 40
0.5252202241424369
 40
0.7407521971011647
 40
0.9592611469183603
 40
1.0
 40
1.0
 40
1.0
 40
1.0
 10
147.965641025641
 20
216.5151282051282
 30
0.0
 10
148.0083667135943
 20
216.5202568558606
 30
0.0
 10
148.0890759726713
 20
216.529944929254
 30
0.0
 10
148.180351083138
 20
216.6026892603438
 30
0.0
 10
148.2402245240461
 20
216.6889103854375
 30
0.0
 10
148.2548832877366
 20
216.7613707694181
 30
0.0
 10
148.256978452791
 20
216.8006261779674
 30
0.0
 10
148.2573076923077
 20
216.8067948717949
 30
0.0
  0
SPLINE
  5
231
330
1F
100
AcDbEntity
  8
0
  6
Continuous
 62
     7
370
    25
100
AcDbSpline
210
0.0
220
0.0
230
1.0
 70
     8
 71
     3
 72
    12
 73
     8
 74
     0
 42
0.000000001
 43
0.00000001
 40
0.0
 40
0.0
 40
0.0
 40
0.0
 40
0.2846232789797528
 40
0.5284652295694744
 40
0.7495372587950186
 40
0.9599280608573809
 40
1.0
 40
1.0
 40
1.0
 40
1.0
 10
148.2573076923077
 20
216.8067948717949
 30
0.0
 10
148.2520445451877
 20
216.8506154152925
 30
0.0
 10
148.242272364005
 20
216.9319778170692
 30
0.0
 10
148.168604336662
 20
217.0244110560486
 30
0.0
 10
148.0819232439679
 20
217.0828873325532
 30
0.0
 10
148.0097287404993
 20
217.0960676783641
 30
0.0
 10
147.9717218151173
 20
217.0981313657743
 30
0.0
 10
147.965641025641
 20
217.0984615384616
 30
0.0
  0
SPLINE
  5
232
330
1F
100
AcDbEntity
  8
0
  6
Continuous
 62
     7
370
    25
100
AcDbSpline
210
0.0
220
0.0
230
1.0
 70
     8
 71
     3
 72
    12
 73
     8
 74
     0
 42
0.000000001
 43
0.00000001
 40
0.0
 40
0.0
 40
0.0
 40
0.0
 40
0.2782943318980487
 40
0.5260032707742741
 40
0.7426031590944866
 40
0.9631729534785819
 40
1.0
 40
1.0
 40
1.0
 40
1.0
 10
147.965641025641
 20
217.0984615384616
 30
0.0
 10
147.9226636948118
 20
217.0936720509767
 30
0.0
 10
147.8414323724518
 20
217.0846194552404
 30
0.0
 10
147.7500882856691
 20
217.0111246243084
 30
0.0
 10
147.6888749734947
 20
216.9245070856529
 30
0.0
 10
147.6764787092003
 20
216.8514461531298
 30
0.0
 10
147.6742878203424
 20
216.8123837273747
 30
0.0
 10
147.6739743589744
 20
216.8067948717949
 30
0.0
  0
LINE
  5
233
330
1F
100
AcDbEntity
  8
0
  6
Continuous
 62
     7
370
    25
100
AcDbLine
 10
142.2893589744
 20
220.06
 30
0.0
 11
140.6291025641
 21
216.56
 31
0.0
  0
LINE
  5
234
330
1F
100
AcDbEntity
  8
0
  6
Continuous
 62
     7
370
    25
100
AcDbLine
 10
140.6291025641
 20
216.56
 30
0.0
 11
140.9719511218
 21
216.56
 31
0.0
  0
LINE
  5
235
330
1F
100
AcDbEntity
  8
0
  6
Continuous
 62
     7
370
    25
100
AcDbLine
 10
140.9719511218
 20
216.56
 30
0.0
 11
141.5041025641
 21
217.6817948718
 31
0.0
  0
LINE
  5
236
330
1F
100
AcDbEntity
  8
0
  6
Continuous
 62
     7
370
    25
100
AcDbLine
 10
141.5041025641
 20
217.6817948718
 30
0.0
 11
143.0907411859
 21
217.6817948718
 31
0.0
  0
LINE
  5
237
330
1F
100
AcDbEntity
  8
0
  6
Continuous
 62
     7
370
    25
100
AcDbLine
 10
143.0907411859
 20
217.6817948718
 30
0.0
 11
143.6081690705
 21
216.56
 31
0.0
  0
LINE
  5
238
330
1F
100
AcDbEntity
  8
0
  6
Continuous
 62
     7
370
    25
100
AcDbLine
 10
143.6081690705
 20
216.56
 30
0.0
 11
143.9496153846
 21
216.56
 31
0.0
  0
LINE
  5
239
330
1F
100
AcDbEntity
  8
0
  6
Continuous
 62
     7
370
    25
100
AcDbLine
 10
143.9496153846
 20
216.56
 30
0.0
 11
142.3342307692
 21
220.06
 31
0.0
  0
LINE
  5
23A
330
1F
100
AcDbEntity
  8
0
  6
Continuous
 62
     7
370
    25
100
AcDbLine
 10
142.3342307692
 20
220.06
 30
0.0
 11
142.2893589744
 21
220.06
 31
0.0
  0
SPLINE
  5
23B
330
1F
100
AcDbEntity
  8
0
  6
Continuous
 62
     7
370
    25
100
AcDbSpline
210
0.0
220
0.0
230
1.0
 70
     8
 71
     3
 72
    12
 73
     8
 74
     0
 42
0.000000001
 43
0.00000001
 40
0.0
 40
0.0
 40
0.0
 40
0.0
 40
0.2230075071694435
 40
0.4476152356980773
 40
0.653661692024789
 40
0.8804118118183262
 40
0.9999999999999999
 40
0.9999999999999999
 40
0.9999999999999999
 40
0.9999999999999999
 10
132.9111538461539
 20
218.2945753205128
 30
0.0
 10
132.930279553433
 20
218.0793235605047
 30
0.0
 10
132.9686682071617
 20
217.647275471571
 30
0.0
 10
133.3148124087047
 20
217.099412386844
 30
0.0
 10
133.7969670728783
 20
216.6830874675837
 30
0.0
 10
134.3090987492043
 20
216.4906437392989
 30
0.0
 10
134.6416714051534
 20
216.4754891749997
 30
0.0
 10
134.7565064102564
 20
216.4702564102564
 30
0.0
  0
SPLINE
  5
23C
330
1F
100
AcDbEntity
  8
0
  6
Continuous
 62
     7
370
    25
100
AcDbSpline
210
0.0
220
0.0
230
1.0
 70
     8
 71
     3
 72
    12
 73
     8
 74
     0
 42
0.000000001
 43
0.00000001
 40
0.0
 40
0.0
 40
0.0
 40
0.0
 40
0.2267430860293588
 40
0.4553484118410191
 40
0.6602872380333376
 40
0.8776560007943647
 40
0.9999999999999999
 40
0.9999999999999999
 40
0.9999999999999999
 40
0.9999999999999999
 10
136.590641025641
 20
218.3114022435898
 30
0.0
 10
136.5713918893883
 20
218.5328169345224
 30
0.0
 10
136.5327355238275
 20
218.9774647940887
 30
0.0
 10
136.1798096620272
 20
219.5366466883625
 30
0.0
 10
135.6897037289293
 20
219.944247648185
 30
0.0
 10
135.1780720205263
 20
220.1302585762396
 30
0.0
 10
134.8475099954542
 20
220.144584322145
 30
0.0
 10
134.7284615384615
 20
220.1497435897436
 30
0.0
  0
SPLINE
  5
23D
330
1F
100
AcDbEntity
  8
0
  6
Continuous
 62
     7
370
    25
100
AcDbSpline
210
0.0
220
0.0
230
1.0
 70
     8
 71
     3
 72
    12
 73
     8
 74
     0
 42
0.000000001
 43
0.00000001
 40
0.0
 40
0.0
 40
0.0
 40
0.0
 40
0.2122200907284239
 40
0.4248386528317928
 40
0.6366259299289407
 40
0.8468148380852943
 40
1.0
 40
1.0
 40
1.0
 40
1.0
 10
134.7284615384616
 20
220.1497435897436
 30
0.0
 10
134.523308303744
 20
220.1300354991886
 30
0.0
 10
134.1126166318938
 20
220.090582313524
 30
0.0
 10
133.5678878326836
 20
219.7739199400979
 30
0.0
 10
133.1649919586377
 20
219.3095302051584
 30
0.0
 10
132.9425311905338
 20
218.7907706215593
 30
0.0
 10
132.9204587685745
 20
218.4417215775644
 30
0.0
 10
132.9111538461539
 20
218.2945753205128
 30
0.0
  0
SPLINE
  5
23E
330
1F
100
AcDbEntity
  8
0
  6
Continuous
 62
     7
370
    25
100
AcDbSpline
210
0.0
220
0.0
230
1.0
 70
     8
 71
     3
 72
    12
 73
     8
 74
     0
 42
0.000000001
 43
0.00000001
 40
0.0
 40
0.0
 40
0.0
 40
0.0
 40
0.2230075071695242
 40
0.4476152356982463
 40
0.6536616920248999
 40
0.880411811818355
 40
0.9999999999999999
 40
0.9999999999999999
 40
0.9999999999999999
 40
0.9999999999999999
 10
125.9111538461539
 20
218.2945753205128
 30
0.0
 10
125.930279553433
 20
218.0793235605047
 30
0.0
 10
125.9686682071618
 20
217.6472754715707
 30
0.0
 10
126.3148124087049
 20
217.0994123868437
 30
0.0
 10
126.7969670728786
 20
216.6830874675835
 30
0.0
 10
127.3090987492044
 20
216.4906437392989
 30
0.0
 10
127.6416714051534
 20
216.4754891749997
 30
0.0
 10
127.7565064102564
 20
216.4702564102564
 30
0.0
  0
SPLINE
  5
23F
330
1F
100
AcDbEntity
  8
0
  6
Continuous
 62
     7
370
    25
100
AcDbSpline
210
0.0
220
0.0
230
1.0
 70
     8
 71
     3
 72
    12
 73
     8
 74
     0
 42
0.000000001
 43
0.00000001
 40
0.0
 40
0.0
 40
0.0
 40
0.0
 40
0.2240071969412106
 40
0.4499995162782088
 40
0.652066417954978
 40
0.8788759095099717
 40
1.0
 40
1.0
 40
1.0
 40
1.0
 10
127.7565064102564
 20
216.4702564102564
 30
0.0
 10
127.9736284936309
 20
216.4892107489412
 30
0.0
 10
128.4097967678022
 20
216.5272873971739
 30
0.0
 10
128.9587500630114
 20
216.8721918729993
 30
0.0
 10
129.3735802502161
 20
217.3529121501552
 30
0.0
 10
129.5696285763831
 20
217.8614764923892
 30
0.0
 10
129.5852150109858
 20
218.1952185617246
 30
0.0
 10
129.590641025641
 20
218.3114022435898
 30
0.0
  0
SPLINE
  5
240
330
1F
100
AcDbEntity
  8
0
  6
Continuous
 62
     7
370
    25
100
AcDbSpline
210
0.0
220
0.0
230
1.0
 70
     8
 71
     3
 72
    10
 73
     6
 74
     0
 42
0.000000001
 43
0.00000001
 40
0.0
 40
0.0
 40
0.0
 40
0.0
 40
0.4997741391654014
 40
0.7497480425351408
 40
0.9999999999999999
 40
0.9999999999999999
 40
0.9999999999999999
 40
0.9999999999999999
 10
121.1379166666667
 20
218.5469791666667
 30
0.0
 10
121.058359671867
 20
218.603465397724
 30
0.0
 10
120.9390103569532
 20
218.68820455857
 30
0.0
 10
120.7812491720954
 20
218.8032285812949
 30
0.0
 10
120.7054064048171
 20
218.86468927179
 30
0.0
 10
120.6674639423077
 20
218.895436698718
 30
0.0
  0
SPLINE
  5
241
330
1F
100
AcDbEntity
  8
0
  6
Continuous
 62
     7
370
    25
100
AcDbSpline
210
0.0
220
0.0
230
1.0
 70
     8
 71
     3
 72
    10
 73
     6
 74
     0
 42
0.000000001
 43
0.00000001
 40
0.0
 40
0.0
 40
0.0
 40
0.0
 40
0.2508406444515611
 40
0.6639903997403935
 40
1.0
 40
1.0
 40
1.0
 40
1.0
 10
120.6674639423077
 20
218.895436698718
 30
0.0
 10
120.6365330923369
 20
218.9261205405203
 30
0.0
 10
120.5546572564599
 20
219.0073425307942
 30
0.0
 10
120.4561814997481
 20
219.1584757228725
 30
0.0
 10
120.4427977094858
 20
219.2890815262051
 30
0.0
 10
120.4367948717949
 20
219.3476602564103
 30
0.0
  0
SPLINE
  5
242
330
1F
100
AcDbEntity
  8
0
  6
Continuous
 62
     7
370
    25
100
AcDbSpline
210
0.0
220
0.0
230
1.0
 70
     8
 71
     3
 72
    12
 73
     8
 74
     0
 42
0.000000001
 43
0.00000001
 40
0.0
 40
0.0
 40
0.0
 40
0.0
 40
0.2426996139356337
 40
0.457774204030932
 40
0.65042729563045
 40
0.8582807978432178
 40
1.0
 40
1.0
 40
1.0
 40
1.0
 10
120.4367948717949
 20
219.3476602564103
 30
0.0
 10
120.4438775110507
 20
219.4092350909696
 30
0.0
 10
120.4572366157284
 20
219.5253760704363
 30
0.0
 10
120.5633916560088
 20
219.6580710722606
 30
0.0
 10
120.6923565726018
 20
219.7459288655898
 30
0.0
 10
120.8259580007635
 20
219.7863836381988
 30
0.0
 10
120.914229960222
 20
219.7895041525707
 30
0.0
 10
120.950016025641
 20
219.7907692307693
 30
0.0
  0
SPLINE
  5
243
330
1F
100
AcDbEntity
  8
0
  6
Continuous
 62
     7
370
    25
100
AcDbSpline
210
0.0
220
0.0
230
1.0
 70
     8
 71
     3
 72
    10
 73
     6
 74
     0
 42
0.000000001
 43
0.00000001
 40
0.0
 40
0.0
 40
0.0
 40
0.0
 40
0.2738422699668945
 40
0.5498556475791486
 40
1.0
 40
1.0
 40
1.0
 40
1.0
 10
120.950016025641
 20
219.7907692307693
 30
0.0
 10
121.0284774728744
 20
219.7830967764139
 30
0.0
 10
121.1860224343726
 20
219.7676910380718
 30
0.0
 10
121.4280658268303
 20
219.6037631289158
 30
0.0
 10
121.5549527290273
 20
219.4422025200581
 30
0.0
 10
121.633609775641
 20
219.3420512820513
 30
0.0
  0
LINE
  5
244
330
1F
100
AcDbEntity
  8
0
  6
Continuous
 62
     7
370
    25
100
AcDbLine
 10
121.6336097756
 20
219.3420512821
 30
0.0
 11
121.9175641026
 21
219.5572956731
 31
0.0
  0
SPLINE
  5
245
330
1F
100
AcDbEntity
  8
0
  6
Continuous
 62
     7
370
    25
100
AcDbSpline
210
0.0
220
0.0
230
1.0
 70
     8
 71
     3
 72
    11
 73
     7
 74
     0
 42
0.000000001
 43
0.00000001
 40
0.0
 40
0.0
 40
0.0
 40
0.0
 40
0.251266629814267
 40
0.5846066896866776
 40
0.8437682639387081
 40
1.0
 40
1.0
 40
1.0
 40
1.0
 10
121.9175641025641
 20
219.557295673077
 30
0.0
 10
121.8595903446537
 20
219.6339209306609
 30
0.0
 10
121.7247063502063
 20
219.8122002278986
 30
0.0
 10
121.4808893242776
 20
220.0326690388709
 30
0.0
 10
121.2051222932446
 20
220.1379974621497
 30
0.0
 10
121.0452143738908
 20
220.1465332372273
 30
0.0
 10
120.9850721153846
 20
220.1497435897436
 30
0.0
  0
SPLINE
  5
246
330
1F
100
AcDbEntity
  8
0
  6
Continuous
 62
     7
370
    25
100
AcDbSpline
210
0.0
220
0.0
230
1.0
 70
     8
 71
     3
 72
    12
 73
     8
 74
     0
 42
0.000000001
 43
0.00000001
 40
0.0
 40
0.0
 40
0.0
 40
0.0
 40
0.2540580157840089
 40
0.4699191600592534
 40
0.6869702389826703
 40
0.8860233418564635
 40
1.0
 40
1.0
 40
1.0
 40
1.0
 10
120.9850721153846
 20
220.1497435897436
 30
0.0
 10
120.8722368794251
 20
220.1385469548205
 30
0.0
 10
120.6635308516167
 20
220.1178370659302
 30
0.0
 10
120.3942804115169
 20
219.9612249199386
 30
0.0
 10
120.2138328708824
 20
219.7439955287587
 30
0.0
 10
120.1317283936035
 20
219.520401539525
 30
0.0
 10
120.1251042219602
 20
219.3829748600097
 30
0.0
 10
120.1226923076923
 20
219.332936698718
 30
0.0
  0
SPLINE
  5
247
330
1F
100
AcDbEntity
  8
0
  6
Continuous
 62
     7
370
    25
100
AcDbSpline
210
0.0
220
0.0
230
1.0
 70
     8
 71
     3
 72
    10
 73
     6
 74
     0
 42
0.000000001
 43
0.00000001
 40
0.0
 40
0.0
 40
0.0
 40
0.0
 40
0.2503893618965781
 40
0.7197298270704626
 40
1.0
 40
1.0
 40
1.0
 40
1.0
 10
120.1226923076923
 20
219.332936698718
 30
0.0
 10
120.125090528727
 20
219.2848045282577
 30
0.0
 10
120.1319840772286
 20
219.1464513711608
 30
0.0
 10
120.2017676228157
 20
218.9609158069319
 30
0.0
 10
120.2865909081629
 20
218.8438526174629
 30
0.0
 10
120.3183052884615
 20
218.8000841346154
 30
0.0
  0
SPLINE
  5
248
330
1F
100
AcDbEntity
  8
0
  6
Continuous
 62
     7
370
    25
100
AcDbSpline
210
0.0
220
0.0
230
1.0
 70
     8
 71
     3
 72
    10
 73
     6
 74
     0
 42
0.000000001
 43
0.00000001
 40
0.0
 40
0.0
 40
0.0
 40
0.0
 40
0.2507827125641725
 40
0.5008911258599402
 40
0.9999999999999999
 40
0.9999999999999999
 40
0.9999999999999999
 40
0.9999999999999999
 10
120.3183052884615
 20
218.8000841346154
 30
0.0
 10
120.3609915161329
 20
218.754485500393
 30
0.0
 10
120.4462491976468
 20
218.6634108365942
 30
0.0
 10
120.6411954475674
 20
218.5077704912476
 30
0.0
 10
120.7916164179318
 20
218.3974890409035
 30
0.0
 10
120.8918229166667
 20
218.3240224358975
 30
0.0
  0
SPLINE
  5
249
330
1F
100
AcDbEntity
  8
0
  6
Continuous
 62
     7
370
    25
100
AcDbSpline
210
0.0
220
0.0
230
1.0
 70
     8
 71
     3
 72
    10
 73
     6
 74
     0
 42
0.000000001
 43
0.00000001
 40
0.0
 40
0.0
 40
0.0
 40
0.0
 40
0.2502248115369039
 40
0.5004894434037667
 40
1.0
 40
1.0
 40
1.0
 40
1.0
 10
120.8918229166667
 20
218.3240224358975
 30
0.0
 10
120.9487641858244
 20
218.2825932788414
 30
0.0
 10
121.0626557856717
 20
218.1997283717671
 30
0.0
 10
121.2846939865477
 20
218.025868258719
 30
0.0
 10
121.4276159509913
 20
217.869862603335
 30
0.0
 10
121.5228325320513
 20
217.7659294871795
 30
0.0
  0
SPLINE
  5
24A
330
1F
100
AcDbEntity
  8
0
  6
Continuous
 62
     7
370
    25
100
AcDbSpline
210
0.0
220
0.0
230
1.0
 70
     8
 71
     3
 72
    10
 73
     6
 74
     0
 42
0.000000001
 43
0.00000001
 40
0.0
 40
0.0
 40
0.0
 40
0.0
 40
0.2521972424768655
 40
0.5051411476529263
 40
1.0
 40
1.0
 40
1.0
 40
1.0
 10
121.5228325320513
 20
217.7659294871795
 30
0.0
 10
121.5404607580685
 20
217.7402120968148
 30
0.0
 10
121.575769400756
 20
217.6887011764101
 30
0.0
 10
121.6309553927233
 20
217.5766667092616
 30
0.0
 10
121.6414130038743
 20
217.4838207007209
 30
0.0
 10
121.6483333333333
 20
217.4223798076924
 30
0.0
  0
LINE
  5
24B
330
1F
100
AcDbEntity
  8
0
  6
Continuous
 62
     7
370
    25
100
AcDbLine
 10
120.1942067308
 20
217.4125641026
 30
0.0
 11
119.8983333333
 21
217.2351802885
 31
0.0
  0
SPLINE
  5
24C
330
1F
100
AcDbEntity
  8
0
  6
Continuous
 62
     7
370
    25
100
AcDbSpline
210
0.0
220
0.0
230
1.0
 70
     8
 71
     3
 72
    11
 73
     7
 74
     0
 42
0.000000001
 43
0.00000001
 40
0.0
 40
0.0
 40
0.0
 40
0.0
 40
0.454333434278952
 40
0.7078366269238877
 40
0.9615026620551886
 40
0.9999999999999999
 40
0.9999999999999999
 40
0.9999999999999999
 40
0.9999999999999999
 10
119.8983333333333
 20
217.2351802884615
 30
0.0
 10
120.0073698330637
 20
217.053031059779
 30
0.0
 10
120.1772451324751
 20
216.7692485205695
 30
0.0
 10
120.5597550475065
 20
216.5259514732846
 30
0.0
 10
120.8106384466285
 20
216.4730214331053
 30
0.0
 10
120.9449398017301
 20
216.4705783294185
 30
0.0
 10
120.9626362179487
 20
216.4702564102564
 30
0.0
  0
LINE
  5
24D
330
1F
100
AcDbEntity
  8
0
  6
Continuous
 62
     7
370
    25
100
AcDbLine
 10
113.1226923077
 20
220.06
 30
0.0
 11
111.4624358974
 21
216.56
 31
0.0
  0
LINE
  5
24E
330
1F
100
AcDbEntity
  8
0
  6
Continuous
 62
     7
370
    25
100
AcDbLine
 10
111.4624358974
 20
216.56
 30
0.0
 11
111.8052844551
 21
216.56
 31
0.0
  0
LINE
  5
24F
330
1F
100
AcDbEntity
  8
0
  6
Continuous
 62
     7
370
    25
100
AcDbLine
 10
111.8052844551
 20
216.56
 30
0.0
 11
112.3374358974
 21
217.6817948718
 31
0.0
  0
LINE
  5
250
330
1F
100
AcDbEntity
  8
0
  6
Continuous
 62
     7
370
    25
100
AcDbLine
 10
112.3374358974
 20
217.6817948718
 30
0.0
 11
113.9240745192
 21
217.6817948718
 31
0.0
  0
LINE
  5
251
330
1F
100
AcDbEntity
  8
0
  6
Continuous
 62
     7
370
    25
100
AcDbLine
 10
113.9240745192
 20
217.6817948718
 30
0.0
 11
114.4415024038
 21
216.56
 31
0.0
  0
LINE
  5
252
330
1F
100
AcDbEntity
  8
0
  6
Continuous
 62
     7
370
    25
100
AcDbLine
 10
114.4415024038
 20
216.56
 30
0.0
 11
114.7829487179
 21
216.56
 31
0.0
  0
LINE
  5
253
330
1F
100
AcDbEntity
  8
0
  6
Continuous
 62
     7
370
    25
100
AcDbLine
 10
114.7829487179
 20
216.56
 30
0.0
 11
113.1675641026
 21
220.06
 31
0.0
  0
LINE
  5
254
330
1F
100
AcDbEntity
  8
0
  6
Continuous
 62
     7
370
    25
100
AcDbLine
 10
113.1675641026
 20
220.06
 30
0.0
 11
113.1226923077
 21
220.06
 31
0.0
  0
SPLINE
  5
255
330
1F
100
AcDbEntity
  8
0
  6
Continuous
 62
     7
370
    25
100
AcDbSpline
210
0.0
220
0.0
230
1.0
 70
     8
 71
     3
 72
    10
 73
     6
 74
     0
 42
0.000000001
 43
0.00000001
 40
0.0
 40
0.0
 40
0.0
 40
0.0
 40
0.2509353623067453
 40
0.685912782138983
 40
1.0
 40
1.0
 40
1.0
 40
1.0
 10
152.018125
 20
188.1884644248038
 30
0.0
 10
151.9650843357139
 20
188.1824328956988
 30
0.0
 10
151.820101702447
 20
188.1659461683164
 30
0.0
 10
151.6884389179152
 20
188.1396602431777
 30
0.0
 10
151.67373115447
 20
188.1230723377656
 30
0.0
 10
151.6675641025641
 20
188.1161169312507
 30
0.0
  0
SPLINE
  5
256
330
1F
100
AcDbEntity
  8
0
  6
Continuous
 62
     7
370
    25
100
AcDbSpline
210
0.0
220
0.0
230
1.0
 70
     8
 71
     3
 72
    12
 73
     8
 74
     0
 42
0.000000001
 43
0.00000001
 40
0.0
 40
0.0
 40
0.0
 40
0.0
 40
0.2230514027976511
 40
0.4473380363159002
 40
0.6644543411277882
 40
0.8749165017298963
 40
1.0
 40
1.0
 40
1.0
 40
1.0
 10
151.6675641025641
 20
188.1161169312507
 30
0.0
 10
151.6819347157564
 20
188.1070628258209
 30
0.0
 10
151.7107555247962
 20
188.0889044744597
 30
0.0
 10
151.9601972624362
 20
188.073896583216
 30
0.0
 10
152.3030653128908
 20
188.0661171339385
 30
0.0
 10
152.673942942658
 20
188.063927386542
 30
0.0
 10
152.9061303224191
 20
188.0637611660574
 30
0.0
 10
152.9926842948719
 20
188.0636992029858
 30
0.0
  0
SPLINE
  5
257
330
1F
100
AcDbEntity
  8
0
  6
Continuous
 62
     7
370
    25
100
AcDbSpline
210
0.0
220
0.0
230
1.0
 70
     8
 71
     3
 72
    12
 73
     8
 74
     0
 42
0.000000001
 43
0.00000001
 40
0.0
 40
0.0
 40
0.0
 40
0.0
 40
0.2349666515982401
 40
0.432295742618985
 40
0.6290105292810747
 40
0.8567672729309478
 40
1.0
 40
1.0
 40
1.0
 40
1.0
 10
152.9926842948719
 20
188.0636992029858
 30
0.0
 10
153.1565124583746
 20
188.06388872746
 30
0.0
 10
153.4579263701856
 20
188.0642374178921
 30
0.0
 10
153.8417496533642
 20
188.0689094536251
 30
0.0
 10
154.1286319614056
 20
188.0788472934863
 30
0.0
 10
154.2943194165316
 20
188.0947157701947
 30
0.0
 10
154.3092395789596
 20
188.1101557987409
 30
0.0
 10
154.315
 20
188.1161169312507
 30
0.0
  0
SPLINE
  5
258
330
1F
100
AcDbEntity
  8
0
  6
Continuous
 62
     7
370
    25
100
AcDbSpline
210
0.0
220
0.0
230
1.0
 70
     8
 71
     3
 72
    10
 73
     6
 74
     0
 42
0.000000001
 43
0.00000001
 40
0.0
 40
0.0
 40
0.0
 40
0.0
 40
0.2509306226011732
 40
0.6895495854769456
 40
1.0
 40
1.0
 40
1.0
 40
1.0
 10
154.315
 20
188.1161169312507
 30
0.0
 10
154.3110371204172
 20
188.1216220835908
 30
0.0
 10
154.3001472499608
 20
188.1367500718558
 30
0.0
 10
154.1858506718883
 20
188.162930388804
 30
0.0
 10
154.0293150152191
 20
188.1811256809277
 30
0.0
 10
153.9644391025641
 20
188.1886666860104
 30
0.0
  0
SPLINE
  5
259
330
1F
100
AcDbEntity
  8
0
  6
Continuous
 62
     7
370
    25
100
AcDbSpline
210
0.0
220
0.0
230
1.0
 70
     8
 71
     3
 72
    10
 73
     6
 74
     0
 42
0.000000001
 43
0.00000001
 40
0.0
 40
0.0
 40
0.0
 40
0.0
 40
0.2518708499198573
 40
0.6331188431722231
 40
1.0
 40
1.0
 40
1.0
 40
1.0
 10
153.9644391025641
 20
188.1886666860104
 30
0.0
 10
153.8991305099696
 20
188.194965896813
 30
0.0
 10
153.734966611663
 20
188.2108000001144
 30
0.0
 10
153.3989150389796
 20
188.2290497636803
 30
0.0
 10
153.1263497905304
 20
188.2313124212646
 30
0.0
 10
152.9926842948719
 20
188.2324220243752
 30
0.0
  0
SPLINE
  5
25A
330
1F
100
AcDbEntity
  8
0
  6
Continuous
 62
     7
370
    25
100
AcDbSpline
210
0.0
220
0.0
230
1.0
 70
     8
 71
     3
 72
    10
 73
     6
 74
     0
 42
0.000000001
 43
0.00000001
 40
0.0
 40
0.0
 40
0.0
 40
0.0
 40
0.2518585686648136
 40
0.6433368596177597
 40
1.0
 40
1.0
 40
1.0
 40
1.0
 10
152.9926842948719
 20
188.2324220243752
 30
0.0
 10
152.9009532873993
 20
188.2319026449589
 30
0.0
 10
152.6666394874369
 20
188.2305759641777
 30
0.0
 10
152.3126357730566
 20
188.2160233927137
 30
0.0
 10
152.1132016677508
 20
188.1973612634773
 30
0.0
 10
152.018125
 20
188.1884644248038
 30
0.0
  0
ELLIPSE
  5
25B
330
1F
100
AcDbEntity
  8
0
  6
Continuous
 62
     7
370
    25
100
AcDbEllipse
 10
148.1855273799
 20
216.06
 30
0.0
 11
3.126388037344441E-13
 21
28.0
 31
0.0
210
0.0
220
0.0
230
1.0
 40
0.6340206186
 41
3.23971031677905
 42
3.24947766673344
  0
SPLINE
  5
25C
330
1F
100
AcDbEntity
  8
0
  6
Continuous
 62
     7
370
    25
100
AcDbSpline
210
0.0
220
0.0
230
1.0
 70
     8
 71
     3
 72
    10
 73
     6
 74
     0
 42
0.000000001
 43
0.00000001
 40
0.0
 40
0.0
 40
0.0
 40
0.0
 40
0.3891039854310537
 40
0.779027864213848
 40
1.0
 40
1.0
 40
1.0
 40
1.0
 10
150.0970512820513
 20
188.2227904773372
 30
0.0
 10
150.0759096826876
 20
188.2240810433099
 30
0.0
 10
150.0335819358254
 20
188.2266648946478
 30
0.0
 10
149.9762985806269
 20
188.2296452153782
 30
0.0
 10
149.9383147565669
 20
188.2302330535061
 30
0.0
 10
149.9245753205128
 20
188.2304456851873
 30
0.0
  0
SPLINE
  5
25D
330
1F
100
AcDbEntity
  8
0
  6
Continuous
 62
     7
370
    25
100
AcDbSpline
210
0.0
220
0.0
230
1.0
 70
     8
 71
     3
 72
    12
 73
     8
 74
     0
 42
0.000000001
 43
0.00000001
 40
0.0
 40
0.0
 40
0.0
 40
0.0
 40
0.2780399133895126
 40
0.525220224143148
 40
0.7407521971026726
 40
0.9592611469186249
 40
1.0
 40
1.0
 40
1.0
 40
1.0
 10
155.2797435897436
 20
216.5151282051282
 30
0.0
 10
155.3224692776969
 20
216.5202568558606
 30
0.0
 10
155.403178536774
 20
216.5299449292541
 30
0.0
 10
155.4944536472409
 20
216.6026892603441
 30
0.0
 10
155.5543270881488
 20
216.6889103854379
 30
0.0
 10
155.5689858518393
 20
216.7613707694183
 30
0.0
 10
155.5710810168936
 20
216.8006261779674
 30
0.0
 10
155.5714102564103
 20
216.8067948717949
 30
0.0
  0
SPLINE
  5
25E
330
1F
100
AcDbEntity
  8
0
  6
Continuous
 62
     7
370
    25
100
AcDbSpline
210
0.0
220
0.0
230
1.0
 70
     8
 71
     3
 72
    12
 73
     8
 74
     0
 42
0.000000001
 43
0.00000001
 40
0.0
 40
0.0
 40
0.0
 40
0.0
 40
0.2267430860295799
 40
0.4553484118414492
 40
0.6602872380340368
 40
0.8776560007949168
 40
1.0
 40
1.0
 40
1.0
 40
1.0
 10
129.590641025641
 20
218.3114022435898
 30
0.0
 10
129.5713918893883
 20
218.5328169345226
 30
0.0
 10
129.5327355238273
 20
218.9774647940893
 30
0.0
 10
129.1798096620263
 20
219.5366466883635
 30
0.0
 10
128.6897037289278
 20
219.9442476481859
 30
0.0
 10
128.1780720205251
 20
220.1302585762397
 30
0.0
 10
127.8475099954537
 20
220.144584322145
 30
0.0
 10
127.7284615384615
 20
220.1497435897436
 30
0.0
  0
SPLINE
  5
25F
330
1F
100
AcDbEntity
  8
0
  6
Continuous
 62
     7
370
    25
100
AcDbSpline
210
0.0
220
0.0
230
1.0
 70
     8
 71
     3
 72
    12
 73
     8
 74
     0
 42
0.000000001
 43
0.00000001
 40
0.0
 40
0.0
 40
0.0
 40
0.0
 40
0.2122200907283816
 40
0.4248386528317115
 40
0.6366259299289784
 40
0.8468148380853896
 40
1.0
 40
1.0
 40
1.0
 40
1.0
 10
127.7284615384615
 20
220.1497435897436
 30
0.0
 10
127.5233083037441
 20
220.1300354991886
 30
0.0
 10
127.1126166318939
 20
220.090582313524
 30
0.0
 10
126.5678878326837
 20
219.773919940098
 30
0.0
 10
126.1649919586376
 20
219.3095302051584
 30
0.0
 10
125.9425311905337
 20
218.7907706215591
 30
0.0
 10
125.9204587685745
 20
218.4417215775643
 30
0.0
 10
125.9111538461539
 20
218.2945753205128
 30
0.0
  0
SPLINE
  5
260
330
1F
100
AcDbEntity
  8
0
  6
Continuous
 62
     7
370
    25
100
AcDbSpline
210
0.0
220
0.0
230
1.0
 70
     8
 71
     3
 72
    12
 73
     8
 74
     0
 42
0.000000001
 43
0.00000001
 40
0.0
 40
0.0
 40
0.0
 40
0.0
 40
0.2240071969412164
 40
0.4499995162782226
 40
0.6520664179549956
 40
0.8788759095101892
 40
1.0
 40
1.0
 40
1.0
 40
1.0
 10
134.7565064102564
 20
216.4702564102564
 30
0.0
 10
134.9736284936309
 20
216.4892107489412
 30
0.0
 10
135.4097967678023
 20
216.5272873971739
 30
0.0
 10
135.9587500630115
 20
216.8721918729994
 30
0.0
 10
136.3735802502162
 20
217.3529121501554
 30
0.0
 10
136.5696285763832
 20
217.8614764923894
 30
0.0
 10
136.5852150109858
 20
218.1952185617249
 30
0.0
 10
136.590641025641
 20
218.3114022435898
 30
0.0
  0
SPLINE
  5
261
330
1F
100
AcDbEntity
  8
0
  6
Continuous
 62
     7
370
    25
100
AcDbSpline
210
0.0
220
0.0
230
1.0
 70
     8
 71
     3
 72
    10
 73
     6
 74
     0
 42
0.000000001
 43
0.00000001
 40
0.0
 40
0.0
 40
0.0
 40
0.0
 40
0.2509353623067449
 40
0.6859127821389217
 40
1.0
 40
1.0
 40
1.0
 40
1.0
 10
152.018125
 20
218.7390865384616
 30
0.0
 10
151.9650843357139
 20
218.6750054206079
 30
0.0
 10
151.820101702447
 20
218.4998445448128
 30
0.0
 10
151.6884389179152
 20
218.1844439804203
 30
0.0
 10
151.67373115447
 20
217.9360063138697
 30
0.0
 10
151.6675641025641
 20
217.8318349358975
 30
0.0
  0
SPLINE
  5
262
330
1F
100
AcDbEntity
  8
0
  6
Continuous
 62
     7
370
    25
100
AcDbSpline
210
0.0
220
0.0
230
1.0
 70
     8
 71
     3
 72
    12
 73
     8
 74
     0
 42
0.000000001
 43
0.00000001
 40
0.0
 40
0.0
 40
0.0
 40
0.0
 40
0.2625501054210198
 40
0.5100295412959941
 40
0.7370308904094244
 40
0.9489695020229821
 40
0.9999999999999999
 40
0.9999999999999999
 40
0.9999999999999999
 40
0.9999999999999999
 10
154.9880769230769
 20
216.8067948717949
 30
0.0
 10
154.9923235397168
 20
216.76637348293
 30
0.0
 10
155.0005730124542
 20
216.6878509381065
 30
0.0
 10
155.0716048580549
 20
216.5958479134521
 30
0.0
 10
155.1574363497624
 20
216.5335790404072
 30
0.0
 10
155.2321285046991
 20
216.5175622955619
 30
0.0
 10
155.2720052950373
 20
216.5155237879378
 30
0.0
 10
155.2797435897436
 20
216.5151282051282
 30
0.0
  0
SPLINE
  5
263
330
1F
100
AcDbEntity
  8
0
  6
Continuous
 62
     7
370
    25
100
AcDbSpline
210
0.0
220
0.0
230
1.0
 70
     8
 71
     3
 72
    12
 73
     8
 74
     0
 42
0.000000001
 43
0.00000001
 40
0.0
 40
0.0
 40
0.0
 40
0.0
 40
0.2388532182573538
 40
0.4796573817143631
 40
0.6965458077242995
 40
0.9182171309272935
 40
0.9999999999999999
 40
0.9999999999999999
 40
0.9999999999999999
 40
0.9999999999999999
 10
120.9626362179487
 20
216.4702564102564
 30
0.0
 10
121.0849082265367
 20
216.4810860957194
 30
0.0
 10
121.3304509574413
 20
216.5028339231585
 30
0.0
 10
121.6390005745305
 20
216.6991457730907
 30
0.0
 10
121.864635772913
 20
216.9646484515872
 30
0.0
 10
121.9558536999184
 20
217.2220880201237
 30
0.0
 10
121.9610385474616
 20
217.3759934464939
 30
0.0
 10
121.9624358974359
 20
217.4174719551282
 30
0.0
  0
SPLINE
  5
264
330
1F
100
AcDbEntity
  8
0
  6
Continuous
 62
     7
370
    25
100
AcDbSpline
210
0.0
220
0.0
230
1.0
 70
     8
 71
     3
 72
    12
 73
     8
 74
     0
 42
0.000000001
 43
0.00000001
 40
0.0
 40
0.0
 40
0.0
 40
0.0
 40
0.2993026399935776
 40
0.5022452131428138
 40
0.7049192297986243
 40
0.9090014548847588
 40
1.0
 40
1.0
 40
1.0
 40
1.0
 10
131.2551041666667
 20
216.56
 30
0.0
 10
131.4237237875251
 20
216.5729600363615
 30
0.0
 10
131.7066761778545
 20
216.5947076434821
 30
0.0
 10
132.050025098886
 20
216.8054569135384
 30
0.0
 10
132.2704840820353
 20
217.0698934298483
 30
0.0
 10
132.3644579015654
 20
217.3389229621231
 30
0.0
 10
132.3707514656226
 20
217.5029164249542
 30
0.0
 10
132.3726923076923
 20
217.5534895833334
 30
0.0
  0
SPLINE
  5
265
330
1F
100
AcDbEntity
  8
0
  6
Continuous
 62
     7
370
    25
100
AcDbSpline
210
0.0
220
0.0
230
1.0
 70
     8
 71
     3
 72
    10
 73
     6
 74
     0
 42
0.000000001
 43
0.00000001
 40
0.0
 40
0.0
 40
0.0
 40
0.0
 40
0.391635718940926
 40
0.7841033292816139
 40
1.0
 40
1.0
 40
1.0
 40
1.0
 10
145.5201282051283
 20
216.8614823717949
 30
0.0
 10
145.5975736851826
 20
216.7838837648581
 30
0.0
 10
145.7526291507888
 20
216.628521720223
 30
0.0
 10
146.0228129665282
 20
216.528225739867
 30
0.0
 10
146.1915254519864
 20
216.5185588106162
 30
0.0
 10
146.2513982371795
 20
216.5151282051282
 30
0.0
  0
SPLINE
  5
266
330
1F
100
AcDbEntity
  8
0
  6
Continuous
 62
     7
370
    25
100
AcDbSpline
210
0.0
220
0.0
230
1.0
 70
     8
 71
     3
 72
    10
 73
     6
 74
     0
 42
0.000000001
 43
0.00000001
 40
0.0
 40
0.0
 40
0.0
 40
0.0
 40
0.2515035219491655
 40
0.5037947008910554
 40
1.0
 40
1.0
 40
1.0
 40
1.0
 10
147.0008974358975
 20
217.2541105769231
 30
0.0
 10
146.9994220784709
 20
217.2891717344611
 30
0.0
 10
146.9964667431035
 20
217.3594038538281
 30
0.0
 10
146.9669199192489
 20
217.4969275649804
 30
0.0
 10
146.9156773062544
 20
217.5887024135609
 30
0.0
 10
146.8817067307693
 20
217.6495432692308
 30
0.0
  0
SPLINE
  5
267
330
1F
100
AcDbEntity
  8
0
  6
Continuous
 62
     7
370
    25
100
AcDbSpline
210
0.0
220
0.0
230
1.0
 70
     8
 71
     3
 72
    12
 73
     8
 74
     0
 42
0.000000001
 43
0.00000001
 40
0.0
 40
0.0
 40
0.0
 40
0.0
 40
0.2625501054219684
 40
0.5100295412963838
 40
0.7370308904109952
 40
0.9489695020236526
 40
1.0
 40
1.0
 40
1.0
 40
1.0
 10
147.6739743589744
 20
216.8067948717949
 30
0.0
 10
147.6782209756143
 20
216.7663734829298
 30
0.0
 10
147.6864704483517
 20
216.6878509381063
 30
0.0
 10
147.7575022939526
 20
216.5958479134518
 30
0.0
 10
147.8433337856602
 20
216.533579040407
 30
0.0
 10
147.9180259405969
 20
216.5175622955619
 30
0.0
 10
147.9579027309348
 20
216.5155237879378
 30
0.0
 10
147.965641025641
 20
216.5151282051282
 30
0.0
  0
SPLINE
  5
268
330
1F
100
AcDbEntity
  8
0
  6
Continuous
 62
     7
370
    25
100
AcDbSpline
210
0.0
220
0.0
230
1.0
 70
     8
 71
     3
 72
    11
 73
     7
 74
     0
 42
0.000000001
 43
0.00000001
 40
0.0
 40
0.0
 40
0.0
 40
0.0
 40
0.239425066125222
 40
0.4796848475590029
 40
0.8753445584604491
 40
1.0
 40
1.0
 40
1.0
 40
1.0
 10
120.9626362179487
 20
216.8292307692308
 30
0.0
 10
120.8815720063352
 20
216.8384988978756
 30
0.0
 10
120.71916096634
 20
216.85706746694
 30
0.0
 10
120.4673483259072
 20
217.0250973497968
 30
0.0
 10
120.305139533465
 20
217.2264245518904
 30
0.0
 10
120.2156470532124
 20
217.3765883416632
 30
0.0
 10
120.1942067307693
 20
217.4125641025641
 30
0.0
  0
SPLINE
  5
269
330
1F
100
AcDbEntity
  8
0
  6
Continuous
 62
     7
370
    25
100
AcDbSpline
210
0.0
220
0.0
230
1.0
 70
     8
 71
     3
 72
    10
 73
     6
 74
     0
 42
0.000000001
 43
0.00000001
 40
0.0
 40
0.0
 40
0.0
 40
0.0
 40
0.3992377412252845
 40
0.8253181091222169
 40
1.0
 40
1.0
 40
1.0
 40
1.0
 10
146.2352724358975
 20
216.8292307692308
 30
0.0
 10
146.1564576205405
 20
216.8401913451304
 30
0.0
 10
145.9935288999701
 20
216.8628494278774
 30
0.0
 10
145.8321415762118
 20
216.9876673848585
 30
0.0
 10
145.7517396205087
 20
217.073503284204
 30
0.0
 10
145.7283613782052
 20
217.0984615384616
 30
0.0
  0
SPLINE
  5
26A
330
1F
100
AcDbEntity
  8
0
  6
Continuous
 62
     7
370
    25
100
AcDbSpline
210
0.0
220
0.0
230
1.0
 70
     8
 71
     3
 72
    10
 73
     6
 74
     0
 42
0.000000001
 43
0.00000001
 40
0.0
 40
0.0
 40
0.0
 40
0.0
 40
0.2516170410643216
 40
0.6714711856393717
 40
1.0
 40
1.0
 40
1.0
 40
1.0
 10
109.1739743589744
 20
216.8741025641026
 30
0.0
 10
109.2336627633683
 20
216.8208076429744
 30
0.0
 10
109.3929486507542
 20
216.6785835562147
 30
0.0
 10
109.673127184334
 20
216.5053334959974
 30
0.0
 10
109.9128780093474
 20
216.4809572250079
 30
0.0
 10
110.018125
 20
216.4702564102564
 30
0.0
  0
SPLINE
  5
26B
330
1F
100
AcDbEntity
  8
0
  6
Continuous
 62
     7
370
    25
100
AcDbSpline
210
0.0
220
0.0
230
1.0
 70
     8
 71
     3
 72
    11
 73
     7
 74
     0
 42
0.000000001
 43
0.00000001
 40
0.0
 40
0.0
 40
0.0
 40
0.0
 40
0.2580929400367076
 40
0.4907740256778189
 40
0.7433069065258331
 40
1.0
 40
1.0
 40
1.0
 40
1.0
 10
121.9624358974359
 20
217.4174719551282
 30
0.0
 10
121.9445163220244
 20
217.5427143455757
 30
0.0
 10
121.9104415342294
 20
217.7808677492939
 30
0.0
 10
121.6971020520227
 20
218.0812926461446
 30
0.0
 10
121.4357352176913
 20
218.3264978915226
 30
0.0
 10
121.2377287334644
 20
218.4730862151141
 30
0.0
 10
121.1379166666667
 20
218.5469791666667
 30
0.0
  0
SPLINE
  5
26C
330
1F
100
AcDbEntity
  8
0
  6
Continuous
 62
     7
370
    25
100
AcDbSpline
210
0.0
220
0.0
230
1.0
 70
     8
 71
     3
 72
    12
 73
     8
 74
     0
 42
0.000000001
 43
0.00000001
 40
0.0
 40
0.0
 40
0.0
 40
0.0
 40
0.199408264495659
 40
0.3998870664366385
 40
0.5904989902986817
 40
0.8555922715223755
 40
1.0
 40
1.0
 40
1.0
 40
1.0
 10
121.6483333333334
 20
217.4223798076924
 30
0.0
 10
121.6407003065362
 20
217.3554676433453
 30
0.0
 10
121.6253932744949
 20
217.2212840919397
 30
0.0
 10
121.5156247213797
 20
217.0486766434069
 30
0.0
 10
121.3411450657918
 20
216.912312031355
 30
0.0
 10
121.1481761052293
 20
216.8383415819762
 30
0.0
 10
121.011007712777
 20
216.8316060193081
 30
0.0
 10
120.9626362179487
 20
216.8292307692308
 30
0.0
  0
SPLINE
  5
26D
330
1F
100
AcDbEntity
  8
0
  6
Continuous
 62
     7
370
    25
100
AcDbSpline
210
0.0
220
0.0
230
1.0
 70
     8
 71
     3
 72
    11
 73
     7
 74
     0
 42
0.000000001
 43
0.00000001
 40
0.0
 40
0.0
 40
0.0
 40
0.0
 40
0.2850930254896713
 40
0.5727657227094265
 40
0.8218753254765484
 40
1.0
 40
1.0
 40
1.0
 40
1.0
 10
132.3726923076923
 20
217.5534895833334
 30
0.0
 10
132.3620091077879
 20
217.6681087761536
 30
0.0
 10
132.3405460407642
 20
217.8983842965711
 30
0.0
 10
132.1605328566337
 20
218.188802512952
 30
0.0
 10
131.9248322874973
 20
218.3595201896691
 30
0.0
 10
131.7653898216504
 20
218.4220505285977
 30
0.0
 10
131.6989142628206
 20
218.4481209935898
 30
0.0
  0
SPLINE
  5
26E
330
1F
100
AcDbEntity
  8
0
  6
Continuous
 62
     7
370
    25
100
AcDbSpline
210
0.0
220
0.0
230
1.0
 70
     8
 71
     3
 72
    12
 73
     8
 74
     0
 42
0.000000001
 43
0.00000001
 40
0.0
 40
0.0
 40
0.0
 40
0.0
 40
0.2140881856917922
 40
0.4292624406746343
 40
0.635020059032979
 40
0.8360879692382379
 40
0.9999999999999999
 40
0.9999999999999999
 40
0.9999999999999999
 40
0.9999999999999999
 10
136.2765384615385
 20
218.3121033653846
 30
0.0
 10
136.261554706813
 20
218.1423806037976
 30
0.0
 10
136.2315111847795
 20
217.8020740771135
 30
0.0
 10
135.9690033382631
 20
217.3550833165816
 30
0.0
 10
135.5878257746735
 20
217.0356437942765
 30
0.0
 10
135.1628489108187
 20
216.8565071057043
 30
0.0
 10
134.8737294174537
 20
216.8376841395637
 30
0.0
 10
134.7438862179488
 20
216.8292307692308
 30
0.0
  0
SPLINE
  5
26F
330
1F
100
AcDbEntity
  8
0
  6
Continuous
 62
     7
370
    25
100
AcDbSpline
210
0.0
220
0.0
230
1.0
 70
     8
 71
     3
 72
    12
 73
     8
 74
     0
 42
0.000000001
 43
0.00000001
 40
0.0
 40
0.0
 40
0.0
 40
0.0
 40
0.2166590159444801
 40
0.4345211004720039
 40
0.6366977212538367
 40
0.8517529267628469
 40
1.0
 40
1.0
 40
1.0
 40
1.0
 10
133.2252564102564
 20
218.2959775641026
 30
0.0
 10
133.2405358636183
 20
218.4672925371294
 30
0.0
 10
133.271179614401
 20
218.8108737644438
 30
0.0
 10
133.5353666229281
 20
219.2556871848347
 30
0.0
 10
133.9209939254139
 20
219.5801644639625
 30
0.0
 10
134.3394102149789
 20
219.7643549388469
 30
0.0
 10
134.6266690161236
 20
219.7831143653023
 30
0.0
 10
134.7438862179488
 20
219.7907692307693
 30
0.0
  0
SPLINE
  5
270
330
1F
100
AcDbEntity
  8
0
  6
Continuous
 62
     7
370
    25
100
AcDbSpline
210
0.0
220
0.0
230
1.0
 70
     8
 71
     3
 72
    12
 73
     8
 74
     0
 42
0.000000001
 43
0.00000001
 40
0.0
 40
0.0
 40
0.0
 40
0.0
 40
0.2318285753120803
 40
0.4637870621354628
 40
0.701014707682336
 40
0.9017678363907622
 40
1.0
 40
1.0
 40
1.0
 40
1.0
 10
134.7438862179488
 20
219.7907692307693
 30
0.0
 10
134.9274351684735
 20
219.7719254846727
 30
0.0
 10
135.2946359262201
 20
219.7342274328688
 30
0.0
 10
135.7845164566866
 20
219.4464529686577
 30
0.0
 10
136.1280570842306
 20
219.0340298447848
 30
0.0
 10
136.2635563727164
 20
218.624243550703
 30
0.0
 10
136.2733279816007
 20
218.3892958585535
 30
0.0
 10
136.2765384615385
 20
218.3121033653846
 30
0.0
  0
SPLINE
  5
271
330
1F
100
AcDbEntity
  8
0
  6
Continuous
 62
     7
370
    25
100
AcDbSpline
210
0.0
220
0.0
230
1.0
 70
     8
 71
     3
 72
    12
 73
     8
 74
     0
 42
0.000000001
 43
0.00000001
 40
0.0
 40
0.0
 40
0.0
 40
0.0
 40
0.2308594654116187
 40
0.4635737388710384
 40
0.6767148683098955
 40
0.8949484267249038
 40
1.0
 40
1.0
 40
1.0
 40
1.0
 10
134.7438862179488
 20
216.8292307692308
 30
0.0
 10
134.5621381504309
 20
216.84471658798
 30
0.0
 10
134.1971817859969
 20
216.8758126441207
 30
0.0
 10
133.7331687833938
 20
217.16268448794
 30
0.0
 10
133.3872178511992
 20
217.5567450615006
 30
0.0
 10
133.2394848625174
 20
217.9624635102195
 30
0.0
 10
133.2287460044891
 20
218.2141816879528
 30
0.0
 10
133.2252564102564
 20
218.2959775641026
 30
0.0
  0
LINE
  5
272
330
1F
100
AcDbEntity
  8
0
  6
Continuous
 62
     7
370
    25
100
AcDbLine
 10
137.6226923077
 20
219.701025641
 30
0.0
 11
137.8687860577
 21
219.701025641
 31
0.0
  0
SPLINE
  5
273
330
1F
100
AcDbEntity
  8
0
  6
Continuous
 62
     7
370
    25
100
AcDbSpline
210
0.0
220
0.0
230
1.0
 70
     8
 71
     3
 72
    10
 73
     6
 74
     0
 42
0.000000001
 43
0.00000001
 40
0.0
 40
0.0
 40
0.0
 40
0.0
 40
0.2504675000780493
 40
0.5009603223226341
 40
1.0
 40
1.0
 40
1.0
 40
1.0
 10
137.8687860576923
 20
219.7010256410257
 30
0.0
 10
137.9591113966354
 20
219.7002458116159
 30
0.0
 10
138.139771206378
 20
219.6986860739559
 30
0.0
 10
138.5007842470714
 20
219.6857682311905
 30
0.0
 10
138.7670360842173
 20
219.6360026056134
 30
0.0
 10
138.9443068910257
 20
219.6028685897436
 30
0.0
  0
SPLINE
  5
274
330
1F
100
AcDbEntity
  8
0
  6
Continuous
 62
     7
370
    25
100
AcDbSpline
210
0.0
220
0.0
230
1.0
 70
     8
 71
     3
 72
    11
 73
     7
 74
     0
 42
0.000000001
 43
0.00000001
 40
0.0
 40
0.0
 40
0.0
 40
0.0
 40
0.258222978156929
 40
0.5185021875070466
 40
0.7529448713139535
 40
1.0
 40
1.0
 40
1.0
 40
1.0
 10
138.9443068910257
 20
219.6028685897436
 30
0.0
 10
139.085632691268
 20
219.5464651019451
 30
0.0
 10
139.3694096699856
 20
219.4332089850212
 30
0.0
 10
139.6669051568584
 20
219.0933057878961
 30
0.0
 10
139.8403867317921
 20
218.6918100694858
 30
0.0
 10
139.8575008479853
 20
218.4107444179407
 30
0.0
 10
139.866282051282
 20
218.266530448718
 30
0.0
  0
LINE
  5
275
330
1F
100
AcDbEntity
  8
0
  6
Continuous
 62
     7
370
    25
100
AcDbLine
 10
138.0244350962
 20
216.918974359
 30
0.0
 11
137.6226923077
 21
216.918974359
 31
0.0
  0
LINE
  5
276
330
1F
100
AcDbEntity
  8
0
  6
Continuous
 62
     7
370
    25
100
AcDbLine
 10
137.6226923077
 20
216.918974359
 30
0.0
 11
137.6226923077
 21
219.701025641
 31
0.0
  0
SPLINE
  5
277
330
1F
100
AcDbEntity
  8
0
  6
Continuous
 62
     7
370
    25
100
AcDbSpline
210
0.0
220
0.0
230
1.0
 70
     8
 71
     3
 72
    11
 73
     7
 74
     0
 42
0.000000001
 43
0.00000001
 40
0.0
 40
0.0
 40
0.0
 40
0.0
 40
0.3659698645561786
 40
0.6091749583188367
 40
0.8527068981222033
 40
0.9999999999999999
 40
0.9999999999999999
 40
0.9999999999999999
 40
0.9999999999999999
 10
139.866282051282
 20
218.266530448718
 30
0.0
 10
139.8493442071319
 20
218.0665057140719
 30
0.0
 10
139.8211503269699
 20
217.7335546402492
 30
0.0
 10
139.5690647582099
 20
217.3340871341291
 30
0.0
 10
139.2980263817771
 20
217.1113461099843
 30
0.0
 10
139.0996859221533
 20
217.0363000037665
 30
0.0
 10
139.0249358974359
 20
217.0080168269231
 30
0.0
  0
SPLINE
  5
278
330
1F
100
AcDbEntity
  8
0
  6
Continuous
 62
     7
370
    25
100
AcDbSpline
210
0.0
220
0.0
230
1.0
 70
     8
 71
     3
 72
    10
 73
     6
 74
     0
 42
0.000000001
 43
0.00000001
 40
0.0
 40
0.0
 40
0.0
 40
0.0
 40
0.2512287117353541
 40
0.5017984462204039
 40
1.0
 40
1.0
 40
1.0
 40
1.0
 10
139.0249358974359
 20
217.0080168269231
 30
0.0
 10
138.9426774351596
 20
216.9888974906878
 30
0.0
 10
138.7783762759743
 20
216.9507089685663
 30
0.0
 10
138.4428758678185
 20
216.9248209006682
 30
0.0
 10
138.191614232362
 20
216.9213102207172
 30
0.0
 10
138.0244350961539
 20
216.9189743589744
 30
0.0
  0
SPLINE
  5
279
330
1F
100
AcDbEntity
  8
0
  6
Continuous
 62
     7
370
    25
100
AcDbSpline
210
0.0
220
0.0
230
1.0
 70
     8
 71
     3
 72
    12
 73
     8
 74
     0
 42
0.000000001
 43
0.00000001
 40
0.0
 40
0.0
 40
0.0
 40
0.0
 40
0.219589667973658
 40
0.4408259838251069
 40
0.6457889316484434
 40
0.8469489499236624
 40
1.0
 40
1.0
 40
1.0
 40
1.0
 10
152.9912820512821
 20
218.8484615384616
 30
0.0
 10
153.1085756378683
 20
218.8376453810675
 30
0.0
 10
153.3440423662457
 20
218.8159319586263
 30
0.0
 10
153.6426977929316
 20
218.6277050890902
 30
0.0
 10
153.8640689083956
 20
218.3771222601599
 30
0.0
 10
153.9846700147515
 20
218.0986399852138
 30
0.0
 10
153.99600130083
 20
217.9108665769508
 30
0.0
 10
154.0008974358975
 20
217.8297315705128
 30
0.0
  0
SPLINE
  5
27A
330
1F
100
AcDbEntity
  8
0
  6
Continuous
 62
     7
370
    25
100
AcDbSpline
210
0.0
220
0.0
230
1.0
 70
     8
 71
     3
 72
    12
 73
     8
 74
     0
 42
0.000000001
 43
0.00000001
 40
0.0
 40
0.0
 40
0.0
 40
0.0
 40
0.2363558426020061
 40
0.4746065021435212
 40
0.682964077463602
 40
0.89214721415738
 40
0.9999999999999999
 40
0.9999999999999999
 40
0.9999999999999999
 40
0.9999999999999999
 10
152.9912820512821
 20
216.8292307692308
 30
0.0
 10
152.8663270413143
 20
216.8413526443721
 30
0.0
 10
152.6154152823611
 20
216.8656935732736
 30
0.0
 10
152.2979872859878
 20
217.062049781349
 30
0.0
 10
152.0879293841811
 20
217.3406746014554
 30
0.0
 10
151.9914341098398
 20
217.6064110099791
 30
0.0
 10
151.9841460122836
 20
217.7730443860466
 30
0.0
 10
151.9816666666667
 20
217.8297315705128
 30
0.0
  0
SPLINE
  5
27B
330
1F
100
AcDbEntity
  8
0
  6
Continuous
 62
     7
370
    25
100
AcDbSpline
210
0.0
220
0.0
230
1.0
 70
     8
 71
     3
 72
    12
 73
     8
 74
     0
 42
0.000000001
 43
0.00000001
 40
0.0
 40
0.0
 40
0.0
 40
0.0
 40
0.2352596069837486
 40
0.471892432414467
 40
0.6889633076203607
 40
0.8914150366874102
 40
0.9999999999999999
 40
0.9999999999999999
 40
0.9999999999999999
 40
0.9999999999999999
 10
154.0008974358975
 20
217.8297315705128
 30
0.0
 10
153.9878008201157
 20
217.7056011692619
 30
0.0
 10
153.9615311431537
 20
217.456615813323
 30
0.0
 10
153.7612694880399
 20
217.1389838650636
 30
0.0
 10
153.4818831663461
 20
216.9276325841127
 30
0.0
 10
153.2121744141671
 20
216.8381606405449
 30
0.0
 10
153.0484420876971
 20
216.8315415406981
 30
0.0
 10
152.9912820512821
 20
216.8292307692308
 30
0.0
  0
SPLINE
  5
27C
330
1F
100
AcDbEntity
  8
0
  6
Continuous
 62
     7
370
    25
100
AcDbSpline
210
0.0
220
0.0
230
1.0
 70
     8
 71
     3
 72
    12
 73
     8
 74
     0
 42
0.000000001
 43
0.00000001
 40
0.0
 40
0.0
 40
0.0
 40
0.0
 40
0.2264211672821769
 40
0.4547635904958375
 40
0.6607096852043521
 40
0.8943720389793275
 40
1.0
 40
1.0
 40
1.0
 40
1.0
 10
151.9816666666667
 20
217.8297315705128
 30
0.0
 10
151.9924360945245
 20
217.9504416001589
 30
0.0
 10
152.0140663322758
 20
218.1928859226117
 30
0.0
 10
152.2074591213956
 20
218.4976481605787
 30
0.0
 10
152.4760389215564
 20
218.7318246686326
 30
0.0
 10
152.7554583522415
 20
218.8378696460987
 30
0.0
 10
152.9352951929218
 20
218.8459469193631
 30
0.0
 10
152.9912820512821
 20
218.8484615384616
 30
0.0
  0
SPLINE
  5
27D
330
1F
100
AcDbEntity
  8
0
  6
Continuous
 62
     7
370
    25
100
AcDbSpline
210
0.0
220
0.0
230
1.0
 70
     8
 71
     3
 72
    12
 73
     8
 74
     0
 42
0.000000001
 43
0.00000001
 40
0.0
 40
0.0
 40
0.0
 40
0.0
 40
0.3630891760769026
 40
0.529373846879418
 40
0.6971181339425837
 40
0.851874646951073
 40
1.0
 40
1.0
 40
1.0
 40
1.0
 10
131.0489743589744
 20
219.7010256410257
 30
0.0
 10
131.1736006396572
 20
219.6959959605323
 30
0.0
 10
131.3553022655226
 20
219.6886628272782
 30
0.0
 10
131.5794116336124
 20
219.5998625352025
 30
0.0
 10
131.7053346672145
 20
219.4862181415826
 30
0.0
 10
131.7796443742427
 20
219.3399364900838
 30
0.0
 10
131.7861683855813
 20
219.2368278543197
 30
0.0
 10
131.789358974359
 20
219.1864022435898
 30
0.0
  0
SPLINE
  5
27E
330
1F
100
AcDbEntity
  8
0
  6
Continuous
 62
     7
370
    25
100
AcDbSpline
210
0.0
220
0.0
230
1.0
 70
     8
 71
     3
 72
    12
 73
     8
 74
     0
 42
0.000000001
 43
0.00000001
 40
0.0
 40
0.0
 40
0.0
 40
0.0
 40
0.1560056208621628
 40
0.3130548160971395
 40
0.4629321399965903
 40
0.6200990526317596
 40
0.9999999999999999
 40
0.9999999999999999
 40
0.9999999999999999
 40
0.9999999999999999
 10
131.789358974359
 20
219.1864022435898
 30
0.0
 10
131.7825099968556
 20
219.1199041281974
 30
0.0
 10
131.7687662267213
 20
218.9864630690234
 30
0.0
 10
131.6606234709395
 20
218.8148008029973
 30
0.0
 10
131.5070706108597
 20
218.6862355033242
 30
0.0
 10
131.2282477177393
 20
218.5823031126441
 30
0.0
 10
130.9971790031767
 20
218.5805036436884
 30
0.0
 10
130.8337299679487
 20
218.5792307692308
 30
0.0
  0
LINE
  5
27F
330
1F
100
AcDbEntity
  8
0
  6
Continuous
 62
     7
370
    25
100
AcDbLine
 10
130.8337299679
 20
218.5792307692
 30
0.0
 11
130.6226923077
 21
218.5792307692
 31
0.0
  0
LINE
  5
280
330
1F
100
AcDbEntity
  8
0
  6
Continuous
 62
     7
370
    25
100
AcDbLine
 10
130.6226923077
 20
218.5792307692
 30
0.0
 11
130.6226923077
 21
219.701025641
 31
0.0
  0
LINE
  5
281
330
1F
100
AcDbEntity
  8
0
  6
Continuous
 62
     7
370
    25
100
AcDbLine
 10
130.6226923077
 20
219.701025641
 30
0.0
 11
131.048974359
 21
219.701025641
 31
0.0
  0
LINE
  5
282
330
1F
100
AcDbEntity
  8
0
  6
Continuous
 62
     7
370
    25
100
AcDbLine
 10
113.7586097756
 20
218.0407692308
 30
0.0
 11
112.5078084936
 21
218.0407692308
 31
0.0
  0
LINE
  5
283
330
1F
100
AcDbEntity
  8
0
  6
Continuous
 62
     7
370
    25
100
AcDbLine
 10
112.5078084936
 20
218.0407692308
 30
0.0
 11
113.1416225962
 21
219.3778084936
 31
0.0
  0
LINE
  5
284
330
1F
100
AcDbEntity
  8
0
  6
Continuous
 62
     7
370
    25
100
AcDbLine
 10
113.1416225962
 20
219.3778084936
 30
0.0
 11
113.7586097756
 21
218.0407692308
 31
0.0
  0
LINE
  5
285
330
1F
100
AcDbEntity
  8
0
  6
Continuous
 62
     7
370
    25
100
AcDbLine
 10
141.6744751603
 20
218.0407692308
 30
0.0
 11
142.3082892628
 21
219.3778084936
 31
0.0
  0
LINE
  5
286
330
1F
100
AcDbEntity
  8
0
  6
Continuous
 62
     7
370
    25
100
AcDbLine
 10
142.9252764423
 20
218.0407692308
 30
0.0
 11
141.6744751603
 21
218.0407692308
 31
0.0
  0
LINE
  5
287
330
1F
100
AcDbEntity
  8
0
  6
Continuous
 62
     7
370
    25
100
AcDbLine
 10
142.3082892628
 20
219.3778084936
 30
0.0
 11
142.9252764423
 21
218.0407692308
 31
0.0
  0
LINE
  5
288
330
1F
100
AcDbEntity
  8
0
  6
Continuous
 62
     7
370
    25
100
AcDbLine
 10
151.9816666667
 20
188.2038606998
 30
0.0
 11
151.9816666667
 21
188.1159836429
 31
0.0
  0
SPLINE
  5
289
330
1F
100
AcDbEntity
  8
0
  6
Continuous
 62
     7
370
    25
100
AcDbSpline
210
0.0
220
0.0
230
1.0
 70
     8
 71
     3
 72
    12
 73
     8
 74
     0
 42
0.000000001
 43
0.00000001
 40
0.0
 40
0.0
 40
0.0
 40
0.0
 40
0.2264211672821838
 40
0.4547635904958269
 40
0.660709685204638
 40
0.8943720389801806
 40
1.0
 40
1.0
 40
1.0
 40
1.0
 10
151.9816666666667
 20
188.1159836428561
 30
0.0
 10
151.9924360945245
 20
188.1241043031252
 30
0.0
 10
152.0140663322758
 20
188.1404145300598
 30
0.0
 10
152.2074591213957
 20
188.1659438525777
 30
0.0
 10
152.4760389215569
 20
188.1875457179051
 30
0.0
 10
152.7554583522421
 20
188.1981372554222
 30
0.0
 10
152.9352951929223
 20
188.1989435115451
 30
0.0
 10
152.9912820512821
 20
188.1991945154395
 30
0.0
  0
SPLINE
  5
28A
330
1F
100
AcDbEntity
  8
0
  6
Continuous
 62
     7
370
    25
100
AcDbSpline
210
0.0
220
0.0
230
1.0
 70
     8
 71
     3
 72
    12
 73
     8
 74
     0
 42
0.000000001
 43
0.00000001
 40
0.0
 40
0.0
 40
0.0
 40
0.0
 40
0.2352596069834914
 40
0.4718924324139547
 40
0.6889633076196584
 40
0.8914150366867553
 40
1.0
 40
1.0
 40
1.0
 40
1.0
 10
154.0008974358975
 20
188.1159836428561
 30
0.0
 10
153.9878008201157
 20
188.1086206179077
 30
0.0
 10
153.9615311431538
 20
188.0938515897801
 30
0.0
 10
153.7612694880404
 20
188.0804287984706
 30
0.0
 10
153.481883166347
 20
188.0733021364225
 30
0.0
 10
153.2121744141678
 20
188.070814914895
 30
0.0
 10
153.0484420876975
 20
188.0706321541636
 30
0.0
 10
152.9912820512821
 20
188.0705683511854
 30
0.0
  0
SPLINE
  5
28B
330
1F
100
AcDbEntity
  8
0
  6
Continuous
 62
     7
370
    25
100
AcDbSpline
210
0.0
220
0.0
230
1.0
 70
     8
 71
     3
 72
    12
 73
     8
 74
     0
 42
0.000000001
 43
0.00000001
 40
0.0
 40
0.0
 40
0.0
 40
0.0
 40
0.2363558426021001
 40
0.4746065021437274
 40
0.6829640774640412
 40
0.8921472141579974
 40
1.0
 40
1.0
 40
1.0
 40
1.0
 10
152.9912820512821
 20
188.0705683511854
 30
0.0
 10
152.8663270413142
 20
188.0708871951811
 30
0.0
 10
152.615415282361
 20
188.0715274392803
 30
0.0
 10
152.2979872859875
 20
188.0775586441566
 30
0.0
 10
152.0879293841808
 20
188.0888122290821
 30
0.0
 10
151.9914341098397
 20
188.1022525895032
 30
0.0
 10
151.9841460122836
 20
188.1124981834229
 30
0.0
 10
151.9816666666667
 20
188.1159836428561
 30
0.0
  0
SPLINE
  5
28C
330
1F
100
AcDbEntity
  8
0
  6
Continuous
 62
     7
370
    25
100
AcDbSpline
210
0.0
220
0.0
230
1.0
 70
     8
 71
     3
 72
    12
 73
     8
 74
     0
 42
0.000000001
 43
0.00000001
 40
0.0
 40
0.0
 40
0.0
 40
0.0
 40
0.2195896679736039
 40
0.4408259838249989
 40
0.6457889316483407
 40
0.8469489499233659
 40
0.9999999999999999
 40
0.9999999999999999
 40
0.9999999999999999
 40
0.9999999999999999
 10
152.9912820512821
 20
188.1991945154395
 30
0.0
 10
153.1085756378682
 20
188.1980958644772
 30
0.0
 10
153.3440423662456
 20
188.1958903240446
 30
0.0
 10
153.6426977929316
 20
188.1776612320419
 30
0.0
 10
153.8640689083953
 20
188.155623366403
 30
0.0
 10
153.9846700147514
 20
188.133712095752
 30
0.0
 10
153.99600130083
 20
188.1213326689974
 30
0.0
 10
154.0008974358975
 20
188.1159836428561
 30
0.0
  0
LINE
  5
28D
330
1F
100
AcDbEntity
  8
0
  6
Continuous
 62
     7
370
    25
100
AcDbLine
 10
154.0008974359
 20
188.2038502847
 30
0.0
 11
154.0008974359
 21
188.1159836429
 31
0.0
  0
LINE
  5
28E
330
1F
100
AcDbEntity
  8
0
  6
Continuous
 62
     8
370
    25
100
AcDbLine
 10
260.44
 20
198.56
 30
0.0
 11
260.44
 21
233.56
 31
0.0
  0
LINE
  5
28F
330
1F
100
AcDbEntity
  8
0
  6
Continuous
 62
     8
370
    25
100
AcDbLine
 10
243.44
 20
233.56
 30
0.0
 11
243.44
 21
198.56
 31
0.0
  0
LINE
  5
290
330
1F
100
AcDbEntity
  8
0
  6
Continuous
 62
     8
370
    25
100
AcDbLine
 10
56.24
 20
197.91
 30
0.0
 11
56.24
 21
182.91
 31
0.0
  0
LINE
  5
291
330
1F
100
AcDbEntity
  8
0
  6
Continuous
 62
     8
370
    25
100
AcDbLine
 10
56.24
 20
242.71
 30
0.0
 11
56.24
 21
235.21
 31
0.0
  0
LINE
  5
292
330
1F
100
AcDbEntity
  8
0
  6
Continuous
 62
     8
370
    25
100
AcDbLine
 10
56.24
 20
250.21
 30
0.0
 11
56.24
 21
242.71
 31
0.0
  0
DIMENSION
  5
293
330
1F
100
AcDbEntity
  8
0
  6
Continuous
 62
     7
370
    18
100
AcDbDimension
  2
_D
 10
71.94
 20
169.06
 30
0.0
 11
63.94
 21
169.06
 31
0.0
 70
   160
  1
<>
 71
     2
 42
-1.0
  3
SLDDIMSTYLE0
100
AcDbAlignedDimension
 13
55.94
 23
183.21
 33
0.0
 14
71.94
 24
179.06
 34
0.0
100
AcDbRotatedDimension
  0
DIMENSION
  5
2A0
330
1F
100
AcDbEntity
  8
0
  6
Continuous
 62
     7
370
    18
100
AcDbDimension
  2
_D_1
 10
224.94
 20
151.06
 30
0.0
 11
148.44
 21
151.06
 31
0.0
 70
   160
  1
<>
 71
     2
 42
-1.0
  3
SLDDIMSTYLE1
100
AcDbAlignedDimension
 13
71.94
 23
179.06
 33
0.0
 14
224.94
 24
200.06
 34
0.0
100
AcDbRotatedDimension
  0
DIMENSION
  5
2AB
330
1F
100
AcDbEntity
  8
0
  6
Continuous
 62
     7
370
    18
100
AcDbDimension
  2
_D_2
 10
214.94
 20
270.06
 30
0.0
 11
219.94
 21
270.06
 31
0.0
 70
   160
  1
<>
 71
     2
 42
-1.0
  3
SLDDIMSTYLE2
100
AcDbAlignedDimension
 13
224.94
 23
232.06
 33
0.0
 14
214.94
 24
254.06
 34
0.0
100
AcDbRotatedDimension
  0
DIMENSION
  5
2B9
330
1F
100
AcDbEntity
  8
0
  6
Continuous
 62
     7
370
    18
100
AcDbDimension
  2
_D_3
 10
182.94
 20
169.06
 30
0.0
 11
176.94
 21
169.06
 31
0.0
 70
   160
  1
<>
 71
     2
 42
-1.0
  3
SLDDIMSTYLE2
100
AcDbAlignedDimension
 13
170.94
 23
179.06
 33
0.0
 14
182.94
 24
179.06
 34
0.0
100
AcDbRotatedDimension
  0
DIMENSION
  5
2C5
330
1F
100
AcDbEntity
  8
0
  6
Continuous
 62
     7
370
    18
100
AcDbDimension
  2
_D_4
 10
270.94
 20
184.56
 30
0.0
 11
270.94
 21
168.1843054695
 31
0.0
 70
   160
  1
<>
 71
     2
 42
-1.0
  3
SLDDIMSTYLE3
100
AcDbAlignedDimension
 13
170.94
 23
179.06
 33
0.0
 14
182.94
 24
184.56
 34
0.0
 50
90.0
100
AcDbRotatedDimension
  0
DIMENSION
  5
2D2
330
1F
100
AcDbEntity
  8
0
  6
Continuous
 62
     7
370
    18
100
AcDbDimension
  2
_D_5
 10
270.94
 20
234.06
 30
0.0
 11
270.94
 21
216.06
 31
0.0
 70
   160
  1
%%c<>
 71
     2
 42
-1.0
  3
SLDDIMSTYLE1
100
AcDbAlignedDimension
 13
213.44
 23
198.06
 33
0.0
 14
213.44
 24
234.06
 34
0.0
 50
90.0
100
AcDbRotatedDimension
  0
DIMENSION
  5
2DE
330
1F
100
AcDbEntity
  8
0
  6
Continuous
 62
     7
370
    18
100
AcDbDimension
  2
_D_6
 10
182.94
 20
169.06
 30
0.0
 11
193.94
 21
169.06
 31
0.0
 70
   160
  1
<>
 71
     2
 42
-1.0
  3
SLDDIMSTYLE4
100
AcDbAlignedDimension
 13
204.94
 23
195.06
 33
0.0
 14
182.94
 24
179.06
 34
0.0
100
AcDbRotatedDimension
  0
DIMENSION
  5
2E9
330
1F
100
AcDbEntity
  8
0
  6
Continuous
 62
     7
370
    18
100
AcDbDimension
  2
_D_7
 10
224.94
 20
169.06
 30
0.0
 11
214.94
 21
169.06
 31
0.0
 70
   160
  1
<>
 71
     2
 42
-1.0
  3
SLDDIMSTYLE3
100
AcDbAlignedDimension
 13
204.94
 23
195.06
 33
0.0
 14
224.94
 24
200.06
 34
0.0
100
AcDbRotatedDimension
  0
DIMENSION
  5
2F5
330
1F
100
AcDbEntity
  8
0
  6
Continuous
 62
     7
370
    18
100
AcDbDimension
  2
_D_8
 10
204.94
 20
157.06
 30
0.0
 11
184.94
 21
157.06
 31
0.0
 70
   160
  1
<>
 71
     2
 42
-1.0
  3
SLDDIMSTYLE1
100
AcDbAlignedDimension
 13
164.94
 23
195.06
 33
0.0
 14
204.94
 24
195.06
 34
0.0
100
AcDbRotatedDimension
  0
DIMENSION
  5
2FF
330
1F
100
AcDbEntity
  8
0
  6
Continuous
 62
     7
370
    18
100
AcDbDimension
  2
_D_9
 10
214.94
 20
264.06
 30
0.0
 11
219.44
 21
264.06
 31
0.0
 70
   160
  1
<>
 71
     2
 42
-1.0
  3
SLDDIMSTYLE0
100
AcDbAlignedDimension
 13
223.94
 23
240.56
 33
0.0
 14
214.94
 24
254.06
 34
0.0
100
AcDbRotatedDimension
  0
DIMENSION
  5
30B
330
1F
100
AcDbEntity
  8
0
  6
Continuous
 62
     7
370
    18
100
AcDbDimension
  2
_D_10
 10
276.94
 20
191.06
 30
0.0
 11
276.94
 21
216.06
 31
0.0
 70
   160
  1
%%c<> f9
 71
     2
 42
-1.0
  3
SLDDIMSTYLE1
100
AcDbAlignedDimension
 13
223.44
 23
241.06
 33
0.0
 14
223.44
 24
191.06
 34
0.0
 50
90.0
100
AcDbRotatedDimension
  0
INSERT
  5
322
330
1F
100
AcDbEntity
  8
0
  6
Continuous
 62
     7
370
     0
100
AcDbBlockReference
  2
SW_CENTERMARKSYMBOL_0
 10
90.44
 20
216.56
 30
0.0
  0
INSERT
  5
32E
330
1F
100
AcDbEntity
  8
0
  6
Continuous
 62
     7
370
     0
100
AcDbBlockReference
  2
SW_CENTERMARKSYMBOL_1
 10
185.94
 20
216.56
 30
0.0
  0
LINE
  5
32F
330
1F
100
AcDbEntity
  8
0
  6
CENTERX2
 62
     7
370
    18
100
AcDbLine
 10
211.44
 20
216.06
 30
0.0
 11
215.94
 21
216.06
 31
0.0
  0
LINE
  5
330
330
1F
100
AcDbEntity
  8
0
  6
CENTERX2
 62
     7
370
    18
100
AcDbLine
 10
204.94
 20
195.06
 30
0.0
 11
204.94
 21
206.56
 31
0.0
  0
LINE
  5
331
330
1F
100
AcDbEntity
  8
0
  6
CENTERX2
 62
     7
370
    18
100
AcDbLine
 10
215.44
 20
216.06
 30
0.0
 11
133.94
 21
216.06
 31
0.0
  0
LINE
  5
332
330
1F
100
AcDbEntity
  8
0
  6
CENTERX2
 62
     7
370
    18
100
AcDbLine
 10
211.94
 20
216.06
 30
0.0
 11
226.44
 21
216.06
 31
0.0
  0
LINE
  5
333
330
1F
100
AcDbEntity
  8
0
  6
CENTERX2
 62
     7
370
    18
100
AcDbLine
 10
106.94
 20
216.06
 30
0.0
 11
157.94
 21
216.06
 31
0.0
  0
LINE
  5
334
330
1F
100
AcDbEntity
  8
0
  6
CENTERX2
 62
     7
370
    18
100
AcDbLine
 10
54.44
 20
242.71
 30
0.0
 11
151.44
 21
242.71
 31
0.0
  0
LINE
  5
335
330
1F
100
AcDbEntity
  8
0
  6
CENTERX2
 62
     7
370
    18
100
AcDbLine
 10
54.44
 20
190.41
 30
0.0
 11
151.44
 21
190.41
 31
0.0
  0
LINE
  5
336
330
1F
100
AcDbEntity
  8
0
  6
CENTERX2
 62
     7
370
    18
100
AcDbLine
 10
69.94
 20
216.56
 30
0.0
 11
110.94
 21
216.56
 31
0.0
  0
LINE
  5
337
330
1F
100
AcDbEntity
  8
0
  6
CENTERX2
 62
     7
370
    18
100
AcDbLine
 10
164.94
 20
206.56
 30
0.0
 11
164.94
 21
195.06
 31
0.0
  0
LINE
  5
338
330
1F
100
AcDbEntity
  8
0
  6
Continuous
 62
     7
370
    25
100
AcDbLine
 10
74.94
 20
65.06
 30
0.0
 11
75.44
 21
64.56
 31
0.0
  0
LINE
  5
339
330
1F
100
AcDbEntity
  8
0
  6
Continuous
 62
     7
370
    25
100
AcDbLine
 10
75.44
 20
78.56
 30
0.0
 11
74.94
 21
78.06
 31
0.0
  0
LINE
  5
33A
330
1F
100
AcDbEntity
  8
0
  6
Continuous
 62
     7
370
    25
100
AcDbLine
 10
80.2835935394
 20
57.7035935394
 30
0.0
 11
81.94
 21
59.36
 31
0.0
  0
LINE
  5
33B
330
1F
100
AcDbEntity
  8
0
  6
Continuous
 62
     7
370
    25
100
AcDbLine
 10
81.94
 20
83.76
 30
0.0
 11
80.2835935394
 21
85.4164064606
 31
0.0
  0
LINE
  5
33C
330
1F
100
AcDbEntity
  8
0
  6
Continuous
 62
     7
370
    25
100
AcDbLine
 10
77.84
 20
59.56
 30
0.0
 11
79.6964064606
 21
57.7035935394
 31
0.0
  0
LINE
  5
33D
330
1F
100
AcDbEntity
  8
0
  6
Continuous
 62
     7
370
    25
100
AcDbLine
 10
79.6964064606
 20
85.4164064606
 30
0.0
 11
77.84
 21
83.56
 31
0.0
  0
LINE
  5
33E
330
1F
100
AcDbEntity
  8
0
  6
Continuous
 62
     7
370
    25
100
AcDbLine
 10
76.7549545762
 20
81.3749545762
 30
0.0
 11
75.44
 21
80.06
 31
0.0
  0
LINE
  5
33F
330
1F
100
AcDbEntity
  8
0
  6
Continuous
 62
     7
370
    25
100
AcDbLine
 10
75.44
 20
63.06
 30
0.0
 11
76.7549545762
 21
61.7450454238
 31
0.0
  0
SPLINE
  5
340
330
1F
100
AcDbEntity
  8
0
  6
Continuous
 62
     7
370
    25
100
AcDbSpline
210
0.0
220
0.0
230
1.0
 70
     8
 71
     3
 72
    10
 73
     6
 74
     0
 42
0.000000001
 43
0.00000001
 40
0.0
 40
0.0
 40
0.0
 40
0.0
 40
0.187999424861748
 40
0.6794721205531365
 40
0.9999999999999999
 40
0.9999999999999999
 40
0.9999999999999999
 40
0.9999999999999999
 10
81.94000000000062
 20
69.73630709795704
 30
0.0
 10
81.90461938215944
 20
69.3995384965009
 30
0.0
 10
81.7767458876064
 20
68.18238117841128
 30
0.0
 10
81.14670652628261
 20
66.47327895379732
 30
0.0
 10
80.52787153023442
 20
65.15297253101367
 30
0.0
 10
80.28359353944968
 20
64.63179676972452
 30
0.0
  0
SPLINE
  5
341
330
1F
100
AcDbEntity
  8
0
  6
Continuous
 62
     7
370
    25
100
AcDbSpline
210
0.0
220
0.0
230
1.0
 70
     8
 71
     3
 72
    10
 73
     6
 74
     0
 42
0.000000001
 43
0.00000001
 40
0.0
 40
0.0
 40
0.0
 40
0.0
 40
0.6090200620035994
 40
0.9223840320571011
 40
1.0
 40
1.0
 40
1.0
 40
1.0
 10
80.2835935394497
 20
64.63179676972452
 30
0.0
 10
80.71211190062795
 20
64.156730034826
 30
0.0
 10
81.36111924612287
 20
63.43722340808156
 30
0.0
 10
81.83839994137924
 20
62.61035927416523
 30
0.0
 10
81.92317145584775
 20
62.27853748012804
 30
0.0
 10
81.94000000000062
 20
62.21266537973147
 30
0.0
  0
LINE
  5
342
330
1F
100
AcDbEntity
  8
0
  6
Continuous
 62
     7
370
    25
100
AcDbLine
 10
77.84
 20
61.1676951546
 30
0.0
 11
77.84
 21
71.56
 31
0.0
  0
SPLINE
  5
343
330
1F
100
AcDbEntity
  8
0
  6
Continuous
 62
     7
370
    25
100
AcDbSpline
210
0.0
220
0.0
230
1.0
 70
     8
 71
     3
 72
    10
 73
     6
 74
     0
 42
0.000000001
 43
0.00000001
 40
0.0
 40
0.0
 40
0.0
 40
0.0
 40
0.3224976220939159
 40
0.6562140891574935
 40
1.0
 40
1.0
 40
1.0
 40
1.0
 10
79.6964064605517
 20
64.63179676972452
 30
0.0
 10
79.36834209845838
 20
65.33653763574836
 30
0.0
 10
78.70080087704306
 20
66.77053545094847
 30
0.0
 10
77.99354772629172
 20
69.09583042732865
 30
0.0
 10
77.89168721263428
 20
70.730511607404
 30
0.0
 10
77.8400000000007
 20
71.56000000000003
 30
0.0
  0
SPLINE
  5
344
330
1F
100
AcDbEntity
  8
0
  6
Continuous
 62
     7
370
    25
100
AcDbSpline
210
0.0
220
0.0
230
1.0
 70
     8
 71
     3
 72
    11
 73
     7
 74
     0
 42
0.000000001
 43
0.00000001
 40
0.0
 40
0.0
 40
0.0
 40
0.0
 40
0.2495768535213311
 40
0.5043619258214538
 40
0.7510458202383316
 40
1.0
 40
1.0
 40
1.0
 40
1.0
 10
77.84000000000069
 20
61.16769515458675
 30
0.0
 10
77.86647129468493
 20
61.46891997248132
 30
0.0
 10
77.91996629222797
 20
62.07765562690983
 30
0.0
 10
78.33366695094168
 20
62.96369732653309
 30
0.0
 10
78.92441895225495
 20
63.82043375155141
 30
0.0
 10
79.43829268633871
 20
64.36051780649419
 30
0.0
 10
79.6964064605517
 20
64.63179676972452
 30
0.0
  0
SPLINE
  5
345
330
1F
100
AcDbEntity
  8
0
  6
Continuous
 62
     7
370
    25
100
AcDbSpline
210
0.0
220
0.0
230
1.0
 70
     8
 71
     3
 72
    11
 73
     7
 74
     0
 42
0.000000001
 43
0.00000001
 40
0.0
 40
0.0
 40
0.0
 40
0.0
 40
0.0405778104788589
 40
0.3941906230675545
 40
0.7608637224128559
 40
1.0
 40
1.0
 40
1.0
 40
1.0
 10
77.8400000000007
 20
71.56000000000003
 30
0.0
 10
77.84075943556678
 20
71.65780896088111
 30
0.0
 10
77.84813692526973
 20
72.60796804478227
 30
0.0
 10
78.10068315011284
 20
74.4393259631074
 30
0.0
 10
78.8213442681026
 20
76.64819076788712
 30
0.0
 10
79.44874660900952
 20
77.96744342919733
 30
0.0
 10
79.6964064605517
 20
78.48820323027553
 30
0.0
  0
LINE
  5
346
330
1F
100
AcDbEntity
  8
0
  6
Continuous
 62
     7
370
    25
100
AcDbLine
 10
77.84
 20
71.56
 30
0.0
 11
77.84
 21
81.9523048454
 31
0.0
  0
SPLINE
  5
347
330
1F
100
AcDbEntity
  8
0
  6
Continuous
 62
     7
370
    25
100
AcDbSpline
210
0.0
220
0.0
230
1.0
 70
     8
 71
     3
 72
    11
 73
     7
 74
     0
 42
0.000000001
 43
0.00000001
 40
0.0
 40
0.0
 40
0.0
 40
0.0
 40
0.4320441304764109
 40
0.6543472571074043
 40
0.8796505993152988
 40
0.9999999999999999
 40
0.9999999999999999
 40
0.9999999999999999
 40
0.9999999999999999
 10
79.6964064605517
 20
78.48820323027553
 30
0.0
 10
79.25992379436269
 20
78.96273153003283
 30
0.0
 10
78.59885420621492
 20
79.6814226762906
 30
0.0
 10
78.06449846032667
 20
80.71060007279918
 30
0.0
 10
77.86443918699227
 20
81.39035104830174
 30
0.0
 10
77.84631164802248
 20
81.80717503511737
 30
0.0
 10
77.84000000000069
 20
81.95230484541328
 30
0.0
  0
LINE
  5
348
330
1F
100
AcDbEntity
  8
0
  6
Continuous
 62
     7
370
    25
100
AcDbLine
 10
79.6964064606
 20
64.6317967697
 30
0.0
 11
80.2835935394
 21
64.6317967697
 31
0.0
  0
LINE
  5
349
330
1F
100
AcDbEntity
  8
0
  6
Continuous
 62
     7
370
    25
100
AcDbLine
 10
79.6964064606
 20
78.4882032303
 30
0.0
 11
80.2835935394
 21
78.4882032303
 31
0.0
  0
SPLINE
  5
34A
330
1F
100
AcDbEntity
  8
0
  6
Continuous
 62
     7
370
    25
100
AcDbSpline
210
0.0
220
0.0
230
1.0
 70
     8
 71
     3
 72
    10
 73
     6
 74
     0
 42
0.000000001
 43
0.00000001
 40
0.0
 40
0.0
 40
0.0
 40
0.0
 40
0.4433663523993812
 40
0.9021562553354717
 40
1.0
 40
1.0
 40
1.0
 40
1.0
 10
80.28359353944968
 20
78.48820323027553
 30
0.0
 10
80.6062078870362
 20
77.78260596964789
 30
0.0
 10
81.26265948775213
 20
76.34686557352195
 30
0.0
 10
81.83984877048006
 20
74.66534249821146
 30
0.0
 10
81.92502748690109
 20
73.69224964767004
 30
0.0
 10
81.94000000000064
 20
73.52120169034
 30
0.0
  0
SPLINE
  5
34B
330
1F
100
AcDbEntity
  8
0
  6
Continuous
 62
     7
370
    25
100
AcDbSpline
210
0.0
220
0.0
230
1.0
 70
     8
 71
     3
 72
    10
 73
     6
 74
     0
 42
0.000000001
 43
0.00000001
 40
0.0
 40
0.0
 40
0.0
 40
0.0
 40
0.2999528966733932
 40
0.6483731547620649
 40
1.0
 40
1.0
 40
1.0
 40
1.0
 10
81.94000000000062
 20
80.90210563589353
 30
0.0
 10
81.84215434357247
 20
80.65046622488217
 30
0.0
 10
81.63065281235984
 20
80.10652669107745
 30
0.0
 10
81.0508306349178
 20
79.29992845195892
 30
0.0
 10
80.5401190146668
 20
78.75960329613261
 30
0.0
 10
80.2835935394497
 20
78.48820323027553
 30
0.0
  0
SPLINE
  5
34C
330
1F
100
AcDbEntity
  8
0
  6
Continuous
 62
     7
370
    25
100
AcDbSpline
210
0.0
220
0.0
230
1.0
 70
     8
 71
     3
 72
    11
 73
     7
 74
     0
 42
0.000000001
 43
0.00000001
 40
0.0
 40
0.0
 40
0.0
 40
0.0
 40
0.2495768535213327
 40
0.5043619258214574
 40
0.7510458202383332
 40
1.0
 40
1.0
 40
1.0
 40
1.0
 10
77.84000000000069
 20
81.95230484541328
 30
0.0
 10
77.86647129468494
 20
82.25352966330784
 30
0.0
 10
77.91996629222795
 20
82.86226531773637
 30
0.0
 10
78.33366695094168
 20
83.74830701735962
 30
0.0
 10
78.92441895225494
 20
84.60504344237796
 30
0.0
 10
79.4382926863387
 20
85.14512749732071
 30
0.0
 10
79.6964064605517
 20
85.41640646055104
 30
0.0
  0
LINE
  5
34D
330
1F
100
AcDbEntity
  8
0
  6
Continuous
 62
     7
370
    25
100
AcDbLine
 10
79.6964064606
 20
85.4164064606
 30
0.0
 11
80.2835935394
 21
85.4164064606
 31
0.0
  0
SPLINE
  5
34E
330
1F
100
AcDbEntity
  8
0
  6
Continuous
 62
     7
370
    25
100
AcDbSpline
210
0.0
220
0.0
230
1.0
 70
     8
 71
     3
 72
    10
 73
     6
 74
     0
 42
0.000000001
 43
0.00000001
 40
0.0
 40
0.0
 40
0.0
 40
0.0
 40
0.6090200620036024
 40
0.9223840320571066
 40
1.0
 40
1.0
 40
1.0
 40
1.0
 10
80.2835935394497
 20
85.41640646055104
 30
0.0
 10
80.71211190062795
 20
84.94133972565251
 30
0.0
 10
81.36111924612287
 20
84.22183309890808
 30
0.0
 10
81.83839994137921
 20
83.39496896499178
 30
0.0
 10
81.92317145584774
 20
83.0631471709546
 30
0.0
 10
81.94000000000061
 20
82.99727507055802
 30
0.0
  0
SPLINE
  5
34F
330
1F
100
AcDbEntity
  8
0
  6
Continuous
 62
     7
370
    25
100
AcDbSpline
210
0.0
220
0.0
230
1.0
 70
     8
 71
     3
 72
    10
 73
     6
 74
     0
 42
0.000000001
 43
0.00000001
 40
0.0
 40
0.0
 40
0.0
 40
0.0
 40
0.2999528966733824
 40
0.648373154762062
 40
1.0
 40
1.0
 40
1.0
 40
1.0
 10
81.94000000000061
 20
60.11749594506697
 30
0.0
 10
81.84215434357245
 20
59.86585653405562
 30
0.0
 10
81.63065281235981
 20
59.3219170002509
 30
0.0
 10
81.05083063491782
 20
58.51531876113241
 30
0.0
 10
80.5401190146668
 20
57.97499360530608
 30
0.0
 10
80.2835935394497
 20
57.703593539449
 30
0.0
  0
LINE
  5
350
330
1F
100
AcDbEntity
  8
0
  6
Continuous
 62
     7
370
    25
100
AcDbLine
 10
79.6964064606
 20
57.7035935394
 30
0.0
 11
80.2835935394
 21
57.7035935394
 31
0.0
  0
SPLINE
  5
351
330
1F
100
AcDbEntity
  8
0
  6
Continuous
 62
     7
370
    25
100
AcDbSpline
210
0.0
220
0.0
230
1.0
 70
     8
 71
     3
 72
    11
 73
     7
 74
     0
 42
0.000000001
 43
0.00000001
 40
0.0
 40
0.0
 40
0.0
 40
0.0
 40
0.4320441304764094
 40
0.6543472571074023
 40
0.8796505993152957
 40
1.0
 40
1.0
 40
1.0
 40
1.0
 10
79.6964064605517
 20
57.703593539449
 30
0.0
 10
79.2599237943627
 20
58.17812183920631
 30
0.0
 10
78.59885420621492
 20
58.89681298546408
 30
0.0
 10
78.06449846032667
 20
59.92599038197262
 30
0.0
 10
77.86443918699226
 20
60.60574135747522
 30
0.0
 10
77.84631164802248
 20
61.02256534429083
 30
0.0
 10
77.8400000000007
 20
61.16769515458675
 30
0.0
  0
SPLINE
  5
352
330
1F
100
AcDbEntity
  8
0
  6
Continuous
 62
     7
370
    25
100
AcDbSpline
210
0.0
220
0.0
230
1.0
 70
     8
 71
     3
 72
    11
 73
     7
 74
     0
 42
0.000000001
 43
0.00000001
 40
0.0
 40
0.0
 40
0.0
 40
0.0
 40
0.0498563691383165
 40
0.3999064981623694
 40
0.7625185509028873
 40
1.0
 40
1.0
 40
1.0
 40
1.0
 10
75.4400000000007
 20
71.56000000000003
 30
0.0
 10
75.44080796891126
 20
71.64512707107748
 30
0.0
 10
75.44728882628677
 20
72.32794592615618
 30
0.0
 10
75.63273944597701
 20
73.62696635365447
 30
0.0
 10
76.14029253890887
 20
75.17554295094769
 30
0.0
 10
76.58067664305102
 20
76.10116924823356
 30
0.0
 10
76.75495457622434
 20
76.46747728811185
 30
0.0
  0
LINE
  5
353
330
1F
100
AcDbEntity
  8
0
  6
Continuous
 62
     7
370
    25
100
AcDbLine
 10
76.7549545762
 20
76.4674772881
 30
0.0
 11
77.84
 21
76.4674772881
 31
0.0
  0
LINE
  5
354
330
1F
100
AcDbEntity
  8
0
  6
Continuous
 62
     7
370
    25
100
AcDbLine
 10
76.7549545762
 20
66.6525227119
 30
0.0
 11
77.84
 21
66.6525227119
 31
0.0
  0
SPLINE
  5
355
330
1F
100
AcDbEntity
  8
0
  6
Continuous
 62
     7
370
    25
100
AcDbSpline
210
0.0
220
0.0
230
1.0
 70
     8
 71
     3
 72
    10
 73
     6
 74
     0
 42
0.000000001
 43
0.00000001
 40
0.0
 40
0.0
 40
0.0
 40
0.0
 40
0.3388723645390124
 40
0.6646901103026058
 40
1.0
 40
1.0
 40
1.0
 40
1.0
 10
76.75495457622434
 20
66.6525227118882
 30
0.0
 10
76.51133905100025
 20
67.17744721995825
 30
0.0
 10
76.03349297301476
 20
68.2070741995565
 30
0.0
 10
75.54346345868001
 20
69.85706211560316
 30
0.0
 10
75.47481635330087
 20
70.98694659749205
 30
0.0
 10
75.4400000000007
 20
71.56000000000003
 30
0.0
  0
LINE
  5
356
330
1F
100
AcDbEntity
  8
0
  6
Continuous
 62
     7
370
    25
100
AcDbLine
 10
75.44
 20
71.56
 30
0.0
 11
75.44
 21
78.9212159322
 31
0.0
  0
SPLINE
  5
357
330
1F
100
AcDbEntity
  8
0
  6
Continuous
 62
     7
370
    25
100
AcDbSpline
210
0.0
220
0.0
230
1.0
 70
     8
 71
     3
 72
    10
 73
     6
 74
     0
 42
0.000000001
 43
0.00000001
 40
0.0
 40
0.0
 40
0.0
 40
0.0
 40
0.4323846487392493
 40
0.8795530568379593
 40
1.0
 40
1.0
 40
1.0
 40
1.0
 10
76.75495457622434
 20
76.46747728811185
 30
0.0
 10
76.44779352290362
 20
76.80344631092584
 30
0.0
 10
75.82296920460846
 20
77.48687154787757
 30
0.0
 10
75.4670805505646
 20
78.33417655336288
 30
0.0
 10
75.44474051486544
 20
78.81845329095646
 30
0.0
 10
75.4400000000007
 20
78.92121593216775
 30
0.0
  0
SPLINE
  5
358
330
1F
100
AcDbEntity
  8
0
  6
Continuous
 62
     7
370
    25
100
AcDbSpline
210
0.0
220
0.0
230
1.0
 70
     8
 71
     3
 72
    10
 73
     6
 74
     0
 42
0.000000001
 43
0.00000001
 40
0.0
 40
0.0
 40
0.0
 40
0.0
 40
0.2497057580813426
 40
0.5046223899004496
 40
1.0
 40
1.0
 40
1.0
 40
1.0
 10
75.4400000000007
 20
64.19878406783229
 30
0.0
 10
75.45927289798703
 20
64.41203111760679
 30
0.0
 10
75.49822088187383
 20
64.84297526852775
 30
0.0
 10
75.87759587043067
 20
65.68062071080931
 30
0.0
 10
76.40604739158182
 20
66.26601763852928
 30
0.0
 10
76.75495457622434
 20
66.65252271188821
 30
0.0
  0
LINE
  5
359
330
1F
100
AcDbEntity
  8
0
  6
Continuous
 62
     7
370
    25
100
AcDbLine
 10
76.7549545762
 20
61.7450454238
 30
0.0
 11
77.84
 21
61.7450454238
 31
0.0
  0
SPLINE
  5
35A
330
1F
100
AcDbEntity
  8
0
  6
Continuous
 62
     7
370
    25
100
AcDbSpline
210
0.0
220
0.0
230
1.0
 70
     8
 71
     3
 72
    10
 73
     6
 74
     0
 42
0.000000001
 43
0.00000001
 40
0.0
 40
0.0
 40
0.0
 40
0.0
 40
0.4323846487392506
 40
0.8795530568379598
 40
1.0
 40
1.0
 40
1.0
 40
1.0
 10
76.75495457622434
 20
61.74504542377638
 30
0.0
 10
76.44779352290362
 20
62.08101444659038
 30
0.0
 10
75.82296920460846
 20
62.76443968354211
 30
0.0
 10
75.46708055056462
 20
63.61174468902742
 30
0.0
 10
75.44474051486543
 20
64.096021426621
 30
0.0
 10
75.4400000000007
 20
64.19878406783229
 30
0.0
  0
SPLINE
  5
35B
330
1F
100
AcDbEntity
  8
0
  6
Continuous
 62
     7
370
    25
100
AcDbSpline
210
0.0
220
0.0
230
1.0
 70
     8
 71
     3
 72
    10
 73
     6
 74
     0
 42
0.000000001
 43
0.00000001
 40
0.0
 40
0.0
 40
0.0
 40
0.0
 40
0.2497057580813447
 40
0.5046223899004515
 40
1.0
 40
1.0
 40
1.0
 40
1.0
 10
75.4400000000007
 20
78.92121593216775
 30
0.0
 10
75.45927289798706
 20
79.13446298194226
 30
0.0
 10
75.49822088187383
 20
79.5654071328632
 30
0.0
 10
75.87759587043064
 20
80.40305257514477
 30
0.0
 10
76.40604739158181
 20
80.98844950286474
 30
0.0
 10
76.75495457622434
 20
81.37495457622366
 30
0.0
  0
LINE
  5
35C
330
1F
100
AcDbEntity
  8
0
  6
Continuous
 62
     7
370
    25
100
AcDbLine
 10
76.7549545762
 20
81.3749545762
 30
0.0
 11
77.84
 21
81.3749545762
 31
0.0
  0
LINE
  5
35D
330
1F
100
AcDbEntity
  8
0
  6
Continuous
 62
     7
370
    25
100
AcDbLine
 10
75.44
 20
64.1987840678
 30
0.0
 11
75.44
 21
71.56
 31
0.0
  0
LINE
  5
35E
330
1F
100
AcDbEntity
  8
0
  6
Continuous
 62
     7
370
    25
100
AcDbLine
 10
74.94
 20
65.06
 30
0.0
 11
74.94
 21
71.06
 31
0.0
  0
LINE
  5
35F
330
1F
100
AcDbEntity
  8
0
  6
Continuous
 62
     7
370
    25
100
AcDbLine
 10
74.94
 20
71.06
 30
0.0
 11
75.44
 21
71.06
 31
0.0
  0
LINE
  5
360
330
1F
100
AcDbEntity
  8
0
  6
Continuous
 62
     7
370
    25
100
AcDbLine
 10
74.94
 20
72.06
 30
0.0
 11
74.94
 21
78.06
 31
0.0
  0
LINE
  5
361
330
1F
100
AcDbEntity
  8
0
  6
Continuous
 62
     7
370
    25
100
AcDbLine
 10
75.44
 20
72.06
 30
0.0
 11
74.94
 21
72.06
 31
0.0
  0
LINE
  5
362
330
1F
100
AcDbEntity
  8
0
  6
Continuous
 62
     7
370
    25
100
AcDbLine
 10
77.84
 20
59.56
 30
0.0
 11
77.84
 21
61.1676951546
 31
0.0
  0
LINE
  5
363
330
1F
100
AcDbEntity
  8
0
  6
Continuous
 62
     7
370
    25
100
AcDbLine
 10
77.84
 20
81.9523048454
 30
0.0
 11
77.84
 21
83.56
 31
0.0
  0
LINE
  5
364
330
1F
100
AcDbEntity
  8
0
  6
Continuous
 62
     7
370
    25
100
AcDbLine
 10
75.44
 20
78.9212159322
 30
0.0
 11
75.44
 21
80.06
 31
0.0
  0
LINE
  5
365
330
1F
100
AcDbEntity
  8
0
  6
Continuous
 62
     7
370
    25
100
AcDbLine
 10
75.44
 20
63.06
 30
0.0
 11
75.44
 21
64.1987840678
 31
0.0
  0
CIRCLE
  5
366
330
1F
100
AcDbEntity
  8
0
  6
Continuous
 62
     7
370
    25
100
AcDbCircle
 10
119.44
 20
71.06
 30
0.0
 40
17.00000000000001
  0
CIRCLE
  5
367
330
1F
100
AcDbEntity
  8
0
  6
Continuous
 62
     7
370
    25
100
AcDbCircle
 10
119.44
 20
71.06
 30
0.0
 40
17.50000000000001
  0
LINE
  5
368
330
1F
100
AcDbEntity
  8
0
  6
Continuous
 62
     7
370
    25
100
AcDbLine
 10
81.94
 20
98.177653718
 30
0.0
 11
81.67
 21
97.71
 31
0.0
  0
LINE
  5
369
330
1F
100
AcDbEntity
  8
0
  6
Continuous
 62
     7
370
    25
100
AcDbLine
 10
81.67
 20
97.71
 30
0.0
 11
81.94
 21
97.242346282
 31
0.0
  0
LINE
  5
36A
330
1F
100
AcDbEntity
  8
0
  6
Continuous
 62
     7
370
    25
100
AcDbLine
 10
157.21
 20
97.71
 30
0.0
 11
156.94
 21
98.177653718
 31
0.0
  0
LINE
  5
36B
330
1F
100
AcDbEntity
  8
0
  6
Continuous
 62
     7
370
    25
100
AcDbLine
 10
156.94
 20
97.242346282
 30
0.0
 11
157.21
 21
97.71
 31
0.0
  0
CIRCLE
  5
36C
330
1F
100
AcDbEntity
  8
0
  6
Continuous
 62
     7
370
    25
100
AcDbCircle
 10
119.44
 20
71.06
 30
0.0
 40
24.50000000000003
  0
CIRCLE
  5
36D
330
1F
100
AcDbEntity
  8
0
  6
Continuous
 62
     7
370
    25
100
AcDbCircle
 10
119.44
 20
71.06
 30
0.0
 40
25.0
  0
CIRCLE
  5
36E
330
1F
100
AcDbEntity
  8
0
  6
Continuous
 62
     7
370
    25
100
AcDbCircle
 10
119.44
 20
71.06
 30
0.0
 40
19.5
  0
CIRCLE
  5
36F
330
1F
100
AcDbEntity
  8
0
  6
Continuous
 62
     7
370
    25
100
AcDbCircle
 10
119.44
 20
71.06
 30
0.0
 40
18.0
  0
CIRCLE
  5
370
330
1F
100
AcDbEntity
  8
0
  6
Continuous
 62
     7
370
    25
100
AcDbCircle
 10
119.44
 20
71.06
 30
0.0
 40
26.5
  0
LINE
  5
371
330
1F
100
AcDbEntity
  8
0
  6
Continuous
 62
     7
370
    25
100
AcDbLine
 10
182.94
 20
53.06
 30
0.0
 11
156.94
 21
53.06
 31
0.0
  0
LINE
  5
372
330
1F
100
AcDbEntity
  8
0
  6
Continuous
 62
     7
370
    25
100
AcDbLine
 10
182.94
 20
34.06
 30
0.0
 11
55.94
 21
34.06
 31
0.0
  0
LINE
  5
373
330
1F
100
AcDbEntity
  8
0
  6
Continuous
 62
     7
370
    25
100
AcDbLine
 10
55.94
 20
53.06
 30
0.0
 11
55.94
 21
34.06
 31
0.0
  0
LINE
  5
374
330
1F
100
AcDbEntity
  8
0
  6
Continuous
 62
     7
370
    25
100
AcDbLine
 10
81.94
 20
53.06
 30
0.0
 11
55.94
 21
53.06
 31
0.0
  0
LINE
  5
375
330
1F
100
AcDbEntity
  8
0
  6
Continuous
 62
     7
370
    25
100
AcDbLine
 10
81.94
 20
108.56
 30
0.0
 11
81.94
 21
53.06
 31
0.0
  0
LINE
  5
376
330
1F
100
AcDbEntity
  8
0
  6
Continuous
 62
     7
370
    25
100
AcDbLine
 10
82.44
 20
109.06
 30
0.0
 11
81.94
 21
108.56
 31
0.0
  0
LINE
  5
377
330
1F
100
AcDbEntity
  8
0
  6
Continuous
 62
     7
370
    25
100
AcDbLine
 10
156.44
 20
109.06
 30
0.0
 11
82.44
 21
109.06
 31
0.0
  0
LINE
  5
378
330
1F
100
AcDbEntity
  8
0
  6
Continuous
 62
     7
370
    25
100
AcDbLine
 10
156.94
 20
108.56
 30
0.0
 11
156.44
 21
109.06
 31
0.0
  0
LINE
  5
379
330
1F
100
AcDbEntity
  8
0
  6
Continuous
 62
     7
370
    25
100
AcDbLine
 10
156.94
 20
108.56
 30
0.0
 11
156.94
 21
53.06
 31
0.0
  0
CIRCLE
  5
37A
330
1F
100
AcDbEntity
  8
0
  6
Continuous
 62
     7
370
    25
100
AcDbCircle
 10
119.44
 20
71.06
 30
0.0
 40
27.99999999999997
  0
CIRCLE
  5
37B
330
1F
100
AcDbEntity
  8
0
  6
Continuous
 62
     7
370
    25
100
AcDbCircle
 10
145.59
 20
45.41
 30
0.0
 40
6.5
  0
CIRCLE
  5
37C
330
1F
100
AcDbEntity
  8
0
  6
Continuous
 62
     7
370
    25
100
AcDbCircle
 10
93.29
 20
45.41
 30
0.0
 40
6.5
  0
CIRCLE
  5
37D
330
1F
100
AcDbEntity
  8
0
  6
Continuous
 62
     7
370
    25
100
AcDbCircle
 10
93.29
 20
97.71
 30
0.0
 40
6.499999999999986
  0
CIRCLE
  5
37E
330
1F
100
AcDbEntity
  8
0
  6
Continuous
 62
     7
370
    25
100
AcDbCircle
 10
145.59
 20
97.71
 30
0.0
 40
6.5
  0
LINE
  5
37F
330
1F
100
AcDbEntity
  8
0
  6
Continuous
 62
     7
370
    25
100
AcDbLine
 10
182.94
 20
53.06
 30
0.0
 11
182.94
 21
34.06
 31
0.0
  0
CIRCLE
  5
380
330
1F
100
AcDbEntity
  8
0
  6
Continuous
 62
     7
370
    25
100
AcDbCircle
 10
145.59
 20
45.41
 30
0.0
 40
6.000000000000007
  0
CIRCLE
  5
381
330
1F
100
AcDbEntity
  8
0
  6
Continuous
 62
     7
370
    25
100
AcDbCircle
 10
145.59
 20
97.71
 30
0.0
 40
6.0
  0
CIRCLE
  5
382
330
1F
100
AcDbEntity
  8
0
  6
Continuous
 62
     7
370
    25
100
AcDbCircle
 10
93.29
 20
45.41
 30
0.0
 40
6.000000000000007
  0
CIRCLE
  5
383
330
1F
100
AcDbEntity
  8
0
  6
Continuous
 62
     7
370
    25
100
AcDbCircle
 10
93.29
 20
97.71
 30
0.0
 40
6.0
  0
DIMENSION
  5
384
330
1F
100
AcDbEntity
  8
0
  6
Continuous
 62
     7
370
    18
100
AcDbDimension
  2
_D_11
 10
45.94
 20
34.06
 30
0.0
 11
45.94
 21
52.56
 31
0.0
 70
   160
  1
<>
 71
     2
 42
-1.0
  3
SLDDIMSTYLE1
100
AcDbAlignedDimension
 13
88.94
 23
71.06
 33
0.0
 14
55.94
 24
34.06
 34
0.0
 50
90.0
100
AcDbRotatedDimension
  0
DIMENSION
  5
38E
330
1F
100
AcDbEntity
  8
0
  6
Continuous
 62
     7
370
    18
100
AcDbDimension
  2
_D_12
 10
170.44
 20
18.06
 30
0.0
 11
119.44
 21
18.06
 31
0.0
 70
   160
  1
<>
 71
     2
 42
-1.0
  3
SLDDIMSTYLE1
100
AcDbAlignedDimension
 13
68.44
 23
50.06
 33
0.0
 14
170.44
 24
50.06
 34
0.0
 50
0.0
100
AcDbRotatedDimension
  0
DIMENSION
  5
398
330
1F
100
AcDbEntity
  8
0
  6
Continuous
 62
     7
370
    18
100
AcDbDimension
  2
_D_13
 10
182.94
 20
12.06
 30
0.0
 11
119.44
 21
12.06
 31
0.0
 70
   160
  1
<>
 71
     2
 42
-1.0
  3
SLDDIMSTYLE1
100
AcDbAlignedDimension
 13
55.94
 23
34.06
 33
0.0
 14
182.94
 24
34.06
 34
0.0
 50
0.0
100
AcDbRotatedDimension
  0
DIMENSION
  5
3A2
330
1F
100
AcDbEntity
  8
0
  6
Continuous
 62
     7
370
    18
100
AcDbDimension
  2
_D_14
 10
175.9395
 20
24.06
 30
0.0
 11
200.9968616003
 21
24.06
 31
0.0
 70
   160
  1
%%c<>
 71
     2
 42
-1.0
  3
SLDDIMSTYLE5
100
AcDbAlignedDimension
 13
164.9405
 23
34.56
 33
0.0
 14
175.9395
 24
34.56
 34
0.0
100
AcDbRotatedDimension
  0
DIMENSION
  5
3AF
330
1F
100
AcDbEntity
  8
0
  6
Continuous
 62
     7
370
    18
100
AcDbDimension
  2
_D_15
 10
93.29
 20
119.06
 30
0.0
 11
119.44
 21
119.06
 31
0.0
 70
   160
  1
<>
 71
     2
 42
-1.0
  3
SLDDIMSTYLE6
100
AcDbAlignedDimension
 13
145.59
 23
105.71
 33
0.0
 14
93.29
 24
106.21
 34
0.0
100
AcDbRotatedDimension
  0
DIMENSION
  5
3BA
330
1F
100
AcDbEntity
  8
0
  6
Continuous
 62
     7
370
    18
100
AcDbDimension
  2
_D_16
 10
156.94
 20
125.06
 30
0.0
 11
119.44
 21
125.06
 31
0.0
 70
   160
  1
<>
 71
     2
 42
-1.0
  3
SLDDIMSTYLE1
100
AcDbAlignedDimension
 13
81.94
 23
108.56
 33
0.0
 14
156.94
 24
108.56
 34
0.0
100
AcDbRotatedDimension
  0
DIMENSION
  5
3C4
330
1F
100
AcDbEntity
  8
0
  6
Continuous
 62
     7
370
    18
100
AcDbDimension
  2
_D_17
 10
198.94
 20
34.06
 30
0.0
 11
198.94
 21
71.56
 31
0.0
 70
   160
  1
<>
 71
     2
 42
-1.0
  3
SLDDIMSTYLE1
100
AcDbAlignedDimension
 13
156.44
 23
109.06
 33
0.0
 14
182.94
 24
34.06
 34
0.0
 50
90.0
100
AcDbRotatedDimension
  0
DIMENSION
  5
3CE
330
1F
100
AcDbEntity
  8
0
  6
Continuous
 62
     7
370
    18
100
AcDbDimension
  2
_D_18
 10
192.94
 20
97.71
 30
0.0
 11
192.94
 21
71.56
 31
0.0
 70
   160
  1
<>
 71
     2
 42
-1.0
  3
SLDDIMSTYLE6
100
AcDbAlignedDimension
 13
154.09
 23
45.41
 33
0.0
 14
153.59
 24
97.71
 34
0.0
 50
90.0
100
AcDbRotatedDimension
  0
DIMENSION
  5
3D8
330
1F
100
AcDbEntity
  8
0
  6
Continuous
 62
     7
370
    18
100
AcDbDimension
  2
_D_19
 10
109.3401283768
 20
62.7959154654
 30
0.0
 11
177.2074127139
 21
118.3274127139
 31
0.0
 70
   163
  1
M27x2
 71
     1
 42
-1.0
  3
SLDDIMSTYLE7
100
AcDbDiametricDimension
 15
129.5398716232
 25
79.3240845346
 35
0.0
 40
0.0
  0
INSERT
  5
3EF
330
1F
100
AcDbEntity
  8
0
  6
Continuous
 62
     7
370
     0
100
AcDbBlockReference
  2
SW_CENTERMARKSYMBOL_2
 10
93.29
 20
97.71
 30
0.0
  0
INSERT
  5
3FB
330
1F
100
AcDbEntity
  8
0
  6
Continuous
 62
     7
370
     0
100
AcDbBlockReference
  2
SW_CENTERMARKSYMBOL_3
 10
145.59
 20
97.71
 30
0.0
  0
INSERT
  5
407
330
1F
100
AcDbEntity
  8
0
  6
Continuous
 62
     7
370
     0
100
AcDbBlockReference
  2
SW_CENTERMARKSYMBOL_4
 10
145.59
 20
45.41
 30
0.0
  0
INSERT
  5
413
330
1F
100
AcDbEntity
  8
0
  6
Continuous
 62
     7
370
     0
100
AcDbBlockReference
  2
SW_CENTERMARKSYMBOL_5
 10
93.29
 20
45.41
 30
0.0
  0
INSERT
  5
41F
330
1F
100
AcDbEntity
  8
0
  6
Continuous
 62
     7
370
     0
100
AcDbBlockReference
  2
SW_CENTERMARKSYMBOL_6
 10
119.44
 20
71.06
 30
0.0
  0
INSERT
  5
42B
330
1F
100
AcDbEntity
  8
0
  6
Continuous
 62
     7
370
     0
100
AcDbBlockReference
  2
SW_CENTERMARKSYMBOL_7
 10
119.44
 20
71.06
 30
0.0
  0
LINE
  5
42C
330
1F
100
AcDbEntity
  8
0
  6
CENTERX2
 62
     7
370
    18
100
AcDbLine
 10
68.44
 20
50.06
 30
0.0
 11
68.44
 21
61.56
 31
0.0
  0
LINE
  5
42D
330
1F
100
AcDbEntity
  8
0
  6
CENTERX2
 62
     7
370
    18
100
AcDbLine
 10
170.44
 20
50.06
 30
0.0
 11
170.44
 21
61.56
 31
0.0
  0
ENDSEC
  0
SECTION
  2
OBJECTS
  0
DICTIONARY
  5
C
330
0
100
AcDbDictionary
281
     1
  3
ACAD_GROUP
350
D
  3
ACAD_LAYOUT
350
1A
  3
ACAD_MLINESTYLE
350
17
  3
ACAD_PLOTSETTINGS
350
19
  3
ACAD_PLOTSTYLENAME
350
E
  3
ACAD_SCALELIST
350
47
  0
DICTIONARY
  5
D
102
{ACAD_REACTORS
330
C
102
}
330
C
100
AcDbDictionary
281
     1
  0
DICTIONARY
  5
1A
102
{ACAD_REACTORS
330
C
102
}
330
C
100
AcDbDictionary
281
     1
  3
Layout1
350
1E
  3
Layout2
350
26
  3
Model
350
22
  0
DICTIONARY
  5
17
102
{ACAD_REACTORS
330
C
102
}
330
C
100
AcDbDictionary
281
     1
  3
Standard
350
18
  0
DICTIONARY
  5
19
102
{ACAD_REACTORS
330
C
102
}
330
C
100
AcDbDictionary
281
     1
  0
ACDBDICTIONARYWDFLT
  5
E
102
{ACAD_REACTORS
330
C
102
}
330
C
100
AcDbDictionary
281
     1
  3
Normal
350
F
100
AcDbDictionaryWithDefault
340
F
  0
DICTIONARY
  5
47
102
{ACAD_REACTORS
330
C
102
}
330
C
100
AcDbDictionary
281
     1
  3
A0
350
48
  3
A1
350
49
  3
A2
350
4A
  3
A3
350
4B
  3
A4
350
4C
  3
A5
350
4D
  3
A6
350
4E
  3
A7
350
4F
  3
A8
350
50
  3
A9
350
51
  3
B0
350
52
  3
B1
350
53
  3
B2
350
54
  3
B3
350
55
  3
B4
350
56
  3
B5
350
57
  3
B6
350
58
  3
B7
350
59
  3
B8
350
5A
  3
B9
350
5B
  3
C0
350
5C
  3
C1
350
5D
  3
C2
350
5E
  3
C3
350
5F
  3
C4
350
60
  3
C5
350
61
  3
C6
350
62
  3
C7
350
63
  3
C8
350
64
  3
C9
350
65
  3
D0
350
66
  3
D1
350
67
  3
D2
350
68
  0
LAYOUT
  5
1E
102
{ACAD_REACTORS
330
1A
102
}
330
1A
100
AcDbPlotSettings
  1

  2
none_device
  4

  6

 40
0.0
 41
0.0
 42
0.0
 43
0.0
 44
0.0
 45
0.0
 46
0.0
 47
0.0
 48
0.0
 49
0.0
140
0.0
141
0.0
142
1.0
143
1.0
 70
   688
 72
     1
 73
     0
 74
     5
  7

 75
    16
147
1.0
148
0.0
149
0.0
100
AcDbLayout
  1
Layout1
 70
     1
 71
     1
 10
0.0
 20
0.0
 11
420.0
 21
297.0
 12
0.0
 22
0.0
 32
0.0
 14
1.0000000000E+20
 24
1.0000000000E+20
 34
1.0000000000E+20
 15
-1.0000000000E+20
 25
-1.0000000000E+20
 35
-1.0000000000E+20
146
0.0
 13
0.0
 23
0.0
 33
0.0
 16
1.0
 26
0.0
 36
0.0
 17
0.0
 27
1.0
 37
0.0
 76
     0
330
1B
  0
LAYOUT
  5
26
102
{ACAD_REACTORS
330
1A
102
}
330
1A
100
AcDbPlotSettings
  1

  2
none_device
  4

  6

 40
0.0
 41
0.0
 42
0.0
 43
0.0
 44
0.0
 45
0.0
 46
0.0
 47
0.0
 48
0.0
 49
0.0
140
0.0
141
0.0
142
1.0
143
1.0
 70
   688
 72
     1
 73
     0
 74
     5
  7

 75
    16
147
1.0
148
0.0
149
0.0
100
AcDbLayout
  1
Layout2
 70
     1
 71
     2
 10
0.0
 20
0.0
 11
0.0
 21
0.0
 12
0.0
 22
0.0
 32
0.0
 14
0.0
 24
0.0
 34
0.0
 15
0.0
 25
0.0
 35
0.0
146
0.0
 13
0.0
 23
0.0
 33
0.0
 16
1.0
 26
0.0
 36
0.0
 17
0.0
 27
1.0
 37
0.0
 76
     0
330
23
  0
LAYOUT
  5
22
102
{ACAD_REACTORS
330
1A
102
}
330
1A
100
AcDbPlotSettings
  1

  2
none_device
  4
Letter_(8.50_x_11.00_Inches)
  6

 40
6.35
 41
6.35
 42
6.35000508
 43
6.35000508
 44
215.9
 45
279.4
 46
0.0
 47
0.0
 48
0.0
 49
0.0
140
0.0
141
0.0
142
1.0
143
1.0
 70
  1712
 72
     1
 73
     0
 74
     0
  7

 75
     0
147
1.0
148
0.0
149
0.0
100
AcDbLayout
  1
Model
 70
     1
 71
     0
 10
0.0
 20
0.0
 11
420.0
 21
297.0
 12
0.0
 22
0.0
 32
0.0
 14
0.0
 24
0.0
 34
0.0
 15
420.0
 25
297.0
 35
0.0
146
0.0
 13
0.0
 23
0.0
 33
0.0
 16
1.0
 26
0.0
 36
0.0
 17
0.0
 27
1.0
 37
0.0
 76
     0
330
1F
331
29
  0
MLINESTYLE
  5
18
102
{ACAD_REACTORS
330
17
102
}
330
17
100
AcDbMlineStyle
  2
Standard
 70
     0
  3

 62
   256
 51
90.0
 52
90.0
 71
     2
 49
0.5
 62
   256
  6
BYLAYER
 49
-0.5
 62
   256
  6
BYLAYER
  0
ACDBPLACEHOLDER
  5
F
102
{ACAD_REACTORS
330
E
102
}
330
E
  0
SCALE
  5
48
102
{ACAD_REACTORS
330
47
102
}
330
47
100
AcDbScale
 70
     0
300
1:1
140
1.0
141
1.0
290
     1
  0
SCALE
  5
49
102
{ACAD_REACTORS
330
47
102
}
330
47
100
AcDbScale
 70
     0
300
1:2
140
1.0
141
2.0
290
     0
  0
SCALE
  5
4A
102
{ACAD_REACTORS
330
47
102
}
330
47
100
AcDbScale
 70
     0
300
1:4
140
1.0
141
4.0
290
     0
  0
SCALE
  5
4B
102
{ACAD_REACTORS
330
47
102
}
330
47
100
AcDbScale
 70
     0
300
1:5
140
1.0
141
5.0
290
     0
  0
SCALE
  5
4C
102
{ACAD_REACTORS
330
47
102
}
330
47
100
AcDbScale
 70
     0
300
1:8
140
1.0
141
8.0
290
     0
  0
SCALE
  5
4D
102
{ACAD_REACTORS
330
47
102
}
330
47
100
AcDbScale
 70
     0
300
1:10
140
1.0
141
10.0
290
     0
  0
SCALE
  5
4E
102
{ACAD_REACTORS
330
47
102
}
330
47
100
AcDbScale
 70
     0
300
1:16
140
1.0
141
16.0
290
     0
  0
SCALE
  5
4F
102
{ACAD_REACTORS
330
47
102
}
330
47
100
AcDbScale
 70
     0
300
1:20
140
1.0
141
20.0
290
     0
  0
SCALE
  5
50
102
{ACAD_REACTORS
330
47
102
}
330
47
100
AcDbScale
 70
     0
300
1:30
140
1.0
141
30.0
290
     0
  0
SCALE
  5
51
102
{ACAD_REACTORS
330
47
102
}
330
47
100
AcDbScale
 70
     0
300
1:40
140
1.0
141
40.0
290
     0
  0
SCALE
  5
52
102
{ACAD_REACTORS
330
47
102
}
330
47
100
AcDbScale
 70
     0
300
1:50
140
1.0
141
50.0
290
     0
  0
SCALE
  5
53
102
{ACAD_REACTORS
330
47
102
}
330
47
100
AcDbScale
 70
     0
300
1:100
140
1.0
141
100.0
290
     0
  0
SCALE
  5
54
102
{ACAD_REACTORS
330
47
102
}
330
47
100
AcDbScale
 70
     0
300
2:1
140
2.0
141
1.0
290
     0
  0
SCALE
  5
55
102
{ACAD_REACTORS
330
47
102
}
330
47
100
AcDbScale
 70
     0
300
4:1
140
4.0
141
1.0
290
     0
  0
SCALE
  5
56
102
{ACAD_REACTORS
330
47
102
}
330
47
100
AcDbScale
 70
     0
300
8:1
140
8.0
141
1.0
290
     0
  0
SCALE
  5
57
102
{ACAD_REACTORS
330
47
102
}
330
47
100
AcDbScale
 70
     0
300
10:1
140
10.0
141
1.0
290
     0
  0
SCALE
  5
58
102
{ACAD_REACTORS
330
47
102
}
330
47
100
AcDbScale
 70
     0
300
100:1
140
100.0
141
1.0
290
     0
  0
SCALE
  5
59
102
{ACAD_REACTORS
330
47
102
}
330
47
100
AcDbScale
 70
     0
300
1/128" = 1'-0"
140
0.0078125
141
12.0
290
     0
  0
SCALE
  5
5A
102
{ACAD_REACTORS
330
47
102
}
330
47
100
AcDbScale
 70
     0
300
1/64" = 1'-0"
140
0.015625
141
12.0
290
     0
  0
SCALE
  5
5B
102
{ACAD_REACTORS
330
47
102
}
330
47
100
AcDbScale
 70
     0
300
1/32" = 1'-0"
140
0.03125
141
12.0
290
     0
  0
SCALE
  5
5C
102
{ACAD_REACTORS
330
47
102
}
330
47
100
AcDbScale
 70
     0
300
1/16" = 1'-0"
140
0.0625
141
12.0
290
     0
  0
SCALE
  5
5D
102
{ACAD_REACTORS
330
47
102
}
330
47
100
AcDbScale
 70
     0
300
3/32" = 1'-0"
140
0.09375
141
12.0
290
     0
  0
SCALE
  5
5E
102
{ACAD_REACTORS
330
47
102
}
330
47
100
AcDbScale
 70
     0
300
1/8" = 1'-0"
140
0.125
141
12.0
290
     0
  0
SCALE
  5
5F
102
{ACAD_REACTORS
330
47
102
}
330
47
100
AcDbScale
 70
     0
300
3/16" = 1'-0"
140
0.1875
141
12.0
290
     0
  0
SCALE
  5
60
102
{ACAD_REACTORS
330
47
102
}
330
47
100
AcDbScale
 70
     0
300
1/4" = 1'-0"
140
0.25
141
12.0
290
     0
  0
SCALE
  5
61
102
{ACAD_REACTORS
330
47
102
}
330
47
100
AcDbScale
 70
     0
300
3/8" = 1'-0"
140
0.375
141
12.0
290
     0
  0
SCALE
  5
62
102
{ACAD_REACTORS
330
47
102
}
330
47
100
AcDbScale
 70
     0
300
1/2" = 1'-0"
140
0.5
141
12.0
290
     0
  0
SCALE
  5
63
102
{ACAD_REACTORS
330
47
102
}
330
47
100
AcDbScale
 70
     0
300
3/4" = 1'-0"
140
0.75
141
12.0
290
     0
  0
SCALE
  5
64
102
{ACAD_REACTORS
330
47
102
}
330
47
100
AcDbScale
 70
     0
300
1" = 1'-0"
140
1.0
141
12.0
290
     0
  0
SCALE
  5
65
102
{ACAD_REACTORS
330
47
102
}
330
47
100
AcDbScale
 70
     0
300
1-1/2" = 1'-0"
140
1.5
141
12.0
290
     0
  0
SCALE
  5
66
102
{ACAD_REACTORS
330
47
102
}
330
47
100
AcDbScale
 70
     0
300
3" = 1'-0"
140
3.0
141
12.0
290
     0
  0
SCALE
  5
67
102
{ACAD_REACTORS
330
47
102
}
330
47
100
AcDbScale
 70
     0
300
6" = 1'-0"
140
6.0
141
12.0
290
     0
  0
SCALE
  5
68
102
{ACAD_REACTORS
330
47
102
}
330
47
100
AcDbScale
 70
     0
300
1'-0" = 1'-0"
140
12.0
141
12.0
290
     0
  0
ENDSEC
  0
EOF
