  0
SECTION
  2
HEADER
  9
$ACADVER
  1
AC1015
  9
$ACADMAINTVER
 70
     6
  9
$DWGCODEPAGE
  3
ANSI_1250
  9
$INSBASE
 10
0.0
 20
0.0
 30
0.0
  9
$EXTMIN
 10
0.0
 20
0.0
 30
0.0
  9
$EXTMAX
 10
420.0
 20
297.0
 30
0.0
  9
$LIMMIN
 10
0.0
 20
0.0
  9
$LIMMAX
 10
420.0
 20
297.0
  9
$ORTHOMODE
 70
     0
  9
$REGENMODE
 70
     1
  9
$FILLMODE
 70
     1
  9
$QTEXTMODE
 70
     0
  9
$MIRRTEXT
 70
     1
  9
$LTSCALE
 40
1.0
  9
$ATTMODE
 70
     1
  9
$TEXTSIZE
 40
3.5
  9
$TRACEWID
 40
1.0
  9
$TEXTSTYLE
  7
Standard
  9
$CLAYER
  8
0
  9
$CELTYPE
  6
ByLayer
  9
$CECOLOR
 62
   256
  9
$CELTSCALE
 40
1.0
  9
$DISPSILH
 70
     0
  9
$DIMSCALE
 40
1.0
  9
$DIMASZ
 40
3.302
  9
$DIMEXO
 40
1.0
  9
$DIMDLI
 40
3.75
  9
$DIMRND
 40
0.0
  9
$DIMDLE
 40
0.0
  9
$DIMEXE
 40
1.0
  9
$DIMTP
 40
0.0
  9
$DIMTM
 40
0.0
  9
$DIMTXT
 40
3.5
  9
$DIMCEN
 40
2.5
  9
$DIMTSZ
 40
0.0
  9
$DIMTOL
 70
     0
  9
$DIMLIM
 70
     0
  9
$DIMTIH
 70
     1
  9
$DIMTOH
 70
     1
  9
$DIMSE1
 70
     0
  9
$DIMSE2
 70
     0
  9
$DIMTAD
 70
     1
  9
$DIMZIN
 70
     1
  9
$DIMBLK
  1

  9
$DIMASO
 70
     1
  9
$DIMSHO
 70
     1
  9
$DIMPOST
  1

  9
$DIMAPOST
  1

  9
$DIMALT
 70
     0
  9
$DIMALTD
 70
     3
  9
$DIMALTF
 40
0.0393700787
  9
$DIMLFAC
 40
1.0
  9
$DIMTOFL
 70
     1
  9
$DIMTVP
 40
0.0
  9
$DIMTIX
 70
     0
  9
$DIMSOXD
 70
     0
  9
$DIMSAH
 70
     0
  9
$DIMBLK1
  1

  9
$DIMBLK2
  1

  9
$DIMSTYLE
  2
ISO-25
  9
$DIMCLRD
 70
     0
  9
$DIMCLRE
 70
     0
  9
$DIMCLRT
 70
     0
  9
$DIMTFAC
 40
1.0
  9
$DIMGAP
 40
1.524
  9
$DIMJUST
 70
     0
  9
$DIMSD1
 70
     0
  9
$DIMSD2
 70
     0
  9
$DIMTOLJ
 70
     0
  9
$DIMTZIN
 70
     1
  9
$DIMALTZ
 70
     0
  9
$DIMALTTZ
 70
     0
  9
$DIMUPT
 70
     0
  9
$DIMDEC
 70
     2
  9
$DIMTDEC
 70
     2
  9
$DIMALTU
 70
     2
  9
$DIMALTTD
 70
     3
  9
$DIMTXSTY
  7
Standard
  9
$DIMAUNIT
 70
     0
  9
$DIMADEC
 70
     2
  9
$DIMALTRND
 40
0.0
  9
$DIMAZIN
 70
     0
  9
$DIMDSEP
 70
    44
  9
$DIMATFIT
 70
     3
  9
$DIMFRAC
 70
     0
  9
$DIMLDRBLK
  1

  9
$DIMLUNIT
 70
     2
  9
$DIMLWD
 70
    -2
  9
$DIMLWE
 70
    -2
  9
$DIMTMOVE
 70
     0
  9
$LUNITS
 70
     2
  9
$LUPREC
 70
     2
  9
$SKETCHINC
 40
1.0
  9
$FILLETRAD
 40
10.0
  9
$AUNITS
 70
     0
  9
$AUPREC
 70
     2
  9
$MENU
  1
.
  9
$ELEVATION
 40
0.0
  9
$PELEVATION
 40
0.0
  9
$THICKNESS
 40
0.0
  9
$LIMCHECK
 70
     0
  9
$CHAMFERA
 40
0.0
  9
$CHAMFERB
 40
0.0
  9
$CHAMFERC
 40
0.0
  9
$CHAMFERD
 40
0.0
  9
$SKPOLY
 70
     0
  9
$TDCREATE
 40
2460352.682234028
  9
$TDUCREATE
 40
2460352.640567361
  9
$TDUPDATE
 40
2460352.682236922
  9
$TDUUPDATE
 40
2460352.640570255
  9
$TDINDWG
 40
0.0000000116
  9
$TDUSRTIMER
 40
0.0000000116
  9
$USRTIMER
 70
     1
  9
$ANGBASE
 50
0.0
  9
$ANGDIR
 70
     0
  9
$PDMODE
 70
     0
  9
$PDSIZE
 40
-1.0
  9
$PLINEWID
 40
0.0
  9
$SPLFRAME
 70
     0
  9
$SPLINETYPE
 70
     6
  9
$SPLINESEGS
 70
     8
  9
$HANDSEED
  5
2FB
  9
$SURFTAB1
 70
     6
  9
$SURFTAB2
 70
     6
  9
$SURFTYPE
 70
     6
  9
$SURFU
 70
     6
  9
$SURFV
 70
     6
  9
$UCSBASE
  2

  9
$UCSNAME
  2

  9
$UCSORG
 10
0.0
 20
0.0
 30
0.0
  9
$UCSXDIR
 10
1.0
 20
0.0
 30
0.0
  9
$UCSYDIR
 10
0.0
 20
1.0
 30
0.0
  9
$UCSORTHOREF
  2

  9
$UCSORTHOVIEW
 70
     0
  9
$UCSORGTOP
 10
0.0
 20
0.0
 30
0.0
  9
$UCSORGBOTTOM
 10
0.0
 20
0.0
 30
0.0
  9
$UCSORGLEFT
 10
0.0
 20
0.0
 30
0.0
  9
$UCSORGRIGHT
 10
0.0
 20
0.0
 30
0.0
  9
$UCSORGFRONT
 10
0.0
 20
0.0
 30
0.0
  9
$UCSORGBACK
 10
0.0
 20
0.0
 30
0.0
  9
$PUCSBASE
  2

  9
$PUCSNAME
  2

  9
$PUCSORG
 10
0.0
 20
0.0
 30
0.0
  9
$PUCSXDIR
 10
1.0
 20
0.0
 30
0.0
  9
$PUCSYDIR
 10
0.0
 20
1.0
 30
0.0
  9
$PUCSORTHOREF
  2

  9
$PUCSORTHOVIEW
 70
     0
  9
$PUCSORGTOP
 10
0.0
 20
0.0
 30
0.0
  9
$PUCSORGBOTTOM
 10
0.0
 20
0.0
 30
0.0
  9
$PUCSORGLEFT
 10
0.0
 20
0.0
 30
0.0
  9
$PUCSORGRIGHT
 10
0.0
 20
0.0
 30
0.0
  9
$PUCSORGFRONT
 10
0.0
 20
0.0
 30
0.0
  9
$PUCSORGBACK
 10
0.0
 20
0.0
 30
0.0
  9
$USERI1
 70
     0
  9
$USERI2
 70
     0
  9
$USERI3
 70
     0
  9
$USERI4
 70
     0
  9
$USERI5
 70
     0
  9
$USERR1
 40
0.0
  9
$USERR2
 40
0.0
  9
$USERR3
 40
0.0
  9
$USERR4
 40
0.0
  9
$USERR5
 40
0.0
  9
$WORLDVIEW
 70
     1
  9
$SHADEDGE
 70
     3
  9
$SHADEDIF
 70
    70
  9
$TILEMODE
 70
     1
  9
$MAXACTVP
 70
    64
  9
$PINSBASE
 10
0.0
 20
0.0
 30
0.0
  9
$PLIMCHECK
 70
     0
  9
$PEXTMIN
 10
1.0000000000E+20
 20
1.0000000000E+20
 30
1.0000000000E+20
  9
$PEXTMAX
 10
-1.0000000000E+20
 20
-1.0000000000E+20
 30
-1.0000000000E+20
  9
$PLIMMIN
 10
0.0
 20
0.0
  9
$PLIMMAX
 10
420.0
 20
297.0
  9
$UNITMODE
 70
     0
  9
$VISRETAIN
 70
     1
  9
$PLINEGEN
 70
     0
  9
$PSLTSCALE
 70
     1
  9
$TREEDEPTH
 70
  3020
  9
$CMLSTYLE
  2
Standard
  9
$CMLJUST
 70
     0
  9
$CMLSCALE
 40
20.0
  9
$PROXYGRAPHICS
 70
     1
  9
$MEASUREMENT
 70
     1
  9
$CELWEIGHT
370
    -1
  9
$ENDCAPS
280
     0
  9
$JOINSTYLE
280
     0
  9
$LWDISPLAY
290
     1
  9
$INSUNITS
 70
     4
  9
$HYPERLINKBASE
  1

  9
$STYLESHEET
  1

  9
$XEDIT
290
     1
  9
$CEPSNTYPE
380
     0
  9
$PSTYLEMODE
290
     1
  9
$FINGERPRINTGUID
  2
{efeacdcc-9fa1-4d2a-a3ac-a85fcee86efa}
  9
$VERSIONGUID
  2
{FAEB1C32-E019-11D5-929B-00C0DF256EC4}
  9
$EXTNAMES
290
     1
  9
$PSVPSCALE
 40
0.0
  9
$OLESTARTUP
290
     0
  0
ENDSEC
  0
SECTION
  2
CLASSES
  0
CLASS
  1
ACDBDICTIONARYWDFLT
  2
AcDbDictionaryWithDefault
  3
ObjectDBX Classes
 90
        0
280
     0
281
     0
  0
CLASS
  1
VISUALSTYLE
  2
AcDbVisualStyle
  3
ObjectDBX Classes
 90
     4095
280
     0
281
     0
  0
CLASS
  1
MATERIAL
  2
AcDbMaterial
  3
ObjectDBX Classes
 90
     1153
280
     0
281
     0
  0
CLASS
  1
SCALE
  2
AcDbScale
  3
ObjectDBX Classes
 90
     1153
280
     0
281
     0
  0
CLASS
  1
TABLESTYLE
  2
AcDbTableStyle
  3
ObjectDBX Classes
 90
     4095
280
     0
281
     0
  0
CLASS
  1
MLEADERSTYLE
  2
AcDbMLeaderStyle
  3
ACDB_MLEADERSTYLE_CLASS
 90
     4095
280
     0
281
     0
  0
CLASS
  1
SUN
  2
AcDbSun
  3
SCENEOE
 90
     1153
280
     0
281
     0
  0
CLASS
  1
ACDBPLACEHOLDER
  2
AcDbPlaceHolder
  3
ObjectDBX Classes
 90
        0
280
     0
281
     0
  0
CLASS
  1
LAYOUT
  2
AcDbLayout
  3
ObjectDBX Classes
 90
        0
280
     0
281
     0
  0
ENDSEC
  0
SECTION
  2
TABLES
  0
TABLE
  2
VPORT
  5
8
330
0
100
AcDbSymbolTable
 70
     1
  0
VPORT
  5
29
330
8
100
AcDbSymbolTableRecord
100
AcDbViewportTableRecord
  2
*Active
 70
     0
 10
0.0
 20
0.0
 11
1.0
 21
1.0
 12
210.0
 22
148.5
 13
0.0
 23
0.0
 14
10.0
 24
10.0
 15
10.0
 25
10.0
 16
0.0
 26
0.0
 36
1.0
 17
0.0
 27
0.0
 37
0.0
 40
297.0
 41
1.4141414141
 42
50.0
 43
0.0
 44
0.0
 50
0.0
 51
0.0
 71
     0
 72
  2000
 73
     1
 74
     3
 75
     0
 76
     0
 77
     0
 78
     0
281
     0
 65
     1
110
0.0
120
0.0
130
0.0
111
1.0
121
0.0
131
0.0
112
0.0
122
1.0
132
0.0
 79
     0
146
0.0
  0
ENDTAB
  0
TABLE
  2
LTYPE
  5
5
330
0
100
AcDbSymbolTable
 70
     6
  0
LTYPE
  5
14
330
5
100
AcDbSymbolTableRecord
100
AcDbLinetypeTableRecord
  2
ByBlock
 70
     0
  3

 72
    65
 73
     0
 40
0.0
  0
LTYPE
  5
15
330
5
100
AcDbSymbolTableRecord
100
AcDbLinetypeTableRecord
  2
ByLayer
 70
     0
  3

 72
    65
 73
     0
 40
0.0
  0
LTYPE
  5
16
330
5
100
AcDbSymbolTableRecord
100
AcDbLinetypeTableRecord
  2
Continuous
 70
     0
  3
Solid line
 72
    65
 73
     0
 40
0.0
  0
LTYPE
  5
6E
330
5
100
AcDbSymbolTableRecord
100
AcDbLinetypeTableRecord
  2
HIDDEN
 70
     0
  3
Hidden __ __ __ __ __ __ __ __ __ __ __ __ __ __
 72
    65
 73
     2
 40
1.905
 49
1.27
 74
     0
 49
-0.635
 74
     0
  0
LTYPE
  5
6F
330
5
100
AcDbSymbolTableRecord
100
AcDbLinetypeTableRecord
  2
PHANTOM
 70
     0
  3
Phantom ______  __  __  ______  __  __  ______
 72
    65
 73
     6
 40
12.7
 49
6.35
 74
     0
 49
-1.27
 74
     0
 49
1.27
 74
     0
 49
-1.27
 74
     0
 49
1.27
 74
     0
 49
-1.27
 74
     0
  0
LTYPE
  5
70
330
5
100
AcDbSymbolTableRecord
100
AcDbLinetypeTableRecord
  2
CENTER
 70
     0
  3
Center ____ _ ____ _ ____ _ ____ _ ____ _ ____
 72
    65
 73
     4
 40
10.16
 49
6.35
 74
     0
 49
-1.27
 74
     0
 49
1.27
 74
     0
 49
-1.27
 74
     0
  0
LTYPE
  5
71
330
5
100
AcDbSymbolTableRecord
100
AcDbLinetypeTableRecord
  2
CENTERX2
 70
     0
  3
Center (2x) ________  __  ________  __  _____
 72
    65
 73
     4
 40
20.32
 49
12.7
 74
     0
 49
-2.54
 74
     0
 49
2.54
 74
     0
 49
-2.54
 74
     0
  0
LTYPE
  5
72
330
5
100
AcDbSymbolTableRecord
100
AcDbLinetypeTableRecord
  2
DOT2
 70
     0
  3
Dot (.5x) ........................................
 72
    65
 73
     2
 40
0.635
 49
0.0
 74
     0
 49
-0.635
 74
     0
  0
ENDTAB
  0
TABLE
  2
LAYER
  5
2
330
0
100
AcDbSymbolTable
 70
     2
  0
LAYER
  5
10
330
2
100
AcDbSymbolTableRecord
100
AcDbLayerTableRecord
  2
0
 70
     0
 62
     7
  6
Continuous
370
    -3
390
F
  0
LAYER
  5
73
330
2
100
AcDbSymbolTableRecord
100
AcDbLayerTableRecord
  2
FORMAT
 70
     0
 62
     7
  6
Continuous
370
    -3
390
F
  0
ENDTAB
  0
TABLE
  2
STYLE
  5
3
330
0
100
AcDbSymbolTable
 70
     4
  0
STYLE
  5
11
330
3
100
AcDbSymbolTableRecord
100
AcDbTextStyleTableRecord
  2
Standard
 70
     0
 40
0.0
 41
1.0
 50
0.0
 71
     0
 42
3.5
  3
txt
  4

  0
STYLE
  5
B1
330
3
100
AcDbSymbolTableRecord
100
AcDbTextStyleTableRecord
  2
SLDTEXTSTYLE0
 70
     0
 40
0.0
 41
0.75
 50
0.0
 71
     0
 42
3.5
  3
TXT
  4

  0
STYLE
  5
D1
330
3
100
AcDbSymbolTableRecord
100
AcDbTextStyleTableRecord
  2
SLDTEXTSTYLE1
 70
     0
 40
0.0
 41
0.6875
 50
0.0
 71
     0
 42
3.5
  3
TXT
  4
bigfont
  0
STYLE
  5
D3
330
3
100
AcDbSymbolTableRecord
100
AcDbTextStyleTableRecord
  2
SLDTEXTSTYLE2
 70
     0
 40
0.0
 41
0.75
 50
0.0
 71
     0
 42
3.5
  3
TXT
  4
bigfont
  0
ENDTAB
  0
TABLE
  2
VIEW
  5
6
330
0
100
AcDbSymbolTable
 70
     0
  0
ENDTAB
  0
TABLE
  2
UCS
  5
7
330
0
100
AcDbSymbolTable
 70
     0
  0
ENDTAB
  0
TABLE
  2
APPID
  5
9
330
0
100
AcDbSymbolTable
 70
     1
  0
APPID
  5
12
330
9
100
AcDbSymbolTableRecord
100
AcDbRegAppTableRecord
  2
ACAD
 70
     0
  0
ENDTAB
  0
TABLE
  2
DIMSTYLE
  5
A
330
0
100
AcDbSymbolTable
 70
     7
100
AcDbDimStyleTable
  0
DIMSTYLE
105
27
330
A
100
AcDbSymbolTableRecord
100
AcDbDimStyleTableRecord
  2
ISO-25
 70
     0
 41
2.5
 42
0.625
 43
3.75
 44
1.25
 73
     0
 74
     0
 77
     1
 78
     8
140
2.5
141
2.5
143
0.0393700787
147
0.625
171
     3
172
     1
178
     0
271
     2
272
     2
274
     3
278
    44
283
     0
284
     8
340
11
  0
DIMSTYLE
105
11A
102
{ACAD_REACTORS
330
119
330
124
330
12E
330
138
330
2AA
102
}
330
A
100
AcDbSymbolTableRecord
100
AcDbDimStyleTableRecord
  2
SLDDIMSTYLE0
 70
     0
 41
3.302
 44
0.0
 45
0.000000001
 73
     0
 74
     0
 77
     1
 78
    12
 79
     3
140
3.5
147
0.875
173
     1
178
     0
271
     0
272
     0
276
     2
284
    12
340
B1
  0
DIMSTYLE
105
143
102
{ACAD_REACTORS
330
142
102
}
330
A
100
AcDbSymbolTableRecord
100
AcDbDimStyleTableRecord
  2
SLDDIMSTYLE1
 70
     0
 41
3.302
 44
0.0
 45
0.000000001
 73
     0
 74
     0
 77
     1
 78
    12
 79
     3
140
3.5
141
0.0
147
0.875
172
     1
173
     1
178
     0
271
     2
272
     2
276
     2
284
    12
340
B1
341
144
343
144
  0
DIMSTYLE
105
150
102
{ACAD_REACTORS
330
14F
330
29E
330
2BF
330
2CB
102
}
330
A
100
AcDbSymbolTableRecord
100
AcDbDimStyleTableRecord
  2
SLDDIMSTYLE2
 70
     0
 41
3.302
 44
0.0
 45
0.000000001
 73
     0
 74
     0
 77
     1
 78
    12
 79
     3
140
3.5
147
0.875
172
     1
173
     1
178
     0
271
     0
272
     0
276
     2
284
    12
289
     0
340
B1
  0
DIMSTYLE
105
15D
102
{ACAD_REACTORS
330
15C
102
}
330
A
100
AcDbSymbolTableRecord
100
AcDbDimStyleTableRecord
  2
SLDDIMSTYLE3
 70
     0
  3
<>
 41
3.302
 44
0.0
 45
0.000000001
 73
     0
 74
     0
 77
     1
 78
    12
 79
     3
140
3.5
141
0.0
147
0.875
172
     1
173
     1
178
     0
271
     2
272
     2
276
     2
284
    12
340
B1
341
144
343
144
  0
DIMSTYLE
105
2B5
102
{ACAD_REACTORS
330
2B4
102
}
330
A
100
AcDbSymbolTableRecord
100
AcDbDimStyleTableRecord
  2
SLDDIMSTYLE4
 70
     0
 41
3.302
 44
0.0
 45
0.000000001
 73
     0
 74
     0
 77
     1
 78
    12
 79
     3
140
3.5
147
0.875
172
     1
173
     1
178
     0
271
     0
272
     2
276
     2
284
    12
289
     0
340
B1
  0
DIMSTYLE
105
2D9
102
{ACAD_REACTORS
330
2D8
102
}
330
A
100
AcDbSymbolTableRecord
100
AcDbDimStyleTableRecord
  2
SLDDIMSTYLE5
 70
     0
  3
<>
 41
3.302
 44
0.0
 45
0.000000001
 73
     0
 74
     0
 77
     1
 78
    12
 79
     3
140
3.5
141
0.0
147
0.875
172
     1
173
     1
178
     0
271
     1
272
     2
276
     2
284
    12
340
B1
341
144
343
144
  0
ENDTAB
  0
TABLE
  2
BLOCK_RECORD
  5
1
330
0
100
AcDbSymbolTable
 70
    28
  0
BLOCK_RECORD
  5
1F
330
1
100
AcDbSymbolTableRecord
100
AcDbBlockTableRecord
  2
*Model_Space
340
22
  0
BLOCK_RECORD
  5
1B
330
1
100
AcDbSymbolTableRecord
100
AcDbBlockTableRecord
  2
*Paper_Space
340
1E
  0
BLOCK_RECORD
  5
23
330
1
100
AcDbSymbolTableRecord
100
AcDbBlockTableRecord
  2
*Paper_Space0
340
26
  0
BLOCK_RECORD
  5
DD
330
1
100
AcDbSymbolTableRecord
100
AcDbBlockTableRecord
  2
SW_NOTE_0
340
0
102
{BLKREFS
331
E2
102
}
  0
BLOCK_RECORD
  5
E4
330
1
100
AcDbSymbolTableRecord
100
AcDbBlockTableRecord
  2
SW_NOTE_0_1
340
0
102
{BLKREFS
331
ED
102
}
  0
BLOCK_RECORD
  5
11B
330
1
100
AcDbSymbolTableRecord
100
AcDbBlockTableRecord
  2
_D
340
0
  0
BLOCK_RECORD
  5
125
330
1
100
AcDbSymbolTableRecord
100
AcDbBlockTableRecord
  2
_D_1
340
0
  0
BLOCK_RECORD
  5
12F
330
1
100
AcDbSymbolTableRecord
100
AcDbBlockTableRecord
  2
_D_2
340
0
  0
BLOCK_RECORD
  5
139
330
1
100
AcDbSymbolTableRecord
100
AcDbBlockTableRecord
  2
_D_3
340
0
  0
BLOCK_RECORD
  5
144
330
1
100
AcDbSymbolTableRecord
100
AcDbBlockTableRecord
  2
_None
340
0
  0
BLOCK_RECORD
  5
147
330
1
100
AcDbSymbolTableRecord
100
AcDbBlockTableRecord
  2
_D_4
340
0
  0
BLOCK_RECORD
  5
151
330
1
100
AcDbSymbolTableRecord
100
AcDbBlockTableRecord
  2
_D_5
340
0
  0
BLOCK_RECORD
  5
15E
330
1
100
AcDbSymbolTableRecord
100
AcDbBlockTableRecord
  2
_D_6
340
0
  0
BLOCK_RECORD
  5
165
330
1
100
AcDbSymbolTableRecord
100
AcDbBlockTableRecord
  2
SW_CENTERMARKSYMBOL_0
340
0
102
{BLKREFS
331
170
102
}
  0
BLOCK_RECORD
  5
171
330
1
100
AcDbSymbolTableRecord
100
AcDbBlockTableRecord
  2
SW_CENTERMARKSYMBOL_1
340
0
102
{BLKREFS
331
17C
102
}
  0
BLOCK_RECORD
  5
17D
330
1
100
AcDbSymbolTableRecord
100
AcDbBlockTableRecord
  2
SW_CENTERMARKSYMBOL_2
340
0
102
{BLKREFS
331
188
102
}
  0
BLOCK_RECORD
  5
189
330
1
100
AcDbSymbolTableRecord
100
AcDbBlockTableRecord
  2
SW_CENTERMARKSYMBOL_3
340
0
102
{BLKREFS
331
194
102
}
  0
BLOCK_RECORD
  5
195
330
1
100
AcDbSymbolTableRecord
100
AcDbBlockTableRecord
  2
SW_CENTERMARKSYMBOL_4
340
0
102
{BLKREFS
331
1A0
102
}
  0
BLOCK_RECORD
  5
1A1
330
1
100
AcDbSymbolTableRecord
100
AcDbBlockTableRecord
  2
SW_CENTERMARKSYMBOL_5
340
0
102
{BLKREFS
331
1AC
102
}
  0
BLOCK_RECORD
  5
1AD
330
1
100
AcDbSymbolTableRecord
100
AcDbBlockTableRecord
  2
SW_CENTERMARKSYMBOL_6
340
0
102
{BLKREFS
331
1B8
102
}
  0
BLOCK_RECORD
  5
1B9
330
1
100
AcDbSymbolTableRecord
100
AcDbBlockTableRecord
  2
SW_CENTERMARKSYMBOL_7
340
0
102
{BLKREFS
331
1C4
102
}
  0
BLOCK_RECORD
  5
1C5
330
1
100
AcDbSymbolTableRecord
100
AcDbBlockTableRecord
  2
SW_CENTERMARKSYMBOL_8
340
0
102
{BLKREFS
331
1D0
102
}
  0
BLOCK_RECORD
  5
29F
330
1
100
AcDbSymbolTableRecord
100
AcDbBlockTableRecord
  2
_D_7
340
0
  0
BLOCK_RECORD
  5
2AB
330
1
100
AcDbSymbolTableRecord
100
AcDbBlockTableRecord
  2
_D_8
340
0
  0
BLOCK_RECORD
  5
2B6
330
1
100
AcDbSymbolTableRecord
100
AcDbBlockTableRecord
  2
_D_9
340
0
  0
BLOCK_RECORD
  5
2C0
330
1
100
AcDbSymbolTableRecord
100
AcDbBlockTableRecord
  2
_D_10
340
0
  0
BLOCK_RECORD
  5
2CC
330
1
100
AcDbSymbolTableRecord
100
AcDbBlockTableRecord
  2
_D_11
340
0
  0
BLOCK_RECORD
  5
2DA
330
1
100
AcDbSymbolTableRecord
100
AcDbBlockTableRecord
  2
_D_12
340
0
  0
BLOCK_RECORD
  5
2E1
330
1
100
AcDbSymbolTableRecord
100
AcDbBlockTableRecord
  2
SW_CENTERMARKSYMBOL_9
340
0
102
{BLKREFS
331
2EC
102
}
  0
BLOCK_RECORD
  5
2ED
330
1
100
AcDbSymbolTableRecord
100
AcDbBlockTableRecord
  2
SW_CENTERMARKSYMBOL_10
340
0
102
{BLKREFS
331
2F8
102
}
  0
ENDTAB
  0
ENDSEC
  0
SECTION
  2
BLOCKS
  0
BLOCK
  5
20
330
1F
100
AcDbEntity
  8
0
100
AcDbBlockBegin
  2
*Model_Space
 70
     0
 10
0.0
 20
0.0
 30
0.0
  3
*Model_Space
  1

  0
ENDBLK
  5
21
330
1F
100
AcDbEntity
  8
0
100
AcDbBlockEnd
  0
BLOCK
  5
1C
330
1B
100
AcDbEntity
 67
     1
  8
0
100
AcDbBlockBegin
  2
*Paper_Space
 70
     0
 10
0.0
 20
0.0
 30
0.0
  3
*Paper_Space
  1

  0
ENDBLK
  5
1D
330
1B
100
AcDbEntity
 67
     1
  8
0
100
AcDbBlockEnd
  0
BLOCK
  5
24
330
23
100
AcDbEntity
  8
0
100
AcDbBlockBegin
  2
*Paper_Space0
 70
     0
 10
0.0
 20
0.0
 30
0.0
  3
*Paper_Space0
  1

  0
ENDBLK
  5
25
330
23
100
AcDbEntity
  8
0
100
AcDbBlockEnd
  0
BLOCK
  5
DE
330
DD
100
AcDbEntity
  8
0
100
AcDbBlockBegin
  2
SW_NOTE_0
 70
     0
 10
0.0
 20
0.0
 30
0.0
  3
SW_NOTE_0
  1

  0
MTEXT
  5
E0
330
DD
100
AcDbEntity
  8
0
  6
Continuous
 62
     0
370
     0
100
AcDbMText
 10
0.0
 20
1.9336016097
 30
0.0
 40
1.5
 41
0.0
 71
     1
 72
     1
  1
ODSTRANIT
  7
SLDTEXTSTYLE0
 73
     1
 44
1.0
  0
MTEXT
  5
E1
330
DD
100
AcDbEntity
  8
0
  6
Continuous
 62
     0
370
     0
100
AcDbMText
 10
0.0
 20
-0.5663983345
 30
0.0
 40
1.5
 41
0.0
 71
     1
 72
     1
  1
OSTRÉ HRANY
  7
SLDTEXTSTYLE0
 73
     1
 44
1.0
  0
ENDBLK
  5
DF
330
DD
100
AcDbEntity
  8
0
100
AcDbBlockEnd
  0
BLOCK
  5
E5
330
E4
100
AcDbEntity
  8
0
100
AcDbBlockBegin
  2
SW_NOTE_0_1
 70
     0
 10
0.0
 20
0.0
 30
0.0
  3
SW_NOTE_0_1
  1

  0
MTEXT
  5
E7
330
E4
100
AcDbEntity
  8
0
  6
Continuous
 62
     0
370
     0
100
AcDbMText
 10
0.0
 20
1.9336016097
 30
0.0
 40
1.5
 41
0.0
 71
     1
 72
     1
  1
POKUD NENÍ UVEDENO JINAK:
  7
SLDTEXTSTYLE0
 73
     1
 44
1.0
  0
MTEXT
  5
E8
330
E4
100
AcDbEntity
  8
0
  6
Continuous
 62
     0
370
     0
100
AcDbMText
 10
0.0
 20
-0.5663983345
 30
0.0
 40
1.5
 41
0.0
 71
     1
 72
     1
  1
JEDNOTKY JSOU V MILIMETRECH
  7
SLDTEXTSTYLE0
 73
     1
 44
1.0
  0
MTEXT
  5
E9
330
E4
100
AcDbEntity
  8
0
  6
Continuous
 62
     0
370
     0
100
AcDbMText
 10
0.0
 20
-3.0663982786
 30
0.0
 40
1.5
 41
0.0
 71
     1
 72
     1
  1
DRSNOST:
  7
SLDTEXTSTYLE0
 73
     1
 44
1.0
  0
MTEXT
  5
EA
330
E4
100
AcDbEntity
  8
0
  6
Continuous
 62
     0
370
     0
100
AcDbMText
 10
0.0
 20
-5.5663982227
 30
0.0
 40
1.5
 41
0.0
 71
     1
 72
     1
  1
TOLERANCE:
  7
SLDTEXTSTYLE0
 73
     1
 44
1.0
  0
MTEXT
  5
EB
330
E4
100
AcDbEntity
  8
0
  6
Continuous
 62
     0
370
     0
100
AcDbMText
 10
1.6875
 20
-8.0663981668
 30
0.0
 40
1.5
 41
0.0
 71
     1
 72
     1
  1
LINEÁRNÍ:
  7
SLDTEXTSTYLE0
 73
     1
 44
1.0
  0
MTEXT
  5
EC
330
E4
100
AcDbEntity
  8
0
  6
Continuous
 62
     0
370
     0
100
AcDbMText
 10
1.6875
 20
-10.5663981109
 30
0.0
 40
1.5
 41
0.0
 71
     1
 72
     1
  1
ÚHLOVÁ:
  7
SLDTEXTSTYLE0
 73
     1
 44
1.0
  0
ENDBLK
  5
E6
330
E4
100
AcDbEntity
  8
0
100
AcDbBlockEnd
  0
BLOCK
  5
11C
330
11B
100
AcDbEntity
  8
0
100
AcDbBlockBegin
  2
_D
 70
     0
 10
0.0
 20
0.0
 30
0.0
  3
_D
  1

  0
SOLID
  5
11E
330
11B
100
AcDbEntity
  8
0
  6
Continuous
 62
     7
370
    18
100
AcDbTrace
 10
85.94
 20
216.06
 30
0.0
 11
89.242
 21
215.552
 31
0.0
 12
89.242
 22
216.568
 32
0.0
 13
89.242
 23
216.568
 33
0.0
  0
SOLID
  5
11F
330
11B
100
AcDbEntity
  8
0
  6
Continuous
 62
     7
370
    18
100
AcDbTrace
 10
150.94
 20
216.06
 30
0.0
 11
147.638
 21
216.568
 31
0.0
 12
147.638
 22
215.552
 32
0.0
 13
147.638
 23
215.552
 33
0.0
  0
LINE
  5
120
330
11B
100
AcDbEntity
  8
0
  6
Continuous
 62
     7
370
     0
100
AcDbLine
 10
85.94
 20
194.06
 30
0.0
 11
85.94
 21
217.06
 31
0.0
  0
LINE
  5
121
330
11B
100
AcDbEntity
  8
0
  6
Continuous
 62
     7
370
     0
100
AcDbLine
 10
150.94
 20
194.06
 30
0.0
 11
150.94
 21
217.06
 31
0.0
  0
LINE
  5
122
330
11B
100
AcDbEntity
  8
0
  6
Continuous
 62
     7
370
     0
100
AcDbLine
 10
85.94
 20
216.06
 30
0.0
 11
150.94
 21
216.06
 31
0.0
  0
MTEXT
  5
123
330
11B
100
AcDbEntity
  8
0
  6
Continuous
 62
     7
370
    18
100
AcDbMText
 10
115.8538888065
 20
220.5717369146
 30
0.0
 40
3.5
 41
0.0
 71
     1
 72
     1
  1
65
  7
SLDTEXTSTYLE0
 73
     1
 44
1.0
  0
ENDBLK
  5
11D
330
11B
100
AcDbEntity
  8
0
100
AcDbBlockEnd
  0
BLOCK
  5
126
330
125
100
AcDbEntity
  8
0
100
AcDbBlockBegin
  2
_D_1
 70
     0
 10
0.0
 20
0.0
 30
0.0
  3
_D_1
  1

  0
SOLID
  5
128
330
125
100
AcDbEntity
  8
0
  6
Continuous
 62
     7
370
    18
100
AcDbTrace
 10
93.44
 20
210.06
 30
0.0
 11
96.742
 21
209.552
 31
0.0
 12
96.742
 22
210.568
 32
0.0
 13
96.742
 23
210.568
 33
0.0
  0
SOLID
  5
129
330
125
100
AcDbEntity
  8
0
  6
Continuous
 62
     7
370
    18
100
AcDbTrace
 10
143.44
 20
210.06
 30
0.0
 11
140.138
 21
210.568
 31
0.0
 12
140.138
 22
209.552
 32
0.0
 13
140.138
 23
209.552
 33
0.0
  0
LINE
  5
12A
330
125
100
AcDbEntity
  8
0
  6
Continuous
 62
     7
370
     0
100
AcDbLine
 10
93.44
 20
194.06
 30
0.0
 11
93.44
 21
211.06
 31
0.0
  0
LINE
  5
12B
330
125
100
AcDbEntity
  8
0
  6
Continuous
 62
     7
370
     0
100
AcDbLine
 10
143.44
 20
194.06
 30
0.0
 11
143.44
 21
211.06
 31
0.0
  0
LINE
  5
12C
330
125
100
AcDbEntity
  8
0
  6
Continuous
 62
     7
370
     0
100
AcDbLine
 10
93.44
 20
210.06
 30
0.0
 11
143.44
 21
210.06
 31
0.0
  0
MTEXT
  5
12D
330
125
100
AcDbEntity
  8
0
  6
Continuous
 62
     7
370
    18
100
AcDbMText
 10
115.8538888065
 20
214.5717369146
 30
0.0
 40
3.5
 41
0.0
 71
     1
 72
     1
  1
50
  7
SLDTEXTSTYLE0
 73
     1
 44
1.0
  0
ENDBLK
  5
127
330
125
100
AcDbEntity
  8
0
100
AcDbBlockEnd
  0
BLOCK
  5
130
330
12F
100
AcDbEntity
  8
0
100
AcDbBlockBegin
  2
_D_2
 70
     0
 10
0.0
 20
0.0
 30
0.0
  3
_D_2
  1

  0
SOLID
  5
132
330
12F
100
AcDbEntity
  8
0
  6
Continuous
 62
     7
370
    18
100
AcDbTrace
 10
75.94
 20
156.56
 30
0.0
 11
76.448
 21
159.862
 31
0.0
 12
75.432
 22
159.862
 32
0.0
 13
75.432
 23
159.862
 33
0.0
  0
SOLID
  5
133
330
12F
100
AcDbEntity
  8
0
  6
Continuous
 62
     7
370
    18
100
AcDbTrace
 10
75.94
 20
186.56
 30
0.0
 11
75.432
 21
183.258
 31
0.0
 12
76.448
 22
183.258
 32
0.0
 13
76.448
 23
183.258
 33
0.0
  0
LINE
  5
134
330
12F
100
AcDbEntity
  8
0
  6
Continuous
 62
     7
370
     0
100
AcDbLine
 10
85.94
 20
156.56
 30
0.0
 11
74.94
 21
156.56
 31
0.0
  0
LINE
  5
135
330
12F
100
AcDbEntity
  8
0
  6
Continuous
 62
     7
370
     0
100
AcDbLine
 10
85.94
 20
186.56
 30
0.0
 11
74.94
 21
186.56
 31
0.0
  0
LINE
  5
136
330
12F
100
AcDbEntity
  8
0
  6
Continuous
 62
     7
370
     0
100
AcDbLine
 10
75.94
 20
156.56
 30
0.0
 11
75.94
 21
186.56
 31
0.0
  0
MTEXT
  5
137
330
12F
100
AcDbEntity
  8
0
  6
Continuous
 62
     7
370
    18
100
AcDbMText
 10
71.4282630854
 20
168.9738888065
 30
0.0
 40
3.5
 41
0.0
 71
     1
 72
     1
  1
30
  7
SLDTEXTSTYLE0
 11
6.123233995736766E-17
 21
1.0
 31
0.0
 73
     1
 44
1.0
  0
ENDBLK
  5
131
330
12F
100
AcDbEntity
  8
0
100
AcDbBlockEnd
  0
BLOCK
  5
13A
330
139
100
AcDbEntity
  8
0
100
AcDbBlockBegin
  2
_D_3
 70
     0
 10
0.0
 20
0.0
 30
0.0
  3
_D_3
  1

  0
SOLID
  5
13C
330
139
100
AcDbEntity
  8
0
  6
Continuous
 62
     7
370
    18
100
AcDbTrace
 10
69.94
 20
194.06
 30
0.0
 11
69.432
 21
190.758
 31
0.0
 12
70.448
 22
190.758
 32
0.0
 13
70.448
 23
190.758
 33
0.0
  0
SOLID
  5
13D
330
139
100
AcDbEntity
  8
0
  6
Continuous
 62
     7
370
    18
100
AcDbTrace
 10
69.94
 20
149.06
 30
0.0
 11
70.448
 21
152.362
 31
0.0
 12
69.432
 22
152.362
 32
0.0
 13
69.432
 23
152.362
 33
0.0
  0
LINE
  5
13E
330
139
100
AcDbEntity
  8
0
  6
Continuous
 62
     7
370
     0
100
AcDbLine
 10
85.94
 20
194.06
 30
0.0
 11
68.94
 21
194.06
 31
0.0
  0
LINE
  5
13F
330
139
100
AcDbEntity
  8
0
  6
Continuous
 62
     7
370
     0
100
AcDbLine
 10
85.94
 20
149.06
 30
0.0
 11
68.94
 21
149.06
 31
0.0
  0
LINE
  5
140
330
139
100
AcDbEntity
  8
0
  6
Continuous
 62
     7
370
     0
100
AcDbLine
 10
69.94
 20
194.06
 30
0.0
 11
69.94
 21
149.06
 31
0.0
  0
MTEXT
  5
141
330
139
100
AcDbEntity
  8
0
  6
Continuous
 62
     7
370
    18
100
AcDbMText
 10
65.4282630854
 20
168.9738888065
 30
0.0
 40
3.5
 41
0.0
 71
     1
 72
     1
  1
45
  7
SLDTEXTSTYLE0
 11
-7.044195017643634E-15
 21
1.0
 31
0.0
 73
     1
 44
1.0
  0
ENDBLK
  5
13B
330
139
100
AcDbEntity
  8
0
100
AcDbBlockEnd
  0
BLOCK
  5
145
330
144
100
AcDbEntity
  8
0
100
AcDbBlockBegin
  2
_None
 70
     0
 10
0.0
 20
0.0
 30
0.0
  3
_None
  1

  0
ENDBLK
  5
146
330
144
100
AcDbEntity
  8
0
100
AcDbBlockEnd
  0
BLOCK
  5
148
330
147
100
AcDbEntity
  8
0
100
AcDbBlockBegin
  2
_D_4
 70
     0
 10
0.0
 20
0.0
 30
0.0
  3
_D_4
  1

  0
SOLID
  5
14A
330
147
100
AcDbEntity
  8
0
  6
Continuous
 62
     7
370
    18
100
AcDbTrace
 10
146.2684271248
 20
189.3884271247
 30
0.0
 11
148.9625039611
 21
191.3640834714
 31
0.0
 12
148.2440834714
 22
192.0825039611
 32
0.0
 13
148.2440834714
 23
192.0825039611
 33
0.0
  0
LINE
  5
14B
330
147
100
AcDbEntity
  8
0
  6
Continuous
 62
     7
370
     0
100
AcDbLine
 10
146.2684271248
 20
189.3884271247
 30
0.0
 11
165.8950410555
 21
209.0150410555
 31
0.0
  0
LINE
  5
14C
330
147
100
AcDbEntity
  8
0
  6
Continuous
 62
     7
370
     0
100
AcDbLine
 10
146.2684271248
 20
189.3884271247
 30
0.0
 11
140.6115728753
 21
183.7315728752
 31
0.0
  0
MTEXT
  5
14D
330
147
100
AcDbEntity
  8
0
  6
Continuous
 62
     7
370
    18
100
AcDbMText
 10
152.5846591035
 20
202.0599867653
 30
0.0
 40
3.5
 41
0.0
 71
     1
 72
     1
  1
%%c
  7
SLDTEXTSTYLE0
 11
0.7071067811865477
 21
0.7071067811865474
 31
0.0
 73
     1
 44
1.0
  0
MTEXT
  5
14E
330
147
100
AcDbEntity
  8
0
  6
Continuous
 62
     7
370
    18
100
AcDbMText
 10
156.2792674432
 20
205.8302161824
 30
0.0
 40
3.5
 41
0.0
 71
     1
 72
     1
  1
8,00
  7
SLDTEXTSTYLE0
 11
0.7071067811865477
 21
0.7071067811865474
 31
0.0
 73
     1
 44
1.0
  0
ENDBLK
  5
149
330
147
100
AcDbEntity
  8
0
100
AcDbBlockEnd
  0
BLOCK
  5
152
330
151
100
AcDbEntity
  8
0
100
AcDbBlockBegin
  2
_D_5
 70
     0
 10
0.0
 20
0.0
 30
0.0
  3
_D_5
  1

  0
SOLID
  5
154
330
151
100
AcDbEntity
  8
0
  6
Continuous
 62
     7
370
    18
100
AcDbTrace
 10
110.94
 20
204.06
 30
0.0
 11
107.638
 21
204.568
 31
0.0
 12
107.638
 22
203.552
 32
0.0
 13
107.638
 23
203.552
 33
0.0
  0
SOLID
  5
155
330
151
100
AcDbEntity
  8
0
  6
Continuous
 62
     7
370
    18
100
AcDbTrace
 10
125.94
 20
204.06
 30
0.0
 11
129.242
 21
203.552
 31
0.0
 12
129.242
 22
204.568
 32
0.0
 13
129.242
 23
204.568
 33
0.0
  0
LINE
  5
156
330
151
100
AcDbEntity
  8
0
  6
Continuous
 62
     7
370
     0
100
AcDbLine
 10
110.94
 20
176.56
 30
0.0
 11
110.94
 21
205.06
 31
0.0
  0
LINE
  5
157
330
151
100
AcDbEntity
  8
0
  6
Continuous
 62
     7
370
     0
100
AcDbLine
 10
125.94
 20
176.56
 30
0.0
 11
125.94
 21
205.06
 31
0.0
  0
LINE
  5
158
330
151
100
AcDbEntity
  8
0
  6
Continuous
 62
     7
370
     0
100
AcDbLine
 10
110.94
 20
204.06
 30
0.0
 11
104.59
 21
204.06
 31
0.0
  0
LINE
  5
159
330
151
100
AcDbEntity
  8
0
  6
Continuous
 62
     7
370
     0
100
AcDbLine
 10
110.94
 20
204.06
 30
0.0
 11
125.94
 21
204.06
 31
0.0
  0
LINE
  5
15A
330
151
100
AcDbEntity
  8
0
  6
Continuous
 62
     7
370
     0
100
AcDbLine
 10
125.94
 20
204.06
 30
0.0
 11
132.29
 21
204.06
 31
0.0
  0
MTEXT
  5
15B
330
151
100
AcDbEntity
  8
0
  6
Continuous
 62
     7
370
    18
100
AcDbMText
 10
115.8538888065
 20
208.5717369146
 30
0.0
 40
3.5
 41
0.0
 71
     1
 72
     1
  1
15
  7
SLDTEXTSTYLE0
 73
     1
 44
1.0
  0
ENDBLK
  5
153
330
151
100
AcDbEntity
  8
0
100
AcDbBlockEnd
  0
BLOCK
  5
15F
330
15E
100
AcDbEntity
  8
0
100
AcDbBlockBegin
  2
_D_6
 70
     0
 10
0.0
 20
0.0
 30
0.0
  3
_D_6
  1

  0
SOLID
  5
161
330
15E
100
AcDbEntity
  8
0
  6
Continuous
 62
     7
370
    18
100
AcDbTrace
 10
121.6573358544
 20
168.3426641456
 30
0.0
 11
123.632992201
 21
165.6485873093
 31
0.0
 12
124.3514126907
 22
166.367007799
 32
0.0
 13
124.3514126907
 23
166.367007799
 33
0.0
  0
LINE
  5
162
330
15E
100
AcDbEntity
  8
0
  6
Continuous
 62
     7
370
     0
100
AcDbLine
 10
121.6573358544
 20
168.3426641456
 30
0.0
 11
154.2253101843
 21
135.7746898157
 31
0.0
  0
LINE
  5
163
330
15E
100
AcDbEntity
  8
0
  6
Continuous
 62
     7
370
     0
100
AcDbLine
 10
121.6573358544
 20
168.3426641456
 30
0.0
 11
115.2226641456
 21
174.7773358544
 31
0.0
  0
MTEXT
  5
164
330
15E
100
AcDbEntity
  8
0
  6
Continuous
 62
     7
370
    18
100
AcDbMText
 10
150.722977118
 20
145.6504250113
 30
0.0
 40
3.5
 41
0.0
 71
     1
 72
     1
  1
M10
  7
SLDTEXTSTYLE0
 11
0.7071067811865587
 21
-0.7071067811865364
 31
0.0
 73
     1
 44
1.0
  0
ENDBLK
  5
160
330
15E
100
AcDbEntity
  8
0
100
AcDbBlockEnd
  0
BLOCK
  5
166
330
165
100
AcDbEntity
  8
0
100
AcDbBlockBegin
  2
SW_CENTERMARKSYMBOL_0
 70
     0
 10
0.0
 20
0.0
 30
0.0
  3
SW_CENTERMARKSYMBOL_0
  1

  0
LINE
  5
168
330
165
100
AcDbEntity
  8
0
  6
Continuous
 62
     0
370
    18
100
AcDbLine
 10
0.0
 20
0.0
 30
0.0
 11
0.0
 21
2.5
 31
0.0
  0
LINE
  5
169
330
165
100
AcDbEntity
  8
0
  6
Continuous
 62
     0
370
    18
100
AcDbLine
 10
0.0
 20
0.0
 30
0.0
 11
-2.5
 21
0.0
 31
0.0
  0
LINE
  5
16A
330
165
100
AcDbEntity
  8
0
  6
Continuous
 62
     0
370
    18
100
AcDbLine
 10
0.0
 20
0.0
 30
0.0
 11
0.0
 21
-2.5
 31
0.0
  0
LINE
  5
16B
330
165
100
AcDbEntity
  8
0
  6
Continuous
 62
     0
370
    18
100
AcDbLine
 10
0.0
 20
0.0
 30
0.0
 11
2.5
 21
0.0
 31
0.0
  0
LINE
  5
16C
330
165
100
AcDbEntity
  8
0
  6
Continuous
 62
     0
370
    18
100
AcDbLine
 10
0.0
 20
5.0
 30
0.0
 11
0.0
 21
6.5
 31
0.0
  0
LINE
  5
16D
330
165
100
AcDbEntity
  8
0
  6
Continuous
 62
     0
370
    18
100
AcDbLine
 10
-5.0
 20
0.0
 30
0.0
 11
-6.5
 21
0.0
 31
0.0
  0
LINE
  5
16E
330
165
100
AcDbEntity
  8
0
  6
Continuous
 62
     0
370
    18
100
AcDbLine
 10
0.0
 20
-5.0
 30
0.0
 11
0.0
 21
-6.5
 31
0.0
  0
LINE
  5
16F
330
165
100
AcDbEntity
  8
0
  6
Continuous
 62
     0
370
    18
100
AcDbLine
 10
5.0
 20
0.0
 30
0.0
 11
6.5
 21
0.0
 31
0.0
  0
ENDBLK
  5
167
330
165
100
AcDbEntity
  8
0
100
AcDbBlockEnd
  0
BLOCK
  5
172
330
171
100
AcDbEntity
  8
0
100
AcDbBlockBegin
  2
SW_CENTERMARKSYMBOL_1
 70
     0
 10
0.0
 20
0.0
 30
0.0
  3
SW_CENTERMARKSYMBOL_1
  1

  0
LINE
  5
174
330
171
100
AcDbEntity
  8
0
  6
Continuous
 62
     0
370
    18
100
AcDbLine
 10
0.0
 20
0.0
 30
0.0
 11
0.0
 21
2.5
 31
0.0
  0
LINE
  5
175
330
171
100
AcDbEntity
  8
0
  6
Continuous
 62
     0
370
    18
100
AcDbLine
 10
0.0
 20
0.0
 30
0.0
 11
-2.5
 21
0.0
 31
0.0
  0
LINE
  5
176
330
171
100
AcDbEntity
  8
0
  6
Continuous
 62
     0
370
    18
100
AcDbLine
 10
0.0
 20
0.0
 30
0.0
 11
0.0
 21
-2.5
 31
0.0
  0
LINE
  5
177
330
171
100
AcDbEntity
  8
0
  6
Continuous
 62
     0
370
    18
100
AcDbLine
 10
0.0
 20
0.0
 30
0.0
 11
2.5
 21
0.0
 31
0.0
  0
LINE
  5
178
330
171
100
AcDbEntity
  8
0
  6
Continuous
 62
     0
370
    18
100
AcDbLine
 10
0.0
 20
5.0
 30
0.0
 11
0.0
 21
21.2
 31
0.0
  0
LINE
  5
179
330
171
100
AcDbEntity
  8
0
  6
Continuous
 62
     0
370
    18
100
AcDbLine
 10
-5.0
 20
0.0
 30
0.0
 11
-21.2
 21
0.0
 31
0.0
  0
LINE
  5
17A
330
171
100
AcDbEntity
  8
0
  6
Continuous
 62
     0
370
    18
100
AcDbLine
 10
0.0
 20
-5.0
 30
0.0
 11
0.0
 21
-21.2
 31
0.0
  0
LINE
  5
17B
330
171
100
AcDbEntity
  8
0
  6
Continuous
 62
     0
370
    18
100
AcDbLine
 10
5.0
 20
0.0
 30
0.0
 11
21.2
 21
0.0
 31
0.0
  0
ENDBLK
  5
173
330
171
100
AcDbEntity
  8
0
100
AcDbBlockEnd
  0
BLOCK
  5
17E
330
17D
100
AcDbEntity
  8
0
100
AcDbBlockBegin
  2
SW_CENTERMARKSYMBOL_2
 70
     0
 10
0.0
 20
0.0
 30
0.0
  3
SW_CENTERMARKSYMBOL_2
  1

  0
LINE
  5
180
330
17D
100
AcDbEntity
  8
0
  6
Continuous
 62
     0
370
    18
100
AcDbLine
 10
0.0
 20
0.0
 30
0.0
 11
0.0
 21
2.5
 31
0.0
  0
LINE
  5
181
330
17D
100
AcDbEntity
  8
0
  6
Continuous
 62
     0
370
    18
100
AcDbLine
 10
0.0
 20
0.0
 30
0.0
 11
-2.5
 21
0.0
 31
0.0
  0
LINE
  5
182
330
17D
100
AcDbEntity
  8
0
  6
Continuous
 62
     0
370
    18
100
AcDbLine
 10
0.0
 20
0.0
 30
0.0
 11
0.0
 21
-2.5
 31
0.0
  0
LINE
  5
183
330
17D
100
AcDbEntity
  8
0
  6
Continuous
 62
     0
370
    18
100
AcDbLine
 10
0.0
 20
0.0
 30
0.0
 11
2.5
 21
0.0
 31
0.0
  0
LINE
  5
184
330
17D
100
AcDbEntity
  8
0
  6
Continuous
 62
     0
370
    18
100
AcDbLine
 10
0.0
 20
5.0
 30
0.0
 11
0.0
 21
6.5
 31
0.0
  0
LINE
  5
185
330
17D
100
AcDbEntity
  8
0
  6
Continuous
 62
     0
370
    18
100
AcDbLine
 10
-5.0
 20
0.0
 30
0.0
 11
-6.5
 21
0.0
 31
0.0
  0
LINE
  5
186
330
17D
100
AcDbEntity
  8
0
  6
Continuous
 62
     0
370
    18
100
AcDbLine
 10
0.0
 20
-5.0
 30
0.0
 11
0.0
 21
-6.5
 31
0.0
  0
LINE
  5
187
330
17D
100
AcDbEntity
  8
0
  6
Continuous
 62
     0
370
    18
100
AcDbLine
 10
5.0
 20
0.0
 30
0.0
 11
6.5
 21
0.0
 31
0.0
  0
ENDBLK
  5
17F
330
17D
100
AcDbEntity
  8
0
100
AcDbBlockEnd
  0
BLOCK
  5
18A
330
189
100
AcDbEntity
  8
0
100
AcDbBlockBegin
  2
SW_CENTERMARKSYMBOL_3
 70
     0
 10
0.0
 20
0.0
 30
0.0
  3
SW_CENTERMARKSYMBOL_3
  1

  0
LINE
  5
18C
330
189
100
AcDbEntity
  8
0
  6
Continuous
 62
     0
370
    18
100
AcDbLine
 10
0.0
 20
0.0
 30
0.0
 11
0.0
 21
2.5
 31
0.0
  0
LINE
  5
18D
330
189
100
AcDbEntity
  8
0
  6
Continuous
 62
     0
370
    18
100
AcDbLine
 10
0.0
 20
0.0
 30
0.0
 11
-2.5
 21
0.0
 31
0.0
  0
LINE
  5
18E
330
189
100
AcDbEntity
  8
0
  6
Continuous
 62
     0
370
    18
100
AcDbLine
 10
0.0
 20
0.0
 30
0.0
 11
0.0
 21
-2.5
 31
0.0
  0
LINE
  5
18F
330
189
100
AcDbEntity
  8
0
  6
Continuous
 62
     0
370
    18
100
AcDbLine
 10
0.0
 20
0.0
 30
0.0
 11
2.5
 21
0.0
 31
0.0
  0
LINE
  5
190
330
189
100
AcDbEntity
  8
0
  6
Continuous
 62
     0
370
    18
100
AcDbLine
 10
0.0
 20
5.0
 30
0.0
 11
0.0
 21
6.5
 31
0.0
  0
LINE
  5
191
330
189
100
AcDbEntity
  8
0
  6
Continuous
 62
     0
370
    18
100
AcDbLine
 10
-5.0
 20
0.0
 30
0.0
 11
-6.5
 21
0.0
 31
0.0
  0
LINE
  5
192
330
189
100
AcDbEntity
  8
0
  6
Continuous
 62
     0
370
    18
100
AcDbLine
 10
0.0
 20
-5.0
 30
0.0
 11
0.0
 21
-6.5
 31
0.0
  0
LINE
  5
193
330
189
100
AcDbEntity
  8
0
  6
Continuous
 62
     0
370
    18
100
AcDbLine
 10
5.0
 20
0.0
 30
0.0
 11
6.5
 21
0.0
 31
0.0
  0
ENDBLK
  5
18B
330
189
100
AcDbEntity
  8
0
100
AcDbBlockEnd
  0
BLOCK
  5
196
330
195
100
AcDbEntity
  8
0
100
AcDbBlockBegin
  2
SW_CENTERMARKSYMBOL_4
 70
     0
 10
0.0
 20
0.0
 30
0.0
  3
SW_CENTERMARKSYMBOL_4
  1

  0
LINE
  5
198
330
195
100
AcDbEntity
  8
0
  6
Continuous
 62
     0
370
    18
100
AcDbLine
 10
0.0
 20
0.0
 30
0.0
 11
0.0
 21
2.5
 31
0.0
  0
LINE
  5
199
330
195
100
AcDbEntity
  8
0
  6
Continuous
 62
     0
370
    18
100
AcDbLine
 10
0.0
 20
0.0
 30
0.0
 11
-2.5
 21
0.0
 31
0.0
  0
LINE
  5
19A
330
195
100
AcDbEntity
  8
0
  6
Continuous
 62
     0
370
    18
100
AcDbLine
 10
0.0
 20
0.0
 30
0.0
 11
0.0
 21
-2.5
 31
0.0
  0
LINE
  5
19B
330
195
100
AcDbEntity
  8
0
  6
Continuous
 62
     0
370
    18
100
AcDbLine
 10
0.0
 20
0.0
 30
0.0
 11
2.5
 21
0.0
 31
0.0
  0
LINE
  5
19C
330
195
100
AcDbEntity
  8
0
  6
Continuous
 62
     0
370
    18
100
AcDbLine
 10
0.0
 20
5.0
 30
0.0
 11
0.0
 21
6.5
 31
0.0
  0
LINE
  5
19D
330
195
100
AcDbEntity
  8
0
  6
Continuous
 62
     0
370
    18
100
AcDbLine
 10
-5.0
 20
0.0
 30
0.0
 11
-6.5
 21
0.0
 31
0.0
  0
LINE
  5
19E
330
195
100
AcDbEntity
  8
0
  6
Continuous
 62
     0
370
    18
100
AcDbLine
 10
0.0
 20
-5.0
 30
0.0
 11
0.0
 21
-6.5
 31
0.0
  0
LINE
  5
19F
330
195
100
AcDbEntity
  8
0
  6
Continuous
 62
     0
370
    18
100
AcDbLine
 10
5.0
 20
0.0
 30
0.0
 11
6.5
 21
0.0
 31
0.0
  0
ENDBLK
  5
197
330
195
100
AcDbEntity
  8
0
100
AcDbBlockEnd
  0
BLOCK
  5
1A2
330
1A1
100
AcDbEntity
  8
0
100
AcDbBlockBegin
  2
SW_CENTERMARKSYMBOL_5
 70
     0
 10
0.0
 20
0.0
 30
0.0
  3
SW_CENTERMARKSYMBOL_5
  1

  0
LINE
  5
1A4
330
1A1
100
AcDbEntity
  8
0
  6
Continuous
 62
     0
370
    18
100
AcDbLine
 10
0.0
 20
0.0
 30
0.0
 11
0.0
 21
2.5
 31
0.0
  0
LINE
  5
1A5
330
1A1
100
AcDbEntity
  8
0
  6
Continuous
 62
     0
370
    18
100
AcDbLine
 10
0.0
 20
0.0
 30
0.0
 11
-2.5
 21
0.0
 31
0.0
  0
LINE
  5
1A6
330
1A1
100
AcDbEntity
  8
0
  6
Continuous
 62
     0
370
    18
100
AcDbLine
 10
0.0
 20
0.0
 30
0.0
 11
0.0
 21
-2.5
 31
0.0
  0
LINE
  5
1A7
330
1A1
100
AcDbEntity
  8
0
  6
Continuous
 62
     0
370
    18
100
AcDbLine
 10
0.0
 20
0.0
 30
0.0
 11
2.5
 21
0.0
 31
0.0
  0
LINE
  5
1A8
330
1A1
100
AcDbEntity
  8
0
  6
Continuous
 62
     0
370
    18
100
AcDbLine
 10
0.0
 20
2.5
 30
0.0
 11
0.0
 21
4.0
 31
0.0
  0
LINE
  5
1A9
330
1A1
100
AcDbEntity
  8
0
  6
Continuous
 62
     0
370
    18
100
AcDbLine
 10
-2.5
 20
0.0
 30
0.0
 11
-4.0
 21
0.0
 31
0.0
  0
LINE
  5
1AA
330
1A1
100
AcDbEntity
  8
0
  6
Continuous
 62
     0
370
    18
100
AcDbLine
 10
0.0
 20
-2.5
 30
0.0
 11
0.0
 21
-4.0
 31
0.0
  0
LINE
  5
1AB
330
1A1
100
AcDbEntity
  8
0
  6
Continuous
 62
     0
370
    18
100
AcDbLine
 10
2.5
 20
0.0
 30
0.0
 11
4.0
 21
0.0
 31
0.0
  0
ENDBLK
  5
1A3
330
1A1
100
AcDbEntity
  8
0
100
AcDbBlockEnd
  0
BLOCK
  5
1AE
330
1AD
100
AcDbEntity
  8
0
100
AcDbBlockBegin
  2
SW_CENTERMARKSYMBOL_6
 70
     0
 10
0.0
 20
0.0
 30
0.0
  3
SW_CENTERMARKSYMBOL_6
  1

  0
LINE
  5
1B0
330
1AD
100
AcDbEntity
  8
0
  6
Continuous
 62
     0
370
    18
100
AcDbLine
 10
0.0
 20
0.0
 30
0.0
 11
0.0
 21
2.5
 31
0.0
  0
LINE
  5
1B1
330
1AD
100
AcDbEntity
  8
0
  6
Continuous
 62
     0
370
    18
100
AcDbLine
 10
0.0
 20
0.0
 30
0.0
 11
-2.5
 21
0.0
 31
0.0
  0
LINE
  5
1B2
330
1AD
100
AcDbEntity
  8
0
  6
Continuous
 62
     0
370
    18
100
AcDbLine
 10
0.0
 20
0.0
 30
0.0
 11
0.0
 21
-2.5
 31
0.0
  0
LINE
  5
1B3
330
1AD
100
AcDbEntity
  8
0
  6
Continuous
 62
     0
370
    18
100
AcDbLine
 10
0.0
 20
0.0
 30
0.0
 11
2.5
 21
0.0
 31
0.0
  0
LINE
  5
1B4
330
1AD
100
AcDbEntity
  8
0
  6
Continuous
 62
     0
370
    18
100
AcDbLine
 10
0.0
 20
2.5
 30
0.0
 11
0.0
 21
4.0
 31
0.0
  0
LINE
  5
1B5
330
1AD
100
AcDbEntity
  8
0
  6
Continuous
 62
     0
370
    18
100
AcDbLine
 10
-2.5
 20
0.0
 30
0.0
 11
-4.0
 21
0.0
 31
0.0
  0
LINE
  5
1B6
330
1AD
100
AcDbEntity
  8
0
  6
Continuous
 62
     0
370
    18
100
AcDbLine
 10
0.0
 20
-2.5
 30
0.0
 11
0.0
 21
-4.0
 31
0.0
  0
LINE
  5
1B7
330
1AD
100
AcDbEntity
  8
0
  6
Continuous
 62
     0
370
    18
100
AcDbLine
 10
2.5
 20
0.0
 30
0.0
 11
4.0
 21
0.0
 31
0.0
  0
ENDBLK
  5
1AF
330
1AD
100
AcDbEntity
  8
0
100
AcDbBlockEnd
  0
BLOCK
  5
1BA
330
1B9
100
AcDbEntity
  8
0
100
AcDbBlockBegin
  2
SW_CENTERMARKSYMBOL_7
 70
     0
 10
0.0
 20
0.0
 30
0.0
  3
SW_CENTERMARKSYMBOL_7
  1

  0
LINE
  5
1BC
330
1B9
100
AcDbEntity
  8
0
  6
Continuous
 62
     0
370
    18
100
AcDbLine
 10
0.0
 20
0.0
 30
0.0
 11
0.0
 21
2.5
 31
0.0
  0
LINE
  5
1BD
330
1B9
100
AcDbEntity
  8
0
  6
Continuous
 62
     0
370
    18
100
AcDbLine
 10
0.0
 20
0.0
 30
0.0
 11
-2.5
 21
0.0
 31
0.0
  0
LINE
  5
1BE
330
1B9
100
AcDbEntity
  8
0
  6
Continuous
 62
     0
370
    18
100
AcDbLine
 10
0.0
 20
0.0
 30
0.0
 11
0.0
 21
-2.5
 31
0.0
  0
LINE
  5
1BF
330
1B9
100
AcDbEntity
  8
0
  6
Continuous
 62
     0
370
    18
100
AcDbLine
 10
0.0
 20
0.0
 30
0.0
 11
2.5
 21
0.0
 31
0.0
  0
LINE
  5
1C0
330
1B9
100
AcDbEntity
  8
0
  6
Continuous
 62
     0
370
    18
100
AcDbLine
 10
0.0
 20
2.5
 30
0.0
 11
0.0
 21
4.0
 31
0.0
  0
LINE
  5
1C1
330
1B9
100
AcDbEntity
  8
0
  6
Continuous
 62
     0
370
    18
100
AcDbLine
 10
-2.5
 20
0.0
 30
0.0
 11
-4.0
 21
0.0
 31
0.0
  0
LINE
  5
1C2
330
1B9
100
AcDbEntity
  8
0
  6
Continuous
 62
     0
370
    18
100
AcDbLine
 10
0.0
 20
-2.5
 30
0.0
 11
0.0
 21
-4.0
 31
0.0
  0
LINE
  5
1C3
330
1B9
100
AcDbEntity
  8
0
  6
Continuous
 62
     0
370
    18
100
AcDbLine
 10
2.5
 20
0.0
 30
0.0
 11
4.0
 21
0.0
 31
0.0
  0
ENDBLK
  5
1BB
330
1B9
100
AcDbEntity
  8
0
100
AcDbBlockEnd
  0
BLOCK
  5
1C6
330
1C5
100
AcDbEntity
  8
0
100
AcDbBlockBegin
  2
SW_CENTERMARKSYMBOL_8
 70
     0
 10
0.0
 20
0.0
 30
0.0
  3
SW_CENTERMARKSYMBOL_8
  1

  0
LINE
  5
1C8
330
1C5
100
AcDbEntity
  8
0
  6
Continuous
 62
     0
370
    18
100
AcDbLine
 10
0.0
 20
0.0
 30
0.0
 11
0.0
 21
2.5
 31
0.0
  0
LINE
  5
1C9
330
1C5
100
AcDbEntity
  8
0
  6
Continuous
 62
     0
370
    18
100
AcDbLine
 10
0.0
 20
0.0
 30
0.0
 11
-2.5
 21
0.0
 31
0.0
  0
LINE
  5
1CA
330
1C5
100
AcDbEntity
  8
0
  6
Continuous
 62
     0
370
    18
100
AcDbLine
 10
0.0
 20
0.0
 30
0.0
 11
0.0
 21
-2.5
 31
0.0
  0
LINE
  5
1CB
330
1C5
100
AcDbEntity
  8
0
  6
Continuous
 62
     0
370
    18
100
AcDbLine
 10
0.0
 20
0.0
 30
0.0
 11
2.5
 21
0.0
 31
0.0
  0
LINE
  5
1CC
330
1C5
100
AcDbEntity
  8
0
  6
Continuous
 62
     0
370
    18
100
AcDbLine
 10
0.0
 20
2.5
 30
0.0
 11
0.0
 21
4.0
 31
0.0
  0
LINE
  5
1CD
330
1C5
100
AcDbEntity
  8
0
  6
Continuous
 62
     0
370
    18
100
AcDbLine
 10
-2.5
 20
0.0
 30
0.0
 11
-4.0
 21
0.0
 31
0.0
  0
LINE
  5
1CE
330
1C5
100
AcDbEntity
  8
0
  6
Continuous
 62
     0
370
    18
100
AcDbLine
 10
0.0
 20
-2.5
 30
0.0
 11
0.0
 21
-4.0
 31
0.0
  0
LINE
  5
1CF
330
1C5
100
AcDbEntity
  8
0
  6
Continuous
 62
     0
370
    18
100
AcDbLine
 10
2.5
 20
0.0
 30
0.0
 11
4.0
 21
0.0
 31
0.0
  0
ENDBLK
  5
1C7
330
1C5
100
AcDbEntity
  8
0
100
AcDbBlockEnd
  0
BLOCK
  5
2A0
330
29F
100
AcDbEntity
  8
0
100
AcDbBlockBegin
  2
_D_7
 70
     0
 10
0.0
 20
0.0
 30
0.0
  3
_D_7
  1

  0
SOLID
  5
2A2
330
29F
100
AcDbEntity
  8
0
  6
Continuous
 62
     7
370
    18
100
AcDbTrace
 10
370.94
 20
139.06
 30
0.0
 11
374.242
 21
138.552
 31
0.0
 12
374.242
 22
139.568
 32
0.0
 13
374.242
 23
139.568
 33
0.0
  0
SOLID
  5
2A3
330
29F
100
AcDbEntity
  8
0
  6
Continuous
 62
     7
370
    18
100
AcDbTrace
 10
363.94
 20
139.06
 30
0.0
 11
360.638
 21
139.568
 31
0.0
 12
360.638
 22
138.552
 32
0.0
 13
360.638
 23
138.552
 33
0.0
  0
LINE
  5
2A4
330
29F
100
AcDbEntity
  8
0
  6
Continuous
 62
     7
370
     0
100
AcDbLine
 10
370.94
 20
162.56
 30
0.0
 11
370.94
 21
138.06
 31
0.0
  0
LINE
  5
2A5
330
29F
100
AcDbEntity
  8
0
  6
Continuous
 62
     7
370
     0
100
AcDbLine
 10
363.94
 20
148.06
 30
0.0
 11
363.94
 21
138.06
 31
0.0
  0
LINE
  5
2A6
330
29F
100
AcDbEntity
  8
0
  6
Continuous
 62
     7
370
     0
100
AcDbLine
 10
370.94
 20
139.06
 30
0.0
 11
384.4018058404
 21
139.06
 31
0.0
  0
LINE
  5
2A7
330
29F
100
AcDbEntity
  8
0
  6
Continuous
 62
     7
370
     0
100
AcDbLine
 10
370.94
 20
139.06
 30
0.0
 11
363.94
 21
139.06
 31
0.0
  0
LINE
  5
2A8
330
29F
100
AcDbEntity
  8
0
  6
Continuous
 62
     7
370
     0
100
AcDbLine
 10
363.94
 20
139.06
 30
0.0
 11
357.59
 21
139.06
 31
0.0
  0
MTEXT
  5
2A9
330
29F
100
AcDbEntity
  8
0
  6
Continuous
 62
     7
370
    18
100
AcDbMText
 10
381.8156946469
 20
143.5717369146
 30
0.0
 40
3.5
 41
0.0
 71
     1
 72
     1
  1
7
  7
SLDTEXTSTYLE0
 73
     1
 44
1.0
  0
ENDBLK
  5
2A1
330
29F
100
AcDbEntity
  8
0
100
AcDbBlockEnd
  0
BLOCK
  5
2AC
330
2AB
100
AcDbEntity
  8
0
100
AcDbBlockBegin
  2
_D_8
 70
     0
 10
0.0
 20
0.0
 30
0.0
  3
_D_8
  1

  0
SOLID
  5
2AE
330
2AB
100
AcDbEntity
  8
0
  6
Continuous
 62
     7
370
    18
100
AcDbTrace
 10
255.94
 20
139.06
 30
0.0
 11
259.242
 21
138.552
 31
0.0
 12
259.242
 22
139.568
 32
0.0
 13
259.242
 23
139.568
 33
0.0
  0
SOLID
  5
2AF
330
2AB
100
AcDbEntity
  8
0
  6
Continuous
 62
     7
370
    18
100
AcDbTrace
 10
363.94
 20
139.06
 30
0.0
 11
360.638
 21
139.568
 31
0.0
 12
360.638
 22
138.552
 32
0.0
 13
360.638
 23
138.552
 33
0.0
  0
LINE
  5
2B0
330
2AB
100
AcDbEntity
  8
0
  6
Continuous
 62
     7
370
     0
100
AcDbLine
 10
255.94
 20
148.06
 30
0.0
 11
255.94
 21
138.06
 31
0.0
  0
LINE
  5
2B1
330
2AB
100
AcDbEntity
  8
0
  6
Continuous
 62
     7
370
     0
100
AcDbLine
 10
363.94
 20
148.06
 30
0.0
 11
363.94
 21
138.06
 31
0.0
  0
LINE
  5
2B2
330
2AB
100
AcDbEntity
  8
0
  6
Continuous
 62
     7
370
     0
100
AcDbLine
 10
255.94
 20
139.06
 30
0.0
 11
363.94
 21
139.06
 31
0.0
  0
MTEXT
  5
2B3
330
2AB
100
AcDbEntity
  8
0
  6
Continuous
 62
     7
370
    18
100
AcDbMText
 10
306.0608333261
 20
143.5717369146
 30
0.0
 40
3.5
 41
0.0
 71
     1
 72
     1
  1
108
  7
SLDTEXTSTYLE0
 73
     1
 44
1.0
  0
ENDBLK
  5
2AD
330
2AB
100
AcDbEntity
  8
0
100
AcDbBlockEnd
  0
BLOCK
  5
2B7
330
2B6
100
AcDbEntity
  8
0
100
AcDbBlockBegin
  2
_D_9
 70
     0
 10
0.0
 20
0.0
 30
0.0
  3
_D_9
  1

  0
SOLID
  5
2B9
330
2B6
100
AcDbEntity
  8
0
  6
Continuous
 62
     7
370
    18
100
AcDbTrace
 10
343.94
 20
204.06
 30
0.0
 11
347.242
 21
203.552
 31
0.0
 12
347.242
 22
204.568
 32
0.0
 13
347.242
 23
204.568
 33
0.0
  0
SOLID
  5
2BA
330
2B6
100
AcDbEntity
  8
0
  6
Continuous
 62
     7
370
    18
100
AcDbTrace
 10
363.94
 20
204.06
 30
0.0
 11
360.638
 21
204.568
 31
0.0
 12
360.638
 22
203.552
 32
0.0
 13
360.638
 23
203.552
 33
0.0
  0
LINE
  5
2BB
330
2B6
100
AcDbEntity
  8
0
  6
Continuous
 62
     7
370
     0
100
AcDbLine
 10
343.94
 20
185.06
 30
0.0
 11
343.94
 21
205.06
 31
0.0
  0
LINE
  5
2BC
330
2B6
100
AcDbEntity
  8
0
  6
Continuous
 62
     7
370
     0
100
AcDbLine
 10
363.94
 20
190.56
 30
0.0
 11
363.94
 21
205.06
 31
0.0
  0
LINE
  5
2BD
330
2B6
100
AcDbEntity
  8
0
  6
Continuous
 62
     7
370
     0
100
AcDbLine
 10
343.94
 20
204.06
 30
0.0
 11
363.94
 21
204.06
 31
0.0
  0
MTEXT
  5
2BE
330
2B6
100
AcDbEntity
  8
0
  6
Continuous
 62
     7
370
    18
100
AcDbMText
 10
351.3538888065
 20
208.5717369146
 30
0.0
 40
3.5
 41
0.0
 71
     1
 72
     1
  1
20
  7
SLDTEXTSTYLE0
 73
     1
 44
1.0
  0
ENDBLK
  5
2B8
330
2B6
100
AcDbEntity
  8
0
100
AcDbBlockEnd
  0
BLOCK
  5
2C1
330
2C0
100
AcDbEntity
  8
0
100
AcDbBlockBegin
  2
_D_10
 70
     0
 10
0.0
 20
0.0
 30
0.0
  3
_D_10
  1

  0
SOLID
  5
2C3
330
2C0
100
AcDbEntity
  8
0
  6
Continuous
 62
     7
370
    18
100
AcDbTrace
 10
268.94
 20
204.06
 30
0.0
 11
272.242
 21
203.552
 31
0.0
 12
272.242
 22
204.568
 32
0.0
 13
272.242
 23
204.568
 33
0.0
  0
SOLID
  5
2C4
330
2C0
100
AcDbEntity
  8
0
  6
Continuous
 62
     7
370
    18
100
AcDbTrace
 10
255.94
 20
204.06
 30
0.0
 11
252.638
 21
204.568
 31
0.0
 12
252.638
 22
203.552
 32
0.0
 13
252.638
 23
203.552
 33
0.0
  0
LINE
  5
2C5
330
2C0
100
AcDbEntity
  8
0
  6
Continuous
 62
     7
370
     0
100
AcDbLine
 10
268.94
 20
185.06
 30
0.0
 11
268.94
 21
205.06
 31
0.0
  0
LINE
  5
2C6
330
2C0
100
AcDbEntity
  8
0
  6
Continuous
 62
     7
370
     0
100
AcDbLine
 10
255.94
 20
195.06
 30
0.0
 11
255.94
 21
205.06
 31
0.0
  0
LINE
  5
2C7
330
2C0
100
AcDbEntity
  8
0
  6
Continuous
 62
     7
370
     0
100
AcDbLine
 10
268.94
 20
204.06
 30
0.0
 11
275.29
 21
204.06
 31
0.0
  0
LINE
  5
2C8
330
2C0
100
AcDbEntity
  8
0
  6
Continuous
 62
     7
370
     0
100
AcDbLine
 10
268.94
 20
204.06
 30
0.0
 11
255.94
 21
204.06
 31
0.0
  0
LINE
  5
2C9
330
2C0
100
AcDbEntity
  8
0
  6
Continuous
 62
     7
370
     0
100
AcDbLine
 10
255.94
 20
204.06
 30
0.0
 11
249.59
 21
204.06
 31
0.0
  0
MTEXT
  5
2CA
330
2C0
100
AcDbEntity
  8
0
  6
Continuous
 62
     7
370
    18
100
AcDbMText
 10
259.6256917349
 20
208.5717369146
 30
0.0
 40
3.5
 41
0.0
 71
     1
 72
     1
  1
13
  7
SLDTEXTSTYLE0
 73
     1
 44
1.0
  0
ENDBLK
  5
2C2
330
2C0
100
AcDbEntity
  8
0
100
AcDbBlockEnd
  0
BLOCK
  5
2CD
330
2CC
100
AcDbEntity
  8
0
100
AcDbBlockBegin
  2
_D_11
 70
     0
 10
0.0
 20
0.0
 30
0.0
  3
_D_11
  1

  0
SOLID
  5
2CF
330
2CC
100
AcDbEntity
  8
0
  6
Continuous
 62
     7
370
    18
100
AcDbTrace
 10
380.94
 20
180.56
 30
0.0
 11
381.448
 21
183.862
 31
0.0
 12
380.432
 22
183.862
 32
0.0
 13
380.432
 23
183.862
 33
0.0
  0
SOLID
  5
2D0
330
2CC
100
AcDbEntity
  8
0
  6
Continuous
 62
     7
370
    18
100
AcDbTrace
 10
380.94
 20
162.56
 30
0.0
 11
380.432
 21
159.258
 31
0.0
 12
381.448
 22
159.258
 32
0.0
 13
381.448
 23
159.258
 33
0.0
  0
LINE
  5
2D1
330
2CC
100
AcDbEntity
  8
0
  6
Continuous
 62
     7
370
     0
100
AcDbLine
 10
367.44
 20
180.56
 30
0.0
 11
381.94
 21
180.56
 31
0.0
  0
LINE
  5
2D2
330
2CC
100
AcDbEntity
  8
0
  6
Continuous
 62
     7
370
     0
100
AcDbLine
 10
367.44
 20
162.56
 30
0.0
 11
381.94
 21
162.56
 31
0.0
  0
LINE
  5
2D3
330
2CC
100
AcDbEntity
  8
0
  6
Continuous
 62
     7
370
     0
100
AcDbLine
 10
380.94
 20
180.56
 30
0.0
 11
380.94
 21
186.91
 31
0.0
  0
LINE
  5
2D4
330
2CC
100
AcDbEntity
  8
0
  6
Continuous
 62
     7
370
     0
100
AcDbLine
 10
380.94
 20
180.56
 30
0.0
 11
380.94
 21
162.56
 31
0.0
  0
LINE
  5
2D5
330
2CC
100
AcDbEntity
  8
0
  6
Continuous
 62
     7
370
     0
100
AcDbLine
 10
380.94
 20
162.56
 30
0.0
 11
380.94
 21
156.21
 31
0.0
  0
MTEXT
  5
2D6
330
2CC
100
AcDbEntity
  8
0
  6
Continuous
 62
     7
370
    18
100
AcDbMText
 10
376.4282629108
 20
165.509410656
 30
0.0
 40
3.5
 41
0.0
 71
     1
 72
     1
  1
%%c
  7
SLDTEXTSTYLE0
 11
-7.044195017643634E-15
 21
1.0
 31
0.0
 73
     1
 44
1.0
  0
MTEXT
  5
2D7
330
2CC
100
AcDbEntity
  8
0
  6
Continuous
 62
     7
370
    18
100
AcDbMText
 10
376.3747907341
 20
170.7878480543
 30
0.0
 40
3.5
 41
0.0
 71
     1
 72
     1
  1
18
  7
SLDTEXTSTYLE0
 11
-7.044195017643634E-15
 21
1.0
 31
0.0
 73
     1
 44
1.0
  0
ENDBLK
  5
2CE
330
2CC
100
AcDbEntity
  8
0
100
AcDbBlockEnd
  0
BLOCK
  5
2DB
330
2DA
100
AcDbEntity
  8
0
100
AcDbBlockBegin
  2
_D_12
 70
     0
 10
0.0
 20
0.0
 30
0.0
  3
_D_12
  1

  0
SOLID
  5
2DD
330
2DA
100
AcDbEntity
  8
0
  6
Continuous
 62
     7
370
    18
100
AcDbTrace
 10
266.2837039777
 20
172.271752374
 30
0.0
 11
263.2256969742
 21
173.6170631807
 31
0.0
 12
262.9627368244
 22
172.6356825412
 32
0.0
 13
262.9627368244
 23
172.6356825412
 33
0.0
  0
LINE
  5
2DE
330
2DA
100
AcDbEntity
  8
0
  6
Continuous
 62
     7
370
     0
100
AcDbLine
 10
266.2837039777
 20
172.271752374
 30
0.0
 11
228.029687421
 21
182.5218852177
 31
0.0
  0
LINE
  5
2DF
330
2DA
100
AcDbEntity
  8
0
  6
Continuous
 62
     7
370
     0
100
AcDbLine
 10
266.2837039777
 20
172.271752374
 30
0.0
 11
271.5962960223
 21
170.848247626
 31
0.0
  0
MTEXT
  5
2E0
330
2DA
100
AcDbEntity
  8
0
  6
Continuous
 62
     7
370
    18
100
AcDbMText
 10
229.1949671681
 20
186.8707684389
 30
0.0
 40
3.5
 41
0.0
 71
     1
 72
     1
  1
1/4" BSP
  7
SLDTEXTSTYLE0
 11
0.965925826289068
 21
-0.2588190451025217
 31
0.0
 73
     1
 44
1.0
  0
ENDBLK
  5
2DC
330
2DA
100
AcDbEntity
  8
0
100
AcDbBlockEnd
  0
BLOCK
  5
2E2
330
2E1
100
AcDbEntity
  8
0
100
AcDbBlockBegin
  2
SW_CENTERMARKSYMBOL_9
 70
     0
 10
0.0
 20
0.0
 30
0.0
  3
SW_CENTERMARKSYMBOL_9
  1

  0
LINE
  5
2E4
330
2E1
100
AcDbEntity
  8
0
  6
Continuous
 62
     0
370
    18
100
AcDbLine
 10
0.0
 20
0.0
 30
0.0
 11
0.0
 21
2.5
 31
0.0
  0
LINE
  5
2E5
330
2E1
100
AcDbEntity
  8
0
  6
Continuous
 62
     0
370
    18
100
AcDbLine
 10
0.0
 20
0.0
 30
0.0
 11
-2.5
 21
0.0
 31
0.0
  0
LINE
  5
2E6
330
2E1
100
AcDbEntity
  8
0
  6
Continuous
 62
     0
370
    18
100
AcDbLine
 10
0.0
 20
0.0
 30
0.0
 11
0.0
 21
-2.5
 31
0.0
  0
LINE
  5
2E7
330
2E1
100
AcDbEntity
  8
0
  6
Continuous
 62
     0
370
    18
100
AcDbLine
 10
0.0
 20
0.0
 30
0.0
 11
2.5
 21
0.0
 31
0.0
  0
LINE
  5
2E8
330
2E1
100
AcDbEntity
  8
0
  6
Continuous
 62
     0
370
    18
100
AcDbLine
 10
0.0
 20
5.0
 30
0.0
 11
0.0
 21
12.5
 31
0.0
  0
LINE
  5
2E9
330
2E1
100
AcDbEntity
  8
0
  6
Continuous
 62
     0
370
    18
100
AcDbLine
 10
-5.0
 20
0.0
 30
0.0
 11
-12.5
 21
0.0
 31
0.0
  0
LINE
  5
2EA
330
2E1
100
AcDbEntity
  8
0
  6
Continuous
 62
     0
370
    18
100
AcDbLine
 10
0.0
 20
-5.0
 30
0.0
 11
0.0
 21
-12.5
 31
0.0
  0
LINE
  5
2EB
330
2E1
100
AcDbEntity
  8
0
  6
Continuous
 62
     0
370
    18
100
AcDbLine
 10
5.0
 20
0.0
 30
0.0
 11
12.5
 21
0.0
 31
0.0
  0
ENDBLK
  5
2E3
330
2E1
100
AcDbEntity
  8
0
100
AcDbBlockEnd
  0
BLOCK
  5
2EE
330
2ED
100
AcDbEntity
  8
0
100
AcDbBlockBegin
  2
SW_CENTERMARKSYMBOL_10
 70
     0
 10
0.0
 20
0.0
 30
0.0
  3
SW_CENTERMARKSYMBOL_10
  1

  0
LINE
  5
2F0
330
2ED
100
AcDbEntity
  8
0
  6
Continuous
 62
     0
370
    18
100
AcDbLine
 10
0.0
 20
0.0
 30
0.0
 11
0.0
 21
2.5
 31
0.0
  0
LINE
  5
2F1
330
2ED
100
AcDbEntity
  8
0
  6
Continuous
 62
     0
370
    18
100
AcDbLine
 10
0.0
 20
0.0
 30
0.0
 11
-2.5
 21
0.0
 31
0.0
  0
LINE
  5
2F2
330
2ED
100
AcDbEntity
  8
0
  6
Continuous
 62
     0
370
    18
100
AcDbLine
 10
0.0
 20
0.0
 30
0.0
 11
0.0
 21
-2.5
 31
0.0
  0
LINE
  5
2F3
330
2ED
100
AcDbEntity
  8
0
  6
Continuous
 62
     0
370
    18
100
AcDbLine
 10
0.0
 20
0.0
 30
0.0
 11
2.5
 21
0.0
 31
0.0
  0
LINE
  5
2F4
330
2ED
100
AcDbEntity
  8
0
  6
Continuous
 62
     0
370
    18
100
AcDbLine
 10
0.0
 20
5.0
 30
0.0
 11
0.0
 21
12.5
 31
0.0
  0
LINE
  5
2F5
330
2ED
100
AcDbEntity
  8
0
  6
Continuous
 62
     0
370
    18
100
AcDbLine
 10
-5.0
 20
0.0
 30
0.0
 11
-12.5
 21
0.0
 31
0.0
  0
LINE
  5
2F6
330
2ED
100
AcDbEntity
  8
0
  6
Continuous
 62
     0
370
    18
100
AcDbLine
 10
0.0
 20
-5.0
 30
0.0
 11
0.0
 21
-12.5
 31
0.0
  0
LINE
  5
2F7
330
2ED
100
AcDbEntity
  8
0
  6
Continuous
 62
     0
370
    18
100
AcDbLine
 10
5.0
 20
0.0
 30
0.0
 11
12.5
 21
0.0
 31
0.0
  0
ENDBLK
  5
2EF
330
2ED
100
AcDbEntity
  8
0
100
AcDbBlockEnd
  0
ENDSEC
  0
SECTION
  2
ENTITIES
  0
LINE
  5
74
330
1F
100
AcDbEntity
  8
0
  6
Continuous
 62
     7
370
    50
100
AcDbLine
 10
230.0
 20
14.25
 30
0.0
 11
410.0
 21
14.25
 31
0.0
  0
LINE
  5
75
330
1F
100
AcDbEntity
  8
0
  6
Continuous
 62
     7
370
    50
100
AcDbLine
 10
410.0
 20
48.25
 30
0.0
 11
230.0
 21
48.25
 31
0.0
  0
LINE
  5
76
330
1F
100
AcDbEntity
  8
0
  6
Continuous
 62
     7
370
    50
100
AcDbLine
 10
230.0
 20
65.25
 30
0.0
 11
410.0
 21
65.25
 31
0.0
  0
LINE
  5
77
330
1F
100
AcDbEntity
  8
0
  6
Continuous
 62
     7
370
    50
100
AcDbLine
 10
256.9909524338
 20
48.25
 30
0.0
 11
256.9909524338
 21
10.0
 31
0.0
  0
LINE
  5
78
330
1F
100
AcDbEntity
  8
0
  6
Continuous
 62
     7
370
    50
100
AcDbLine
 10
328.8
 20
31.25
 30
0.0
 11
230.0
 21
31.25
 31
0.0
  0
LINE
  5
79
330
1F
100
AcDbEntity
  8
0
  6
Continuous
 62
     7
370
    50
100
AcDbLine
 10
328.8
 20
35.5
 30
0.0
 11
230.0
 21
35.5
 31
0.0
  0
LINE
  5
7A
330
1F
100
AcDbEntity
  8
0
  6
Continuous
 62
     7
370
    50
100
AcDbLine
 10
328.8
 20
39.75
 30
0.0
 11
230.0
 21
39.75
 31
0.0
  0
LINE
  5
7B
330
1F
100
AcDbEntity
  8
0
  6
Continuous
 62
     7
370
    50
100
AcDbLine
 10
328.8
 20
44.0
 30
0.0
 11
230.0
 21
44.0
 31
0.0
  0
LINE
  5
7C
330
1F
100
AcDbEntity
  8
0
  6
Continuous
 62
     7
370
    50
100
AcDbLine
 10
284.6
 20
10.0
 30
0.0
 11
284.6
 21
48.25
 31
0.0
  0
LINE
  5
7D
330
1F
100
AcDbEntity
  8
0
  6
Continuous
 62
     7
370
    50
100
AcDbLine
 10
230.0
 20
65.25
 30
0.0
 11
230.0
 21
10.0
 31
0.0
  0
LINE
  5
7E
330
1F
100
AcDbEntity
  8
0
  6
Continuous
 62
     7
370
    50
100
AcDbLine
 10
242.0703737145
 20
48.25
 30
0.0
 11
242.0703737145
 21
10.0
 31
0.0
  0
LINE
  5
7F
330
1F
100
AcDbEntity
  8
0
  6
Continuous
 62
     7
370
    50
100
AcDbLine
 10
263.8
 20
48.25
 30
0.0
 11
263.8
 21
65.25
 31
0.0
  0
LINE
  5
80
330
1F
100
AcDbEntity
  8
0
  6
Continuous
 62
     7
370
    50
100
AcDbLine
 10
274.3989261635
 20
48.25
 30
0.0
 11
274.3989261635
 21
10.0
 31
0.0
  0
LINE
  5
81
330
1F
100
AcDbEntity
  8
0
  6
Continuous
 62
     7
370
    50
100
AcDbLine
 10
295.0
 20
31.25
 30
0.0
 11
295.0
 21
48.25
 31
0.0
  0
LINE
  5
82
330
1F
100
AcDbEntity
  8
0
  6
Continuous
 62
     7
370
    50
100
AcDbLine
 10
284.6
 20
18.5
 30
0.0
 11
230.0
 21
18.5
 31
0.0
  0
LINE
  5
83
330
1F
100
AcDbEntity
  8
0
  6
Continuous
 62
     7
370
    50
100
AcDbLine
 10
310.6
 20
65.25
 30
0.0
 11
310.6
 21
27.0
 31
0.0
  0
LINE
  5
84
330
1F
100
AcDbEntity
  8
0
  6
Continuous
 62
     7
370
    50
100
AcDbLine
 10
284.6
 20
22.749928
 30
0.0
 11
230.0
 21
22.749928
 31
0.0
  0
LINE
  5
85
330
1F
100
AcDbEntity
  8
0
  6
Continuous
 62
     7
370
    50
100
AcDbLine
 10
284.6
 20
27.0
 30
0.0
 11
230.0
 21
27.0
 31
0.0
  0
LINE
  5
86
330
1F
100
AcDbEntity
  8
0
  6
Continuous
 62
     7
370
    50
100
AcDbLine
 10
284.6
 20
27.0
 30
0.0
 11
410.0
 21
27.0
 31
0.0
  0
LINE
  5
87
330
1F
100
AcDbEntity
  8
0
  6
Continuous
 62
     7
370
    50
100
AcDbLine
 10
328.8
 20
65.25
 30
0.0
 11
328.8
 21
10.0
 31
0.0
  0
LINE
  5
88
330
1F
100
AcDbEntity
  8
0
  6
Continuous
 62
     7
370
    50
100
AcDbLine
 10
373.0
 20
10.0
 30
0.0
 11
373.0
 21
14.25
 31
0.0
  0
LINE
  5
89
330
1F
100
AcDbEntity
  8
0
  6
Continuous
 62
     7
370
    50
100
AcDbLine
 10
380.8
 20
58.875
 30
0.0
 11
380.8
 21
65.25
 31
0.0
  0
LINE
  5
8A
330
1F
100
AcDbEntity
  8
0
  6
Continuous
 62
     7
370
    50
100
AcDbLine
 10
397.0
 20
14.25
 30
0.0
 11
397.0
 21
27.0
 31
0.0
  0
LINE
  5
8B
330
1F
100
AcDbEntity
  8
0
  6
Continuous
 62
     7
370
    50
100
AcDbLine
 10
410.0
 20
58.875
 30
0.0
 11
328.8
 21
58.875
 31
0.0
  0
LINE
  5
8C
330
1F
100
AcDbEntity
  8
0
  6
Continuous
 62
     7
370
    50
100
AcDbLine
 10
410.0
 20
18.5
 30
0.0
 11
397.0
 21
18.5
 31
0.0
  0
LINE
  5
8D
330
1F
100
AcDbEntity
  8
0
  6
Continuous
 62
     7
370
    70
100
AcDbLine
 10
20.0
 20
10.0
 30
0.0
 11
20.0
 21
287.0
 31
0.0
  0
LINE
  5
8E
330
1F
100
AcDbEntity
  8
0
  6
Continuous
 62
     7
370
    70
100
AcDbLine
 10
20.0
 20
287.0
 30
0.0
 11
410.0
 21
287.0
 31
0.0
  0
LINE
  5
8F
330
1F
100
AcDbEntity
  8
0
  6
Continuous
 62
     7
370
    70
100
AcDbLine
 10
410.0
 20
287.0
 30
0.0
 11
410.0
 21
10.0
 31
0.0
  0
LINE
  5
90
330
1F
100
AcDbEntity
  8
0
  6
Continuous
 62
     7
370
    70
100
AcDbLine
 10
410.0
 20
10.0
 30
0.0
 11
20.0
 21
10.0
 31
0.0
  0
LINE
  5
91
330
1F
100
AcDbEntity
  8
0
  6
Continuous
 62
     7
370
    70
100
AcDbLine
 10
15.0
 20
5.0
 30
0.0
 11
15.0
 21
292.0
 31
0.0
  0
LINE
  5
92
330
1F
100
AcDbEntity
  8
0
  6
Continuous
 62
     7
370
    70
100
AcDbLine
 10
15.0
 20
292.0
 30
0.0
 11
415.0
 21
292.0
 31
0.0
  0
LINE
  5
93
330
1F
100
AcDbEntity
  8
0
  6
Continuous
 62
     7
370
    70
100
AcDbLine
 10
415.0
 20
292.0
 30
0.0
 11
415.0
 21
5.0
 31
0.0
  0
LINE
  5
94
330
1F
100
AcDbEntity
  8
0
  6
Continuous
 62
     7
370
    70
100
AcDbLine
 10
415.0
 20
5.0
 30
0.0
 11
15.0
 21
5.0
 31
0.0
  0
LINE
  5
95
330
1F
100
AcDbEntity
  8
0
  6
Continuous
 62
     7
370
    35
100
AcDbLine
 10
15.0
 20
148.5
 30
0.0
 11
25.0
 21
148.5
 31
0.0
  0
LINE
  5
96
330
1F
100
AcDbEntity
  8
0
  6
Continuous
 62
     7
370
    35
100
AcDbLine
 10
215.0
 20
292.0
 30
0.0
 11
215.0
 21
282.0
 31
0.0
  0
LINE
  5
97
330
1F
100
AcDbEntity
  8
0
  6
Continuous
 62
     7
370
    35
100
AcDbLine
 10
415.0
 20
148.5
 30
0.0
 11
405.0
 21
148.5
 31
0.0
  0
LINE
  5
98
330
1F
100
AcDbEntity
  8
0
  6
Continuous
 62
     7
370
    35
100
AcDbLine
 10
215.0
 20
5.0
 30
0.0
 11
215.0
 21
15.0
 31
0.0
  0
LINE
  5
99
330
1F
100
AcDbEntity
  8
0
  6
Continuous
 62
     7
370
    35
100
AcDbLine
 10
20.0
 20
48.5
 30
0.0
 11
15.0
 21
48.5
 31
0.0
  0
LINE
  5
9A
330
1F
100
AcDbEntity
  8
0
  6
Continuous
 62
     7
370
    35
100
AcDbLine
 10
410.0
 20
48.5
 30
0.0
 11
415.0
 21
48.5
 31
0.0
  0
LINE
  5
9B
330
1F
100
AcDbEntity
  8
0
  6
Continuous
 62
     7
370
    35
100
AcDbLine
 10
20.0
 20
98.5
 30
0.0
 11
15.0
 21
98.5
 31
0.0
  0
LINE
  5
9C
330
1F
100
AcDbEntity
  8
0
  6
Continuous
 62
     7
370
    35
100
AcDbLine
 10
410.0
 20
98.5
 30
0.0
 11
415.0
 21
98.5
 31
0.0
  0
LINE
  5
9D
330
1F
100
AcDbEntity
  8
0
  6
Continuous
 62
     7
370
    35
100
AcDbLine
 10
20.0
 20
148.5
 30
0.0
 11
15.0
 21
148.5
 31
0.0
  0
LINE
  5
9E
330
1F
100
AcDbEntity
  8
0
  6
Continuous
 62
     7
370
    35
100
AcDbLine
 10
410.0
 20
148.5
 30
0.0
 11
415.0
 21
148.5
 31
0.0
  0
LINE
  5
9F
330
1F
100
AcDbEntity
  8
0
  6
Continuous
 62
     7
370
    35
100
AcDbLine
 10
20.0
 20
198.5
 30
0.0
 11
15.0
 21
198.5
 31
0.0
  0
LINE
  5
A0
330
1F
100
AcDbEntity
  8
0
  6
Continuous
 62
     7
370
    35
100
AcDbLine
 10
410.0
 20
198.5
 30
0.0
 11
415.0
 21
198.5
 31
0.0
  0
LINE
  5
A1
330
1F
100
AcDbEntity
  8
0
  6
Continuous
 62
     7
370
    35
100
AcDbLine
 10
20.0
 20
248.5
 30
0.0
 11
15.0
 21
248.5
 31
0.0
  0
LINE
  5
A2
330
1F
100
AcDbEntity
  8
0
  6
Continuous
 62
     7
370
    35
100
AcDbLine
 10
410.0
 20
248.5
 30
0.0
 11
415.0
 21
248.5
 31
0.0
  0
LINE
  5
A3
330
1F
100
AcDbEntity
  8
0
  6
Continuous
 62
     7
370
    35
100
AcDbLine
 10
65.0
 20
287.0
 30
0.0
 11
65.0
 21
292.0
 31
0.0
  0
LINE
  5
A4
330
1F
100
AcDbEntity
  8
0
  6
Continuous
 62
     7
370
    35
100
AcDbLine
 10
65.0
 20
10.0
 30
0.0
 11
65.0
 21
5.0
 31
0.0
  0
LINE
  5
A5
330
1F
100
AcDbEntity
  8
0
  6
Continuous
 62
     7
370
    35
100
AcDbLine
 10
115.0
 20
287.0
 30
0.0
 11
115.0
 21
292.0
 31
0.0
  0
LINE
  5
A6
330
1F
100
AcDbEntity
  8
0
  6
Continuous
 62
     7
370
    35
100
AcDbLine
 10
115.0
 20
10.0
 30
0.0
 11
115.0
 21
5.0
 31
0.0
  0
LINE
  5
A7
330
1F
100
AcDbEntity
  8
0
  6
Continuous
 62
     7
370
    35
100
AcDbLine
 10
165.0
 20
287.0
 30
0.0
 11
165.0
 21
292.0
 31
0.0
  0
LINE
  5
A8
330
1F
100
AcDbEntity
  8
0
  6
Continuous
 62
     7
370
    35
100
AcDbLine
 10
165.0
 20
10.0
 30
0.0
 11
165.0
 21
5.0
 31
0.0
  0
LINE
  5
A9
330
1F
100
AcDbEntity
  8
0
  6
Continuous
 62
     7
370
    35
100
AcDbLine
 10
215.0
 20
287.0
 30
0.0
 11
215.0
 21
292.0
 31
0.0
  0
LINE
  5
AA
330
1F
100
AcDbEntity
  8
0
  6
Continuous
 62
     7
370
    35
100
AcDbLine
 10
215.0
 20
10.0
 30
0.0
 11
215.0
 21
5.0
 31
0.0
  0
LINE
  5
AB
330
1F
100
AcDbEntity
  8
0
  6
Continuous
 62
     7
370
    35
100
AcDbLine
 10
265.0
 20
287.0
 30
0.0
 11
265.0
 21
292.0
 31
0.0
  0
LINE
  5
AC
330
1F
100
AcDbEntity
  8
0
  6
Continuous
 62
     7
370
    35
100
AcDbLine
 10
265.0
 20
10.0
 30
0.0
 11
265.0
 21
5.0
 31
0.0
  0
LINE
  5
AD
330
1F
100
AcDbEntity
  8
0
  6
Continuous
 62
     7
370
    35
100
AcDbLine
 10
315.0
 20
287.0
 30
0.0
 11
315.0
 21
292.0
 31
0.0
  0
LINE
  5
AE
330
1F
100
AcDbEntity
  8
0
  6
Continuous
 62
     7
370
    35
100
AcDbLine
 10
315.0
 20
10.0
 30
0.0
 11
315.0
 21
5.0
 31
0.0
  0
LINE
  5
AF
330
1F
100
AcDbEntity
  8
0
  6
Continuous
 62
     7
370
    35
100
AcDbLine
 10
365.0
 20
287.0
 30
0.0
 11
365.0
 21
292.0
 31
0.0
  0
LINE
  5
B0
330
1F
100
AcDbEntity
  8
0
  6
Continuous
 62
     7
370
    35
100
AcDbLine
 10
365.0
 20
10.0
 30
0.0
 11
365.0
 21
5.0
 31
0.0
  0
MTEXT
  5
B2
330
1F
100
AcDbEntity
  8
0
  6
Continuous
 62
     7
370
     0
100
AcDbMText
 10
17.3396881428
 20
31.1962239326
 30
0.0
 40
3.96875
 41
0.0
 71
     2
 72
     1
  1
A
  7
SLDTEXTSTYLE0
 73
     1
 44
1.0
  0
MTEXT
  5
B3
330
1F
100
AcDbEntity
  8
0
  6
Continuous
 62
     7
370
     0
100
AcDbMText
 10
412.3396881428
 20
31.1962239326
 30
0.0
 40
3.96875
 41
0.0
 71
     2
 72
     1
  1
A
  7
SLDTEXTSTYLE0
 73
     1
 44
1.0
  0
MTEXT
  5
B4
330
1F
100
AcDbEntity
  8
0
  6
Continuous
 62
     7
370
     0
100
AcDbMText
 10
17.4706018241
 20
75.4957779464
 30
0.0
 40
3.96875
 41
0.0
 71
     2
 72
     1
  1
B
  7
SLDTEXTSTYLE0
 73
     1
 44
1.0
  0
MTEXT
  5
B5
330
1F
100
AcDbEntity
  8
0
  6
Continuous
 62
     7
370
     0
100
AcDbMText
 10
412.4706018241
 20
75.4957779464
 30
0.0
 40
3.96875
 41
0.0
 71
     2
 72
     1
  1
B
  7
SLDTEXTSTYLE0
 73
     1
 44
1.0
  0
MTEXT
  5
B6
330
1F
100
AcDbEntity
  8
0
  6
Continuous
 62
     7
370
     0
100
AcDbMText
 10
17.458658902
 20
125.4462239326
 30
0.0
 40
3.96875
 41
0.0
 71
     2
 72
     1
  1
C
  7
SLDTEXTSTYLE0
 73
     1
 44
1.0
  0
MTEXT
  5
B7
330
1F
100
AcDbEntity
  8
0
  6
Continuous
 62
     7
370
     0
100
AcDbMText
 10
412.458658902
 20
125.4462239326
 30
0.0
 40
3.96875
 41
0.0
 71
     2
 72
     1
  1
C
  7
SLDTEXTSTYLE0
 73
     1
 44
1.0
  0
MTEXT
  5
B8
330
1F
100
AcDbEntity
  8
0
  6
Continuous
 62
     7
370
     0
100
AcDbMText
 10
17.4526872821
 20
175.4957779464
 30
0.0
 40
3.96875
 41
0.0
 71
     2
 72
     1
  1
D
  7
SLDTEXTSTYLE0
 73
     1
 44
1.0
  0
MTEXT
  5
B9
330
1F
100
AcDbEntity
  8
0
  6
Continuous
 62
     7
370
     0
100
AcDbMText
 10
412.4526872821
 20
175.4957779464
 30
0.0
 40
3.96875
 41
0.0
 71
     2
 72
     1
  1
D
  7
SLDTEXTSTYLE0
 73
     1
 44
1.0
  0
MTEXT
  5
BA
330
1F
100
AcDbEntity
  8
0
  6
Continuous
 62
     7
370
     0
100
AcDbMText
 10
17.5078089051
 20
225.4462239326
 30
0.0
 40
3.96875
 41
0.0
 71
     2
 72
     1
  1
E
  7
SLDTEXTSTYLE0
 73
     1
 44
1.0
  0
MTEXT
  5
BB
330
1F
100
AcDbEntity
  8
0
  6
Continuous
 62
     7
370
     0
100
AcDbMText
 10
412.5078089051
 20
225.4462239326
 30
0.0
 40
3.96875
 41
0.0
 71
     2
 72
     1
  1
E
  7
SLDTEXTSTYLE0
 73
     1
 44
1.0
  0
MTEXT
  5
BC
330
1F
100
AcDbEntity
  8
0
  6
Continuous
 62
     7
370
     0
100
AcDbMText
 10
17.4577402091
 20
269.7457779464
 30
0.0
 40
3.96875
 41
0.0
 71
     2
 72
     1
  1
F
  7
SLDTEXTSTYLE0
 73
     1
 44
1.0
  0
MTEXT
  5
BD
330
1F
100
AcDbEntity
  8
0
  6
Continuous
 62
     7
370
     0
100
AcDbMText
 10
412.4577402091
 20
269.7457779464
 30
0.0
 40
3.96875
 41
0.0
 71
     2
 72
     1
  1
F
  7
SLDTEXTSTYLE0
 73
     1
 44
1.0
  0
MTEXT
  5
BE
330
1F
100
AcDbEntity
  8
0
  6
Continuous
 62
     7
370
     0
100
AcDbMText
 10
42.4600369465
 20
9.4957779464
 30
0.0
 40
3.96875
 41
0.0
 71
     2
 72
     1
  1
8
  7
SLDTEXTSTYLE0
 73
     1
 44
1.0
  0
MTEXT
  5
BF
330
1F
100
AcDbEntity
  8
0
  6
Continuous
 62
     7
370
     0
100
AcDbMText
 10
42.4600369465
 20
291.4462239326
 30
0.0
 40
3.96875
 41
0.0
 71
     2
 72
     1
  1
8
  7
SLDTEXTSTYLE0
 73
     1
 44
1.0
  0
MTEXT
  5
C0
330
1F
100
AcDbEntity
  8
0
  6
Continuous
 62
     7
370
     0
100
AcDbMText
 10
89.9600369465
 20
9.4957779464
 30
0.0
 40
3.96875
 41
0.0
 71
     2
 72
     1
  1
7
  7
SLDTEXTSTYLE0
 73
     1
 44
1.0
  0
MTEXT
  5
C1
330
1F
100
AcDbEntity
  8
0
  6
Continuous
 62
     7
370
     0
100
AcDbMText
 10
89.9600369465
 20
291.4462239326
 30
0.0
 40
3.96875
 41
0.0
 71
     2
 72
     1
  1
7
  7
SLDTEXTSTYLE0
 73
     1
 44
1.0
  0
MTEXT
  5
C2
330
1F
100
AcDbEntity
  8
0
  6
Continuous
 62
     7
370
     0
100
AcDbMText
 10
139.9600369465
 20
9.4957779464
 30
0.0
 40
3.96875
 41
0.0
 71
     2
 72
     1
  1
6
  7
SLDTEXTSTYLE0
 73
     1
 44
1.0
  0
MTEXT
  5
C3
330
1F
100
AcDbEntity
  8
0
  6
Continuous
 62
     7
370
     0
100
AcDbMText
 10
139.9600369465
 20
291.4462239326
 30
0.0
 40
3.96875
 41
0.0
 71
     2
 72
     1
  1
6
  7
SLDTEXTSTYLE0
 73
     1
 44
1.0
  0
MTEXT
  5
C4
330
1F
100
AcDbEntity
  8
0
  6
Continuous
 62
     7
370
     0
100
AcDbMText
 10
189.9600369465
 20
9.4957779464
 30
0.0
 40
3.96875
 41
0.0
 71
     2
 72
     1
  1
5
  7
SLDTEXTSTYLE0
 73
     1
 44
1.0
  0
MTEXT
  5
C5
330
1F
100
AcDbEntity
  8
0
  6
Continuous
 62
     7
370
     0
100
AcDbMText
 10
189.9600369465
 20
291.4462239326
 30
0.0
 40
3.96875
 41
0.0
 71
     2
 72
     1
  1
5
  7
SLDTEXTSTYLE0
 73
     1
 44
1.0
  0
MTEXT
  5
C6
330
1F
100
AcDbEntity
  8
0
  6
Continuous
 62
     7
370
     0
100
AcDbMText
 10
239.9600369465
 20
9.4957779464
 30
0.0
 40
3.96875
 41
0.0
 71
     2
 72
     1
  1
4
  7
SLDTEXTSTYLE0
 73
     1
 44
1.0
  0
MTEXT
  5
C7
330
1F
100
AcDbEntity
  8
0
  6
Continuous
 62
     7
370
     0
100
AcDbMText
 10
239.9600369465
 20
291.4462239326
 30
0.0
 40
3.96875
 41
0.0
 71
     2
 72
     1
  1
4
  7
SLDTEXTSTYLE0
 73
     1
 44
1.0
  0
MTEXT
  5
C8
330
1F
100
AcDbEntity
  8
0
  6
Continuous
 62
     7
370
     0
100
AcDbMText
 10
289.9600369465
 20
9.4957779464
 30
0.0
 40
3.96875
 41
0.0
 71
     2
 72
     1
  1
3
  7
SLDTEXTSTYLE0
 73
     1
 44
1.0
  0
MTEXT
  5
C9
330
1F
100
AcDbEntity
  8
0
  6
Continuous
 62
     7
370
     0
100
AcDbMText
 10
289.9600369465
 20
291.4462239326
 30
0.0
 40
3.96875
 41
0.0
 71
     2
 72
     1
  1
3
  7
SLDTEXTSTYLE0
 73
     1
 44
1.0
  0
MTEXT
  5
CA
330
1F
100
AcDbEntity
  8
0
  6
Continuous
 62
     7
370
     0
100
AcDbMText
 10
339.9600369465
 20
9.4957779464
 30
0.0
 40
3.96875
 41
0.0
 71
     2
 72
     1
  1
2
  7
SLDTEXTSTYLE0
 73
     1
 44
1.0
  0
MTEXT
  5
CB
330
1F
100
AcDbEntity
  8
0
  6
Continuous
 62
     7
370
     0
100
AcDbMText
 10
339.9600369465
 20
291.4462239326
 30
0.0
 40
3.96875
 41
0.0
 71
     2
 72
     1
  1
2
  7
SLDTEXTSTYLE0
 73
     1
 44
1.0
  0
MTEXT
  5
CC
330
1F
100
AcDbEntity
  8
0
  6
Continuous
 62
     7
370
     0
100
AcDbMText
 10
387.4600369465
 20
9.4957779464
 30
0.0
 40
3.96875
 41
0.0
 71
     2
 72
     1
  1
1
  7
SLDTEXTSTYLE0
 73
     1
 44
1.0
  0
MTEXT
  5
CD
330
1F
100
AcDbEntity
  8
0
  6
Continuous
 62
     7
370
     0
100
AcDbMText
 10
387.4600369465
 20
291.4462239326
 30
0.0
 40
3.96875
 41
0.0
 71
     2
 72
     1
  1
1
  7
SLDTEXTSTYLE0
 73
     1
 44
1.0
  0
MTEXT
  5
CE
330
1F
100
AcDbEntity
  8
0
  6
Continuous
 62
     7
370
     0
100
AcDbMText
 10
364.9888162717
 20
23.6069112001
 30
0.0
 40
6.35
 41
0.0
 71
     2
 72
     1
  1
CZ025B0GHG#050#Svoboda
  7
SLDTEXTSTYLE0
 73
     1
 44
1.0
  0
MTEXT
  5
CF
330
1F
100
AcDbEntity
  8
0
  6
Continuous
 62
     7
370
     0
100
AcDbMText
 10
285.6178111281
 20
12.9493119036
 30
0.0
 40
1.4986
 41
0.0
 71
     1
 72
     1
  1
HMOTNOST:
  7
SLDTEXTSTYLE0
 73
     1
 44
1.0
  0
MTEXT
  5
D0
330
1F
100
AcDbEntity
  8
0
  6
Continuous
 62
     7
370
     0
100
AcDbMText
 10
400.8711564346
 20
24.406388569
 30
0.0
 40
2.9104166667
 41
0.0
 71
     1
 72
     1
  1
A3
  7
SLDTEXTSTYLE0
 73
     1
 44
1.0
  0
MTEXT
  5
D2
330
1F
100
AcDbEntity
  8
0
  6
Continuous
 62
     7
370
     0
100
AcDbMText
 10
374.4782944278
 20
12.9000872745
 30
0.0
 40
1.5
 41
0.0
 71
     1
 72
     1
  1
LIST 1 Z 1 LISTŮ
  7
SLDTEXTSTYLE1
 73
     1
 44
1.0
  0
MTEXT
  5
D4
330
1F
100
AcDbEntity
  8
0
  6
Continuous
 62
     7
370
     0
100
AcDbMText
 10
330.0739661175
 20
12.9000872745
 30
0.0
 40
1.5
 41
0.0
 71
     1
 72
     1
  1
MĚŘÍTKO:1:1
  7
SLDTEXTSTYLE2
 73
     1
 44
1.0
  0
MTEXT
  5
D5
330
1F
100
AcDbEntity
  8
0
  6
Continuous
 62
     7
370
     0
100
AcDbMText
 10
330.2786531243
 20
25.9860562892
 30
0.0
 40
1.5
 41
0.0
 71
     1
 72
     1
  1
Č. VÝKRESU
  7
SLDTEXTSTYLE2
 73
     1
 44
1.0
  0
MTEXT
  5
D6
330
1F
100
AcDbEntity
  8
0
  6
Continuous
 62
     7
370
     0
100
AcDbMText
 10
329.9561869366
 20
46.5761792212
 30
0.0
 40
1.5
 41
0.0
 71
     1
 72
     1
  1
NÁZEV:
  7
SLDTEXTSTYLE0
 73
     1
 44
1.0
  0
MTEXT
  5
D7
330
1F
100
AcDbEntity
  8
0
  6
Continuous
 62
     7
370
     0
100
AcDbMText
 10
383.3275816993
 20
62.3349086805
 30
0.0
 40
1.5
 41
0.0
 71
     1
 72
     1
  1
ZMĚNA
  7
SLDTEXTSTYLE2
 73
     1
 44
1.0
  0
MTEXT
  5
D8
330
1F
100
AcDbEntity
  8
0
  6
Continuous
 62
     7
370
     0
100
AcDbMText
 10
342.6146405229
 20
62.5329935751
 30
0.0
 40
1.5
 41
0.0
 71
     1
 72
     1
  1
NEUPRAVOVAT MĚŘÍTKO VÝKRESU
  7
SLDTEXTSTYLE2
 73
     1
 44
1.0
  0
MTEXT
  5
D9
330
1F
100
AcDbEntity
  8
0
  6
Continuous
 62
     7
370
     0
100
AcDbMText
 10
285.6458623088
 20
25.9860562892
 30
0.0
 40
1.5
 41
0.0
 71
     1
 72
     1
  1
MATERIÁL:
  7
SLDTEXTSTYLE0
 73
     1
 44
1.0
  0
MTEXT
  5
DA
330
1F
100
AcDbEntity
  8
0
  6
Continuous
 62
     7
370
     0
100
AcDbMText
 10
277.2147019657
 20
46.5761792212
 30
0.0
 40
1.5
 41
0.0
 71
     1
 72
     1
  1
DATUM
  7
SLDTEXTSTYLE0
 73
     1
 44
1.0
  0
MTEXT
  5
DB
330
1F
100
AcDbEntity
  8
0
  6
Continuous
 62
     7
370
     0
100
AcDbMText
 10
260.0335875632
 20
46.5617563795
 30
0.0
 40
1.5
 41
0.0
 71
     1
 72
     1
  1
PODPIS
  7
SLDTEXTSTYLE0
 73
     1
 44
1.0
  0
MTEXT
  5
DC
330
1F
100
AcDbEntity
  8
0
  6
Continuous
 62
     7
370
     0
100
AcDbMText
 10
244.3222392177
 20
46.5014826335
 30
0.0
 40
1.5
 41
0.0
 71
     1
 72
     1
  1
JMÉNO
  7
SLDTEXTSTYLE0
 73
     1
 44
1.0
  0
INSERT
  5
E2
330
1F
100
AcDbEntity
  8
0
  6
Continuous
 62
     7
370
     0
100
AcDbBlockReference
  2
SW_NOTE_0
 10
311.3092156863
 20
62.069489643
 30
0.0
  0
MTEXT
  5
E3
330
1F
100
AcDbEntity
  8
0
  6
Continuous
 62
     7
370
     0
100
AcDbMText
 10
264.3712921668
 20
63.9192719951
 30
0.0
 40
1.5
 41
0.0
 71
     1
 72
     1
  1
OPRACOVÁNÍ:
  7
SLDTEXTSTYLE0
 73
     1
 44
1.0
  0
INSERT
  5
ED
330
1F
100
AcDbEntity
  8
0
  6
Continuous
 62
     7
370
     0
100
AcDbBlockReference
  2
SW_NOTE_0_1
 10
230.5936687456
 20
61.9873698743
 30
0.0
  0
MTEXT
  5
EE
330
1F
100
AcDbEntity
  8
0
  6
Continuous
 62
     7
370
     0
100
AcDbMText
 10
230.6690428622
 20
25.3496492073
 30
0.0
 40
1.5
 41
0.0
 71
     1
 72
     1
  1
Z. JAKOSTI
  7
SLDTEXTSTYLE0
 73
     1
 44
1.0
  0
MTEXT
  5
EF
330
1F
100
AcDbEntity
  8
0
  6
Continuous
 62
     7
370
     0
100
AcDbMText
 10
230.4551864991
 20
29.7337046506
 30
0.0
 40
1.5
 41
0.0
 71
     1
 72
     1
  1
VÝROBA
  7
SLDTEXTSTYLE0
 73
     1
 44
1.0
  0
MTEXT
  5
F0
330
1F
100
AcDbEntity
  8
0
  6
Continuous
 62
     7
370
     0
100
AcDbMText
 10
230.4017224083
 20
34.0642960031
 30
0.0
 40
1.5
 41
0.0
 71
     1
 72
     1
  1
SCHVÁLIL
  7
SLDTEXTSTYLE0
 73
     1
 44
1.0
  0
MTEXT
  5
F1
330
1F
100
AcDbEntity
  8
0
  6
Continuous
 62
     7
370
     0
100
AcDbMText
 10
230.4104688676
 20
38.15440716
 30
0.0
 40
1.5
 41
0.0
 71
     1
 72
     1
  1
PŘEZKOUŠEL
  7
SLDTEXTSTYLE2
 73
     1
 44
1.0
  0
MTEXT
  5
F2
330
1F
100
AcDbEntity
  8
0
  6
Continuous
 62
     7
370
     0
100
AcDbMText
 10
230.2121492441
 20
42.4297148859
 30
0.0
 40
1.5
 41
0.0
 71
     1
 72
     1
  1
NAVRHL
  7
SLDTEXTSTYLE0
 73
     1
 44
1.0
  0
ARC
  5
F3
330
1F
100
AcDbEntity
  8
0
  6
Continuous
 62
     7
370
    25
100
AcDbCircle
 10
118.44
 20
171.56
 30
0.0
 40
8.000000000000007
100
AcDbArc
 50
208.9550243719
 51
331.0449756281
  0
LINE
  5
F4
330
1F
100
AcDbEntity
  8
0
  6
Continuous
 62
     7
370
    25
100
AcDbLine
 10
125.94
 20
167.56
 30
0.0
 11
125.44
 21
167.6870166538
 31
0.0
  0
ARC
  5
F5
330
1F
100
AcDbEntity
  8
0
  6
Continuous
 62
     7
370
    25
100
AcDbCircle
 10
118.44
 20
171.56
 30
0.0
 40
8.5
100
AcDbArc
 50
208.0724869359
 51
331.9275130641
  0
LINE
  5
F6
330
1F
100
AcDbEntity
  8
0
  6
Continuous
 62
     7
370
    25
100
AcDbLine
 10
111.44
 20
167.6870166538
 30
0.0
 11
110.94
 21
167.56
 31
0.0
  0
LINE
  5
F7
330
1F
100
AcDbEntity
  8
0
  6
Continuous
 62
     7
370
    25
100
AcDbLine
 10
111.44
 20
175.4329833462
 30
0.0
 11
111.44
 21
167.6870166538
 31
0.0
  0
LINE
  5
F8
330
1F
100
AcDbEntity
  8
0
  6
Continuous
 62
     7
370
    25
100
AcDbLine
 10
110.94
 20
167.56
 30
0.0
 11
110.94
 21
175.56
 31
0.0
  0
LINE
  5
F9
330
1F
100
AcDbEntity
  8
0
  6
Continuous
 62
     7
370
    25
100
AcDbLine
 10
111.44
 20
175.4329833462
 30
0.0
 11
110.94
 21
175.56
 31
0.0
  0
ARC
  5
FA
330
1F
100
AcDbEntity
  8
0
  6
Continuous
 62
     7
370
    25
100
AcDbCircle
 10
118.44
 20
171.56
 30
0.0
 40
7.999999999999996
100
AcDbArc
 50
28.9550243719
 51
151.0449756281
  0
ARC
  5
FB
330
1F
100
AcDbEntity
  8
0
  6
Continuous
 62
     7
370
    25
100
AcDbCircle
 10
118.44
 20
171.56
 30
0.0
 40
8.5
100
AcDbArc
 50
28.0724869359
 51
151.9275130641
  0
LINE
  5
FC
330
1F
100
AcDbEntity
  8
0
  6
Continuous
 62
     7
370
    25
100
AcDbLine
 10
125.94
 20
175.56
 30
0.0
 11
125.44
 21
175.4329833462
 31
0.0
  0
CIRCLE
  5
FD
330
1F
100
AcDbEntity
  8
0
  6
Continuous
 62
     7
370
    25
100
AcDbCircle
 10
118.44
 20
171.56
 30
0.0
 40
4.549999999999997
  0
LINE
  5
FE
330
1F
100
AcDbEntity
  8
0
  6
Continuous
 62
     7
370
    25
100
AcDbLine
 10
125.44
 20
167.6870166538
 30
0.0
 11
125.44
 21
175.4329833462
 31
0.0
  0
CIRCLE
  5
FF
330
1F
100
AcDbEntity
  8
0
  6
Continuous
 62
     7
370
    25
100
AcDbCircle
 10
118.44
 20
171.56
 30
0.0
 40
4.25
  0
LINE
  5
100
330
1F
100
AcDbEntity
  8
0
  6
Continuous
 62
     7
370
    25
100
AcDbLine
 10
125.94
 20
175.56
 30
0.0
 11
125.94
 21
167.56
 31
0.0
  0
ARC
  5
101
330
1F
100
AcDbEntity
  8
0
  6
Continuous
 62
     7
370
    25
100
AcDbCircle
 10
118.44
 20
171.56
 30
0.0
 40
8.499999999999973
100
AcDbArc
 50
151.9275130641
 51
208.0724869359
  0
ARC
  5
102
330
1F
100
AcDbEntity
  8
0
  6
Continuous
 62
     7
370
    25
100
AcDbCircle
 10
118.44
 20
171.56
 30
0.0
 40
8.5
100
AcDbArc
 50
331.9275130641
 51
28.0724869359
  0
CIRCLE
  5
103
330
1F
100
AcDbEntity
  8
0
  6
Continuous
 62
     7
370
    25
100
AcDbCircle
 10
118.44
 20
171.56
 30
0.0
 40
9.0
  0
CIRCLE
  5
104
330
1F
100
AcDbEntity
  8
0
  6
Continuous
 62
     7
370
    25
100
AcDbCircle
 10
118.44
 20
171.56
 30
0.0
 40
10.79999999999998
  0
CIRCLE
  5
105
330
1F
100
AcDbEntity
  8
0
  6
Continuous
 62
     7
370
    25
100
AcDbCircle
 10
132.69
 20
171.56
 30
0.0
 40
1.5
  0
CIRCLE
  5
106
330
1F
100
AcDbEntity
  8
0
  6
Continuous
 62
     7
370
    25
100
AcDbCircle
 10
118.44
 20
185.81
 30
0.0
 40
1.5
  0
CIRCLE
  5
107
330
1F
100
AcDbEntity
  8
0
  6
Continuous
 62
     7
370
    25
100
AcDbCircle
 10
104.19
 20
171.56
 30
0.0
 40
1.5
  0
CIRCLE
  5
108
330
1F
100
AcDbEntity
  8
0
  6
Continuous
 62
     7
370
    25
100
AcDbCircle
 10
118.44
 20
157.31
 30
0.0
 40
1.499999999999972
  0
CIRCLE
  5
109
330
1F
100
AcDbEntity
  8
0
  6
Continuous
 62
     7
370
    25
100
AcDbCircle
 10
118.44
 20
171.56
 30
0.0
 40
16.0
  0
CIRCLE
  5
10A
330
1F
100
AcDbEntity
  8
0
  6
Continuous
 62
     7
370
    25
100
AcDbCircle
 10
118.44
 20
171.56
 30
0.0
 40
9.5
  0
CIRCLE
  5
10B
330
1F
100
AcDbEntity
  8
0
  6
Continuous
 62
     7
370
    25
100
AcDbCircle
 10
118.44
 20
171.56
 30
0.0
 40
18.00000000000003
  0
LINE
  5
10C
330
1F
100
AcDbEntity
  8
0
  6
Continuous
 62
     7
370
    25
100
AcDbLine
 10
150.94
 20
193.06
 30
0.0
 11
150.94
 21
150.06
 31
0.0
  0
LINE
  5
10D
330
1F
100
AcDbEntity
  8
0
  6
Continuous
 62
     7
370
    25
100
AcDbLine
 10
150.94
 20
150.06
 30
0.0
 11
149.94
 21
149.06
 31
0.0
  0
LINE
  5
10E
330
1F
100
AcDbEntity
  8
0
  6
Continuous
 62
     7
370
    25
100
AcDbLine
 10
149.94
 20
149.06
 30
0.0
 11
86.94
 21
149.06
 31
0.0
  0
LINE
  5
10F
330
1F
100
AcDbEntity
  8
0
  6
Continuous
 62
     7
370
    25
100
AcDbLine
 10
86.94
 20
194.06
 30
0.0
 11
149.94
 21
194.06
 31
0.0
  0
LINE
  5
110
330
1F
100
AcDbEntity
  8
0
  6
Continuous
 62
     7
370
    25
100
AcDbLine
 10
149.94
 20
194.06
 30
0.0
 11
150.94
 21
193.06
 31
0.0
  0
CIRCLE
  5
111
330
1F
100
AcDbEntity
  8
0
  6
Continuous
 62
     7
370
    25
100
AcDbCircle
 10
118.44
 20
171.56
 30
0.0
 40
18.69999999999996
  0
CIRCLE
  5
112
330
1F
100
AcDbEntity
  8
0
  6
Continuous
 62
     7
370
    25
100
AcDbCircle
 10
143.44
 20
156.56
 30
0.0
 40
3.999999999999972
  0
CIRCLE
  5
113
330
1F
100
AcDbEntity
  8
0
  6
Continuous
 62
     7
370
    25
100
AcDbCircle
 10
93.44
 20
186.56
 30
0.0
 40
4.0
  0
CIRCLE
  5
114
330
1F
100
AcDbEntity
  8
0
  6
Continuous
 62
     7
370
    25
100
AcDbCircle
 10
93.44
 20
156.56
 30
0.0
 40
3.999999999999986
  0
CIRCLE
  5
115
330
1F
100
AcDbEntity
  8
0
  6
Continuous
 62
     7
370
    25
100
AcDbCircle
 10
143.44
 20
186.56
 30
0.0
 40
4.0
  0
LINE
  5
116
330
1F
100
AcDbEntity
  8
0
  6
Continuous
 62
     7
370
    25
100
AcDbLine
 10
86.94
 20
149.06
 30
0.0
 11
85.94
 21
150.06
 31
0.0
  0
LINE
  5
117
330
1F
100
AcDbEntity
  8
0
  6
Continuous
 62
     7
370
    25
100
AcDbLine
 10
85.94
 20
193.06
 30
0.0
 11
86.94
 21
194.06
 31
0.0
  0
LINE
  5
118
330
1F
100
AcDbEntity
  8
0
  6
Continuous
 62
     7
370
    25
100
AcDbLine
 10
85.94
 20
150.06
 30
0.0
 11
85.94
 21
193.06
 31
0.0
  0
DIMENSION
  5
119
330
1F
100
AcDbEntity
  8
0
  6
Continuous
 62
     7
370
    18
100
AcDbDimension
  2
_D
 10
150.94
 20
216.06
 30
0.0
 11
118.44
 21
216.06
 31
0.0
 70
   160
  1
<>
 71
     2
 42
-1.0
  3
SLDDIMSTYLE0
100
AcDbAlignedDimension
 13
85.94
 23
193.06
 33
0.0
 14
150.94
 24
193.06
 34
0.0
100
AcDbRotatedDimension
  0
DIMENSION
  5
124
330
1F
100
AcDbEntity
  8
0
  6
Continuous
 62
     7
370
    18
100
AcDbDimension
  2
_D_1
 10
143.44
 20
210.06
 30
0.0
 11
118.44
 21
210.06
 31
0.0
 70
   160
  1
<>
 71
     2
 42
-1.0
  3
SLDDIMSTYLE0
100
AcDbAlignedDimension
 13
93.44
 23
193.06
 33
0.0
 14
143.44
 24
193.06
 34
0.0
100
AcDbRotatedDimension
  0
DIMENSION
  5
12E
330
1F
100
AcDbEntity
  8
0
  6
Continuous
 62
     7
370
    18
100
AcDbDimension
  2
_D_2
 10
75.94
 20
186.56
 30
0.0
 11
75.94
 21
171.56
 31
0.0
 70
   160
  1
<>
 71
     2
 42
-1.0
  3
SLDDIMSTYLE0
100
AcDbAlignedDimension
 13
86.94
 23
156.56
 33
0.0
 14
86.94
 24
186.56
 34
0.0
 50
90.0
100
AcDbRotatedDimension
  0
DIMENSION
  5
138
330
1F
100
AcDbEntity
  8
0
  6
Continuous
 62
     7
370
    18
100
AcDbDimension
  2
_D_3
 10
69.94
 20
149.06
 30
0.0
 11
69.94
 21
171.56
 31
0.0
 70
   160
  1
<>
 71
     2
 42
-1.0
  3
SLDDIMSTYLE0
100
AcDbAlignedDimension
 13
86.94
 23
194.06
 33
0.0
 14
86.94
 24
149.06
 34
0.0
 50
90.0
100
AcDbRotatedDimension
  0
DIMENSION
  5
142
330
1F
100
AcDbEntity
  8
0
  6
Continuous
 62
     7
370
    18
100
AcDbDimension
  2
_D_4
 10
140.6115728753
 20
183.7315728752
 30
0.0
 11
160.94001
 21
204.06001
 31
0.0
 70
   163
  1
<>
 71
     1
 42
-1.0
  3
SLDDIMSTYLE1
100
AcDbDiametricDimension
 15
146.2684271248
 25
189.3884271247
 35
0.0
 40
0.0
  0
DIMENSION
  5
14F
330
1F
100
AcDbEntity
  8
0
  6
Continuous
 62
     7
370
    18
100
AcDbDimension
  2
_D_5
 10
125.94
 20
204.06
 30
0.0
 11
118.44
 21
204.06
 31
0.0
 70
   160
  1
<>
 71
     2
 42
-1.0
  3
SLDDIMSTYLE2
100
AcDbAlignedDimension
 13
110.94
 23
175.56
 33
0.0
 14
125.94
 24
175.56
 34
0.0
100
AcDbRotatedDimension
  0
DIMENSION
  5
15C
330
1F
100
AcDbEntity
  8
0
  6
Continuous
 62
     7
370
    18
100
AcDbDimension
  2
_D_6
 10
115.2226641456
 20
174.7773358544
 30
0.0
 11
150.94001
 21
139.06001
 31
0.0
 70
   163
  1
M10
 71
     1
 42
-1.0
  3
SLDDIMSTYLE3
100
AcDbDiametricDimension
 15
121.6573358544
 25
168.3426641456
 35
0.0
 40
0.0
  0
INSERT
  5
170
330
1F
100
AcDbEntity
  8
0
  6
Continuous
 62
     7
370
     0
100
AcDbBlockReference
  2
SW_CENTERMARKSYMBOL_0
 10
93.44
 20
156.56
 30
0.0
  0
INSERT
  5
17C
330
1F
100
AcDbEntity
  8
0
  6
Continuous
 62
     7
370
     0
100
AcDbBlockReference
  2
SW_CENTERMARKSYMBOL_1
 10
118.44
 20
171.56
 30
0.0
  0
INSERT
  5
188
330
1F
100
AcDbEntity
  8
0
  6
Continuous
 62
     7
370
     0
100
AcDbBlockReference
  2
SW_CENTERMARKSYMBOL_2
 10
143.44
 20
156.56
 30
0.0
  0
INSERT
  5
194
330
1F
100
AcDbEntity
  8
0
  6
Continuous
 62
     7
370
     0
100
AcDbBlockReference
  2
SW_CENTERMARKSYMBOL_3
 10
143.44
 20
186.56
 30
0.0
  0
INSERT
  5
1A0
330
1F
100
AcDbEntity
  8
0
  6
Continuous
 62
     7
370
     0
100
AcDbBlockReference
  2
SW_CENTERMARKSYMBOL_4
 10
93.44
 20
186.56
 30
0.0
  0
INSERT
  5
1AC
330
1F
100
AcDbEntity
  8
0
  6
Continuous
 62
     7
370
     0
100
AcDbBlockReference
  2
SW_CENTERMARKSYMBOL_5
 10
104.19
 20
171.56
 30
0.0
  0
INSERT
  5
1B8
330
1F
100
AcDbEntity
  8
0
  6
Continuous
 62
     7
370
     0
100
AcDbBlockReference
  2
SW_CENTERMARKSYMBOL_6
 10
118.44
 20
185.81
 30
0.0
  0
INSERT
  5
1C4
330
1F
100
AcDbEntity
  8
0
  6
Continuous
 62
     7
370
     0
100
AcDbBlockReference
  2
SW_CENTERMARKSYMBOL_7
 10
132.69
 20
171.56
 30
0.0
  0
INSERT
  5
1D0
330
1F
100
AcDbEntity
  8
0
  6
Continuous
 62
     7
370
     0
100
AcDbBlockReference
  2
SW_CENTERMARKSYMBOL_8
 10
118.44
 20
157.31
 30
0.0
  0
LINE
  5
1D1
330
1F
100
AcDbEntity
  8
0
  6
Continuous
 62
     7
370
    25
100
AcDbLine
 10
366.44
 20
162.56
 30
0.0
 11
366.94
 21
163.06
 31
0.0
  0
LINE
  5
1D2
330
1F
100
AcDbEntity
  8
0
  6
Continuous
 62
     7
370
    25
100
AcDbLine
 10
366.94
 20
180.06
 30
0.0
 11
366.44
 21
180.56
 31
0.0
  0
LINE
  5
1D3
330
1F
100
AcDbEntity
  8
0
  6
Continuous
 62
     7
370
    25
100
AcDbLine
 10
365.74
 20
162.56
 30
0.0
 11
366.44
 21
162.56
 31
0.0
  0
LINE
  5
1D4
330
1F
100
AcDbEntity
  8
0
  6
Continuous
 62
     7
370
    25
100
AcDbLine
 10
366.44
 20
180.56
 30
0.0
 11
365.74
 21
180.56
 31
0.0
  0
LINE
  5
1D5
330
1F
100
AcDbEntity
  8
0
  6
Continuous
 62
     7
370
    25
100
AcDbLine
 10
366.94
 20
163.06
 30
0.0
 11
370.44
 21
163.06
 31
0.0
  0
LINE
  5
1D6
330
1F
100
AcDbEntity
  8
0
  6
Continuous
 62
     7
370
    25
100
AcDbLine
 10
370.94
 20
179.56
 30
0.0
 11
370.44
 21
180.06
 31
0.0
  0
LINE
  5
1D7
330
1F
100
AcDbEntity
  8
0
  6
Continuous
 62
     7
370
    25
100
AcDbLine
 10
370.44
 20
163.06
 30
0.0
 11
370.94
 21
163.56
 31
0.0
  0
LINE
  5
1D8
330
1F
100
AcDbEntity
  8
0
  6
Continuous
 62
     7
370
    25
100
AcDbLine
 10
370.44
 20
180.06
 30
0.0
 11
366.94
 21
180.06
 31
0.0
  0
LINE
  5
1D9
330
1F
100
AcDbEntity
  8
0
  6
Continuous
 62
     7
370
    25
100
AcDbLine
 10
363.94
 20
155.56
 30
0.0
 11
365.74
 21
155.56
 31
0.0
  0
LINE
  5
1DA
330
1F
100
AcDbEntity
  8
0
  6
Continuous
 62
     7
370
    25
100
AcDbLine
 10
365.74
 20
187.56
 30
0.0
 11
363.94
 21
187.56
 31
0.0
  0
LINE
  5
1DB
330
1F
100
AcDbEntity
  8
0
  6
Continuous
 62
     7
370
    25
100
AcDbLine
 10
268.74
 20
174.3027176304
 30
0.0
 11
268.74
 21
168.8172823696
 31
0.0
  0
LINE
  5
1DC
330
1F
100
AcDbEntity
  8
0
  6
Continuous
 62
     7
370
    25
100
AcDbLine
 10
366.94
 20
175.56
 30
0.0
 11
366.94
 21
167.56
 31
0.0
  0
LINE
  5
1DD
330
1F
100
AcDbEntity
  8
0
  6
Continuous
 62
     7
370
    25
100
AcDbLine
 10
366.94
 20
167.56
 30
0.0
 11
366.94
 21
163.06
 31
0.0
  0
LINE
  5
1DE
330
1F
100
AcDbEntity
  8
0
  6
Continuous
 62
     7
370
    25
100
AcDbLine
 10
366.94
 20
180.06
 30
0.0
 11
366.94
 21
175.56
 31
0.0
  0
LINE
  5
1DF
330
1F
100
AcDbEntity
  8
0
  6
Continuous
 62
     7
370
    25
100
AcDbLine
 10
366.44
 20
162.56
 30
0.0
 11
366.44
 21
180.56
 31
0.0
  0
LINE
  5
1E0
330
1F
100
AcDbEntity
  8
0
  6
Continuous
 62
     7
370
    25
100
AcDbLine
 10
370.44
 20
167.56
 30
0.0
 11
366.94
 21
167.56
 31
0.0
  0
LINE
  5
1E1
330
1F
100
AcDbEntity
  8
0
  6
Continuous
 62
     7
370
    25
100
AcDbLine
 10
370.44
 20
163.06
 30
0.0
 11
370.44
 21
167.56
 31
0.0
  0
LINE
  5
1E2
330
1F
100
AcDbEntity
  8
0
  6
Continuous
 62
     7
370
    25
100
AcDbLine
 10
370.44
 20
175.56
 30
0.0
 11
366.94
 21
175.56
 31
0.0
  0
LINE
  5
1E3
330
1F
100
AcDbEntity
  8
0
  6
Continuous
 62
     7
370
    25
100
AcDbLine
 10
370.44
 20
167.56
 30
0.0
 11
370.44
 21
175.56
 31
0.0
  0
LINE
  5
1E4
330
1F
100
AcDbEntity
  8
0
  6
Continuous
 62
     7
370
    25
100
AcDbLine
 10
370.94
 20
179.56
 30
0.0
 11
370.94
 21
175.4329833462
 31
0.0
  0
LINE
  5
1E5
330
1F
100
AcDbEntity
  8
0
  6
Continuous
 62
     7
370
    25
100
AcDbLine
 10
370.94
 20
175.4329833462
 30
0.0
 11
370.44
 21
175.56
 31
0.0
  0
LINE
  5
1E6
330
1F
100
AcDbEntity
  8
0
  6
Continuous
 62
     7
370
    25
100
AcDbLine
 10
370.44
 20
175.56
 30
0.0
 11
370.44
 21
180.06
 31
0.0
  0
LINE
  5
1E7
330
1F
100
AcDbEntity
  8
0
  6
Continuous
 62
     7
370
    25
100
AcDbLine
 10
370.94
 20
175.4329833462
 30
0.0
 11
370.94
 21
167.6870166538
 31
0.0
  0
LINE
  5
1E8
330
1F
100
AcDbEntity
  8
0
  6
Continuous
 62
     7
370
    25
100
AcDbLine
 10
370.94
 20
167.6870166538
 30
0.0
 11
370.44
 21
167.56
 31
0.0
  0
LINE
  5
1E9
330
1F
100
AcDbEntity
  8
0
  6
Continuous
 62
     7
370
    25
100
AcDbLine
 10
370.94
 20
167.6870166538
 30
0.0
 11
370.94
 21
163.56
 31
0.0
  0
LINE
  5
1EA
330
1F
100
AcDbEntity
  8
0
  6
Continuous
 62
     7
370
    25
100
AcDbLine
 10
365.74
 20
187.56
 30
0.0
 11
365.74
 21
155.56
 31
0.0
  0
SPLINE
  5
1EB
330
1F
100
AcDbEntity
  8
0
  6
Continuous
 62
     7
370
    25
100
AcDbSpline
210
0.0
220
0.0
230
1.0
 70
     8
 71
     3
 72
    15
 73
    11
 74
     0
 42
0.000000001
 43
0.00000001
 40
0.0
 40
0.0
 40
0.0
 40
0.0
 40
0.0811777917222691
 40
0.1741609194175745
 40
0.2793292471858165
 40
0.3985583947211355
 40
0.5289391273783224
 40
0.6735814606248355
 40
0.8295189063402759
 40
1.0
 40
1.0
 40
1.0
 40
1.0
 10
345.7479927884615
 20
155.6788902243537
 30
0.0
 10
345.7368203612165
 20
155.6823352089228
 30
0.0
 10
345.7128507488403
 20
155.6897261673019
 30
0.0
 10
345.6733987513455
 20
155.6977469519346
 30
0.0
 10
345.6282549590325
 20
155.7048406095666
 30
0.0
 10
345.5774273934898
 20
155.7099216909221
 30
0.0
 10
345.5209265715182
 20
155.7154130723948
 30
0.0
 10
345.458901975773
 20
155.7174624745243
 30
0.0
 10
345.3911416931534
 20
155.7199946794615
 30
0.0
 10
345.3441500531105
 20
155.7201666131406
 30
0.0
 10
345.3196073717949
 20
155.7202564102512
 30
0.0
  0
SPLINE
  5
1EC
330
1F
100
AcDbEntity
  8
0
  6
Continuous
 62
     7
370
    25
100
AcDbSpline
210
0.0
220
0.0
230
1.0
 70
     8
 71
     3
 72
    15
 73
    11
 74
     0
 42
0.000000001
 43
0.00000001
 40
0.0
 40
0.0
 40
0.0
 40
0.0
 40
0.135341708962396
 40
0.2643891898467266
 40
0.3893343764009333
 40
0.513373354805062
 40
0.6360144950932158
 40
0.755585561396344
 40
0.8757195242080135
 40
1.0
 40
1.0
 40
1.0
 40
1.0
 10
346.1707692307692
 20
155.0534895833281
 30
0.0
 10
346.1694711776828
 20
155.0900457216056
 30
0.0
 10
346.1669354390216
 20
155.1614579112197
 30
0.0
 10
346.1456848281653
 20
155.2649692467112
 30
0.0
 10
346.109273032663
 20
155.3606811182551
 30
0.0
 10
346.0603285600346
 20
155.4486617115794
 30
0.0
 10
345.9988452723096
 20
155.5267226181838
 30
0.0
 10
345.9255305033363
 20
155.592091959112
 30
0.0
 10
345.841692610808
 20
155.644681468739
 30
0.0
 10
345.7795773263766
 20
155.6673590633367
 30
0.0
 10
345.7479927884615
 20
155.6788902243537
 30
0.0
  0
SPLINE
  5
1ED
330
1F
100
AcDbEntity
  8
0
  6
Continuous
 62
     7
370
    25
100
AcDbSpline
210
0.0
220
0.0
230
1.0
 70
     8
 71
     3
 72
    23
 73
    19
 74
     0
 42
0.000000001
 43
0.00000001
 40
0.0
 40
0.0
 40
0.0
 40
0.0
 40
0.0618676503265346
 40
0.1191756542966322
 40
0.1727344041148048
 40
0.2220637830350018
 40
0.2677474554704878
 40
0.3102291023755158
 40
0.3489684023723239
 40
0.3842813307534957
 40
0.4529078629701409
 40
0.5231803193410787
 40
0.5963594469849797
 40
0.6744669917326109
 40
0.7552532212971647
 40
0.8356122278545294
 40
0.916961936950269
 40
1.0
 40
1.0
 40
1.0
 40
1.0
 10
345.4913822115385
 20
154.4189743589691
 30
0.0
 10
345.5133526626644
 20
154.4193538272835
 30
0.0
 10
345.5556743424812
 20
154.4200847970941
 30
0.0
 10
345.6169840585758
 20
154.4225632563565
 30
0.0
 10
345.6736836923913
 20
154.4279120297731
 30
0.0
 10
345.7257121003462
 20
154.4367991501387
 30
0.0
 10
345.7737021991804
 20
154.4460238356938
 30
0.0
 10
345.8170074698958
 20
154.4587227125881
 30
0.0
 10
345.8558321190774
 20
154.4732276283804
 30
0.0
 10
345.9012059403692
 20
154.4959774996551
 30
0.0
 10
345.9523786969203
 20
154.5313670597692
 30
0.0
 10
346.00667913856
 20
154.5839772004948
 30
0.0
 10
346.0548370721394
 20
154.6465529686773
 30
0.0
 10
346.0955365641917
 20
154.7185022738617
 30
0.0
 10
346.1286408065072
 20
154.7969245539249
 30
0.0
 10
346.1538097164338
 20
154.8794963407848
 30
0.0
 10
346.1677639159263
 20
154.965607487008
 30
0.0
 10
346.1697606233891
 20
155.0239956582114
 30
0.0
 10
346.1707692307692
 20
155.0534895833281
 30
0.0
  0
LINE
  5
1EE
330
1F
100
AcDbEntity
  8
0
  6
Continuous
 62
     7
370
    25
100
AcDbLine
 10
345.1835897436
 20
154.418974359
 30
0.0
 11
345.4913822115
 21
154.418974359
 31
0.0
  0
LINE
  5
1EF
330
1F
100
AcDbEntity
  8
0
  6
Continuous
 62
     7
370
    25
100
AcDbLine
 10
345.3196073718
 20
155.7202564103
 30
0.0
 11
345.1835897436
 21
155.7202564103
 31
0.0
  0
LINE
  5
1F0
330
1F
100
AcDbEntity
  8
0
  6
Continuous
 62
     7
370
    25
100
AcDbLine
 10
345.1835897436
 20
155.7202564103
 30
0.0
 11
345.1835897436
 21
154.418974359
 31
0.0
  0
LINE
  5
1F1
330
1F
100
AcDbEntity
  8
0
  6
Continuous
 62
     7
370
    25
100
AcDbLine
 10
350.565400641
 20
157.201025641
 30
0.0
 11
350.3887179487
 21
157.201025641
 31
0.0
  0
SPLINE
  5
1F2
330
1F
100
AcDbEntity
  8
0
  6
Continuous
 62
     7
370
    25
100
AcDbSpline
210
0.0
220
0.0
230
1.0
 70
     8
 71
     3
 72
    15
 73
    11
 74
     0
 42
0.000000001
 43
0.00000001
 40
0.0
 40
0.0
 40
0.0
 40
0.0
 40
0.0864464390087494
 40
0.182631208214546
 40
0.2892940623652296
 40
0.4085225127276346
 40
0.5387062634442238
 40
0.680150209943393
 40
0.8338825093754645
 40
1.0
 40
1.0
 40
1.0
 40
1.0
 10
351.340140224359
 20
157.1028685897383
 30
0.0
 10
351.319001774264
 20
157.110974437018
 30
0.0
 10
351.2743435937201
 20
157.1280992682921
 30
0.0
 10
351.2008693044846
 20
157.1468792732689
 30
0.0
 10
351.1182991484717
 20
157.163818276747
 30
0.0
 10
351.0260911816765
 20
157.1776426165145
 30
0.0
 10
350.9242867963939
 20
157.1878050049846
 30
0.0
 10
350.8132213230988
 20
157.1953942496062
 30
0.0
 10
350.6925848018592
 20
157.2004975711791
 30
0.0
 10
350.6088758182336
 20
157.2008451316725
 30
0.0
 10
350.5654006410256
 20
157.2010256410204
 30
0.0
  0
SPLINE
  5
1F3
330
1F
100
AcDbEntity
  8
0
  6
Continuous
 62
     7
370
    25
100
AcDbSpline
210
0.0
220
0.0
230
1.0
 70
     8
 71
     3
 72
    23
 73
    19
 74
     0
 42
0.000000001
 43
0.00000001
 40
0.0
 40
0.0
 40
0.0
 40
0.0
 40
0.0776386823447293
 40
0.15234219920122
 40
0.2242466699734409
 40
0.294029629155039
 40
0.3620177279961736
 40
0.4278238510853977
 40
0.4920918785675195
 40
0.5550080462174912
 40
0.6161401300551558
 40
0.6745823311927932
 40
0.7311828706079908
 40
0.786437993243298
 40
0.8401422221809889
 40
0.893721762082385
 40
0.9464351484793613
 40
1.0
 40
1.0
 40
1.0
 40
1.0
 10
352.0041025641026
 20
155.7665304487127
 30
0.0
 10
352.0036018704383
 20
155.8074457675221
 30
0.0
 10
352.0026194120603
 20
155.8877295830146
 30
0.0
 10
351.9937918805121
 20
156.0056254606891
 30
0.0
 10
351.9807423576776
 20
156.1189261697063
 30
0.0
 10
351.9620580631789
 20
156.227899717249
 30
0.0
 10
351.9366307383852
 20
156.3321899697797
 30
0.0
 10
351.9063567082185
 20
156.432101878998
 30
0.0
 10
351.8717728077359
 20
156.5278227931045
 30
0.0
 10
351.8302431662497
 20
156.6180675703812
 30
0.0
 10
351.7841216191459
 20
156.7024946267495
 30
0.0
 10
351.7345584172138
 20
156.7811255429212
 30
0.0
 10
351.6793530080816
 20
156.8520063336812
 30
0.0
 10
351.6208513094842
 20
156.9168725566081
 30
0.0
 10
351.5569401408416
 20
156.9741164142045
 30
0.0
 10
351.4892351740154
 20
157.0245179129378
 30
0.0
 10
351.4169030465715
 20
157.0680750734407
 30
0.0
 10
351.3658641339041
 20
157.091208970665
 30
0.0
 10
351.340140224359
 20
157.1028685897383
 30
0.0
  0
SPLINE
  5
1F4
330
1F
100
AcDbEntity
  8
0
  6
Continuous
 62
     7
370
    25
100
AcDbSpline
210
0.0
220
0.0
230
1.0
 70
     8
 71
     3
 72
    23
 73
    19
 74
     0
 42
0.000000001
 43
0.00000001
 40
0.0
 40
0.0
 40
0.0
 40
0.0
 40
0.0522749778365887
 40
0.1043530786992089
 40
0.156819891961525
 40
0.2099431137914906
 40
0.2644755953126753
 40
0.3208282923756423
 40
0.3789539340698332
 40
0.4397451001800132
 40
0.5027036265793436
 40
0.5670472307559866
 40
0.6330381619025753
 40
0.7012745216010323
 40
0.7722054622156441
 40
0.8454045585292117
 40
0.9211024468282533
 40
0.9999999999999999
 40
0.9999999999999999
 40
0.9999999999999999
 40
0.9999999999999999
 10
351.3983333333333
 20
154.5080168269178
 30
0.0
 10
351.4214357617
 20
154.519322473941
 30
0.0
 10
351.4675536105306
 20
154.5418911888861
 30
0.0
 10
351.5332814365279
 20
154.5826288416225
 30
0.0
 10
351.5940716313863
 20
154.6309415240533
 30
0.0
 10
351.652286613337
 20
154.6841451848408
 30
0.0
 10
351.7054258586181
 20
154.7450378596369
 30
0.0
 10
351.7550581847527
 20
154.8117829003328
 30
0.0
 10
351.801881651407
 20
154.8842840211632
 30
0.0
 10
351.8434702758294
 20
154.9635934811055
 30
0.0
 10
351.8812451407389
 20
155.0481117317022
 30
0.0
 10
351.9140862906168
 20
155.1373952933391
 30
0.0
 10
351.9425126726266
 20
155.2309214314965
 30
0.0
 10
351.9643593981129
 20
155.3295005696102
 30
0.0
 10
351.9829433998593
 20
155.4323272206019
 30
0.0
 10
351.9953901168664
 20
155.5398072888652
 30
0.0
 10
352.0021996689434
 20
155.6516908141385
 30
0.0
 10
352.0034595736255
 20
155.7277260032564
 30
0.0
 10
352.0041025641026
 20
155.7665304487127
 30
0.0
  0
SPLINE
  5
1F5
330
1F
100
AcDbEntity
  8
0
  6
Continuous
 62
     7
370
    25
100
AcDbSpline
210
0.0
220
0.0
230
1.0
 70
     8
 71
     3
 72
    15
 73
    11
 74
     0
 42
0.000000001
 43
0.00000001
 40
0.0
 40
0.0
 40
0.0
 40
0.0
 40
0.1710629808937487
 40
0.3287670589464656
 40
0.4722733003146478
 40
0.6036554934341385
 40
0.7212120838856598
 40
0.825997187762563
 40
0.9187939965021414
 40
0.9999999999999999
 40
0.9999999999999999
 40
0.9999999999999999
 40
0.9999999999999999
 10
350.67828125
 20
154.4189743589691
 30
0.0
 10
350.719884684947
 20
154.4192238848049
 30
0.0
 10
350.7998425979807
 20
154.4197034501367
 30
0.0
 10
350.914645620593
 20
154.4238607160763
 30
0.0
 10
351.0196350835048
 20
154.4307998178809
 30
0.0
 10
351.1146423810823
 20
154.4402392631978
 30
0.0
 10
351.1997409502684
 20
154.4530245534814
 30
0.0
 10
351.2750843889295
 20
154.4671747705802
 30
0.0
 10
351.3406827420565
 20
154.4849149316028
 30
0.0
 10
351.379989240856
 20
154.5006659343307
 30
0.0
 10
351.3983333333333
 20
154.5080168269178
 30
0.0
  0
LINE
  5
1F6
330
1F
100
AcDbEntity
  8
0
  6
Continuous
 62
     7
370
    25
100
AcDbLine
 10
350.3887179487
 20
154.418974359
 30
0.0
 11
350.67828125
 21
154.418974359
 31
0.0
  0
LINE
  5
1F7
330
1F
100
AcDbEntity
  8
0
  6
Continuous
 62
     7
370
    25
100
AcDbLine
 10
350.3887179487
 20
157.201025641
 30
0.0
 11
350.3887179487
 21
154.418974359
 31
0.0
  0
SPLINE
  5
1F8
330
1F
100
AcDbEntity
  8
0
  6
Continuous
 62
     7
370
    25
100
AcDbSpline
210
0.0
220
0.0
230
1.0
 70
     8
 71
     3
 72
    19
 73
    15
 74
     0
 42
0.000000001
 43
0.00000001
 40
0.0
 40
0.0
 40
0.0
 40
0.0
 40
0.1407973193284714
 40
0.2685745207268986
 40
0.3860163786158552
 40
0.4978928657190912
 40
0.553111828632988
 40
0.6093368809443934
 40
0.6657223092952947
 40
0.7255273010099001
 40
0.7872639783711586
 40
0.8537880951259607
 40
0.9244854171115947
 40
1.0
 40
1.0
 40
1.0
 40
1.0
 10
345.9464102564103
 20
156.6864022435845
 30
0.0
 10
345.9452543893291
 20
156.7243726909506
 30
0.0
 10
345.943049543038
 20
156.7968022993535
 30
0.0
 10
345.9213482995872
 20
156.8991800285604
 30
0.0
 10
345.8846306288452
 20
156.9886549787451
 30
0.0
 10
345.8418793218244
 20
157.0530249969523
 30
0.0
 10
345.8004506057644
 20
157.0968777293539
 30
0.0
 10
345.7646454047897
 20
157.1247867815876
 30
0.0
 10
345.7244160757226
 20
157.148189611668
 30
0.0
 10
345.6805716370569
 20
157.1678786031266
 30
0.0
 10
345.6319118771594
 20
157.1823358771827
 30
0.0
 10
345.5794847649079
 20
157.193789938428
 30
0.0
 10
345.5223732276617
 20
157.1998530594546
 30
0.0
 10
345.4829811727487
 20
157.2006262886077
 30
0.0
 10
345.4626362179487
 20
157.2010256410204
 30
0.0
  0
SPLINE
  5
1F9
330
1F
100
AcDbEntity
  8
0
  6
Continuous
 62
     7
370
    25
100
AcDbSpline
210
0.0
220
0.0
230
1.0
 70
     8
 71
     3
 72
    19
 73
    15
 74
     0
 42
0.000000001
 43
0.00000001
 40
0.0
 40
0.0
 40
0.0
 40
0.0
 40
0.1168888338294059
 40
0.2183980836731778
 40
0.3044144419778642
 40
0.3777099914535653
 40
0.4456173932655686
 40
0.5153589234344441
 40
0.588246137981007
 40
0.6655634051706147
 40
0.7462255190539145
 40
0.8288621255032614
 40
0.91246410435483
 40
1.0
 40
1.0
 40
1.0
 40
1.0
 10
345.3210096153846
 20
156.0792307692255
 30
0.0
 10
345.3600688181571
 20
156.0799571339599
 30
0.0
 10
345.4330480305919
 20
156.0813142923885
 30
0.0
 10
345.5343309543331
 20
156.0930723561881
 30
0.0
 10
345.6190821761125
 20
156.1144766259961
 30
0.0
 10
345.6893741646724
 20
156.1442386943302
 30
0.0
 10
345.7477488445915
 20
156.1845941965302
 30
0.0
 10
345.797514849068
 20
156.2346625212287
 30
0.0
 10
345.8423962012403
 20
156.2931950111419
 30
0.0
 10
345.8787195563509
 20
156.3615321458871
 30
0.0
 10
345.9089838649215
 20
156.4361867452611
 30
0.0
 10
345.9301976740335
 20
156.5160608888036
 30
0.0
 10
345.9443878185369
 20
156.5998951080562
 30
0.0
 10
345.9457258580248
 20
156.6571279975564
 30
0.0
 10
345.9464102564103
 20
156.6864022435845
 30
0.0
  0
LINE
  5
1FA
330
1F
100
AcDbEntity
  8
0
  6
Continuous
 62
     7
370
    25
100
AcDbLine
 10
345.1835897436
 20
156.0792307692
 30
0.0
 11
345.3210096154
 21
156.0792307692
 31
0.0
  0
LINE
  5
1FB
330
1F
100
AcDbEntity
  8
0
  6
Continuous
 62
     7
370
    25
100
AcDbLine
 10
345.1835897436
 20
157.201025641
 30
0.0
 11
345.1835897436
 21
156.0792307692
 31
0.0
  0
LINE
  5
1FC
330
1F
100
AcDbEntity
  8
0
  6
Continuous
 62
     7
370
    25
100
AcDbLine
 10
345.4626362179
 20
157.201025641
 30
0.0
 11
345.1835897436
 21
157.201025641
 31
0.0
  0
SPLINE
  5
1FD
330
1F
100
AcDbEntity
  8
0
  6
Continuous
 62
     7
370
    25
100
AcDbSpline
210
0.0
220
0.0
230
1.0
 70
     8
 71
     3
 72
    15
 73
    11
 74
     0
 42
0.000000001
 43
0.00000001
 40
0.0
 40
0.0
 40
0.0
 40
0.0
 40
0.1110987892720663
 40
0.2201762067780376
 40
0.3353272397377493
 40
0.4596588397167821
 40
0.5920348788047358
 40
0.7225486786876505
 40
0.8583762763913008
 40
0.9999999999999999
 40
0.9999999999999999
 40
0.9999999999999999
 40
0.9999999999999999
 10
363.491282051282
 20
154.015128205123
 30
0.0
 10
363.476162771137
 20
154.0162042515129
 30
0.0
 10
363.446199296527
 20
154.0183367663135
 30
0.0
 10
363.4034724291093
 20
154.0358258841613
 30
0.0
 10
363.36429987598
 20
154.0628987121113
 30
0.0
 10
363.3302374511934
 20
154.1006460931991
 30
0.0
 10
363.302182496293
 20
154.1453259121735
 30
0.0
 10
363.281273165511
 20
154.1955025612639
 30
0.0
 10
363.2694284672453
 20
154.2499218526286
 30
0.0
 10
363.2677697575136
 20
154.2875749997308
 30
0.0
 10
363.2669230769231
 20
154.3067948717896
 30
0.0
  0
SPLINE
  5
1FE
330
1F
100
AcDbEntity
  8
0
  6
Continuous
 62
     7
370
    25
100
AcDbSpline
210
0.0
220
0.0
230
1.0
 70
     8
 71
     3
 72
    15
 73
    11
 74
     0
 42
0.000000001
 43
0.00000001
 40
0.0
 40
0.0
 40
0.0
 40
0.0
 40
0.1417291731782861
 40
0.277657904797575
 40
0.4089383081360704
 40
0.5414129111933207
 40
0.6658370854485398
 40
0.7796598553897511
 40
0.888818489279776
 40
1.0
 40
1.0
 40
1.0
 40
1.0
 10
363.715641025641
 20
154.3067948717896
 30
0.0
 10
363.7147743529275
 20
154.2875836237908
 30
0.0
 10
363.7130764771522
 20
154.2499473718584
 30
0.0
 10
363.7014936964814
 20
154.1953174888233
 30
0.0
 10
363.6794980369298
 20
154.1455075803324
 30
0.0
 10
363.651706625253
 20
154.1005863366801
 30
0.0
 10
363.6175963974496
 20
154.0631683024494
 30
0.0
 10
363.5790001817958
 20
154.0356276915648
 30
0.0
 10
363.5363425856588
 20
154.0183680098225
 30
0.0
 10
363.5063938794396
 20
154.0162147295631
 30
0.0
 10
363.491282051282
 20
154.015128205123
 30
0.0
  0
SPLINE
  5
1FF
330
1F
100
AcDbEntity
  8
0
  6
Continuous
 62
     7
370
    25
100
AcDbSpline
210
0.0
220
0.0
230
1.0
 70
     8
 71
     3
 72
    15
 73
    11
 74
     0
 42
0.000000001
 43
0.00000001
 40
0.0
 40
0.0
 40
0.0
 40
0.0
 40
0.1110294394364602
 40
0.2194253948582975
 40
0.3330924808675819
 40
0.4573464708557617
 40
0.5881871126129826
 40
0.719287953906132
 40
0.8550307656131719
 40
1.0
 40
1.0
 40
1.0
 40
1.0
 10
363.491282051282
 20
154.5984615384563
 30
0.0
 10
363.5063678859154
 20
154.5973066387434
 30
0.0
 10
363.5361817374308
 20
154.595024232142
 30
0.0
 10
363.579152969815
 20
154.5788462583544
 30
0.0
 10
363.6175931575773
 20
154.551066754313
 30
0.0
 10
363.6514798300536
 20
154.5138086050443
 30
0.0
 10
363.679700697324
 20
154.4693760843125
 30
0.0
 10
363.7014584655238
 20
154.4196542746723
 30
0.0
 10
363.7131886760334
 20
154.3645908664738
 30
0.0
 10
363.7148058579666
 20
154.3264777694978
 30
0.0
 10
363.715641025641
 20
154.3067948717896
 30
0.0
  0
SPLINE
  5
200
330
1F
100
AcDbEntity
  8
0
  6
Continuous
 62
     7
370
    25
100
AcDbSpline
210
0.0
220
0.0
230
1.0
 70
     8
 71
     3
 72
    15
 73
    11
 74
     0
 42
0.000000001
 43
0.00000001
 40
0.0
 40
0.0
 40
0.0
 40
0.0
 40
0.1448615215605648
 40
0.2805034757169959
 40
0.4108388947319349
 40
0.5415823212739871
 40
0.6657439899603901
 40
0.780737639247071
 40
0.8890530559617583
 40
1.0
 40
1.0
 40
1.0
 40
1.0
 10
363.2669230769231
 20
154.3067948717896
 30
0.0
 10
363.2677375160886
 20
154.3264867108929
 30
0.0
 10
363.2693145602495
 20
154.3646171215927
 30
0.0
 10
363.2813084428053
 20
154.4194691925956
 30
0.0
 10
363.3019832853465
 20
154.469556152993
 30
0.0
 10
363.3304637204861
 20
154.5137493589178
 30
0.0
 10
363.3643028031926
 20
154.5513363479118
 30
0.0
 10
363.403317933142
 20
154.5786519820278
 30
0.0
 10
363.4463600634584
 20
154.5950557402459
 30
0.0
 10
363.4761887235144
 20
154.5973172251436
 30
0.0
 10
363.491282051282
 20
154.5984615384563
 30
0.0
  0
SPLINE
  5
201
330
1F
100
AcDbEntity
  8
0
  6
Continuous
 62
     7
370
    25
100
AcDbSpline
210
0.0
220
0.0
230
1.0
 70
     8
 71
     3
 72
    15
 73
    11
 74
     0
 42
0.000000001
 43
0.00000001
 40
0.0
 40
0.0
 40
0.0
 40
0.0
 40
0.1110987892720662
 40
0.220176206778038
 40
0.3353272397377496
 40
0.4596588397167826
 40
0.5920348788047363
 40
0.7225486786876509
 40
0.8583762763913009
 40
1.0
 40
1.0
 40
1.0
 40
1.0
 10
360.1258974358975
 20
154.015128205123
 30
0.0
 10
360.1107781557524
 20
154.0162042515129
 30
0.0
 10
360.0808146811424
 20
154.0183367663135
 30
0.0
 10
360.0380878137247
 20
154.0358258841613
 30
0.0
 10
359.9989152605954
 20
154.0628987121113
 30
0.0
 10
359.9648528358088
 20
154.1006460931991
 30
0.0
 10
359.9367978809083
 20
154.1453259121735
 30
0.0
 10
359.9158885501264
 20
154.1955025612639
 30
0.0
 10
359.9040438518607
 20
154.2499218526286
 30
0.0
 10
359.902385142129
 20
154.2875749997308
 30
0.0
 10
359.9015384615385
 20
154.3067948717896
 30
0.0
  0
SPLINE
  5
202
330
1F
100
AcDbEntity
  8
0
  6
Continuous
 62
     7
370
    25
100
AcDbSpline
210
0.0
220
0.0
230
1.0
 70
     8
 71
     3
 72
    15
 73
    11
 74
     0
 42
0.000000001
 43
0.00000001
 40
0.0
 40
0.0
 40
0.0
 40
0.0
 40
0.1417291731782861
 40
0.2776579047975748
 40
0.4089383081360703
 40
0.5414129111933207
 40
0.6658370854485398
 40
0.7796598553897511
 40
0.8888184892797762
 40
1.0
 40
1.0
 40
1.0
 40
1.0
 10
360.3502564102564
 20
154.3067948717896
 30
0.0
 10
360.3493897375429
 20
154.2875836237908
 30
0.0
 10
360.3476918617675
 20
154.2499473718584
 30
0.0
 10
360.3361090810968
 20
154.1953174888233
 30
0.0
 10
360.3141134215452
 20
154.1455075803324
 30
0.0
 10
360.2863220098683
 20
154.1005863366801
 30
0.0
 10
360.2522117820649
 20
154.0631683024494
 30
0.0
 10
360.2136155664112
 20
154.0356276915648
 30
0.0
 10
360.1709579702742
 20
154.0183680098225
 30
0.0
 10
360.141009264055
 20
154.0162147295631
 30
0.0
 10
360.1258974358975
 20
154.015128205123
 30
0.0
  0
SPLINE
  5
203
330
1F
100
AcDbEntity
  8
0
  6
Continuous
 62
     7
370
    25
100
AcDbSpline
210
0.0
220
0.0
230
1.0
 70
     8
 71
     3
 72
    15
 73
    11
 74
     0
 42
0.000000001
 43
0.00000001
 40
0.0
 40
0.0
 40
0.0
 40
0.0
 40
0.1110294394364599
 40
0.2194253948582975
 40
0.3330924808675818
 40
0.4573464708557616
 40
0.5881871126129826
 40
0.7192879539061321
 40
0.855030765613172
 40
1.0
 40
1.0
 40
1.0
 40
1.0
 10
360.1258974358975
 20
154.5984615384563
 30
0.0
 10
360.1409832705308
 20
154.5973066387434
 30
0.0
 10
360.1707971220461
 20
154.595024232142
 30
0.0
 10
360.2137683544303
 20
154.5788462583544
 30
0.0
 10
360.2522085421928
 20
154.551066754313
 30
0.0
 10
360.286095214669
 20
154.5138086050443
 30
0.0
 10
360.3143160819394
 20
154.4693760843125
 30
0.0
 10
360.3360738501391
 20
154.4196542746723
 30
0.0
 10
360.3478040606488
 20
154.3645908664738
 30
0.0
 10
360.349421242582
 20
154.3264777694978
 30
0.0
 10
360.3502564102564
 20
154.3067948717896
 30
0.0
  0
SPLINE
  5
204
330
1F
100
AcDbEntity
  8
0
  6
Continuous
 62
     7
370
    25
100
AcDbSpline
210
0.0
220
0.0
230
1.0
 70
     8
 71
     3
 72
    15
 73
    11
 74
     0
 42
0.000000001
 43
0.00000001
 40
0.0
 40
0.0
 40
0.0
 40
0.0
 40
0.1448615215605646
 40
0.2805034757169955
 40
0.4108388947319342
 40
0.5415823212739864
 40
0.6657439899603897
 40
0.7807376392470705
 40
0.8890530559617583
 40
0.9999999999999999
 40
0.9999999999999999
 40
0.9999999999999999
 40
0.9999999999999999
 10
359.9015384615385
 20
154.3067948717896
 30
0.0
 10
359.902352900704
 20
154.3264867108929
 30
0.0
 10
359.9039299448648
 20
154.3646171215927
 30
0.0
 10
359.9159238274207
 20
154.4194691925956
 30
0.0
 10
359.9365986699619
 20
154.469556152993
 30
0.0
 10
359.9650791051014
 20
154.5137493589178
 30
0.0
 10
359.998918187808
 20
154.5513363479118
 30
0.0
 10
360.0379333177574
 20
154.5786519820278
 30
0.0
 10
360.0809754480738
 20
154.5950557402459
 30
0.0
 10
360.1108041081298
 20
154.5973172251436
 30
0.0
 10
360.1258974358975
 20
154.5984615384563
 30
0.0
  0
SPLINE
  5
205
330
1F
100
AcDbEntity
  8
0
  6
Continuous
 62
     7
370
    25
100
AcDbSpline
210
0.0
220
0.0
230
1.0
 70
     8
 71
     3
 72
    15
 73
    11
 74
     0
 42
0.000000001
 43
0.00000001
 40
0.0
 40
0.0
 40
0.0
 40
0.0
 40
0.1110987892720653
 40
0.2201762067780362
 40
0.3353272397377488
 40
0.4596588397167819
 40
0.5920348788047357
 40
0.7225486786876505
 40
0.8583762763913007
 40
1.0
 40
1.0
 40
1.0
 40
1.0
 10
358.0617948717949
 20
154.015128205123
 30
0.0
 10
358.0466755916498
 20
154.0162042515129
 30
0.0
 10
358.0167121170399
 20
154.0183367663135
 30
0.0
 10
357.9739852496221
 20
154.0358258841613
 30
0.0
 10
357.9348126964928
 20
154.0628987121113
 30
0.0
 10
357.9007502717063
 20
154.1006460931991
 30
0.0
 10
357.8726953168058
 20
154.1453259121735
 30
0.0
 10
357.8517859860239
 20
154.1955025612639
 30
0.0
 10
357.8399412877581
 20
154.2499218526286
 30
0.0
 10
357.8382825780265
 20
154.2875749997308
 30
0.0
 10
357.8374358974359
 20
154.3067948717896
 30
0.0
  0
SPLINE
  5
206
330
1F
100
AcDbEntity
  8
0
  6
Continuous
 62
     7
370
    25
100
AcDbSpline
210
0.0
220
0.0
230
1.0
 70
     8
 71
     3
 72
    15
 73
    11
 74
     0
 42
0.000000001
 43
0.00000001
 40
0.0
 40
0.0
 40
0.0
 40
0.0
 40
0.1417291731782859
 40
0.2776579047975745
 40
0.4089383081360703
 40
0.5414129111933195
 40
0.6658370854485384
 40
0.7796598553897514
 40
0.8888184892797754
 40
1.0
 40
1.0
 40
1.0
 40
1.0
 10
358.2861538461539
 20
154.3067948717896
 30
0.0
 10
358.2852871734403
 20
154.2875836237908
 30
0.0
 10
358.283589297665
 20
154.2499473718584
 30
0.0
 10
358.2720065169942
 20
154.1953174888233
 30
0.0
 10
358.2500108574427
 20
154.1455075803324
 30
0.0
 10
358.2222194457657
 20
154.1005863366801
 30
0.0
 10
358.1881092179623
 20
154.0631683024494
 30
0.0
 10
358.1495130023087
 20
154.0356276915648
 30
0.0
 10
358.1068554061716
 20
154.0183680098225
 30
0.0
 10
358.0769066999525
 20
154.0162147295631
 30
0.0
 10
358.0617948717949
 20
154.015128205123
 30
0.0
  0
SPLINE
  5
207
330
1F
100
AcDbEntity
  8
0
  6
Continuous
 62
     7
370
    25
100
AcDbSpline
210
0.0
220
0.0
230
1.0
 70
     8
 71
     3
 72
    15
 73
    11
 74
     0
 42
0.000000001
 43
0.00000001
 40
0.0
 40
0.0
 40
0.0
 40
0.0
 40
0.1110294394364609
 40
0.2194253948582973
 40
0.3330924808675833
 40
0.457346470855763
 40
0.5881871126129827
 40
0.7192879539061325
 40
0.8550307656131723
 40
1.0
 40
1.0
 40
1.0
 40
1.0
 10
358.0617948717949
 20
154.5984615384563
 30
0.0
 10
358.0768807064283
 20
154.5973066387434
 30
0.0
 10
358.1066945579436
 20
154.595024232142
 30
0.0
 10
358.1496657903277
 20
154.5788462583544
 30
0.0
 10
358.1881059780902
 20
154.551066754313
 30
0.0
 10
358.2219926505664
 20
154.5138086050443
 30
0.0
 10
358.2502135178368
 20
154.4693760843125
 30
0.0
 10
358.2719712860366
 20
154.4196542746723
 30
0.0
 10
358.2837014965462
 20
154.3645908664738
 30
0.0
 10
358.2853186784794
 20
154.3264777694978
 30
0.0
 10
358.2861538461539
 20
154.3067948717896
 30
0.0
  0
SPLINE
  5
208
330
1F
100
AcDbEntity
  8
0
  6
Continuous
 62
     7
370
    25
100
AcDbSpline
210
0.0
220
0.0
230
1.0
 70
     8
 71
     3
 72
    15
 73
    11
 74
     0
 42
0.000000001
 43
0.00000001
 40
0.0
 40
0.0
 40
0.0
 40
0.0
 40
0.1448615215605648
 40
0.2805034757169959
 40
0.4108388947319348
 40
0.5415823212739871
 40
0.6657439899603906
 40
0.7807376392470724
 40
0.8890530559617593
 40
1.0
 40
1.0
 40
1.0
 40
1.0
 10
357.8374358974359
 20
154.3067948717896
 30
0.0
 10
357.8382503366015
 20
154.3264867108929
 30
0.0
 10
357.8398273807623
 20
154.3646171215927
 30
0.0
 10
357.8518212633181
 20
154.4194691925956
 30
0.0
 10
357.8724961058592
 20
154.469556152993
 30
0.0
 10
357.9009765409989
 20
154.5137493589178
 30
0.0
 10
357.9348156237054
 20
154.5513363479118
 30
0.0
 10
357.9738307536549
 20
154.5786519820278
 30
0.0
 10
358.0168728839712
 20
154.5950557402459
 30
0.0
 10
358.0467015440272
 20
154.5973172251436
 30
0.0
 10
358.0617948717949
 20
154.5984615384563
 30
0.0
  0
LINE
  5
209
330
1F
100
AcDbEntity
  8
0
  6
Continuous
 62
     7
370
    25
100
AcDbLine
 10
352.6323076923
 20
154.06
 30
0.0
 11
353.7541025641
 21
157.56
 31
0.0
  0
LINE
  5
20A
330
1F
100
AcDbEntity
  8
0
  6
Continuous
 62
     7
370
    25
100
AcDbLine
 10
352.9253766026
 20
154.06
 30
0.0
 11
352.6323076923
 21
154.06
 31
0.0
  0
LINE
  5
20B
330
1F
100
AcDbEntity
  8
0
  6
Continuous
 62
     7
370
    25
100
AcDbLine
 10
353.2850520833
 20
155.1817948718
 30
0.0
 11
352.9253766026
 21
154.06
 31
0.0
  0
LINE
  5
20C
330
1F
100
AcDbEntity
  8
0
  6
Continuous
 62
     7
370
    25
100
AcDbLine
 10
354.2680248397
 20
155.1817948718
 30
0.0
 11
353.2850520833
 21
155.1817948718
 31
0.0
  0
LINE
  5
20D
330
1F
100
AcDbEntity
  8
0
  6
Continuous
 62
     7
370
    25
100
AcDbLine
 10
354.6277003205
 20
154.06
 30
0.0
 11
354.2680248397
 21
155.1817948718
 31
0.0
  0
LINE
  5
20E
330
1F
100
AcDbEntity
  8
0
  6
Continuous
 62
     7
370
    25
100
AcDbLine
 10
354.9207692308
 20
154.06
 30
0.0
 11
354.6277003205
 21
154.06
 31
0.0
  0
LINE
  5
20F
330
1F
100
AcDbEntity
  8
0
  6
Continuous
 62
     7
370
    25
100
AcDbLine
 10
353.798974359
 20
157.56
 30
0.0
 11
354.9207692308
 21
154.06
 31
0.0
  0
LINE
  5
210
330
1F
100
AcDbEntity
  8
0
  6
Continuous
 62
     7
370
    25
100
AcDbLine
 10
353.7541025641
 20
157.56
 30
0.0
 11
353.798974359
 21
157.56
 31
0.0
  0
SPLINE
  5
211
330
1F
100
AcDbEntity
  8
0
  6
Continuous
 62
     7
370
    25
100
AcDbSpline
210
0.0
220
0.0
230
1.0
 70
     8
 71
     3
 72
    23
 73
    19
 74
     0
 42
0.000000001
 43
0.00000001
 40
0.0
 40
0.0
 40
0.0
 40
0.0
 40
0.0556061347998012
 40
0.1095440347130021
 40
0.1631738353847434
 40
0.2171967665752977
 40
0.2725174574932425
 40
0.3299792775805777
 40
0.3905308701382926
 40
0.4542159673549056
 40
0.5197392905612773
 40
0.5850294847365615
 40
0.6509588001735293
 40
0.7173801125116978
 40
0.7851694308456321
 40
0.8545496318961588
 40
0.9260432781966019
 40
1.0
 40
1.0
 40
1.0
 40
1.0
 10
348.239078525641
 20
153.9702564102512
 30
0.0
 10
348.1924445066491
 20
153.9717874393455
 30
0.0
 10
348.1005755318742
 20
153.9748035652614
 30
0.0
 10
347.965919899577
 20
154.0013814241776
 30
0.0
 10
347.8366125991369
 20
154.0425103848143
 30
0.0
 10
347.7129677542481
 20
154.1014746144555
 30
0.0
 10
347.5950912577902
 20
154.1772270582812
 30
0.0
 10
347.4831338106932
 20
154.2702204123184
 30
0.0
 10
347.3764587960429
 20
154.3792205023452
 30
0.0
 10
347.2773053055707
 20
154.5037925655283
 30
0.0
 10
347.1860737548303
 20
154.6390613411176
 30
0.0
 10
347.106573311347
 20
154.7837160734798
 30
0.0
 10
347.0391126999476
 20
154.9351918891194
 30
0.0
 10
346.9847047685525
 20
155.0939842508985
 30
0.0
 10
346.9404965817115
 20
155.2589498067823
 30
0.0
 10
346.9111531365674
 20
155.4314908952488
 30
0.0
 10
346.8923024963279
 20
155.6106951965692
 30
0.0
 10
346.8899262113611
 20
155.7325938632218
 30
0.0
 10
346.888717948718
 20
155.7945753205076
 30
0.0
  0
SPLINE
  5
212
330
1F
100
AcDbEntity
  8
0
  6
Continuous
 62
     7
370
    25
100
AcDbSpline
210
0.0
220
0.0
230
1.0
 70
     8
 71
     3
 72
    23
 73
    19
 74
     0
 42
0.000000001
 43
0.00000001
 40
0.0
 40
0.0
 40
0.0
 40
0.0
 40
0.0748233216744617
 40
0.1471867031241484
 40
0.2171588760535919
 40
0.2854610254506537
 40
0.3525415603193199
 40
0.418394835932797
 40
0.4839564220904021
 40
0.5494938387291569
 40
0.6131851301130821
 40
0.6731483518900987
 40
0.7303835553561681
 40
0.7852872928358191
 40
0.8390006623076315
 40
0.8919240756005294
 40
0.9454103536487465
 40
1.0
 40
1.0
 40
1.0
 40
1.0
 10
349.5810256410257
 20
155.8114022435845
 30
0.0
 10
349.5798059309871
 20
155.7484893167518
 30
0.0
 10
349.5774066108911
 20
155.6247318294182
 30
0.0
 10
349.558731871738
 20
155.4429226127479
 30
0.0
 10
349.5289387519394
 20
155.2682293298806
 30
0.0
 10
349.4861803556
 20
155.1007443528468
 30
0.0
 10
349.4305192994692
 20
154.940804249348
 30
0.0
 10
349.3638956039383
 20
154.7876170268978
 30
0.0
 10
349.2845212322002
 20
154.6420284224783
 30
0.0
 10
349.1931631740814
 20
154.5058967412364
 30
0.0
 10
349.0942045337115
 20
154.3811167810963
 30
0.0
 10
348.9884825168423
 20
154.271487805022
 30
0.0
 10
348.8777092782009
 20
154.177867101731
 30
0.0
 10
348.7600934988849
 20
154.1023614328856
 30
0.0
 10
348.6377317361359
 20
154.0425041921253
 30
0.0
 10
348.5092238853285
 20
154.0013114977645
 30
0.0
 10
348.3759440173842
 20
153.9749032379535
 30
0.0
 10
348.2850098112688
 20
153.9718158593697
 30
0.0
 10
348.239078525641
 20
153.9702564102512
 30
0.0
  0
SPLINE
  5
213
330
1F
100
AcDbEntity
  8
0
  6
Continuous
 62
     7
370
    25
100
AcDbSpline
210
0.0
220
0.0
230
1.0
 70
     8
 71
     3
 72
    31
 73
    27
 74
     0
 42
0.000000001
 43
0.00000001
 40
0.0
 40
0.0
 40
0.0
 40
0.0
 40
0.049491562931304
 40
0.0982509489965124
 40
0.1463843248802429
 40
0.1940020446377892
 40
0.2408879895764072
 40
0.2875509225022552
 40
0.3339664723184228
 40
0.380167611190388
 40
0.425721158530485
 40
0.4698566493541775
 40
0.5127157973138133
 40
0.5541933274524001
 40
0.5950051157609343
 40
0.6349877392839055
 40
0.674496005560565
 40
0.7135409743900123
 40
0.7519021604505733
 40
0.7888515717381659
 40
0.8249076986969841
 40
0.8604240328041166
 40
0.8951483267823925
 40
0.9298815204324944
 40
0.9649479230346695
 40
1.0
 40
1.0
 40
1.0
 40
1.0
 10
346.888717948718
 20
155.7945753205076
 30
0.0
 10
346.8892471951327
 20
155.83618984639
 30
0.0
 10
346.8902978583049
 20
155.9188032539655
 30
0.0
 10
346.8990077071614
 20
156.0416314084528
 30
0.0
 10
346.9128532191639
 20
156.1623844948344
 30
0.0
 10
346.9327426380304
 20
156.280681311578
 30
0.0
 10
346.9568106920796
 20
156.3969680466766
 30
0.0
 10
346.9882994880978
 20
156.5104013117989
 30
0.0
 10
347.0233447437848
 20
156.6222011793701
 30
0.0
 10
347.0660517688034
 20
156.7302935674828
 30
0.0
 10
347.1112723361065
 20
156.8352746778664
 30
0.0
 10
347.1630156189224
 20
156.9340704810144
 30
0.0
 10
347.2174418833469
 20
157.0274043477378
 30
0.0
 10
347.2757412132114
 20
157.1151086351794
 30
0.0
 10
347.3390641738389
 20
157.1961911906263
 30
0.0
 10
347.4057252910031
 20
157.2723308335646
 30
0.0
 10
347.4764694295674
 20
157.3426833907656
 30
0.0
 10
347.5516255425813
 20
157.4061472166761
 30
0.0
 10
347.6287087486016
 20
157.4637791142641
 30
0.0
 10
347.7085900016792
 20
157.5128066272787
 30
0.0
 10
347.7893370654714
 20
157.555497292298
 30
0.0
 10
347.8720677257381
 20
157.5895960543021
 30
0.0
 10
347.9561582185443
 20
157.6168163230189
 30
0.0
 10
348.0421482842482
 20
157.6353376444725
 30
0.0
 10
348.1295554461998
 20
157.6480950765739
 30
0.0
 10
348.188552414411
 20
157.6491941602001
 30
0.0
 10
348.2180448717949
 20
157.6497435897384
 30
0.0
  0
SPLINE
  5
214
330
1F
100
AcDbEntity
  8
0
  6
Continuous
 62
     7
370
    25
100
AcDbSpline
210
0.0
220
0.0
230
1.0
 70
     8
 71
     3
 72
    23
 73
    19
 74
     0
 42
0.000000001
 43
0.00000001
 40
0.0
 40
0.0
 40
0.0
 40
0.0
 40
0.0556061347998012
 40
0.1095440347130021
 40
0.1631738353847433
 40
0.2171967665752977
 40
0.2725174574932424
 40
0.3299792775805777
 40
0.3905308701382925
 40
0.4542159673549055
 40
0.5197392905612772
 40
0.585029484736562
 40
0.6509588001735294
 40
0.7173801125116965
 40
0.7851694308456322
 40
0.854549631896159
 40
0.9260432781966019
 40
1.0
 40
1.0
 40
1.0
 40
1.0
 10
343.0339503205128
 20
153.9702564102512
 30
0.0
 10
342.9873163015209
 20
153.9717874393455
 30
0.0
 10
342.895447326746
 20
153.9748035652614
 30
0.0
 10
342.7607916944488
 20
154.0013814241776
 30
0.0
 10
342.6314843940086
 20
154.0425103848143
 30
0.0
 10
342.5078395491199
 20
154.1014746144555
 30
0.0
 10
342.389963052662
 20
154.1772270582812
 30
0.0
 10
342.278005605565
 20
154.2702204123184
 30
0.0
 10
342.1713305909146
 20
154.3792205023452
 30
0.0
 10
342.0721771004424
 20
154.5037925655283
 30
0.0
 10
341.9809455497021
 20
154.6390613411176
 30
0.0
 10
341.9014451062188
 20
154.7837160734798
 30
0.0
 10
341.8339844948194
 20
154.9351918891194
 30
0.0
 10
341.7795765634243
 20
155.0939842508985
 30
0.0
 10
341.7353683765833
 20
155.2589498067823
 30
0.0
 10
341.7060249314392
 20
155.4314908952488
 30
0.0
 10
341.6871742911997
 20
155.6106951965692
 30
0.0
 10
341.6847980062329
 20
155.7325938632218
 30
0.0
 10
341.6835897435898
 20
155.7945753205076
 30
0.0
  0
SPLINE
  5
215
330
1F
100
AcDbEntity
  8
0
  6
Continuous
 62
     7
370
    25
100
AcDbSpline
210
0.0
220
0.0
230
1.0
 70
     8
 71
     3
 72
    23
 73
    19
 74
     0
 42
0.000000001
 43
0.00000001
 40
0.0
 40
0.0
 40
0.0
 40
0.0
 40
0.0748233216744617
 40
0.1471867031241485
 40
0.2171588760535919
 40
0.2854610254506537
 40
0.3525415603193202
 40
0.4183948359327968
 40
0.4839564220904022
 40
0.549493838729157
 40
0.6131851301130822
 40
0.6731483518900989
 40
0.7303835553561688
 40
0.7852872928358199
 40
0.8390006623076316
 40
0.8919240756005296
 40
0.9454103536487471
 40
0.9999999999999999
 40
0.9999999999999999
 40
0.9999999999999999
 40
0.9999999999999999
 10
344.3758974358974
 20
155.8114022435845
 30
0.0
 10
344.3746777258589
 20
155.7484893167518
 30
0.0
 10
344.3722784057629
 20
155.6247318294182
 30
0.0
 10
344.3536036666098
 20
155.4429226127479
 30
0.0
 10
344.3238105468112
 20
155.2682293298806
 30
0.0
 10
344.2810521504719
 20
155.1007443528468
 30
0.0
 10
344.225391094341
 20
154.940804249348
 30
0.0
 10
344.1587673988101
 20
154.7876170268978
 30
0.0
 10
344.079393027072
 20
154.6420284224783
 30
0.0
 10
343.9880349689531
 20
154.5058967412364
 30
0.0
 10
343.8890763285833
 20
154.3811167810963
 30
0.0
 10
343.7833543117141
 20
154.271487805022
 30
0.0
 10
343.6725810730728
 20
154.177867101731
 30
0.0
 10
343.5549652937567
 20
154.1023614328856
 30
0.0
 10
343.4326035310077
 20
154.0425041921253
 30
0.0
 10
343.3040956802002
 20
154.0013114977645
 30
0.0
 10
343.170815812256
 20
153.9749032379535
 30
0.0
 10
343.0798816061405
 20
153.9718158593697
 30
0.0
 10
343.0339503205128
 20
153.9702564102512
 30
0.0
  0
SPLINE
  5
216
330
1F
100
AcDbEntity
  8
0
  6
Continuous
 62
     7
370
    25
100
AcDbSpline
210
0.0
220
0.0
230
1.0
 70
     8
 71
     3
 72
    23
 73
    19
 74
     0
 42
0.000000001
 43
0.00000001
 40
0.0
 40
0.0
 40
0.0
 40
0.0
 40
0.0561311272566704
 40
0.1105446996414161
 40
0.164490693136268
 40
0.2185861882200419
 40
0.2737983216716738
 40
0.3307025735938874
 40
0.3904289212690718
 40
0.4536262558270601
 40
0.518469496526715
 40
0.5830820278981926
 40
0.6485793787737228
 40
0.714923345890202
 40
0.7830084324946613
 40
0.8527562631037893
 40
0.9251556692001538
 40
1.0
 40
1.0
 40
1.0
 40
1.0
 10
343.0129166666667
 20
157.6497435897384
 30
0.0
 10
343.0604576382949
 20
157.6481007137655
 30
0.0
 10
343.1540848766233
 20
157.644865232138
 30
0.0
 10
343.2916987342331
 20
157.6199388990142
 30
0.0
 10
343.4226873521659
 20
157.577025773599
 30
0.0
 10
343.5488884976045
 20
157.5197089207307
 30
0.0
 10
343.6677225494099
 20
157.4435386820752
 30
0.0
 10
343.7807682382168
 20
157.3514991554856
 30
0.0
 10
343.887587479776
 20
157.2425849488548
 30
0.0
 10
343.9873741448159
 20
157.1185473199803
 30
0.0
 10
344.078467475583
 20
156.9829975220269
 30
0.0
 10
344.1582946727148
 20
156.8382624048295
 30
0.0
 10
344.225345131474
 20
156.6858328337492
 30
0.0
 10
344.2812718994586
 20
156.5258634372159
 30
0.0
 10
344.3237749396357
 20
156.3580649375407
 30
0.0
 10
344.3536683784943
 20
156.1824578088015
 30
0.0
 10
344.3722657590519
 20
155.9994697305955
 30
0.0
 10
344.3746735501389
 20
155.8747815388189
 30
0.0
 10
344.3758974358974
 20
155.8114022435845
 30
0.0
  0
SPLINE
  5
217
330
1F
100
AcDbEntity
  8
0
  6
Continuous
 62
     7
370
    25
100
AcDbSpline
210
0.0
220
0.0
230
1.0
 70
     8
 71
     3
 72
    31
 73
    27
 74
     0
 42
0.000000001
 43
0.00000001
 40
0.0
 40
0.0
 40
0.0
 40
0.0
 40
0.049491562931304
 40
0.0982509489965124
 40
0.1463843248802429
 40
0.1940020446377892
 40
0.2408879895764072
 40
0.2875509225022552
 40
0.3339664723184228
 40
0.380167611190388
 40
0.425721158530485
 40
0.4698566493541775
 40
0.5127157973138133
 40
0.5541933274524001
 40
0.5950051157609343
 40
0.6349877392839055
 40
0.674496005560565
 40
0.7135409743900123
 40
0.7519021604505733
 40
0.7888515717381659
 40
0.8249076986969841
 40
0.8604240328041166
 40
0.8951483267823925
 40
0.9298815204324944
 40
0.9649479230346695
 40
1.0
 40
1.0
 40
1.0
 40
1.0
 10
341.6835897435898
 20
155.7945753205076
 30
0.0
 10
341.6841189900045
 20
155.83618984639
 30
0.0
 10
341.6851696531767
 20
155.9188032539655
 30
0.0
 10
341.6938795020332
 20
156.0416314084528
 30
0.0
 10
341.7077250140357
 20
156.1623844948344
 30
0.0
 10
341.7276144329022
 20
156.280681311578
 30
0.0
 10
341.7516824869514
 20
156.3969680466766
 30
0.0
 10
341.7831712829695
 20
156.5104013117989
 30
0.0
 10
341.8182165386566
 20
156.6222011793701
 30
0.0
 10
341.8609235636752
 20
156.7302935674828
 30
0.0
 10
341.9061441309783
 20
156.8352746778664
 30
0.0
 10
341.9578874137942
 20
156.9340704810144
 30
0.0
 10
342.0123136782187
 20
157.0274043477378
 30
0.0
 10
342.0706130080832
 20
157.1151086351794
 30
0.0
 10
342.1339359687107
 20
157.1961911906263
 30
0.0
 10
342.200597085875
 20
157.2723308335646
 30
0.0
 10
342.2713412244391
 20
157.3426833907656
 30
0.0
 10
342.3464973374531
 20
157.406147216676
 30
0.0
 10
342.4235805434735
 20
157.4637791142641
 30
0.0
 10
342.5034617965509
 20
157.5128066272787
 30
0.0
 10
342.5842088603433
 20
157.555497292298
 30
0.0
 10
342.66693952061
 20
157.5895960543021
 30
0.0
 10
342.7510300134161
 20
157.6168163230189
 30
0.0
 10
342.83702007912
 20
157.6353376444725
 30
0.0
 10
342.9244272410716
 20
157.6480950765739
 30
0.0
 10
342.9834242092829
 20
157.6491941602
 30
0.0
 10
343.0129166666667
 20
157.6497435897384
 30
0.0
  0
SPLINE
  5
218
330
1F
100
AcDbEntity
  8
0
  6
Continuous
 62
     7
370
    25
100
AcDbSpline
210
0.0
220
0.0
230
1.0
 70
     8
 71
     3
 72
    23
 73
    19
 74
     0
 42
0.000000001
 43
0.00000001
 40
0.0
 40
0.0
 40
0.0
 40
0.0
 40
0.0707020541721729
 40
0.1396422267115929
 40
0.2067535840263264
 40
0.2730228897203753
 40
0.3387466904126004
 40
0.4040780560401478
 40
0.4692816381988471
 40
0.5355425532489394
 40
0.6002840266331948
 40
0.6618020019751811
 40
0.7203492720495911
 40
0.7766872313798383
 40
0.8323675217967674
 40
0.8872254073279183
 40
0.9429680734622266
 40
1.0
 40
1.0
 40
1.0
 40
1.0
 10
338.7220512820513
 20
154.9174719551229
 30
0.0
 10
338.7213296461483
 20
154.8861311317604
 30
0.0
 10
338.7199043573707
 20
154.824230492344
 30
0.0
 10
338.7100505736315
 20
154.7329974298949
 30
0.0
 10
338.6932644193956
 20
154.6447939332835
 30
0.0
 10
338.6691299441856
 20
154.5598130936101
 30
0.0
 10
338.6392869354776
 20
154.4774872973882
 30
0.0
 10
338.6017993802242
 20
154.3988513994739
 30
0.0
 10
338.558083682274
 20
154.3232669102449
 30
0.0
 10
338.508244526296
 20
154.251852026631
 30
0.0
 10
338.4533003760466
 20
154.1864223050843
 30
0.0
 10
338.3952014789622
 20
154.1284860502197
 30
0.0
 10
338.3339106223755
 20
154.079649343265
 30
0.0
 10
338.2694148057136
 20
154.0398308808851
 30
0.0
 10
338.2019520239939
 20
154.0090740719921
 30
0.0
 10
338.131755152421
 20
153.986121447218
 30
0.0
 10
338.0583881911585
 20
153.9724752885184
 30
0.0
 10
338.008365958422
 20
153.9710016519705
 30
0.0
 10
337.9830689102564
 20
153.9702564102512
 30
0.0
  0
SPLINE
  5
219
330
1F
100
AcDbEntity
  8
0
  6
Continuous
 62
     7
370
    25
100
AcDbSpline
210
0.0
220
0.0
230
1.0
 70
     8
 71
     3
 72
    19
 73
    15
 74
     0
 42
0.000000001
 43
0.00000001
 40
0.0
 40
0.0
 40
0.0
 40
0.0
 40
0.0884708970426384
 40
0.1720726542945765
 40
0.2512660527041585
 40
0.3258043140487202
 40
0.3957072833793063
 40
0.4615200469522956
 40
0.5231185227945098
 40
0.5809822666112865
 40
0.6900490621351573
 40
0.7953608695276762
 40
0.89836210722471
 40
0.9999999999999999
 40
0.9999999999999999
 40
0.9999999999999999
 40
0.9999999999999999
 10
338.1401201923077
 20
156.0469791666614
 30
0.0
 10
338.1669006304828
 20
156.0192982534058
 30
0.0
 10
338.2189876018371
 20
155.9654598910018
 30
0.0
 10
338.292762941068
 20
155.8846848935887
 30
0.0
 10
338.3602836056402
 20
155.8064481649363
 30
0.0
 10
338.4204292269691
 20
155.7298625525943
 30
0.0
 10
338.4747578344874
 20
155.6561844068162
 30
0.0
 10
338.5226831886878
 20
155.584847842859
 30
0.0
 10
338.5634654413626
 20
155.5152060133802
 30
0.0
 10
338.608805790604
 20
155.4265952802675
 30
0.0
 10
338.653394601324
 20
155.3165400657523
 30
0.0
 10
338.6935334625006
 20
155.1841470400029
 30
0.0
 10
338.71745788191
 20
155.0508521735098
 30
0.0
 10
338.7205269642749
 20
154.9617341207631
 30
0.0
 10
338.7220512820513
 20
154.9174719551229
 30
0.0
  0
SPLINE
  5
21A
330
1F
100
AcDbEntity
  8
0
  6
Continuous
 62
     7
370
    25
100
AcDbSpline
210
0.0
220
0.0
230
1.0
 70
     8
 71
     3
 72
    15
 73
    11
 74
     0
 42
0.000000001
 43
0.00000001
 40
0.0
 40
0.0
 40
0.0
 40
0.0
 40
0.0538735142930869
 40
0.1280902240508066
 40
0.2208097162124774
 40
0.3371503611479303
 40
0.4720109875829225
 40
0.6274236840779095
 40
0.8034199937269042
 40
1.0
 40
1.0
 40
1.0
 40
1.0
 10
337.8077884615385
 20
156.3954366987127
 30
0.0
 10
337.8130773900377
 20
156.3885865415035
 30
0.0
 10
337.8256524010675
 20
156.3722995369665
 30
0.0
 10
337.8498540884008
 20
156.3463468378091
 30
0.0
 10
337.8802696938454
 20
156.3125369093947
 30
0.0
 10
337.918594752236
 20
156.2727656400357
 30
0.0
 10
337.963388199792
 20
156.2252648631923
 30
0.0
 10
338.0163161589181
 20
156.1723044757941
 30
0.0
 10
338.0758055131747
 20
156.1119056858053
 30
0.0
 10
338.117906646513
 20
156.0694040349144
 30
0.0
 10
338.1401201923077
 20
156.0469791666614
 30
0.0
  0
SPLINE
  5
21B
330
1F
100
AcDbEntity
  8
0
  6
Continuous
 62
     7
370
    25
100
AcDbSpline
210
0.0
220
0.0
230
1.0
 70
     8
 71
     3
 72
    13
 73
     9
 74
     0
 42
0.000000001
 43
0.00000001
 40
0.0
 40
0.0
 40
0.0
 40
0.0
 40
0.2285306200082597
 40
0.4568096729737552
 40
0.5765257893863781
 40
0.7065777217921411
 40
0.8466133600224341
 40
1.0
 40
1.0
 40
1.0
 40
1.0
 10
337.6451282051282
 20
156.847660256405
 30
0.0
 10
337.6470003528192
 20
156.8103621699319
 30
0.0
 10
337.6507425873367
 20
156.7358070548067
 30
0.0
 10
337.6731057066074
 20
156.6438105187813
 30
0.0
 10
337.7008029549943
 20
156.570787492416
 30
0.0
 10
337.7302747525587
 20
156.5143293584038
 30
0.0
 10
337.7652949275337
 20
156.4547139760742
 30
0.0
 10
337.793200703469
 20
156.4157862083833
 30
0.0
 10
337.8077884615385
 20
156.3954366987127
 30
0.0
  0
SPLINE
  5
21C
330
1F
100
AcDbEntity
  8
0
  6
Continuous
 62
     7
370
    25
100
AcDbSpline
210
0.0
220
0.0
230
1.0
 70
     8
 71
     3
 72
    15
 73
    11
 74
     0
 42
0.000000001
 43
0.00000001
 40
0.0
 40
0.0
 40
0.0
 40
0.0
 40
0.1184077670089294
 40
0.2319400643751562
 40
0.345651636241786
 40
0.4682545235227927
 40
0.5946306870891129
 40
0.7231763907442273
 40
0.8574296401771796
 40
1.0
 40
1.0
 40
1.0
 40
1.0
 10
337.9977924679487
 20
157.290769230764
 30
0.0
 10
337.9727906383989
 20
157.2895030754055
 30
0.0
 10
337.923816435931
 20
157.2870228989546
 30
0.0
 10
337.8547579510478
 20
157.2609467468012
 30
0.0
 10
337.793324149456
 20
157.2194883469354
 30
0.0
 10
337.7408042145793
 20
157.1633282405242
 30
0.0
 10
337.6982340636827
 20
157.0958129198383
 30
0.0
 10
337.6670107448204
 20
157.0197247800415
 30
0.0
 10
337.6486639553282
 20
156.935928872494
 30
0.0
 10
337.6463301613208
 20
156.877666621028
 30
0.0
 10
337.6451282051282
 20
156.847660256405
 30
0.0
  0
SPLINE
  5
21D
330
1F
100
AcDbEntity
  8
0
  6
Continuous
 62
     7
370
    25
100
AcDbSpline
210
0.0
220
0.0
230
1.0
 70
     8
 71
     3
 72
    19
 73
    15
 74
     0
 42
0.000000001
 43
0.00000001
 40
0.0
 40
0.0
 40
0.0
 40
0.0
 40
0.1097606867244689
 40
0.2104570262830528
 40
0.303043937901479
 40
0.3867330425341022
 40
0.4624946462070557
 40
0.5304581176767045
 40
0.5914886113802893
 40
0.6437614086257096
 40
0.7383907381704098
 40
0.8269775131483248
 40
0.9133974356665375
 40
1.0
 40
1.0
 40
1.0
 40
1.0
 10
338.466842948718
 20
156.842051282046
 30
0.0
 10
338.4550525352718
 20
156.8640911654294
 30
0.0
 10
338.4324453939848
 20
156.9063508164474
 30
0.0
 10
338.397849342368
 20
156.9660679064999
 30
0.0
 10
338.3652118322437
 20
157.0200463251354
 30
0.0
 10
338.3335156442844
 20
157.0679113975352
 30
0.0
 10
338.3034088704608
 20
157.1100533949506
 30
0.0
 10
338.2747782025414
 20
157.1468869799164
 30
0.0
 10
338.247025176932
 20
157.177501810479
 30
0.0
 10
338.2126855738864
 20
157.2101460164586
 30
0.0
 10
338.1695702846333
 20
157.2424664636719
 30
0.0
 10
338.1146861032127
 20
157.2706185343118
 30
0.0
 10
338.0569582585084
 20
157.2873710830961
 30
0.0
 10
338.0175282721783
 20
157.2896357180283
 30
0.0
 10
337.9977924679487
 20
157.290769230764
 30
0.0
  0
LINE
  5
21E
330
1F
100
AcDbEntity
  8
0
  6
Continuous
 62
     7
370
    25
100
AcDbLine
 10
338.6771794872
 20
157.0572956731
 30
0.0
 11
338.4668429487
 21
156.842051282
 31
0.0
  0
SPLINE
  5
21F
330
1F
100
AcDbEntity
  8
0
  6
Continuous
 62
     7
370
    25
100
AcDbSpline
210
0.0
220
0.0
230
1.0
 70
     8
 71
     3
 72
    19
 73
    15
 74
     0
 42
0.000000001
 43
0.00000001
 40
0.0
 40
0.0
 40
0.0
 40
0.0
 40
0.0950316840430807
 40
0.190141065964882
 40
0.2877433647703905
 40
0.3909479566060219
 40
0.4470342598015763
 40
0.5082336912218639
 40
0.574910122324527
 40
0.6477028597163358
 40
0.7264879015565124
 40
0.8112483067394409
 40
0.9023556644548456
 40
1.0
 40
1.0
 40
1.0
 40
1.0
 10
338.0012980769231
 20
157.6497435897384
 30
0.0
 10
338.0313680375361
 20
157.6483134194044
 30
0.0
 10
338.0915325439537
 20
157.6454519094295
 30
0.0
 10
338.1797555099812
 20
157.620391382561
 30
0.0
 10
338.2641145153506
 20
157.5793919417162
 30
0.0
 10
338.3313751092496
 20
157.5332993120858
 30
0.0
 10
338.3836027383619
 20
157.4871279165863
 30
0.0
 10
338.4245414825073
 20
157.4457648690964
 30
0.0
 10
338.4647422365827
 20
157.396684868159
 30
0.0
 10
338.5072363299025
 20
157.3423455534838
 30
0.0
 10
338.5487556197045
 20
157.2802309060672
 30
0.0
 10
338.5919228022282
 20
157.2123184204789
 30
0.0
 10
338.6342259931717
 20
157.136931024034
 30
0.0
 10
338.6625348519196
 20
157.0844466812859
 30
0.0
 10
338.6771794871794
 20
157.0572956730717
 30
0.0
  0
SPLINE
  5
220
330
1F
100
AcDbEntity
  8
0
  6
Continuous
 62
     7
370
    25
100
AcDbSpline
210
0.0
220
0.0
230
1.0
 70
     8
 71
     3
 72
    19
 73
    15
 74
     0
 42
0.000000001
 43
0.00000001
 40
0.0
 40
0.0
 40
0.0
 40
0.0
 40
0.0970748211208097
 40
0.191343900741741
 40
0.2824506747154134
 40
0.371965968847045
 40
0.4584327434216874
 40
0.5416784412933641
 40
0.6216557843064905
 40
0.7008805942348721
 40
0.7783696945641335
 40
0.8528441118953703
 40
0.9260892331070153
 40
1.0
 40
1.0
 40
1.0
 40
1.0
 10
337.3758974358974
 20
156.8329366987127
 30
0.0
 10
337.376752772446
 20
156.8699187469911
 30
0.0
 10
337.3784387238568
 20
156.9428139559992
 30
0.0
 10
337.3943582242721
 20
157.0494489276213
 30
0.0
 10
337.4195626341222
 20
157.1511750341657
 30
0.0
 10
337.454291220158
 20
157.2470033085548
 30
0.0
 10
337.4984664867364
 20
157.3354713681396
 30
0.0
 10
337.5505480777543
 20
157.4154154590219
 30
0.0
 10
337.6128339172824
 20
157.4839376464622
 30
0.0
 10
337.681014178285
 20
157.5433291839409
 30
0.0
 10
337.7561212971854
 20
157.5898305631034
 30
0.0
 10
337.8344616998654
 20
157.6254915011667
 30
0.0
 10
337.9171296143776
 20
157.6453261233323
 30
0.0
 10
337.9731574438864
 20
157.6482666671794
 30
0.0
 10
338.0012980769231
 20
157.6497435897384
 30
0.0
  0
SPLINE
  5
221
330
1F
100
AcDbEntity
  8
0
  6
Continuous
 62
     7
370
    25
100
AcDbSpline
210
0.0
220
0.0
230
1.0
 70
     8
 71
     3
 72
    11
 73
     7
 74
     0
 42
0.000000001
 43
0.00000001
 40
0.0
 40
0.0
 40
0.0
 40
0.0
 40
0.2502772201612669
 40
0.4985665141186987
 40
0.7462313088404723
 40
1.0
 40
1.0
 40
1.0
 40
1.0
 10
337.5140184294872
 20
156.3000841346101
 30
0.0
 10
337.4927578284037
 20
156.3414173489478
 30
0.0
 10
337.4504054970034
 20
156.4237554721551
 30
0.0
 10
337.4077157889216
 20
156.5559115808465
 30
0.0
 10
337.3803414477381
 20
156.6927424136316
 30
0.0
 10
337.3773907460369
 20
156.7858275651394
 30
0.0
 10
337.3758974358974
 20
156.8329366987127
 30
0.0
  0
SPLINE
  5
222
330
1F
100
AcDbEntity
  8
0
  6
Continuous
 62
     7
370
    25
100
AcDbSpline
210
0.0
220
0.0
230
1.0
 70
     8
 71
     3
 72
    15
 73
    11
 74
     0
 42
0.000000001
 43
0.00000001
 40
0.0
 40
0.0
 40
0.0
 40
0.0
 40
0.0954912758894602
 40
0.1988784391269858
 40
0.3104350240910362
 40
0.4311540509907335
 40
0.559659836960115
 40
0.6976038417633176
 40
0.8443510649968787
 40
1.0
 40
1.0
 40
1.0
 40
1.0
 10
338.3644791666667
 20
155.2659294871742
 30
0.0
 10
338.3534895220737
 20
155.2859287035415
 30
0.0
 10
338.3306015321202
 20
155.3275808115256
 30
0.0
 10
338.2902377072258
 20
155.3898729608587
 30
0.0
 10
338.2436335650225
 20
155.4551416354446
 30
0.0
 10
338.1913981513566
 20
155.5237389350088
 30
0.0
 10
338.1318836786599
 20
155.5945761015886
 30
0.0
 10
338.0668646959175
 20
155.6688618957877
 30
0.0
 10
337.9952998134979
 20
155.7459979667161
 30
0.0
 10
337.9446408283474
 20
155.7975088333874
 30
0.0
 10
337.9185657051282
 20
155.8240224358922
 30
0.0
  0
SPLINE
  5
223
330
1F
100
AcDbEntity
  8
0
  6
Continuous
 62
     7
370
    25
100
AcDbSpline
210
0.0
220
0.0
230
1.0
 70
     8
 71
     3
 72
    11
 73
     7
 74
     0
 42
0.000000001
 43
0.00000001
 40
0.0
 40
0.0
 40
0.0
 40
0.0
 40
0.2432961552274063
 40
0.4902287583066066
 40
0.7397560087302892
 40
0.9999999999999999
 40
0.9999999999999999
 40
0.9999999999999999
 40
0.9999999999999999
 10
338.4528205128205
 20
154.9223798076871
 30
0.0
 10
338.4516428950516
 20
154.9514234762095
 30
0.0
 10
338.4492700581439
 20
155.0099449170563
 30
0.0
 10
338.4329699601003
 20
155.0970781627382
 30
0.0
 10
338.4043354398253
 20
155.1830375658227
 30
0.0
 10
338.3779494918757
 20
155.2379142953533
 30
0.0
 10
338.3644791666667
 20
155.2659294871742
 30
0.0
  0
SPLINE
  5
224
330
1F
100
AcDbEntity
  8
0
  6
Continuous
 62
     7
370
    25
100
AcDbSpline
210
0.0
220
0.0
230
1.0
 70
     8
 71
     3
 72
    19
 73
    15
 74
     0
 42
0.000000001
 43
0.00000001
 40
0.0
 40
0.0
 40
0.0
 40
0.0
 40
0.0773838686046215
 40
0.1534456645753762
 40
0.2315016006870459
 40
0.3128801795124559
 40
0.3958336561493472
 40
0.4783390626086421
 40
0.5619399908362838
 40
0.6478588031740502
 40
0.7356822839509789
 40
0.8230980861980637
 40
0.9104213196204715
 40
0.9999999999999999
 40
0.9999999999999999
 40
0.9999999999999999
 40
0.9999999999999999
 10
337.9634375
 20
154.3292307692255
 30
0.0
 10
337.9855098600482
 20
154.3300715675724
 30
0.0
 10
338.0292774826474
 20
154.3317387995608
 30
0.0
 10
338.0934605347599
 20
154.3484048813013
 30
0.0
 10
338.1558417777776
 20
154.3735264028982
 30
0.0
 10
338.2148537789857
 20
154.4097328131899
 30
0.0
 10
338.2704631998464
 20
154.4531168762772
 30
0.0
 10
338.3179644396394
 20
154.5060896625944
 30
0.0
 10
338.3601727875546
 20
154.5643543029108
 30
0.0
 10
338.3931879804273
 20
154.6300231292655
 30
0.0
 10
338.4198040805213
 20
154.6995845810167
 30
0.0
 10
338.4383304940161
 20
154.7720913936027
 30
0.0
 10
338.4512920326021
 20
154.8464294673497
 30
0.0
 10
338.4523067071478
 20
154.8968487506032
 30
0.0
 10
338.4528205128205
 20
154.9223798076871
 30
0.0
  0
SPLINE
  5
225
330
1F
100
AcDbEntity
  8
0
  6
Continuous
 62
     7
370
    25
100
AcDbSpline
210
0.0
220
0.0
230
1.0
 70
     8
 71
     3
 72
    15
 73
    11
 74
     0
 42
0.000000001
 43
0.00000001
 40
0.0
 40
0.0
 40
0.0
 40
0.0
 40
0.1767911619618658
 40
0.335621828331801
 40
0.4771242180082247
 40
0.6026686200509279
 40
0.7142149887945219
 40
0.8152475451570513
 40
0.9089404021630187
 40
0.9999999999999999
 40
0.9999999999999999
 40
0.9999999999999999
 40
0.9999999999999999
 10
337.4151602564103
 20
154.9125641025589
 30
0.0
 10
337.4345471293258
 20
154.8666607564206
 30
0.0
 10
337.4713513318738
 20
154.7795174581557
 30
0.0
 10
337.5346155502203
 20
154.6607122417616
 30
0.0
 10
337.5994225485667
 20
154.5595263884599
 30
0.0
 10
337.6666838964381
 20
154.4764445031735
 30
0.0
 10
337.7364135764563
 20
154.4108467856623
 30
0.0
 10
337.809511205395
 20
154.3642742708656
 30
0.0
 10
337.8855335957675
 20
154.3346151168959
 30
0.0
 10
337.9377174557872
 20
154.3310084164629
 30
0.0
 10
337.9634375
 20
154.3292307692255
 30
0.0
  0
LINE
  5
226
330
1F
100
AcDbEntity
  8
0
  6
Continuous
 62
     7
370
    25
100
AcDbLine
 10
337.1964102564
 20
154.7351802885
 30
0.0
 11
337.4151602564
 21
154.9125641026
 31
0.0
  0
SPLINE
  5
227
330
1F
100
AcDbEntity
  8
0
  6
Continuous
 62
     7
370
    25
100
AcDbSpline
210
0.0
220
0.0
230
1.0
 70
     8
 71
     3
 72
    23
 73
    19
 74
     0
 42
0.000000001
 43
0.00000001
 40
0.0
 40
0.0
 40
0.0
 40
0.0
 40
0.0504010537631029
 40
0.0994769095597241
 40
0.1487572794084076
 40
0.1984260755507199
 40
0.2485734880669751
 40
0.2993508597761791
 40
0.3522316332728623
 40
0.4070992897525969
 40
0.464735099766413
 40
0.5268174788812098
 40
0.5928693506298922
 40
0.6640261550475438
 40
0.73999979179599
 40
0.8214848946427958
 40
0.9078409159470103
 40
1.0
 40
1.0
 40
1.0
 40
1.0
 10
337.9830689102564
 20
153.9702564102512
 30
0.0
 10
337.9633994179736
 20
153.9707496064107
 30
0.0
 10
337.9245776045627
 20
153.9717230310933
 30
0.0
 10
337.8671891787183
 20
153.980896670958
 30
0.0
 10
337.810782884217
 20
153.9935935580417
 30
0.0
 10
337.7561744654063
 20
154.0138873614706
 30
0.0
 10
337.7025825038612
 20
154.0380704574004
 30
0.0
 10
337.6510241040337
 20
154.068923811471
 30
0.0
 10
337.6004978448985
 20
154.1046290408018
 30
0.0
 10
337.5511473585484
 20
154.1462777295201
 30
0.0
 10
337.5030098521701
 20
154.1945325189382
 30
0.0
 10
337.4562606413253
 20
154.2499675992595
 30
0.0
 10
337.4105420771942
 20
154.3128814186458
 30
0.0
 10
337.3659449800298
 20
154.3830827094804
 30
0.0
 10
337.3216489969776
 20
154.4604812767849
 30
0.0
 10
337.2783749434227
 20
154.5451736002412
 30
0.0
 10
337.2361996688478
 20
154.6374100001604
 30
0.0
 10
337.2099577461552
 20
154.7018914837994
 30
0.0
 10
337.1964102564102
 20
154.7351802884563
 30
0.0
  0
LINE
  5
228
330
1F
100
AcDbEntity
  8
0
  6
Continuous
 62
     7
370
    25
100
AcDbLine
 10
331.0041025641
 20
154.06
 30
0.0
 11
332.1258974359
 21
157.56
 31
0.0
  0
LINE
  5
229
330
1F
100
AcDbEntity
  8
0
  6
Continuous
 62
     7
370
    25
100
AcDbLine
 10
331.2971714744
 20
154.06
 30
0.0
 11
331.0041025641
 21
154.06
 31
0.0
  0
LINE
  5
22A
330
1F
100
AcDbEntity
  8
0
  6
Continuous
 62
     7
370
    25
100
AcDbLine
 10
331.6568469551
 20
155.1817948718
 30
0.0
 11
331.2971714744
 21
154.06
 31
0.0
  0
LINE
  5
22B
330
1F
100
AcDbEntity
  8
0
  6
Continuous
 62
     7
370
    25
100
AcDbLine
 10
332.6398197115
 20
155.1817948718
 30
0.0
 11
331.6568469551
 21
155.1817948718
 31
0.0
  0
LINE
  5
22C
330
1F
100
AcDbEntity
  8
0
  6
Continuous
 62
     7
370
    25
100
AcDbLine
 10
332.9994951923
 20
154.06
 30
0.0
 11
332.6398197115
 21
155.1817948718
 31
0.0
  0
LINE
  5
22D
330
1F
100
AcDbEntity
  8
0
  6
Continuous
 62
     7
370
    25
100
AcDbLine
 10
333.2925641026
 20
154.06
 30
0.0
 11
332.9994951923
 21
154.06
 31
0.0
  0
LINE
  5
22E
330
1F
100
AcDbEntity
  8
0
  6
Continuous
 62
     7
370
    25
100
AcDbLine
 10
332.1707692308
 20
157.56
 30
0.0
 11
333.2925641026
 21
154.06
 31
0.0
  0
LINE
  5
22F
330
1F
100
AcDbEntity
  8
0
  6
Continuous
 62
     7
370
    25
100
AcDbLine
 10
332.1258974359
 20
157.56
 30
0.0
 11
332.1707692308
 21
157.56
 31
0.0
  0
LINE
  5
230
330
1F
100
AcDbEntity
  8
0
  6
Continuous
 62
     7
370
    25
100
AcDbLine
 10
255.94
 20
150.06
 30
0.0
 11
363.94
 21
150.06
 31
0.0
  0
LINE
  5
231
330
1F
100
AcDbEntity
  8
0
  6
Continuous
 62
     7
370
    25
100
AcDbLine
 10
255.94
 20
150.06
 30
0.0
 11
255.94
 21
193.06
 31
0.0
  0
LINE
  5
232
330
1F
100
AcDbEntity
  8
0
  6
Continuous
 62
     7
370
    25
100
AcDbLine
 10
255.94
 20
193.06
 30
0.0
 11
363.94
 21
193.06
 31
0.0
  0
LINE
  5
233
330
1F
100
AcDbEntity
  8
0
  6
Continuous
 62
     7
370
    25
100
AcDbLine
 10
363.94
 20
150.06
 30
0.0
 11
363.94
 21
193.06
 31
0.0
  0
CIRCLE
  5
234
330
1F
100
AcDbEntity
  8
0
  6
Continuous
 62
     7
370
    25
100
AcDbCircle
 10
268.94
 20
171.56
 30
0.0
 40
10.0
  0
CIRCLE
  5
235
330
1F
100
AcDbEntity
  8
0
  6
Continuous
 62
     7
370
    25
100
AcDbCircle
 10
343.94
 20
171.56
 30
0.0
 40
10.00000000000006
  0
SPLINE
  5
236
330
1F
100
AcDbEntity
  8
0
  6
Continuous
 62
     7
370
    25
100
AcDbSpline
210
0.0
220
0.0
230
1.0
 70
     8
 71
     3
 72
    23
 73
    19
 74
     0
 42
0.000000001
 43
0.00000001
 40
0.0
 40
0.0
 40
0.0
 40
0.0
 40
0.05143041931976
 40
0.1030521742200265
 40
0.1555203098801471
 40
0.2125772372573749
 40
0.2726604237227774
 40
0.3341105671093811
 40
0.3984391599553299
 40
0.4668694733296639
 40
0.5058665026678058
 40
0.5530424048056918
 40
0.6077610540557999
 40
0.6701563009968311
 40
0.7408630695315039
 40
0.8192782350810024
 40
0.905432793040538
 40
1.0
 40
1.0
 40
1.0
 40
1.0
 10
329.9124559294871
 20
154.3292307692255
 30
0.0
 10
329.9310511067513
 20
154.3302990530551
 30
0.0
 10
329.9683106405529
 20
154.3324395950296
 30
0.0
 10
330.0221356529005
 20
154.3502366631316
 30
0.0
 10
330.0734204936017
 20
154.378288500391
 30
0.0
 10
330.1203084243035
 20
154.4180749254781
 30
0.0
 10
330.163985372219
 20
154.4658045503569
 30
0.0
 10
330.1994556431794
 20
154.5230576817885
 30
0.0
 10
330.2294431164129
 20
154.5865653634551
 30
0.0
 10
330.2474219443735
 20
154.6461320225678
 30
0.0
 10
330.2582548382583
 20
154.70086674065
 30
0.0
 10
330.2659402889349
 20
154.7511437478759
 30
0.0
 10
330.2718283051029
 20
154.8101425299486
 30
0.0
 10
330.2776568108273
 20
154.8776656144734
 30
0.0
 10
330.2816200708182
 20
154.953895608987
 30
0.0
 10
330.2844169401832
 20
155.0387464029821
 30
0.0
 10
330.285593952017
 20
155.1322459349521
 30
0.0
 10
330.2859615114434
 20
155.197453185843
 30
0.0
 10
330.2861538461539
 20
155.2315745192255
 30
0.0
  0
SPLINE
  5
237
330
1F
100
AcDbEntity
  8
0
  6
Continuous
 62
     7
370
    25
100
AcDbSpline
210
0.0
220
0.0
230
1.0
 70
     8
 71
     3
 72
    11
 73
     7
 74
     0
 42
0.000000001
 43
0.00000001
 40
0.0
 40
0.0
 40
0.0
 40
0.0
 40
0.2686451049522441
 40
0.5220075143126726
 40
0.7650195021312224
 40
1.0
 40
1.0
 40
1.0
 40
1.0
 10
329.7357732371795
 20
154.3797115384563
 30
0.0
 10
329.7505945483376
 20
154.3721777890296
 30
0.0
 10
329.7793940151951
 20
154.3575388704743
 30
0.0
 10
329.8238574555903
 20
154.3408795771826
 30
0.0
 10
329.868381386069
 20
154.3317214759268
 30
0.0
 10
329.8979299118195
 20
154.3300516523645
 30
0.0
 10
329.9124559294871
 20
154.3292307692255
 30
0.0
  0
SPLINE
  5
238
330
1F
100
AcDbEntity
  8
0
  6
Continuous
 62
     7
370
    25
100
AcDbSpline
210
0.0
220
0.0
230
1.0
 70
     8
 71
     3
 72
    11
 73
     7
 74
     0
 42
0.000000001
 43
0.00000001
 40
0.0
 40
0.0
 40
0.0
 40
0.0
 40
0.3039047691185045
 40
0.570015297322966
 40
0.8031448635121117
 40
1.0
 40
1.0
 40
1.0
 40
1.0
 10
329.3908213141026
 20
154.6433333333281
 30
0.0
 10
329.4237099946813
 20
154.6139962313514
 30
0.0
 10
329.4853972498469
 20
154.5589704515509
 30
0.0
 10
329.5767415859542
 20
154.4867545198927
 30
0.0
 10
329.6575435132587
 20
154.4260765204267
 30
0.0
 10
329.7112056809751
 20
154.3942721714662
 30
0.0
 10
329.7357732371795
 20
154.3797115384563
 30
0.0
  0
LINE
  5
239
330
1F
100
AcDbEntity
  8
0
  6
Continuous
 62
     7
370
    25
100
AcDbLine
 10
329.2541025641
 20
154.3741025641
 30
0.0
 11
329.3908213141
 21
154.6433333333
 31
0.0
  0
SPLINE
  5
23A
330
1F
100
AcDbEntity
  8
0
  6
Continuous
 62
     7
370
    25
100
AcDbSpline
210
0.0
220
0.0
230
1.0
 70
     8
 71
     3
 72
    15
 73
    11
 74
     0
 42
0.000000001
 43
0.00000001
 40
0.0
 40
0.0
 40
0.0
 40
0.0
 40
0.1000151278993738
 40
0.201115649275237
 40
0.304907671706401
 40
0.4144967149462614
 40
0.5344050517090891
 40
0.6711115060201561
 40
0.8264418401813406
 40
0.9999999999999999
 40
0.9999999999999999
 40
0.9999999999999999
 40
0.9999999999999999
 10
329.9152604166666
 20
153.9702564102512
 30
0.0
 10
329.8885252747173
 20
153.9713270101147
 30
0.0
 10
329.8347648532238
 20
153.9734798283053
 30
0.0
 10
329.754961099724
 20
153.9914391133576
 30
0.0
 10
329.6754266970291
 20
154.0188617947605
 30
0.0
 10
329.595673141763
 20
154.0590136273637
 30
0.0
 10
329.514425616584
 20
154.1138264752682
 30
0.0
 10
329.4301914848438
 20
154.1848377463857
 30
0.0
 10
329.3422067224566
 20
154.2728745018644
 30
0.0
 10
329.284536034961
 20
154.3391357550434
 30
0.0
 10
329.2541025641026
 20
154.3741025640973
 30
0.0
  0
SPLINE
  5
23B
330
1F
100
AcDbEntity
  8
0
  6
Continuous
 62
     7
370
    25
100
AcDbSpline
210
0.0
220
0.0
230
1.0
 70
     8
 71
     3
 72
    23
 73
    19
 74
     0
 42
0.000000001
 43
0.00000001
 40
0.0
 40
0.0
 40
0.0
 40
0.0
 40
0.0838991104787462
 40
0.1610998410468576
 40
0.2320563813043374
 40
0.2959227359958741
 40
0.3536456035362274
 40
0.4048489571177048
 40
0.4499936867205433
 40
0.4885177118198665
 40
0.5573605691675827
 40
0.6227853435600368
 40
0.6863167380678106
 40
0.7491312128226653
 40
0.8106227202848826
 40
0.871851792802028
 40
0.934311167344669
 40
1.0
 40
1.0
 40
1.0
 40
1.0
 10
330.5553846153846
 20
155.1965184294819
 30
0.0
 10
330.5554074860338
 20
155.1528110662314
 30
0.0
 10
330.5554514013735
 20
155.0688858704567
 30
0.0
 10
330.5514266258161
 20
154.9480611620364
 30
0.0
 10
330.5470090751949
 20
154.8376969611075
 30
0.0
 10
330.5399485156885
 20
154.7376372411455
 30
0.0
 10
330.5312201397761
 20
154.6480202787593
 30
0.0
 10
330.5196770386821
 20
154.5685994980733
 30
0.0
 10
330.5081010613769
 20
154.4992360934017
 30
0.0
 10
330.4873304475722
 20
154.4224702454821
 30
0.0
 10
330.456570426563
 20
154.3376665404282
 30
0.0
 10
330.408806323758
 20
154.2459361827963
 30
0.0
 10
330.3491898162212
 20
154.1653227324907
 30
0.0
 10
330.2801211775503
 20
154.0954714411716
 30
0.0
 10
330.2008263849112
 20
154.0392187538398
 30
0.0
 10
330.1126713401056
 20
153.9988901730248
 30
0.0
 10
330.0163864521178
 20
153.9741971119301
 30
0.0
 10
329.9495307048679
 20
153.9715918624089
 30
0.0
 10
329.9152604166666
 20
153.9702564102512
 30
0.0
  0
LINE
  5
23C
330
1F
100
AcDbEntity
  8
0
  6
Continuous
 62
     7
370
    25
100
AcDbLine
 10
330.5553846154
 20
157.56
 30
0.0
 11
330.5553846154
 21
155.1965184295
 31
0.0
  0
LINE
  5
23D
330
1F
100
AcDbEntity
  8
0
  6
Continuous
 62
     7
370
    25
100
AcDbLine
 10
330.2861538462
 20
157.56
 30
0.0
 11
330.5553846154
 21
157.56
 31
0.0
  0
LINE
  5
23E
330
1F
100
AcDbEntity
  8
0
  6
Continuous
 62
     7
370
    25
100
AcDbLine
 10
330.2861538462
 20
155.2315745192
 30
0.0
 11
330.2861538462
 21
157.56
 31
0.0
  0
LINE
  5
23F
330
1F
100
AcDbEntity
  8
0
  6
Continuous
 62
     7
370
    25
100
AcDbLine
 10
334.1002564103
 20
156.6639663461
 30
0.0
 11
334.1002564103
 21
154.06
 31
0.0
  0
LINE
  5
240
330
1F
100
AcDbEntity
  8
0
  6
Continuous
 62
     7
370
    25
100
AcDbLine
 10
335.7892588141
 20
154.06
 30
0.0
 11
334.1002564103
 21
156.6639663461
 31
0.0
  0
LINE
  5
241
330
1F
100
AcDbEntity
  8
0
  6
Continuous
 62
     7
370
    25
100
AcDbLine
 10
335.8502564103
 20
154.06
 30
0.0
 11
335.7892588141
 21
154.06
 31
0.0
  0
LINE
  5
242
330
1F
100
AcDbEntity
  8
0
  6
Continuous
 62
     7
370
    25
100
AcDbLine
 10
335.8502564103
 20
157.56
 30
0.0
 11
335.8502564103
 21
154.06
 31
0.0
  0
LINE
  5
243
330
1F
100
AcDbEntity
  8
0
  6
Continuous
 62
     7
370
    25
100
AcDbLine
 10
335.581025641
 20
157.56
 30
0.0
 11
335.8502564103
 21
157.56
 31
0.0
  0
LINE
  5
244
330
1F
100
AcDbEntity
  8
0
  6
Continuous
 62
     7
370
    25
100
AcDbLine
 10
335.581025641
 20
154.9497235577
 30
0.0
 11
335.581025641
 21
157.56
 31
0.0
  0
LINE
  5
245
330
1F
100
AcDbEntity
  8
0
  6
Continuous
 62
     7
370
    25
100
AcDbLine
 10
333.8878165064
 20
157.56
 30
0.0
 11
335.581025641
 21
154.9497235577
 31
0.0
  0
LINE
  5
246
330
1F
100
AcDbEntity
  8
0
  6
Continuous
 62
     7
370
    25
100
AcDbLine
 10
333.831025641
 20
157.56
 30
0.0
 11
333.8878165064
 21
157.56
 31
0.0
  0
LINE
  5
247
330
1F
100
AcDbEntity
  8
0
  6
Continuous
 62
     7
370
    25
100
AcDbLine
 10
333.831025641
 20
154.06
 30
0.0
 11
333.831025641
 21
157.56
 31
0.0
  0
LINE
  5
248
330
1F
100
AcDbEntity
  8
0
  6
Continuous
 62
     7
370
    25
100
AcDbLine
 10
334.1002564103
 20
154.06
 30
0.0
 11
333.831025641
 21
154.06
 31
0.0
  0
LINE
  5
249
330
1F
100
AcDbEntity
  8
0
  6
Continuous
 62
     7
370
    25
100
AcDbLine
 10
340.2476923077
 20
154.06
 30
0.0
 11
340.2028205128
 21
154.06
 31
0.0
  0
LINE
  5
24A
330
1F
100
AcDbEntity
  8
0
  6
Continuous
 62
     7
370
    25
100
AcDbLine
 10
341.3694871795
 20
157.56
 30
0.0
 11
340.2476923077
 21
154.06
 31
0.0
  0
LINE
  5
24B
330
1F
100
AcDbEntity
  8
0
  6
Continuous
 62
     7
370
    25
100
AcDbLine
 10
341.0764182692
 20
157.56
 30
0.0
 11
341.3694871795
 21
157.56
 31
0.0
  0
LINE
  5
24C
330
1F
100
AcDbEntity
  8
0
  6
Continuous
 62
     7
370
    25
100
AcDbLine
 10
340.2252564103
 20
154.9048517628
 30
0.0
 11
341.0764182692
 21
157.56
 31
0.0
  0
LINE
  5
24D
330
1F
100
AcDbEntity
  8
0
  6
Continuous
 62
     7
370
    25
100
AcDbLine
 10
339.3740945513
 20
157.56
 30
0.0
 11
340.2252564103
 21
154.9048517628
 31
0.0
  0
LINE
  5
24E
330
1F
100
AcDbEntity
  8
0
  6
Continuous
 62
     7
370
    25
100
AcDbLine
 10
339.081025641
 20
157.56
 30
0.0
 11
339.3740945513
 21
157.56
 31
0.0
  0
LINE
  5
24F
330
1F
100
AcDbEntity
  8
0
  6
Continuous
 62
     7
370
    25
100
AcDbLine
 10
340.2028205128
 20
154.06
 30
0.0
 11
339.081025641
 21
157.56
 31
0.0
  0
LINE
  5
250
330
1F
100
AcDbEntity
  8
0
  6
Continuous
 62
     7
370
    25
100
AcDbLine
 10
345.6140785256
 20
154.06
 30
0.0
 11
344.9143589744
 21
154.06
 31
0.0
  0
SPLINE
  5
251
330
1F
100
AcDbEntity
  8
0
  6
Continuous
 62
     7
370
    25
100
AcDbSpline
210
0.0
220
0.0
230
1.0
 70
     8
 71
     3
 72
    23
 73
    19
 74
     0
 42
0.000000001
 43
0.00000001
 40
0.0
 40
0.0
 40
0.0
 40
0.0
 40
0.0708158780880998
 40
0.1390701533655643
 40
0.2051482923928464
 40
0.2694748940468996
 40
0.3329649872421965
 40
0.3960745689311031
 40
0.4584293518601377
 40
0.5213748863882292
 40
0.5828930873215012
 40
0.6429265605981799
 40
0.7009131951212085
 40
0.7582149722566536
 40
0.8162765288676541
 40
0.8755437829392823
 40
0.936430381175797
 40
1.0
 40
1.0
 40
1.0
 40
1.0
 10
346.44
 20
155.0534895833281
 30
0.0
 10
346.4393535759635
 20
155.019340207451
 30
0.0
 10
346.4380841108051
 20
154.9522767314511
 30
0.0
 10
346.4273004836531
 20
154.853828395548
 30
0.0
 10
346.4099350803428
 20
154.7595519722276
 30
0.0
 10
346.3852700589597
 20
154.6692602499332
 30
0.0
 10
346.3535907144177
 20
154.5827342846903
 30
0.0
 10
346.3153083193782
 20
154.4999208848207
 30
0.0
 10
346.2690803251796
 20
154.4215862937546
 30
0.0
 10
346.2172216222867
 20
154.3478149867195
 30
0.0
 10
346.1591429976555
 20
154.2802326316258
 30
0.0
 10
346.0955459113886
 20
154.2211823794289
 30
0.0
 10
346.0266962400255
 20
154.1718434793754
 30
0.0
 10
345.9539238309159
 20
154.1303693864949
 30
0.0
 10
345.8755746320272
 20
154.0988007582895
 30
0.0
 10
345.7924002875659
 20
154.0767956941887
 30
0.0
 10
345.70482358421
 20
154.0618626464035
 30
0.0
 10
345.6447585051037
 20
154.0606297417622
 30
0.0
 10
345.614078525641
 20
154.0599999999947
 30
0.0
  0
SPLINE
  5
252
330
1F
100
AcDbEntity
  8
0
  6
Continuous
 62
     7
370
    25
100
AcDbSpline
210
0.0
220
0.0
230
1.0
 70
     8
 71
     3
 72
    19
 73
    15
 74
     0
 42
0.000000001
 43
0.00000001
 40
0.0
 40
0.0
 40
0.0
 40
0.0
 40
0.0968225737369126
 40
0.1855689870649
 40
0.2681643366304864
 40
0.3447077037461939
 40
0.4194630140225849
 40
0.4949557461758818
 40
0.5738739138703338
 40
0.6547424241537093
 40
0.7384676571611145
 40
0.822898344445259
 40
0.9104455468406727
 40
1.0
 40
1.0
 40
1.0
 40
1.0
 10
345.887516025641
 20
155.9481209935845
 30
0.0
 10
345.9203474934449
 20
155.9328863086868
 30
0.0
 10
345.9832718920544
 20
155.9036876937812
 30
0.0
 10
346.0686909614328
 20
155.8510238773589
 30
0.0
 10
346.1431065844292
 20
155.7955790395299
 30
0.0
 10
346.2051492143216
 20
155.7336966993567
 30
0.0
 10
346.2582773131066
 20
155.6675549495617
 30
0.0
 10
346.3052005632022
 20
155.5957985698905
 30
0.0
 10
346.3456117165101
 20
155.5175811201414
 30
0.0
 10
346.3791250898414
 20
155.4328952424897
 30
0.0
 10
346.4063037066522
 20
155.343840889526
 30
0.0
 10
346.42634267612
 20
155.2503177658963
 30
0.0
 10
346.4372282898204
 20
155.153074512775
 30
0.0
 10
346.4390691419347
 20
155.0869344346107
 30
0.0
 10
346.44
 20
155.0534895833281
 30
0.0
  0
SPLINE
  5
253
330
1F
100
AcDbEntity
  8
0
  6
Continuous
 62
     7
370
    25
100
AcDbSpline
210
0.0
220
0.0
230
1.0
 70
     8
 71
     3
 72
    15
 73
    11
 74
     0
 42
0.000000001
 43
0.00000001
 40
0.0
 40
0.0
 40
0.0
 40
0.0
 40
0.1372083180392592
 40
0.2690390420182115
 40
0.3973970991174631
 40
0.5230348387328428
 40
0.6449048587432608
 40
0.7645022914662513
 40
0.8815887251807232
 40
1.0
 40
1.0
 40
1.0
 40
1.0
 10
346.215641025641
 20
156.6927123397383
 30
0.0
 10
346.2148795729367
 20
156.654083920156
 30
0.0
 10
346.2133865110798
 20
156.5783410413886
 30
0.0
 10
346.1962820382913
 20
156.4675981097832
 30
0.0
 10
346.1708656216492
 20
156.3619322545506
 30
0.0
 10
346.1343973422591
 20
156.2624455541977
 30
0.0
 10
346.0882782440181
 20
156.169740311378
 30
0.0
 10
346.0312293892102
 20
156.0862491332244
 30
0.0
 10
345.9648169002585
 20
156.011076628188
 30
0.0
 10
345.9133794412045
 20
155.96918476224
 30
0.0
 10
345.887516025641
 20
155.9481209935845
 30
0.0
  0
SPLINE
  5
254
330
1F
100
AcDbEntity
  8
0
  6
Continuous
 62
     7
370
    25
100
AcDbSpline
210
0.0
220
0.0
230
1.0
 70
     8
 71
     3
 72
    23
 73
    19
 74
     0
 42
0.000000001
 43
0.00000001
 40
0.0
 40
0.0
 40
0.0
 40
0.0
 40
0.0539059129222802
 40
0.1043049721613639
 40
0.1518072147954228
 40
0.1971397759102027
 40
0.238869381322967
 40
0.2786922669077455
 40
0.3165266258310137
 40
0.3522657329348823
 40
0.4222268191211473
 40
0.4940536090530441
 40
0.5699632881170276
 40
0.6506276230644555
 40
0.73493844787671
 40
0.8201633022732283
 40
0.9086972977577764
 40
1.0
 40
1.0
 40
1.0
 40
1.0
 10
345.4093509615385
 20
157.5599999999948
 30
0.0
 10
345.4336674833978
 20
157.5598230394087
 30
0.0
 10
345.4807186137488
 20
157.5594806304225
 30
0.0
 10
345.5490183526325
 20
157.5542341466583
 30
0.0
 10
345.6132112025685
 20
157.5468320874461
 30
0.0
 10
345.6729370507453
 20
157.5357679744795
 30
0.0
 10
345.7283878764501
 20
157.5215072760283
 30
0.0
 10
345.7796748559016
 20
157.5049817213654
 30
0.0
 10
345.8268074524684
 20
157.4848641268201
 30
0.0
 10
345.8830822059161
 20
157.4526517076776
 30
0.0
 10
345.9471289666008
 20
157.4041088850925
 30
0.0
 10
346.0165373997157
 20
157.3340481754781
 30
0.0
 10
346.0748460602147
 20
157.2486097353651
 30
0.0
 10
346.1250759932684
 20
157.1520523560377
 30
0.0
 10
346.1650443954206
 20
157.0462686968526
 30
0.0
 10
346.1949354720512
 20
156.9336037206818
 30
0.0
 10
346.2126487616295
 20
156.8150390117738
 30
0.0
 10
346.2146334192581
 20
156.7339042716908
 30
0.0
 10
346.215641025641
 20
156.6927123397383
 30
0.0
  0
LINE
  5
255
330
1F
100
AcDbEntity
  8
0
  6
Continuous
 62
     7
370
    25
100
AcDbLine
 10
344.9143589744
 20
157.56
 30
0.0
 11
345.4093509615
 21
157.56
 31
0.0
  0
LINE
  5
256
330
1F
100
AcDbEntity
  8
0
  6
Continuous
 62
     7
370
    25
100
AcDbLine
 10
344.9143589744
 20
154.06
 30
0.0
 11
344.9143589744
 21
157.56
 31
0.0
  0
SPLINE
  5
257
330
1F
100
AcDbEntity
  8
0
  6
Continuous
 62
     7
370
    25
100
AcDbSpline
210
0.0
220
0.0
230
1.0
 70
     8
 71
     3
 72
    31
 73
    27
 74
     0
 42
0.000000001
 43
0.00000001
 40
0.0
 40
0.0
 40
0.0
 40
0.0
 40
0.0526126802056954
 40
0.1036031167667219
 40
0.1530571174088829
 40
0.2013926076566472
 40
0.2484570034735288
 40
0.2945222699598373
 40
0.3395725317777911
 40
0.3837676865476135
 40
0.4266670683404514
 40
0.4676140206319795
 40
0.5072579329192572
 40
0.5447167913662566
 40
0.5811749330520783
 40
0.6163866672816741
 40
0.6505863011380838
 40
0.6839786196734124
 40
0.7174965917798418
 40
0.7522100407148946
 40
0.7882197311948554
 40
0.8261834300005805
 40
0.8660591324464529
 40
0.9082794507670167
 40
0.952788114915838
 40
1.0
 40
1.0
 40
1.0
 40
1.0
 10
352.2733333333333
 20
155.7658293269178
 30
0.0
 10
352.2727634900266
 20
155.7225815201869
 30
0.0
 10
352.2716413737915
 20
155.6374193966621
 30
0.0
 10
352.2637110968108
 20
155.5118114994172
 30
0.0
 10
352.2513181639407
 20
155.3901182790658
 30
0.0
 10
352.2332942618212
 20
155.2723517397338
 30
0.0
 10
352.2089395436902
 20
155.1586117987991
 30
0.0
 10
352.1814408128658
 20
155.0483744791792
 30
0.0
 10
352.1478043392001
 20
154.942261460562
 30
0.0
 10
352.1082056377658
 20
154.8410737694815
 30
0.0
 10
352.0661261187564
 20
154.7445525639817
 30
0.0
 10
352.0194354547168
 20
154.6543483421943
 30
0.0
 10
351.9701614963916
 20
154.5706921997177
 30
0.0
 10
351.9177242668156
 20
154.4934025812144
 30
0.0
 10
351.862735512957
 20
154.4224165121764
 30
0.0
 10
351.8034879651212
 20
154.3585409427166
 30
0.0
 10
351.7416852898461
 20
154.3008176558237
 30
0.0
 10
351.6766985595656
 20
154.2488457770817
 30
0.0
 10
351.6064923829952
 20
154.2032789327962
 30
0.0
 10
351.5297186340781
 20
154.1648778637252
 30
0.0
 10
351.4462956271063
 20
154.1325901925437
 30
0.0
 10
351.3564190673269
 20
154.1062265600433
 30
0.0
 10
351.2599523974692
 20
154.0849541744105
 30
0.0
 10
351.1567778273873
 20
154.0708434963673
 30
0.0
 10
351.0470186797045
 20
154.0612623793265
 30
0.0
 10
350.9716060634879
 20
154.0604289805149
 30
0.0
 10
350.9327884615385
 20
154.0599999999947
 30
0.0
  0
SPLINE
  5
258
330
1F
100
AcDbEntity
  8
0
  6
Continuous
 62
     7
370
    25
100
AcDbSpline
210
0.0
220
0.0
230
1.0
 70
     8
 71
     3
 72
    23
 73
    19
 74
     0
 42
0.000000001
 43
0.00000001
 40
0.0
 40
0.0
 40
0.0
 40
0.0
 40
0.0527446278503213
 40
0.105542215259058
 40
0.158585431290397
 40
0.2123829694526224
 40
0.2678742077822598
 40
0.3246266005632452
 40
0.3838646517005121
 40
0.445140204579361
 40
0.5084359349124985
 40
0.5728754848899744
 40
0.6389405698618034
 40
0.7066344008963832
 40
0.7765174185332936
 40
0.848742099549006
 40
0.9231842492874464
 40
1.0
 40
1.0
 40
1.0
 40
1.0
 10
351.482467948718
 20
157.4337980769178
 30
0.0
 10
351.5129474948511
 20
157.4182578928482
 30
0.0
 10
351.5739371908656
 20
157.3871619211996
 30
0.0
 10
351.6595991672357
 20
157.3298679594871
 30
0.0
 10
351.7396657865615
 20
157.2641509719611
 30
0.0
 10
351.8154736015707
 20
157.1909388290191
 30
0.0
 10
351.884955260227
 20
157.1085682399191
 30
0.0
 10
351.9509760048434
 20
157.0190211952306
 30
0.0
 10
352.0108923519662
 20
156.920809687676
 30
0.0
 10
352.0654879309408
 20
156.8148035979621
 30
0.0
 10
352.114166252924
 20
156.7022859044906
 30
0.0
 10
352.1573106908299
 20
156.5842058473796
 30
0.0
 10
352.1926890631718
 20
156.4606013962806
 30
0.0
 10
352.2221975319079
 20
156.3318859414073
 30
0.0
 10
352.2454739336175
 20
156.1978108757888
 30
0.0
 10
352.261131364196
 20
156.0582591745978
 30
0.0
 10
352.2712640637471
 20
155.9136816681035
 30
0.0
 10
352.272636398392
 20
155.8156263487345
 30
0.0
 10
352.2733333333333
 20
155.7658293269178
 30
0.0
  0
SPLINE
  5
259
330
1F
100
AcDbEntity
  8
0
  6
Continuous
 62
     7
370
    25
100
AcDbSpline
210
0.0
220
0.0
230
1.0
 70
     8
 71
     3
 72
    15
 73
    11
 74
     0
 42
0.000000001
 43
0.00000001
 40
0.0
 40
0.0
 40
0.0
 40
0.0
 40
0.1636057387306497
 40
0.3149441522366011
 40
0.4558730783220045
 40
0.584995238979437
 40
0.704119521550272
 40
0.8121271747632999
 40
0.9111502281332392
 40
1.0
 40
1.0
 40
1.0
 40
1.0
 10
350.6495352564102
 20
157.5599999999948
 30
0.0
 10
350.6958151503134
 20
157.5595660722566
 30
0.0
 10
350.7849048244532
 20
157.558730753125
 30
0.0
 10
350.9137654761739
 20
157.5532220472604
 30
0.0
 10
351.0326354434264
 20
157.5437819362641
 30
0.0
 10
351.1418219845619
 20
157.5295311740984
 30
0.0
 10
351.2412431469303
 20
157.5126902881744
 30
0.0
 10
351.3309125302208
 20
157.4907817220347
 30
0.0
 10
351.410926671299
 20
157.4657003572417
 30
0.0
 10
351.4594975579935
 20
157.4440412242375
 30
0.0
 10
351.482467948718
 20
157.4337980769178
 30
0.0
  0
LINE
  5
25A
330
1F
100
AcDbEntity
  8
0
  6
Continuous
 62
     7
370
    25
100
AcDbLine
 10
350.1194871795
 20
157.56
 30
0.0
 11
350.6495352564
 21
157.56
 31
0.0
  0
LINE
  5
25B
330
1F
100
AcDbEntity
  8
0
  6
Continuous
 62
     7
370
    25
100
AcDbLine
 10
350.1194871795
 20
154.06
 30
0.0
 11
350.1194871795
 21
157.56
 31
0.0
  0
LINE
  5
25C
330
1F
100
AcDbEntity
  8
0
  6
Continuous
 62
     7
370
    25
100
AcDbLine
 10
350.9327884615
 20
154.06
 30
0.0
 11
350.1194871795
 21
154.06
 31
0.0
  0
SPLINE
  5
25D
330
1F
100
AcDbEntity
  8
0
  6
Continuous
 62
     7
370
    25
100
AcDbSpline
210
0.0
220
0.0
230
1.0
 70
     8
 71
     3
 72
    23
 73
    19
 74
     0
 42
0.000000001
 43
0.00000001
 40
0.0
 40
0.0
 40
0.0
 40
0.0
 40
0.0753260105316408
 40
0.1472786674881759
 40
0.2168916655328414
 40
0.2846969602155745
 40
0.3502392851236693
 40
0.4146526650721151
 40
0.4787330229984976
 40
0.5424306524100238
 40
0.60485486160406
 40
0.6639027474570299
 40
0.7207203342229941
 40
0.7765910592953197
 40
0.831316111860114
 40
0.8865113499679349
 40
0.9425211560077702
 40
0.9999999999999999
 40
0.9999999999999999
 40
0.9999999999999999
 40
0.9999999999999999
 10
356.3117948717949
 20
155.9915905448665
 30
0.0
 10
356.312106129373
 20
156.0152165455309
 30
0.0
 10
356.3127147053619
 20
156.0614104946244
 30
0.0
 10
356.3201955017863
 20
156.1290743063053
 30
0.0
 10
356.3310423372089
 20
156.1938613196524
 30
0.0
 10
356.3472630675861
 20
156.2554794434041
 30
0.0
 10
356.3677101581219
 20
156.3140677426479
 30
0.0
 10
356.3922265493488
 20
156.3698171597421
 30
0.0
 10
356.4216070072662
 20
156.4225507141969
 30
0.0
 10
356.4560492158692
 20
156.47132697367
 30
0.0
 10
356.4933057819877
 20
156.5159595830351
 30
0.0
 10
356.5336384403384
 20
156.5548002889954
 30
0.0
 10
356.5759619845281
 20
156.5882479918342
 30
0.0
 10
356.6208643106938
 20
156.6156624271131
 30
0.0
 10
356.6683807395443
 20
156.6371591929409
 30
0.0
 10
356.7184941962057
 20
156.6515073430445
 30
0.0
 10
356.7706543654416
 20
156.6612177567082
 30
0.0
 10
356.806274365011
 20
156.6621114644504
 30
0.0
 10
356.8243149038461
 20
156.6625641025589
 30
0.0
  0
SPLINE
  5
25E
330
1F
100
AcDbEntity
  8
0
  6
Continuous
 62
     7
370
    25
100
AcDbSpline
210
0.0
220
0.0
230
1.0
 70
     8
 71
     3
 72
    11
 73
     7
 74
     0
 42
0.000000001
 43
0.00000001
 40
0.0
 40
0.0
 40
0.0
 40
0.0
 40
0.2378515957562004
 40
0.4828882020577387
 40
0.7342204840633876
 40
1.0
 40
1.0
 40
1.0
 40
1.0
 10
356.3980328525641
 20
155.5975600961486
 30
0.0
 10
356.3845448418383
 20
155.626919283176
 30
0.0
 10
356.3571613751517
 20
155.6865245382614
 30
0.0
 10
356.3318413407185
 20
155.7832000563304
 30
0.0
 10
356.3148276215696
 20
155.8853494961468
 30
0.0
 10
356.3128244435283
 20
155.9555233488193
 30
0.0
 10
356.3117948717949
 20
155.9915905448665
 30
0.0
  0
SPLINE
  5
25F
330
1F
100
AcDbEntity
  8
0
  6
Continuous
 62
     7
370
    25
100
AcDbSpline
210
0.0
220
0.0
230
1.0
 70
     8
 71
     3
 72
    11
 73
     7
 74
     0
 42
0.000000001
 43
0.00000001
 40
0.0
 40
0.0
 40
0.0
 40
0.0
 40
0.2930608017358928
 40
0.555606480264207
 40
0.790276485058686
 40
1.0
 40
1.0
 40
1.0
 40
1.0
 10
356.7240544871795
 20
155.2484014423025
 30
0.0
 10
356.686766790834
 20
155.277156650394
 30
0.0
 10
356.6160740008021
 20
155.3316729141262
 30
0.0
 10
356.5246587074354
 20
155.4198271334037
 30
0.0
 10
356.4500141513425
 20
155.5060608726261
 30
0.0
 10
356.414699137209
 20
155.5682235435835
 30
0.0
 10
356.3980328525641
 20
155.5975600961486
 30
0.0
  0
SPLINE
  5
260
330
1F
100
AcDbEntity
  8
0
  6
Continuous
 62
     7
370
    25
100
AcDbSpline
210
0.0
220
0.0
230
1.0
 70
     8
 71
     3
 72
    15
 73
    11
 74
     0
 42
0.000000001
 43
0.00000001
 40
0.0
 40
0.0
 40
0.0
 40
0.0
 40
0.0824207947349967
 40
0.176633343250123
 40
0.2842905535331919
 40
0.4020137168122286
 40
0.5326884817388805
 40
0.6752658041830295
 40
0.8310117703229102
 40
1.0
 40
1.0
 40
1.0
 40
1.0
 10
357.010813301282
 20
154.9847796474307
 30
0.0
 10
357.0048719473504
 20
154.9937571291117
 30
0.0
 10
356.9921392236274
 20
155.0129964801565
 30
0.0
 10
356.9686514311525
 20
155.041819803253
 30
0.0
 10
356.9399566577544
 20
155.0721258962846
 30
0.0
 10
356.9068850632381
 20
155.1048251113956
 30
0.0
 10
356.8681897901381
 20
155.1381634282856
 30
0.0
 10
356.8244881105522
 20
155.1731964140676
 30
0.0
 10
356.7761123506731
 20
155.2103852667499
 30
0.0
 10
356.7418725277187
 20
155.2353895030548
 30
0.0
 10
356.7240544871795
 20
155.2484014423025
 30
0.0
  0
SPLINE
  5
261
330
1F
100
AcDbEntity
  8
0
  6
Continuous
 62
     7
370
    25
100
AcDbSpline
210
0.0
220
0.0
230
1.0
 70
     8
 71
     3
 72
    11
 73
     7
 74
     0
 42
0.000000001
 43
0.00000001
 40
0.0
 40
0.0
 40
0.0
 40
0.0
 40
0.2615996037893672
 40
0.5133117159316173
 40
0.7566480987622393
 40
1.0
 40
1.0
 40
1.0
 40
1.0
 10
357.0746153846154
 20
154.7407892628153
 30
0.0
 10
357.0737982886025
 20
154.7630523034121
 30
0.0
 10
357.0721949797656
 20
154.806736924509
 30
0.0
 10
357.0598686768648
 20
154.8700942600529
 30
0.0
 10
357.0406702988528
 20
154.9301997368556
 30
0.0
 10
357.0207658453616
 20
154.966585957172
 30
0.0
 10
357.010813301282
 20
154.9847796474307
 30
0.0
  0
SPLINE
  5
262
330
1F
100
AcDbEntity
  8
0
  6
Continuous
 62
     7
370
    25
100
AcDbSpline
210
0.0
220
0.0
230
1.0
 70
     8
 71
     3
 72
    15
 73
    11
 74
     0
 42
0.000000001
 43
0.00000001
 40
0.0
 40
0.0
 40
0.0
 40
0.0
 40
0.1139004996368448
 40
0.2258837664673372
 40
0.341048882407706
 40
0.4679191918787119
 40
0.5991001625089272
 40
0.7301043541882836
 40
0.8611748659149179
 40
1.0
 40
1.0
 40
1.0
 40
1.0
 10
356.7457892628205
 20
154.3292307692255
 30
0.0
 10
356.7679797352462
 20
154.3306510139468
 30
0.0
 10
356.8119871584549
 20
154.3334675970872
 30
0.0
 10
356.8744768166434
 20
154.358216308963
 30
0.0
 10
356.9316382121258
 20
154.3973386206277
 30
0.0
 10
356.9805436385233
 20
154.4514931029358
 30
0.0
 10
357.0226858059858
 20
154.5145540918885
 30
0.0
 10
357.0528447247466
 20
154.5851647556593
 30
0.0
 10
357.0709639738998
 20
154.6613629217412
 30
0.0
 10
357.0733751550819
 20
154.7138114995308
 30
0.0
 10
357.0746153846154
 20
154.7407892628153
 30
0.0
  0
SPLINE
  5
263
330
1F
100
AcDbEntity
  8
0
  6
Continuous
 62
     7
370
    25
100
AcDbSpline
210
0.0
220
0.0
230
1.0
 70
     8
 71
     3
 72
    15
 73
    11
 74
     0
 42
0.000000001
 43
0.00000001
 40
0.0
 40
0.0
 40
0.0
 40
0.0
 40
0.1608119128800073
 40
0.3092745633346157
 40
0.4445512834084379
 40
0.5700300542214144
 40
0.6851416386399751
 40
0.7931599571346556
 40
0.898087329986589
 40
1.0
 40
1.0
 40
1.0
 40
1.0
 10
356.376298076923
 20
154.5984615384563
 30
0.0
 10
356.3903994325691
 20
154.5771426946914
 30
0.0
 10
356.4175192555459
 20
154.5361421495322
 30
0.0
 10
356.4626976433472
 20
154.4817566390467
 30
0.0
 10
356.5074551246846
 20
154.4344834948718
 30
0.0
 10
356.5538374353744
 20
154.3966727653
 30
0.0
 10
356.600417088702
 20
154.3664441259199
 30
0.0
 10
356.6480869369788
 20
154.3449707043873
 30
0.0
 10
356.696702671801
 20
154.3317700128262
 30
0.0
 10
356.7295868284968
 20
154.3300689192542
 30
0.0
 10
356.7457892628205
 20
154.3292307692255
 30
0.0
  0
LINE
  5
264
330
1F
100
AcDbEntity
  8
0
  6
Continuous
 62
     7
370
    25
100
AcDbLine
 10
356.2220512821
 20
154.3614823718
 30
0.0
 11
356.3762980769
 21
154.5984615385
 31
0.0
  0
SPLINE
  5
265
330
1F
100
AcDbEntity
  8
0
  6
Continuous
 62
     7
370
    25
100
AcDbSpline
210
0.0
220
0.0
230
1.0
 70
     8
 71
     3
 72
    15
 73
    11
 74
     0
 42
0.000000001
 43
0.00000001
 40
0.0
 40
0.0
 40
0.0
 40
0.0
 40
0.1173347258174046
 40
0.235158077604656
 40
0.3547265950530691
 40
0.4792021570866554
 40
0.6057189201383739
 40
0.7343223661269047
 40
0.8647328604952709
 40
1.0
 40
1.0
 40
1.0
 40
1.0
 10
356.7759375000001
 20
154.015128205123
 30
0.0
 10
356.7491975424821
 20
154.0161506321352
 30
0.0
 10
356.6956062721968
 20
154.0181997439306
 30
0.0
 10
356.6165351283876
 20
154.0366908521776
 30
0.0
 10
356.5393365224497
 20
154.0658593978884
 30
0.0
 10
356.4645741307406
 20
154.1055164609813
 30
0.0
 10
356.3944806216386
 20
154.1564534246371
 30
0.0
 10
356.3298265301472
 20
154.2160675560617
 30
0.0
 10
356.2717119120244
 20
154.2848344485979
 30
0.0
 10
356.2388053384912
 20
154.3356235852247
 30
0.0
 10
356.2220512820513
 20
154.3614823717896
 30
0.0
  0
SPLINE
  5
266
330
1F
100
AcDbEntity
  8
0
  6
Continuous
 62
     7
370
    25
100
AcDbSpline
210
0.0
220
0.0
230
1.0
 70
     8
 71
     3
 72
    23
 73
    19
 74
     0
 42
0.000000001
 43
0.00000001
 40
0.0
 40
0.0
 40
0.0
 40
0.0
 40
0.0731860793804806
 40
0.1439380962571288
 40
0.2128680358415008
 40
0.279390866004093
 40
0.3455785142024838
 40
0.4101423021725919
 40
0.4750708502050019
 40
0.5398721426855727
 40
0.6033399105388496
 40
0.6631970520447072
 40
0.7206301299358902
 40
0.7762623991620141
 40
0.8314103423811935
 40
0.8866745790274686
 40
0.9423398106438212
 40
1.0
 40
1.0
 40
1.0
 40
1.0
 10
357.3438461538462
 20
154.7541105769178
 30
0.0
 10
357.3431703197865
 20
154.72886261536
 30
0.0
 10
357.3418411289245
 20
154.6792064027062
 30
0.0
 10
357.3354307130556
 20
154.6059005551318
 30
0.0
 10
357.3214797148544
 20
154.5360382485114
 30
0.0
 10
357.3043440569875
 20
154.4685148237077
 30
0.0
 10
357.2808677449366
 20
154.4045325549319
 30
0.0
 10
357.2538992281108
 20
154.3424977544331
 30
0.0
 10
357.2195821631145
 20
154.2847641562384
 30
0.0
 10
357.1824075062423
 20
154.229340484173
 30
0.0
 10
357.140663214039
 20
154.1794720699427
 30
0.0
 10
357.0964396493195
 20
154.1352963789585
 30
0.0
 10
357.049045853257
 20
154.0987938008067
 30
0.0
 10
356.9996011767286
 20
154.0681814309693
 30
0.0
 10
356.947438482729
 20
154.0440336820226
 30
0.0
 10
356.8924690418944
 20
154.0272721778243
 30
0.0
 10
356.8349654936436
 20
154.0172185867063
 30
0.0
 10
356.7958430656453
 20
154.0158331287577
 30
0.0
 10
356.7759375000001
 20
154.015128205123
 30
0.0
  0
SPLINE
  5
267
330
1F
100
AcDbEntity
  8
0
  6
Continuous
 62
     7
370
    25
100
AcDbSpline
210
0.0
220
0.0
230
1.0
 70
     8
 71
     3
 72
    11
 73
     7
 74
     0
 42
0.000000001
 43
0.00000001
 40
0.0
 40
0.0
 40
0.0
 40
0.0
 40
0.2405505457673274
 40
0.4853628171088958
 40
0.7371956021607876
 40
1.0
 40
1.0
 40
1.0
 40
1.0
 10
357.2555048076923
 20
155.1495432692255
 30
0.0
 10
357.269108155277
 20
155.1196860647037
 30
0.0
 10
357.2965558548228
 20
155.0594426890276
 30
0.0
 10
357.3243422174966
 20
154.9625429255539
 30
0.0
 10
357.3405933402272
 20
154.8600694546742
 30
0.0
 10
357.3427465809064
 20
154.7899286496254
 30
0.0
 10
357.3438461538462
 20
154.7541105769178
 30
0.0
  0
SPLINE
  5
268
330
1F
100
AcDbEntity
  8
0
  6
Continuous
 62
     7
370
    25
100
AcDbSpline
210
0.0
220
0.0
230
1.0
 70
     8
 71
     3
 72
    11
 73
     7
 74
     0
 42
0.000000001
 43
0.00000001
 40
0.0
 40
0.0
 40
0.0
 40
0.0
 40
0.2960922483507055
 40
0.559535072046526
 40
0.7929267772190428
 40
1.0
 40
1.0
 40
1.0
 40
1.0
 10
356.9147596153846
 20
155.5085176281999
 30
0.0
 10
356.9539255741505
 20
155.4786138834762
 30
0.0
 10
357.0279387497129
 20
155.4221038125386
 30
0.0
 10
357.123650247913
 20
155.3312142820087
 30
0.0
 10
357.2011569460842
 20
155.2427497015136
 30
0.0
 10
357.2381251570236
 20
155.1793493220363
 30
0.0
 10
357.2555048076923
 20
155.1495432692255
 30
0.0
  0
SPLINE
  5
269
330
1F
100
AcDbEntity
  8
0
  6
Continuous
 62
     7
370
    25
100
AcDbSpline
210
0.0
220
0.0
230
1.0
 70
     8
 71
     3
 72
    11
 73
     7
 74
     0
 42
0.000000001
 43
0.00000001
 40
0.0
 40
0.0
 40
0.0
 40
0.0
 40
0.1873385624834966
 40
0.4164632646852155
 40
0.6850378342027894
 40
1.0
 40
1.0
 40
1.0
 40
1.0
 10
356.6455288461539
 20
155.7721394230717
 30
0.0
 10
356.6585599179411
 20
155.7523338859235
 30
0.0
 10
356.6875286610922
 20
155.708305157667
 30
0.0
 10
356.7479567181063
 20
155.6458284226013
 30
0.0
 10
356.8243526027587
 20
155.5772431364748
 30
0.0
 10
356.8830681036146
 20
155.5326088484618
 30
0.0
 10
356.9147596153846
 20
155.5085176281999
 30
0.0
  0
SPLINE
  5
26A
330
1F
100
AcDbEntity
  8
0
  6
Continuous
 62
     7
370
    25
100
AcDbSpline
210
0.0
220
0.0
230
1.0
 70
     8
 71
     3
 72
    11
 73
     7
 74
     0
 42
0.000000001
 43
0.00000001
 40
0.0
 40
0.0
 40
0.0
 40
0.0
 40
0.2481893999562398
 40
0.4921008036632434
 40
0.7425011035992224
 40
1.0
 40
1.0
 40
1.0
 40
1.0
 10
356.5810256410257
 20
156.0042107371742
 30
0.0
 10
356.5818653491012
 20
155.9840502601589
 30
0.0
 10
356.5835302913546
 20
155.9440768086608
 30
0.0
 10
356.5960529253599
 20
155.8848604098579
 30
0.0
 10
356.6162782066604
 20
155.8270456294404
 30
0.0
 10
356.6356882057602
 20
155.7906112322905
 30
0.0
 10
356.6455288461539
 20
155.7721394230717
 30
0.0
  0
SPLINE
  5
26B
330
1F
100
AcDbEntity
  8
0
  6
Continuous
 62
     7
370
    25
100
AcDbSpline
210
0.0
220
0.0
230
1.0
 70
     8
 71
     3
 72
    15
 73
    11
 74
     0
 42
0.000000001
 43
0.00000001
 40
0.0
 40
0.0
 40
0.0
 40
0.0
 40
0.1098636651767507
 40
0.2182444337769605
 40
0.3332090453642884
 40
0.4606210743843278
 40
0.5943461779142076
 40
0.7251730607788685
 40
0.8596109379290111
 40
1.0
 40
1.0
 40
1.0
 40
1.0
 10
356.841141826923
 20
156.3484615384563
 30
0.0
 10
356.8236333311283
 20
156.3473664295834
 30
0.0
 10
356.7888526623342
 20
156.3451909931867
 30
0.0
 10
356.7396214444068
 20
156.3236455865143
 30
0.0
 10
356.6943889544474
 20
156.2906196466242
 30
0.0
 10
356.6556663818407
 20
156.2447015733802
 30
0.0
 10
356.6224452672505
 20
156.1919489290207
 30
0.0
 10
356.598040114344
 20
156.1332350131663
 30
0.0
 10
356.5838833768622
 20
156.0700873575802
 30
0.0
 10
356.5819918727038
 20
156.0264843415691
 30
0.0
 10
356.5810256410257
 20
156.0042107371742
 30
0.0
  0
SPLINE
  5
26C
330
1F
100
AcDbEntity
  8
0
  6
Continuous
 62
     7
370
    25
100
AcDbSpline
210
0.0
220
0.0
230
1.0
 70
     8
 71
     3
 72
    15
 73
    11
 74
     0
 42
0.000000001
 43
0.00000001
 40
0.0
 40
0.0
 40
0.0
 40
0.0
 40
0.1694806456055553
 40
0.3231953273728573
 40
0.4628937145648369
 40
0.5897341762153736
 40
0.7039885362332959
 40
0.8088588217278707
 40
0.9069757015742342
 40
0.9999999999999999
 40
0.9999999999999999
 40
0.9999999999999999
 40
0.9999999999999999
 10
357.18609375
 20
156.0792307692255
 30
0.0
 10
357.1716266353309
 20
156.1004486348863
 30
0.0
 10
357.1440382116208
 20
156.1409105709021
 30
0.0
 10
357.1005179399804
 20
156.1959834706619
 30
0.0
 10
357.0571101757115
 20
156.242685917637
 30
0.0
 10
357.0136274516561
 20
156.2807305381877
 30
0.0
 10
356.9706179562401
 20
156.310970867454
 30
0.0
 10
356.92742312951
 20
156.3323626992
 30
0.0
 10
356.8842449172919
 20
156.3458570596381
 30
0.0
 10
356.8552520375938
 20
156.3476089372971
 30
0.0
 10
356.841141826923
 20
156.3484615384563
 30
0.0
  0
LINE
  5
26D
330
1F
100
AcDbEntity
  8
0
  6
Continuous
 62
     7
370
    25
100
AcDbLine
 10
357.3438461538
 20
156.298681891
 30
0.0
 11
357.18609375
 21
156.0792307692
 31
0.0
  0
SPLINE
  5
26E
330
1F
100
AcDbEntity
  8
0
  6
Continuous
 62
     7
370
    25
100
AcDbSpline
210
0.0
220
0.0
230
1.0
 70
     8
 71
     3
 72
    15
 73
    11
 74
     0
 42
0.000000001
 43
0.00000001
 40
0.0
 40
0.0
 40
0.0
 40
0.0
 40
0.0984604691555423
 40
0.199833520778076
 40
0.3081983786539828
 40
0.4235894954476186
 40
0.549644712063711
 40
0.6868906688579443
 40
0.836440056304152
 40
1.0
 40
1.0
 40
1.0
 40
1.0
 10
356.8243149038461
 20
156.6625641025589
 30
0.0
 10
356.8459212692743
 20
156.6614551818989
 30
0.0
 10
356.8897731431455
 20
156.6592045373341
 30
0.0
 10
356.9553979834493
 20
156.6412346601633
 30
0.0
 10
357.0207267364526
 20
156.6122303497007
 30
0.0
 10
357.0857538793687
 20
156.5711929881907
 30
0.0
 10
357.1510499924346
 20
156.5197237162994
 30
0.0
 10
357.2161660928836
 20
156.4567139857471
 30
0.0
 10
357.281793926142
 20
156.3828018280804
 30
0.0
 10
357.322554118875
 20
156.3275460383349
 30
0.0
 10
357.3438461538462
 20
156.2986818910204
 30
0.0
  0
LINE
  5
26F
330
1F
100
AcDbEntity
  8
0
  6
Continuous
 62
     7
370
    25
100
AcDbLine
 10
358.9592307692
 20
154.06
 30
0.0
 11
358.69
 21
154.06
 31
0.0
  0
LINE
  5
270
330
1F
100
AcDbEntity
  8
0
  6
Continuous
 62
     7
370
    25
100
AcDbLine
 10
358.9592307692
 20
154.9195753205
 30
0.0
 11
358.9592307692
 21
154.06
 31
0.0
  0
SPLINE
  5
271
330
1F
100
AcDbEntity
  8
0
  6
Continuous
 62
     7
370
    25
100
AcDbSpline
210
0.0
220
0.0
230
1.0
 70
     8
 71
     3
 72
    15
 73
    11
 74
     0
 42
0.000000001
 43
0.00000001
 40
0.0
 40
0.0
 40
0.0
 40
0.0
 40
0.0702314526823681
 40
0.1560455897099211
 40
0.2576441617869801
 40
0.3749772325838975
 40
0.5073976026545337
 40
0.655674765994488
 40
0.8198751583302869
 40
1.0
 40
1.0
 40
1.0
 40
1.0
 10
359.0012980769231
 20
155.7973798076871
 30
0.0
 10
358.9978120344162
 20
155.7770770381029
 30
0.0
 10
358.9900664797116
 20
155.7319667985805
 30
0.0
 10
358.9825142850062
 20
155.6567582883218
 30
0.0
 10
358.9742945108555
 20
155.567771574347
 30
0.0
 10
358.9695695210694
 20
155.464830030054
 30
0.0
 10
358.9640375809269
 20
155.3482440138378
 30
0.0
 10
358.9619975865959
 20
155.2177878410087
 30
0.0
 10
358.9594914116131
 20
155.0733642201295
 30
0.0
 10
358.9593202880811
 20
154.9723948403814
 30
0.0
 10
358.9592307692308
 20
154.9195753205076
 30
0.0
  0
SPLINE
  5
272
330
1F
100
AcDbEntity
  8
0
  6
Continuous
 62
     7
370
    25
100
AcDbSpline
210
0.0
220
0.0
230
1.0
 70
     8
 71
     3
 72
    15
 73
    11
 74
     0
 42
0.000000001
 43
0.00000001
 40
0.0
 40
0.0
 40
0.0
 40
0.0
 40
0.0800532498648633
 40
0.1649280635424374
 40
0.2611351287351749
 40
0.3718807979218065
 40
0.4990568741742062
 40
0.6442917452704156
 40
0.8112367143696522
 40
1.0
 40
1.0
 40
1.0
 40
1.0
 10
359.3834094551282
 20
156.3484615384563
 30
0.0
 10
359.3642018124472
 20
156.3467799039774
 30
0.0
 10
359.324629661186
 20
156.343315351087
 30
0.0
 10
359.2675658696604
 20
156.3151914170776
 30
0.0
 10
359.2125081337655
 20
156.2719940026488
 30
0.0
 10
359.159117527133
 20
156.2120333657969
 30
0.0
 10
359.1091480639755
 20
156.1348329273529
 30
0.0
 10
359.0664595533962
 20
156.0385567088328
 30
0.0
 10
359.0284563869524
 20
155.9247693439287
 30
0.0
 10
359.0107136137386
 20
155.8415445906617
 30
0.0
 10
359.0012980769231
 20
155.7973798076871
 30
0.0
  0
SPLINE
  5
273
330
1F
100
AcDbEntity
  8
0
  6
Continuous
 62
     7
370
    25
100
AcDbSpline
210
0.0
220
0.0
230
1.0
 70
     8
 71
     3
 72
    11
 73
     7
 74
     0
 42
0.000000001
 43
0.00000001
 40
0.0
 40
0.0
 40
0.0
 40
0.0
 40
0.3033689687410947
 40
0.5703085488773327
 40
0.799948725014632
 40
1.0
 40
1.0
 40
1.0
 40
1.0
 10
359.5040024038462
 20
156.3028886217896
 30
0.0
 10
359.4926456393871
 20
156.3096048349393
 30
0.0
 10
359.4712958622973
 20
156.3222307597043
 30
0.0
 10
359.4399382269008
 20
156.3373766646027
 30
0.0
 10
359.4107899169168
 20
156.3464918765362
 30
0.0
 10
359.3921074456939
 20
156.3478358331292
 30
0.0
 10
359.3834094551282
 20
156.3484615384563
 30
0.0
  0
LINE
  5
274
330
1F
100
AcDbEntity
  8
0
  6
Continuous
 62
     7
370
    25
100
AcDbLine
 10
359.6323076923
 20
156.5749238782
 30
0.0
 11
359.5040024038
 21
156.3028886218
 31
0.0
  0
SPLINE
  5
275
330
1F
100
AcDbEntity
  8
0
  6
Continuous
 62
     7
370
    25
100
AcDbSpline
210
0.0
220
0.0
230
1.0
 70
     8
 71
     3
 72
    11
 73
     7
 74
     0
 42
0.000000001
 43
0.00000001
 40
0.0
 40
0.0
 40
0.0
 40
0.0
 40
0.2148402946462969
 40
0.4486159012135009
 40
0.7073317400365176
 40
1.0
 40
1.0
 40
1.0
 40
1.0
 10
359.4275801282051
 20
156.6625641025589
 30
0.0
 10
359.4438216088339
 20
156.6613394157405
 30
0.0
 10
359.4777360403949
 20
156.6587821022644
 30
0.0
 10
359.528823001189
 20
156.6414476535981
 30
0.0
 10
359.5814032614732
 20
156.6135063095987
 30
0.0
 10
359.6146569967764
 20
156.5883020210907
 30
0.0
 10
359.6323076923077
 20
156.5749238781999
 30
0.0
  0
SPLINE
  5
276
330
1F
100
AcDbEntity
  8
0
  6
Continuous
 62
     7
370
    25
100
AcDbSpline
210
0.0
220
0.0
230
1.0
 70
     8
 71
     3
 72
    15
 73
    11
 74
     0
 42
0.000000001
 43
0.00000001
 40
0.0
 40
0.0
 40
0.0
 40
0.0
 40
0.17609690315901
 40
0.332515316640387
 40
0.4708263596311092
 40
0.5932317544188975
 40
0.7042836311773923
 40
0.8076719719940594
 40
0.9045282452096379
 40
1.0
 40
1.0
 40
1.0
 40
1.0
 10
358.9592307692308
 20
156.2411899038409
 30
0.0
 10
358.976739317835
 20
156.2760318827011
 30
0.0
 10
359.0097998684672
 20
156.3418223164069
 30
0.0
 10
359.0639867040986
 20
156.4311420687241
 30
0.0
 10
359.1212097883165
 20
156.5038446895877
 30
0.0
 10
359.1788152621023
 20
156.5630463322228
 30
0.0
 10
359.2394753929998
 20
156.6069796358956
 30
0.0
 10
359.3005544065683
 20
156.6394353805983
 30
0.0
 10
359.3638082154959
 20
156.6586798703586
 30
0.0
 10
359.406425086483
 20
156.6612755871174
 30
0.0
 10
359.4275801282051
 20
156.6625641025589
 30
0.0
  0
LINE
  5
277
330
1F
100
AcDbEntity
  8
0
  6
Continuous
 62
     7
370
    25
100
AcDbLine
 10
358.9592307692
 20
156.6176923077
 30
0.0
 11
358.9592307692
 21
156.2411899038
 31
0.0
  0
LINE
  5
278
330
1F
100
AcDbEntity
  8
0
  6
Continuous
 62
     7
370
    25
100
AcDbLine
 10
358.69
 20
156.6176923077
 30
0.0
 11
358.9592307692
 21
156.6176923077
 31
0.0
  0
LINE
  5
279
330
1F
100
AcDbEntity
  8
0
  6
Continuous
 62
     7
370
    25
100
AcDbLine
 10
358.69
 20
154.06
 30
0.0
 11
358.69
 21
156.6176923077
 31
0.0
  0
SPLINE
  5
27A
330
1F
100
AcDbEntity
  8
0
  6
Continuous
 62
     7
370
    25
100
AcDbSpline
210
0.0
220
0.0
230
1.0
 70
     8
 71
     3
 72
    15
 73
    11
 74
     0
 42
0.000000001
 43
0.00000001
 40
0.0
 40
0.0
 40
0.0
 40
0.0
 40
0.133913028630893
 40
0.2646896559588101
 40
0.3915400417930332
 40
0.5158862190026835
 40
0.6377710995814648
 40
0.759066480783148
 40
0.8794477651408427
 40
1.0
 40
1.0
 40
1.0
 40
1.0
 10
360.7541025641025
 20
155.3318349358922
 30
0.0
 10
360.7549608176206
 20
155.3746287241954
 30
0.0
 10
360.7566572233455
 20
155.4592140197336
 30
0.0
 10
360.7685980949796
 20
155.5838964761474
 30
0.0
 10
360.7889386833374
 20
155.7043422597134
 30
0.0
 10
360.8174771515518
 20
155.8202360164526
 30
0.0
 10
360.8551979263573
 20
155.9315727721317
 30
0.0
 10
360.8997003572072
 20
156.0389870330912
 30
0.0
 10
360.9531189786268
 20
156.1418936296959
 30
0.0
 10
360.9947771359771
 20
156.2066735810122
 30
0.0
 10
361.0156209935897
 20
156.2390865384563
 30
0.0
  0
SPLINE
  5
27B
330
1F
100
AcDbEntity
  8
0
  6
Continuous
 62
     7
370
    25
100
AcDbSpline
210
0.0
220
0.0
230
1.0
 70
     8
 71
     3
 72
    23
 73
    19
 74
     0
 42
0.000000001
 43
0.00000001
 40
0.0
 40
0.0
 40
0.0
 40
0.0
 40
0.0584535664154601
 40
0.1146276609855018
 40
0.1702321950100985
 40
0.2255231021838469
 40
0.2819654635561908
 40
0.3400142395304966
 40
0.4005631686868683
 40
0.4646027466361499
 40
0.5302019989538966
 40
0.5951249231548972
 40
0.6604540332722014
 40
0.7257673506045499
 40
0.792436226463994
 40
0.8598404612346123
 40
0.9289428996454835
 40
0.9999999999999999
 40
0.9999999999999999
 40
0.9999999999999999
 40
0.9999999999999999
 10
361.7419831730769
 20
154.015128205123
 30
0.0
 10
361.7063768957796
 20
154.0163361632673
 30
0.0
 10
361.6365528536674
 20
154.0187049736777
 30
0.0
 10
361.5342761278341
 20
154.0375637704591
 30
0.0
 10
361.4369603438496
 20
154.0681487177583
 30
0.0
 10
361.345001947888
 20
154.1126512874154
 30
0.0
 10
361.2573830027893
 20
154.1679888286801
 30
0.0
 10
361.1758535036557
 20
154.2370538253389
 30
0.0
 10
361.0989055425027
 20
154.3175787483818
 30
0.0
 10
361.0283598642509
 20
154.4096537448551
 30
0.0
 10
360.9648400636885
 20
154.5097574217754
 30
0.0
 10
360.9081589047293
 20
154.61477737316
 30
0.0
 10
360.8604753609442
 20
154.7240489904072
 30
0.0
 10
360.822052808769
 20
154.8379541413016
 30
0.0
 10
360.7906093741489
 20
154.9553549921751
 30
0.0
 10
360.7704514207393
 20
155.0775029061507
 30
0.0
 10
360.7561611912087
 20
155.2031910597027
 30
0.0
 10
360.7547951235216
 20
155.2885568075285
 30
0.0
 10
360.7541025641025
 20
155.3318349358922
 30
0.0
  0
SPLINE
  5
27C
330
1F
100
AcDbEntity
  8
0
  6
Continuous
 62
     7
370
    25
100
AcDbSpline
210
0.0
220
0.0
230
1.0
 70
     8
 71
     3
 72
    23
 73
    19
 74
     0
 42
0.000000001
 43
0.00000001
 40
0.0
 40
0.0
 40
0.0
 40
0.0
 40
0.0711052897592328
 40
0.1402545919649233
 40
0.2077045388449967
 40
0.2743223363737837
 40
0.3398051421832659
 40
0.4051785571048965
 40
0.470145510643628
 40
0.53578925097036
 40
0.59987225919085
 40
0.6604622513351242
 40
0.7185503947469523
 40
0.7747074277431275
 40
0.8300358320268008
 40
0.8856780758563404
 40
0.9418902664950971
 40
1.0
 40
1.0
 40
1.0
 40
1.0
 10
362.7284615384615
 20
155.3318349358922
 30
0.0
 10
362.7277615915577
 20
155.2885588535161
 30
0.0
 10
362.7263809521183
 20
155.2031971413839
 30
0.0
 10
362.7121968390685
 20
155.077479598532
 30
0.0
 10
362.6916586490178
 20
154.9554974871799
 30
0.0
 10
362.6616429005149
 20
154.8376835118859
 30
0.0
 10
362.6218258424202
 20
154.7242147312033
 30
0.0
 10
362.5744833061615
 20
154.614751720771
 30
0.0
 10
362.51770248683
 20
154.5097650175798
 30
0.0
 10
362.4542114562678
 20
154.4096492981631
 30
0.0
 10
362.3836512242522
 20
154.317588560543
 30
0.0
 10
362.3067314714542
 20
154.2370214360967
 30
0.0
 10
362.2252594304225
 20
154.1682299932849
 30
0.0
 10
362.1381620703264
 20
154.11244527332
 30
0.0
 10
362.0462844090938
 20
154.0681809557004
 30
0.0
 10
361.9489945764549
 20
154.0375546645168
 30
0.0
 10
361.8469413659516
 20
154.0187513389082
 30
0.0
 10
361.777354245305
 20
154.0163492067742
 30
0.0
 10
361.7419831730769
 20
154.015128205123
 30
0.0
  0
SPLINE
  5
27D
330
1F
100
AcDbEntity
  8
0
  6
Continuous
 62
     7
370
    25
100
AcDbSpline
210
0.0
220
0.0
230
1.0
 70
     8
 71
     3
 72
    15
 73
    11
 74
     0
 42
0.000000001
 43
0.00000001
 40
0.0
 40
0.0
 40
0.0
 40
0.0
 40
0.1202984850132145
 40
0.241074224091067
 40
0.3614413202027122
 40
0.483761807000798
 40
0.6085546661551545
 40
0.7351380451943512
 40
0.8656394013995393
 40
1.0
 40
1.0
 40
1.0
 40
1.0
 10
362.4669431089744
 20
156.2411899038409
 30
0.0
 10
362.4878261098471
 20
156.2087962502527
 30
0.0
 10
362.5296749596604
 20
156.143880429381
 30
0.0
 10
362.5824756108208
 20
156.0406754434535
 30
0.0
 10
362.6277042701818
 20
155.9333431296137
 30
0.0
 10
362.6650401156373
 20
155.8216080351038
 30
0.0
 10
362.6935539970659
 20
155.7052628441937
 30
0.0
 10
362.7139750182325
 20
155.5845988205572
 30
0.0
 10
362.725928035351
 20
155.4596820263148
 30
0.0
 10
362.7276088737221
 20
155.3748625941544
 30
0.0
 10
362.7284615384615
 20
155.3318349358922
 30
0.0
  0
SPLINE
  5
27E
330
1F
100
AcDbEntity
  8
0
  6
Continuous
 62
     7
370
    25
100
AcDbSpline
210
0.0
220
0.0
230
1.0
 70
     8
 71
     3
 72
    15
 73
    11
 74
     0
 42
0.000000001
 43
0.00000001
 40
0.0
 40
0.0
 40
0.0
 40
0.0
 40
0.1227883767207101
 40
0.2420419026190387
 40
0.3595959981897974
 40
0.4781937832622996
 40
0.5992978847341311
 40
0.7259941791302149
 40
0.8586764268039886
 40
1.0
 40
1.0
 40
1.0
 40
1.0
 10
361.7419831730769
 20
156.6625641025589
 30
0.0
 10
361.7778455237452
 20
156.6615196760672
 30
0.0
 10
361.8485378141717
 20
156.6594608901957
 30
0.0
 10
361.9517428381037
 20
156.6380628878316
 30
0.0
 10
362.0501233781947
 20
156.6048397630453
 30
0.0
 10
362.1443765631235
 20
156.5594252179696
 30
0.0
 10
362.2323522712222
 20
156.4981873766548
 30
0.0
 10
362.3169880718997
 20
156.4260997939133
 30
0.0
 10
362.3960339191764
 20
156.3395045203702
 30
0.0
 10
362.4428149345233
 20
156.2746432859127
 30
0.0
 10
362.4669431089744
 20
156.2411899038409
 30
0.0
  0
SPLINE
  5
27F
330
1F
100
AcDbEntity
  8
0
  6
Continuous
 62
     7
370
    25
100
AcDbSpline
210
0.0
220
0.0
230
1.0
 70
     8
 71
     3
 72
    15
 73
    11
 74
     0
 42
0.000000001
 43
0.00000001
 40
0.0
 40
0.0
 40
0.0
 40
0.0
 40
0.1415571220414976
 40
0.2743999240101093
 40
0.4006515666663042
 40
0.5220693473863374
 40
0.6406795238625569
 40
0.7586531087856785
 40
0.877564204056685
 40
1.0
 40
1.0
 40
1.0
 40
1.0
 10
361.0156209935897
 20
156.2390865384563
 30
0.0
 10
361.0396415526724
 20
156.2728746194541
 30
0.0
 10
361.0862039544216
 20
156.3383707719933
 30
0.0
 10
361.1665738382972
 20
156.4240990955916
 30
0.0
 10
361.250002504896
 20
156.4981062041553
 30
0.0
 10
361.3390627686875
 20
156.5582642149679
 30
0.0
 10
361.4330819580713
 20
156.6052264360322
 30
0.0
 10
361.5320717440329
 20
156.6378635848577
 30
0.0
 10
361.6354113692553
 20
156.6595008877293
 30
0.0
 10
361.7061150460697
 20
156.6615331377575
 30
0.0
 10
361.7419831730769
 20
156.6625641025589
 30
0.0
  0
SPLINE
  5
280
330
1F
100
AcDbEntity
  8
0
  6
Continuous
 62
     7
370
    25
100
AcDbSpline
210
0.0
220
0.0
230
1.0
 70
     8
 71
     3
 72
    15
 73
    11
 74
     0
 42
0.000000001
 43
0.00000001
 40
0.0
 40
0.0
 40
0.0
 40
0.0
 40
0.1773562902825111
 40
0.3397570920426183
 40
0.4871564347424502
 40
0.6189278323480004
 40
0.7366280875573723
 40
0.8387591685491436
 40
0.9266456079359512
 40
1.0
 40
1.0
 40
1.0
 40
1.0
 10
337.9185657051282
 20
155.8240224358922
 30
0.0
 10
337.8924398223676
 20
155.8502549796609
 30
0.0
 10
337.842391110029
 20
155.9005080198746
 30
0.0
 10
337.7735399108327
 20
155.9753469545219
 30
0.0
 10
337.710666692496
 20
156.0427502119464
 30
0.0
 10
337.6566507183887
 20
156.1055800936833
 30
0.0
 10
337.6098484156714
 20
156.1620972560457
 30
0.0
 10
337.5698289831233
 20
156.2123794524874
 30
0.0
 10
337.5390768535038
 20
156.2580125456464
 30
0.0
 10
337.5218538211558
 20
156.2869289825769
 30
0.0
 10
337.5140184294872
 20
156.3000841346101
 30
0.0
  0
SPLINE
  5
281
330
1F
100
AcDbEntity
  8
0
  6
Continuous
 62
     7
370
    25
100
AcDbSpline
210
0.0
220
0.0
230
1.0
 70
     8
 71
     3
 72
    23
 73
    19
 74
     0
 42
0.000000001
 43
0.00000001
 40
0.0
 40
0.0
 40
0.0
 40
0.0
 40
0.0561311272566704
 40
0.1105446996414155
 40
0.164490693136268
 40
0.2185861882200419
 40
0.2737983216716739
 40
0.3307025735938874
 40
0.3904289212690719
 40
0.4536262558270602
 40
0.5184694965267151
 40
0.5830820278981925
 40
0.6485793787737232
 40
0.7149233458902022
 40
0.7830084324946616
 40
0.8527562631037895
 40
0.9251556692001539
 40
1.0
 40
1.0
 40
1.0
 40
1.0
 10
348.2180448717949
 20
157.6497435897384
 30
0.0
 10
348.2655858434231
 20
157.6481007137655
 30
0.0
 10
348.3592130817515
 20
157.644865232138
 30
0.0
 10
348.4968269393613
 20
157.6199388990142
 30
0.0
 10
348.6278155572941
 20
157.577025773599
 30
0.0
 10
348.7540167027327
 20
157.5197089207307
 30
0.0
 10
348.872850754538
 20
157.4435386820752
 30
0.0
 10
348.985896443345
 20
157.3514991554856
 30
0.0
 10
349.0927156849042
 20
157.2425849488549
 30
0.0
 10
349.1925023499441
 20
157.1185473199803
 30
0.0
 10
349.2835956807112
 20
156.9829975220269
 30
0.0
 10
349.3634228778429
 20
156.8382624048295
 30
0.0
 10
349.4304733366023
 20
156.6858328337492
 30
0.0
 10
349.4864001045868
 20
156.5258634372159
 30
0.0
 10
349.5289031447639
 20
156.3580649375407
 30
0.0
 10
349.5587965836224
 20
156.1824578088015
 30
0.0
 10
349.57739396418
 20
155.9994697305955
 30
0.0
 10
349.5798017552671
 20
155.8747815388189
 30
0.0
 10
349.5810256410257
 20
155.8114022435845
 30
0.0
  0
SPLINE
  5
282
330
1F
100
AcDbEntity
  8
0
  6
Continuous
 62
     7
370
    25
100
AcDbSpline
210
0.0
220
0.0
230
1.0
 70
     8
 71
     3
 72
    27
 73
    23
 74
     0
 42
0.000000001
 43
0.00000001
 40
0.0
 40
0.0
 40
0.0
 40
0.0
 40
0.0362138134808971
 40
0.0716518108523366
 40
0.1072770114745167
 40
0.1427015993298693
 40
0.17873291632327
 40
0.215261872746767
 40
0.252561468681088
 40
0.2911030267797037
 40
0.3302439659166534
 40
0.3697353557737311
 40
0.4095189177264835
 40
0.4499950888742013
 40
0.4909090738598015
 40
0.5331106633605717
 40
0.5761152088262144
 40
0.6206969433110886
 40
0.711714797983211
 40
0.8046663624656327
 40
0.900297318358779
 40
1.0
 40
1.0
 40
1.0
 40
1.0
 10
343.0248357371795
 20
154.3292307692255
 30
0.0
 10
343.0494058040677
 20
154.3296969187774
 30
0.0
 10
343.0980195681562
 20
154.3306192314618
 30
0.0
 10
343.1702623967749
 20
154.3402411667446
 30
0.0
 10
343.2409591319336
 20
154.3553688643825
 30
0.0
 10
343.3101850387724
 20
154.3776374396929
 30
0.0
 10
343.378140638251
 20
154.4050009014115
 30
0.0
 10
343.4452654813396
 20
154.4376180235242
 30
0.0
 10
343.5096463104693
 20
154.4785440447197
 30
0.0
 10
343.5734867315949
 20
154.5234174498224
 30
0.0
 10
343.6339968350231
 20
154.5750232554068
 30
0.0
 10
343.6926782785814
 20
154.6299451833175
 30
0.0
 10
343.7463547486855
 20
154.690985907212
 30
0.0
 10
343.797870861481
 20
154.7550667869122
 30
0.0
 10
343.8448037424968
 20
154.824586595327
 30
0.0
 10
343.889134890205
 20
154.8977856867174
 30
0.0
 10
343.9289433750853
 20
154.9763478903868
 30
0.0
 10
343.9788271365385
 20
155.0867587891074
 30
0.0
 10
344.0299128183185
 20
155.2334241765381
 30
0.0
 10
344.075384747808
 20
155.4177755984851
 30
0.0
 10
344.1012627425835
 20
155.6120169003411
 30
0.0
 10
344.1048404992172
 20
155.7444874285341
 30
0.0
 10
344.1066666666667
 20
155.8121033653794
 30
0.0
  0
SPLINE
  5
283
330
1F
100
AcDbEntity
  8
0
  6
Continuous
 62
     7
370
    25
100
AcDbSpline
210
0.0
220
0.0
230
1.0
 70
     8
 71
     3
 72
    23
 73
    19
 74
     0
 42
0.000000001
 43
0.00000001
 40
0.0
 40
0.0
 40
0.0
 40
0.0
 40
0.0753643028873303
 40
0.1479210478213362
 40
0.2180392056741897
 40
0.2864650244733009
 40
0.3536280076397484
 40
0.41966344058831
 40
0.4850688091839034
 40
0.5506450122955858
 40
0.6143664702835915
 40
0.6745355564297186
 40
0.7315092737162119
 40
0.7862592140879169
 40
0.8397553785722267
 40
0.8925789826456086
 40
0.945856469110418
 40
1.0
 40
1.0
 40
1.0
 40
1.0
 10
341.9528205128205
 20
155.7959775640973
 30
0.0
 10
341.953725762379
 20
155.7454597543507
 30
0.0
 10
341.9555025380952
 20
155.6463060825848
 30
0.0
 10
341.9705693979222
 20
155.5007821729527
 30
0.0
 10
341.9949628970537
 20
155.3613104851046
 30
0.0
 10
342.029356800321
 20
155.2276546843613
 30
0.0
 10
342.0734507566628
 20
155.0997672952802
 30
0.0
 10
342.1275544049727
 20
154.9779683761724
 30
0.0
 10
342.191779510558
 20
154.8624135129136
 30
0.0
 10
342.2646782217136
 20
154.754009632741
 30
0.0
 10
342.3444488568587
 20
154.6549790377875
 30
0.0
 10
342.4294690203652
 20
154.5683307047494
 30
0.0
 10
342.5181516466039
 20
154.4943980577577
 30
0.0
 10
342.6115248540769
 20
154.4344531880874
 30
0.0
 10
342.7086240062571
 20
154.3865010650932
 30
0.0
 10
342.8107800896402
 20
154.3539601589065
 30
0.0
 10
342.9164216767352
 20
154.3323811618814
 30
0.0
 10
342.9885040041704
 20
154.3302865291922
 30
0.0
 10
343.0248357371795
 20
154.3292307692255
 30
0.0
  0
SPLINE
  5
284
330
1F
100
AcDbEntity
  8
0
  6
Continuous
 62
     7
370
    25
100
AcDbSpline
210
0.0
220
0.0
230
1.0
 70
     8
 71
     3
 72
    27
 73
    23
 74
     0
 42
0.000000001
 43
0.00000001
 40
0.0
 40
0.0
 40
0.0
 40
0.0
 40
0.0345403335200462
 40
0.0690478905893649
 40
0.1033754852476494
 40
0.1381923175834045
 40
0.1739025756221037
 40
0.2104877019749208
 40
0.2480225815446469
 40
0.2870234984625046
 40
0.3267056395078536
 40
0.3664852153648313
 40
0.4068119831058167
 40
0.4476159030587516
 40
0.4890671194749781
 40
0.5313279591852038
 40
0.5748578081212988
 40
0.6195021344928143
 40
0.7103224458031931
 40
0.8036588163280971
 40
0.8998125578359338
 40
1.0
 40
1.0
 40
1.0
 40
1.0
 10
343.0248357371795
 20
157.290769230764
 30
0.0
 10
343.0014260300767
 20
157.2903547774448
 30
0.0
 10
342.9546288301069
 20
157.2895262640948
 30
0.0
 10
342.8852657631167
 20
157.2789457136764
 30
0.0
 10
342.8167207323265
 20
157.263673686298
 30
0.0
 10
342.7489764667281
 20
157.241940124046
 30
0.0
 10
342.6825300324088
 20
157.2126609837601
 30
0.0
 10
342.6163692389314
 20
157.1785508975069
 30
0.0
 10
342.5516252422171
 20
157.1374224260006
 30
0.0
 10
342.4883692813169
 20
157.0905471832207
 30
0.0
 10
342.426579405609
 20
157.0392518980549
 30
0.0
 10
342.3692344907984
 20
156.9817686702403
 30
0.0
 10
342.3143611850012
 20
156.9209515467772
 30
0.0
 10
342.2631491179663
 20
156.8555349016385
 30
0.0
 10
342.2154292475026
 20
156.7859627426833
 30
0.0
 10
342.1710214237943
 20
156.7120556495795
 30
0.0
 10
342.1305575021801
 20
156.6334807109682
 30
0.0
 10
342.0808875622583
 20
156.5228714855213
 30
0.0
 10
342.0289971947381
 20
156.3765067887524
 30
0.0
 10
341.9853300941571
 20
156.1915038418906
 30
0.0
 10
341.9579012170252
 20
155.9968482214477
 30
0.0
 10
341.9545371186194
 20
155.8638452693114
 30
0.0
 10
341.9528205128205
 20
155.7959775640973
 30
0.0
  0
SPLINE
  5
285
330
1F
100
AcDbEntity
  8
0
  6
Continuous
 62
     7
370
    25
100
AcDbSpline
210
0.0
220
0.0
230
1.0
 70
     8
 71
     3
 72
    31
 73
    27
 74
     0
 42
0.000000001
 43
0.00000001
 40
0.0
 40
0.0
 40
0.0
 40
0.0
 40
0.0501967491003085
 40
0.0994661459104872
 40
0.1475107086710971
 40
0.1948519830460004
 40
0.2412901464816288
 40
0.2868848560375626
 40
0.3320877231231313
 40
0.3770154669259699
 40
0.421156418450194
 40
0.4641967469625672
 40
0.5062815521760675
 40
0.5475660099741251
 40
0.588214463277013
 40
0.6286323941920235
 40
0.6685312836457488
 40
0.7085919746067297
 40
0.7479832316162439
 40
0.785918258442875
 40
0.822914854418198
 40
0.8590448686328861
 40
0.894620237161624
 40
0.9297210202048315
 40
0.9646696030869357
 40
1.0
 40
1.0
 40
1.0
 40
1.0
 10
344.1066666666667
 20
155.8121033653794
 30
0.0
 10
344.1063532625869
 20
155.8460065270083
 30
0.0
 10
344.105732244364
 20
155.9131865114067
 30
0.0
 10
344.0980382049923
 20
156.0125433985251
 30
0.0
 10
344.0880445527798
 20
156.1097271749436
 30
0.0
 10
344.0726161284773
 20
156.2043082780584
 30
0.0
 10
344.0521628967069
 20
156.2962117814884
 30
0.0
 10
344.0275660187518
 20
156.3855957603616
 30
0.0
 10
343.9987523407395
 20
156.4726326591538
 30
0.0
 10
343.9660945694377
 20
156.5572625825389
 30
0.0
 10
343.9289311324809
 20
156.638415392704
 30
0.0
 10
343.8882820622011
 20
156.7157076213928
 30
0.0
 10
343.8440814527012
 20
156.7887964034257
 30
0.0
 10
343.796299655875
 20
156.8576234951823
 30
0.0
 10
343.745125181656
 20
156.9225817778792
 30
0.0
 10
343.6895326653643
 20
156.9825016356658
 30
0.0
 10
343.631274448914
 20
157.0392711682319
 30
0.0
 10
343.5690302751467
 20
157.0905839705787
 30
0.0
 10
343.5050439031156
 20
157.1374296507119
 30
0.0
 10
343.4396045104883
 20
157.1785675340847
 30
0.0
 10
343.3727370617223
 20
157.2126529792591
 30
0.0
 10
343.3054069969307
 20
157.2420921450283
 30
0.0
 10
343.2364343882473
 20
157.2636679289655
 30
0.0
 10
343.1667234606281
 20
157.2788739404682
 30
0.0
 10
343.096211569163
 20
157.2895702341042
 30
0.0
 10
343.0487136971919
 20
157.290368120283
 30
0.0
 10
343.0248357371795
 20
157.290769230764
 30
0.0
  0
SPLINE
  5
286
330
1F
100
AcDbEntity
  8
0
  6
Continuous
 62
     7
370
    25
100
AcDbSpline
210
0.0
220
0.0
230
1.0
 70
     8
 71
     3
 72
    23
 73
    19
 74
     0
 42
0.000000001
 43
0.00000001
 40
0.0
 40
0.0
 40
0.0
 40
0.0
 40
0.0753643028873303
 40
0.1479210478213362
 40
0.2180392056741897
 40
0.2864650244733009
 40
0.3536280076397484
 40
0.41966344058831
 40
0.4850688091839034
 40
0.5506450122955858
 40
0.6143664702835901
 40
0.6745355564297186
 40
0.7315092737162119
 40
0.7862592140879169
 40
0.8397553785722267
 40
0.8925789826456086
 40
0.945856469110418
 40
1.0
 40
1.0
 40
1.0
 40
1.0
 10
347.1579487179487
 20
155.7959775640973
 30
0.0
 10
347.1588539675073
 20
155.7454597543507
 30
0.0
 10
347.1606307432235
 20
155.6463060825848
 30
0.0
 10
347.1756976030504
 20
155.5007821729528
 30
0.0
 10
347.2000911021819
 20
155.3613104851046
 30
0.0
 10
347.2344850054493
 20
155.2276546843613
 30
0.0
 10
347.278578961791
 20
155.0997672952802
 30
0.0
 10
347.3326826101009
 20
154.9779683761724
 30
0.0
 10
347.3969077156863
 20
154.8624135129136
 30
0.0
 10
347.4698064268418
 20
154.754009632741
 30
0.0
 10
347.5495770619868
 20
154.6549790377875
 30
0.0
 10
347.6345972254933
 20
154.5683307047494
 30
0.0
 10
347.7232798517321
 20
154.4943980577577
 30
0.0
 10
347.8166530592051
 20
154.4344531880874
 30
0.0
 10
347.9137522113853
 20
154.3865010650932
 30
0.0
 10
348.0159082947683
 20
154.3539601589065
 30
0.0
 10
348.1215498818635
 20
154.3323811618814
 30
0.0
 10
348.1936322092986
 20
154.3302865291922
 30
0.0
 10
348.2299639423077
 20
154.3292307692255
 30
0.0
  0
SPLINE
  5
287
330
1F
100
AcDbEntity
  8
0
  6
Continuous
 62
     7
370
    25
100
AcDbSpline
210
0.0
220
0.0
230
1.0
 70
     8
 71
     3
 72
    27
 73
    23
 74
     0
 42
0.000000001
 43
0.00000001
 40
0.0
 40
0.0
 40
0.0
 40
0.0
 40
0.0345403335200462
 40
0.0690478905893666
 40
0.1033754852476494
 40
0.1381923175834046
 40
0.1739025756221038
 40
0.2104877019749208
 40
0.2480225815446469
 40
0.2870234984625047
 40
0.3267056395078536
 40
0.3664852153648313
 40
0.4068119831058167
 40
0.4476159030587517
 40
0.4890671194749781
 40
0.5313279591852038
 40
0.5748578081212988
 40
0.6195021344928143
 40
0.7103224458031931
 40
0.8036588163280971
 40
0.8998125578359338
 40
1.0
 40
1.0
 40
1.0
 40
1.0
 10
348.2299639423077
 20
157.290769230764
 30
0.0
 10
348.2065542352049
 20
157.2903547774448
 30
0.0
 10
348.1597570352351
 20
157.2895262640948
 30
0.0
 10
348.0903939682449
 20
157.2789457136764
 30
0.0
 10
348.0218489374547
 20
157.263673686298
 30
0.0
 10
347.9541046718563
 20
157.241940124046
 30
0.0
 10
347.887658237537
 20
157.2126609837601
 30
0.0
 10
347.8214974440596
 20
157.1785508975069
 30
0.0
 10
347.7567534473454
 20
157.1374224260007
 30
0.0
 10
347.6934974864451
 20
157.0905471832207
 30
0.0
 10
347.6317076107372
 20
157.0392518980549
 30
0.0
 10
347.5743626959266
 20
156.9817686702403
 30
0.0
 10
347.5194893901294
 20
156.9209515467772
 30
0.0
 10
347.4682773230945
 20
156.8555349016385
 30
0.0
 10
347.4205574526308
 20
156.7859627426833
 30
0.0
 10
347.3761496289226
 20
156.7120556495795
 30
0.0
 10
347.3356857073083
 20
156.6334807109682
 30
0.0
 10
347.2860157673865
 20
156.5228714855213
 30
0.0
 10
347.2341253998663
 20
156.3765067887524
 30
0.0
 10
347.1904582992854
 20
156.1915038418906
 30
0.0
 10
347.1630294221533
 20
155.9968482214477
 30
0.0
 10
347.1596653237476
 20
155.8638452693114
 30
0.0
 10
347.1579487179487
 20
155.7959775640973
 30
0.0
  0
SPLINE
  5
288
330
1F
100
AcDbEntity
  8
0
  6
Continuous
 62
     7
370
    25
100
AcDbSpline
210
0.0
220
0.0
230
1.0
 70
     8
 71
     3
 72
    27
 73
    23
 74
     0
 42
0.000000001
 43
0.00000001
 40
0.0
 40
0.0
 40
0.0
 40
0.0
 40
0.0362138134808971
 40
0.0716518108523366
 40
0.1072770114745175
 40
0.1427015993298693
 40
0.17873291632327
 40
0.215261872746767
 40
0.2525614686810873
 40
0.2911030267797036
 40
0.3302439659166539
 40
0.3697353557737316
 40
0.4095189177264834
 40
0.4499950888742017
 40
0.4909090738598019
 40
0.5331106633605721
 40
0.5761152088262144
 40
0.620696943311087
 40
0.7117147979832114
 40
0.8046663624656345
 40
0.9002973183587791
 40
1.0
 40
1.0
 40
1.0
 40
1.0
 10
348.2299639423077
 20
154.3292307692255
 30
0.0
 10
348.2545340091959
 20
154.3296969187774
 30
0.0
 10
348.3031477732844
 20
154.3306192314618
 30
0.0
 10
348.3753906019031
 20
154.3402411667445
 30
0.0
 10
348.4460873370617
 20
154.3553688643825
 30
0.0
 10
348.5153132439006
 20
154.3776374396929
 30
0.0
 10
348.5832688433791
 20
154.4050009014115
 30
0.0
 10
348.6503936864679
 20
154.4376180235242
 30
0.0
 10
348.7147745155976
 20
154.4785440447198
 30
0.0
 10
348.7786149367231
 20
154.5234174498224
 30
0.0
 10
348.8391250401513
 20
154.5750232554068
 30
0.0
 10
348.8978064837096
 20
154.6299451833175
 30
0.0
 10
348.9514829538137
 20
154.690985907212
 30
0.0
 10
349.0029990666092
 20
154.7550667869122
 30
0.0
 10
349.0499319476251
 20
154.824586595327
 30
0.0
 10
349.0942630953332
 20
154.8977856867174
 30
0.0
 10
349.1340715802135
 20
154.9763478903868
 30
0.0
 10
349.1839553416667
 20
155.0867587891074
 30
0.0
 10
349.2350410234467
 20
155.2334241765381
 30
0.0
 10
349.2805129529362
 20
155.4177755984851
 30
0.0
 10
349.3063909477116
 20
155.6120169003411
 30
0.0
 10
349.3099687043455
 20
155.7444874285341
 30
0.0
 10
349.3117948717949
 20
155.8121033653794
 30
0.0
  0
SPLINE
  5
289
330
1F
100
AcDbEntity
  8
0
  6
Continuous
 62
     7
370
    25
100
AcDbSpline
210
0.0
220
0.0
230
1.0
 70
     8
 71
     3
 72
    31
 73
    27
 74
     0
 42
0.000000001
 43
0.00000001
 40
0.0
 40
0.0
 40
0.0
 40
0.0
 40
0.0501967491003085
 40
0.0994661459104872
 40
0.1475107086710973
 40
0.1948519830460004
 40
0.2412901464816286
 40
0.2868848560375624
 40
0.3320877231231314
 40
0.3770154669259699
 40
0.421156418450194
 40
0.4641967469625672
 40
0.5062815521760671
 40
0.5475660099741246
 40
0.5882144632770131
 40
0.6286323941920237
 40
0.6685312836457489
 40
0.7085919746067305
 40
0.7479832316162439
 40
0.7859182584428758
 40
0.8229148544181987
 40
0.859044868632886
 40
0.8946202371616239
 40
0.9297210202048314
 40
0.9646696030869357
 40
1.0
 40
1.0
 40
1.0
 40
1.0
 10
349.3117948717949
 20
155.8121033653794
 30
0.0
 10
349.3114814677151
 20
155.8460065270083
 30
0.0
 10
349.3108604494922
 20
155.9131865114067
 30
0.0
 10
349.3031664101205
 20
156.0125433985251
 30
0.0
 10
349.293172757908
 20
156.1097271749436
 30
0.0
 10
349.2777443336055
 20
156.2043082780584
 30
0.0
 10
349.2572911018351
 20
156.2962117814884
 30
0.0
 10
349.23269422388
 20
156.3855957603616
 30
0.0
 10
349.2038805458678
 20
156.4726326591538
 30
0.0
 10
349.1712227745659
 20
156.5572625825389
 30
0.0
 10
349.1340593376091
 20
156.638415392704
 30
0.0
 10
349.0934102673293
 20
156.7157076213928
 30
0.0
 10
349.0492096578294
 20
156.7887964034257
 30
0.0
 10
349.0014278610032
 20
156.8576234951823
 30
0.0
 10
348.9502533867841
 20
156.9225817778792
 30
0.0
 10
348.8946608704925
 20
156.9825016356658
 30
0.0
 10
348.8364026540423
 20
157.0392711682319
 30
0.0
 10
348.7741584802749
 20
157.0905839705787
 30
0.0
 10
348.7101721082439
 20
157.1374296507119
 30
0.0
 10
348.6447327156164
 20
157.1785675340847
 30
0.0
 10
348.5778652668506
 20
157.2126529792591
 30
0.0
 10
348.5105352020589
 20
157.2420921450283
 30
0.0
 10
348.4415625933756
 20
157.2636679289655
 30
0.0
 10
348.3718516657564
 20
157.2788739404682
 30
0.0
 10
348.3013397742913
 20
157.2895702341042
 30
0.0
 10
348.2538419023202
 20
157.290368120283
 30
0.0
 10
348.2299639423077
 20
157.290769230764
 30
0.0
  0
SPLINE
  5
28A
330
1F
100
AcDbEntity
  8
0
  6
Continuous
 62
     7
370
    25
100
AcDbSpline
210
0.0
220
0.0
230
1.0
 70
     8
 71
     3
 72
    23
 73
    19
 74
     0
 42
0.000000001
 43
0.00000001
 40
0.0
 40
0.0
 40
0.0
 40
0.0
 40
0.052637714590384
 40
0.1046344211599373
 40
0.1559111889304686
 40
0.2083559366760066
 40
0.2630832660087457
 40
0.3202114250534305
 40
0.380447297674893
 40
0.4447980195517861
 40
0.5111242036976311
 40
0.5774974054657407
 40
0.6441793123782997
 40
0.7114144767159828
 40
0.7809140313908222
 40
0.8517437176383208
 40
0.9244962397856361
 40
1.0
 40
1.0
 40
1.0
 40
1.0
 10
361.7412820512821
 20
156.3484615384563
 30
0.0
 10
361.7171447362494
 20
156.3474728672142
 30
0.0
 10
361.6691640439557
 20
156.3455075645042
 30
0.0
 10
361.5988264842452
 20
156.3311458685921
 30
0.0
 10
361.5312682862552
 20
156.3075925305063
 30
0.0
 10
361.466105357119
 20
156.2750319197727
 30
0.0
 10
361.4036606254168
 20
156.2325726917226
 30
0.0
 10
361.343856627604
 20
156.180915921294
 30
0.0
 10
361.2866729772184
 20
156.1201276691988
 30
0.0
 10
361.2337441930097
 20
156.0503151862589
 30
0.0
 10
361.1839656489079
 20
155.9748210152258
 30
0.0
 10
361.1415066239521
 20
155.8937634593231
 30
0.0
 10
361.104611002921
 20
155.8095810918428
 30
0.0
 10
361.075427203154
 20
155.7209311483969
 30
0.0
 10
361.0510885525145
 20
155.6288454641004
 30
0.0
 10
361.0356112059388
 20
155.532300086961
 30
0.0
 10
361.0253646304509
 20
155.4323168489316
 30
0.0
 10
361.0240187576331
 20
155.3643471085388
 30
0.0
 10
361.0233333333334
 20
155.3297315705076
 30
0.0
  0
SPLINE
  5
28B
330
1F
100
AcDbEntity
  8
0
  6
Continuous
 62
     7
370
    25
100
AcDbSpline
210
0.0
220
0.0
230
1.0
 70
     8
 71
     3
 72
    19
 73
    15
 74
     0
 42
0.000000001
 43
0.00000001
 40
0.0
 40
0.0
 40
0.0
 40
0.0
 40
0.0983540067612086
 40
0.194377715555627
 40
0.2885695574065537
 40
0.3817844430718731
 40
0.4717465720449179
 40
0.5565305739069382
 40
0.6365496883196355
 40
0.713743157984489
 40
0.7879269027057342
 40
0.8590609970729661
 40
0.929304289462562
 40
1.0
 40
1.0
 40
1.0
 40
1.0
 10
361.0233333333334
 20
155.3297315705076
 30
0.0
 10
361.024648628668
 20
155.2850419209844
 30
0.0
 10
361.0272480560921
 20
155.196721452207
 30
0.0
 10
361.0448159024513
 20
155.0664994591625
 30
0.0
 10
361.0751919158923
 20
154.9411516083075
 30
0.0
 10
361.116771396134
 20
154.8219444777249
 30
0.0
 10
361.1689617341374
 20
154.7117051877054
 30
0.0
 10
361.2295884786287
 20
154.6127592006218
 30
0.0
 10
361.2996397902421
 20
154.527512655851
 30
0.0
 10
361.377542701266
 20
154.4564089634957
 30
0.0
 10
361.4617719216527
 20
154.3996342686129
 30
0.0
 10
361.5514109277407
 20
154.3593764630263
 30
0.0
 10
361.6449258895084
 20
154.333233964223
 30
0.0
 10
361.709094669497
 20
154.3305680201431
 30
0.0
 10
361.7412820512821
 20
154.3292307692255
 30
0.0
  0
SPLINE
  5
28C
330
1F
100
AcDbEntity
  8
0
  6
Continuous
 62
     7
370
    25
100
AcDbSpline
210
0.0
220
0.0
230
1.0
 70
     8
 71
     3
 72
    19
 73
    15
 74
     0
 42
0.000000001
 43
0.00000001
 40
0.0
 40
0.0
 40
0.0
 40
0.0
 40
0.0707160957298385
 40
0.140979642856523
 40
0.2116657836572496
 40
0.28587091934971
 40
0.363086647843554
 40
0.443457247609615
 40
0.5279952547641218
 40
0.6179833244242885
 40
0.7112250887129993
 40
0.8055662353983993
 40
0.9016176327437063
 40
1.0
 40
1.0
 40
1.0
 40
1.0
 10
361.7412820512821
 20
154.3292307692255
 30
0.0
 10
361.7734652209122
 20
154.3305769566154
 30
0.0
 10
361.8376256035465
 20
154.333260716451
 30
0.0
 10
361.9309968487849
 20
154.3592122549702
 30
0.0
 10
362.0202153207484
 20
154.3998543480463
 30
0.0
 10
362.1043812983877
 20
154.4563444693456
 30
0.0
 10
362.182134668485
 20
154.5277735986382
 30
0.0
 10
362.2531584289382
 20
154.612293132415
 30
0.0
 10
362.3126971893907
 20
154.7119797507337
 30
0.0
 10
362.3652223663607
 20
154.8218837435206
 30
0.0
 10
362.406430021713
 20
154.9412754278897
 30
0.0
 10
362.4379902548946
 20
155.0663811685655
 30
0.0
 10
362.4552514270977
 20
155.196737818012
 30
0.0
 10
362.4578937626366
 20
155.2850474196796
 30
0.0
 10
362.4592307692308
 20
155.3297315705076
 30
0.0
  0
SPLINE
  5
28D
330
1F
100
AcDbEntity
  8
0
  6
Continuous
 62
     7
370
    25
100
AcDbSpline
210
0.0
220
0.0
230
1.0
 70
     8
 71
     3
 72
    23
 73
    19
 74
     0
 42
0.000000001
 43
0.00000001
 40
0.0
 40
0.0
 40
0.0
 40
0.0
 40
0.0755318691481649
 40
0.1483114759840189
 40
0.2192537630533109
 40
0.2886537228518816
 40
0.3559139178473505
 40
0.4226206494481346
 40
0.4892590949396754
 40
0.5556099713434177
 40
0.6202970964995616
 40
0.6805553940459701
 40
0.7373188493262606
 40
0.7920665528347091
 40
0.8445308249845732
 40
0.8958266823377516
 40
0.9473426891665856
 40
0.9999999999999999
 40
0.9999999999999999
 40
0.9999999999999999
 40
0.9999999999999999
 10
362.4592307692308
 20
155.3297315705076
 30
0.0
 10
362.4585165058673
 20
155.3643416211796
 30
0.0
 10
362.457114005772
 20
155.432300586805
 30
0.0
 10
362.4472728174198
 20
155.5324010657
 30
0.0
 10
362.4302998172852
 20
155.6286437545166
 30
0.0
 10
362.4074304840029
 20
155.721064378091
 30
0.0
 10
362.3778190647881
 20
155.8095318524377
 30
0.0
 10
362.3412430288052
 20
155.8939837786364
 30
0.0
 10
362.297708489702
 20
155.9745878377661
 30
0.0
 10
362.2482485376751
 20
156.0505795639664
 30
0.0
 10
362.1944553569228
 20
156.1199371357827
 30
0.0
 10
362.1373540979237
 20
156.1806862744425
 30
0.0
 10
362.0781540368984
 20
156.23279121247
 30
0.0
 10
362.0157323469485
 20
156.2749992662594
 30
0.0
 10
361.9506030116555
 20
156.3076105560922
 30
0.0
 10
361.8832444582323
 20
156.3310302338561
 30
0.0
 10
361.8131821284883
 20
156.3455748943645
 30
0.0
 10
361.7654231565669
 20
156.3474923214311
 30
0.0
 10
361.7412820512821
 20
156.3484615384563
 30
0.0
  0
LINE
  5
28E
330
1F
100
AcDbEntity
  8
0
  6
Continuous
 62
     7
370
    25
100
AcDbLine
 10
353.7758373397
 20
156.715849359
 30
0.0
 11
353.4000360577
 21
155.5407692308
 31
0.0
  0
LINE
  5
28F
330
1F
100
AcDbEntity
  8
0
  6
Continuous
 62
     7
370
    25
100
AcDbLine
 10
354.1530408654
 20
155.5407692308
 30
0.0
 11
353.7758373397
 21
156.715849359
 31
0.0
  0
LINE
  5
290
330
1F
100
AcDbEntity
  8
0
  6
Continuous
 62
     7
370
    25
100
AcDbLine
 10
353.4000360577
 20
155.5407692308
 30
0.0
 11
354.1530408654
 21
155.5407692308
 31
0.0
  0
LINE
  5
291
330
1F
100
AcDbEntity
  8
0
  6
Continuous
 62
     7
370
    25
100
AcDbLine
 10
255.94
 20
149.06
 30
0.0
 11
363.94
 21
149.06
 31
0.0
  0
LINE
  5
292
330
1F
100
AcDbEntity
  8
0
  6
Continuous
 62
     7
370
    25
100
AcDbLine
 10
255.94
 20
149.06
 30
0.0
 11
255.94
 21
150.06
 31
0.0
  0
LINE
  5
293
330
1F
100
AcDbEntity
  8
0
  6
Continuous
 62
     7
370
    25
100
AcDbLine
 10
363.94
 20
149.06
 30
0.0
 11
363.94
 21
150.06
 31
0.0
  0
LINE
  5
294
330
1F
100
AcDbEntity
  8
0
  6
Continuous
 62
     7
370
    25
100
AcDbLine
 10
331.7718309295
 20
155.5407692308
 30
0.0
 11
332.5248357372
 21
155.5407692308
 31
0.0
  0
LINE
  5
295
330
1F
100
AcDbEntity
  8
0
  6
Continuous
 62
     7
370
    25
100
AcDbLine
 10
332.1476322115
 20
156.715849359
 30
0.0
 11
331.7718309295
 21
155.5407692308
 31
0.0
  0
LINE
  5
296
330
1F
100
AcDbEntity
  8
0
  6
Continuous
 62
     7
370
    25
100
AcDbLine
 10
332.5248357372
 20
155.5407692308
 30
0.0
 11
332.1476322115
 21
156.715849359
 31
0.0
  0
LINE
  5
297
330
1F
100
AcDbEntity
  8
0
  6
Continuous
 62
     7
370
    25
100
AcDbLine
 10
255.94
 20
194.06
 30
0.0
 11
363.94
 21
194.06
 31
0.0
  0
LINE
  5
298
330
1F
100
AcDbEntity
  8
0
  6
Continuous
 62
     7
370
    25
100
AcDbLine
 10
255.94
 20
193.06
 30
0.0
 11
255.94
 21
194.06
 31
0.0
  0
LINE
  5
299
330
1F
100
AcDbEntity
  8
0
  6
Continuous
 62
     7
370
    25
100
AcDbLine
 10
363.94
 20
193.06
 30
0.0
 11
363.94
 21
194.06
 31
0.0
  0
CIRCLE
  5
29A
330
1F
100
AcDbEntity
  8
0
  6
Continuous
 62
     7
370
    25
100
AcDbCircle
 10
268.94
 20
171.56
 30
0.0
 40
6.579999999999984
  0
CIRCLE
  5
29B
330
1F
100
AcDbEntity
  8
0
  6
Continuous
 62
     7
370
    25
100
AcDbCircle
 10
343.94
 20
171.56
 30
0.0
 40
6.579999999999984
  0
CIRCLE
  5
29C
330
1F
100
AcDbEntity
  8
0
  6
Continuous
 62
     7
370
    25
100
AcDbCircle
 10
343.94
 20
171.56
 30
0.0
 40
2.75
  0
CIRCLE
  5
29D
330
1F
100
AcDbEntity
  8
0
  6
Continuous
 62
     7
370
    25
100
AcDbCircle
 10
268.94
 20
171.56
 30
0.0
 40
2.75
  0
DIMENSION
  5
29E
330
1F
100
AcDbEntity
  8
0
  6
Continuous
 62
     7
370
    18
100
AcDbDimension
  2
_D_7
 10
363.94
 20
139.06
 30
0.0
 11
383.1087502436
 21
139.06
 31
0.0
 70
   160
  1
<>
 71
     2
 42
-1.0
  3
SLDDIMSTYLE2
100
AcDbAlignedDimension
 13
370.94
 23
163.56
 33
0.0
 14
363.94
 24
149.06
 34
0.0
100
AcDbRotatedDimension
  0
DIMENSION
  5
2AA
330
1F
100
AcDbEntity
  8
0
  6
Continuous
 62
     7
370
    18
100
AcDbDimension
  2
_D_8
 10
363.94
 20
139.06
 30
0.0
 11
309.94
 21
139.06
 31
0.0
 70
   160
  1
<>
 71
     2
 42
-1.0
  3
SLDDIMSTYLE0
100
AcDbAlignedDimension
 13
255.94
 23
149.06
 33
0.0
 14
363.94
 24
149.06
 34
0.0
100
AcDbRotatedDimension
  0
DIMENSION
  5
2B4
330
1F
100
AcDbEntity
  8
0
  6
Continuous
 62
     7
370
    18
100
AcDbDimension
  2
_D_9
 10
363.94
 20
204.06
 30
0.0
 11
353.94
 21
204.06
 31
0.0
 70
   160
  1
<>
 71
     2
 42
-1.0
  3
SLDDIMSTYLE4
100
AcDbAlignedDimension
 13
343.94
 23
184.06
 33
0.0
 14
363.94
 24
189.56
 34
0.0
100
AcDbRotatedDimension
  0
DIMENSION
  5
2BF
330
1F
100
AcDbEntity
  8
0
  6
Continuous
 62
     7
370
    18
100
AcDbDimension
  2
_D_10
 10
255.94
 20
204.06
 30
0.0
 11
262.2118029285
 21
204.06
 31
0.0
 70
   160
  1
<>
 71
     2
 42
-1.0
  3
SLDDIMSTYLE2
100
AcDbAlignedDimension
 13
268.94
 23
184.06
 33
0.0
 14
255.94
 24
194.06
 34
0.0
100
AcDbRotatedDimension
  0
DIMENSION
  5
2CB
330
1F
100
AcDbEntity
  8
0
  6
Continuous
 62
     7
370
    18
100
AcDbDimension
  2
_D_11
 10
380.94
 20
162.56
 30
0.0
 11
380.94
 21
170.7347407815
 31
0.0
 70
   160
  1
%%c<>
 71
     2
 42
-1.0
  3
SLDDIMSTYLE2
100
AcDbAlignedDimension
 13
366.44
 23
180.56
 33
0.0
 14
366.44
 24
162.56
 34
0.0
 50
90.0
100
AcDbRotatedDimension
  0
DIMENSION
  5
2D8
330
1F
100
AcDbEntity
  8
0
  6
Continuous
 62
     7
370
    18
100
AcDbDimension
  2
_D_12
 10
271.5962960223
 20
170.848247626
 30
0.0
 11
236.4745122131
 21
180.2591139139
 31
0.0
 70
   163
  1
1/4" BSP
 71
     1
 42
-1.0
  3
SLDDIMSTYLE5
100
AcDbDiametricDimension
 15
266.2837039777
 25
172.271752374
 35
0.0
 40
0.0
  0
INSERT
  5
2EC
330
1F
100
AcDbEntity
  8
0
  6
Continuous
 62
     7
370
     0
100
AcDbBlockReference
  2
SW_CENTERMARKSYMBOL_9
 10
268.94
 20
171.56
 30
0.0
  0
INSERT
  5
2F8
330
1F
100
AcDbEntity
  8
0
  6
Continuous
 62
     7
370
     0
100
AcDbBlockReference
  2
SW_CENTERMARKSYMBOL_10
 10
343.94
 20
171.56
 30
0.0
  0
LINE
  5
2F9
330
1F
100
AcDbEntity
  8
0
  6
CENTERX2
 62
     7
370
    18
100
AcDbLine
 10
253.94
 20
171.56
 30
0.0
 11
365.94
 21
171.56
 31
0.0
  0
LINE
  5
2FA
330
1F
100
AcDbEntity
  8
0
  6
CENTERX2
 62
     7
370
    18
100
AcDbLine
 10
372.44
 20
171.56
 30
0.0
 11
364.94
 21
171.56
 31
0.0
  0
ENDSEC
  0
SECTION
  2
OBJECTS
  0
DICTIONARY
  5
C
330
0
100
AcDbDictionary
281
     1
  3
ACAD_GROUP
350
D
  3
ACAD_LAYOUT
350
1A
  3
ACAD_MLINESTYLE
350
17
  3
ACAD_PLOTSETTINGS
350
19
  3
ACAD_PLOTSTYLENAME
350
E
  3
ACAD_SCALELIST
350
47
  0
DICTIONARY
  5
D
102
{ACAD_REACTORS
330
C
102
}
330
C
100
AcDbDictionary
281
     1
  0
DICTIONARY
  5
1A
102
{ACAD_REACTORS
330
C
102
}
330
C
100
AcDbDictionary
281
     1
  3
Layout1
350
1E
  3
Layout2
350
26
  3
Model
350
22
  0
DICTIONARY
  5
17
102
{ACAD_REACTORS
330
C
102
}
330
C
100
AcDbDictionary
281
     1
  3
Standard
350
18
  0
DICTIONARY
  5
19
102
{ACAD_REACTORS
330
C
102
}
330
C
100
AcDbDictionary
281
     1
  0
ACDBDICTIONARYWDFLT
  5
E
102
{ACAD_REACTORS
330
C
102
}
330
C
100
AcDbDictionary
281
     1
  3
Normal
350
F
100
AcDbDictionaryWithDefault
340
F
  0
DICTIONARY
  5
47
102
{ACAD_REACTORS
330
C
102
}
330
C
100
AcDbDictionary
281
     1
  3
A0
350
48
  3
A1
350
49
  3
A2
350
4A
  3
A3
350
4B
  3
A4
350
4C
  3
A5
350
4D
  3
A6
350
4E
  3
A7
350
4F
  3
A8
350
50
  3
A9
350
51
  3
B0
350
52
  3
B1
350
53
  3
B2
350
54
  3
B3
350
55
  3
B4
350
56
  3
B5
350
57
  3
B6
350
58
  3
B7
350
59
  3
B8
350
5A
  3
B9
350
5B
  3
C0
350
5C
  3
C1
350
5D
  3
C2
350
5E
  3
C3
350
5F
  3
C4
350
60
  3
C5
350
61
  3
C6
350
62
  3
C7
350
63
  3
C8
350
64
  3
C9
350
65
  3
D0
350
66
  3
D1
350
67
  3
D2
350
68
  0
LAYOUT
  5
1E
102
{ACAD_REACTORS
330
1A
102
}
330
1A
100
AcDbPlotSettings
  1

  2
none_device
  4

  6

 40
0.0
 41
0.0
 42
0.0
 43
0.0
 44
0.0
 45
0.0
 46
0.0
 47
0.0
 48
0.0
 49
0.0
140
0.0
141
0.0
142
1.0
143
1.0
 70
   688
 72
     1
 73
     0
 74
     5
  7

 75
    16
147
1.0
148
0.0
149
0.0
100
AcDbLayout
  1
Layout1
 70
     1
 71
     1
 10
0.0
 20
0.0
 11
420.0
 21
297.0
 12
0.0
 22
0.0
 32
0.0
 14
1.0000000000E+20
 24
1.0000000000E+20
 34
1.0000000000E+20
 15
-1.0000000000E+20
 25
-1.0000000000E+20
 35
-1.0000000000E+20
146
0.0
 13
0.0
 23
0.0
 33
0.0
 16
1.0
 26
0.0
 36
0.0
 17
0.0
 27
1.0
 37
0.0
 76
     0
330
1B
  0
LAYOUT
  5
26
102
{ACAD_REACTORS
330
1A
102
}
330
1A
100
AcDbPlotSettings
  1

  2
none_device
  4

  6

 40
0.0
 41
0.0
 42
0.0
 43
0.0
 44
0.0
 45
0.0
 46
0.0
 47
0.0
 48
0.0
 49
0.0
140
0.0
141
0.0
142
1.0
143
1.0
 70
   688
 72
     1
 73
     0
 74
     5
  7

 75
    16
147
1.0
148
0.0
149
0.0
100
AcDbLayout
  1
Layout2
 70
     1
 71
     2
 10
0.0
 20
0.0
 11
0.0
 21
0.0
 12
0.0
 22
0.0
 32
0.0
 14
0.0
 24
0.0
 34
0.0
 15
0.0
 25
0.0
 35
0.0
146
0.0
 13
0.0
 23
0.0
 33
0.0
 16
1.0
 26
0.0
 36
0.0
 17
0.0
 27
1.0
 37
0.0
 76
     0
330
23
  0
LAYOUT
  5
22
102
{ACAD_REACTORS
330
1A
102
}
330
1A
100
AcDbPlotSettings
  1

  2
none_device
  4
Letter_(8.50_x_11.00_Inches)
  6

 40
6.35
 41
6.35
 42
6.35000508
 43
6.35000508
 44
215.9
 45
279.4
 46
0.0
 47
0.0
 48
0.0
 49
0.0
140
0.0
141
0.0
142
1.0
143
1.0
 70
  1712
 72
     1
 73
     0
 74
     0
  7

 75
     0
147
1.0
148
0.0
149
0.0
100
AcDbLayout
  1
Model
 70
     1
 71
     0
 10
0.0
 20
0.0
 11
420.0
 21
297.0
 12
0.0
 22
0.0
 32
0.0
 14
0.0
 24
0.0
 34
0.0
 15
420.0
 25
297.0
 35
0.0
146
0.0
 13
0.0
 23
0.0
 33
0.0
 16
1.0
 26
0.0
 36
0.0
 17
0.0
 27
1.0
 37
0.0
 76
     0
330
1F
331
29
  0
MLINESTYLE
  5
18
102
{ACAD_REACTORS
330
17
102
}
330
17
100
AcDbMlineStyle
  2
Standard
 70
     0
  3

 62
   256
 51
90.0
 52
90.0
 71
     2
 49
0.5
 62
   256
  6
BYLAYER
 49
-0.5
 62
   256
  6
BYLAYER
  0
ACDBPLACEHOLDER
  5
F
102
{ACAD_REACTORS
330
E
102
}
330
E
  0
SCALE
  5
48
102
{ACAD_REACTORS
330
47
102
}
330
47
100
AcDbScale
 70
     0
300
1:1
140
1.0
141
1.0
290
     1
  0
SCALE
  5
49
102
{ACAD_REACTORS
330
47
102
}
330
47
100
AcDbScale
 70
     0
300
1:2
140
1.0
141
2.0
290
     0
  0
SCALE
  5
4A
102
{ACAD_REACTORS
330
47
102
}
330
47
100
AcDbScale
 70
     0
300
1:4
140
1.0
141
4.0
290
     0
  0
SCALE
  5
4B
102
{ACAD_REACTORS
330
47
102
}
330
47
100
AcDbScale
 70
     0
300
1:5
140
1.0
141
5.0
290
     0
  0
SCALE
  5
4C
102
{ACAD_REACTORS
330
47
102
}
330
47
100
AcDbScale
 70
     0
300
1:8
140
1.0
141
8.0
290
     0
  0
SCALE
  5
4D
102
{ACAD_REACTORS
330
47
102
}
330
47
100
AcDbScale
 70
     0
300
1:10
140
1.0
141
10.0
290
     0
  0
SCALE
  5
4E
102
{ACAD_REACTORS
330
47
102
}
330
47
100
AcDbScale
 70
     0
300
1:16
140
1.0
141
16.0
290
     0
  0
SCALE
  5
4F
102
{ACAD_REACTORS
330
47
102
}
330
47
100
AcDbScale
 70
     0
300
1:20
140
1.0
141
20.0
290
     0
  0
SCALE
  5
50
102
{ACAD_REACTORS
330
47
102
}
330
47
100
AcDbScale
 70
     0
300
1:30
140
1.0
141
30.0
290
     0
  0
SCALE
  5
51
102
{ACAD_REACTORS
330
47
102
}
330
47
100
AcDbScale
 70
     0
300
1:40
140
1.0
141
40.0
290
     0
  0
SCALE
  5
52
102
{ACAD_REACTORS
330
47
102
}
330
47
100
AcDbScale
 70
     0
300
1:50
140
1.0
141
50.0
290
     0
  0
SCALE
  5
53
102
{ACAD_REACTORS
330
47
102
}
330
47
100
AcDbScale
 70
     0
300
1:100
140
1.0
141
100.0
290
     0
  0
SCALE
  5
54
102
{ACAD_REACTORS
330
47
102
}
330
47
100
AcDbScale
 70
     0
300
2:1
140
2.0
141
1.0
290
     0
  0
SCALE
  5
55
102
{ACAD_REACTORS
330
47
102
}
330
47
100
AcDbScale
 70
     0
300
4:1
140
4.0
141
1.0
290
     0
  0
SCALE
  5
56
102
{ACAD_REACTORS
330
47
102
}
330
47
100
AcDbScale
 70
     0
300
8:1
140
8.0
141
1.0
290
     0
  0
SCALE
  5
57
102
{ACAD_REACTORS
330
47
102
}
330
47
100
AcDbScale
 70
     0
300
10:1
140
10.0
141
1.0
290
     0
  0
SCALE
  5
58
102
{ACAD_REACTORS
330
47
102
}
330
47
100
AcDbScale
 70
     0
300
100:1
140
100.0
141
1.0
290
     0
  0
SCALE
  5
59
102
{ACAD_REACTORS
330
47
102
}
330
47
100
AcDbScale
 70
     0
300
1/128" = 1'-0"
140
0.0078125
141
12.0
290
     0
  0
SCALE
  5
5A
102
{ACAD_REACTORS
330
47
102
}
330
47
100
AcDbScale
 70
     0
300
1/64" = 1'-0"
140
0.015625
141
12.0
290
     0
  0
SCALE
  5
5B
102
{ACAD_REACTORS
330
47
102
}
330
47
100
AcDbScale
 70
     0
300
1/32" = 1'-0"
140
0.03125
141
12.0
290
     0
  0
SCALE
  5
5C
102
{ACAD_REACTORS
330
47
102
}
330
47
100
AcDbScale
 70
     0
300
1/16" = 1'-0"
140
0.0625
141
12.0
290
     0
  0
SCALE
  5
5D
102
{ACAD_REACTORS
330
47
102
}
330
47
100
AcDbScale
 70
     0
300
3/32" = 1'-0"
140
0.09375
141
12.0
290
     0
  0
SCALE
  5
5E
102
{ACAD_REACTORS
330
47
102
}
330
47
100
AcDbScale
 70
     0
300
1/8" = 1'-0"
140
0.125
141
12.0
290
     0
  0
SCALE
  5
5F
102
{ACAD_REACTORS
330
47
102
}
330
47
100
AcDbScale
 70
     0
300
3/16" = 1'-0"
140
0.1875
141
12.0
290
     0
  0
SCALE
  5
60
102
{ACAD_REACTORS
330
47
102
}
330
47
100
AcDbScale
 70
     0
300
1/4" = 1'-0"
140
0.25
141
12.0
290
     0
  0
SCALE
  5
61
102
{ACAD_REACTORS
330
47
102
}
330
47
100
AcDbScale
 70
     0
300
3/8" = 1'-0"
140
0.375
141
12.0
290
     0
  0
SCALE
  5
62
102
{ACAD_REACTORS
330
47
102
}
330
47
100
AcDbScale
 70
     0
300
1/2" = 1'-0"
140
0.5
141
12.0
290
     0
  0
SCALE
  5
63
102
{ACAD_REACTORS
330
47
102
}
330
47
100
AcDbScale
 70
     0
300
3/4" = 1'-0"
140
0.75
141
12.0
290
     0
  0
SCALE
  5
64
102
{ACAD_REACTORS
330
47
102
}
330
47
100
AcDbScale
 70
     0
300
1" = 1'-0"
140
1.0
141
12.0
290
     0
  0
SCALE
  5
65
102
{ACAD_REACTORS
330
47
102
}
330
47
100
AcDbScale
 70
     0
300
1-1/2" = 1'-0"
140
1.5
141
12.0
290
     0
  0
SCALE
  5
66
102
{ACAD_REACTORS
330
47
102
}
330
47
100
AcDbScale
 70
     0
300
3" = 1'-0"
140
3.0
141
12.0
290
     0
  0
SCALE
  5
67
102
{ACAD_REACTORS
330
47
102
}
330
47
100
AcDbScale
 70
     0
300
6" = 1'-0"
140
6.0
141
12.0
290
     0
  0
SCALE
  5
68
102
{ACAD_REACTORS
330
47
102
}
330
47
100
AcDbScale
 70
     0
300
1'-0" = 1'-0"
140
12.0
141
12.0
290
     0
  0
ENDSEC
  0
EOF
