  0
SECTION
  2
HEADER
  9
$ACADVER
  1
AC1015
  9
$ACADMAINTVER
 70
     6
  9
$DWGCODEPAGE
  3
ANSI_1250
  9
$INSBASE
 10
0.0
 20
0.0
 30
0.0
  9
$EXTMIN
 10
0.0
 20
0.0
 30
0.0
  9
$EXTMAX
 10
420.0
 20
297.0
 30
0.0
  9
$LIMMIN
 10
0.0
 20
0.0
  9
$LIMMAX
 10
420.0
 20
297.0
  9
$ORTHOMODE
 70
     0
  9
$REGENMODE
 70
     1
  9
$FILLMODE
 70
     1
  9
$QTEXTMODE
 70
     0
  9
$MIRRTEXT
 70
     1
  9
$LTSCALE
 40
1.0
  9
$ATTMODE
 70
     1
  9
$TEXTSIZE
 40
3.5
  9
$TRACEWID
 40
1.0
  9
$TEXTSTYLE
  7
Standard
  9
$CLAYER
  8
0
  9
$CELTYPE
  6
ByLayer
  9
$CECOLOR
 62
   256
  9
$CELTSCALE
 40
1.0
  9
$DISPSILH
 70
     0
  9
$DIMSCALE
 40
1.0
  9
$DIMASZ
 40
3.302
  9
$DIMEXO
 40
1.0
  9
$DIMDLI
 40
3.75
  9
$DIMRND
 40
0.0
  9
$DIMDLE
 40
0.0
  9
$DIMEXE
 40
1.0
  9
$DIMTP
 40
0.0
  9
$DIMTM
 40
0.0
  9
$DIMTXT
 40
3.5
  9
$DIMCEN
 40
2.5
  9
$DIMTSZ
 40
0.0
  9
$DIMTOL
 70
     0
  9
$DIMLIM
 70
     0
  9
$DIMTIH
 70
     1
  9
$DIMTOH
 70
     1
  9
$DIMSE1
 70
     0
  9
$DIMSE2
 70
     0
  9
$DIMTAD
 70
     1
  9
$DIMZIN
 70
     1
  9
$DIMBLK
  1

  9
$DIMASO
 70
     1
  9
$DIMSHO
 70
     1
  9
$DIMPOST
  1

  9
$DIMAPOST
  1

  9
$DIMALT
 70
     0
  9
$DIMALTD
 70
     3
  9
$DIMALTF
 40
0.0393700787
  9
$DIMLFAC
 40
1.0
  9
$DIMTOFL
 70
     1
  9
$DIMTVP
 40
0.0
  9
$DIMTIX
 70
     0
  9
$DIMSOXD
 70
     0
  9
$DIMSAH
 70
     0
  9
$DIMBLK1
  1

  9
$DIMBLK2
  1

  9
$DIMSTYLE
  2
ISO-25
  9
$DIMCLRD
 70
     0
  9
$DIMCLRE
 70
     0
  9
$DIMCLRT
 70
     0
  9
$DIMTFAC
 40
1.0
  9
$DIMGAP
 40
1.524
  9
$DIMJUST
 70
     0
  9
$DIMSD1
 70
     0
  9
$DIMSD2
 70
     0
  9
$DIMTOLJ
 70
     0
  9
$DIMTZIN
 70
     1
  9
$DIMALTZ
 70
     0
  9
$DIMALTTZ
 70
     0
  9
$DIMUPT
 70
     0
  9
$DIMDEC
 70
     2
  9
$DIMTDEC
 70
     2
  9
$DIMALTU
 70
     2
  9
$DIMALTTD
 70
     3
  9
$DIMTXSTY
  7
Standard
  9
$DIMAUNIT
 70
     0
  9
$DIMADEC
 70
     2
  9
$DIMALTRND
 40
0.0
  9
$DIMAZIN
 70
     0
  9
$DIMDSEP
 70
    44
  9
$DIMATFIT
 70
     3
  9
$DIMFRAC
 70
     0
  9
$DIMLDRBLK
  1

  9
$DIMLUNIT
 70
     2
  9
$DIMLWD
 70
    -2
  9
$DIMLWE
 70
    -2
  9
$DIMTMOVE
 70
     0
  9
$LUNITS
 70
     2
  9
$LUPREC
 70
     2
  9
$SKETCHINC
 40
1.0
  9
$FILLETRAD
 40
10.0
  9
$AUNITS
 70
     0
  9
$AUPREC
 70
     2
  9
$MENU
  1
.
  9
$ELEVATION
 40
0.0
  9
$PELEVATION
 40
0.0
  9
$THICKNESS
 40
0.0
  9
$LIMCHECK
 70
     0
  9
$CHAMFERA
 40
0.0
  9
$CHAMFERB
 40
0.0
  9
$CHAMFERC
 40
0.0
  9
$CHAMFERD
 40
0.0
  9
$SKPOLY
 70
     0
  9
$TDCREATE
 40
2460352.949969803
  9
$TDUCREATE
 40
2460352.908303136
  9
$TDUPDATE
 40
2460352.949972523
  9
$TDUUPDATE
 40
2460352.908305856
  9
$TDINDWG
 40
0.0000000116
  9
$TDUSRTIMER
 40
0.0000000116
  9
$USRTIMER
 70
     1
  9
$ANGBASE
 50
0.0
  9
$ANGDIR
 70
     0
  9
$PDMODE
 70
     0
  9
$PDSIZE
 40
-1.0
  9
$PLINEWID
 40
0.0
  9
$SPLFRAME
 70
     0
  9
$SPLINETYPE
 70
     6
  9
$SPLINESEGS
 70
     8
  9
$HANDSEED
  5
2FE
  9
$SURFTAB1
 70
     6
  9
$SURFTAB2
 70
     6
  9
$SURFTYPE
 70
     6
  9
$SURFU
 70
     6
  9
$SURFV
 70
     6
  9
$UCSBASE
  2

  9
$UCSNAME
  2

  9
$UCSORG
 10
0.0
 20
0.0
 30
0.0
  9
$UCSXDIR
 10
1.0
 20
0.0
 30
0.0
  9
$UCSYDIR
 10
0.0
 20
1.0
 30
0.0
  9
$UCSORTHOREF
  2

  9
$UCSORTHOVIEW
 70
     0
  9
$UCSORGTOP
 10
0.0
 20
0.0
 30
0.0
  9
$UCSORGBOTTOM
 10
0.0
 20
0.0
 30
0.0
  9
$UCSORGLEFT
 10
0.0
 20
0.0
 30
0.0
  9
$UCSORGRIGHT
 10
0.0
 20
0.0
 30
0.0
  9
$UCSORGFRONT
 10
0.0
 20
0.0
 30
0.0
  9
$UCSORGBACK
 10
0.0
 20
0.0
 30
0.0
  9
$PUCSBASE
  2

  9
$PUCSNAME
  2

  9
$PUCSORG
 10
0.0
 20
0.0
 30
0.0
  9
$PUCSXDIR
 10
1.0
 20
0.0
 30
0.0
  9
$PUCSYDIR
 10
0.0
 20
1.0
 30
0.0
  9
$PUCSORTHOREF
  2

  9
$PUCSORTHOVIEW
 70
     0
  9
$PUCSORGTOP
 10
0.0
 20
0.0
 30
0.0
  9
$PUCSORGBOTTOM
 10
0.0
 20
0.0
 30
0.0
  9
$PUCSORGLEFT
 10
0.0
 20
0.0
 30
0.0
  9
$PUCSORGRIGHT
 10
0.0
 20
0.0
 30
0.0
  9
$PUCSORGFRONT
 10
0.0
 20
0.0
 30
0.0
  9
$PUCSORGBACK
 10
0.0
 20
0.0
 30
0.0
  9
$USERI1
 70
     0
  9
$USERI2
 70
     0
  9
$USERI3
 70
     0
  9
$USERI4
 70
     0
  9
$USERI5
 70
     0
  9
$USERR1
 40
0.0
  9
$USERR2
 40
0.0
  9
$USERR3
 40
0.0
  9
$USERR4
 40
0.0
  9
$USERR5
 40
0.0
  9
$WORLDVIEW
 70
     1
  9
$SHADEDGE
 70
     3
  9
$SHADEDIF
 70
    70
  9
$TILEMODE
 70
     1
  9
$MAXACTVP
 70
    64
  9
$PINSBASE
 10
0.0
 20
0.0
 30
0.0
  9
$PLIMCHECK
 70
     0
  9
$PEXTMIN
 10
1.0000000000E+20
 20
1.0000000000E+20
 30
1.0000000000E+20
  9
$PEXTMAX
 10
-1.0000000000E+20
 20
-1.0000000000E+20
 30
-1.0000000000E+20
  9
$PLIMMIN
 10
0.0
 20
0.0
  9
$PLIMMAX
 10
420.0
 20
297.0
  9
$UNITMODE
 70
     0
  9
$VISRETAIN
 70
     1
  9
$PLINEGEN
 70
     0
  9
$PSLTSCALE
 70
     1
  9
$TREEDEPTH
 70
  3020
  9
$CMLSTYLE
  2
Standard
  9
$CMLJUST
 70
     0
  9
$CMLSCALE
 40
20.0
  9
$PROXYGRAPHICS
 70
     1
  9
$MEASUREMENT
 70
     1
  9
$CELWEIGHT
370
    -1
  9
$ENDCAPS
280
     0
  9
$JOINSTYLE
280
     0
  9
$LWDISPLAY
290
     1
  9
$INSUNITS
 70
     4
  9
$HYPERLINKBASE
  1

  9
$STYLESHEET
  1

  9
$XEDIT
290
     1
  9
$CEPSNTYPE
380
     0
  9
$PSTYLEMODE
290
     1
  9
$FINGERPRINTGUID
  2
{8dca582f-d2da-4bad-acff-7c1a2076f8a1}
  9
$VERSIONGUID
  2
{FAEB1C32-E019-11D5-929B-00C0DF256EC4}
  9
$EXTNAMES
290
     1
  9
$PSVPSCALE
 40
0.0
  9
$OLESTARTUP
290
     0
  0
ENDSEC
  0
SECTION
  2
CLASSES
  0
CLASS
  1
ACDBDICTIONARYWDFLT
  2
AcDbDictionaryWithDefault
  3
ObjectDBX Classes
 90
        0
280
     0
281
     0
  0
CLASS
  1
VISUALSTYLE
  2
AcDbVisualStyle
  3
ObjectDBX Classes
 90
     4095
280
     0
281
     0
  0
CLASS
  1
MATERIAL
  2
AcDbMaterial
  3
ObjectDBX Classes
 90
     1153
280
     0
281
     0
  0
CLASS
  1
SCALE
  2
AcDbScale
  3
ObjectDBX Classes
 90
     1153
280
     0
281
     0
  0
CLASS
  1
TABLESTYLE
  2
AcDbTableStyle
  3
ObjectDBX Classes
 90
     4095
280
     0
281
     0
  0
CLASS
  1
MLEADERSTYLE
  2
AcDbMLeaderStyle
  3
ACDB_MLEADERSTYLE_CLASS
 90
     4095
280
     0
281
     0
  0
CLASS
  1
SUN
  2
AcDbSun
  3
SCENEOE
 90
     1153
280
     0
281
     0
  0
CLASS
  1
ACDBPLACEHOLDER
  2
AcDbPlaceHolder
  3
ObjectDBX Classes
 90
        0
280
     0
281
     0
  0
CLASS
  1
LAYOUT
  2
AcDbLayout
  3
ObjectDBX Classes
 90
        0
280
     0
281
     0
  0
ENDSEC
  0
SECTION
  2
TABLES
  0
TABLE
  2
VPORT
  5
8
330
0
100
AcDbSymbolTable
 70
     1
  0
VPORT
  5
29
330
8
100
AcDbSymbolTableRecord
100
AcDbViewportTableRecord
  2
*Active
 70
     0
 10
0.0
 20
0.0
 11
1.0
 21
1.0
 12
210.0
 22
148.5
 13
0.0
 23
0.0
 14
10.0
 24
10.0
 15
10.0
 25
10.0
 16
0.0
 26
0.0
 36
1.0
 17
0.0
 27
0.0
 37
0.0
 40
297.0
 41
1.4141414141
 42
50.0
 43
0.0
 44
0.0
 50
0.0
 51
0.0
 71
     0
 72
  2000
 73
     1
 74
     3
 75
     0
 76
     0
 77
     0
 78
     0
281
     0
 65
     1
110
0.0
120
0.0
130
0.0
111
1.0
121
0.0
131
0.0
112
0.0
122
1.0
132
0.0
 79
     0
146
0.0
  0
ENDTAB
  0
TABLE
  2
LTYPE
  5
5
330
0
100
AcDbSymbolTable
 70
     6
  0
LTYPE
  5
14
330
5
100
AcDbSymbolTableRecord
100
AcDbLinetypeTableRecord
  2
ByBlock
 70
     0
  3

 72
    65
 73
     0
 40
0.0
  0
LTYPE
  5
15
330
5
100
AcDbSymbolTableRecord
100
AcDbLinetypeTableRecord
  2
ByLayer
 70
     0
  3

 72
    65
 73
     0
 40
0.0
  0
LTYPE
  5
16
330
5
100
AcDbSymbolTableRecord
100
AcDbLinetypeTableRecord
  2
Continuous
 70
     0
  3
Solid line
 72
    65
 73
     0
 40
0.0
  0
LTYPE
  5
6E
330
5
100
AcDbSymbolTableRecord
100
AcDbLinetypeTableRecord
  2
HIDDEN
 70
     0
  3
Hidden __ __ __ __ __ __ __ __ __ __ __ __ __ __
 72
    65
 73
     2
 40
1.905
 49
1.27
 74
     0
 49
-0.635
 74
     0
  0
LTYPE
  5
6F
330
5
100
AcDbSymbolTableRecord
100
AcDbLinetypeTableRecord
  2
PHANTOM
 70
     0
  3
Phantom ______  __  __  ______  __  __  ______
 72
    65
 73
     6
 40
12.7
 49
6.35
 74
     0
 49
-1.27
 74
     0
 49
1.27
 74
     0
 49
-1.27
 74
     0
 49
1.27
 74
     0
 49
-1.27
 74
     0
  0
LTYPE
  5
70
330
5
100
AcDbSymbolTableRecord
100
AcDbLinetypeTableRecord
  2
CENTER
 70
     0
  3
Center ____ _ ____ _ ____ _ ____ _ ____ _ ____
 72
    65
 73
     4
 40
10.16
 49
6.35
 74
     0
 49
-1.27
 74
     0
 49
1.27
 74
     0
 49
-1.27
 74
     0
  0
LTYPE
  5
71
330
5
100
AcDbSymbolTableRecord
100
AcDbLinetypeTableRecord
  2
CENTERX2
 70
     0
  3
Center (2x) ________  __  ________  __  _____
 72
    65
 73
     4
 40
20.32
 49
12.7
 74
     0
 49
-2.54
 74
     0
 49
2.54
 74
     0
 49
-2.54
 74
     0
  0
LTYPE
  5
72
330
5
100
AcDbSymbolTableRecord
100
AcDbLinetypeTableRecord
  2
DOT2
 70
     0
  3
Dot (.5x) ........................................
 72
    65
 73
     2
 40
0.635
 49
0.0
 74
     0
 49
-0.635
 74
     0
  0
ENDTAB
  0
TABLE
  2
LAYER
  5
2
330
0
100
AcDbSymbolTable
 70
     2
  0
LAYER
  5
10
330
2
100
AcDbSymbolTableRecord
100
AcDbLayerTableRecord
  2
0
 70
     0
 62
     7
  6
Continuous
370
    -3
390
F
  0
LAYER
  5
73
330
2
100
AcDbSymbolTableRecord
100
AcDbLayerTableRecord
  2
FORMAT
 70
     0
 62
     7
  6
Continuous
370
    -3
390
F
  0
ENDTAB
  0
TABLE
  2
STYLE
  5
3
330
0
100
AcDbSymbolTable
 70
     4
  0
STYLE
  5
11
330
3
100
AcDbSymbolTableRecord
100
AcDbTextStyleTableRecord
  2
Standard
 70
     0
 40
0.0
 41
1.0
 50
0.0
 71
     0
 42
3.5
  3
txt
  4

  0
STYLE
  5
B1
330
3
100
AcDbSymbolTableRecord
100
AcDbTextStyleTableRecord
  2
SLDTEXTSTYLE0
 70
     0
 40
0.0
 41
0.75
 50
0.0
 71
     0
 42
3.5
  3
TXT
  4

  0
STYLE
  5
D1
330
3
100
AcDbSymbolTableRecord
100
AcDbTextStyleTableRecord
  2
SLDTEXTSTYLE1
 70
     0
 40
0.0
 41
0.6875
 50
0.0
 71
     0
 42
3.5
  3
TXT
  4
bigfont
  0
STYLE
  5
D3
330
3
100
AcDbSymbolTableRecord
100
AcDbTextStyleTableRecord
  2
SLDTEXTSTYLE2
 70
     0
 40
0.0
 41
0.75
 50
0.0
 71
     0
 42
3.5
  3
TXT
  4
bigfont
  0
ENDTAB
  0
TABLE
  2
VIEW
  5
6
330
0
100
AcDbSymbolTable
 70
     0
  0
ENDTAB
  0
TABLE
  2
UCS
  5
7
330
0
100
AcDbSymbolTable
 70
     0
  0
ENDTAB
  0
TABLE
  2
APPID
  5
9
330
0
100
AcDbSymbolTable
 70
     1
  0
APPID
  5
12
330
9
100
AcDbSymbolTableRecord
100
AcDbRegAppTableRecord
  2
ACAD
 70
     0
  0
ENDTAB
  0
TABLE
  2
DIMSTYLE
  5
A
330
0
100
AcDbSymbolTable
 70
     8
100
AcDbDimStyleTable
  0
DIMSTYLE
105
27
330
A
100
AcDbSymbolTableRecord
100
AcDbDimStyleTableRecord
  2
ISO-25
 70
     0
 41
2.5
 42
0.625
 43
3.75
 44
1.25
 73
     0
 74
     0
 77
     1
 78
     8
140
2.5
141
2.5
143
0.0393700787
147
0.625
171
     3
172
     1
178
     0
271
     2
272
     2
274
     3
278
    44
283
     0
284
     8
340
11
  0
DIMSTYLE
105
11E
102
{ACAD_REACTORS
330
11D
330
128
330
132
330
13C
102
}
330
A
100
AcDbSymbolTableRecord
100
AcDbDimStyleTableRecord
  2
SLDDIMSTYLE0
 70
     0
 41
3.302
 44
0.0
 45
0.000000001
 73
     0
 74
     0
 77
     1
 78
    12
 79
     3
140
3.5
147
0.875
173
     1
178
     0
271
     0
272
     0
276
     2
284
    12
340
B1
  0
DIMSTYLE
105
147
102
{ACAD_REACTORS
330
146
102
}
330
A
100
AcDbSymbolTableRecord
100
AcDbDimStyleTableRecord
  2
SLDDIMSTYLE1
 70
     0
 41
3.302
 44
0.0
 45
0.000000001
 73
     0
 74
     0
 77
     1
 78
    12
 79
     3
140
3.5
141
0.0
147
0.875
172
     1
173
     1
178
     0
271
     1
272
     1
276
     2
284
    12
340
B1
341
148
343
148
  0
DIMSTYLE
105
154
102
{ACAD_REACTORS
330
153
330
2CE
102
}
330
A
100
AcDbSymbolTableRecord
100
AcDbDimStyleTableRecord
  2
SLDDIMSTYLE2
 70
     0
 41
3.302
 44
0.0
 45
0.000000001
 73
     0
 74
     0
 77
     1
 78
    12
 79
     3
140
3.5
147
0.875
172
     1
173
     1
178
     0
271
     0
272
     0
276
     2
284
    12
289
     0
340
B1
  0
DIMSTYLE
105
161
102
{ACAD_REACTORS
330
160
102
}
330
A
100
AcDbSymbolTableRecord
100
AcDbDimStyleTableRecord
  2
SLDDIMSTYLE3
 70
     0
  3
<>
 41
3.302
 44
0.0
 45
0.000000001
 73
     0
 74
     0
 77
     1
 78
    12
 79
     3
140
3.5
141
0.0
147
0.875
172
     1
173
     1
178
     0
271
     2
272
     2
276
     2
284
    12
340
B1
341
148
343
148
  0
DIMSTYLE
105
2A2
102
{ACAD_REACTORS
330
2A1
330
2C4
102
}
330
A
100
AcDbSymbolTableRecord
100
AcDbDimStyleTableRecord
  2
SLDDIMSTYLE4
 70
     0
 41
3.302
 44
0.0
 45
0.000000001
 73
     0
 74
     0
 77
     1
 78
    12
 79
     3
140
3.5
147
0.875
172
     1
173
     1
178
     0
271
     0
272
     2
276
     2
284
    12
289
     0
340
B1
  0
DIMSTYLE
105
2AF
102
{ACAD_REACTORS
330
2AE
330
2B9
102
}
330
A
100
AcDbSymbolTableRecord
100
AcDbDimStyleTableRecord
  2
SLDDIMSTYLE5
 70
     0
 41
3.302
 44
0.0
 45
0.000000001
 73
     0
 74
     0
 77
     1
 78
    12
 79
     3
140
3.5
147
0.875
173
     1
178
     0
271
     0
272
     2
276
     2
284
    12
340
B1
  0
DIMSTYLE
105
2DC
102
{ACAD_REACTORS
330
2DB
102
}
330
A
100
AcDbSymbolTableRecord
100
AcDbDimStyleTableRecord
  2
SLDDIMSTYLE6
 70
     0
  3
<>
 41
3.302
 44
0.0
 45
0.000000001
 73
     0
 74
     0
 77
     1
 78
    12
 79
     3
140
3.5
141
0.0
147
0.875
172
     1
173
     1
178
     0
271
     1
272
     1
276
     2
284
    12
340
B1
341
148
343
148
  0
ENDTAB
  0
TABLE
  2
BLOCK_RECORD
  5
1
330
0
100
AcDbSymbolTable
 70
    28
  0
BLOCK_RECORD
  5
1F
330
1
100
AcDbSymbolTableRecord
100
AcDbBlockTableRecord
  2
*Model_Space
340
22
  0
BLOCK_RECORD
  5
1B
330
1
100
AcDbSymbolTableRecord
100
AcDbBlockTableRecord
  2
*Paper_Space
340
1E
  0
BLOCK_RECORD
  5
23
330
1
100
AcDbSymbolTableRecord
100
AcDbBlockTableRecord
  2
*Paper_Space0
340
26
  0
BLOCK_RECORD
  5
DD
330
1
100
AcDbSymbolTableRecord
100
AcDbBlockTableRecord
  2
SW_NOTE_0
340
0
102
{BLKREFS
331
E2
102
}
  0
BLOCK_RECORD
  5
E4
330
1
100
AcDbSymbolTableRecord
100
AcDbBlockTableRecord
  2
SW_NOTE_0_1
340
0
102
{BLKREFS
331
ED
102
}
  0
BLOCK_RECORD
  5
11F
330
1
100
AcDbSymbolTableRecord
100
AcDbBlockTableRecord
  2
_D
340
0
  0
BLOCK_RECORD
  5
129
330
1
100
AcDbSymbolTableRecord
100
AcDbBlockTableRecord
  2
_D_1
340
0
  0
BLOCK_RECORD
  5
133
330
1
100
AcDbSymbolTableRecord
100
AcDbBlockTableRecord
  2
_D_2
340
0
  0
BLOCK_RECORD
  5
13D
330
1
100
AcDbSymbolTableRecord
100
AcDbBlockTableRecord
  2
_D_3
340
0
  0
BLOCK_RECORD
  5
148
330
1
100
AcDbSymbolTableRecord
100
AcDbBlockTableRecord
  2
_None
340
0
  0
BLOCK_RECORD
  5
14B
330
1
100
AcDbSymbolTableRecord
100
AcDbBlockTableRecord
  2
_D_4
340
0
  0
BLOCK_RECORD
  5
155
330
1
100
AcDbSymbolTableRecord
100
AcDbBlockTableRecord
  2
_D_5
340
0
  0
BLOCK_RECORD
  5
162
330
1
100
AcDbSymbolTableRecord
100
AcDbBlockTableRecord
  2
_D_6
340
0
  0
BLOCK_RECORD
  5
169
330
1
100
AcDbSymbolTableRecord
100
AcDbBlockTableRecord
  2
SW_CENTERMARKSYMBOL_0
340
0
102
{BLKREFS
331
174
102
}
  0
BLOCK_RECORD
  5
175
330
1
100
AcDbSymbolTableRecord
100
AcDbBlockTableRecord
  2
SW_CENTERMARKSYMBOL_1
340
0
102
{BLKREFS
331
180
102
}
  0
BLOCK_RECORD
  5
181
330
1
100
AcDbSymbolTableRecord
100
AcDbBlockTableRecord
  2
SW_CENTERMARKSYMBOL_2
340
0
102
{BLKREFS
331
18C
102
}
  0
BLOCK_RECORD
  5
18D
330
1
100
AcDbSymbolTableRecord
100
AcDbBlockTableRecord
  2
SW_CENTERMARKSYMBOL_3
340
0
102
{BLKREFS
331
198
102
}
  0
BLOCK_RECORD
  5
199
330
1
100
AcDbSymbolTableRecord
100
AcDbBlockTableRecord
  2
SW_CENTERMARKSYMBOL_4
340
0
102
{BLKREFS
331
1A4
102
}
  0
BLOCK_RECORD
  5
1A5
330
1
100
AcDbSymbolTableRecord
100
AcDbBlockTableRecord
  2
SW_CENTERMARKSYMBOL_5
340
0
102
{BLKREFS
331
1B0
102
}
  0
BLOCK_RECORD
  5
1B1
330
1
100
AcDbSymbolTableRecord
100
AcDbBlockTableRecord
  2
SW_CENTERMARKSYMBOL_6
340
0
102
{BLKREFS
331
1BC
102
}
  0
BLOCK_RECORD
  5
1BD
330
1
100
AcDbSymbolTableRecord
100
AcDbBlockTableRecord
  2
SW_CENTERMARKSYMBOL_7
340
0
102
{BLKREFS
331
1C8
102
}
  0
BLOCK_RECORD
  5
1C9
330
1
100
AcDbSymbolTableRecord
100
AcDbBlockTableRecord
  2
SW_CENTERMARKSYMBOL_8
340
0
102
{BLKREFS
331
1D4
102
}
  0
BLOCK_RECORD
  5
2A3
330
1
100
AcDbSymbolTableRecord
100
AcDbBlockTableRecord
  2
_D_7
340
0
  0
BLOCK_RECORD
  5
2B0
330
1
100
AcDbSymbolTableRecord
100
AcDbBlockTableRecord
  2
_D_8
340
0
  0
BLOCK_RECORD
  5
2BA
330
1
100
AcDbSymbolTableRecord
100
AcDbBlockTableRecord
  2
_D_9
340
0
  0
BLOCK_RECORD
  5
2C5
330
1
100
AcDbSymbolTableRecord
100
AcDbBlockTableRecord
  2
_D_10
340
0
  0
BLOCK_RECORD
  5
2CF
330
1
100
AcDbSymbolTableRecord
100
AcDbBlockTableRecord
  2
_D_11
340
0
  0
BLOCK_RECORD
  5
2DD
330
1
100
AcDbSymbolTableRecord
100
AcDbBlockTableRecord
  2
_D_12
340
0
  0
BLOCK_RECORD
  5
2E4
330
1
100
AcDbSymbolTableRecord
100
AcDbBlockTableRecord
  2
SW_CENTERMARKSYMBOL_9
340
0
102
{BLKREFS
331
2EF
102
}
  0
BLOCK_RECORD
  5
2F0
330
1
100
AcDbSymbolTableRecord
100
AcDbBlockTableRecord
  2
SW_CENTERMARKSYMBOL_10
340
0
102
{BLKREFS
331
2FB
102
}
  0
ENDTAB
  0
ENDSEC
  0
SECTION
  2
BLOCKS
  0
BLOCK
  5
20
330
1F
100
AcDbEntity
  8
0
100
AcDbBlockBegin
  2
*Model_Space
 70
     0
 10
0.0
 20
0.0
 30
0.0
  3
*Model_Space
  1

  0
ENDBLK
  5
21
330
1F
100
AcDbEntity
  8
0
100
AcDbBlockEnd
  0
BLOCK
  5
1C
330
1B
100
AcDbEntity
 67
     1
  8
0
100
AcDbBlockBegin
  2
*Paper_Space
 70
     0
 10
0.0
 20
0.0
 30
0.0
  3
*Paper_Space
  1

  0
ENDBLK
  5
1D
330
1B
100
AcDbEntity
 67
     1
  8
0
100
AcDbBlockEnd
  0
BLOCK
  5
24
330
23
100
AcDbEntity
  8
0
100
AcDbBlockBegin
  2
*Paper_Space0
 70
     0
 10
0.0
 20
0.0
 30
0.0
  3
*Paper_Space0
  1

  0
ENDBLK
  5
25
330
23
100
AcDbEntity
  8
0
100
AcDbBlockEnd
  0
BLOCK
  5
DE
330
DD
100
AcDbEntity
  8
0
100
AcDbBlockBegin
  2
SW_NOTE_0
 70
     0
 10
0.0
 20
0.0
 30
0.0
  3
SW_NOTE_0
  1

  0
MTEXT
  5
E0
330
DD
100
AcDbEntity
  8
0
  6
Continuous
 62
     0
370
     0
100
AcDbMText
 10
0.0
 20
1.9336016097
 30
0.0
 40
1.5
 41
0.0
 71
     1
 72
     1
  1
ODSTRANIT
  7
SLDTEXTSTYLE0
 73
     1
 44
1.0
  0
MTEXT
  5
E1
330
DD
100
AcDbEntity
  8
0
  6
Continuous
 62
     0
370
     0
100
AcDbMText
 10
0.0
 20
-0.5663983345
 30
0.0
 40
1.5
 41
0.0
 71
     1
 72
     1
  1
OSTRÉ HRANY
  7
SLDTEXTSTYLE0
 73
     1
 44
1.0
  0
ENDBLK
  5
DF
330
DD
100
AcDbEntity
  8
0
100
AcDbBlockEnd
  0
BLOCK
  5
E5
330
E4
100
AcDbEntity
  8
0
100
AcDbBlockBegin
  2
SW_NOTE_0_1
 70
     0
 10
0.0
 20
0.0
 30
0.0
  3
SW_NOTE_0_1
  1

  0
MTEXT
  5
E7
330
E4
100
AcDbEntity
  8
0
  6
Continuous
 62
     0
370
     0
100
AcDbMText
 10
0.0
 20
1.9336016097
 30
0.0
 40
1.5
 41
0.0
 71
     1
 72
     1
  1
POKUD NENÍ UVEDENO JINAK:
  7
SLDTEXTSTYLE0
 73
     1
 44
1.0
  0
MTEXT
  5
E8
330
E4
100
AcDbEntity
  8
0
  6
Continuous
 62
     0
370
     0
100
AcDbMText
 10
0.0
 20
-0.5663983345
 30
0.0
 40
1.5
 41
0.0
 71
     1
 72
     1
  1
JEDNOTKY JSOU V MILIMETRECH
  7
SLDTEXTSTYLE0
 73
     1
 44
1.0
  0
MTEXT
  5
E9
330
E4
100
AcDbEntity
  8
0
  6
Continuous
 62
     0
370
     0
100
AcDbMText
 10
0.0
 20
-3.0663982786
 30
0.0
 40
1.5
 41
0.0
 71
     1
 72
     1
  1
DRSNOST:
  7
SLDTEXTSTYLE0
 73
     1
 44
1.0
  0
MTEXT
  5
EA
330
E4
100
AcDbEntity
  8
0
  6
Continuous
 62
     0
370
     0
100
AcDbMText
 10
0.0
 20
-5.5663982227
 30
0.0
 40
1.5
 41
0.0
 71
     1
 72
     1
  1
TOLERANCE:
  7
SLDTEXTSTYLE0
 73
     1
 44
1.0
  0
MTEXT
  5
EB
330
E4
100
AcDbEntity
  8
0
  6
Continuous
 62
     0
370
     0
100
AcDbMText
 10
1.6875
 20
-8.0663981668
 30
0.0
 40
1.5
 41
0.0
 71
     1
 72
     1
  1
LINEÁRNÍ:
  7
SLDTEXTSTYLE0
 73
     1
 44
1.0
  0
MTEXT
  5
EC
330
E4
100
AcDbEntity
  8
0
  6
Continuous
 62
     0
370
     0
100
AcDbMText
 10
1.6875
 20
-10.5663981109
 30
0.0
 40
1.5
 41
0.0
 71
     1
 72
     1
  1
ÚHLOVÁ:
  7
SLDTEXTSTYLE0
 73
     1
 44
1.0
  0
ENDBLK
  5
E6
330
E4
100
AcDbEntity
  8
0
100
AcDbBlockEnd
  0
BLOCK
  5
120
330
11F
100
AcDbEntity
  8
0
100
AcDbBlockBegin
  2
_D
 70
     0
 10
0.0
 20
0.0
 30
0.0
  3
_D
  1

  0
SOLID
  5
122
330
11F
100
AcDbEntity
  8
0
  6
Continuous
 62
     7
370
    18
100
AcDbTrace
 10
85.94
 20
222.06
 30
0.0
 11
89.242
 21
221.552
 31
0.0
 12
89.242
 22
222.568
 32
0.0
 13
89.242
 23
222.568
 33
0.0
  0
SOLID
  5
123
330
11F
100
AcDbEntity
  8
0
  6
Continuous
 62
     7
370
    18
100
AcDbTrace
 10
150.94
 20
222.06
 30
0.0
 11
147.638
 21
222.568
 31
0.0
 12
147.638
 22
221.552
 32
0.0
 13
147.638
 23
221.552
 33
0.0
  0
LINE
  5
124
330
11F
100
AcDbEntity
  8
0
  6
Continuous
 62
     7
370
     0
100
AcDbLine
 10
85.94
 20
194.06
 30
0.0
 11
85.94
 21
223.06
 31
0.0
  0
LINE
  5
125
330
11F
100
AcDbEntity
  8
0
  6
Continuous
 62
     7
370
     0
100
AcDbLine
 10
150.94
 20
194.06
 30
0.0
 11
150.94
 21
223.06
 31
0.0
  0
LINE
  5
126
330
11F
100
AcDbEntity
  8
0
  6
Continuous
 62
     7
370
     0
100
AcDbLine
 10
85.94
 20
222.06
 30
0.0
 11
150.94
 21
222.06
 31
0.0
  0
MTEXT
  5
127
330
11F
100
AcDbEntity
  8
0
  6
Continuous
 62
     7
370
    18
100
AcDbMText
 10
115.8538888065
 20
226.5717369146
 30
0.0
 40
3.5
 41
0.0
 71
     1
 72
     1
  1
65
  7
SLDTEXTSTYLE0
 73
     1
 44
1.0
  0
ENDBLK
  5
121
330
11F
100
AcDbEntity
  8
0
100
AcDbBlockEnd
  0
BLOCK
  5
12A
330
129
100
AcDbEntity
  8
0
100
AcDbBlockBegin
  2
_D_1
 70
     0
 10
0.0
 20
0.0
 30
0.0
  3
_D_1
  1

  0
SOLID
  5
12C
330
129
100
AcDbEntity
  8
0
  6
Continuous
 62
     7
370
    18
100
AcDbTrace
 10
93.44
 20
216.06
 30
0.0
 11
96.742
 21
215.552
 31
0.0
 12
96.742
 22
216.568
 32
0.0
 13
96.742
 23
216.568
 33
0.0
  0
SOLID
  5
12D
330
129
100
AcDbEntity
  8
0
  6
Continuous
 62
     7
370
    18
100
AcDbTrace
 10
143.44
 20
216.06
 30
0.0
 11
140.138
 21
216.568
 31
0.0
 12
140.138
 22
215.552
 32
0.0
 13
140.138
 23
215.552
 33
0.0
  0
LINE
  5
12E
330
129
100
AcDbEntity
  8
0
  6
Continuous
 62
     7
370
     0
100
AcDbLine
 10
93.44
 20
196.81
 30
0.0
 11
93.44
 21
217.06
 31
0.0
  0
LINE
  5
12F
330
129
100
AcDbEntity
  8
0
  6
Continuous
 62
     7
370
     0
100
AcDbLine
 10
143.44
 20
196.81
 30
0.0
 11
143.44
 21
217.06
 31
0.0
  0
LINE
  5
130
330
129
100
AcDbEntity
  8
0
  6
Continuous
 62
     7
370
     0
100
AcDbLine
 10
93.44
 20
216.06
 30
0.0
 11
143.44
 21
216.06
 31
0.0
  0
MTEXT
  5
131
330
129
100
AcDbEntity
  8
0
  6
Continuous
 62
     7
370
    18
100
AcDbMText
 10
115.8538888065
 20
220.5717369146
 30
0.0
 40
3.5
 41
0.0
 71
     1
 72
     1
  1
50
  7
SLDTEXTSTYLE0
 73
     1
 44
1.0
  0
ENDBLK
  5
12B
330
129
100
AcDbEntity
  8
0
100
AcDbBlockEnd
  0
BLOCK
  5
134
330
133
100
AcDbEntity
  8
0
100
AcDbBlockBegin
  2
_D_2
 70
     0
 10
0.0
 20
0.0
 30
0.0
  3
_D_2
  1

  0
SOLID
  5
136
330
133
100
AcDbEntity
  8
0
  6
Continuous
 62
     7
370
    18
100
AcDbTrace
 10
69.94
 20
149.06
 30
0.0
 11
70.448
 21
152.362
 31
0.0
 12
69.432
 22
152.362
 32
0.0
 13
69.432
 23
152.362
 33
0.0
  0
SOLID
  5
137
330
133
100
AcDbEntity
  8
0
  6
Continuous
 62
     7
370
    18
100
AcDbTrace
 10
69.94
 20
194.06
 30
0.0
 11
69.432
 21
190.758
 31
0.0
 12
70.448
 22
190.758
 32
0.0
 13
70.448
 23
190.758
 33
0.0
  0
LINE
  5
138
330
133
100
AcDbEntity
  8
0
  6
Continuous
 62
     7
370
     0
100
AcDbLine
 10
85.94
 20
149.06
 30
0.0
 11
68.94
 21
149.06
 31
0.0
  0
LINE
  5
139
330
133
100
AcDbEntity
  8
0
  6
Continuous
 62
     7
370
     0
100
AcDbLine
 10
85.94
 20
194.06
 30
0.0
 11
68.94
 21
194.06
 31
0.0
  0
LINE
  5
13A
330
133
100
AcDbEntity
  8
0
  6
Continuous
 62
     7
370
     0
100
AcDbLine
 10
69.94
 20
149.06
 30
0.0
 11
69.94
 21
194.06
 31
0.0
  0
MTEXT
  5
13B
330
133
100
AcDbEntity
  8
0
  6
Continuous
 62
     7
370
    18
100
AcDbMText
 10
65.4282630854
 20
168.9738888065
 30
0.0
 40
3.5
 41
0.0
 71
     1
 72
     1
  1
45
  7
SLDTEXTSTYLE0
 11
6.123233995736766E-17
 21
1.0
 31
0.0
 73
     1
 44
1.0
  0
ENDBLK
  5
135
330
133
100
AcDbEntity
  8
0
100
AcDbBlockEnd
  0
BLOCK
  5
13E
330
13D
100
AcDbEntity
  8
0
100
AcDbBlockBegin
  2
_D_3
 70
     0
 10
0.0
 20
0.0
 30
0.0
  3
_D_3
  1

  0
SOLID
  5
140
330
13D
100
AcDbEntity
  8
0
  6
Continuous
 62
     7
370
    18
100
AcDbTrace
 10
75.94
 20
186.56
 30
0.0
 11
75.432
 21
183.258
 31
0.0
 12
76.448
 22
183.258
 32
0.0
 13
76.448
 23
183.258
 33
0.0
  0
SOLID
  5
141
330
13D
100
AcDbEntity
  8
0
  6
Continuous
 62
     7
370
    18
100
AcDbTrace
 10
75.94
 20
156.56
 30
0.0
 11
76.448
 21
159.862
 31
0.0
 12
75.432
 22
159.862
 32
0.0
 13
75.432
 23
159.862
 33
0.0
  0
LINE
  5
142
330
13D
100
AcDbEntity
  8
0
  6
Continuous
 62
     7
370
     0
100
AcDbLine
 10
83.19
 20
186.56
 30
0.0
 11
74.94
 21
186.56
 31
0.0
  0
LINE
  5
143
330
13D
100
AcDbEntity
  8
0
  6
Continuous
 62
     7
370
     0
100
AcDbLine
 10
83.19
 20
156.56
 30
0.0
 11
74.94
 21
156.56
 31
0.0
  0
LINE
  5
144
330
13D
100
AcDbEntity
  8
0
  6
Continuous
 62
     7
370
     0
100
AcDbLine
 10
75.94
 20
186.56
 30
0.0
 11
75.94
 21
156.56
 31
0.0
  0
MTEXT
  5
145
330
13D
100
AcDbEntity
  8
0
  6
Continuous
 62
     7
370
    18
100
AcDbMText
 10
71.4282630854
 20
168.9738888065
 30
0.0
 40
3.5
 41
0.0
 71
     1
 72
     1
  1
30
  7
SLDTEXTSTYLE0
 11
-7.044195017643634E-15
 21
1.0
 31
0.0
 73
     1
 44
1.0
  0
ENDBLK
  5
13F
330
13D
100
AcDbEntity
  8
0
100
AcDbBlockEnd
  0
BLOCK
  5
149
330
148
100
AcDbEntity
  8
0
100
AcDbBlockBegin
  2
_None
 70
     0
 10
0.0
 20
0.0
 30
0.0
  3
_None
  1

  0
ENDBLK
  5
14A
330
148
100
AcDbEntity
  8
0
100
AcDbBlockEnd
  0
BLOCK
  5
14C
330
14B
100
AcDbEntity
  8
0
100
AcDbBlockBegin
  2
_D_4
 70
     0
 10
0.0
 20
0.0
 30
0.0
  3
_D_4
  1

  0
SOLID
  5
14E
330
14B
100
AcDbEntity
  8
0
  6
Continuous
 62
     7
370
    18
100
AcDbTrace
 10
146.4452038201
 20
153.55479618
 30
0.0
 11
148.4208601667
 21
150.8607193436
 31
0.0
 12
149.1392806564
 22
151.5791398333
 32
0.0
 13
149.1392806564
 23
151.5791398333
 33
0.0
  0
LINE
  5
14F
330
14B
100
AcDbEntity
  8
0
  6
Continuous
 62
     7
370
     0
100
AcDbLine
 10
146.4452038201
 20
153.55479618
 30
0.0
 11
164.9807125923
 21
135.0192874077
 31
0.0
  0
LINE
  5
150
330
14B
100
AcDbEntity
  8
0
  6
Continuous
 62
     7
370
     0
100
AcDbLine
 10
146.4452038201
 20
153.55479618
 30
0.0
 11
140.43479618
 21
159.56520382
 31
0.0
  0
MTEXT
  5
151
330
14B
100
AcDbEntity
  8
0
  6
Continuous
 62
     7
370
    18
100
AcDbMText
 10
159.8543152285
 20
146.5010124333
 30
0.0
 40
3.5
 41
0.0
 71
     1
 72
     1
  1
%%c
  7
SLDTEXTSTYLE0
 11
0.7071067811865568
 21
-0.7071067811865382
 31
0.0
 73
     1
 44
1.0
  0
MTEXT
  5
152
330
14B
100
AcDbEntity
  8
0
  6
Continuous
 62
     7
370
    18
100
AcDbMText
 10
163.6245446457
 20
142.8064040936
 30
0.0
 40
3.5
 41
0.0
 71
     1
 72
     1
  1
8,5
  7
SLDTEXTSTYLE0
 11
0.7071067811865568
 21
-0.7071067811865382
 31
0.0
 73
     1
 44
1.0
  0
ENDBLK
  5
14D
330
14B
100
AcDbEntity
  8
0
100
AcDbBlockEnd
  0
BLOCK
  5
156
330
155
100
AcDbEntity
  8
0
100
AcDbBlockBegin
  2
_D_5
 70
     0
 10
0.0
 20
0.0
 30
0.0
  3
_D_5
  1

  0
SOLID
  5
158
330
155
100
AcDbEntity
  8
0
  6
Continuous
 62
     7
370
    18
100
AcDbTrace
 10
110.94
 20
204.06
 30
0.0
 11
107.638
 21
204.568
 31
0.0
 12
107.638
 22
203.552
 32
0.0
 13
107.638
 23
203.552
 33
0.0
  0
SOLID
  5
159
330
155
100
AcDbEntity
  8
0
  6
Continuous
 62
     7
370
    18
100
AcDbTrace
 10
125.94
 20
204.06
 30
0.0
 11
129.242
 21
203.552
 31
0.0
 12
129.242
 22
204.568
 32
0.0
 13
129.242
 23
204.568
 33
0.0
  0
LINE
  5
15A
330
155
100
AcDbEntity
  8
0
  6
Continuous
 62
     7
370
     0
100
AcDbLine
 10
110.94
 20
176.56
 30
0.0
 11
110.94
 21
205.06
 31
0.0
  0
LINE
  5
15B
330
155
100
AcDbEntity
  8
0
  6
Continuous
 62
     7
370
     0
100
AcDbLine
 10
125.94
 20
176.56
 30
0.0
 11
125.94
 21
205.06
 31
0.0
  0
LINE
  5
15C
330
155
100
AcDbEntity
  8
0
  6
Continuous
 62
     7
370
     0
100
AcDbLine
 10
110.94
 20
204.06
 30
0.0
 11
104.59
 21
204.06
 31
0.0
  0
LINE
  5
15D
330
155
100
AcDbEntity
  8
0
  6
Continuous
 62
     7
370
     0
100
AcDbLine
 10
110.94
 20
204.06
 30
0.0
 11
125.94
 21
204.06
 31
0.0
  0
LINE
  5
15E
330
155
100
AcDbEntity
  8
0
  6
Continuous
 62
     7
370
     0
100
AcDbLine
 10
125.94
 20
204.06
 30
0.0
 11
132.29
 21
204.06
 31
0.0
  0
MTEXT
  5
15F
330
155
100
AcDbEntity
  8
0
  6
Continuous
 62
     7
370
    18
100
AcDbMText
 10
115.8538888065
 20
208.5717369146
 30
0.0
 40
3.5
 41
0.0
 71
     1
 72
     1
  1
15
  7
SLDTEXTSTYLE0
 73
     1
 44
1.0
  0
ENDBLK
  5
157
330
155
100
AcDbEntity
  8
0
100
AcDbBlockEnd
  0
BLOCK
  5
163
330
162
100
AcDbEntity
  8
0
100
AcDbBlockBegin
  2
_D_6
 70
     0
 10
0.0
 20
0.0
 30
0.0
  3
_D_6
  1

  0
SOLID
  5
165
330
162
100
AcDbEntity
  8
0
  6
Continuous
 62
     7
370
    18
100
AcDbTrace
 10
121.6573358544
 20
168.3426641456
 30
0.0
 11
123.632992201
 21
165.6485873093
 31
0.0
 12
124.3514126907
 22
166.367007799
 32
0.0
 13
124.3514126907
 23
166.367007799
 33
0.0
  0
LINE
  5
166
330
162
100
AcDbEntity
  8
0
  6
Continuous
 62
     7
370
     0
100
AcDbLine
 10
121.6573358544
 20
168.3426641456
 30
0.0
 11
166.2412209052
 21
123.7587790948
 31
0.0
  0
LINE
  5
167
330
162
100
AcDbEntity
  8
0
  6
Continuous
 62
     7
370
     0
100
AcDbLine
 10
121.6573358544
 20
168.3426641456
 30
0.0
 11
115.2226641456
 21
174.7773358544
 31
0.0
  0
MTEXT
  5
168
330
162
100
AcDbEntity
  8
0
  6
Continuous
 62
     7
370
    18
100
AcDbMText
 10
162.7405552534
 20
133.6361817049
 30
0.0
 40
3.5
 41
0.0
 71
     1
 72
     1
  1
M10
  7
SLDTEXTSTYLE0
 11
0.7071067811865575
 21
-0.7071067811865377
 31
0.0
 73
     1
 44
1.0
  0
ENDBLK
  5
164
330
162
100
AcDbEntity
  8
0
100
AcDbBlockEnd
  0
BLOCK
  5
16A
330
169
100
AcDbEntity
  8
0
100
AcDbBlockBegin
  2
SW_CENTERMARKSYMBOL_0
 70
     0
 10
0.0
 20
0.0
 30
0.0
  3
SW_CENTERMARKSYMBOL_0
  1

  0
LINE
  5
16C
330
169
100
AcDbEntity
  8
0
  6
Continuous
 62
     0
370
    18
100
AcDbLine
 10
0.0
 20
0.0
 30
0.0
 11
0.0
 21
2.5
 31
0.0
  0
LINE
  5
16D
330
169
100
AcDbEntity
  8
0
  6
Continuous
 62
     0
370
    18
100
AcDbLine
 10
0.0
 20
0.0
 30
0.0
 11
-2.5
 21
0.0
 31
0.0
  0
LINE
  5
16E
330
169
100
AcDbEntity
  8
0
  6
Continuous
 62
     0
370
    18
100
AcDbLine
 10
0.0
 20
0.0
 30
0.0
 11
0.0
 21
-2.5
 31
0.0
  0
LINE
  5
16F
330
169
100
AcDbEntity
  8
0
  6
Continuous
 62
     0
370
    18
100
AcDbLine
 10
0.0
 20
0.0
 30
0.0
 11
2.5
 21
0.0
 31
0.0
  0
LINE
  5
170
330
169
100
AcDbEntity
  8
0
  6
Continuous
 62
     0
370
    18
100
AcDbLine
 10
0.0
 20
5.0
 30
0.0
 11
0.0
 21
9.25
 31
0.0
  0
LINE
  5
171
330
169
100
AcDbEntity
  8
0
  6
Continuous
 62
     0
370
    18
100
AcDbLine
 10
-5.0
 20
0.0
 30
0.0
 11
-9.25
 21
0.0
 31
0.0
  0
LINE
  5
172
330
169
100
AcDbEntity
  8
0
  6
Continuous
 62
     0
370
    18
100
AcDbLine
 10
0.0
 20
-5.0
 30
0.0
 11
0.0
 21
-9.25
 31
0.0
  0
LINE
  5
173
330
169
100
AcDbEntity
  8
0
  6
Continuous
 62
     0
370
    18
100
AcDbLine
 10
5.0
 20
0.0
 30
0.0
 11
9.25
 21
0.0
 31
0.0
  0
ENDBLK
  5
16B
330
169
100
AcDbEntity
  8
0
100
AcDbBlockEnd
  0
BLOCK
  5
176
330
175
100
AcDbEntity
  8
0
100
AcDbBlockBegin
  2
SW_CENTERMARKSYMBOL_1
 70
     0
 10
0.0
 20
0.0
 30
0.0
  3
SW_CENTERMARKSYMBOL_1
  1

  0
LINE
  5
178
330
175
100
AcDbEntity
  8
0
  6
Continuous
 62
     0
370
    18
100
AcDbLine
 10
0.0
 20
0.0
 30
0.0
 11
0.0
 21
2.5
 31
0.0
  0
LINE
  5
179
330
175
100
AcDbEntity
  8
0
  6
Continuous
 62
     0
370
    18
100
AcDbLine
 10
0.0
 20
0.0
 30
0.0
 11
-2.5
 21
0.0
 31
0.0
  0
LINE
  5
17A
330
175
100
AcDbEntity
  8
0
  6
Continuous
 62
     0
370
    18
100
AcDbLine
 10
0.0
 20
0.0
 30
0.0
 11
0.0
 21
-2.5
 31
0.0
  0
LINE
  5
17B
330
175
100
AcDbEntity
  8
0
  6
Continuous
 62
     0
370
    18
100
AcDbLine
 10
0.0
 20
0.0
 30
0.0
 11
2.5
 21
0.0
 31
0.0
  0
LINE
  5
17C
330
175
100
AcDbEntity
  8
0
  6
Continuous
 62
     0
370
    18
100
AcDbLine
 10
0.0
 20
5.0
 30
0.0
 11
0.0
 21
21.2
 31
0.0
  0
LINE
  5
17D
330
175
100
AcDbEntity
  8
0
  6
Continuous
 62
     0
370
    18
100
AcDbLine
 10
-5.0
 20
0.0
 30
0.0
 11
-21.2
 21
0.0
 31
0.0
  0
LINE
  5
17E
330
175
100
AcDbEntity
  8
0
  6
Continuous
 62
     0
370
    18
100
AcDbLine
 10
0.0
 20
-5.0
 30
0.0
 11
0.0
 21
-21.2
 31
0.0
  0
LINE
  5
17F
330
175
100
AcDbEntity
  8
0
  6
Continuous
 62
     0
370
    18
100
AcDbLine
 10
5.0
 20
0.0
 30
0.0
 11
21.2
 21
0.0
 31
0.0
  0
ENDBLK
  5
177
330
175
100
AcDbEntity
  8
0
100
AcDbBlockEnd
  0
BLOCK
  5
182
330
181
100
AcDbEntity
  8
0
100
AcDbBlockBegin
  2
SW_CENTERMARKSYMBOL_2
 70
     0
 10
0.0
 20
0.0
 30
0.0
  3
SW_CENTERMARKSYMBOL_2
  1

  0
LINE
  5
184
330
181
100
AcDbEntity
  8
0
  6
Continuous
 62
     0
370
    18
100
AcDbLine
 10
0.0
 20
0.0
 30
0.0
 11
0.0
 21
2.5
 31
0.0
  0
LINE
  5
185
330
181
100
AcDbEntity
  8
0
  6
Continuous
 62
     0
370
    18
100
AcDbLine
 10
0.0
 20
0.0
 30
0.0
 11
-2.5
 21
0.0
 31
0.0
  0
LINE
  5
186
330
181
100
AcDbEntity
  8
0
  6
Continuous
 62
     0
370
    18
100
AcDbLine
 10
0.0
 20
0.0
 30
0.0
 11
0.0
 21
-2.5
 31
0.0
  0
LINE
  5
187
330
181
100
AcDbEntity
  8
0
  6
Continuous
 62
     0
370
    18
100
AcDbLine
 10
0.0
 20
0.0
 30
0.0
 11
2.5
 21
0.0
 31
0.0
  0
LINE
  5
188
330
181
100
AcDbEntity
  8
0
  6
Continuous
 62
     0
370
    18
100
AcDbLine
 10
0.0
 20
5.0
 30
0.0
 11
0.0
 21
9.25
 31
0.0
  0
LINE
  5
189
330
181
100
AcDbEntity
  8
0
  6
Continuous
 62
     0
370
    18
100
AcDbLine
 10
-5.0
 20
0.0
 30
0.0
 11
-9.25
 21
0.0
 31
0.0
  0
LINE
  5
18A
330
181
100
AcDbEntity
  8
0
  6
Continuous
 62
     0
370
    18
100
AcDbLine
 10
0.0
 20
-5.0
 30
0.0
 11
0.0
 21
-9.25
 31
0.0
  0
LINE
  5
18B
330
181
100
AcDbEntity
  8
0
  6
Continuous
 62
     0
370
    18
100
AcDbLine
 10
5.0
 20
0.0
 30
0.0
 11
9.25
 21
0.0
 31
0.0
  0
ENDBLK
  5
183
330
181
100
AcDbEntity
  8
0
100
AcDbBlockEnd
  0
BLOCK
  5
18E
330
18D
100
AcDbEntity
  8
0
100
AcDbBlockBegin
  2
SW_CENTERMARKSYMBOL_3
 70
     0
 10
0.0
 20
0.0
 30
0.0
  3
SW_CENTERMARKSYMBOL_3
  1

  0
LINE
  5
190
330
18D
100
AcDbEntity
  8
0
  6
Continuous
 62
     0
370
    18
100
AcDbLine
 10
0.0
 20
0.0
 30
0.0
 11
0.0
 21
2.5
 31
0.0
  0
LINE
  5
191
330
18D
100
AcDbEntity
  8
0
  6
Continuous
 62
     0
370
    18
100
AcDbLine
 10
0.0
 20
0.0
 30
0.0
 11
-2.5
 21
0.0
 31
0.0
  0
LINE
  5
192
330
18D
100
AcDbEntity
  8
0
  6
Continuous
 62
     0
370
    18
100
AcDbLine
 10
0.0
 20
0.0
 30
0.0
 11
0.0
 21
-2.5
 31
0.0
  0
LINE
  5
193
330
18D
100
AcDbEntity
  8
0
  6
Continuous
 62
     0
370
    18
100
AcDbLine
 10
0.0
 20
0.0
 30
0.0
 11
2.5
 21
0.0
 31
0.0
  0
LINE
  5
194
330
18D
100
AcDbEntity
  8
0
  6
Continuous
 62
     0
370
    18
100
AcDbLine
 10
0.0
 20
5.0
 30
0.0
 11
0.0
 21
9.25
 31
0.0
  0
LINE
  5
195
330
18D
100
AcDbEntity
  8
0
  6
Continuous
 62
     0
370
    18
100
AcDbLine
 10
-5.0
 20
0.0
 30
0.0
 11
-9.25
 21
0.0
 31
0.0
  0
LINE
  5
196
330
18D
100
AcDbEntity
  8
0
  6
Continuous
 62
     0
370
    18
100
AcDbLine
 10
0.0
 20
-5.0
 30
0.0
 11
0.0
 21
-9.25
 31
0.0
  0
LINE
  5
197
330
18D
100
AcDbEntity
  8
0
  6
Continuous
 62
     0
370
    18
100
AcDbLine
 10
5.0
 20
0.0
 30
0.0
 11
9.25
 21
0.0
 31
0.0
  0
ENDBLK
  5
18F
330
18D
100
AcDbEntity
  8
0
100
AcDbBlockEnd
  0
BLOCK
  5
19A
330
199
100
AcDbEntity
  8
0
100
AcDbBlockBegin
  2
SW_CENTERMARKSYMBOL_4
 70
     0
 10
0.0
 20
0.0
 30
0.0
  3
SW_CENTERMARKSYMBOL_4
  1

  0
LINE
  5
19C
330
199
100
AcDbEntity
  8
0
  6
Continuous
 62
     0
370
    18
100
AcDbLine
 10
0.0
 20
0.0
 30
0.0
 11
0.0
 21
2.5
 31
0.0
  0
LINE
  5
19D
330
199
100
AcDbEntity
  8
0
  6
Continuous
 62
     0
370
    18
100
AcDbLine
 10
0.0
 20
0.0
 30
0.0
 11
-2.5
 21
0.0
 31
0.0
  0
LINE
  5
19E
330
199
100
AcDbEntity
  8
0
  6
Continuous
 62
     0
370
    18
100
AcDbLine
 10
0.0
 20
0.0
 30
0.0
 11
0.0
 21
-2.5
 31
0.0
  0
LINE
  5
19F
330
199
100
AcDbEntity
  8
0
  6
Continuous
 62
     0
370
    18
100
AcDbLine
 10
0.0
 20
0.0
 30
0.0
 11
2.5
 21
0.0
 31
0.0
  0
LINE
  5
1A0
330
199
100
AcDbEntity
  8
0
  6
Continuous
 62
     0
370
    18
100
AcDbLine
 10
0.0
 20
5.0
 30
0.0
 11
0.0
 21
9.25
 31
0.0
  0
LINE
  5
1A1
330
199
100
AcDbEntity
  8
0
  6
Continuous
 62
     0
370
    18
100
AcDbLine
 10
-5.0
 20
0.0
 30
0.0
 11
-9.25
 21
0.0
 31
0.0
  0
LINE
  5
1A2
330
199
100
AcDbEntity
  8
0
  6
Continuous
 62
     0
370
    18
100
AcDbLine
 10
0.0
 20
-5.0
 30
0.0
 11
0.0
 21
-9.25
 31
0.0
  0
LINE
  5
1A3
330
199
100
AcDbEntity
  8
0
  6
Continuous
 62
     0
370
    18
100
AcDbLine
 10
5.0
 20
0.0
 30
0.0
 11
9.25
 21
0.0
 31
0.0
  0
ENDBLK
  5
19B
330
199
100
AcDbEntity
  8
0
100
AcDbBlockEnd
  0
BLOCK
  5
1A6
330
1A5
100
AcDbEntity
  8
0
100
AcDbBlockBegin
  2
SW_CENTERMARKSYMBOL_5
 70
     0
 10
0.0
 20
0.0
 30
0.0
  3
SW_CENTERMARKSYMBOL_5
  1

  0
LINE
  5
1A8
330
1A5
100
AcDbEntity
  8
0
  6
Continuous
 62
     0
370
    18
100
AcDbLine
 10
0.0
 20
0.0
 30
0.0
 11
0.0
 21
2.5
 31
0.0
  0
LINE
  5
1A9
330
1A5
100
AcDbEntity
  8
0
  6
Continuous
 62
     0
370
    18
100
AcDbLine
 10
0.0
 20
0.0
 30
0.0
 11
-2.5
 21
0.0
 31
0.0
  0
LINE
  5
1AA
330
1A5
100
AcDbEntity
  8
0
  6
Continuous
 62
     0
370
    18
100
AcDbLine
 10
0.0
 20
0.0
 30
0.0
 11
0.0
 21
-2.5
 31
0.0
  0
LINE
  5
1AB
330
1A5
100
AcDbEntity
  8
0
  6
Continuous
 62
     0
370
    18
100
AcDbLine
 10
0.0
 20
0.0
 30
0.0
 11
2.5
 21
0.0
 31
0.0
  0
LINE
  5
1AC
330
1A5
100
AcDbEntity
  8
0
  6
Continuous
 62
     0
370
    18
100
AcDbLine
 10
0.0
 20
2.5
 30
0.0
 11
0.0
 21
4.0
 31
0.0
  0
LINE
  5
1AD
330
1A5
100
AcDbEntity
  8
0
  6
Continuous
 62
     0
370
    18
100
AcDbLine
 10
-2.5
 20
0.0
 30
0.0
 11
-4.0
 21
0.0
 31
0.0
  0
LINE
  5
1AE
330
1A5
100
AcDbEntity
  8
0
  6
Continuous
 62
     0
370
    18
100
AcDbLine
 10
0.0
 20
-2.5
 30
0.0
 11
0.0
 21
-4.0
 31
0.0
  0
LINE
  5
1AF
330
1A5
100
AcDbEntity
  8
0
  6
Continuous
 62
     0
370
    18
100
AcDbLine
 10
2.5
 20
0.0
 30
0.0
 11
4.0
 21
0.0
 31
0.0
  0
ENDBLK
  5
1A7
330
1A5
100
AcDbEntity
  8
0
100
AcDbBlockEnd
  0
BLOCK
  5
1B2
330
1B1
100
AcDbEntity
  8
0
100
AcDbBlockBegin
  2
SW_CENTERMARKSYMBOL_6
 70
     0
 10
0.0
 20
0.0
 30
0.0
  3
SW_CENTERMARKSYMBOL_6
  1

  0
LINE
  5
1B4
330
1B1
100
AcDbEntity
  8
0
  6
Continuous
 62
     0
370
    18
100
AcDbLine
 10
0.0
 20
0.0
 30
0.0
 11
0.0
 21
2.5
 31
0.0
  0
LINE
  5
1B5
330
1B1
100
AcDbEntity
  8
0
  6
Continuous
 62
     0
370
    18
100
AcDbLine
 10
0.0
 20
0.0
 30
0.0
 11
-2.5
 21
0.0
 31
0.0
  0
LINE
  5
1B6
330
1B1
100
AcDbEntity
  8
0
  6
Continuous
 62
     0
370
    18
100
AcDbLine
 10
0.0
 20
0.0
 30
0.0
 11
0.0
 21
-2.5
 31
0.0
  0
LINE
  5
1B7
330
1B1
100
AcDbEntity
  8
0
  6
Continuous
 62
     0
370
    18
100
AcDbLine
 10
0.0
 20
0.0
 30
0.0
 11
2.5
 21
0.0
 31
0.0
  0
LINE
  5
1B8
330
1B1
100
AcDbEntity
  8
0
  6
Continuous
 62
     0
370
    18
100
AcDbLine
 10
0.0
 20
2.5
 30
0.0
 11
0.0
 21
4.0
 31
0.0
  0
LINE
  5
1B9
330
1B1
100
AcDbEntity
  8
0
  6
Continuous
 62
     0
370
    18
100
AcDbLine
 10
-2.5
 20
0.0
 30
0.0
 11
-4.0
 21
0.0
 31
0.0
  0
LINE
  5
1BA
330
1B1
100
AcDbEntity
  8
0
  6
Continuous
 62
     0
370
    18
100
AcDbLine
 10
0.0
 20
-2.5
 30
0.0
 11
0.0
 21
-4.0
 31
0.0
  0
LINE
  5
1BB
330
1B1
100
AcDbEntity
  8
0
  6
Continuous
 62
     0
370
    18
100
AcDbLine
 10
2.5
 20
0.0
 30
0.0
 11
4.0
 21
0.0
 31
0.0
  0
ENDBLK
  5
1B3
330
1B1
100
AcDbEntity
  8
0
100
AcDbBlockEnd
  0
BLOCK
  5
1BE
330
1BD
100
AcDbEntity
  8
0
100
AcDbBlockBegin
  2
SW_CENTERMARKSYMBOL_7
 70
     0
 10
0.0
 20
0.0
 30
0.0
  3
SW_CENTERMARKSYMBOL_7
  1

  0
LINE
  5
1C0
330
1BD
100
AcDbEntity
  8
0
  6
Continuous
 62
     0
370
    18
100
AcDbLine
 10
0.0
 20
0.0
 30
0.0
 11
0.0
 21
2.5
 31
0.0
  0
LINE
  5
1C1
330
1BD
100
AcDbEntity
  8
0
  6
Continuous
 62
     0
370
    18
100
AcDbLine
 10
0.0
 20
0.0
 30
0.0
 11
-2.5
 21
0.0
 31
0.0
  0
LINE
  5
1C2
330
1BD
100
AcDbEntity
  8
0
  6
Continuous
 62
     0
370
    18
100
AcDbLine
 10
0.0
 20
0.0
 30
0.0
 11
0.0
 21
-2.5
 31
0.0
  0
LINE
  5
1C3
330
1BD
100
AcDbEntity
  8
0
  6
Continuous
 62
     0
370
    18
100
AcDbLine
 10
0.0
 20
0.0
 30
0.0
 11
2.5
 21
0.0
 31
0.0
  0
LINE
  5
1C4
330
1BD
100
AcDbEntity
  8
0
  6
Continuous
 62
     0
370
    18
100
AcDbLine
 10
0.0
 20
2.5
 30
0.0
 11
0.0
 21
4.0
 31
0.0
  0
LINE
  5
1C5
330
1BD
100
AcDbEntity
  8
0
  6
Continuous
 62
     0
370
    18
100
AcDbLine
 10
-2.5
 20
0.0
 30
0.0
 11
-4.0
 21
0.0
 31
0.0
  0
LINE
  5
1C6
330
1BD
100
AcDbEntity
  8
0
  6
Continuous
 62
     0
370
    18
100
AcDbLine
 10
0.0
 20
-2.5
 30
0.0
 11
0.0
 21
-4.0
 31
0.0
  0
LINE
  5
1C7
330
1BD
100
AcDbEntity
  8
0
  6
Continuous
 62
     0
370
    18
100
AcDbLine
 10
2.5
 20
0.0
 30
0.0
 11
4.0
 21
0.0
 31
0.0
  0
ENDBLK
  5
1BF
330
1BD
100
AcDbEntity
  8
0
100
AcDbBlockEnd
  0
BLOCK
  5
1CA
330
1C9
100
AcDbEntity
  8
0
100
AcDbBlockBegin
  2
SW_CENTERMARKSYMBOL_8
 70
     0
 10
0.0
 20
0.0
 30
0.0
  3
SW_CENTERMARKSYMBOL_8
  1

  0
LINE
  5
1CC
330
1C9
100
AcDbEntity
  8
0
  6
Continuous
 62
     0
370
    18
100
AcDbLine
 10
0.0
 20
0.0
 30
0.0
 11
0.0
 21
2.5
 31
0.0
  0
LINE
  5
1CD
330
1C9
100
AcDbEntity
  8
0
  6
Continuous
 62
     0
370
    18
100
AcDbLine
 10
0.0
 20
0.0
 30
0.0
 11
-2.5
 21
0.0
 31
0.0
  0
LINE
  5
1CE
330
1C9
100
AcDbEntity
  8
0
  6
Continuous
 62
     0
370
    18
100
AcDbLine
 10
0.0
 20
0.0
 30
0.0
 11
0.0
 21
-2.5
 31
0.0
  0
LINE
  5
1CF
330
1C9
100
AcDbEntity
  8
0
  6
Continuous
 62
     0
370
    18
100
AcDbLine
 10
0.0
 20
0.0
 30
0.0
 11
2.5
 21
0.0
 31
0.0
  0
LINE
  5
1D0
330
1C9
100
AcDbEntity
  8
0
  6
Continuous
 62
     0
370
    18
100
AcDbLine
 10
0.0
 20
2.5
 30
0.0
 11
0.0
 21
4.0
 31
0.0
  0
LINE
  5
1D1
330
1C9
100
AcDbEntity
  8
0
  6
Continuous
 62
     0
370
    18
100
AcDbLine
 10
-2.5
 20
0.0
 30
0.0
 11
-4.0
 21
0.0
 31
0.0
  0
LINE
  5
1D2
330
1C9
100
AcDbEntity
  8
0
  6
Continuous
 62
     0
370
    18
100
AcDbLine
 10
0.0
 20
-2.5
 30
0.0
 11
0.0
 21
-4.0
 31
0.0
  0
LINE
  5
1D3
330
1C9
100
AcDbEntity
  8
0
  6
Continuous
 62
     0
370
    18
100
AcDbLine
 10
2.5
 20
0.0
 30
0.0
 11
4.0
 21
0.0
 31
0.0
  0
ENDBLK
  5
1CB
330
1C9
100
AcDbEntity
  8
0
100
AcDbBlockEnd
  0
BLOCK
  5
2A4
330
2A3
100
AcDbEntity
  8
0
100
AcDbBlockBegin
  2
_D_7
 70
     0
 10
0.0
 20
0.0
 30
0.0
  3
_D_7
  1

  0
SOLID
  5
2A6
330
2A3
100
AcDbEntity
  8
0
  6
Continuous
 62
     7
370
    18
100
AcDbTrace
 10
255.94
 20
139.06
 30
0.0
 11
252.638
 21
139.568
 31
0.0
 12
252.638
 22
138.552
 32
0.0
 13
252.638
 23
138.552
 33
0.0
  0
SOLID
  5
2A7
330
2A3
100
AcDbEntity
  8
0
  6
Continuous
 62
     7
370
    18
100
AcDbTrace
 10
262.94
 20
139.06
 30
0.0
 11
266.242
 21
138.552
 31
0.0
 12
266.242
 22
139.568
 32
0.0
 13
266.242
 23
139.568
 33
0.0
  0
LINE
  5
2A8
330
2A3
100
AcDbEntity
  8
0
  6
Continuous
 62
     7
370
     0
100
AcDbLine
 10
255.94
 20
166.6870166538
 30
0.0
 11
255.94
 21
138.06
 31
0.0
  0
LINE
  5
2A9
330
2A3
100
AcDbEntity
  8
0
  6
Continuous
 62
     7
370
     0
100
AcDbLine
 10
262.94
 20
148.06
 30
0.0
 11
262.94
 21
138.06
 31
0.0
  0
LINE
  5
2AA
330
2A3
100
AcDbEntity
  8
0
  6
Continuous
 62
     7
370
     0
100
AcDbLine
 10
255.94
 20
139.06
 30
0.0
 11
242.4781941596
 21
139.06
 31
0.0
  0
LINE
  5
2AB
330
2A3
100
AcDbEntity
  8
0
  6
Continuous
 62
     7
370
     0
100
AcDbLine
 10
255.94
 20
139.06
 30
0.0
 11
262.94
 21
139.06
 31
0.0
  0
LINE
  5
2AC
330
2A3
100
AcDbEntity
  8
0
  6
Continuous
 62
     7
370
     0
100
AcDbLine
 10
262.94
 20
139.06
 30
0.0
 11
269.29
 21
139.06
 31
0.0
  0
MTEXT
  5
2AD
330
2A3
100
AcDbEntity
  8
0
  6
Continuous
 62
     7
370
    18
100
AcDbMText
 10
242.4781941596
 20
143.5717369146
 30
0.0
 40
3.5
 41
0.0
 71
     1
 72
     1
  1
7
  7
SLDTEXTSTYLE0
 73
     1
 44
1.0
  0
ENDBLK
  5
2A5
330
2A3
100
AcDbEntity
  8
0
100
AcDbBlockEnd
  0
BLOCK
  5
2B1
330
2B0
100
AcDbEntity
  8
0
100
AcDbBlockBegin
  2
_D_8
 70
     0
 10
0.0
 20
0.0
 30
0.0
  3
_D_8
  1

  0
SOLID
  5
2B3
330
2B0
100
AcDbEntity
  8
0
  6
Continuous
 62
     7
370
    18
100
AcDbTrace
 10
262.94
 20
139.06
 30
0.0
 11
266.242
 21
138.552
 31
0.0
 12
266.242
 22
139.568
 32
0.0
 13
266.242
 23
139.568
 33
0.0
  0
SOLID
  5
2B4
330
2B0
100
AcDbEntity
  8
0
  6
Continuous
 62
     7
370
    18
100
AcDbTrace
 10
370.94
 20
139.06
 30
0.0
 11
367.638
 21
139.568
 31
0.0
 12
367.638
 22
138.552
 32
0.0
 13
367.638
 23
138.552
 33
0.0
  0
LINE
  5
2B5
330
2B0
100
AcDbEntity
  8
0
  6
Continuous
 62
     7
370
     0
100
AcDbLine
 10
262.94
 20
148.06
 30
0.0
 11
262.94
 21
138.06
 31
0.0
  0
LINE
  5
2B6
330
2B0
100
AcDbEntity
  8
0
  6
Continuous
 62
     7
370
     0
100
AcDbLine
 10
370.94
 20
148.06
 30
0.0
 11
370.94
 21
138.06
 31
0.0
  0
LINE
  5
2B7
330
2B0
100
AcDbEntity
  8
0
  6
Continuous
 62
     7
370
     0
100
AcDbLine
 10
262.94
 20
139.06
 30
0.0
 11
370.94
 21
139.06
 31
0.0
  0
MTEXT
  5
2B8
330
2B0
100
AcDbEntity
  8
0
  6
Continuous
 62
     7
370
    18
100
AcDbMText
 10
313.0608333261
 20
143.5717369146
 30
0.0
 40
3.5
 41
0.0
 71
     1
 72
     1
  1
108
  7
SLDTEXTSTYLE0
 73
     1
 44
1.0
  0
ENDBLK
  5
2B2
330
2B0
100
AcDbEntity
  8
0
100
AcDbBlockEnd
  0
BLOCK
  5
2BB
330
2BA
100
AcDbEntity
  8
0
100
AcDbBlockBegin
  2
_D_9
 70
     0
 10
0.0
 20
0.0
 30
0.0
  3
_D_9
  1

  0
SOLID
  5
2BD
330
2BA
100
AcDbEntity
  8
0
  6
Continuous
 62
     7
370
    18
100
AcDbTrace
 10
357.94
 20
204.06
 30
0.0
 11
361.242
 21
203.552
 31
0.0
 12
361.242
 22
204.568
 32
0.0
 13
361.242
 23
204.568
 33
0.0
  0
SOLID
  5
2BE
330
2BA
100
AcDbEntity
  8
0
  6
Continuous
 62
     7
370
    18
100
AcDbTrace
 10
370.94
 20
204.06
 30
0.0
 11
367.638
 21
204.568
 31
0.0
 12
367.638
 22
203.552
 32
0.0
 13
367.638
 23
203.552
 33
0.0
  0
LINE
  5
2BF
330
2BA
100
AcDbEntity
  8
0
  6
Continuous
 62
     7
370
     0
100
AcDbLine
 10
357.94
 20
185.06
 30
0.0
 11
357.94
 21
205.06
 31
0.0
  0
LINE
  5
2C0
330
2BA
100
AcDbEntity
  8
0
  6
Continuous
 62
     7
370
     0
100
AcDbLine
 10
370.94
 20
195.06
 30
0.0
 11
370.94
 21
205.06
 31
0.0
  0
LINE
  5
2C1
330
2BA
100
AcDbEntity
  8
0
  6
Continuous
 62
     7
370
     0
100
AcDbLine
 10
357.94
 20
204.06
 30
0.0
 11
370.94
 21
204.06
 31
0.0
  0
LINE
  5
2C2
330
2BA
100
AcDbEntity
  8
0
  6
Continuous
 62
     7
370
     0
100
AcDbLine
 10
370.94
 20
204.06
 30
0.0
 11
382.2961957804
 21
204.06
 31
0.0
  0
MTEXT
  5
2C3
330
2BA
100
AcDbEntity
  8
0
  6
Continuous
 62
     7
370
    18
100
AcDbMText
 10
377.1239733934
 20
208.5717369146
 30
0.0
 40
3.5
 41
0.0
 71
     1
 72
     1
  1
13
  7
SLDTEXTSTYLE0
 73
     1
 44
1.0
  0
ENDBLK
  5
2BC
330
2BA
100
AcDbEntity
  8
0
100
AcDbBlockEnd
  0
BLOCK
  5
2C6
330
2C5
100
AcDbEntity
  8
0
100
AcDbBlockBegin
  2
_D_10
 70
     0
 10
0.0
 20
0.0
 30
0.0
  3
_D_10
  1

  0
SOLID
  5
2C8
330
2C5
100
AcDbEntity
  8
0
  6
Continuous
 62
     7
370
    18
100
AcDbTrace
 10
282.94
 20
204.06
 30
0.0
 11
279.638
 21
204.568
 31
0.0
 12
279.638
 22
203.552
 32
0.0
 13
279.638
 23
203.552
 33
0.0
  0
SOLID
  5
2C9
330
2C5
100
AcDbEntity
  8
0
  6
Continuous
 62
     7
370
    18
100
AcDbTrace
 10
262.94
 20
204.06
 30
0.0
 11
266.242
 21
203.552
 31
0.0
 12
266.242
 22
204.568
 32
0.0
 13
266.242
 23
204.568
 33
0.0
  0
LINE
  5
2CA
330
2C5
100
AcDbEntity
  8
0
  6
Continuous
 62
     7
370
     0
100
AcDbLine
 10
282.94
 20
185.06
 30
0.0
 11
282.94
 21
205.06
 31
0.0
  0
LINE
  5
2CB
330
2C5
100
AcDbEntity
  8
0
  6
Continuous
 62
     7
370
     0
100
AcDbLine
 10
262.94
 20
195.06
 30
0.0
 11
262.94
 21
205.06
 31
0.0
  0
LINE
  5
2CC
330
2C5
100
AcDbEntity
  8
0
  6
Continuous
 62
     7
370
     0
100
AcDbLine
 10
282.94
 20
204.06
 30
0.0
 11
262.94
 21
204.06
 31
0.0
  0
MTEXT
  5
2CD
330
2C5
100
AcDbEntity
  8
0
  6
Continuous
 62
     7
370
    18
100
AcDbMText
 10
270.3538888065
 20
208.5717369146
 30
0.0
 40
3.5
 41
0.0
 71
     1
 72
     1
  1
20
  7
SLDTEXTSTYLE0
 73
     1
 44
1.0
  0
ENDBLK
  5
2C7
330
2C5
100
AcDbEntity
  8
0
100
AcDbBlockEnd
  0
BLOCK
  5
2D0
330
2CF
100
AcDbEntity
  8
0
100
AcDbBlockBegin
  2
_D_11
 70
     0
 10
0.0
 20
0.0
 30
0.0
  3
_D_11
  1

  0
SOLID
  5
2D2
330
2CF
100
AcDbEntity
  8
0
  6
Continuous
 62
     7
370
    18
100
AcDbTrace
 10
245.94
 20
180.56
 30
0.0
 11
246.448
 21
183.862
 31
0.0
 12
245.432
 22
183.862
 32
0.0
 13
245.432
 23
183.862
 33
0.0
  0
SOLID
  5
2D3
330
2CF
100
AcDbEntity
  8
0
  6
Continuous
 62
     7
370
    18
100
AcDbTrace
 10
245.94
 20
162.56
 30
0.0
 11
245.432
 21
159.258
 31
0.0
 12
246.448
 22
159.258
 32
0.0
 13
246.448
 23
159.258
 33
0.0
  0
LINE
  5
2D4
330
2CF
100
AcDbEntity
  8
0
  6
Continuous
 62
     7
370
     0
100
AcDbLine
 10
259.44
 20
180.56
 30
0.0
 11
244.94
 21
180.56
 31
0.0
  0
LINE
  5
2D5
330
2CF
100
AcDbEntity
  8
0
  6
Continuous
 62
     7
370
     0
100
AcDbLine
 10
259.44
 20
162.56
 30
0.0
 11
244.94
 21
162.56
 31
0.0
  0
LINE
  5
2D6
330
2CF
100
AcDbEntity
  8
0
  6
Continuous
 62
     7
370
     0
100
AcDbLine
 10
245.94
 20
180.56
 30
0.0
 11
245.94
 21
186.91
 31
0.0
  0
LINE
  5
2D7
330
2CF
100
AcDbEntity
  8
0
  6
Continuous
 62
     7
370
     0
100
AcDbLine
 10
245.94
 20
180.56
 30
0.0
 11
245.94
 21
162.56
 31
0.0
  0
LINE
  5
2D8
330
2CF
100
AcDbEntity
  8
0
  6
Continuous
 62
     7
370
     0
100
AcDbLine
 10
245.94
 20
162.56
 30
0.0
 11
245.94
 21
156.21
 31
0.0
  0
MTEXT
  5
2D9
330
2CF
100
AcDbEntity
  8
0
  6
Continuous
 62
     7
370
    18
100
AcDbMText
 10
241.4282629108
 20
165.7917592764
 30
0.0
 40
3.5
 41
0.0
 71
     1
 72
     1
  1
%%c
  7
SLDTEXTSTYLE0
 11
-7.044195017643634E-15
 21
1.0
 31
0.0
 73
     1
 44
1.0
  0
MTEXT
  5
2DA
330
2CF
100
AcDbEntity
  8
0
  6
Continuous
 62
     7
370
    18
100
AcDbMText
 10
241.3747907341
 20
171.0701966748
 30
0.0
 40
3.5
 41
0.0
 71
     1
 72
     1
  1
18
  7
SLDTEXTSTYLE0
 11
-7.044195017643634E-15
 21
1.0
 31
0.0
 73
     1
 44
1.0
  0
ENDBLK
  5
2D1
330
2CF
100
AcDbEntity
  8
0
100
AcDbBlockEnd
  0
BLOCK
  5
2DE
330
2DD
100
AcDbEntity
  8
0
100
AcDbBlockBegin
  2
_D_12
 70
     0
 10
0.0
 20
0.0
 30
0.0
  3
_D_12
  1

  0
SOLID
  5
2E0
330
2DD
100
AcDbEntity
  8
0
  6
Continuous
 62
     7
370
    18
100
AcDbTrace
 10
360.0296439179
 20
173.3477047565
 30
0.0
 11
362.8689741845
 21
175.1082363912
 31
0.0
 12
362.2084985363
 22
175.8802648351
 32
0.0
 13
362.2084985363
 23
175.8802648351
 33
0.0
  0
LINE
  5
2E1
330
2DD
100
AcDbEntity
  8
0
  6
Continuous
 62
     7
370
     0
100
AcDbLine
 10
360.0296439179
 20
173.3477047565
 30
0.0
 11
386.3385808133
 21
195.8551813762
 31
0.0
  0
LINE
  5
2E2
330
2DD
100
AcDbEntity
  8
0
  6
Continuous
 62
     7
370
     0
100
AcDbLine
 10
360.0296439179
 20
173.3477047565
 30
0.0
 11
355.8503560821
 21
169.7722952435
 31
0.0
  0
MTEXT
  5
2E3
330
2DD
100
AcDbEntity
  8
0
  6
Continuous
 62
     7
370
    18
100
AcDbMText
 10
369.9537849199
 20
187.7583147478
 30
0.0
 40
3.5
 41
0.0
 71
     1
 72
     1
  1
1/4" BSP
  7
SLDTEXTSTYLE0
 11
0.7598705156031684
 21
0.6500744569024189
 31
0.0
 73
     1
 44
1.0
  0
ENDBLK
  5
2DF
330
2DD
100
AcDbEntity
  8
0
100
AcDbBlockEnd
  0
BLOCK
  5
2E5
330
2E4
100
AcDbEntity
  8
0
100
AcDbBlockBegin
  2
SW_CENTERMARKSYMBOL_9
 70
     0
 10
0.0
 20
0.0
 30
0.0
  3
SW_CENTERMARKSYMBOL_9
  1

  0
LINE
  5
2E7
330
2E4
100
AcDbEntity
  8
0
  6
Continuous
 62
     0
370
    18
100
AcDbLine
 10
0.0
 20
0.0
 30
0.0
 11
0.0
 21
2.5
 31
0.0
  0
LINE
  5
2E8
330
2E4
100
AcDbEntity
  8
0
  6
Continuous
 62
     0
370
    18
100
AcDbLine
 10
0.0
 20
0.0
 30
0.0
 11
-2.5
 21
0.0
 31
0.0
  0
LINE
  5
2E9
330
2E4
100
AcDbEntity
  8
0
  6
Continuous
 62
     0
370
    18
100
AcDbLine
 10
0.0
 20
0.0
 30
0.0
 11
0.0
 21
-2.5
 31
0.0
  0
LINE
  5
2EA
330
2E4
100
AcDbEntity
  8
0
  6
Continuous
 62
     0
370
    18
100
AcDbLine
 10
0.0
 20
0.0
 30
0.0
 11
2.5
 21
0.0
 31
0.0
  0
LINE
  5
2EB
330
2E4
100
AcDbEntity
  8
0
  6
Continuous
 62
     0
370
    18
100
AcDbLine
 10
0.0
 20
5.0
 30
0.0
 11
0.0
 21
12.5
 31
0.0
  0
LINE
  5
2EC
330
2E4
100
AcDbEntity
  8
0
  6
Continuous
 62
     0
370
    18
100
AcDbLine
 10
-5.0
 20
0.0
 30
0.0
 11
-12.5
 21
0.0
 31
0.0
  0
LINE
  5
2ED
330
2E4
100
AcDbEntity
  8
0
  6
Continuous
 62
     0
370
    18
100
AcDbLine
 10
0.0
 20
-5.0
 30
0.0
 11
0.0
 21
-12.5
 31
0.0
  0
LINE
  5
2EE
330
2E4
100
AcDbEntity
  8
0
  6
Continuous
 62
     0
370
    18
100
AcDbLine
 10
5.0
 20
0.0
 30
0.0
 11
12.5
 21
0.0
 31
0.0
  0
ENDBLK
  5
2E6
330
2E4
100
AcDbEntity
  8
0
100
AcDbBlockEnd
  0
BLOCK
  5
2F1
330
2F0
100
AcDbEntity
  8
0
100
AcDbBlockBegin
  2
SW_CENTERMARKSYMBOL_10
 70
     0
 10
0.0
 20
0.0
 30
0.0
  3
SW_CENTERMARKSYMBOL_10
  1

  0
LINE
  5
2F3
330
2F0
100
AcDbEntity
  8
0
  6
Continuous
 62
     0
370
    18
100
AcDbLine
 10
0.0
 20
0.0
 30
0.0
 11
0.0
 21
2.5
 31
0.0
  0
LINE
  5
2F4
330
2F0
100
AcDbEntity
  8
0
  6
Continuous
 62
     0
370
    18
100
AcDbLine
 10
0.0
 20
0.0
 30
0.0
 11
-2.5
 21
0.0
 31
0.0
  0
LINE
  5
2F5
330
2F0
100
AcDbEntity
  8
0
  6
Continuous
 62
     0
370
    18
100
AcDbLine
 10
0.0
 20
0.0
 30
0.0
 11
0.0
 21
-2.5
 31
0.0
  0
LINE
  5
2F6
330
2F0
100
AcDbEntity
  8
0
  6
Continuous
 62
     0
370
    18
100
AcDbLine
 10
0.0
 20
0.0
 30
0.0
 11
2.5
 21
0.0
 31
0.0
  0
LINE
  5
2F7
330
2F0
100
AcDbEntity
  8
0
  6
Continuous
 62
     0
370
    18
100
AcDbLine
 10
0.0
 20
5.0
 30
0.0
 11
0.0
 21
12.5
 31
0.0
  0
LINE
  5
2F8
330
2F0
100
AcDbEntity
  8
0
  6
Continuous
 62
     0
370
    18
100
AcDbLine
 10
-5.0
 20
0.0
 30
0.0
 11
-12.5
 21
0.0
 31
0.0
  0
LINE
  5
2F9
330
2F0
100
AcDbEntity
  8
0
  6
Continuous
 62
     0
370
    18
100
AcDbLine
 10
0.0
 20
-5.0
 30
0.0
 11
0.0
 21
-12.5
 31
0.0
  0
LINE
  5
2FA
330
2F0
100
AcDbEntity
  8
0
  6
Continuous
 62
     0
370
    18
100
AcDbLine
 10
5.0
 20
0.0
 30
0.0
 11
12.5
 21
0.0
 31
0.0
  0
ENDBLK
  5
2F2
330
2F0
100
AcDbEntity
  8
0
100
AcDbBlockEnd
  0
ENDSEC
  0
SECTION
  2
ENTITIES
  0
LINE
  5
74
330
1F
100
AcDbEntity
  8
0
  6
Continuous
 62
     7
370
    50
100
AcDbLine
 10
230.0
 20
14.25
 30
0.0
 11
410.0
 21
14.25
 31
0.0
  0
LINE
  5
75
330
1F
100
AcDbEntity
  8
0
  6
Continuous
 62
     7
370
    50
100
AcDbLine
 10
410.0
 20
48.25
 30
0.0
 11
230.0
 21
48.25
 31
0.0
  0
LINE
  5
76
330
1F
100
AcDbEntity
  8
0
  6
Continuous
 62
     7
370
    50
100
AcDbLine
 10
230.0
 20
65.25
 30
0.0
 11
410.0
 21
65.25
 31
0.0
  0
LINE
  5
77
330
1F
100
AcDbEntity
  8
0
  6
Continuous
 62
     7
370
    50
100
AcDbLine
 10
256.9909524338
 20
48.25
 30
0.0
 11
256.9909524338
 21
10.0
 31
0.0
  0
LINE
  5
78
330
1F
100
AcDbEntity
  8
0
  6
Continuous
 62
     7
370
    50
100
AcDbLine
 10
328.8
 20
31.25
 30
0.0
 11
230.0
 21
31.25
 31
0.0
  0
LINE
  5
79
330
1F
100
AcDbEntity
  8
0
  6
Continuous
 62
     7
370
    50
100
AcDbLine
 10
328.8
 20
35.5
 30
0.0
 11
230.0
 21
35.5
 31
0.0
  0
LINE
  5
7A
330
1F
100
AcDbEntity
  8
0
  6
Continuous
 62
     7
370
    50
100
AcDbLine
 10
328.8
 20
39.75
 30
0.0
 11
230.0
 21
39.75
 31
0.0
  0
LINE
  5
7B
330
1F
100
AcDbEntity
  8
0
  6
Continuous
 62
     7
370
    50
100
AcDbLine
 10
328.8
 20
44.0
 30
0.0
 11
230.0
 21
44.0
 31
0.0
  0
LINE
  5
7C
330
1F
100
AcDbEntity
  8
0
  6
Continuous
 62
     7
370
    50
100
AcDbLine
 10
284.6
 20
10.0
 30
0.0
 11
284.6
 21
48.25
 31
0.0
  0
LINE
  5
7D
330
1F
100
AcDbEntity
  8
0
  6
Continuous
 62
     7
370
    50
100
AcDbLine
 10
230.0
 20
65.25
 30
0.0
 11
230.0
 21
10.0
 31
0.0
  0
LINE
  5
7E
330
1F
100
AcDbEntity
  8
0
  6
Continuous
 62
     7
370
    50
100
AcDbLine
 10
242.0703737145
 20
48.25
 30
0.0
 11
242.0703737145
 21
10.0
 31
0.0
  0
LINE
  5
7F
330
1F
100
AcDbEntity
  8
0
  6
Continuous
 62
     7
370
    50
100
AcDbLine
 10
263.8
 20
48.25
 30
0.0
 11
263.8
 21
65.25
 31
0.0
  0
LINE
  5
80
330
1F
100
AcDbEntity
  8
0
  6
Continuous
 62
     7
370
    50
100
AcDbLine
 10
274.3989261635
 20
48.25
 30
0.0
 11
274.3989261635
 21
10.0
 31
0.0
  0
LINE
  5
81
330
1F
100
AcDbEntity
  8
0
  6
Continuous
 62
     7
370
    50
100
AcDbLine
 10
295.0
 20
31.25
 30
0.0
 11
295.0
 21
48.25
 31
0.0
  0
LINE
  5
82
330
1F
100
AcDbEntity
  8
0
  6
Continuous
 62
     7
370
    50
100
AcDbLine
 10
284.6
 20
18.5
 30
0.0
 11
230.0
 21
18.5
 31
0.0
  0
LINE
  5
83
330
1F
100
AcDbEntity
  8
0
  6
Continuous
 62
     7
370
    50
100
AcDbLine
 10
310.6
 20
65.25
 30
0.0
 11
310.6
 21
27.0
 31
0.0
  0
LINE
  5
84
330
1F
100
AcDbEntity
  8
0
  6
Continuous
 62
     7
370
    50
100
AcDbLine
 10
284.6
 20
22.749928
 30
0.0
 11
230.0
 21
22.749928
 31
0.0
  0
LINE
  5
85
330
1F
100
AcDbEntity
  8
0
  6
Continuous
 62
     7
370
    50
100
AcDbLine
 10
284.6
 20
27.0
 30
0.0
 11
230.0
 21
27.0
 31
0.0
  0
LINE
  5
86
330
1F
100
AcDbEntity
  8
0
  6
Continuous
 62
     7
370
    50
100
AcDbLine
 10
284.6
 20
27.0
 30
0.0
 11
410.0
 21
27.0
 31
0.0
  0
LINE
  5
87
330
1F
100
AcDbEntity
  8
0
  6
Continuous
 62
     7
370
    50
100
AcDbLine
 10
328.8
 20
65.25
 30
0.0
 11
328.8
 21
10.0
 31
0.0
  0
LINE
  5
88
330
1F
100
AcDbEntity
  8
0
  6
Continuous
 62
     7
370
    50
100
AcDbLine
 10
373.0
 20
10.0
 30
0.0
 11
373.0
 21
14.25
 31
0.0
  0
LINE
  5
89
330
1F
100
AcDbEntity
  8
0
  6
Continuous
 62
     7
370
    50
100
AcDbLine
 10
380.8
 20
58.875
 30
0.0
 11
380.8
 21
65.25
 31
0.0
  0
LINE
  5
8A
330
1F
100
AcDbEntity
  8
0
  6
Continuous
 62
     7
370
    50
100
AcDbLine
 10
397.0
 20
14.25
 30
0.0
 11
397.0
 21
27.0
 31
0.0
  0
LINE
  5
8B
330
1F
100
AcDbEntity
  8
0
  6
Continuous
 62
     7
370
    50
100
AcDbLine
 10
410.0
 20
58.875
 30
0.0
 11
328.8
 21
58.875
 31
0.0
  0
LINE
  5
8C
330
1F
100
AcDbEntity
  8
0
  6
Continuous
 62
     7
370
    50
100
AcDbLine
 10
410.0
 20
18.5
 30
0.0
 11
397.0
 21
18.5
 31
0.0
  0
LINE
  5
8D
330
1F
100
AcDbEntity
  8
0
  6
Continuous
 62
     7
370
    70
100
AcDbLine
 10
20.0
 20
10.0
 30
0.0
 11
20.0
 21
287.0
 31
0.0
  0
LINE
  5
8E
330
1F
100
AcDbEntity
  8
0
  6
Continuous
 62
     7
370
    70
100
AcDbLine
 10
20.0
 20
287.0
 30
0.0
 11
410.0
 21
287.0
 31
0.0
  0
LINE
  5
8F
330
1F
100
AcDbEntity
  8
0
  6
Continuous
 62
     7
370
    70
100
AcDbLine
 10
410.0
 20
287.0
 30
0.0
 11
410.0
 21
10.0
 31
0.0
  0
LINE
  5
90
330
1F
100
AcDbEntity
  8
0
  6
Continuous
 62
     7
370
    70
100
AcDbLine
 10
410.0
 20
10.0
 30
0.0
 11
20.0
 21
10.0
 31
0.0
  0
LINE
  5
91
330
1F
100
AcDbEntity
  8
0
  6
Continuous
 62
     7
370
    70
100
AcDbLine
 10
15.0
 20
5.0
 30
0.0
 11
15.0
 21
292.0
 31
0.0
  0
LINE
  5
92
330
1F
100
AcDbEntity
  8
0
  6
Continuous
 62
     7
370
    70
100
AcDbLine
 10
15.0
 20
292.0
 30
0.0
 11
415.0
 21
292.0
 31
0.0
  0
LINE
  5
93
330
1F
100
AcDbEntity
  8
0
  6
Continuous
 62
     7
370
    70
100
AcDbLine
 10
415.0
 20
292.0
 30
0.0
 11
415.0
 21
5.0
 31
0.0
  0
LINE
  5
94
330
1F
100
AcDbEntity
  8
0
  6
Continuous
 62
     7
370
    70
100
AcDbLine
 10
415.0
 20
5.0
 30
0.0
 11
15.0
 21
5.0
 31
0.0
  0
LINE
  5
95
330
1F
100
AcDbEntity
  8
0
  6
Continuous
 62
     7
370
    35
100
AcDbLine
 10
15.0
 20
148.5
 30
0.0
 11
25.0
 21
148.5
 31
0.0
  0
LINE
  5
96
330
1F
100
AcDbEntity
  8
0
  6
Continuous
 62
     7
370
    35
100
AcDbLine
 10
215.0
 20
292.0
 30
0.0
 11
215.0
 21
282.0
 31
0.0
  0
LINE
  5
97
330
1F
100
AcDbEntity
  8
0
  6
Continuous
 62
     7
370
    35
100
AcDbLine
 10
415.0
 20
148.5
 30
0.0
 11
405.0
 21
148.5
 31
0.0
  0
LINE
  5
98
330
1F
100
AcDbEntity
  8
0
  6
Continuous
 62
     7
370
    35
100
AcDbLine
 10
215.0
 20
5.0
 30
0.0
 11
215.0
 21
15.0
 31
0.0
  0
LINE
  5
99
330
1F
100
AcDbEntity
  8
0
  6
Continuous
 62
     7
370
    35
100
AcDbLine
 10
20.0
 20
48.5
 30
0.0
 11
15.0
 21
48.5
 31
0.0
  0
LINE
  5
9A
330
1F
100
AcDbEntity
  8
0
  6
Continuous
 62
     7
370
    35
100
AcDbLine
 10
410.0
 20
48.5
 30
0.0
 11
415.0
 21
48.5
 31
0.0
  0
LINE
  5
9B
330
1F
100
AcDbEntity
  8
0
  6
Continuous
 62
     7
370
    35
100
AcDbLine
 10
20.0
 20
98.5
 30
0.0
 11
15.0
 21
98.5
 31
0.0
  0
LINE
  5
9C
330
1F
100
AcDbEntity
  8
0
  6
Continuous
 62
     7
370
    35
100
AcDbLine
 10
410.0
 20
98.5
 30
0.0
 11
415.0
 21
98.5
 31
0.0
  0
LINE
  5
9D
330
1F
100
AcDbEntity
  8
0
  6
Continuous
 62
     7
370
    35
100
AcDbLine
 10
20.0
 20
148.5
 30
0.0
 11
15.0
 21
148.5
 31
0.0
  0
LINE
  5
9E
330
1F
100
AcDbEntity
  8
0
  6
Continuous
 62
     7
370
    35
100
AcDbLine
 10
410.0
 20
148.5
 30
0.0
 11
415.0
 21
148.5
 31
0.0
  0
LINE
  5
9F
330
1F
100
AcDbEntity
  8
0
  6
Continuous
 62
     7
370
    35
100
AcDbLine
 10
20.0
 20
198.5
 30
0.0
 11
15.0
 21
198.5
 31
0.0
  0
LINE
  5
A0
330
1F
100
AcDbEntity
  8
0
  6
Continuous
 62
     7
370
    35
100
AcDbLine
 10
410.0
 20
198.5
 30
0.0
 11
415.0
 21
198.5
 31
0.0
  0
LINE
  5
A1
330
1F
100
AcDbEntity
  8
0
  6
Continuous
 62
     7
370
    35
100
AcDbLine
 10
20.0
 20
248.5
 30
0.0
 11
15.0
 21
248.5
 31
0.0
  0
LINE
  5
A2
330
1F
100
AcDbEntity
  8
0
  6
Continuous
 62
     7
370
    35
100
AcDbLine
 10
410.0
 20
248.5
 30
0.0
 11
415.0
 21
248.5
 31
0.0
  0
LINE
  5
A3
330
1F
100
AcDbEntity
  8
0
  6
Continuous
 62
     7
370
    35
100
AcDbLine
 10
65.0
 20
287.0
 30
0.0
 11
65.0
 21
292.0
 31
0.0
  0
LINE
  5
A4
330
1F
100
AcDbEntity
  8
0
  6
Continuous
 62
     7
370
    35
100
AcDbLine
 10
65.0
 20
10.0
 30
0.0
 11
65.0
 21
5.0
 31
0.0
  0
LINE
  5
A5
330
1F
100
AcDbEntity
  8
0
  6
Continuous
 62
     7
370
    35
100
AcDbLine
 10
115.0
 20
287.0
 30
0.0
 11
115.0
 21
292.0
 31
0.0
  0
LINE
  5
A6
330
1F
100
AcDbEntity
  8
0
  6
Continuous
 62
     7
370
    35
100
AcDbLine
 10
115.0
 20
10.0
 30
0.0
 11
115.0
 21
5.0
 31
0.0
  0
LINE
  5
A7
330
1F
100
AcDbEntity
  8
0
  6
Continuous
 62
     7
370
    35
100
AcDbLine
 10
165.0
 20
287.0
 30
0.0
 11
165.0
 21
292.0
 31
0.0
  0
LINE
  5
A8
330
1F
100
AcDbEntity
  8
0
  6
Continuous
 62
     7
370
    35
100
AcDbLine
 10
165.0
 20
10.0
 30
0.0
 11
165.0
 21
5.0
 31
0.0
  0
LINE
  5
A9
330
1F
100
AcDbEntity
  8
0
  6
Continuous
 62
     7
370
    35
100
AcDbLine
 10
215.0
 20
287.0
 30
0.0
 11
215.0
 21
292.0
 31
0.0
  0
LINE
  5
AA
330
1F
100
AcDbEntity
  8
0
  6
Continuous
 62
     7
370
    35
100
AcDbLine
 10
215.0
 20
10.0
 30
0.0
 11
215.0
 21
5.0
 31
0.0
  0
LINE
  5
AB
330
1F
100
AcDbEntity
  8
0
  6
Continuous
 62
     7
370
    35
100
AcDbLine
 10
265.0
 20
287.0
 30
0.0
 11
265.0
 21
292.0
 31
0.0
  0
LINE
  5
AC
330
1F
100
AcDbEntity
  8
0
  6
Continuous
 62
     7
370
    35
100
AcDbLine
 10
265.0
 20
10.0
 30
0.0
 11
265.0
 21
5.0
 31
0.0
  0
LINE
  5
AD
330
1F
100
AcDbEntity
  8
0
  6
Continuous
 62
     7
370
    35
100
AcDbLine
 10
315.0
 20
287.0
 30
0.0
 11
315.0
 21
292.0
 31
0.0
  0
LINE
  5
AE
330
1F
100
AcDbEntity
  8
0
  6
Continuous
 62
     7
370
    35
100
AcDbLine
 10
315.0
 20
10.0
 30
0.0
 11
315.0
 21
5.0
 31
0.0
  0
LINE
  5
AF
330
1F
100
AcDbEntity
  8
0
  6
Continuous
 62
     7
370
    35
100
AcDbLine
 10
365.0
 20
287.0
 30
0.0
 11
365.0
 21
292.0
 31
0.0
  0
LINE
  5
B0
330
1F
100
AcDbEntity
  8
0
  6
Continuous
 62
     7
370
    35
100
AcDbLine
 10
365.0
 20
10.0
 30
0.0
 11
365.0
 21
5.0
 31
0.0
  0
MTEXT
  5
B2
330
1F
100
AcDbEntity
  8
0
  6
Continuous
 62
     7
370
     0
100
AcDbMText
 10
17.3396881428
 20
31.1962239326
 30
0.0
 40
3.96875
 41
0.0
 71
     2
 72
     1
  1
A
  7
SLDTEXTSTYLE0
 73
     1
 44
1.0
  0
MTEXT
  5
B3
330
1F
100
AcDbEntity
  8
0
  6
Continuous
 62
     7
370
     0
100
AcDbMText
 10
412.3396881428
 20
31.1962239326
 30
0.0
 40
3.96875
 41
0.0
 71
     2
 72
     1
  1
A
  7
SLDTEXTSTYLE0
 73
     1
 44
1.0
  0
MTEXT
  5
B4
330
1F
100
AcDbEntity
  8
0
  6
Continuous
 62
     7
370
     0
100
AcDbMText
 10
17.4706018241
 20
75.4957779464
 30
0.0
 40
3.96875
 41
0.0
 71
     2
 72
     1
  1
B
  7
SLDTEXTSTYLE0
 73
     1
 44
1.0
  0
MTEXT
  5
B5
330
1F
100
AcDbEntity
  8
0
  6
Continuous
 62
     7
370
     0
100
AcDbMText
 10
412.4706018241
 20
75.4957779464
 30
0.0
 40
3.96875
 41
0.0
 71
     2
 72
     1
  1
B
  7
SLDTEXTSTYLE0
 73
     1
 44
1.0
  0
MTEXT
  5
B6
330
1F
100
AcDbEntity
  8
0
  6
Continuous
 62
     7
370
     0
100
AcDbMText
 10
17.458658902
 20
125.4462239326
 30
0.0
 40
3.96875
 41
0.0
 71
     2
 72
     1
  1
C
  7
SLDTEXTSTYLE0
 73
     1
 44
1.0
  0
MTEXT
  5
B7
330
1F
100
AcDbEntity
  8
0
  6
Continuous
 62
     7
370
     0
100
AcDbMText
 10
412.458658902
 20
125.4462239326
 30
0.0
 40
3.96875
 41
0.0
 71
     2
 72
     1
  1
C
  7
SLDTEXTSTYLE0
 73
     1
 44
1.0
  0
MTEXT
  5
B8
330
1F
100
AcDbEntity
  8
0
  6
Continuous
 62
     7
370
     0
100
AcDbMText
 10
17.4526872821
 20
175.4957779464
 30
0.0
 40
3.96875
 41
0.0
 71
     2
 72
     1
  1
D
  7
SLDTEXTSTYLE0
 73
     1
 44
1.0
  0
MTEXT
  5
B9
330
1F
100
AcDbEntity
  8
0
  6
Continuous
 62
     7
370
     0
100
AcDbMText
 10
412.4526872821
 20
175.4957779464
 30
0.0
 40
3.96875
 41
0.0
 71
     2
 72
     1
  1
D
  7
SLDTEXTSTYLE0
 73
     1
 44
1.0
  0
MTEXT
  5
BA
330
1F
100
AcDbEntity
  8
0
  6
Continuous
 62
     7
370
     0
100
AcDbMText
 10
17.5078089051
 20
225.4462239326
 30
0.0
 40
3.96875
 41
0.0
 71
     2
 72
     1
  1
E
  7
SLDTEXTSTYLE0
 73
     1
 44
1.0
  0
MTEXT
  5
BB
330
1F
100
AcDbEntity
  8
0
  6
Continuous
 62
     7
370
     0
100
AcDbMText
 10
412.5078089051
 20
225.4462239326
 30
0.0
 40
3.96875
 41
0.0
 71
     2
 72
     1
  1
E
  7
SLDTEXTSTYLE0
 73
     1
 44
1.0
  0
MTEXT
  5
BC
330
1F
100
AcDbEntity
  8
0
  6
Continuous
 62
     7
370
     0
100
AcDbMText
 10
17.4577402091
 20
269.7457779464
 30
0.0
 40
3.96875
 41
0.0
 71
     2
 72
     1
  1
F
  7
SLDTEXTSTYLE0
 73
     1
 44
1.0
  0
MTEXT
  5
BD
330
1F
100
AcDbEntity
  8
0
  6
Continuous
 62
     7
370
     0
100
AcDbMText
 10
412.4577402091
 20
269.7457779464
 30
0.0
 40
3.96875
 41
0.0
 71
     2
 72
     1
  1
F
  7
SLDTEXTSTYLE0
 73
     1
 44
1.0
  0
MTEXT
  5
BE
330
1F
100
AcDbEntity
  8
0
  6
Continuous
 62
     7
370
     0
100
AcDbMText
 10
42.4600369465
 20
9.4957779464
 30
0.0
 40
3.96875
 41
0.0
 71
     2
 72
     1
  1
8
  7
SLDTEXTSTYLE0
 73
     1
 44
1.0
  0
MTEXT
  5
BF
330
1F
100
AcDbEntity
  8
0
  6
Continuous
 62
     7
370
     0
100
AcDbMText
 10
42.4600369465
 20
291.4462239326
 30
0.0
 40
3.96875
 41
0.0
 71
     2
 72
     1
  1
8
  7
SLDTEXTSTYLE0
 73
     1
 44
1.0
  0
MTEXT
  5
C0
330
1F
100
AcDbEntity
  8
0
  6
Continuous
 62
     7
370
     0
100
AcDbMText
 10
89.9600369465
 20
9.4957779464
 30
0.0
 40
3.96875
 41
0.0
 71
     2
 72
     1
  1
7
  7
SLDTEXTSTYLE0
 73
     1
 44
1.0
  0
MTEXT
  5
C1
330
1F
100
AcDbEntity
  8
0
  6
Continuous
 62
     7
370
     0
100
AcDbMText
 10
89.9600369465
 20
291.4462239326
 30
0.0
 40
3.96875
 41
0.0
 71
     2
 72
     1
  1
7
  7
SLDTEXTSTYLE0
 73
     1
 44
1.0
  0
MTEXT
  5
C2
330
1F
100
AcDbEntity
  8
0
  6
Continuous
 62
     7
370
     0
100
AcDbMText
 10
139.9600369465
 20
9.4957779464
 30
0.0
 40
3.96875
 41
0.0
 71
     2
 72
     1
  1
6
  7
SLDTEXTSTYLE0
 73
     1
 44
1.0
  0
MTEXT
  5
C3
330
1F
100
AcDbEntity
  8
0
  6
Continuous
 62
     7
370
     0
100
AcDbMText
 10
139.9600369465
 20
291.4462239326
 30
0.0
 40
3.96875
 41
0.0
 71
     2
 72
     1
  1
6
  7
SLDTEXTSTYLE0
 73
     1
 44
1.0
  0
MTEXT
  5
C4
330
1F
100
AcDbEntity
  8
0
  6
Continuous
 62
     7
370
     0
100
AcDbMText
 10
189.9600369465
 20
9.4957779464
 30
0.0
 40
3.96875
 41
0.0
 71
     2
 72
     1
  1
5
  7
SLDTEXTSTYLE0
 73
     1
 44
1.0
  0
MTEXT
  5
C5
330
1F
100
AcDbEntity
  8
0
  6
Continuous
 62
     7
370
     0
100
AcDbMText
 10
189.9600369465
 20
291.4462239326
 30
0.0
 40
3.96875
 41
0.0
 71
     2
 72
     1
  1
5
  7
SLDTEXTSTYLE0
 73
     1
 44
1.0
  0
MTEXT
  5
C6
330
1F
100
AcDbEntity
  8
0
  6
Continuous
 62
     7
370
     0
100
AcDbMText
 10
239.9600369465
 20
9.4957779464
 30
0.0
 40
3.96875
 41
0.0
 71
     2
 72
     1
  1
4
  7
SLDTEXTSTYLE0
 73
     1
 44
1.0
  0
MTEXT
  5
C7
330
1F
100
AcDbEntity
  8
0
  6
Continuous
 62
     7
370
     0
100
AcDbMText
 10
239.9600369465
 20
291.4462239326
 30
0.0
 40
3.96875
 41
0.0
 71
     2
 72
     1
  1
4
  7
SLDTEXTSTYLE0
 73
     1
 44
1.0
  0
MTEXT
  5
C8
330
1F
100
AcDbEntity
  8
0
  6
Continuous
 62
     7
370
     0
100
AcDbMText
 10
289.9600369465
 20
9.4957779464
 30
0.0
 40
3.96875
 41
0.0
 71
     2
 72
     1
  1
3
  7
SLDTEXTSTYLE0
 73
     1
 44
1.0
  0
MTEXT
  5
C9
330
1F
100
AcDbEntity
  8
0
  6
Continuous
 62
     7
370
     0
100
AcDbMText
 10
289.9600369465
 20
291.4462239326
 30
0.0
 40
3.96875
 41
0.0
 71
     2
 72
     1
  1
3
  7
SLDTEXTSTYLE0
 73
     1
 44
1.0
  0
MTEXT
  5
CA
330
1F
100
AcDbEntity
  8
0
  6
Continuous
 62
     7
370
     0
100
AcDbMText
 10
339.9600369465
 20
9.4957779464
 30
0.0
 40
3.96875
 41
0.0
 71
     2
 72
     1
  1
2
  7
SLDTEXTSTYLE0
 73
     1
 44
1.0
  0
MTEXT
  5
CB
330
1F
100
AcDbEntity
  8
0
  6
Continuous
 62
     7
370
     0
100
AcDbMText
 10
339.9600369465
 20
291.4462239326
 30
0.0
 40
3.96875
 41
0.0
 71
     2
 72
     1
  1
2
  7
SLDTEXTSTYLE0
 73
     1
 44
1.0
  0
MTEXT
  5
CC
330
1F
100
AcDbEntity
  8
0
  6
Continuous
 62
     7
370
     0
100
AcDbMText
 10
387.4600369465
 20
9.4957779464
 30
0.0
 40
3.96875
 41
0.0
 71
     2
 72
     1
  1
1
  7
SLDTEXTSTYLE0
 73
     1
 44
1.0
  0
MTEXT
  5
CD
330
1F
100
AcDbEntity
  8
0
  6
Continuous
 62
     7
370
     0
100
AcDbMText
 10
387.4600369465
 20
291.4462239326
 30
0.0
 40
3.96875
 41
0.0
 71
     2
 72
     1
  1
1
  7
SLDTEXTSTYLE0
 73
     1
 44
1.0
  0
MTEXT
  5
CE
330
1F
100
AcDbEntity
  8
0
  6
Continuous
 62
     7
370
     0
100
AcDbMText
 10
364.3400380417
 20
23.6069112001
 30
0.0
 40
6.35
 41
0.0
 71
     2
 72
     1
  1
CZ025C0GMG#050
  7
SLDTEXTSTYLE0
 73
     1
 44
1.0
  0
MTEXT
  5
CF
330
1F
100
AcDbEntity
  8
0
  6
Continuous
 62
     7
370
     0
100
AcDbMText
 10
285.6178111281
 20
12.9493119036
 30
0.0
 40
1.4986
 41
0.0
 71
     1
 72
     1
  1
HMOTNOST:
  7
SLDTEXTSTYLE0
 73
     1
 44
1.0
  0
MTEXT
  5
D0
330
1F
100
AcDbEntity
  8
0
  6
Continuous
 62
     7
370
     0
100
AcDbMText
 10
400.8711564346
 20
24.406388569
 30
0.0
 40
2.9104166667
 41
0.0
 71
     1
 72
     1
  1
A3
  7
SLDTEXTSTYLE0
 73
     1
 44
1.0
  0
MTEXT
  5
D2
330
1F
100
AcDbEntity
  8
0
  6
Continuous
 62
     7
370
     0
100
AcDbMText
 10
374.4782944278
 20
12.9000872745
 30
0.0
 40
1.5
 41
0.0
 71
     1
 72
     1
  1
LIST 1 Z 1 LISTŮ
  7
SLDTEXTSTYLE1
 73
     1
 44
1.0
  0
MTEXT
  5
D4
330
1F
100
AcDbEntity
  8
0
  6
Continuous
 62
     7
370
     0
100
AcDbMText
 10
330.0739661175
 20
12.9000872745
 30
0.0
 40
1.5
 41
0.0
 71
     1
 72
     1
  1
MĚŘÍTKO:1:1
  7
SLDTEXTSTYLE2
 73
     1
 44
1.0
  0
MTEXT
  5
D5
330
1F
100
AcDbEntity
  8
0
  6
Continuous
 62
     7
370
     0
100
AcDbMText
 10
330.2786531243
 20
25.9860562892
 30
0.0
 40
1.5
 41
0.0
 71
     1
 72
     1
  1
Č. VÝKRESU
  7
SLDTEXTSTYLE2
 73
     1
 44
1.0
  0
MTEXT
  5
D6
330
1F
100
AcDbEntity
  8
0
  6
Continuous
 62
     7
370
     0
100
AcDbMText
 10
329.9561869366
 20
46.5761792212
 30
0.0
 40
1.5
 41
0.0
 71
     1
 72
     1
  1
NÁZEV:
  7
SLDTEXTSTYLE0
 73
     1
 44
1.0
  0
MTEXT
  5
D7
330
1F
100
AcDbEntity
  8
0
  6
Continuous
 62
     7
370
     0
100
AcDbMText
 10
383.3275816993
 20
62.3349086805
 30
0.0
 40
1.5
 41
0.0
 71
     1
 72
     1
  1
ZMĚNA
  7
SLDTEXTSTYLE2
 73
     1
 44
1.0
  0
MTEXT
  5
D8
330
1F
100
AcDbEntity
  8
0
  6
Continuous
 62
     7
370
     0
100
AcDbMText
 10
342.6146405229
 20
62.5329935751
 30
0.0
 40
1.5
 41
0.0
 71
     1
 72
     1
  1
NEUPRAVOVAT MĚŘÍTKO VÝKRESU
  7
SLDTEXTSTYLE2
 73
     1
 44
1.0
  0
MTEXT
  5
D9
330
1F
100
AcDbEntity
  8
0
  6
Continuous
 62
     7
370
     0
100
AcDbMText
 10
285.6458623088
 20
25.9860562892
 30
0.0
 40
1.5
 41
0.0
 71
     1
 72
     1
  1
MATERIÁL:
  7
SLDTEXTSTYLE0
 73
     1
 44
1.0
  0
MTEXT
  5
DA
330
1F
100
AcDbEntity
  8
0
  6
Continuous
 62
     7
370
     0
100
AcDbMText
 10
277.2147019657
 20
46.5761792212
 30
0.0
 40
1.5
 41
0.0
 71
     1
 72
     1
  1
DATUM
  7
SLDTEXTSTYLE0
 73
     1
 44
1.0
  0
MTEXT
  5
DB
330
1F
100
AcDbEntity
  8
0
  6
Continuous
 62
     7
370
     0
100
AcDbMText
 10
260.0335875632
 20
46.5617563795
 30
0.0
 40
1.5
 41
0.0
 71
     1
 72
     1
  1
PODPIS
  7
SLDTEXTSTYLE0
 73
     1
 44
1.0
  0
MTEXT
  5
DC
330
1F
100
AcDbEntity
  8
0
  6
Continuous
 62
     7
370
     0
100
AcDbMText
 10
244.3222392177
 20
46.5014826335
 30
0.0
 40
1.5
 41
0.0
 71
     1
 72
     1
  1
JMÉNO
  7
SLDTEXTSTYLE0
 73
     1
 44
1.0
  0
INSERT
  5
E2
330
1F
100
AcDbEntity
  8
0
  6
Continuous
 62
     7
370
     0
100
AcDbBlockReference
  2
SW_NOTE_0
 10
311.3092156863
 20
62.069489643
 30
0.0
  0
MTEXT
  5
E3
330
1F
100
AcDbEntity
  8
0
  6
Continuous
 62
     7
370
     0
100
AcDbMText
 10
264.3712921668
 20
63.9192719951
 30
0.0
 40
1.5
 41
0.0
 71
     1
 72
     1
  1
OPRACOVÁNÍ:
  7
SLDTEXTSTYLE0
 73
     1
 44
1.0
  0
INSERT
  5
ED
330
1F
100
AcDbEntity
  8
0
  6
Continuous
 62
     7
370
     0
100
AcDbBlockReference
  2
SW_NOTE_0_1
 10
230.5936687456
 20
61.9873698743
 30
0.0
  0
MTEXT
  5
EE
330
1F
100
AcDbEntity
  8
0
  6
Continuous
 62
     7
370
     0
100
AcDbMText
 10
230.6690428622
 20
25.3496492073
 30
0.0
 40
1.5
 41
0.0
 71
     1
 72
     1
  1
Z. JAKOSTI
  7
SLDTEXTSTYLE0
 73
     1
 44
1.0
  0
MTEXT
  5
EF
330
1F
100
AcDbEntity
  8
0
  6
Continuous
 62
     7
370
     0
100
AcDbMText
 10
230.4551864991
 20
29.7337046506
 30
0.0
 40
1.5
 41
0.0
 71
     1
 72
     1
  1
VÝROBA
  7
SLDTEXTSTYLE0
 73
     1
 44
1.0
  0
MTEXT
  5
F0
330
1F
100
AcDbEntity
  8
0
  6
Continuous
 62
     7
370
     0
100
AcDbMText
 10
230.4017224083
 20
34.0642960031
 30
0.0
 40
1.5
 41
0.0
 71
     1
 72
     1
  1
SCHVÁLIL
  7
SLDTEXTSTYLE0
 73
     1
 44
1.0
  0
MTEXT
  5
F1
330
1F
100
AcDbEntity
  8
0
  6
Continuous
 62
     7
370
     0
100
AcDbMText
 10
230.4104688676
 20
38.15440716
 30
0.0
 40
1.5
 41
0.0
 71
     1
 72
     1
  1
PŘEZKOUŠEL
  7
SLDTEXTSTYLE2
 73
     1
 44
1.0
  0
MTEXT
  5
F2
330
1F
100
AcDbEntity
  8
0
  6
Continuous
 62
     7
370
     0
100
AcDbMText
 10
230.2121492441
 20
42.4297148859
 30
0.0
 40
1.5
 41
0.0
 71
     1
 72
     1
  1
NAVRHL
  7
SLDTEXTSTYLE0
 73
     1
 44
1.0
  0
LINE
  5
F3
330
1F
100
AcDbEntity
  8
0
  6
Continuous
 62
     7
370
    25
100
AcDbLine
 10
125.94
 20
175.56
 30
0.0
 11
125.94
 21
167.56
 31
0.0
  0
LINE
  5
F4
330
1F
100
AcDbEntity
  8
0
  6
Continuous
 62
     7
370
    25
100
AcDbLine
 10
125.94
 20
167.56
 30
0.0
 11
125.44
 21
167.6870166538
 31
0.0
  0
LINE
  5
F5
330
1F
100
AcDbEntity
  8
0
  6
Continuous
 62
     7
370
    25
100
AcDbLine
 10
125.44
 20
167.6870166538
 30
0.0
 11
125.44
 21
175.4329833462
 31
0.0
  0
LINE
  5
F6
330
1F
100
AcDbEntity
  8
0
  6
Continuous
 62
     7
370
    25
100
AcDbLine
 10
125.94
 20
175.56
 30
0.0
 11
125.44
 21
175.4329833462
 31
0.0
  0
ARC
  5
F7
330
1F
100
AcDbEntity
  8
0
  6
Continuous
 62
     7
370
    25
100
AcDbCircle
 10
118.44
 20
171.56
 30
0.0
 40
8.000000000000007
100
AcDbArc
 50
28.9550243719
 51
151.0449756281
  0
LINE
  5
F8
330
1F
100
AcDbEntity
  8
0
  6
Continuous
 62
     7
370
    25
100
AcDbLine
 10
111.44
 20
175.4329833462
 30
0.0
 11
110.94
 21
175.56
 31
0.0
  0
ARC
  5
F9
330
1F
100
AcDbEntity
  8
0
  6
Continuous
 62
     7
370
    25
100
AcDbCircle
 10
118.44
 20
171.56
 30
0.0
 40
8.5
100
AcDbArc
 50
28.0724869359
 51
151.9275130641
  0
ARC
  5
FA
330
1F
100
AcDbEntity
  8
0
  6
Continuous
 62
     7
370
    25
100
AcDbCircle
 10
118.44
 20
171.56
 30
0.0
 40
8.000000000000007
100
AcDbArc
 50
208.9550243719
 51
331.0449756281
  0
ARC
  5
FB
330
1F
100
AcDbEntity
  8
0
  6
Continuous
 62
     7
370
    25
100
AcDbCircle
 10
118.44
 20
171.56
 30
0.0
 40
8.5
100
AcDbArc
 50
208.0724869359
 51
331.9275130641
  0
LINE
  5
FC
330
1F
100
AcDbEntity
  8
0
  6
Continuous
 62
     7
370
    25
100
AcDbLine
 10
111.44
 20
167.6870166538
 30
0.0
 11
110.94
 21
167.56
 31
0.0
  0
CIRCLE
  5
FD
330
1F
100
AcDbEntity
  8
0
  6
Continuous
 62
     7
370
    25
100
AcDbCircle
 10
118.44
 20
171.56
 30
0.0
 40
4.549999999999983
  0
LINE
  5
FE
330
1F
100
AcDbEntity
  8
0
  6
Continuous
 62
     7
370
    25
100
AcDbLine
 10
111.44
 20
175.4329833462
 30
0.0
 11
111.44
 21
167.6870166538
 31
0.0
  0
CIRCLE
  5
FF
330
1F
100
AcDbEntity
  8
0
  6
Continuous
 62
     7
370
    25
100
AcDbCircle
 10
118.44
 20
171.56
 30
0.0
 40
4.25
  0
LINE
  5
100
330
1F
100
AcDbEntity
  8
0
  6
Continuous
 62
     7
370
    25
100
AcDbLine
 10
110.94
 20
167.56
 30
0.0
 11
110.94
 21
175.56
 31
0.0
  0
ARC
  5
101
330
1F
100
AcDbEntity
  8
0
  6
Continuous
 62
     7
370
    25
100
AcDbCircle
 10
118.44
 20
171.56
 30
0.0
 40
8.499999999999961
100
AcDbArc
 50
151.9275130641
 51
208.0724869359
  0
ARC
  5
102
330
1F
100
AcDbEntity
  8
0
  6
Continuous
 62
     7
370
    25
100
AcDbCircle
 10
118.44
 20
171.56
 30
0.0
 40
8.5
100
AcDbArc
 50
331.9275130641
 51
28.0724869359
  0
CIRCLE
  5
103
330
1F
100
AcDbEntity
  8
0
  6
Continuous
 62
     7
370
    25
100
AcDbCircle
 10
118.44
 20
171.56
 30
0.0
 40
9.0
  0
CIRCLE
  5
104
330
1F
100
AcDbEntity
  8
0
  6
Continuous
 62
     7
370
    25
100
AcDbCircle
 10
118.44
 20
171.56
 30
0.0
 40
10.8
  0
CIRCLE
  5
105
330
1F
100
AcDbEntity
  8
0
  6
Continuous
 62
     7
370
    25
100
AcDbCircle
 10
118.44
 20
157.31
 30
0.0
 40
1.5
  0
CIRCLE
  5
106
330
1F
100
AcDbEntity
  8
0
  6
Continuous
 62
     7
370
    25
100
AcDbCircle
 10
132.69
 20
171.56
 30
0.0
 40
1.5
  0
CIRCLE
  5
107
330
1F
100
AcDbEntity
  8
0
  6
Continuous
 62
     7
370
    25
100
AcDbCircle
 10
118.44
 20
185.81
 30
0.0
 40
1.5
  0
CIRCLE
  5
108
330
1F
100
AcDbEntity
  8
0
  6
Continuous
 62
     7
370
    25
100
AcDbCircle
 10
104.19
 20
171.56
 30
0.0
 40
1.5
  0
CIRCLE
  5
109
330
1F
100
AcDbEntity
  8
0
  6
Continuous
 62
     7
370
    25
100
AcDbCircle
 10
118.44
 20
171.56
 30
0.0
 40
16.00000000000001
  0
CIRCLE
  5
10A
330
1F
100
AcDbEntity
  8
0
  6
Continuous
 62
     7
370
    25
100
AcDbCircle
 10
118.44
 20
171.56
 30
0.0
 40
9.5
  0
CIRCLE
  5
10B
330
1F
100
AcDbEntity
  8
0
  6
Continuous
 62
     7
370
    25
100
AcDbCircle
 10
143.44
 20
186.56
 30
0.0
 40
6.750000000000028
  0
CIRCLE
  5
10C
330
1F
100
AcDbEntity
  8
0
  6
Continuous
 62
     7
370
    25
100
AcDbCircle
 10
93.44
 20
156.56
 30
0.0
 40
6.75
  0
LINE
  5
10D
330
1F
100
AcDbEntity
  8
0
  6
Continuous
 62
     7
370
    25
100
AcDbLine
 10
150.94
 20
193.06
 30
0.0
 11
150.94
 21
150.06
 31
0.0
  0
LINE
  5
10E
330
1F
100
AcDbEntity
  8
0
  6
Continuous
 62
     7
370
    25
100
AcDbLine
 10
150.94
 20
150.06
 30
0.0
 11
149.94
 21
149.06
 31
0.0
  0
LINE
  5
10F
330
1F
100
AcDbEntity
  8
0
  6
Continuous
 62
     7
370
    25
100
AcDbLine
 10
149.94
 20
149.06
 30
0.0
 11
86.94
 21
149.06
 31
0.0
  0
LINE
  5
110
330
1F
100
AcDbEntity
  8
0
  6
Continuous
 62
     7
370
    25
100
AcDbLine
 10
86.94
 20
149.06
 30
0.0
 11
85.94
 21
150.06
 31
0.0
  0
LINE
  5
111
330
1F
100
AcDbEntity
  8
0
  6
Continuous
 62
     7
370
    25
100
AcDbLine
 10
85.94
 20
150.06
 30
0.0
 11
85.94
 21
193.06
 31
0.0
  0
LINE
  5
112
330
1F
100
AcDbEntity
  8
0
  6
Continuous
 62
     7
370
    25
100
AcDbLine
 10
85.94
 20
193.06
 30
0.0
 11
86.94
 21
194.06
 31
0.0
  0
LINE
  5
113
330
1F
100
AcDbEntity
  8
0
  6
Continuous
 62
     7
370
    25
100
AcDbLine
 10
86.94
 20
194.06
 30
0.0
 11
149.94
 21
194.06
 31
0.0
  0
LINE
  5
114
330
1F
100
AcDbEntity
  8
0
  6
Continuous
 62
     7
370
    25
100
AcDbLine
 10
149.94
 20
194.06
 30
0.0
 11
150.94
 21
193.06
 31
0.0
  0
CIRCLE
  5
115
330
1F
100
AcDbEntity
  8
0
  6
Continuous
 62
     7
370
    25
100
AcDbCircle
 10
118.44
 20
171.56
 30
0.0
 40
18.69999999999996
  0
CIRCLE
  5
116
330
1F
100
AcDbEntity
  8
0
  6
Continuous
 62
     7
370
    25
100
AcDbCircle
 10
93.44
 20
186.56
 30
0.0
 40
6.75
  0
CIRCLE
  5
117
330
1F
100
AcDbEntity
  8
0
  6
Continuous
 62
     7
370
    25
100
AcDbCircle
 10
143.44
 20
156.56
 30
0.0
 40
6.75
  0
CIRCLE
  5
118
330
1F
100
AcDbEntity
  8
0
  6
Continuous
 62
     7
370
    25
100
AcDbCircle
 10
118.44
 20
171.56
 30
0.0
 40
18.0
  0
CIRCLE
  5
119
330
1F
100
AcDbEntity
  8
0
  6
Continuous
 62
     7
370
    25
100
AcDbCircle
 10
143.44
 20
156.56
 30
0.0
 40
4.249999999999972
  0
CIRCLE
  5
11A
330
1F
100
AcDbEntity
  8
0
  6
Continuous
 62
     7
370
    25
100
AcDbCircle
 10
143.44
 20
186.56
 30
0.0
 40
4.25
  0
CIRCLE
  5
11B
330
1F
100
AcDbEntity
  8
0
  6
Continuous
 62
     7
370
    25
100
AcDbCircle
 10
93.44
 20
186.56
 30
0.0
 40
4.25
  0
CIRCLE
  5
11C
330
1F
100
AcDbEntity
  8
0
  6
Continuous
 62
     7
370
    25
100
AcDbCircle
 10
93.44
 20
156.56
 30
0.0
 40
4.25
  0
DIMENSION
  5
11D
330
1F
100
AcDbEntity
  8
0
  6
Continuous
 62
     7
370
    18
100
AcDbDimension
  2
_D
 10
150.94
 20
222.06
 30
0.0
 11
118.44
 21
222.06
 31
0.0
 70
   160
  1
<>
 71
     2
 42
-1.0
  3
SLDDIMSTYLE0
100
AcDbAlignedDimension
 13
85.94
 23
193.06
 33
0.0
 14
150.94
 24
193.06
 34
0.0
100
AcDbRotatedDimension
  0
DIMENSION
  5
128
330
1F
100
AcDbEntity
  8
0
  6
Continuous
 62
     7
370
    18
100
AcDbDimension
  2
_D_1
 10
143.44
 20
216.06
 30
0.0
 11
118.44
 21
216.06
 31
0.0
 70
   160
  1
<>
 71
     2
 42
-1.0
  3
SLDDIMSTYLE0
100
AcDbAlignedDimension
 13
93.44
 23
195.81
 33
0.0
 14
143.44
 24
195.81
 34
0.0
100
AcDbRotatedDimension
  0
DIMENSION
  5
132
330
1F
100
AcDbEntity
  8
0
  6
Continuous
 62
     7
370
    18
100
AcDbDimension
  2
_D_2
 10
69.94
 20
194.06
 30
0.0
 11
69.94
 21
171.56
 31
0.0
 70
   160
  1
<>
 71
     2
 42
-1.0
  3
SLDDIMSTYLE0
100
AcDbAlignedDimension
 13
86.94
 23
149.06
 33
0.0
 14
86.94
 24
194.06
 34
0.0
 50
90.0
100
AcDbRotatedDimension
  0
DIMENSION
  5
13C
330
1F
100
AcDbEntity
  8
0
  6
Continuous
 62
     7
370
    18
100
AcDbDimension
  2
_D_3
 10
75.94
 20
156.56
 30
0.0
 11
75.94
 21
171.56
 31
0.0
 70
   160
  1
<>
 71
     2
 42
-1.0
  3
SLDDIMSTYLE0
100
AcDbAlignedDimension
 13
84.19
 23
186.56
 33
0.0
 14
84.19
 24
156.56
 34
0.0
 50
90.0
100
AcDbRotatedDimension
  0
DIMENSION
  5
146
330
1F
100
AcDbEntity
  8
0
  6
Continuous
 62
     7
370
    18
100
AcDbDimension
  2
_D_4
 10
140.43479618
 20
159.56520382
 30
0.0
 11
160.94001
 21
139.06001
 31
0.0
 70
   163
  1
<>
 71
     1
 42
-1.0
  3
SLDDIMSTYLE1
100
AcDbDiametricDimension
 15
146.4452038201
 25
153.55479618
 35
0.0
 40
0.0
  0
DIMENSION
  5
153
330
1F
100
AcDbEntity
  8
0
  6
Continuous
 62
     7
370
    18
100
AcDbDimension
  2
_D_5
 10
125.94
 20
204.06
 30
0.0
 11
118.44
 21
204.06
 31
0.0
 70
   160
  1
<>
 71
     2
 42
-1.0
  3
SLDDIMSTYLE2
100
AcDbAlignedDimension
 13
110.94
 23
175.56
 33
0.0
 14
125.94
 24
175.56
 34
0.0
100
AcDbRotatedDimension
  0
DIMENSION
  5
160
330
1F
100
AcDbEntity
  8
0
  6
Continuous
 62
     7
370
    18
100
AcDbDimension
  2
_D_6
 10
115.2226641456
 20
174.7773358544
 30
0.0
 11
162.94001
 21
127.06001
 31
0.0
 70
   163
  1
M10
 71
     1
 42
-1.0
  3
SLDDIMSTYLE3
100
AcDbDiametricDimension
 15
121.6573358544
 25
168.3426641456
 35
0.0
 40
0.0
  0
INSERT
  5
174
330
1F
100
AcDbEntity
  8
0
  6
Continuous
 62
     7
370
     0
100
AcDbBlockReference
  2
SW_CENTERMARKSYMBOL_0
 10
143.44
 20
156.56
 30
0.0
  0
INSERT
  5
180
330
1F
100
AcDbEntity
  8
0
  6
Continuous
 62
     7
370
     0
100
AcDbBlockReference
  2
SW_CENTERMARKSYMBOL_1
 10
118.44
 20
171.56
 30
0.0
  0
INSERT
  5
18C
330
1F
100
AcDbEntity
  8
0
  6
Continuous
 62
     7
370
     0
100
AcDbBlockReference
  2
SW_CENTERMARKSYMBOL_2
 10
93.44
 20
156.56
 30
0.0
  0
INSERT
  5
198
330
1F
100
AcDbEntity
  8
0
  6
Continuous
 62
     7
370
     0
100
AcDbBlockReference
  2
SW_CENTERMARKSYMBOL_3
 10
93.44
 20
186.56
 30
0.0
  0
INSERT
  5
1A4
330
1F
100
AcDbEntity
  8
0
  6
Continuous
 62
     7
370
     0
100
AcDbBlockReference
  2
SW_CENTERMARKSYMBOL_4
 10
143.44
 20
186.56
 30
0.0
  0
INSERT
  5
1B0
330
1F
100
AcDbEntity
  8
0
  6
Continuous
 62
     7
370
     0
100
AcDbBlockReference
  2
SW_CENTERMARKSYMBOL_5
 10
118.44
 20
185.81
 30
0.0
  0
INSERT
  5
1BC
330
1F
100
AcDbEntity
  8
0
  6
Continuous
 62
     7
370
     0
100
AcDbBlockReference
  2
SW_CENTERMARKSYMBOL_6
 10
132.69
 20
171.56
 30
0.0
  0
INSERT
  5
1C8
330
1F
100
AcDbEntity
  8
0
  6
Continuous
 62
     7
370
     0
100
AcDbBlockReference
  2
SW_CENTERMARKSYMBOL_7
 10
118.44
 20
157.31
 30
0.0
  0
INSERT
  5
1D4
330
1F
100
AcDbEntity
  8
0
  6
Continuous
 62
     7
370
     0
100
AcDbBlockReference
  2
SW_CENTERMARKSYMBOL_8
 10
104.19
 20
171.56
 30
0.0
  0
LINE
  5
1D5
330
1F
100
AcDbEntity
  8
0
  6
Continuous
 62
     7
370
    25
100
AcDbLine
 10
260.44
 20
180.56
 30
0.0
 11
259.94
 21
180.06
 31
0.0
  0
LINE
  5
1D6
330
1F
100
AcDbEntity
  8
0
  6
Continuous
 62
     7
370
    25
100
AcDbLine
 10
259.94
 20
163.06
 30
0.0
 11
260.44
 21
162.56
 31
0.0
  0
LINE
  5
1D7
330
1F
100
AcDbEntity
  8
0
  6
Continuous
 62
     7
370
    25
100
AcDbLine
 10
262.94
 20
180.56
 30
0.0
 11
260.44
 21
180.56
 31
0.0
  0
LINE
  5
1D8
330
1F
100
AcDbEntity
  8
0
  6
Continuous
 62
     7
370
    25
100
AcDbLine
 10
260.44
 20
162.56
 30
0.0
 11
262.94
 21
162.56
 31
0.0
  0
LINE
  5
1D9
330
1F
100
AcDbEntity
  8
0
  6
Continuous
 62
     7
370
    25
100
AcDbLine
 10
255.94
 20
163.56
 30
0.0
 11
256.44
 21
163.06
 31
0.0
  0
LINE
  5
1DA
330
1F
100
AcDbEntity
  8
0
  6
Continuous
 62
     7
370
    25
100
AcDbLine
 10
256.44
 20
163.06
 30
0.0
 11
259.94
 21
163.06
 31
0.0
  0
LINE
  5
1DB
330
1F
100
AcDbEntity
  8
0
  6
Continuous
 62
     7
370
    25
100
AcDbLine
 10
256.44
 20
180.06
 30
0.0
 11
255.94
 21
179.56
 31
0.0
  0
LINE
  5
1DC
330
1F
100
AcDbEntity
  8
0
  6
Continuous
 62
     7
370
    25
100
AcDbLine
 10
259.94
 20
180.06
 30
0.0
 11
256.44
 21
180.06
 31
0.0
  0
LINE
  5
1DD
330
1F
100
AcDbEntity
  8
0
  6
Continuous
 62
     7
370
    25
100
AcDbLine
 10
358.14
 20
171.56
 30
0.0
 11
358.14
 21
174.3027176304
 31
0.0
  0
LINE
  5
1DE
330
1F
100
AcDbEntity
  8
0
  6
Continuous
 62
     7
370
    25
100
AcDbLine
 10
358.14
 20
168.8172823696
 30
0.0
 11
358.14
 21
171.56
 31
0.0
  0
LINE
  5
1DF
330
1F
100
AcDbEntity
  8
0
  6
Continuous
 62
     7
370
    25
100
AcDbLine
 10
259.94
 20
163.06
 30
0.0
 11
259.94
 21
167.56
 31
0.0
  0
LINE
  5
1E0
330
1F
100
AcDbEntity
  8
0
  6
Continuous
 62
     7
370
    25
100
AcDbLine
 10
259.94
 20
167.56
 30
0.0
 11
259.94
 21
175.56
 31
0.0
  0
LINE
  5
1E1
330
1F
100
AcDbEntity
  8
0
  6
Continuous
 62
     7
370
    25
100
AcDbLine
 10
259.94
 20
175.56
 30
0.0
 11
259.94
 21
180.06
 31
0.0
  0
LINE
  5
1E2
330
1F
100
AcDbEntity
  8
0
  6
Continuous
 62
     7
370
    25
100
AcDbLine
 10
260.44
 20
171.56
 30
0.0
 11
260.44
 21
162.56
 31
0.0
  0
LINE
  5
1E3
330
1F
100
AcDbEntity
  8
0
  6
Continuous
 62
     7
370
    25
100
AcDbLine
 10
260.44
 20
180.56
 30
0.0
 11
260.44
 21
171.56
 31
0.0
  0
LINE
  5
1E4
330
1F
100
AcDbEntity
  8
0
  6
Continuous
 62
     7
370
    25
100
AcDbLine
 10
255.94
 20
163.56
 30
0.0
 11
255.94
 21
167.6870166538
 31
0.0
  0
LINE
  5
1E5
330
1F
100
AcDbEntity
  8
0
  6
Continuous
 62
     7
370
    25
100
AcDbLine
 10
256.44
 20
167.56
 30
0.0
 11
255.94
 21
167.6870166538
 31
0.0
  0
LINE
  5
1E6
330
1F
100
AcDbEntity
  8
0
  6
Continuous
 62
     7
370
    25
100
AcDbLine
 10
256.44
 20
167.56
 30
0.0
 11
256.44
 21
163.06
 31
0.0
  0
LINE
  5
1E7
330
1F
100
AcDbEntity
  8
0
  6
Continuous
 62
     7
370
    25
100
AcDbLine
 10
256.44
 20
167.56
 30
0.0
 11
259.94
 21
167.56
 31
0.0
  0
LINE
  5
1E8
330
1F
100
AcDbEntity
  8
0
  6
Continuous
 62
     7
370
    25
100
AcDbLine
 10
256.44
 20
175.56
 30
0.0
 11
256.44
 21
167.56
 31
0.0
  0
LINE
  5
1E9
330
1F
100
AcDbEntity
  8
0
  6
Continuous
 62
     7
370
    25
100
AcDbLine
 10
255.94
 20
167.6870166538
 30
0.0
 11
255.94
 21
175.4329833462
 31
0.0
  0
LINE
  5
1EA
330
1F
100
AcDbEntity
  8
0
  6
Continuous
 62
     7
370
    25
100
AcDbLine
 10
256.44
 20
175.56
 30
0.0
 11
255.94
 21
175.4329833462
 31
0.0
  0
LINE
  5
1EB
330
1F
100
AcDbEntity
  8
0
  6
Continuous
 62
     7
370
    25
100
AcDbLine
 10
255.94
 20
175.4329833462
 30
0.0
 11
255.94
 21
179.56
 31
0.0
  0
LINE
  5
1EC
330
1F
100
AcDbEntity
  8
0
  6
Continuous
 62
     7
370
    25
100
AcDbLine
 10
256.44
 20
180.06
 30
0.0
 11
256.44
 21
175.56
 31
0.0
  0
LINE
  5
1ED
330
1F
100
AcDbEntity
  8
0
  6
Continuous
 62
     7
370
    25
100
AcDbLine
 10
256.44
 20
175.56
 30
0.0
 11
259.94
 21
175.56
 31
0.0
  0
SPLINE
  5
1EE
330
1F
100
AcDbEntity
  8
0
  6
Continuous
 62
     7
370
    25
100
AcDbSpline
210
0.0
220
0.0
230
1.0
 70
     8
 71
     3
 72
    15
 73
    11
 74
     0
 42
0.000000001
 43
0.00000001
 40
0.0
 40
0.0
 40
0.0
 40
0.0
 40
0.0811777917222691
 40
0.1741609194175745
 40
0.2793292471858165
 40
0.3985583947211355
 40
0.5289391273783224
 40
0.6735814606248355
 40
0.8295189063402759
 40
1.0
 40
1.0
 40
1.0
 40
1.0
 10
281.1320072115385
 20
187.4411097756358
 30
0.0
 10
281.1431796387836
 20
187.4376647910668
 30
0.0
 10
281.1671492511597
 20
187.4302738326876
 30
0.0
 10
281.2066012486546
 20
187.422253048055
 30
0.0
 10
281.2517450409675
 20
187.4151593904229
 30
0.0
 10
281.3025726065102
 20
187.4100783090675
 30
0.0
 10
281.3590734284818
 20
187.4045869275948
 30
0.0
 10
281.4210980242271
 20
187.4025375254653
 30
0.0
 10
281.4888583068466
 20
187.400005320528
 30
0.0
 10
281.5358499468896
 20
187.3998333868489
 30
0.0
 10
281.5603926282052
 20
187.3997435897384
 30
0.0
  0
SPLINE
  5
1EF
330
1F
100
AcDbEntity
  8
0
  6
Continuous
 62
     7
370
    25
100
AcDbSpline
210
0.0
220
0.0
230
1.0
 70
     8
 71
     3
 72
    15
 73
    11
 74
     0
 42
0.000000001
 43
0.00000001
 40
0.0
 40
0.0
 40
0.0
 40
0.0
 40
0.135341708962396
 40
0.2643891898467266
 40
0.3893343764009333
 40
0.513373354805062
 40
0.6360144950932158
 40
0.755585561396344
 40
0.8757195242080135
 40
1.0
 40
1.0
 40
1.0
 40
1.0
 10
280.7092307692308
 20
188.0665104166615
 30
0.0
 10
280.7105288223172
 20
188.0299542783839
 30
0.0
 10
280.7130645609784
 20
187.9585420887699
 30
0.0
 10
280.7343151718347
 20
187.8550307532784
 30
0.0
 10
280.7707269673371
 20
187.7593188817344
 30
0.0
 10
280.8196714399654
 20
187.6713382884101
 30
0.0
 10
280.8811547276904
 20
187.5932773818057
 30
0.0
 10
280.9544694966637
 20
187.5279080408775
 30
0.0
 10
281.038307389192
 20
187.4753185312505
 30
0.0
 10
281.1004226736233
 20
187.4526409366528
 30
0.0
 10
281.1320072115385
 20
187.4411097756358
 30
0.0
  0
SPLINE
  5
1F0
330
1F
100
AcDbEntity
  8
0
  6
Continuous
 62
     7
370
    25
100
AcDbSpline
210
0.0
220
0.0
230
1.0
 70
     8
 71
     3
 72
    23
 73
    19
 74
     0
 42
0.000000001
 43
0.00000001
 40
0.0
 40
0.0
 40
0.0
 40
0.0
 40
0.0618676503265346
 40
0.1191756542966322
 40
0.1727344041148048
 40
0.2220637830350018
 40
0.2677474554704878
 40
0.3102291023755158
 40
0.3489684023723239
 40
0.3842813307534957
 40
0.4529078629701409
 40
0.5231803193410787
 40
0.5963594469849797
 40
0.6744669917326109
 40
0.7552532212971647
 40
0.8356122278545294
 40
0.916961936950269
 40
1.0
 40
1.0
 40
1.0
 40
1.0
 10
281.3886177884616
 20
188.7010256410204
 30
0.0
 10
281.3666473373356
 20
188.7006461727061
 30
0.0
 10
281.3243256575189
 20
188.6999152028955
 30
0.0
 10
281.2630159414242
 20
188.6974367436331
 30
0.0
 10
281.2063163076087
 20
188.6920879702164
 30
0.0
 10
281.1542878996539
 20
188.6832008498509
 30
0.0
 10
281.1062978008197
 20
188.6739761642958
 30
0.0
 10
281.0629925301043
 20
188.6612772874014
 30
0.0
 10
281.0241678809226
 20
188.6467723716091
 30
0.0
 10
280.9787940596309
 20
188.6240225003344
 30
0.0
 10
280.9276213030797
 20
188.5886329402204
 30
0.0
 10
280.87332086144
 20
188.5360227994948
 30
0.0
 10
280.8251629278606
 20
188.4734470313122
 30
0.0
 10
280.7844634358083
 20
188.4014977261279
 30
0.0
 10
280.7513591934928
 20
188.3230754460646
 30
0.0
 10
280.7261902835663
 20
188.2405036592048
 30
0.0
 10
280.7122360840738
 20
188.1543925129816
 30
0.0
 10
280.710239376611
 20
188.0960043417781
 30
0.0
 10
280.7092307692308
 20
188.0665104166615
 30
0.0
  0
LINE
  5
1F1
330
1F
100
AcDbEntity
  8
0
  6
Continuous
 62
     7
370
    25
100
AcDbLine
 10
281.6964102564
 20
188.701025641
 30
0.0
 11
281.3886177885
 21
188.701025641
 31
0.0
  0
LINE
  5
1F2
330
1F
100
AcDbEntity
  8
0
  6
Continuous
 62
     7
370
    25
100
AcDbLine
 10
281.6964102564
 20
187.3997435897
 30
0.0
 11
281.6964102564
 21
188.701025641
 31
0.0
  0
LINE
  5
1F3
330
1F
100
AcDbEntity
  8
0
  6
Continuous
 62
     7
370
    25
100
AcDbLine
 10
281.5603926282
 20
187.3997435897
 30
0.0
 11
281.6964102564
 21
187.3997435897
 31
0.0
  0
LINE
  5
1F4
330
1F
100
AcDbEntity
  8
0
  6
Continuous
 62
     7
370
    25
100
AcDbLine
 10
276.314599359
 20
185.918974359
 30
0.0
 11
276.4912820513
 21
185.918974359
 31
0.0
  0
SPLINE
  5
1F5
330
1F
100
AcDbEntity
  8
0
  6
Continuous
 62
     7
370
    25
100
AcDbSpline
210
0.0
220
0.0
230
1.0
 70
     8
 71
     3
 72
    15
 73
    11
 74
     0
 42
0.000000001
 43
0.00000001
 40
0.0
 40
0.0
 40
0.0
 40
0.0
 40
0.0864464390087494
 40
0.182631208214546
 40
0.2892940623652296
 40
0.4085225127276346
 40
0.5387062634442238
 40
0.680150209943393
 40
0.8338825093754645
 40
1.0
 40
1.0
 40
1.0
 40
1.0
 10
275.539859775641
 20
186.0171314102512
 30
0.0
 10
275.5609982257361
 20
186.0090255629716
 30
0.0
 10
275.6056564062799
 20
185.9919007316974
 30
0.0
 10
275.6791306955154
 20
185.9731207267207
 30
0.0
 10
275.7617008515284
 20
185.9561817232425
 30
0.0
 10
275.8539088183236
 20
185.9423573834751
 30
0.0
 10
275.9557132036061
 20
185.9321949950049
 30
0.0
 10
276.0667786769012
 20
185.9246057503833
 30
0.0
 10
276.1874151981409
 20
185.9195024288105
 30
0.0
 10
276.2711241817665
 20
185.919154868317
 30
0.0
 10
276.3145993589744
 20
185.9189743589691
 30
0.0
  0
SPLINE
  5
1F6
330
1F
100
AcDbEntity
  8
0
  6
Continuous
 62
     7
370
    25
100
AcDbSpline
210
0.0
220
0.0
230
1.0
 70
     8
 71
     3
 72
    23
 73
    19
 74
     0
 42
0.000000001
 43
0.00000001
 40
0.0
 40
0.0
 40
0.0
 40
0.0
 40
0.0776386823447293
 40
0.15234219920122
 40
0.2242466699734409
 40
0.294029629155039
 40
0.3620177279961736
 40
0.4278238510853977
 40
0.4920918785675195
 40
0.5550080462174912
 40
0.6161401300551558
 40
0.6745823311927932
 40
0.7311828706079908
 40
0.786437993243298
 40
0.8401422221809889
 40
0.893721762082385
 40
0.9464351484793613
 40
1.0
 40
1.0
 40
1.0
 40
1.0
 10
274.8758974358975
 20
187.3534695512768
 30
0.0
 10
274.8763981295617
 20
187.3125542324674
 30
0.0
 10
274.8773805879398
 20
187.2322704169749
 30
0.0
 10
274.8862081194879
 20
187.1143745393004
 30
0.0
 10
274.8992576423224
 20
187.0010738302833
 30
0.0
 10
274.9179419368212
 20
186.8921002827406
 30
0.0
 10
274.9433692616148
 20
186.7878100302098
 30
0.0
 10
274.9736432917815
 20
186.6878981209916
 30
0.0
 10
275.0082271922641
 20
186.5921772068851
 30
0.0
 10
275.0497568337503
 20
186.5019324296083
 30
0.0
 10
275.0958783808541
 20
186.41750537324
 30
0.0
 10
275.1454415827862
 20
186.3388744570683
 30
0.0
 10
275.2006469919184
 20
186.2679936663084
 30
0.0
 10
275.2591486905158
 20
186.2031274433814
 30
0.0
 10
275.3230598591584
 20
186.145883585785
 30
0.0
 10
275.3907648259845
 20
186.0954820870517
 30
0.0
 10
275.4630969534285
 20
186.0519249265488
 30
0.0
 10
275.514135866096
 20
186.0287910293246
 30
0.0
 10
275.539859775641
 20
186.0171314102512
 30
0.0
  0
SPLINE
  5
1F7
330
1F
100
AcDbEntity
  8
0
  6
Continuous
 62
     7
370
    25
100
AcDbSpline
210
0.0
220
0.0
230
1.0
 70
     8
 71
     3
 72
    23
 73
    19
 74
     0
 42
0.000000001
 43
0.00000001
 40
0.0
 40
0.0
 40
0.0
 40
0.0
 40
0.0522749778365887
 40
0.1043530786992089
 40
0.156819891961525
 40
0.2099431137914906
 40
0.2644755953126753
 40
0.3208282923756423
 40
0.3789539340698332
 40
0.4397451001800132
 40
0.5027036265793436
 40
0.5670472307559866
 40
0.6330381619025753
 40
0.7012745216010323
 40
0.7722054622156441
 40
0.8454045585292117
 40
0.9211024468282533
 40
0.9999999999999999
 40
0.9999999999999999
 40
0.9999999999999999
 40
0.9999999999999999
 10
275.4816666666667
 20
188.6119831730717
 30
0.0
 10
275.4585642383001
 20
188.6006775260485
 30
0.0
 10
275.4124463894694
 20
188.5781088111034
 30
0.0
 10
275.3467185634722
 20
188.537371158367
 30
0.0
 10
275.2859283686137
 20
188.4890584759362
 30
0.0
 10
275.2277133866631
 20
188.4358548151488
 30
0.0
 10
275.1745741413819
 20
188.3749621403526
 30
0.0
 10
275.1249418152474
 20
188.3082170996567
 30
0.0
 10
275.078118348593
 20
188.2357159788264
 30
0.0
 10
275.0365297241707
 20
188.156406518884
 30
0.0
 10
274.9987548592611
 20
188.0718882682874
 30
0.0
 10
274.9659137093832
 20
187.9826047066504
 30
0.0
 10
274.9374873273734
 20
187.889078568493
 30
0.0
 10
274.9156406018872
 20
187.7904994303794
 30
0.0
 10
274.8970566001407
 20
187.6876727793876
 30
0.0
 10
274.8846098831336
 20
187.5801927111244
 30
0.0
 10
274.8778003310566
 20
187.468309185851
 30
0.0
 10
274.8765404263745
 20
187.3922739967332
 30
0.0
 10
274.8758974358975
 20
187.3534695512768
 30
0.0
  0
SPLINE
  5
1F8
330
1F
100
AcDbEntity
  8
0
  6
Continuous
 62
     7
370
    25
100
AcDbSpline
210
0.0
220
0.0
230
1.0
 70
     8
 71
     3
 72
    15
 73
    11
 74
     0
 42
0.000000001
 43
0.00000001
 40
0.0
 40
0.0
 40
0.0
 40
0.0
 40
0.1710629808937487
 40
0.3287670589464656
 40
0.4722733003146478
 40
0.6036554934341385
 40
0.7212120838856598
 40
0.825997187762563
 40
0.9187939965021414
 40
0.9999999999999999
 40
0.9999999999999999
 40
0.9999999999999999
 40
0.9999999999999999
 10
276.2017187500001
 20
188.7010256410204
 30
0.0
 10
276.1601153150531
 20
188.7007761151846
 30
0.0
 10
276.0801574020194
 20
188.7002965498529
 30
0.0
 10
275.9653543794071
 20
188.6961392839132
 30
0.0
 10
275.8603649164953
 20
188.6892001821086
 30
0.0
 10
275.7653576189177
 20
188.6797607367918
 30
0.0
 10
275.6802590497317
 20
188.6669754465081
 30
0.0
 10
275.6049156110705
 20
188.6528252294093
 30
0.0
 10
275.5393172579435
 20
188.6350850683867
 30
0.0
 10
275.5000107591441
 20
188.6193340656588
 30
0.0
 10
275.4816666666667
 20
188.6119831730717
 30
0.0
  0
LINE
  5
1F9
330
1F
100
AcDbEntity
  8
0
  6
Continuous
 62
     7
370
    25
100
AcDbLine
 10
276.4912820513
 20
188.701025641
 30
0.0
 11
276.20171875
 21
188.701025641
 31
0.0
  0
LINE
  5
1FA
330
1F
100
AcDbEntity
  8
0
  6
Continuous
 62
     7
370
    25
100
AcDbLine
 10
276.4912820513
 20
185.918974359
 30
0.0
 11
276.4912820513
 21
188.701025641
 31
0.0
  0
SPLINE
  5
1FB
330
1F
100
AcDbEntity
  8
0
  6
Continuous
 62
     7
370
    25
100
AcDbSpline
210
0.0
220
0.0
230
1.0
 70
     8
 71
     3
 72
    19
 73
    15
 74
     0
 42
0.000000001
 43
0.00000001
 40
0.0
 40
0.0
 40
0.0
 40
0.0
 40
0.1407973193284714
 40
0.2685745207268986
 40
0.3860163786158552
 40
0.4978928657190912
 40
0.553111828632988
 40
0.6093368809443934
 40
0.6657223092952947
 40
0.7255273010099001
 40
0.7872639783711586
 40
0.8537880951259607
 40
0.9244854171115947
 40
1.0
 40
1.0
 40
1.0
 40
1.0
 10
280.9335897435898
 20
186.433597756405
 30
0.0
 10
280.9347456106709
 20
186.3956273090389
 30
0.0
 10
280.9369504569621
 20
186.323197700636
 30
0.0
 10
280.9586517004128
 20
186.2208199714291
 30
0.0
 10
280.9953693711548
 20
186.1313450212444
 30
0.0
 10
281.0381206781756
 20
186.0669750030372
 30
0.0
 10
281.0795493942357
 20
186.0231222706357
 30
0.0
 10
281.1153545952103
 20
185.9952132184019
 30
0.0
 10
281.1555839242776
 20
185.9718103883216
 30
0.0
 10
281.1994283629432
 20
185.952121396863
 30
0.0
 10
281.2480881228407
 20
185.9376641228069
 30
0.0
 10
281.3005152350922
 20
185.9262100615616
 30
0.0
 10
281.3576267723384
 20
185.9201469405349
 30
0.0
 10
281.3970188272514
 20
185.9193737113818
 30
0.0
 10
281.4173637820513
 20
185.9189743589691
 30
0.0
  0
SPLINE
  5
1FC
330
1F
100
AcDbEntity
  8
0
  6
Continuous
 62
     7
370
    25
100
AcDbSpline
210
0.0
220
0.0
230
1.0
 70
     8
 71
     3
 72
    19
 73
    15
 74
     0
 42
0.000000001
 43
0.00000001
 40
0.0
 40
0.0
 40
0.0
 40
0.0
 40
0.1168888338294059
 40
0.2183980836731778
 40
0.3044144419778642
 40
0.3777099914535653
 40
0.4456173932655686
 40
0.5153589234344441
 40
0.588246137981007
 40
0.6655634051706147
 40
0.7462255190539145
 40
0.8288621255032614
 40
0.91246410435483
 40
1.0
 40
1.0
 40
1.0
 40
1.0
 10
281.5589903846154
 20
187.040769230764
 30
0.0
 10
281.519931181843
 20
187.0400428660296
 30
0.0
 10
281.4469519694081
 20
187.038685707601
 30
0.0
 10
281.3456690456669
 20
187.0269276438014
 30
0.0
 10
281.2609178238876
 20
187.0055233739934
 30
0.0
 10
281.1906258353276
 20
186.9757613056593
 30
0.0
 10
281.1322511554086
 20
186.9354058034593
 30
0.0
 10
281.082485150932
 20
186.8853374787608
 30
0.0
 10
281.0376037987597
 20
186.8268049888477
 30
0.0
 10
281.0012804436492
 20
186.7584678541025
 30
0.0
 10
280.9710161350786
 20
186.6838132547285
 30
0.0
 10
280.9498023259665
 20
186.603939111186
 30
0.0
 10
280.9356121814631
 20
186.5201048919333
 30
0.0
 10
280.9342741419752
 20
186.4628720024332
 30
0.0
 10
280.9335897435898
 20
186.433597756405
 30
0.0
  0
LINE
  5
1FD
330
1F
100
AcDbEntity
  8
0
  6
Continuous
 62
     7
370
    25
100
AcDbLine
 10
281.6964102564
 20
187.0407692308
 30
0.0
 11
281.5589903846
 21
187.0407692308
 31
0.0
  0
LINE
  5
1FE
330
1F
100
AcDbEntity
  8
0
  6
Continuous
 62
     7
370
    25
100
AcDbLine
 10
281.6964102564
 20
185.918974359
 30
0.0
 11
281.6964102564
 21
187.0407692308
 31
0.0
  0
LINE
  5
1FF
330
1F
100
AcDbEntity
  8
0
  6
Continuous
 62
     7
370
    25
100
AcDbLine
 10
281.4173637821
 20
185.918974359
 30
0.0
 11
281.6964102564
 21
185.918974359
 31
0.0
  0
SPLINE
  5
200
330
1F
100
AcDbEntity
  8
0
  6
Continuous
 62
     7
370
    25
100
AcDbSpline
210
0.0
220
0.0
230
1.0
 70
     8
 71
     3
 72
    15
 73
    11
 74
     0
 42
0.000000001
 43
0.00000001
 40
0.0
 40
0.0
 40
0.0
 40
0.0
 40
0.133913028630893
 40
0.2646896559588101
 40
0.3915400417930332
 40
0.5158862190026835
 40
0.6377710995814648
 40
0.759066480783148
 40
0.8794477651408427
 40
1.0
 40
1.0
 40
1.0
 40
1.0
 10
266.1258974358975
 20
187.7881650640973
 30
0.0
 10
266.1250391823795
 20
187.7453712757941
 30
0.0
 10
266.1233427766546
 20
187.660785980256
 30
0.0
 10
266.1114019050205
 20
187.5361035238422
 30
0.0
 10
266.0910613166626
 20
187.4156577402762
 30
0.0
 10
266.0625228484482
 20
187.299763983537
 30
0.0
 10
266.0248020736428
 20
187.1884272278578
 30
0.0
 10
265.9802996427928
 20
187.0810129668983
 30
0.0
 10
265.9268810213732
 20
186.9781063702937
 30
0.0
 10
265.885222864023
 20
186.9133264189774
 30
0.0
 10
265.8643790064103
 20
186.8809134615332
 30
0.0
  0
SPLINE
  5
201
330
1F
100
AcDbEntity
  8
0
  6
Continuous
 62
     7
370
    25
100
AcDbSpline
210
0.0
220
0.0
230
1.0
 70
     8
 71
     3
 72
    23
 73
    19
 74
     0
 42
0.000000001
 43
0.00000001
 40
0.0
 40
0.0
 40
0.0
 40
0.0
 40
0.0584535664154601
 40
0.1146276609855018
 40
0.1702321950100985
 40
0.2255231021838469
 40
0.2819654635561908
 40
0.3400142395304966
 40
0.4005631686868683
 40
0.4646027466361499
 40
0.5302019989538966
 40
0.5951249231548972
 40
0.6604540332722014
 40
0.7257673506045499
 40
0.792436226463994
 40
0.8598404612346123
 40
0.9289428996454835
 40
0.9999999999999999
 40
0.9999999999999999
 40
0.9999999999999999
 40
0.9999999999999999
 10
265.1380168269231
 20
189.1048717948666
 30
0.0
 10
265.1736231042205
 20
189.1036638367223
 30
0.0
 10
265.2434471463326
 20
189.1012950263118
 30
0.0
 10
265.3457238721659
 20
189.0824362295304
 30
0.0
 10
265.4430396561505
 20
189.0518512822312
 30
0.0
 10
265.5349980521121
 20
189.0073487125742
 30
0.0
 10
265.6226169972108
 20
188.9520111713094
 30
0.0
 10
265.7041464963443
 20
188.8829461746507
 30
0.0
 10
265.7810944574974
 20
188.8024212516078
 30
0.0
 10
265.8516401357491
 20
188.7103462551345
 30
0.0
 10
265.9151599363115
 20
188.6102425782141
 30
0.0
 10
265.9718410952707
 20
188.5052226268295
 30
0.0
 10
266.0195246390558
 20
188.3959510095823
 30
0.0
 10
266.0579471912311
 20
188.282045858688
 30
0.0
 10
266.0893906258511
 20
188.1646450078144
 30
0.0
 10
266.1095485792607
 20
188.0424970938389
 30
0.0
 10
266.1238388087913
 20
187.9168089402868
 30
0.0
 10
266.1252048764784
 20
187.8314431924611
 30
0.0
 10
266.1258974358975
 20
187.7881650640973
 30
0.0
  0
SPLINE
  5
202
330
1F
100
AcDbEntity
  8
0
  6
Continuous
 62
     7
370
    25
100
AcDbSpline
210
0.0
220
0.0
230
1.0
 70
     8
 71
     3
 72
    23
 73
    19
 74
     0
 42
0.000000001
 43
0.00000001
 40
0.0
 40
0.0
 40
0.0
 40
0.0
 40
0.0711052897592328
 40
0.1402545919649233
 40
0.2077045388449967
 40
0.2743223363737837
 40
0.3398051421832659
 40
0.4051785571048965
 40
0.470145510643628
 40
0.53578925097036
 40
0.59987225919085
 40
0.6604622513351242
 40
0.7185503947469523
 40
0.7747074277431275
 40
0.8300358320268008
 40
0.8856780758563404
 40
0.9418902664950971
 40
1.0
 40
1.0
 40
1.0
 40
1.0
 10
264.1515384615385
 20
187.7881650640973
 30
0.0
 10
264.1522384084423
 20
187.8314411464735
 30
0.0
 10
264.1536190478817
 20
187.9168028586057
 30
0.0
 10
264.1678031609315
 20
188.0425204014576
 30
0.0
 10
264.1883413509823
 20
188.1645025128097
 30
0.0
 10
264.2183570994851
 20
188.2823164881036
 30
0.0
 10
264.2581741575798
 20
188.3957852687863
 30
0.0
 10
264.3055166938385
 20
188.5052482792186
 30
0.0
 10
264.3622975131699
 20
188.6102349824097
 30
0.0
 10
264.4257885437323
 20
188.7103507018264
 30
0.0
 10
264.4963487757478
 20
188.8024114394466
 30
0.0
 10
264.5732685285459
 20
188.8829785638929
 30
0.0
 10
264.6547405695776
 20
188.9517700067047
 30
0.0
 10
264.7418379296736
 20
189.0075547266695
 30
0.0
 10
264.8337155909063
 20
189.0518190442891
 30
0.0
 10
264.9310054235451
 20
189.0824453354727
 30
0.0
 10
265.0330586340485
 20
189.1012486610813
 30
0.0
 10
265.102645754695
 20
189.1036507932153
 30
0.0
 10
265.1380168269231
 20
189.1048717948666
 30
0.0
  0
SPLINE
  5
203
330
1F
100
AcDbEntity
  8
0
  6
Continuous
 62
     7
370
    25
100
AcDbSpline
210
0.0
220
0.0
230
1.0
 70
     8
 71
     3
 72
    15
 73
    11
 74
     0
 42
0.000000001
 43
0.00000001
 40
0.0
 40
0.0
 40
0.0
 40
0.0
 40
0.1202984850132145
 40
0.241074224091067
 40
0.3614413202027122
 40
0.483761807000798
 40
0.6085546661551545
 40
0.7351380451943512
 40
0.8656394013995393
 40
1.0
 40
1.0
 40
1.0
 40
1.0
 10
264.4130568910257
 20
186.8788100961486
 30
0.0
 10
264.3921738901529
 20
186.9112037497369
 30
0.0
 10
264.3503250403396
 20
186.9761195706086
 30
0.0
 10
264.2975243891793
 20
187.0793245565361
 30
0.0
 10
264.2522957298182
 20
187.1866568703758
 30
0.0
 10
264.2149598843628
 20
187.2983919648858
 30
0.0
 10
264.1864460029342
 20
187.4147371557959
 30
0.0
 10
264.1660249817675
 20
187.5354011794324
 30
0.0
 10
264.1540719646491
 20
187.6603179736748
 30
0.0
 10
264.152391126278
 20
187.7451374058352
 30
0.0
 10
264.1515384615385
 20
187.7881650640973
 30
0.0
  0
SPLINE
  5
204
330
1F
100
AcDbEntity
  8
0
  6
Continuous
 62
     7
370
    25
100
AcDbSpline
210
0.0
220
0.0
230
1.0
 70
     8
 71
     3
 72
    15
 73
    11
 74
     0
 42
0.000000001
 43
0.00000001
 40
0.0
 40
0.0
 40
0.0
 40
0.0
 40
0.1227883767207101
 40
0.2420419026190387
 40
0.3595959981897974
 40
0.4781937832622996
 40
0.5992978847341311
 40
0.7259941791302149
 40
0.8586764268039886
 40
1.0
 40
1.0
 40
1.0
 40
1.0
 10
265.1380168269231
 20
186.4574358974307
 30
0.0
 10
265.1021544762548
 20
186.4584803239223
 30
0.0
 10
265.0314621858283
 20
186.4605391097939
 30
0.0
 10
264.9282571618964
 20
186.481937112158
 30
0.0
 10
264.8298766218053
 20
186.5151602369443
 30
0.0
 10
264.7356234368766
 20
186.56057478202
 30
0.0
 10
264.6476477287779
 20
186.6218126233348
 30
0.0
 10
264.5630119281004
 20
186.6939002060762
 30
0.0
 10
264.4839660808236
 20
186.7804954796193
 30
0.0
 10
264.4371850654767
 20
186.8453567140769
 30
0.0
 10
264.4130568910257
 20
186.8788100961486
 30
0.0
  0
SPLINE
  5
205
330
1F
100
AcDbEntity
  8
0
  6
Continuous
 62
     7
370
    25
100
AcDbSpline
210
0.0
220
0.0
230
1.0
 70
     8
 71
     3
 72
    15
 73
    11
 74
     0
 42
0.000000001
 43
0.00000001
 40
0.0
 40
0.0
 40
0.0
 40
0.0
 40
0.1415571220414976
 40
0.2743999240101093
 40
0.4006515666663042
 40
0.5220693473863374
 40
0.6406795238625569
 40
0.7586531087856785
 40
0.877564204056685
 40
1.0
 40
1.0
 40
1.0
 40
1.0
 10
265.8643790064103
 20
186.8809134615332
 30
0.0
 10
265.8403584473277
 20
186.8471253805355
 30
0.0
 10
265.7937960455785
 20
186.7816292279963
 30
0.0
 10
265.7134261617029
 20
186.6959009043979
 30
0.0
 10
265.629997495104
 20
186.6218937958342
 30
0.0
 10
265.5409372313125
 20
186.5617357850216
 30
0.0
 10
265.4469180419288
 20
186.5147735639573
 30
0.0
 10
265.3479282559671
 20
186.4821364151318
 30
0.0
 10
265.2445886307448
 20
186.4604991122602
 30
0.0
 10
265.1738849539304
 20
186.458466862232
 30
0.0
 10
265.1380168269231
 20
186.4574358974307
 30
0.0
  0
LINE
  5
206
330
1F
100
AcDbEntity
  8
0
  6
Continuous
 62
     7
370
    25
100
AcDbLine
 10
267.9207692308
 20
189.06
 30
0.0
 11
268.19
 21
189.06
 31
0.0
  0
LINE
  5
207
330
1F
100
AcDbEntity
  8
0
  6
Continuous
 62
     7
370
    25
100
AcDbLine
 10
267.9207692308
 20
188.2004246795
 30
0.0
 11
267.9207692308
 21
189.06
 31
0.0
  0
SPLINE
  5
208
330
1F
100
AcDbEntity
  8
0
  6
Continuous
 62
     7
370
    25
100
AcDbSpline
210
0.0
220
0.0
230
1.0
 70
     8
 71
     3
 72
    15
 73
    11
 74
     0
 42
0.000000001
 43
0.00000001
 40
0.0
 40
0.0
 40
0.0
 40
0.0
 40
0.0702314526823681
 40
0.1560455897099211
 40
0.2576441617869801
 40
0.3749772325838975
 40
0.5073976026545337
 40
0.655674765994488
 40
0.8198751583302869
 40
1.0
 40
1.0
 40
1.0
 40
1.0
 10
267.878701923077
 20
187.3226201923025
 30
0.0
 10
267.8821879655839
 20
187.3429229618867
 30
0.0
 10
267.8899335202885
 20
187.3880332014091
 30
0.0
 10
267.8974857149939
 20
187.4632417116678
 30
0.0
 10
267.9057054891445
 20
187.5522284256425
 30
0.0
 10
267.9104304789306
 20
187.6551699699355
 30
0.0
 10
267.9159624190731
 20
187.7717559861518
 30
0.0
 10
267.9180024134041
 20
187.9022121589809
 30
0.0
 10
267.920508588387
 20
188.04663577986
 30
0.0
 10
267.9206797119189
 20
188.1476051596081
 30
0.0
 10
267.9207692307693
 20
188.200424679482
 30
0.0
  0
SPLINE
  5
209
330
1F
100
AcDbEntity
  8
0
  6
Continuous
 62
     7
370
    25
100
AcDbSpline
210
0.0
220
0.0
230
1.0
 70
     8
 71
     3
 72
    15
 73
    11
 74
     0
 42
0.000000001
 43
0.00000001
 40
0.0
 40
0.0
 40
0.0
 40
0.0
 40
0.0800532498648633
 40
0.1649280635424374
 40
0.2611351287351749
 40
0.3718807979218065
 40
0.4990568741742062
 40
0.6442917452704156
 40
0.8112367143696522
 40
1.0
 40
1.0
 40
1.0
 40
1.0
 10
267.4965905448718
 20
186.7715384615333
 30
0.0
 10
267.5157981875529
 20
186.7732200960122
 30
0.0
 10
267.555370338814
 20
186.7766846489025
 30
0.0
 10
267.6124341303397
 20
186.804808582912
 30
0.0
 10
267.6674918662345
 20
186.8480059973407
 30
0.0
 10
267.7208824728671
 20
186.9079666341926
 30
0.0
 10
267.7708519360245
 20
186.9851670726366
 30
0.0
 10
267.8135404466039
 20
187.0814432911567
 30
0.0
 10
267.8515436130476
 20
187.1952306560609
 30
0.0
 10
267.8692863862614
 20
187.2784554093278
 30
0.0
 10
267.878701923077
 20
187.3226201923025
 30
0.0
  0
SPLINE
  5
20A
330
1F
100
AcDbEntity
  8
0
  6
Continuous
 62
     7
370
    25
100
AcDbSpline
210
0.0
220
0.0
230
1.0
 70
     8
 71
     3
 72
    11
 73
     7
 74
     0
 42
0.000000001
 43
0.00000001
 40
0.0
 40
0.0
 40
0.0
 40
0.0
 40
0.3033689687410947
 40
0.5703085488773327
 40
0.799948725014632
 40
1.0
 40
1.0
 40
1.0
 40
1.0
 10
267.3759975961539
 20
186.8171113781999
 30
0.0
 10
267.387354360613
 20
186.8103951650502
 30
0.0
 10
267.4087041377028
 20
186.7977692402853
 30
0.0
 10
267.4400617730993
 20
186.7826233353868
 30
0.0
 10
267.4692100830832
 20
186.7735081234534
 30
0.0
 10
267.4878925543061
 20
186.7721641668603
 30
0.0
 10
267.4965905448718
 20
186.7715384615333
 30
0.0
  0
LINE
  5
20B
330
1F
100
AcDbEntity
  8
0
  6
Continuous
 62
     7
370
    25
100
AcDbLine
 10
267.2476923077
 20
186.5450761218
 30
0.0
 11
267.3759975962
 21
186.8171113782
 31
0.0
  0
SPLINE
  5
20C
330
1F
100
AcDbEntity
  8
0
  6
Continuous
 62
     7
370
    25
100
AcDbSpline
210
0.0
220
0.0
230
1.0
 70
     8
 71
     3
 72
    11
 73
     7
 74
     0
 42
0.000000001
 43
0.00000001
 40
0.0
 40
0.0
 40
0.0
 40
0.0
 40
0.2148402946462969
 40
0.4486159012135009
 40
0.7073317400365176
 40
1.0
 40
1.0
 40
1.0
 40
1.0
 10
267.4524198717949
 20
186.4574358974307
 30
0.0
 10
267.4361783911662
 20
186.458660584249
 30
0.0
 10
267.4022639596051
 20
186.4612178977252
 30
0.0
 10
267.3511769988111
 20
186.4785523463914
 30
0.0
 10
267.2985967385268
 20
186.5064936903908
 30
0.0
 10
267.2653430032236
 20
186.5316979788989
 30
0.0
 10
267.2476923076924
 20
186.5450761217897
 30
0.0
  0
SPLINE
  5
20D
330
1F
100
AcDbEntity
  8
0
  6
Continuous
 62
     7
370
    25
100
AcDbSpline
210
0.0
220
0.0
230
1.0
 70
     8
 71
     3
 72
    15
 73
    11
 74
     0
 42
0.000000001
 43
0.00000001
 40
0.0
 40
0.0
 40
0.0
 40
0.0
 40
0.17609690315901
 40
0.332515316640387
 40
0.4708263596311092
 40
0.5932317544188975
 40
0.7042836311773923
 40
0.8076719719940594
 40
0.9045282452096379
 40
1.0
 40
1.0
 40
1.0
 40
1.0
 10
267.9207692307693
 20
186.8788100961486
 30
0.0
 10
267.903260682165
 20
186.8439681172884
 30
0.0
 10
267.8702001315328
 20
186.7781776835826
 30
0.0
 10
267.8160132959014
 20
186.6888579312655
 30
0.0
 10
267.7587902116834
 20
186.6161553104019
 30
0.0
 10
267.7011847378977
 20
186.5569536677667
 30
0.0
 10
267.6405246070003
 20
186.513020364094
 30
0.0
 10
267.5794455934317
 20
186.4805646193912
 30
0.0
 10
267.5161917845042
 20
186.4613201296309
 30
0.0
 10
267.4735749135171
 20
186.4587244128721
 30
0.0
 10
267.4524198717949
 20
186.4574358974307
 30
0.0
  0
LINE
  5
20E
330
1F
100
AcDbEntity
  8
0
  6
Continuous
 62
     7
370
    25
100
AcDbLine
 10
267.9207692308
 20
186.5023076923
 30
0.0
 11
267.9207692308
 21
186.8788100961
 31
0.0
  0
LINE
  5
20F
330
1F
100
AcDbEntity
  8
0
  6
Continuous
 62
     7
370
    25
100
AcDbLine
 10
268.19
 20
186.5023076923
 30
0.0
 11
267.9207692308
 21
186.5023076923
 31
0.0
  0
LINE
  5
210
330
1F
100
AcDbEntity
  8
0
  6
Continuous
 62
     7
370
    25
100
AcDbLine
 10
268.19
 20
189.06
 30
0.0
 11
268.19
 21
186.5023076923
 31
0.0
  0
SPLINE
  5
211
330
1F
100
AcDbEntity
  8
0
  6
Continuous
 62
     7
370
    25
100
AcDbSpline
210
0.0
220
0.0
230
1.0
 70
     8
 71
     3
 72
    23
 73
    19
 74
     0
 42
0.000000001
 43
0.00000001
 40
0.0
 40
0.0
 40
0.0
 40
0.0
 40
0.0753260105316408
 40
0.1472786674881759
 40
0.2168916655328414
 40
0.2846969602155745
 40
0.3502392851236693
 40
0.4146526650721151
 40
0.4787330229984976
 40
0.5424306524100238
 40
0.60485486160406
 40
0.6639027474570299
 40
0.7207203342229941
 40
0.7765910592953197
 40
0.831316111860114
 40
0.8865113499679349
 40
0.9425211560077702
 40
0.9999999999999999
 40
0.9999999999999999
 40
0.9999999999999999
 40
0.9999999999999999
 10
270.5682051282052
 20
187.128409455123
 30
0.0
 10
270.5678938706271
 20
187.1047834544587
 30
0.0
 10
270.5672852946381
 20
187.0585895053652
 30
0.0
 10
270.5598044982137
 20
186.9909256936842
 30
0.0
 10
270.5489576627912
 20
186.9261386803371
 30
0.0
 10
270.5327369324139
 20
186.8645205565854
 30
0.0
 10
270.5122898418782
 20
186.8059322573417
 30
0.0
 10
270.4877734506513
 20
186.7501828402475
 30
0.0
 10
270.4583929927338
 20
186.6974492857927
 30
0.0
 10
270.4239507841309
 20
186.6486730263195
 30
0.0
 10
270.3866942180124
 20
186.6040404169544
 30
0.0
 10
270.3463615596616
 20
186.5651997109942
 30
0.0
 10
270.3040380154719
 20
186.5317520081554
 30
0.0
 10
270.2591356893063
 20
186.5043375728764
 30
0.0
 10
270.2116192604557
 20
186.4828408070487
 30
0.0
 10
270.1615058037944
 20
186.4684926569451
 30
0.0
 10
270.1093456345585
 20
186.4587822432813
 30
0.0
 10
270.073725634989
 20
186.4578885355392
 30
0.0
 10
270.0556850961539
 20
186.4574358974307
 30
0.0
  0
SPLINE
  5
212
330
1F
100
AcDbEntity
  8
0
  6
Continuous
 62
     7
370
    25
100
AcDbSpline
210
0.0
220
0.0
230
1.0
 70
     8
 71
     3
 72
    11
 73
     7
 74
     0
 42
0.000000001
 43
0.00000001
 40
0.0
 40
0.0
 40
0.0
 40
0.0
 40
0.2378515957562004
 40
0.4828882020577387
 40
0.7342204840633876
 40
1.0
 40
1.0
 40
1.0
 40
1.0
 10
270.481967147436
 20
187.5224399038409
 30
0.0
 10
270.4954551581617
 20
187.4930807168136
 30
0.0
 10
270.5228386248483
 20
187.4334754617282
 30
0.0
 10
270.5481586592815
 20
187.3367999436591
 30
0.0
 10
270.5651723784304
 20
187.2346505038428
 30
0.0
 10
270.5671755564717
 20
187.1644766511702
 30
0.0
 10
270.5682051282052
 20
187.128409455123
 30
0.0
  0
SPLINE
  5
213
330
1F
100
AcDbEntity
  8
0
  6
Continuous
 62
     7
370
    25
100
AcDbSpline
210
0.0
220
0.0
230
1.0
 70
     8
 71
     3
 72
    11
 73
     7
 74
     0
 42
0.000000001
 43
0.00000001
 40
0.0
 40
0.0
 40
0.0
 40
0.0
 40
0.2930608017358928
 40
0.555606480264207
 40
0.790276485058686
 40
1.0
 40
1.0
 40
1.0
 40
1.0
 10
270.1559455128206
 20
187.8715985576871
 30
0.0
 10
270.1932332091661
 20
187.8428433495956
 30
0.0
 10
270.263925999198
 20
187.7883270858633
 30
0.0
 10
270.3553412925646
 20
187.7001728665859
 30
0.0
 10
270.4299858486576
 20
187.6139391273634
 30
0.0
 10
270.465300862791
 20
187.551776456406
 30
0.0
 10
270.481967147436
 20
187.5224399038409
 30
0.0
  0
SPLINE
  5
214
330
1F
100
AcDbEntity
  8
0
  6
Continuous
 62
     7
370
    25
100
AcDbSpline
210
0.0
220
0.0
230
1.0
 70
     8
 71
     3
 72
    15
 73
    11
 74
     0
 42
0.000000001
 43
0.00000001
 40
0.0
 40
0.0
 40
0.0
 40
0.0
 40
0.0824207947349967
 40
0.176633343250123
 40
0.2842905535331919
 40
0.4020137168122286
 40
0.5326884817388805
 40
0.6752658041830295
 40
0.8310117703229102
 40
1.0
 40
1.0
 40
1.0
 40
1.0
 10
269.869186698718
 20
188.1352203525589
 30
0.0
 10
269.8751280526497
 20
188.1262428708778
 30
0.0
 10
269.8878607763726
 20
188.107003519833
 30
0.0
 10
269.9113485688475
 20
188.0781801967365
 30
0.0
 10
269.9400433422457
 20
188.047874103705
 30
0.0
 10
269.9731149367619
 20
188.015174888594
 30
0.0
 10
270.0118102098619
 20
187.981836571704
 30
0.0
 10
270.0555118894479
 20
187.946803585922
 30
0.0
 10
270.1038876493269
 20
187.9096147332396
 30
0.0
 10
270.1381274722814
 20
187.8846104969347
 30
0.0
 10
270.1559455128206
 20
187.8715985576871
 30
0.0
  0
SPLINE
  5
215
330
1F
100
AcDbEntity
  8
0
  6
Continuous
 62
     7
370
    25
100
AcDbSpline
210
0.0
220
0.0
230
1.0
 70
     8
 71
     3
 72
    11
 73
     7
 74
     0
 42
0.000000001
 43
0.00000001
 40
0.0
 40
0.0
 40
0.0
 40
0.0
 40
0.2615996037893672
 40
0.5133117159316173
 40
0.7566480987622393
 40
1.0
 40
1.0
 40
1.0
 40
1.0
 10
269.8053846153847
 20
188.3792107371743
 30
0.0
 10
269.8062017113976
 20
188.3569476965774
 30
0.0
 10
269.8078050202344
 20
188.3132630754806
 30
0.0
 10
269.8201313231353
 20
188.2499057399366
 30
0.0
 10
269.8393297011472
 20
188.1898002631339
 30
0.0
 10
269.8592341546384
 20
188.1534140428176
 30
0.0
 10
269.869186698718
 20
188.1352203525589
 30
0.0
  0
SPLINE
  5
216
330
1F
100
AcDbEntity
  8
0
  6
Continuous
 62
     7
370
    25
100
AcDbSpline
210
0.0
220
0.0
230
1.0
 70
     8
 71
     3
 72
    15
 73
    11
 74
     0
 42
0.000000001
 43
0.00000001
 40
0.0
 40
0.0
 40
0.0
 40
0.0
 40
0.1139004996368448
 40
0.2258837664673372
 40
0.341048882407706
 40
0.4679191918787119
 40
0.5991001625089272
 40
0.7301043541882836
 40
0.8611748659149179
 40
1.0
 40
1.0
 40
1.0
 40
1.0
 10
270.1342107371795
 20
188.790769230764
 30
0.0
 10
270.1120202647538
 20
188.7893489860427
 30
0.0
 10
270.0680128415451
 20
188.7865324029024
 30
0.0
 10
270.0055231833566
 20
188.7617836910266
 30
0.0
 10
269.9483617878743
 20
188.7226613793619
 30
0.0
 10
269.8994563614768
 20
188.6685068970538
 30
0.0
 10
269.8573141940142
 20
188.6054459081011
 30
0.0
 10
269.8271552752535
 20
188.5348352443303
 30
0.0
 10
269.8090360261002
 20
188.4586370782484
 30
0.0
 10
269.8066248449182
 20
188.4061885004587
 30
0.0
 10
269.8053846153847
 20
188.3792107371743
 30
0.0
  0
SPLINE
  5
217
330
1F
100
AcDbEntity
  8
0
  6
Continuous
 62
     7
370
    25
100
AcDbSpline
210
0.0
220
0.0
230
1.0
 70
     8
 71
     3
 72
    15
 73
    11
 74
     0
 42
0.000000001
 43
0.00000001
 40
0.0
 40
0.0
 40
0.0
 40
0.0
 40
0.1608119128800073
 40
0.3092745633346157
 40
0.4445512834084379
 40
0.5700300542214144
 40
0.6851416386399751
 40
0.7931599571346556
 40
0.898087329986589
 40
1.0
 40
1.0
 40
1.0
 40
1.0
 10
270.503701923077
 20
188.5215384615333
 30
0.0
 10
270.4896005674309
 20
188.5428573052981
 30
0.0
 10
270.4624807444541
 20
188.5838578504573
 30
0.0
 10
270.4173023566528
 20
188.6382433609429
 30
0.0
 10
270.3725448753155
 20
188.6855165051178
 30
0.0
 10
270.3261625646256
 20
188.7233272346896
 30
0.0
 10
270.279582911298
 20
188.7535558740696
 30
0.0
 10
270.2319130630213
 20
188.7750292956022
 30
0.0
 10
270.183297328199
 20
188.7882299871633
 30
0.0
 10
270.1504131715032
 20
188.7899310807353
 30
0.0
 10
270.1342107371795
 20
188.790769230764
 30
0.0
  0
LINE
  5
218
330
1F
100
AcDbEntity
  8
0
  6
Continuous
 62
     7
370
    25
100
AcDbLine
 10
270.6579487179
 20
188.7585176282
 30
0.0
 11
270.5037019231
 21
188.5215384615
 31
0.0
  0
SPLINE
  5
219
330
1F
100
AcDbEntity
  8
0
  6
Continuous
 62
     7
370
    25
100
AcDbSpline
210
0.0
220
0.0
230
1.0
 70
     8
 71
     3
 72
    15
 73
    11
 74
     0
 42
0.000000001
 43
0.00000001
 40
0.0
 40
0.0
 40
0.0
 40
0.0
 40
0.1173347258174046
 40
0.235158077604656
 40
0.3547265950530691
 40
0.4792021570866554
 40
0.6057189201383739
 40
0.7343223661269047
 40
0.8647328604952709
 40
1.0
 40
1.0
 40
1.0
 40
1.0
 10
270.1040625
 20
189.1048717948666
 30
0.0
 10
270.1308024575179
 20
189.1038493678543
 30
0.0
 10
270.1843937278033
 20
189.1018002560589
 30
0.0
 10
270.2634648716125
 20
189.0833091478119
 30
0.0
 10
270.3406634775503
 20
189.0541406021011
 30
0.0
 10
270.4154258692595
 20
189.0144835390082
 30
0.0
 10
270.4855193783615
 20
188.9635465753524
 30
0.0
 10
270.5501734698529
 20
188.9039324439279
 30
0.0
 10
270.6082880879756
 20
188.8351655513916
 30
0.0
 10
270.6411946615088
 20
188.7843764147649
 30
0.0
 10
270.6579487179487
 20
188.7585176281999
 30
0.0
  0
SPLINE
  5
21A
330
1F
100
AcDbEntity
  8
0
  6
Continuous
 62
     7
370
    25
100
AcDbSpline
210
0.0
220
0.0
230
1.0
 70
     8
 71
     3
 72
    23
 73
    19
 74
     0
 42
0.000000001
 43
0.00000001
 40
0.0
 40
0.0
 40
0.0
 40
0.0
 40
0.0731860793804806
 40
0.1439380962571288
 40
0.2128680358415008
 40
0.279390866004093
 40
0.3455785142024838
 40
0.4101423021725919
 40
0.4750708502050019
 40
0.5398721426855727
 40
0.6033399105388496
 40
0.6631970520447072
 40
0.7206301299358902
 40
0.7762623991620141
 40
0.8314103423811935
 40
0.8866745790274686
 40
0.9423398106438212
 40
1.0
 40
1.0
 40
1.0
 40
1.0
 10
269.5361538461539
 20
188.3658894230717
 30
0.0
 10
269.5368296802136
 20
188.3911373846296
 30
0.0
 10
269.5381588710756
 20
188.4407935972834
 30
0.0
 10
269.5445692869445
 20
188.5140994448578
 30
0.0
 10
269.5585202851457
 20
188.5839617514781
 30
0.0
 10
269.5756559430125
 20
188.6514851762818
 30
0.0
 10
269.5991322550634
 20
188.7154674450577
 30
0.0
 10
269.6261007718893
 20
188.7775022455565
 30
0.0
 10
269.6604178368855
 20
188.8352358437512
 30
0.0
 10
269.6975924937577
 20
188.8906595158166
 30
0.0
 10
269.7393367859611
 20
188.9405279300469
 30
0.0
 10
269.7835603506805
 20
188.9847036210311
 30
0.0
 10
269.830954146743
 20
189.0212061991828
 30
0.0
 10
269.8803988232715
 20
189.0518185690203
 30
0.0
 10
269.932561517271
 20
189.0759663179669
 30
0.0
 10
269.9875309581057
 20
189.0927278221652
 30
0.0
 10
270.0450345063564
 20
189.1027814132832
 30
0.0
 10
270.0841569343547
 20
189.1041668712318
 30
0.0
 10
270.1040625
 20
189.1048717948666
 30
0.0
  0
SPLINE
  5
21B
330
1F
100
AcDbEntity
  8
0
  6
Continuous
 62
     7
370
    25
100
AcDbSpline
210
0.0
220
0.0
230
1.0
 70
     8
 71
     3
 72
    11
 73
     7
 74
     0
 42
0.000000001
 43
0.00000001
 40
0.0
 40
0.0
 40
0.0
 40
0.0
 40
0.2405505457673274
 40
0.4853628171088958
 40
0.7371956021607876
 40
1.0
 40
1.0
 40
1.0
 40
1.0
 10
269.6244951923077
 20
187.970456730764
 30
0.0
 10
269.6108918447231
 20
188.0003139352859
 30
0.0
 10
269.5834441451773
 20
188.0605573109619
 30
0.0
 10
269.5556577825034
 20
188.1574570744357
 30
0.0
 10
269.5394066597729
 20
188.2599305453154
 30
0.0
 10
269.5372534190936
 20
188.3300713503642
 30
0.0
 10
269.5361538461539
 20
188.3658894230717
 30
0.0
  0
SPLINE
  5
21C
330
1F
100
AcDbEntity
  8
0
  6
Continuous
 62
     7
370
    25
100
AcDbSpline
210
0.0
220
0.0
230
1.0
 70
     8
 71
     3
 72
    11
 73
     7
 74
     0
 42
0.000000001
 43
0.00000001
 40
0.0
 40
0.0
 40
0.0
 40
0.0
 40
0.2960922483507055
 40
0.559535072046526
 40
0.7929267772190428
 40
1.0
 40
1.0
 40
1.0
 40
1.0
 10
269.9652403846155
 20
187.6114823717897
 30
0.0
 10
269.9260744258495
 20
187.6413861165133
 30
0.0
 10
269.8520612502871
 20
187.697896187451
 30
0.0
 10
269.7563497520871
 20
187.7887857179808
 30
0.0
 10
269.6788430539158
 20
187.877250298476
 30
0.0
 10
269.6418748429764
 20
187.9406506779532
 30
0.0
 10
269.6244951923077
 20
187.970456730764
 30
0.0
  0
SPLINE
  5
21D
330
1F
100
AcDbEntity
  8
0
  6
Continuous
 62
     7
370
    25
100
AcDbSpline
210
0.0
220
0.0
230
1.0
 70
     8
 71
     3
 72
    11
 73
     7
 74
     0
 42
0.000000001
 43
0.00000001
 40
0.0
 40
0.0
 40
0.0
 40
0.0
 40
0.1873385624834966
 40
0.4164632646852155
 40
0.6850378342027894
 40
1.0
 40
1.0
 40
1.0
 40
1.0
 10
270.2344711538462
 20
187.3478605769179
 30
0.0
 10
270.221440082059
 20
187.367666114066
 30
0.0
 10
270.1924713389078
 20
187.4116948423226
 30
0.0
 10
270.1320432818937
 20
187.4741715773883
 30
0.0
 10
270.0556473972413
 20
187.5427568635147
 30
0.0
 10
269.9969318963854
 20
187.5873911515277
 30
0.0
 10
269.9652403846155
 20
187.6114823717897
 30
0.0
  0
SPLINE
  5
21E
330
1F
100
AcDbEntity
  8
0
  6
Continuous
 62
     7
370
    25
100
AcDbSpline
210
0.0
220
0.0
230
1.0
 70
     8
 71
     3
 72
    11
 73
     7
 74
     0
 42
0.000000001
 43
0.00000001
 40
0.0
 40
0.0
 40
0.0
 40
0.0
 40
0.2481893999562398
 40
0.4921008036632434
 40
0.7425011035992224
 40
1.0
 40
1.0
 40
1.0
 40
1.0
 10
270.2989743589744
 20
187.1157892628153
 30
0.0
 10
270.2981346508988
 20
187.1359497398306
 30
0.0
 10
270.2964697086454
 20
187.1759231913287
 30
0.0
 10
270.2839470746401
 20
187.2351395901317
 30
0.0
 10
270.2637217933396
 20
187.2929543705492
 30
0.0
 10
270.2443117942398
 20
187.329388767699
 30
0.0
 10
270.2344711538462
 20
187.3478605769179
 30
0.0
  0
SPLINE
  5
21F
330
1F
100
AcDbEntity
  8
0
  6
Continuous
 62
     7
370
    25
100
AcDbSpline
210
0.0
220
0.0
230
1.0
 70
     8
 71
     3
 72
    15
 73
    11
 74
     0
 42
0.000000001
 43
0.00000001
 40
0.0
 40
0.0
 40
0.0
 40
0.0
 40
0.1098636651767507
 40
0.2182444337769605
 40
0.3332090453642884
 40
0.4606210743843278
 40
0.5943461779142076
 40
0.7251730607788685
 40
0.8596109379290111
 40
1.0
 40
1.0
 40
1.0
 40
1.0
 10
270.038858173077
 20
186.7715384615333
 30
0.0
 10
270.0563666688717
 20
186.7726335704062
 30
0.0
 10
270.0911473376659
 20
186.7748090068028
 30
0.0
 10
270.1403785555933
 20
186.7963544134753
 30
0.0
 10
270.1856110455526
 20
186.8293803533654
 30
0.0
 10
270.2243336181593
 20
186.8752984266094
 30
0.0
 10
270.2575547327496
 20
186.9280510709689
 30
0.0
 10
270.2819598856561
 20
186.9867649868233
 30
0.0
 10
270.2961166231379
 20
187.0499126424093
 30
0.0
 10
270.2980081272962
 20
187.0935156584204
 30
0.0
 10
270.2989743589744
 20
187.1157892628153
 30
0.0
  0
SPLINE
  5
220
330
1F
100
AcDbEntity
  8
0
  6
Continuous
 62
     7
370
    25
100
AcDbSpline
210
0.0
220
0.0
230
1.0
 70
     8
 71
     3
 72
    15
 73
    11
 74
     0
 42
0.000000001
 43
0.00000001
 40
0.0
 40
0.0
 40
0.0
 40
0.0
 40
0.1694806456055553
 40
0.3231953273728573
 40
0.4628937145648369
 40
0.5897341762153736
 40
0.7039885362332959
 40
0.8088588217278707
 40
0.9069757015742342
 40
0.9999999999999999
 40
0.9999999999999999
 40
0.9999999999999999
 40
0.9999999999999999
 10
269.6939062500001
 20
187.040769230764
 30
0.0
 10
269.7083733646692
 20
187.0195513651032
 30
0.0
 10
269.7359617883793
 20
186.9790894290874
 30
0.0
 10
269.7794820600196
 20
186.9240165293276
 30
0.0
 10
269.8228898242886
 20
186.8773140823526
 30
0.0
 10
269.8663725483439
 20
186.8392694618019
 30
0.0
 10
269.90938204376
 20
186.8090291325355
 30
0.0
 10
269.9525768704901
 20
186.7876373007895
 30
0.0
 10
269.9957550827081
 20
186.7741429403515
 30
0.0
 10
270.0247479624063
 20
186.7723910626924
 30
0.0
 10
270.038858173077
 20
186.7715384615333
 30
0.0
  0
LINE
  5
221
330
1F
100
AcDbEntity
  8
0
  6
Continuous
 62
     7
370
    25
100
AcDbLine
 10
269.5361538462
 20
186.821318109
 30
0.0
 11
269.69390625
 21
187.0407692308
 31
0.0
  0
SPLINE
  5
222
330
1F
100
AcDbEntity
  8
0
  6
Continuous
 62
     7
370
    25
100
AcDbSpline
210
0.0
220
0.0
230
1.0
 70
     8
 71
     3
 72
    15
 73
    11
 74
     0
 42
0.000000001
 43
0.00000001
 40
0.0
 40
0.0
 40
0.0
 40
0.0
 40
0.0984604691555423
 40
0.199833520778076
 40
0.3081983786539828
 40
0.4235894954476186
 40
0.549644712063711
 40
0.6868906688579443
 40
0.836440056304152
 40
1.0
 40
1.0
 40
1.0
 40
1.0
 10
270.0556850961539
 20
186.4574358974307
 30
0.0
 10
270.0340787307258
 20
186.4585448180907
 30
0.0
 10
269.9902268568545
 20
186.4607954626555
 30
0.0
 10
269.9246020165507
 20
186.4787653398262
 30
0.0
 10
269.8592732635475
 20
186.5077696502889
 30
0.0
 10
269.7942461206314
 20
186.5488070117989
 30
0.0
 10
269.7289500075655
 20
186.6002762836902
 30
0.0
 10
269.6638339071164
 20
186.6632860142425
 30
0.0
 10
269.5982060738581
 20
186.7371981719091
 30
0.0
 10
269.557445881125
 20
186.7924539616546
 30
0.0
 10
269.5361538461539
 20
186.8213181089692
 30
0.0
  0
SPLINE
  5
223
330
1F
100
AcDbEntity
  8
0
  6
Continuous
 62
     7
370
    25
100
AcDbSpline
210
0.0
220
0.0
230
1.0
 70
     8
 71
     3
 72
    31
 73
    27
 74
     0
 42
0.000000001
 43
0.00000001
 40
0.0
 40
0.0
 40
0.0
 40
0.0
 40
0.0526126802056954
 40
0.1036031167667219
 40
0.1530571174088829
 40
0.2013926076566472
 40
0.2484570034735288
 40
0.2945222699598373
 40
0.3395725317777911
 40
0.3837676865476135
 40
0.4266670683404514
 40
0.4676140206319795
 40
0.5072579329192572
 40
0.5447167913662566
 40
0.5811749330520783
 40
0.6163866672816741
 40
0.6505863011380838
 40
0.6839786196734124
 40
0.7174965917798418
 40
0.7522100407148946
 40
0.7882197311948554
 40
0.8261834300005805
 40
0.8660591324464529
 40
0.9082794507670167
 40
0.952788114915838
 40
1.0
 40
1.0
 40
1.0
 40
1.0
 10
274.6066666666667
 20
187.3541706730717
 30
0.0
 10
274.6072365099733
 20
187.3974184798026
 30
0.0
 10
274.6083586262086
 20
187.4825806033274
 30
0.0
 10
274.6162889031893
 20
187.6081885005723
 30
0.0
 10
274.6286818360593
 20
187.7298817209237
 30
0.0
 10
274.6467057381788
 20
187.8476482602558
 30
0.0
 10
274.6710604563099
 20
187.9613882011904
 30
0.0
 10
274.6985591871343
 20
188.0716255208103
 30
0.0
 10
274.7321956607999
 20
188.1777385394276
 30
0.0
 10
274.7717943622342
 20
188.278926230508
 30
0.0
 10
274.8138738812437
 20
188.3754474360078
 30
0.0
 10
274.8605645452832
 20
188.4656516577953
 30
0.0
 10
274.9098385036085
 20
188.5493078002719
 30
0.0
 10
274.9622757331845
 20
188.6265974187751
 30
0.0
 10
275.017264487043
 20
188.6975834878132
 30
0.0
 10
275.0765120348789
 20
188.7614590572729
 30
0.0
 10
275.138314710154
 20
188.8191823441658
 30
0.0
 10
275.2033014404344
 20
188.8711542229078
 30
0.0
 10
275.2735076170049
 20
188.9167210671933
 30
0.0
 10
275.3502813659219
 20
188.9551221362644
 30
0.0
 10
275.4337043728938
 20
188.9874098074458
 30
0.0
 10
275.5235809326732
 20
189.0137734399462
 30
0.0
 10
275.6200476025308
 20
189.0350458255791
 30
0.0
 10
275.7232221726128
 20
189.0491565036222
 30
0.0
 10
275.8329813202955
 20
189.0587376206631
 30
0.0
 10
275.9083939365121
 20
189.0595710194746
 30
0.0
 10
275.9472115384616
 20
189.0599999999948
 30
0.0
  0
SPLINE
  5
224
330
1F
100
AcDbEntity
  8
0
  6
Continuous
 62
     7
370
    25
100
AcDbSpline
210
0.0
220
0.0
230
1.0
 70
     8
 71
     3
 72
    23
 73
    19
 74
     0
 42
0.000000001
 43
0.00000001
 40
0.0
 40
0.0
 40
0.0
 40
0.0
 40
0.0527446278503213
 40
0.105542215259058
 40
0.158585431290397
 40
0.2123829694526224
 40
0.2678742077822598
 40
0.3246266005632452
 40
0.3838646517005121
 40
0.445140204579361
 40
0.5084359349124985
 40
0.5728754848899744
 40
0.6389405698618034
 40
0.7066344008963832
 40
0.7765174185332936
 40
0.848742099549006
 40
0.9231842492874464
 40
1.0
 40
1.0
 40
1.0
 40
1.0
 10
275.3975320512821
 20
185.6862019230717
 30
0.0
 10
275.3670525051489
 20
185.7017421071414
 30
0.0
 10
275.3060628091344
 20
185.7328380787899
 30
0.0
 10
275.2204008327643
 20
185.7901320405024
 30
0.0
 10
275.1403342134386
 20
185.8558490280284
 30
0.0
 10
275.0645263984293
 20
185.9290611709704
 30
0.0
 10
274.995044739773
 20
186.0114317600704
 30
0.0
 10
274.9290239951567
 20
186.1009788047589
 30
0.0
 10
274.8691076480339
 20
186.1991903123135
 30
0.0
 10
274.8145120690592
 20
186.3051964020274
 30
0.0
 10
274.7658337470761
 20
186.417714095499
 30
0.0
 10
274.7226893091701
 20
186.53579415261
 30
0.0
 10
274.6873109368282
 20
186.659398603709
 30
0.0
 10
274.6578024680921
 20
186.7881140585823
 30
0.0
 10
274.6345260663826
 20
186.9221891242007
 30
0.0
 10
274.6188686358041
 20
187.0617408253918
 30
0.0
 10
274.6087359362529
 20
187.206318331886
 30
0.0
 10
274.607363601608
 20
187.3043736512551
 30
0.0
 10
274.6066666666667
 20
187.3541706730717
 30
0.0
  0
SPLINE
  5
225
330
1F
100
AcDbEntity
  8
0
  6
Continuous
 62
     7
370
    25
100
AcDbSpline
210
0.0
220
0.0
230
1.0
 70
     8
 71
     3
 72
    15
 73
    11
 74
     0
 42
0.000000001
 43
0.00000001
 40
0.0
 40
0.0
 40
0.0
 40
0.0
 40
0.1636057387306497
 40
0.3149441522366011
 40
0.4558730783220045
 40
0.584995238979437
 40
0.704119521550272
 40
0.8121271747632999
 40
0.9111502281332392
 40
1.0
 40
1.0
 40
1.0
 40
1.0
 10
276.2304647435898
 20
185.5599999999948
 30
0.0
 10
276.1841848496866
 20
185.5604339277329
 30
0.0
 10
276.0950951755469
 20
185.5612692468646
 30
0.0
 10
275.9662345238262
 20
185.5667779527291
 30
0.0
 10
275.8473645565737
 20
185.5762180637255
 30
0.0
 10
275.7381780154382
 20
185.5904688258911
 30
0.0
 10
275.6387568530698
 20
185.6073097118151
 30
0.0
 10
275.5490874697793
 20
185.6292182779549
 30
0.0
 10
275.4690733287011
 20
185.6542996427479
 30
0.0
 10
275.4205024420065
 20
185.6759587757521
 30
0.0
 10
275.3975320512821
 20
185.6862019230717
 30
0.0
  0
LINE
  5
226
330
1F
100
AcDbEntity
  8
0
  6
Continuous
 62
     7
370
    25
100
AcDbLine
 10
276.7605128205
 20
185.56
 30
0.0
 11
276.2304647436
 21
185.56
 31
0.0
  0
LINE
  5
227
330
1F
100
AcDbEntity
  8
0
  6
Continuous
 62
     7
370
    25
100
AcDbLine
 10
276.7605128205
 20
189.06
 30
0.0
 11
276.7605128205
 21
185.56
 31
0.0
  0
LINE
  5
228
330
1F
100
AcDbEntity
  8
0
  6
Continuous
 62
     7
370
    25
100
AcDbLine
 10
275.9472115385
 20
189.06
 30
0.0
 11
276.7605128205
 21
189.06
 31
0.0
  0
LINE
  5
229
330
1F
100
AcDbEntity
  8
0
  6
Continuous
 62
     7
370
    25
100
AcDbLine
 10
292.7797435897
 20
186.4560336538
 30
0.0
 11
292.7797435897
 21
189.06
 31
0.0
  0
LINE
  5
22A
330
1F
100
AcDbEntity
  8
0
  6
Continuous
 62
     7
370
    25
100
AcDbLine
 10
291.0907411859
 20
189.06
 30
0.0
 11
292.7797435897
 21
186.4560336538
 31
0.0
  0
LINE
  5
22B
330
1F
100
AcDbEntity
  8
0
  6
Continuous
 62
     7
370
    25
100
AcDbLine
 10
291.0297435897
 20
189.06
 30
0.0
 11
291.0907411859
 21
189.06
 31
0.0
  0
LINE
  5
22C
330
1F
100
AcDbEntity
  8
0
  6
Continuous
 62
     7
370
    25
100
AcDbLine
 10
291.0297435897
 20
185.56
 30
0.0
 11
291.0297435897
 21
189.06
 31
0.0
  0
LINE
  5
22D
330
1F
100
AcDbEntity
  8
0
  6
Continuous
 62
     7
370
    25
100
AcDbLine
 10
291.298974359
 20
185.56
 30
0.0
 11
291.0297435897
 21
185.56
 31
0.0
  0
LINE
  5
22E
330
1F
100
AcDbEntity
  8
0
  6
Continuous
 62
     7
370
    25
100
AcDbLine
 10
291.298974359
 20
188.1702764423
 30
0.0
 11
291.298974359
 21
185.56
 31
0.0
  0
LINE
  5
22F
330
1F
100
AcDbEntity
  8
0
  6
Continuous
 62
     7
370
    25
100
AcDbLine
 10
292.9921834936
 20
185.56
 30
0.0
 11
291.298974359
 21
188.1702764423
 31
0.0
  0
LINE
  5
230
330
1F
100
AcDbEntity
  8
0
  6
Continuous
 62
     7
370
    25
100
AcDbLine
 10
293.048974359
 20
185.56
 30
0.0
 11
292.9921834936
 21
185.56
 31
0.0
  0
LINE
  5
231
330
1F
100
AcDbEntity
  8
0
  6
Continuous
 62
     7
370
    25
100
AcDbLine
 10
293.048974359
 20
189.06
 30
0.0
 11
293.048974359
 21
185.56
 31
0.0
  0
LINE
  5
232
330
1F
100
AcDbEntity
  8
0
  6
Continuous
 62
     7
370
    25
100
AcDbLine
 10
292.7797435897
 20
189.06
 30
0.0
 11
293.048974359
 21
189.06
 31
0.0
  0
SPLINE
  5
233
330
1F
100
AcDbEntity
  8
0
  6
Continuous
 62
     7
370
    25
100
AcDbSpline
210
0.0
220
0.0
230
1.0
 70
     8
 71
     3
 72
    23
 73
    19
 74
     0
 42
0.000000001
 43
0.00000001
 40
0.0
 40
0.0
 40
0.0
 40
0.0
 40
0.05143041931976
 40
0.1030521742200265
 40
0.1555203098801471
 40
0.2125772372573749
 40
0.2726604237227774
 40
0.3341105671093811
 40
0.3984391599553299
 40
0.4668694733296639
 40
0.5058665026678058
 40
0.5530424048056918
 40
0.6077610540557999
 40
0.6701563009968311
 40
0.7408630695315039
 40
0.8192782350810024
 40
0.905432793040538
 40
1.0
 40
1.0
 40
1.0
 40
1.0
 10
296.9675440705129
 20
188.7907692307641
 30
0.0
 10
296.9489488932488
 20
188.7897009469345
 30
0.0
 10
296.9116893594472
 20
188.7875604049599
 30
0.0
 10
296.8578643470995
 20
188.7697633368579
 30
0.0
 10
296.8065795063984
 20
188.7417114995986
 30
0.0
 10
296.7596915756965
 20
188.7019250745115
 30
0.0
 10
296.716014627781
 20
188.6541954496327
 30
0.0
 10
296.6805443568207
 20
188.5969423182011
 30
0.0
 10
296.6505568835871
 20
188.5334346365345
 30
0.0
 10
296.6325780556266
 20
188.4738679774217
 30
0.0
 10
296.6217451617418
 20
188.4191332593396
 30
0.0
 10
296.6140597110652
 20
188.3688562521137
 30
0.0
 10
296.6081716948972
 20
188.309857470041
 30
0.0
 10
296.6023431891728
 20
188.2423343855161
 30
0.0
 10
296.5983799291819
 20
188.1661043910026
 30
0.0
 10
296.5955830598169
 20
188.0812535970075
 30
0.0
 10
296.5944060479831
 20
187.9877540650375
 30
0.0
 10
296.5940384885567
 20
187.9225468141465
 30
0.0
 10
296.5938461538462
 20
187.888425480764
 30
0.0
  0
SPLINE
  5
234
330
1F
100
AcDbEntity
  8
0
  6
Continuous
 62
     7
370
    25
100
AcDbSpline
210
0.0
220
0.0
230
1.0
 70
     8
 71
     3
 72
    11
 73
     7
 74
     0
 42
0.000000001
 43
0.00000001
 40
0.0
 40
0.0
 40
0.0
 40
0.0
 40
0.2686451049522441
 40
0.5220075143126726
 40
0.7650195021312224
 40
1.0
 40
1.0
 40
1.0
 40
1.0
 10
297.1442267628206
 20
188.7402884615333
 30
0.0
 10
297.1294054516624
 20
188.74782221096
 30
0.0
 10
297.100605984805
 20
188.7624611295153
 30
0.0
 10
297.0561425444098
 20
188.779120422807
 30
0.0
 10
297.0116186139311
 20
188.7882785240627
 30
0.0
 10
296.9820700881806
 20
188.7899483476251
 30
0.0
 10
296.9675440705129
 20
188.7907692307641
 30
0.0
  0
SPLINE
  5
235
330
1F
100
AcDbEntity
  8
0
  6
Continuous
 62
     7
370
    25
100
AcDbSpline
210
0.0
220
0.0
230
1.0
 70
     8
 71
     3
 72
    11
 73
     7
 74
     0
 42
0.000000001
 43
0.00000001
 40
0.0
 40
0.0
 40
0.0
 40
0.0
 40
0.3039047691185045
 40
0.570015297322966
 40
0.8031448635121117
 40
1.0
 40
1.0
 40
1.0
 40
1.0
 10
297.4891786858975
 20
188.4766666666615
 30
0.0
 10
297.4562900053187
 20
188.5060037686382
 30
0.0
 10
297.3946027501532
 20
188.5610295484387
 30
0.0
 10
297.3032584140459
 20
188.6332454800969
 30
0.0
 10
297.2224564867414
 20
188.6939234795628
 30
0.0
 10
297.1687943190249
 20
188.7257278285234
 30
0.0
 10
297.1442267628206
 20
188.7402884615333
 30
0.0
  0
LINE
  5
236
330
1F
100
AcDbEntity
  8
0
  6
Continuous
 62
     7
370
    25
100
AcDbLine
 10
297.6258974359
 20
188.7458974359
 30
0.0
 11
297.4891786859
 21
188.4766666667
 31
0.0
  0
SPLINE
  5
237
330
1F
100
AcDbEntity
  8
0
  6
Continuous
 62
     7
370
    25
100
AcDbSpline
210
0.0
220
0.0
230
1.0
 70
     8
 71
     3
 72
    15
 73
    11
 74
     0
 42
0.000000001
 43
0.00000001
 40
0.0
 40
0.0
 40
0.0
 40
0.0
 40
0.1000151278993738
 40
0.201115649275237
 40
0.304907671706401
 40
0.4144967149462614
 40
0.5344050517090891
 40
0.6711115060201561
 40
0.8264418401813406
 40
0.9999999999999999
 40
0.9999999999999999
 40
0.9999999999999999
 40
0.9999999999999999
 10
296.9647395833334
 20
189.1497435897384
 30
0.0
 10
296.9914747252827
 20
189.1486729898748
 30
0.0
 10
297.0452351467762
 20
189.1465201716842
 30
0.0
 10
297.1250389002761
 20
189.1285608866319
 30
0.0
 10
297.2045733029709
 20
189.101138205229
 30
0.0
 10
297.284326858237
 20
189.0609863726258
 30
0.0
 10
297.3655743834161
 20
189.0061735247213
 30
0.0
 10
297.4498085151563
 20
188.9351622536039
 30
0.0
 10
297.5377932775434
 20
188.8471254981251
 30
0.0
 10
297.5954639650391
 20
188.7808642449461
 30
0.0
 10
297.6258974358975
 20
188.7458974358922
 30
0.0
  0
SPLINE
  5
238
330
1F
100
AcDbEntity
  8
0
  6
Continuous
 62
     7
370
    25
100
AcDbSpline
210
0.0
220
0.0
230
1.0
 70
     8
 71
     3
 72
    23
 73
    19
 74
     0
 42
0.000000001
 43
0.00000001
 40
0.0
 40
0.0
 40
0.0
 40
0.0
 40
0.0838991104787462
 40
0.1610998410468576
 40
0.2320563813043374
 40
0.2959227359958741
 40
0.3536456035362274
 40
0.4048489571177048
 40
0.4499936867205433
 40
0.4885177118198665
 40
0.5573605691675827
 40
0.6227853435600368
 40
0.6863167380678106
 40
0.7491312128226653
 40
0.8106227202848826
 40
0.871851792802028
 40
0.934311167344669
 40
1.0
 40
1.0
 40
1.0
 40
1.0
 10
296.3246153846154
 20
187.9234815705076
 30
0.0
 10
296.3245925139663
 20
187.9671889337582
 30
0.0
 10
296.3245485986265
 20
188.0511141295328
 30
0.0
 10
296.3285733741839
 20
188.1719388379531
 30
0.0
 10
296.3329909248052
 20
188.282303038882
 30
0.0
 10
296.3400514843115
 20
188.382362758844
 30
0.0
 10
296.3487798602239
 20
188.4719797212302
 30
0.0
 10
296.360322961318
 20
188.5514005019163
 30
0.0
 10
296.3718989386231
 20
188.6207639065878
 30
0.0
 10
296.3926695524278
 20
188.6975297545074
 30
0.0
 10
296.423429573437
 20
188.7823334595613
 30
0.0
 10
296.4711936762421
 20
188.8740638171932
 30
0.0
 10
296.5308101837788
 20
188.9546772674989
 30
0.0
 10
296.5998788224498
 20
189.024528558818
 30
0.0
 10
296.6791736150888
 20
189.0807812461498
 30
0.0
 10
296.7673286598944
 20
189.1211098269647
 30
0.0
 10
296.8636135478823
 20
189.1458028880594
 30
0.0
 10
296.9304692951322
 20
189.1484081375806
 30
0.0
 10
296.9647395833334
 20
189.1497435897384
 30
0.0
  0
LINE
  5
239
330
1F
100
AcDbEntity
  8
0
  6
Continuous
 62
     7
370
    25
100
AcDbLine
 10
296.3246153846
 20
185.56
 30
0.0
 11
296.3246153846
 21
187.9234815705
 31
0.0
  0
LINE
  5
23A
330
1F
100
AcDbEntity
  8
0
  6
Continuous
 62
     7
370
    25
100
AcDbLine
 10
296.5938461538
 20
185.56
 30
0.0
 11
296.3246153846
 21
185.56
 31
0.0
  0
LINE
  5
23B
330
1F
100
AcDbEntity
  8
0
  6
Continuous
 62
     7
370
    25
100
AcDbLine
 10
296.5938461538
 20
187.8884254808
 30
0.0
 11
296.5938461538
 21
185.56
 31
0.0
  0
LINE
  5
23C
330
1F
100
AcDbEntity
  8
0
  6
Continuous
 62
     7
370
    25
100
AcDbLine
 10
286.6323076923
 20
189.06
 30
0.0
 11
286.6771794872
 21
189.06
 31
0.0
  0
LINE
  5
23D
330
1F
100
AcDbEntity
  8
0
  6
Continuous
 62
     7
370
    25
100
AcDbLine
 10
285.5105128205
 20
185.56
 30
0.0
 11
286.6323076923
 21
189.06
 31
0.0
  0
LINE
  5
23E
330
1F
100
AcDbEntity
  8
0
  6
Continuous
 62
     7
370
    25
100
AcDbLine
 10
285.8035817308
 20
185.56
 30
0.0
 11
285.5105128205
 21
185.56
 31
0.0
  0
LINE
  5
23F
330
1F
100
AcDbEntity
  8
0
  6
Continuous
 62
     7
370
    25
100
AcDbLine
 10
286.6547435897
 20
188.2151482372
 30
0.0
 11
285.8035817308
 21
185.56
 31
0.0
  0
LINE
  5
240
330
1F
100
AcDbEntity
  8
0
  6
Continuous
 62
     7
370
    25
100
AcDbLine
 10
287.5059054487
 20
185.56
 30
0.0
 11
286.6547435897
 21
188.2151482372
 31
0.0
  0
LINE
  5
241
330
1F
100
AcDbEntity
  8
0
  6
Continuous
 62
     7
370
    25
100
AcDbLine
 10
287.798974359
 20
185.56
 30
0.0
 11
287.5059054487
 21
185.56
 31
0.0
  0
LINE
  5
242
330
1F
100
AcDbEntity
  8
0
  6
Continuous
 62
     7
370
    25
100
AcDbLine
 10
286.6771794872
 20
189.06
 30
0.0
 11
287.798974359
 21
185.56
 31
0.0
  0
LINE
  5
243
330
1F
100
AcDbEntity
  8
0
  6
Continuous
 62
     7
370
    25
100
AcDbLine
 10
281.2659214744
 20
189.06
 30
0.0
 11
281.9656410256
 21
189.06
 31
0.0
  0
SPLINE
  5
244
330
1F
100
AcDbEntity
  8
0
  6
Continuous
 62
     7
370
    25
100
AcDbSpline
210
0.0
220
0.0
230
1.0
 70
     8
 71
     3
 72
    23
 73
    19
 74
     0
 42
0.000000001
 43
0.00000001
 40
0.0
 40
0.0
 40
0.0
 40
0.0
 40
0.0708158780880998
 40
0.1390701533655643
 40
0.2051482923928464
 40
0.2694748940468996
 40
0.3329649872421965
 40
0.3960745689311031
 40
0.4584293518601377
 40
0.5213748863882292
 40
0.5828930873215012
 40
0.6429265605981799
 40
0.7009131951212085
 40
0.7582149722566536
 40
0.8162765288676541
 40
0.8755437829392823
 40
0.936430381175797
 40
1.0
 40
1.0
 40
1.0
 40
1.0
 10
280.44
 20
188.0665104166615
 30
0.0
 10
280.4406464240366
 20
188.1006597925386
 30
0.0
 10
280.4419158891949
 20
188.1677232685384
 30
0.0
 10
280.4526995163469
 20
188.2661716044416
 30
0.0
 10
280.4700649196573
 20
188.3604480277619
 30
0.0
 10
280.4947299410403
 20
188.4507397500564
 30
0.0
 10
280.5264092855823
 20
188.5372657152992
 30
0.0
 10
280.5646916806218
 20
188.6200791151688
 30
0.0
 10
280.6109196748205
 20
188.6984137062349
 30
0.0
 10
280.6627783777134
 20
188.77218501327
 30
0.0
 10
280.7208570023446
 20
188.8397673683637
 30
0.0
 10
280.7844540886115
 20
188.8988176205607
 30
0.0
 10
280.8533037599746
 20
188.9481565206142
 30
0.0
 10
280.9260761690842
 20
188.9896306134947
 30
0.0
 10
281.0044253679729
 20
189.0211992417
 30
0.0
 10
281.0875997124342
 20
189.0432043058008
 30
0.0
 10
281.17517641579
 20
189.058137353586
 30
0.0
 10
281.2352414948963
 20
189.0593702582274
 30
0.0
 10
281.265921474359
 20
189.0599999999948
 30
0.0
  0
SPLINE
  5
245
330
1F
100
AcDbEntity
  8
0
  6
Continuous
 62
     7
370
    25
100
AcDbSpline
210
0.0
220
0.0
230
1.0
 70
     8
 71
     3
 72
    19
 73
    15
 74
     0
 42
0.000000001
 43
0.00000001
 40
0.0
 40
0.0
 40
0.0
 40
0.0
 40
0.0968225737369126
 40
0.1855689870649
 40
0.2681643366304864
 40
0.3447077037461939
 40
0.4194630140225849
 40
0.4949557461758818
 40
0.5738739138703338
 40
0.6547424241537093
 40
0.7384676571611145
 40
0.822898344445259
 40
0.9104455468406727
 40
1.0
 40
1.0
 40
1.0
 40
1.0
 10
280.992483974359
 20
187.171879006405
 30
0.0
 10
280.9596525065551
 20
187.1871136913027
 30
0.0
 10
280.8967281079456
 20
187.2163123062084
 30
0.0
 10
280.8113090385673
 20
187.2689761226307
 30
0.0
 10
280.7368934155708
 20
187.3244209604596
 30
0.0
 10
280.6748507856784
 20
187.3863033006328
 30
0.0
 10
280.6217226868935
 20
187.4524450504279
 30
0.0
 10
280.5747994367978
 20
187.5242014300991
 30
0.0
 10
280.5343882834899
 20
187.6024188798482
 30
0.0
 10
280.5008749101587
 20
187.6871047574998
 30
0.0
 10
280.4736962933478
 20
187.7761591104635
 30
0.0
 10
280.4536573238801
 20
187.8696822340932
 30
0.0
 10
280.4427717101797
 20
187.9669254872145
 30
0.0
 10
280.4409308580653
 20
188.0330655653789
 30
0.0
 10
280.44
 20
188.0665104166615
 30
0.0
  0
SPLINE
  5
246
330
1F
100
AcDbEntity
  8
0
  6
Continuous
 62
     7
370
    25
100
AcDbSpline
210
0.0
220
0.0
230
1.0
 70
     8
 71
     3
 72
    15
 73
    11
 74
     0
 42
0.000000001
 43
0.00000001
 40
0.0
 40
0.0
 40
0.0
 40
0.0
 40
0.1372083180392592
 40
0.2690390420182115
 40
0.3973970991174631
 40
0.5230348387328428
 40
0.6449048587432608
 40
0.7645022914662513
 40
0.8815887251807232
 40
1.0
 40
1.0
 40
1.0
 40
1.0
 10
280.6643589743591
 20
186.4272876602512
 30
0.0
 10
280.6651204270634
 20
186.4659160798336
 30
0.0
 10
280.6666134889203
 20
186.5416589586009
 30
0.0
 10
280.6837179617087
 20
186.6524018902063
 30
0.0
 10
280.7091343783508
 20
186.758067745439
 30
0.0
 10
280.745602657741
 20
186.8575544457918
 30
0.0
 10
280.7917217559819
 20
186.9502596886115
 30
0.0
 10
280.8487706107898
 20
187.0337508667651
 30
0.0
 10
280.9151830997415
 20
187.1089233718015
 30
0.0
 10
280.9666205587956
 20
187.1508152377495
 30
0.0
 10
280.992483974359
 20
187.171879006405
 30
0.0
  0
SPLINE
  5
247
330
1F
100
AcDbEntity
  8
0
  6
Continuous
 62
     7
370
    25
100
AcDbSpline
210
0.0
220
0.0
230
1.0
 70
     8
 71
     3
 72
    23
 73
    19
 74
     0
 42
0.000000001
 43
0.00000001
 40
0.0
 40
0.0
 40
0.0
 40
0.0
 40
0.0539059129222802
 40
0.1043049721613639
 40
0.1518072147954228
 40
0.1971397759102027
 40
0.238869381322967
 40
0.2786922669077455
 40
0.3165266258310137
 40
0.3522657329348823
 40
0.4222268191211473
 40
0.4940536090530441
 40
0.5699632881170276
 40
0.6506276230644555
 40
0.73493844787671
 40
0.8201633022732283
 40
0.9086972977577764
 40
1.0
 40
1.0
 40
1.0
 40
1.0
 10
281.4706490384616
 20
185.5599999999948
 30
0.0
 10
281.4463325166023
 20
185.5601769605808
 30
0.0
 10
281.3992813862512
 20
185.5605193695671
 30
0.0
 10
281.3309816473675
 20
185.5657658533312
 30
0.0
 10
281.2667887974315
 20
185.5731679125434
 30
0.0
 10
281.2070629492547
 20
185.5842320255101
 30
0.0
 10
281.1516121235499
 20
185.5984927239612
 30
0.0
 10
281.1003251440985
 20
185.6150182786241
 30
0.0
 10
281.0531925475316
 20
185.6351358731695
 30
0.0
 10
280.996917794084
 20
185.667348292312
 30
0.0
 10
280.9328710333992
 20
185.715891114897
 30
0.0
 10
280.8634626002844
 20
185.7859518245114
 30
0.0
 10
280.8051539397853
 20
185.8713902646245
 30
0.0
 10
280.7549240067316
 20
185.9679476439519
 30
0.0
 10
280.7149556045794
 20
186.0737313031369
 30
0.0
 10
280.6850645279489
 20
186.1863962793077
 30
0.0
 10
280.6673512383706
 20
186.3049609882157
 30
0.0
 10
280.665366580742
 20
186.3860957282988
 30
0.0
 10
280.6643589743591
 20
186.4272876602512
 30
0.0
  0
LINE
  5
248
330
1F
100
AcDbEntity
  8
0
  6
Continuous
 62
     7
370
    25
100
AcDbLine
 10
281.9656410256
 20
185.56
 30
0.0
 11
281.4706490385
 21
185.56
 31
0.0
  0
LINE
  5
249
330
1F
100
AcDbEntity
  8
0
  6
Continuous
 62
     7
370
    25
100
AcDbLine
 10
281.9656410256
 20
189.06
 30
0.0
 11
281.9656410256
 21
185.56
 31
0.0
  0
LINE
  5
24A
330
1F
100
AcDbEntity
  8
0
  6
Continuous
 62
     7
370
    25
100
AcDbLine
 10
370.94
 20
193.06
 30
0.0
 11
262.94
 21
193.06
 31
0.0
  0
LINE
  5
24B
330
1F
100
AcDbEntity
  8
0
  6
Continuous
 62
     7
370
    25
100
AcDbLine
 10
370.94
 20
193.06
 30
0.0
 11
370.94
 21
150.06
 31
0.0
  0
LINE
  5
24C
330
1F
100
AcDbEntity
  8
0
  6
Continuous
 62
     7
370
    25
100
AcDbLine
 10
370.94
 20
150.06
 30
0.0
 11
262.94
 21
150.06
 31
0.0
  0
LINE
  5
24D
330
1F
100
AcDbEntity
  8
0
  6
Continuous
 62
     7
370
    25
100
AcDbLine
 10
262.94
 20
193.06
 30
0.0
 11
262.94
 21
150.06
 31
0.0
  0
CIRCLE
  5
24E
330
1F
100
AcDbEntity
  8
0
  6
Continuous
 62
     7
370
    25
100
AcDbCircle
 10
357.94
 20
171.56
 30
0.0
 40
10.0
  0
CIRCLE
  5
24F
330
1F
100
AcDbEntity
  8
0
  6
Continuous
 62
     7
370
    25
100
AcDbCircle
 10
282.94
 20
171.56
 30
0.0
 40
10.00000000000006
  0
SPLINE
  5
250
330
1F
100
AcDbEntity
  8
0
  6
Continuous
 62
     7
370
    25
100
AcDbSpline
210
0.0
220
0.0
230
1.0
 70
     8
 71
     3
 72
    15
 73
    11
 74
     0
 42
0.000000001
 43
0.00000001
 40
0.0
 40
0.0
 40
0.0
 40
0.0
 40
0.1110987892720663
 40
0.2201762067780376
 40
0.3353272397377493
 40
0.4596588397167821
 40
0.5920348788047358
 40
0.7225486786876505
 40
0.8583762763913008
 40
0.9999999999999999
 40
0.9999999999999999
 40
0.9999999999999999
 40
0.9999999999999999
 10
263.388717948718
 20
189.1048717948666
 30
0.0
 10
263.403837228863
 20
189.1037957484767
 30
0.0
 10
263.433800703473
 20
189.101663233676
 30
0.0
 10
263.4765275708908
 20
189.0841741158282
 30
0.0
 10
263.5157001240201
 20
189.0571012878783
 30
0.0
 10
263.5497625488067
 20
189.0193539067905
 30
0.0
 10
263.5778175037071
 20
188.9746740878161
 30
0.0
 10
263.598726834489
 20
188.9244974387257
 30
0.0
 10
263.6105715327548
 20
188.8700781473609
 30
0.0
 10
263.6122302424864
 20
188.8324250002588
 30
0.0
 10
263.613076923077
 20
188.8132051281999
 30
0.0
  0
SPLINE
  5
251
330
1F
100
AcDbEntity
  8
0
  6
Continuous
 62
     7
370
    25
100
AcDbSpline
210
0.0
220
0.0
230
1.0
 70
     8
 71
     3
 72
    15
 73
    11
 74
     0
 42
0.000000001
 43
0.00000001
 40
0.0
 40
0.0
 40
0.0
 40
0.0
 40
0.1417291731782861
 40
0.277657904797575
 40
0.4089383081360704
 40
0.5414129111933207
 40
0.6658370854485398
 40
0.7796598553897511
 40
0.888818489279776
 40
1.0
 40
1.0
 40
1.0
 40
1.0
 10
263.164358974359
 20
188.8132051281999
 30
0.0
 10
263.1652256470726
 20
188.8324163761988
 30
0.0
 10
263.1669235228478
 20
188.8700526281311
 30
0.0
 10
263.1785063035187
 20
188.9246825111662
 30
0.0
 10
263.2005019630702
 20
188.9744924196571
 30
0.0
 10
263.2282933747471
 20
189.0194136633095
 30
0.0
 10
263.2624036025505
 20
189.0568316975401
 30
0.0
 10
263.3009998182042
 20
189.0843723084247
 30
0.0
 10
263.3436574143412
 20
189.101631990167
 30
0.0
 10
263.3736061205605
 20
189.1037852704265
 30
0.0
 10
263.388717948718
 20
189.1048717948666
 30
0.0
  0
SPLINE
  5
252
330
1F
100
AcDbEntity
  8
0
  6
Continuous
 62
     7
370
    25
100
AcDbSpline
210
0.0
220
0.0
230
1.0
 70
     8
 71
     3
 72
    15
 73
    11
 74
     0
 42
0.000000001
 43
0.00000001
 40
0.0
 40
0.0
 40
0.0
 40
0.0
 40
0.1110294394364602
 40
0.2194253948582975
 40
0.3330924808675819
 40
0.4573464708557617
 40
0.5881871126129826
 40
0.719287953906132
 40
0.8550307656131719
 40
1.0
 40
1.0
 40
1.0
 40
1.0
 10
263.388717948718
 20
188.5215384615333
 30
0.0
 10
263.3736321140847
 20
188.5226933612461
 30
0.0
 10
263.3438182625693
 20
188.5249757678475
 30
0.0
 10
263.3008470301851
 20
188.5411537416352
 30
0.0
 10
263.2624068424227
 20
188.5689332456766
 30
0.0
 10
263.2285201699465
 20
188.6061913949453
 30
0.0
 10
263.2002993026761
 20
188.650623915677
 30
0.0
 10
263.1785415344763
 20
188.7003457253172
 30
0.0
 10
263.1668113239666
 20
188.7554091335158
 30
0.0
 10
263.1651941420334
 20
188.7935222304918
 30
0.0
 10
263.164358974359
 20
188.8132051281999
 30
0.0
  0
SPLINE
  5
253
330
1F
100
AcDbEntity
  8
0
  6
Continuous
 62
     7
370
    25
100
AcDbSpline
210
0.0
220
0.0
230
1.0
 70
     8
 71
     3
 72
    15
 73
    11
 74
     0
 42
0.000000001
 43
0.00000001
 40
0.0
 40
0.0
 40
0.0
 40
0.0
 40
0.1448615215605648
 40
0.2805034757169959
 40
0.4108388947319349
 40
0.5415823212739871
 40
0.6657439899603901
 40
0.780737639247071
 40
0.8890530559617583
 40
1.0
 40
1.0
 40
1.0
 40
1.0
 10
263.613076923077
 20
188.8132051281999
 30
0.0
 10
263.6122624839114
 20
188.7935132890967
 30
0.0
 10
263.6106854397506
 20
188.7553828783968
 30
0.0
 10
263.5986915571947
 20
188.700530807394
 30
0.0
 10
263.5780167146536
 20
188.6504438469965
 30
0.0
 10
263.5495362795139
 20
188.6062506410717
 30
0.0
 10
263.5156971968074
 20
188.5686636520778
 30
0.0
 10
263.476682066858
 20
188.5413480179618
 30
0.0
 10
263.4336399365416
 20
188.5249442597436
 30
0.0
 10
263.4038112764857
 20
188.522682774846
 30
0.0
 10
263.388717948718
 20
188.5215384615333
 30
0.0
  0
SPLINE
  5
254
330
1F
100
AcDbEntity
  8
0
  6
Continuous
 62
     7
370
    25
100
AcDbSpline
210
0.0
220
0.0
230
1.0
 70
     8
 71
     3
 72
    23
 73
    19
 74
     0
 42
0.000000001
 43
0.00000001
 40
0.0
 40
0.0
 40
0.0
 40
0.0
 40
0.0556061347998012
 40
0.1095440347130021
 40
0.1631738353847433
 40
0.2171967665752977
 40
0.2725174574932424
 40
0.3299792775805777
 40
0.3905308701382925
 40
0.4542159673549055
 40
0.5197392905612772
 40
0.585029484736562
 40
0.6509588001735294
 40
0.7173801125116965
 40
0.7851694308456322
 40
0.854549631896159
 40
0.9260432781966019
 40
1.0
 40
1.0
 40
1.0
 40
1.0
 10
283.8460496794872
 20
189.1497435897384
 30
0.0
 10
283.8926836984791
 20
189.1482125606441
 30
0.0
 10
283.9845526732541
 20
189.1451964347281
 30
0.0
 10
284.1192083055512
 20
189.1186185758119
 30
0.0
 10
284.2485156059914
 20
189.0774896151753
 30
0.0
 10
284.3721604508801
 20
189.0185253855341
 30
0.0
 10
284.4900369473381
 20
188.9427729417084
 30
0.0
 10
284.6019943944351
 20
188.8497795876712
 30
0.0
 10
284.7086694090854
 20
188.7407794976444
 30
0.0
 10
284.8078228995576
 20
188.6162074344613
 30
0.0
 10
284.899054450298
 20
188.480938658872
 30
0.0
 10
284.9785548937812
 20
188.3362839265097
 30
0.0
 10
285.0460155051807
 20
188.1848081108701
 30
0.0
 10
285.1004234365757
 20
188.0260157490911
 30
0.0
 10
285.1446316234168
 20
187.8610501932072
 30
0.0
 10
285.1739750685608
 20
187.6885091047407
 30
0.0
 10
285.1928257088004
 20
187.5093048034203
 30
0.0
 10
285.1952019937671
 20
187.3874061367677
 30
0.0
 10
285.1964102564103
 20
187.325424679482
 30
0.0
  0
SPLINE
  5
255
330
1F
100
AcDbEntity
  8
0
  6
Continuous
 62
     7
370
    25
100
AcDbSpline
210
0.0
220
0.0
230
1.0
 70
     8
 71
     3
 72
    23
 73
    19
 74
     0
 42
0.000000001
 43
0.00000001
 40
0.0
 40
0.0
 40
0.0
 40
0.0
 40
0.0748233216744617
 40
0.1471867031241485
 40
0.2171588760535919
 40
0.2854610254506537
 40
0.3525415603193202
 40
0.4183948359327968
 40
0.4839564220904022
 40
0.549493838729157
 40
0.6131851301130822
 40
0.6731483518900989
 40
0.7303835553561688
 40
0.7852872928358199
 40
0.8390006623076316
 40
0.8919240756005296
 40
0.9454103536487471
 40
0.9999999999999999
 40
0.9999999999999999
 40
0.9999999999999999
 40
0.9999999999999999
 10
282.5041025641027
 20
187.308597756405
 30
0.0
 10
282.5053222741412
 20
187.3715106832377
 30
0.0
 10
282.5077215942371
 20
187.4952681705714
 30
0.0
 10
282.5263963333903
 20
187.6770773872417
 30
0.0
 10
282.5561894531888
 20
187.8517706701089
 30
0.0
 10
282.5989478495282
 20
188.0192556471428
 30
0.0
 10
282.6546089056591
 20
188.1791957506416
 30
0.0
 10
282.72123260119
 20
188.3323829730918
 30
0.0
 10
282.8006069729281
 20
188.4779715775112
 30
0.0
 10
282.8919650310469
 20
188.6141032587532
 30
0.0
 10
282.9909236714167
 20
188.7388832188932
 30
0.0
 10
283.0966456882859
 20
188.8485121949675
 30
0.0
 10
283.2074189269273
 20
188.9421328982586
 30
0.0
 10
283.3250347062433
 20
189.0176385671039
 30
0.0
 10
283.4473964689923
 20
189.0774958078642
 30
0.0
 10
283.5759043197998
 20
189.1186885022251
 30
0.0
 10
283.709184187744
 20
189.1450967620361
 30
0.0
 10
283.8001183938595
 20
189.1481841406198
 30
0.0
 10
283.8460496794872
 20
189.1497435897384
 30
0.0
  0
SPLINE
  5
256
330
1F
100
AcDbEntity
  8
0
  6
Continuous
 62
     7
370
    25
100
AcDbSpline
210
0.0
220
0.0
230
1.0
 70
     8
 71
     3
 72
    23
 73
    19
 74
     0
 42
0.000000001
 43
0.00000001
 40
0.0
 40
0.0
 40
0.0
 40
0.0
 40
0.0561311272566704
 40
0.1105446996414161
 40
0.164490693136268
 40
0.2185861882200419
 40
0.2737983216716738
 40
0.3307025735938874
 40
0.3904289212690718
 40
0.4536262558270601
 40
0.518469496526715
 40
0.5830820278981926
 40
0.6485793787737228
 40
0.714923345890202
 40
0.7830084324946613
 40
0.8527562631037893
 40
0.9251556692001538
 40
1.0
 40
1.0
 40
1.0
 40
1.0
 10
283.8670833333334
 20
185.4702564102512
 30
0.0
 10
283.8195423617051
 20
185.4718992862241
 30
0.0
 10
283.7259151233768
 20
185.4751347678515
 30
0.0
 10
283.588301265767
 20
185.5000611009753
 30
0.0
 10
283.4573126478342
 20
185.5429742263905
 30
0.0
 10
283.3311115023955
 20
185.6002910792589
 30
0.0
 10
283.2122774505902
 20
185.6764613179143
 30
0.0
 10
283.0992317617832
 20
185.7685008445039
 30
0.0
 10
282.992412520224
 20
185.8774150511347
 30
0.0
 10
282.8926258551842
 20
186.0014526800093
 30
0.0
 10
282.801532524417
 20
186.1370024779627
 30
0.0
 10
282.7217053272853
 20
186.2817375951601
 30
0.0
 10
282.6546548685261
 20
186.4341671662404
 30
0.0
 10
282.5987281005415
 20
186.5941365627737
 30
0.0
 10
282.5562250603643
 20
186.7619350624488
 30
0.0
 10
282.5263316215058
 20
186.937542191188
 30
0.0
 10
282.5077342409482
 20
187.1205302693941
 30
0.0
 10
282.5053264498612
 20
187.2452184611707
 30
0.0
 10
282.5041025641027
 20
187.308597756405
 30
0.0
  0
SPLINE
  5
257
330
1F
100
AcDbEntity
  8
0
  6
Continuous
 62
     7
370
    25
100
AcDbSpline
210
0.0
220
0.0
230
1.0
 70
     8
 71
     3
 72
    31
 73
    27
 74
     0
 42
0.000000001
 43
0.00000001
 40
0.0
 40
0.0
 40
0.0
 40
0.0
 40
0.049491562931304
 40
0.0982509489965124
 40
0.1463843248802429
 40
0.1940020446377892
 40
0.2408879895764072
 40
0.2875509225022552
 40
0.3339664723184228
 40
0.380167611190388
 40
0.425721158530485
 40
0.4698566493541775
 40
0.5127157973138133
 40
0.5541933274524001
 40
0.5950051157609343
 40
0.6349877392839055
 40
0.674496005560565
 40
0.7135409743900123
 40
0.7519021604505733
 40
0.7888515717381659
 40
0.8249076986969841
 40
0.8604240328041166
 40
0.8951483267823925
 40
0.9298815204324944
 40
0.9649479230346695
 40
1.0
 40
1.0
 40
1.0
 40
1.0
 10
285.1964102564103
 20
187.325424679482
 30
0.0
 10
285.1958810099956
 20
187.2838101535995
 30
0.0
 10
285.1948303468234
 20
187.2011967460241
 30
0.0
 10
285.1861204979669
 20
187.0783685915368
 30
0.0
 10
285.1722749859643
 20
186.9576155051551
 30
0.0
 10
285.1523855670979
 20
186.8393186884115
 30
0.0
 10
285.1283175130487
 20
186.723031953313
 30
0.0
 10
285.0968287170305
 20
186.6095986881907
 30
0.0
 10
285.0617834613435
 20
186.4977988206194
 30
0.0
 10
285.0190764363248
 20
186.3897064325068
 30
0.0
 10
284.9738558690217
 20
186.2847253221231
 30
0.0
 10
284.9221125862059
 20
186.1859295189752
 30
0.0
 10
284.8676863217814
 20
186.0925956522517
 30
0.0
 10
284.8093869919168
 20
186.0048913648101
 30
0.0
 10
284.7460640312893
 20
185.9238088093633
 30
0.0
 10
284.6794029141251
 20
185.847669166425
 30
0.0
 10
284.6086587755609
 20
185.777316609224
 30
0.0
 10
284.5335026625469
 20
185.7138527833135
 30
0.0
 10
284.4564194565266
 20
185.6562208857254
 30
0.0
 10
284.3765382034491
 20
185.6071933727108
 30
0.0
 10
284.2957911396568
 20
185.5645027076916
 30
0.0
 10
284.2130604793901
 20
185.5304039456874
 30
0.0
 10
284.128969986584
 20
185.5031836769707
 30
0.0
 10
284.04297992088
 20
185.4846623555171
 30
0.0
 10
283.9555727589284
 20
185.4719049234156
 30
0.0
 10
283.8965757907172
 20
185.4708058397895
 30
0.0
 10
283.8670833333334
 20
185.4702564102512
 30
0.0
  0
SPLINE
  5
258
330
1F
100
AcDbEntity
  8
0
  6
Continuous
 62
     7
370
    25
100
AcDbSpline
210
0.0
220
0.0
230
1.0
 70
     8
 71
     3
 72
    23
 73
    19
 74
     0
 42
0.000000001
 43
0.00000001
 40
0.0
 40
0.0
 40
0.0
 40
0.0
 40
0.0707020541721729
 40
0.1396422267115929
 40
0.2067535840263264
 40
0.2730228897203753
 40
0.3387466904126004
 40
0.4040780560401478
 40
0.4692816381988471
 40
0.5355425532489394
 40
0.6002840266331948
 40
0.6618020019751811
 40
0.7203492720495911
 40
0.7766872313798383
 40
0.8323675217967674
 40
0.8872254073279183
 40
0.9429680734622266
 40
1.0
 40
1.0
 40
1.0
 40
1.0
 10
288.1579487179487
 20
188.2025280448666
 30
0.0
 10
288.1586703538517
 20
188.2338688682291
 30
0.0
 10
288.1600956426294
 20
188.2957695076456
 30
0.0
 10
288.1699494263685
 20
188.3870025700946
 30
0.0
 10
288.1867355806044
 20
188.4752060667061
 30
0.0
 10
288.2108700558144
 20
188.5601869063794
 30
0.0
 10
288.2407130645225
 20
188.6425127026014
 30
0.0
 10
288.2782006197759
 20
188.7211486005156
 30
0.0
 10
288.321916317726
 20
188.7967330897446
 30
0.0
 10
288.371755473704
 20
188.8681479733586
 30
0.0
 10
288.4266996239534
 20
188.9335776949053
 30
0.0
 10
288.4847985210379
 20
188.9915139497699
 30
0.0
 10
288.5460893776245
 20
189.0403506567246
 30
0.0
 10
288.6105851942864
 20
189.0801691191044
 30
0.0
 10
288.6780479760062
 20
189.1109259279974
 30
0.0
 10
288.748244847579
 20
189.1338785527715
 30
0.0
 10
288.8216118088416
 20
189.1475247114711
 30
0.0
 10
288.871634041578
 20
189.148998348019
 30
0.0
 10
288.8969310897436
 20
189.1497435897384
 30
0.0
  0
SPLINE
  5
259
330
1F
100
AcDbEntity
  8
0
  6
Continuous
 62
     7
370
    25
100
AcDbSpline
210
0.0
220
0.0
230
1.0
 70
     8
 71
     3
 72
    19
 73
    15
 74
     0
 42
0.000000001
 43
0.00000001
 40
0.0
 40
0.0
 40
0.0
 40
0.0
 40
0.0884708970426384
 40
0.1720726542945765
 40
0.2512660527041585
 40
0.3258043140487202
 40
0.3957072833793063
 40
0.4615200469522956
 40
0.5231185227945098
 40
0.5809822666112865
 40
0.6900490621351573
 40
0.7953608695276762
 40
0.89836210722471
 40
0.9999999999999999
 40
0.9999999999999999
 40
0.9999999999999999
 40
0.9999999999999999
 10
288.7398798076923
 20
187.0730208333281
 30
0.0
 10
288.7130993695173
 20
187.1007017465837
 30
0.0
 10
288.6610123981629
 20
187.1545401089877
 30
0.0
 10
288.587237058932
 20
187.2353151064009
 30
0.0
 10
288.5197163943599
 20
187.3135518350533
 30
0.0
 10
288.4595707730309
 20
187.3901374473953
 30
0.0
 10
288.4052421655127
 20
187.4638155931733
 30
0.0
 10
288.3573168113123
 20
187.5351521571305
 30
0.0
 10
288.3165345586375
 20
187.6047939866094
 30
0.0
 10
288.271194209396
 20
187.6934047197221
 30
0.0
 10
288.2266053986761
 20
187.8034599342372
 30
0.0
 10
288.1864665374994
 20
187.9358529599867
 30
0.0
 10
288.16254211809
 20
188.0691478264797
 30
0.0
 10
288.1594730357252
 20
188.1582658792265
 30
0.0
 10
288.1579487179487
 20
188.2025280448666
 30
0.0
  0
SPLINE
  5
25A
330
1F
100
AcDbEntity
  8
0
  6
Continuous
 62
     7
370
    25
100
AcDbSpline
210
0.0
220
0.0
230
1.0
 70
     8
 71
     3
 72
    15
 73
    11
 74
     0
 42
0.000000001
 43
0.00000001
 40
0.0
 40
0.0
 40
0.0
 40
0.0
 40
0.0538735142930869
 40
0.1280902240508066
 40
0.2208097162124774
 40
0.3371503611479303
 40
0.4720109875829225
 40
0.6274236840779095
 40
0.8034199937269042
 40
1.0
 40
1.0
 40
1.0
 40
1.0
 10
289.0722115384616
 20
186.7245633012768
 30
0.0
 10
289.0669226099624
 20
186.7314134584861
 30
0.0
 10
289.0543475989326
 20
186.7477004630231
 30
0.0
 10
289.0301459115992
 20
186.7736531621804
 30
0.0
 10
288.9997303061546
 20
186.8074630905949
 30
0.0
 10
288.961405247764
 20
186.8472343599538
 30
0.0
 10
288.916611800208
 20
186.8947351367973
 30
0.0
 10
288.863683841082
 20
186.9476955241954
 30
0.0
 10
288.8041944868253
 20
187.0080943141842
 30
0.0
 10
288.762093353487
 20
187.0505959650751
 30
0.0
 10
288.7398798076923
 20
187.0730208333281
 30
0.0
  0
SPLINE
  5
25B
330
1F
100
AcDbEntity
  8
0
  6
Continuous
 62
     7
370
    25
100
AcDbSpline
210
0.0
220
0.0
230
1.0
 70
     8
 71
     3
 72
    13
 73
     9
 74
     0
 42
0.000000001
 43
0.00000001
 40
0.0
 40
0.0
 40
0.0
 40
0.0
 40
0.2285306200082597
 40
0.4568096729737552
 40
0.5765257893863781
 40
0.7065777217921411
 40
0.8466133600224341
 40
1.0
 40
1.0
 40
1.0
 40
1.0
 10
289.2348717948718
 20
186.2723397435845
 30
0.0
 10
289.2329996471808
 20
186.3096378300577
 30
0.0
 10
289.2292574126633
 20
186.3841929451828
 30
0.0
 10
289.2068942933926
 20
186.4761894812082
 30
0.0
 10
289.1791970450057
 20
186.5492125075735
 30
0.0
 10
289.1497252474414
 20
186.6056706415858
 30
0.0
 10
289.1147050724664
 20
186.6652860239153
 30
0.0
 10
289.086799296531
 20
186.7042137916063
 30
0.0
 10
289.0722115384616
 20
186.7245633012768
 30
0.0
  0
SPLINE
  5
25C
330
1F
100
AcDbEntity
  8
0
  6
Continuous
 62
     7
370
    25
100
AcDbSpline
210
0.0
220
0.0
230
1.0
 70
     8
 71
     3
 72
    15
 73
    11
 74
     0
 42
0.000000001
 43
0.00000001
 40
0.0
 40
0.0
 40
0.0
 40
0.0
 40
0.1184077670089294
 40
0.2319400643751562
 40
0.345651636241786
 40
0.4682545235227927
 40
0.5946306870891129
 40
0.7231763907442273
 40
0.8574296401771796
 40
1.0
 40
1.0
 40
1.0
 40
1.0
 10
288.8822075320513
 20
185.8292307692255
 30
0.0
 10
288.9072093616011
 20
185.830496924584
 30
0.0
 10
288.9561835640691
 20
185.832977101035
 30
0.0
 10
289.0252420489523
 20
185.8590532531883
 30
0.0
 10
289.0866758505441
 20
185.9005116530542
 30
0.0
 10
289.1391957854208
 20
185.9566717594654
 30
0.0
 10
289.1817659363173
 20
186.0241870801513
 30
0.0
 10
289.2129892551797
 20
186.1002752199481
 30
0.0
 10
289.2313360446719
 20
186.1840711274955
 30
0.0
 10
289.2336698386792
 20
186.2423333789615
 30
0.0
 10
289.2348717948718
 20
186.2723397435845
 30
0.0
  0
SPLINE
  5
25D
330
1F
100
AcDbEntity
  8
0
  6
Continuous
 62
     7
370
    25
100
AcDbSpline
210
0.0
220
0.0
230
1.0
 70
     8
 71
     3
 72
    19
 73
    15
 74
     0
 42
0.000000001
 43
0.00000001
 40
0.0
 40
0.0
 40
0.0
 40
0.0
 40
0.1097606867244689
 40
0.2104570262830528
 40
0.303043937901479
 40
0.3867330425341022
 40
0.4624946462070557
 40
0.5304581176767045
 40
0.5914886113802893
 40
0.6437614086257096
 40
0.7383907381704098
 40
0.8269775131483248
 40
0.9133974356665375
 40
1.0
 40
1.0
 40
1.0
 40
1.0
 10
288.4131570512821
 20
186.2779487179435
 30
0.0
 10
288.4249474647283
 20
186.2559088345602
 30
0.0
 10
288.4475546060153
 20
186.2136491835422
 30
0.0
 10
288.482150657632
 20
186.1539320934897
 30
0.0
 10
288.5147881677563
 20
186.0999536748542
 30
0.0
 10
288.5464843557156
 20
186.0520886024544
 30
0.0
 10
288.5765911295393
 20
186.009946605039
 30
0.0
 10
288.6052217974586
 20
185.9731130200731
 30
0.0
 10
288.632974823068
 20
185.9424981895106
 30
0.0
 10
288.6673144261137
 20
185.909853983531
 30
0.0
 10
288.7104297153667
 20
185.8775335363176
 30
0.0
 10
288.7653138967873
 20
185.8493814656778
 30
0.0
 10
288.8230417414917
 20
185.8326289168935
 30
0.0
 10
288.8624717278217
 20
185.8303642819613
 30
0.0
 10
288.8822075320513
 20
185.8292307692255
 30
0.0
  0
LINE
  5
25E
330
1F
100
AcDbEntity
  8
0
  6
Continuous
 62
     7
370
    25
100
AcDbLine
 10
288.2028205128
 20
186.0627043269
 30
0.0
 11
288.4131570513
 21
186.2779487179
 31
0.0
  0
SPLINE
  5
25F
330
1F
100
AcDbEntity
  8
0
  6
Continuous
 62
     7
370
    25
100
AcDbSpline
210
0.0
220
0.0
230
1.0
 70
     8
 71
     3
 72
    19
 73
    15
 74
     0
 42
0.000000001
 43
0.00000001
 40
0.0
 40
0.0
 40
0.0
 40
0.0
 40
0.0950316840430807
 40
0.190141065964882
 40
0.2877433647703905
 40
0.3909479566060219
 40
0.4470342598015763
 40
0.5082336912218639
 40
0.574910122324527
 40
0.6477028597163358
 40
0.7264879015565124
 40
0.8112483067394409
 40
0.9023556644548456
 40
1.0
 40
1.0
 40
1.0
 40
1.0
 10
288.878701923077
 20
185.4702564102512
 30
0.0
 10
288.8486319624639
 20
185.4716865805852
 30
0.0
 10
288.7884674560463
 20
185.47454809056
 30
0.0
 10
288.7002444900189
 20
185.4996086174285
 30
0.0
 10
288.6158854846494
 20
185.5406080582734
 30
0.0
 10
288.5486248907504
 20
185.5867006879038
 30
0.0
 10
288.4963972616382
 20
185.6328720834032
 30
0.0
 10
288.4554585174928
 20
185.6742351308932
 30
0.0
 10
288.4152577634173
 20
185.7233151318306
 30
0.0
 10
288.3727636700975
 20
185.7776544465058
 30
0.0
 10
288.3312443802956
 20
185.8397690939223
 30
0.0
 10
288.2880771977718
 20
185.9076815795106
 30
0.0
 10
288.2457740068283
 20
185.9830689759556
 30
0.0
 10
288.2174651480804
 20
186.0355533187037
 30
0.0
 10
288.2028205128206
 20
186.0627043269179
 30
0.0
  0
SPLINE
  5
260
330
1F
100
AcDbEntity
  8
0
  6
Continuous
 62
     7
370
    25
100
AcDbSpline
210
0.0
220
0.0
230
1.0
 70
     8
 71
     3
 72
    19
 73
    15
 74
     0
 42
0.000000001
 43
0.00000001
 40
0.0
 40
0.0
 40
0.0
 40
0.0
 40
0.0970748211208097
 40
0.191343900741741
 40
0.2824506747154134
 40
0.371965968847045
 40
0.4584327434216874
 40
0.5416784412933641
 40
0.6216557843064905
 40
0.7008805942348721
 40
0.7783696945641335
 40
0.8528441118953703
 40
0.9260892331070153
 40
1.0
 40
1.0
 40
1.0
 40
1.0
 10
289.5041025641027
 20
186.2870633012768
 30
0.0
 10
289.5032472275541
 20
186.2500812529984
 30
0.0
 10
289.5015612761432
 20
186.1771860439903
 30
0.0
 10
289.4856417757279
 20
186.0705510723683
 30
0.0
 10
289.4604373658779
 20
185.9688249658238
 30
0.0
 10
289.425708779842
 20
185.8729966914347
 30
0.0
 10
289.3815335132636
 20
185.78452863185
 30
0.0
 10
289.3294519222457
 20
185.7045845409677
 30
0.0
 10
289.2671660827177
 20
185.6360623535273
 30
0.0
 10
289.198985821715
 20
185.5766708160486
 30
0.0
 10
289.1238787028147
 20
185.5301694368861
 30
0.0
 10
289.0455383001347
 20
185.4945084988229
 30
0.0
 10
288.9628703856225
 20
185.4746738766572
 30
0.0
 10
288.9068425561137
 20
185.4717333328101
 30
0.0
 10
288.878701923077
 20
185.4702564102512
 30
0.0
  0
SPLINE
  5
261
330
1F
100
AcDbEntity
  8
0
  6
Continuous
 62
     7
370
    25
100
AcDbSpline
210
0.0
220
0.0
230
1.0
 70
     8
 71
     3
 72
    11
 73
     7
 74
     0
 42
0.000000001
 43
0.00000001
 40
0.0
 40
0.0
 40
0.0
 40
0.0
 40
0.2502772201612669
 40
0.4985665141186987
 40
0.7462313088404723
 40
1.0
 40
1.0
 40
1.0
 40
1.0
 10
289.3659815705129
 20
186.8199158653794
 30
0.0
 10
289.3872421715963
 20
186.7785826510418
 30
0.0
 10
289.4295945029967
 20
186.6962445278344
 30
0.0
 10
289.4722842110784
 20
186.564088419143
 30
0.0
 10
289.499658552262
 20
186.4272575863579
 30
0.0
 10
289.5026092539632
 20
186.3341724348502
 30
0.0
 10
289.5041025641027
 20
186.2870633012768
 30
0.0
  0
SPLINE
  5
262
330
1F
100
AcDbEntity
  8
0
  6
Continuous
 62
     7
370
    25
100
AcDbSpline
210
0.0
220
0.0
230
1.0
 70
     8
 71
     3
 72
    15
 73
    11
 74
     0
 42
0.000000001
 43
0.00000001
 40
0.0
 40
0.0
 40
0.0
 40
0.0
 40
0.0954912758894602
 40
0.1988784391269858
 40
0.3104350240910362
 40
0.4311540509907335
 40
0.559659836960115
 40
0.6976038417633176
 40
0.8443510649968787
 40
1.0
 40
1.0
 40
1.0
 40
1.0
 10
288.5155208333334
 20
187.8540705128153
 30
0.0
 10
288.5265104779263
 20
187.8340712964481
 30
0.0
 10
288.5493984678799
 20
187.792419188464
 30
0.0
 10
288.5897622927742
 20
187.7301270391308
 30
0.0
 10
288.6363664349775
 20
187.6648583645449
 30
0.0
 10
288.6886018486435
 20
187.5962610649808
 30
0.0
 10
288.7481163213401
 20
187.5254238984009
 30
0.0
 10
288.8131353040826
 20
187.4511381042018
 30
0.0
 10
288.8847001865022
 20
187.3740020332735
 30
0.0
 10
288.9353591716527
 20
187.3224911666022
 30
0.0
 10
288.9614342948719
 20
187.2959775640973
 30
0.0
  0
SPLINE
  5
263
330
1F
100
AcDbEntity
  8
0
  6
Continuous
 62
     7
370
    25
100
AcDbSpline
210
0.0
220
0.0
230
1.0
 70
     8
 71
     3
 72
    11
 73
     7
 74
     0
 42
0.000000001
 43
0.00000001
 40
0.0
 40
0.0
 40
0.0
 40
0.0
 40
0.2432961552274063
 40
0.4902287583066066
 40
0.7397560087302892
 40
0.9999999999999999
 40
0.9999999999999999
 40
0.9999999999999999
 40
0.9999999999999999
 10
288.4271794871796
 20
188.1976201923025
 30
0.0
 10
288.4283571049485
 20
188.1685765237801
 30
0.0
 10
288.4307299418562
 20
188.1100550829332
 30
0.0
 10
288.4470300398997
 20
188.0229218372514
 30
0.0
 10
288.4756645601748
 20
187.9369624341668
 30
0.0
 10
288.5020505081243
 20
187.8820857046363
 30
0.0
 10
288.5155208333334
 20
187.8540705128153
 30
0.0
  0
SPLINE
  5
264
330
1F
100
AcDbEntity
  8
0
  6
Continuous
 62
     7
370
    25
100
AcDbSpline
210
0.0
220
0.0
230
1.0
 70
     8
 71
     3
 72
    19
 73
    15
 74
     0
 42
0.000000001
 43
0.00000001
 40
0.0
 40
0.0
 40
0.0
 40
0.0
 40
0.0773838686046215
 40
0.1534456645753762
 40
0.2315016006870459
 40
0.3128801795124559
 40
0.3958336561493472
 40
0.4783390626086421
 40
0.5619399908362838
 40
0.6478588031740502
 40
0.7356822839509789
 40
0.8230980861980637
 40
0.9104213196204715
 40
0.9999999999999999
 40
0.9999999999999999
 40
0.9999999999999999
 40
0.9999999999999999
 10
288.9165625000001
 20
188.790769230764
 30
0.0
 10
288.8944901399518
 20
188.7899284324171
 30
0.0
 10
288.8507225173527
 20
188.7882612004287
 30
0.0
 10
288.7865394652402
 20
188.7715951186883
 30
0.0
 10
288.7241582222225
 20
188.7464735970913
 30
0.0
 10
288.6651462210144
 20
188.7102671867997
 30
0.0
 10
288.6095368001536
 20
188.6668831237124
 30
0.0
 10
288.5620355603607
 20
188.6139103373952
 30
0.0
 10
288.5198272124454
 20
188.5556456970787
 30
0.0
 10
288.4868120195727
 20
188.489976870724
 30
0.0
 10
288.4601959194788
 20
188.4204154189729
 30
0.0
 10
288.441669505984
 20
188.3479086063869
 30
0.0
 10
288.428707967398
 20
188.2735705326398
 30
0.0
 10
288.4276932928522
 20
188.2231512493864
 30
0.0
 10
288.4271794871796
 20
188.1976201923025
 30
0.0
  0
SPLINE
  5
265
330
1F
100
AcDbEntity
  8
0
  6
Continuous
 62
     7
370
    25
100
AcDbSpline
210
0.0
220
0.0
230
1.0
 70
     8
 71
     3
 72
    15
 73
    11
 74
     0
 42
0.000000001
 43
0.00000001
 40
0.0
 40
0.0
 40
0.0
 40
0.0
 40
0.1767911619618658
 40
0.335621828331801
 40
0.4771242180082247
 40
0.6026686200509279
 40
0.7142149887945219
 40
0.8152475451570513
 40
0.9089404021630187
 40
0.9999999999999999
 40
0.9999999999999999
 40
0.9999999999999999
 40
0.9999999999999999
 10
289.4648397435898
 20
188.2074358974307
 30
0.0
 10
289.4454528706743
 20
188.2533392435689
 30
0.0
 10
289.4086486681262
 20
188.3404825418339
 30
0.0
 10
289.3453844497798
 20
188.4592877582279
 30
0.0
 10
289.2805774514333
 20
188.5604736115296
 30
0.0
 10
289.2133161035619
 20
188.6435554968161
 30
0.0
 10
289.1435864235438
 20
188.7091532143272
 30
0.0
 10
289.070488794605
 20
188.755725729124
 30
0.0
 10
288.9944664042326
 20
188.7853848830936
 30
0.0
 10
288.9422825442128
 20
188.7889915835266
 30
0.0
 10
288.9165625000001
 20
188.790769230764
 30
0.0
  0
LINE
  5
266
330
1F
100
AcDbEntity
  8
0
  6
Continuous
 62
     7
370
    25
100
AcDbLine
 10
289.6835897436
 20
188.3848197115
 30
0.0
 11
289.4648397436
 21
188.2074358974
 31
0.0
  0
SPLINE
  5
267
330
1F
100
AcDbEntity
  8
0
  6
Continuous
 62
     7
370
    25
100
AcDbSpline
210
0.0
220
0.0
230
1.0
 70
     8
 71
     3
 72
    23
 73
    19
 74
     0
 42
0.000000001
 43
0.00000001
 40
0.0
 40
0.0
 40
0.0
 40
0.0
 40
0.0504010537631029
 40
0.0994769095597241
 40
0.1487572794084076
 40
0.1984260755507199
 40
0.2485734880669751
 40
0.2993508597761791
 40
0.3522316332728623
 40
0.4070992897525969
 40
0.464735099766413
 40
0.5268174788812098
 40
0.5928693506298922
 40
0.6640261550475438
 40
0.73999979179599
 40
0.8214848946427958
 40
0.9078409159470103
 40
1.0
 40
1.0
 40
1.0
 40
1.0
 10
288.8969310897436
 20
189.1497435897384
 30
0.0
 10
288.9166005820264
 20
189.1492503935788
 30
0.0
 10
288.9554223954373
 20
189.1482769688963
 30
0.0
 10
289.0128108212818
 20
189.1391033290315
 30
0.0
 10
289.069217115783
 20
189.1264064419478
 30
0.0
 10
289.1238255345938
 20
189.106112638519
 30
0.0
 10
289.1774174961388
 20
189.0819295425891
 30
0.0
 10
289.2289758959664
 20
189.0510761885186
 30
0.0
 10
289.2795021551015
 20
189.0153709591877
 30
0.0
 10
289.3288526414516
 20
188.9737222704694
 30
0.0
 10
289.37699014783
 20
188.9254674810513
 30
0.0
 10
289.4237393586747
 20
188.87003240073
 30
0.0
 10
289.4694579228059
 20
188.8071185813438
 30
0.0
 10
289.5140550199702
 20
188.7369172905091
 30
0.0
 10
289.5583510030224
 20
188.6595187232047
 30
0.0
 10
289.6016250565773
 20
188.5748263997484
 30
0.0
 10
289.6438003311522
 20
188.4825899998291
 30
0.0
 10
289.6700422538448
 20
188.4181085161902
 30
0.0
 10
289.6835897435898
 20
188.3848197115333
 30
0.0
  0
LINE
  5
268
330
1F
100
AcDbEntity
  8
0
  6
Continuous
 62
     7
370
    25
100
AcDbLine
 10
295.8758974359
 20
189.06
 30
0.0
 11
294.7541025641
 21
185.56
 31
0.0
  0
LINE
  5
269
330
1F
100
AcDbEntity
  8
0
  6
Continuous
 62
     7
370
    25
100
AcDbLine
 10
295.5828285256
 20
189.06
 30
0.0
 11
295.8758974359
 21
189.06
 31
0.0
  0
LINE
  5
26A
330
1F
100
AcDbEntity
  8
0
  6
Continuous
 62
     7
370
    25
100
AcDbLine
 10
295.2231530449
 20
187.9382051282
 30
0.0
 11
295.5828285256
 21
189.06
 31
0.0
  0
LINE
  5
26B
330
1F
100
AcDbEntity
  8
0
  6
Continuous
 62
     7
370
    25
100
AcDbLine
 10
294.2401802885
 20
187.9382051282
 30
0.0
 11
295.2231530449
 21
187.9382051282
 31
0.0
  0
LINE
  5
26C
330
1F
100
AcDbEntity
  8
0
  6
Continuous
 62
     7
370
    25
100
AcDbLine
 10
293.8805048077
 20
189.06
 30
0.0
 11
294.2401802885
 21
187.9382051282
 31
0.0
  0
LINE
  5
26D
330
1F
100
AcDbEntity
  8
0
  6
Continuous
 62
     7
370
    25
100
AcDbLine
 10
293.5874358974
 20
189.06
 30
0.0
 11
293.8805048077
 21
189.06
 31
0.0
  0
LINE
  5
26E
330
1F
100
AcDbEntity
  8
0
  6
Continuous
 62
     7
370
    25
100
AcDbLine
 10
294.7092307692
 20
185.56
 30
0.0
 11
293.5874358974
 21
189.06
 31
0.0
  0
LINE
  5
26F
330
1F
100
AcDbEntity
  8
0
  6
Continuous
 62
     7
370
    25
100
AcDbLine
 10
294.7541025641
 20
185.56
 30
0.0
 11
294.7092307692
 21
185.56
 31
0.0
  0
SPLINE
  5
270
330
1F
100
AcDbEntity
  8
0
  6
Continuous
 62
     7
370
    25
100
AcDbSpline
210
0.0
220
0.0
230
1.0
 70
     8
 71
     3
 72
    23
 73
    19
 74
     0
 42
0.000000001
 43
0.00000001
 40
0.0
 40
0.0
 40
0.0
 40
0.0
 40
0.0556061347998012
 40
0.1095440347130021
 40
0.1631738353847434
 40
0.2171967665752977
 40
0.2725174574932425
 40
0.3299792775805777
 40
0.3905308701382926
 40
0.4542159673549056
 40
0.5197392905612773
 40
0.5850294847365615
 40
0.6509588001735293
 40
0.7173801125116978
 40
0.7851694308456321
 40
0.8545496318961588
 40
0.9260432781966019
 40
1.0
 40
1.0
 40
1.0
 40
1.0
 10
278.6409214743591
 20
189.1497435897384
 30
0.0
 10
278.6875554933509
 20
189.1482125606441
 30
0.0
 10
278.7794244681259
 20
189.1451964347281
 30
0.0
 10
278.9140801004231
 20
189.1186185758119
 30
0.0
 10
279.0433874008632
 20
189.0774896151752
 30
0.0
 10
279.1670322457519
 20
189.0185253855341
 30
0.0
 10
279.2849087422098
 20
188.9427729417084
 30
0.0
 10
279.3968661893068
 20
188.8497795876712
 30
0.0
 10
279.5035412039572
 20
188.7407794976444
 30
0.0
 10
279.6026946944293
 20
188.6162074344613
 30
0.0
 10
279.6939262451697
 20
188.480938658872
 30
0.0
 10
279.773426688653
 20
188.3362839265097
 30
0.0
 10
279.8408873000525
 20
188.1848081108701
 30
0.0
 10
279.8952952314475
 20
188.0260157490911
 30
0.0
 10
279.9395034182886
 20
187.8610501932072
 30
0.0
 10
279.9688468634326
 20
187.6885091047407
 30
0.0
 10
279.9876975036722
 20
187.5093048034203
 30
0.0
 10
279.9900737886389
 20
187.3874061367677
 30
0.0
 10
279.9912820512821
 20
187.325424679482
 30
0.0
  0
SPLINE
  5
271
330
1F
100
AcDbEntity
  8
0
  6
Continuous
 62
     7
370
    25
100
AcDbSpline
210
0.0
220
0.0
230
1.0
 70
     8
 71
     3
 72
    23
 73
    19
 74
     0
 42
0.000000001
 43
0.00000001
 40
0.0
 40
0.0
 40
0.0
 40
0.0
 40
0.0748233216744617
 40
0.1471867031241484
 40
0.2171588760535919
 40
0.2854610254506537
 40
0.3525415603193199
 40
0.418394835932797
 40
0.4839564220904021
 40
0.5494938387291569
 40
0.6131851301130821
 40
0.6731483518900987
 40
0.7303835553561681
 40
0.7852872928358191
 40
0.8390006623076315
 40
0.8919240756005294
 40
0.9454103536487465
 40
1.0
 40
1.0
 40
1.0
 40
1.0
 10
277.2989743589744
 20
187.308597756405
 30
0.0
 10
277.3001940690129
 20
187.3715106832377
 30
0.0
 10
277.3025933891089
 20
187.4952681705714
 30
0.0
 10
277.3212681282621
 20
187.6770773872417
 30
0.0
 10
277.3510612480607
 20
187.8517706701089
 30
0.0
 10
277.3938196444
 20
188.0192556471428
 30
0.0
 10
277.4494807005309
 20
188.1791957506416
 30
0.0
 10
277.5161043960618
 20
188.3323829730918
 30
0.0
 10
277.5954787677998
 20
188.4779715775112
 30
0.0
 10
277.6868368259186
 20
188.6141032587532
 30
0.0
 10
277.7857954662886
 20
188.7388832188932
 30
0.0
 10
277.8915174831578
 20
188.8485121949675
 30
0.0
 10
278.0022907217991
 20
188.9421328982585
 30
0.0
 10
278.1199065011151
 20
189.0176385671039
 30
0.0
 10
278.2422682638642
 20
189.0774958078642
 30
0.0
 10
278.3707761146716
 20
189.1186885022251
 30
0.0
 10
278.5040559826159
 20
189.1450967620361
 30
0.0
 10
278.5949901887313
 20
189.1481841406198
 30
0.0
 10
278.6409214743591
 20
189.1497435897384
 30
0.0
  0
SPLINE
  5
272
330
1F
100
AcDbEntity
  8
0
  6
Continuous
 62
     7
370
    25
100
AcDbSpline
210
0.0
220
0.0
230
1.0
 70
     8
 71
     3
 72
    31
 73
    27
 74
     0
 42
0.000000001
 43
0.00000001
 40
0.0
 40
0.0
 40
0.0
 40
0.0
 40
0.049491562931304
 40
0.0982509489965124
 40
0.1463843248802429
 40
0.1940020446377892
 40
0.2408879895764072
 40
0.2875509225022552
 40
0.3339664723184228
 40
0.380167611190388
 40
0.425721158530485
 40
0.4698566493541775
 40
0.5127157973138133
 40
0.5541933274524001
 40
0.5950051157609343
 40
0.6349877392839055
 40
0.674496005560565
 40
0.7135409743900123
 40
0.7519021604505733
 40
0.7888515717381659
 40
0.8249076986969841
 40
0.8604240328041166
 40
0.8951483267823925
 40
0.9298815204324944
 40
0.9649479230346695
 40
1.0
 40
1.0
 40
1.0
 40
1.0
 10
279.9912820512821
 20
187.325424679482
 30
0.0
 10
279.9907528048673
 20
187.2838101535995
 30
0.0
 10
279.9897021416951
 20
187.2011967460241
 30
0.0
 10
279.9809922928387
 20
187.0783685915368
 30
0.0
 10
279.9671467808362
 20
186.9576155051551
 30
0.0
 10
279.9472573619697
 20
186.8393186884115
 30
0.0
 10
279.9231893079205
 20
186.723031953313
 30
0.0
 10
279.8917005119023
 20
186.6095986881907
 30
0.0
 10
279.8566552562153
 20
186.4977988206194
 30
0.0
 10
279.8139482311967
 20
186.3897064325068
 30
0.0
 10
279.7687276638936
 20
186.2847253221231
 30
0.0
 10
279.7169843810776
 20
186.1859295189752
 30
0.0
 10
279.6625581166532
 20
186.0925956522517
 30
0.0
 10
279.6042587867886
 20
186.0048913648101
 30
0.0
 10
279.5409358261611
 20
185.9238088093633
 30
0.0
 10
279.4742747089969
 20
185.847669166425
 30
0.0
 10
279.4035305704327
 20
185.777316609224
 30
0.0
 10
279.3283744574188
 20
185.7138527833135
 30
0.0
 10
279.2512912513984
 20
185.6562208857254
 30
0.0
 10
279.1714099983208
 20
185.6071933727108
 30
0.0
 10
279.0906629345286
 20
185.5645027076916
 30
0.0
 10
279.0079322742619
 20
185.5304039456874
 30
0.0
 10
278.9238417814558
 20
185.5031836769707
 30
0.0
 10
278.8378517157518
 20
185.4846623555171
 30
0.0
 10
278.7504445538003
 20
185.4719049234156
 30
0.0
 10
278.691447585589
 20
185.4708058397895
 30
0.0
 10
278.6619551282052
 20
185.4702564102512
 30
0.0
  0
LINE
  5
273
330
1F
100
AcDbEntity
  8
0
  6
Continuous
 62
     7
370
    25
100
AcDbLine
 10
274.2476923077
 20
189.06
 30
0.0
 11
273.1258974359
 21
185.56
 31
0.0
  0
LINE
  5
274
330
1F
100
AcDbEntity
  8
0
  6
Continuous
 62
     7
370
    25
100
AcDbLine
 10
273.9546233974
 20
189.06
 30
0.0
 11
274.2476923077
 21
189.06
 31
0.0
  0
LINE
  5
275
330
1F
100
AcDbEntity
  8
0
  6
Continuous
 62
     7
370
    25
100
AcDbLine
 10
273.5949479167
 20
187.9382051282
 30
0.0
 11
273.9546233974
 21
189.06
 31
0.0
  0
LINE
  5
276
330
1F
100
AcDbEntity
  8
0
  6
Continuous
 62
     7
370
    25
100
AcDbLine
 10
272.6119751603
 20
187.9382051282
 30
0.0
 11
273.5949479167
 21
187.9382051282
 31
0.0
  0
LINE
  5
277
330
1F
100
AcDbEntity
  8
0
  6
Continuous
 62
     7
370
    25
100
AcDbLine
 10
272.2522996795
 20
189.06
 30
0.0
 11
272.6119751603
 21
187.9382051282
 31
0.0
  0
LINE
  5
278
330
1F
100
AcDbEntity
  8
0
  6
Continuous
 62
     7
370
    25
100
AcDbLine
 10
271.9592307692
 20
189.06
 30
0.0
 11
272.2522996795
 21
189.06
 31
0.0
  0
LINE
  5
279
330
1F
100
AcDbEntity
  8
0
  6
Continuous
 62
     7
370
    25
100
AcDbLine
 10
273.081025641
 20
185.56
 30
0.0
 11
271.9592307692
 21
189.06
 31
0.0
  0
LINE
  5
27A
330
1F
100
AcDbEntity
  8
0
  6
Continuous
 62
     7
370
    25
100
AcDbLine
 10
273.1258974359
 20
185.56
 30
0.0
 11
273.081025641
 21
185.56
 31
0.0
  0
SPLINE
  5
27B
330
1F
100
AcDbEntity
  8
0
  6
Continuous
 62
     7
370
    25
100
AcDbSpline
210
0.0
220
0.0
230
1.0
 70
     8
 71
     3
 72
    15
 73
    11
 74
     0
 42
0.000000001
 43
0.00000001
 40
0.0
 40
0.0
 40
0.0
 40
0.0
 40
0.1110987892720653
 40
0.2201762067780362
 40
0.3353272397377488
 40
0.4596588397167819
 40
0.5920348788047357
 40
0.7225486786876505
 40
0.8583762763913007
 40
1.0
 40
1.0
 40
1.0
 40
1.0
 10
268.8182051282051
 20
189.1048717948666
 30
0.0
 10
268.8333244083502
 20
189.1037957484767
 30
0.0
 10
268.8632878829602
 20
189.101663233676
 30
0.0
 10
268.9060147503779
 20
189.0841741158282
 30
0.0
 10
268.9451873035072
 20
189.0571012878783
 30
0.0
 10
268.9792497282938
 20
189.0193539067905
 30
0.0
 10
269.0073046831943
 20
188.9746740878161
 30
0.0
 10
269.0282140139762
 20
188.9244974387257
 30
0.0
 10
269.0400587122419
 20
188.8700781473609
 30
0.0
 10
269.0417174219736
 20
188.8324250002588
 30
0.0
 10
269.0425641025641
 20
188.8132051281999
 30
0.0
  0
SPLINE
  5
27C
330
1F
100
AcDbEntity
  8
0
  6
Continuous
 62
     7
370
    25
100
AcDbSpline
210
0.0
220
0.0
230
1.0
 70
     8
 71
     3
 72
    15
 73
    11
 74
     0
 42
0.000000001
 43
0.00000001
 40
0.0
 40
0.0
 40
0.0
 40
0.0
 40
0.1417291731782859
 40
0.2776579047975745
 40
0.4089383081360703
 40
0.5414129111933195
 40
0.6658370854485384
 40
0.7796598553897514
 40
0.8888184892797754
 40
1.0
 40
1.0
 40
1.0
 40
1.0
 10
268.5938461538462
 20
188.8132051281999
 30
0.0
 10
268.5947128265597
 20
188.8324163761988
 30
0.0
 10
268.596410702335
 20
188.8700526281311
 30
0.0
 10
268.6079934830058
 20
188.9246825111662
 30
0.0
 10
268.6299891425573
 20
188.9744924196571
 30
0.0
 10
268.6577805542343
 20
189.0194136633095
 30
0.0
 10
268.6918907820377
 20
189.0568316975401
 30
0.0
 10
268.7304869976914
 20
189.0843723084247
 30
0.0
 10
268.7731445938284
 20
189.101631990167
 30
0.0
 10
268.8030933000476
 20
189.1037852704265
 30
0.0
 10
268.8182051282051
 20
189.1048717948666
 30
0.0
  0
SPLINE
  5
27D
330
1F
100
AcDbEntity
  8
0
  6
Continuous
 62
     7
370
    25
100
AcDbSpline
210
0.0
220
0.0
230
1.0
 70
     8
 71
     3
 72
    15
 73
    11
 74
     0
 42
0.000000001
 43
0.00000001
 40
0.0
 40
0.0
 40
0.0
 40
0.0
 40
0.1110294394364609
 40
0.2194253948582973
 40
0.3330924808675833
 40
0.457346470855763
 40
0.5881871126129827
 40
0.7192879539061325
 40
0.8550307656131723
 40
1.0
 40
1.0
 40
1.0
 40
1.0
 10
268.8182051282051
 20
188.5215384615333
 30
0.0
 10
268.8031192935718
 20
188.5226933612461
 30
0.0
 10
268.7733054420565
 20
188.5249757678475
 30
0.0
 10
268.7303342096723
 20
188.5411537416352
 30
0.0
 10
268.6918940219098
 20
188.5689332456766
 30
0.0
 10
268.6580073494336
 20
188.6061913949453
 30
0.0
 10
268.6297864821632
 20
188.650623915677
 30
0.0
 10
268.6080287139634
 20
188.7003457253172
 30
0.0
 10
268.5962985034538
 20
188.7554091335158
 30
0.0
 10
268.5946813215206
 20
188.7935222304918
 30
0.0
 10
268.5938461538462
 20
188.8132051281999
 30
0.0
  0
SPLINE
  5
27E
330
1F
100
AcDbEntity
  8
0
  6
Continuous
 62
     7
370
    25
100
AcDbSpline
210
0.0
220
0.0
230
1.0
 70
     8
 71
     3
 72
    15
 73
    11
 74
     0
 42
0.000000001
 43
0.00000001
 40
0.0
 40
0.0
 40
0.0
 40
0.0
 40
0.1448615215605648
 40
0.2805034757169959
 40
0.4108388947319348
 40
0.5415823212739871
 40
0.6657439899603906
 40
0.7807376392470724
 40
0.8890530559617593
 40
1.0
 40
1.0
 40
1.0
 40
1.0
 10
269.0425641025641
 20
188.8132051281999
 30
0.0
 10
269.0417496633985
 20
188.7935132890967
 30
0.0
 10
269.0401726192378
 20
188.7553828783968
 30
0.0
 10
269.0281787366819
 20
188.700530807394
 30
0.0
 10
269.0075038941408
 20
188.6504438469965
 30
0.0
 10
268.9790234590012
 20
188.6062506410717
 30
0.0
 10
268.9451843762946
 20
188.5686636520778
 30
0.0
 10
268.9061692463452
 20
188.5413480179618
 30
0.0
 10
268.8631271160287
 20
188.5249442597436
 30
0.0
 10
268.8332984559729
 20
188.522682774846
 30
0.0
 10
268.8182051282051
 20
188.5215384615333
 30
0.0
  0
SPLINE
  5
27F
330
1F
100
AcDbEntity
  8
0
  6
Continuous
 62
     7
370
    25
100
AcDbSpline
210
0.0
220
0.0
230
1.0
 70
     8
 71
     3
 72
    15
 73
    11
 74
     0
 42
0.000000001
 43
0.00000001
 40
0.0
 40
0.0
 40
0.0
 40
0.0
 40
0.1110987892720662
 40
0.220176206778038
 40
0.3353272397377496
 40
0.4596588397167826
 40
0.5920348788047363
 40
0.7225486786876509
 40
0.8583762763913009
 40
1.0
 40
1.0
 40
1.0
 40
1.0
 10
266.7541025641026
 20
189.1048717948666
 30
0.0
 10
266.7692218442477
 20
189.1037957484767
 30
0.0
 10
266.7991853188576
 20
189.101663233676
 30
0.0
 10
266.8419121862754
 20
189.0841741158282
 30
0.0
 10
266.8810847394047
 20
189.0571012878783
 30
0.0
 10
266.9151471641912
 20
189.0193539067905
 30
0.0
 10
266.9432021190917
 20
188.9746740878161
 30
0.0
 10
266.9641114498737
 20
188.9244974387257
 30
0.0
 10
266.9759561481394
 20
188.8700781473609
 30
0.0
 10
266.977614857871
 20
188.8324250002588
 30
0.0
 10
266.9784615384616
 20
188.8132051281999
 30
0.0
  0
SPLINE
  5
280
330
1F
100
AcDbEntity
  8
0
  6
Continuous
 62
     7
370
    25
100
AcDbSpline
210
0.0
220
0.0
230
1.0
 70
     8
 71
     3
 72
    15
 73
    11
 74
     0
 42
0.000000001
 43
0.00000001
 40
0.0
 40
0.0
 40
0.0
 40
0.0
 40
0.1417291731782861
 40
0.2776579047975748
 40
0.4089383081360703
 40
0.5414129111933207
 40
0.6658370854485398
 40
0.7796598553897511
 40
0.8888184892797762
 40
1.0
 40
1.0
 40
1.0
 40
1.0
 10
266.5297435897436
 20
188.8132051281999
 30
0.0
 10
266.5306102624572
 20
188.8324163761988
 30
0.0
 10
266.5323081382325
 20
188.8700526281311
 30
0.0
 10
266.5438909189033
 20
188.9246825111662
 30
0.0
 10
266.5658865784548
 20
188.9744924196571
 30
0.0
 10
266.5936779901317
 20
189.0194136633095
 30
0.0
 10
266.6277882179351
 20
189.0568316975401
 30
0.0
 10
266.6663844335888
 20
189.0843723084247
 30
0.0
 10
266.7090420297258
 20
189.101631990167
 30
0.0
 10
266.738990735945
 20
189.1037852704265
 30
0.0
 10
266.7541025641026
 20
189.1048717948666
 30
0.0
  0
SPLINE
  5
281
330
1F
100
AcDbEntity
  8
0
  6
Continuous
 62
     7
370
    25
100
AcDbSpline
210
0.0
220
0.0
230
1.0
 70
     8
 71
     3
 72
    15
 73
    11
 74
     0
 42
0.000000001
 43
0.00000001
 40
0.0
 40
0.0
 40
0.0
 40
0.0
 40
0.1110294394364599
 40
0.2194253948582975
 40
0.3330924808675818
 40
0.4573464708557616
 40
0.5881871126129826
 40
0.7192879539061321
 40
0.855030765613172
 40
1.0
 40
1.0
 40
1.0
 40
1.0
 10
266.7541025641026
 20
188.5215384615333
 30
0.0
 10
266.7390167294693
 20
188.5226933612461
 30
0.0
 10
266.7092028779539
 20
188.5249757678475
 30
0.0
 10
266.6662316455697
 20
188.5411537416352
 30
0.0
 10
266.6277914578073
 20
188.5689332456766
 30
0.0
 10
266.5939047853311
 20
188.6061913949453
 30
0.0
 10
266.5656839180607
 20
188.650623915677
 30
0.0
 10
266.5439261498609
 20
188.7003457253172
 30
0.0
 10
266.5321959393513
 20
188.7554091335158
 30
0.0
 10
266.530578757418
 20
188.7935222304917
 30
0.0
 10
266.5297435897436
 20
188.8132051281999
 30
0.0
  0
SPLINE
  5
282
330
1F
100
AcDbEntity
  8
0
  6
Continuous
 62
     7
370
    25
100
AcDbSpline
210
0.0
220
0.0
230
1.0
 70
     8
 71
     3
 72
    15
 73
    11
 74
     0
 42
0.000000001
 43
0.00000001
 40
0.0
 40
0.0
 40
0.0
 40
0.0
 40
0.1448615215605646
 40
0.2805034757169955
 40
0.4108388947319342
 40
0.5415823212739864
 40
0.6657439899603897
 40
0.7807376392470705
 40
0.8890530559617583
 40
0.9999999999999999
 40
0.9999999999999999
 40
0.9999999999999999
 40
0.9999999999999999
 10
266.9784615384616
 20
188.8132051281999
 30
0.0
 10
266.977647099296
 20
188.7935132890967
 30
0.0
 10
266.9760700551352
 20
188.7553828783968
 30
0.0
 10
266.9640761725794
 20
188.700530807394
 30
0.0
 10
266.9434013300382
 20
188.6504438469965
 30
0.0
 10
266.9149208948986
 20
188.6062506410717
 30
0.0
 10
266.8810818121921
 20
188.5686636520778
 30
0.0
 10
266.8420666822427
 20
188.5413480179618
 30
0.0
 10
266.7990245519262
 20
188.5249442597436
 30
0.0
 10
266.7691958918703
 20
188.522682774846
 30
0.0
 10
266.7541025641026
 20
188.5215384615333
 30
0.0
  0
SPLINE
  5
283
330
1F
100
AcDbEntity
  8
0
  6
Continuous
 62
     7
370
    25
100
AcDbSpline
210
0.0
220
0.0
230
1.0
 70
     8
 71
     3
 72
    23
 73
    19
 74
     0
 42
0.000000001
 43
0.00000001
 40
0.0
 40
0.0
 40
0.0
 40
0.0
 40
0.0561311272566704
 40
0.1105446996414155
 40
0.164490693136268
 40
0.2185861882200419
 40
0.2737983216716739
 40
0.3307025735938874
 40
0.3904289212690719
 40
0.4536262558270602
 40
0.5184694965267151
 40
0.5830820278981925
 40
0.6485793787737232
 40
0.7149233458902022
 40
0.7830084324946616
 40
0.8527562631037895
 40
0.9251556692001539
 40
1.0
 40
1.0
 40
1.0
 40
1.0
 10
278.6619551282052
 20
185.4702564102512
 30
0.0
 10
278.614414156577
 20
185.4718992862241
 30
0.0
 10
278.5207869182486
 20
185.4751347678515
 30
0.0
 10
278.3831730606387
 20
185.5000611009753
 30
0.0
 10
278.2521844427059
 20
185.5429742263905
 30
0.0
 10
278.1259832972673
 20
185.6002910792589
 30
0.0
 10
278.007149245462
 20
185.6764613179143
 30
0.0
 10
277.8941035566551
 20
185.7685008445039
 30
0.0
 10
277.7872843150958
 20
185.8774150511347
 30
0.0
 10
277.6874976500559
 20
186.0014526800093
 30
0.0
 10
277.5964043192888
 20
186.1370024779626
 30
0.0
 10
277.5165771221571
 20
186.2817375951601
 30
0.0
 10
277.4495266633978
 20
186.4341671662404
 30
0.0
 10
277.3935998954132
 20
186.5941365627737
 30
0.0
 10
277.3510968552361
 20
186.7619350624488
 30
0.0
 10
277.3212034163776
 20
186.937542191188
 30
0.0
 10
277.30260603582
 20
187.1205302693941
 30
0.0
 10
277.3001982447329
 20
187.2452184611707
 30
0.0
 10
277.2989743589744
 20
187.308597756405
 30
0.0
  0
SPLINE
  5
284
330
1F
100
AcDbEntity
  8
0
  6
Continuous
 62
     7
370
    25
100
AcDbSpline
210
0.0
220
0.0
230
1.0
 70
     8
 71
     3
 72
    15
 73
    11
 74
     0
 42
0.000000001
 43
0.00000001
 40
0.0
 40
0.0
 40
0.0
 40
0.0
 40
0.1773562902825111
 40
0.3397570920426183
 40
0.4871564347424502
 40
0.6189278323480004
 40
0.7366280875573723
 40
0.8387591685491436
 40
0.9266456079359512
 40
1.0
 40
1.0
 40
1.0
 40
1.0
 10
288.9614342948719
 20
187.2959775640973
 30
0.0
 10
288.9875601776324
 20
187.2697450203287
 30
0.0
 10
289.037608889971
 20
187.2194919801149
 30
0.0
 10
289.1064600891673
 20
187.1446530454676
 30
0.0
 10
289.169333307504
 20
187.0772497880432
 30
0.0
 10
289.2233492816114
 20
187.0144199063063
 30
0.0
 10
289.2701515843287
 20
186.9579027439439
 30
0.0
 10
289.3101710168768
 20
186.9076205475022
 30
0.0
 10
289.3409231464962
 20
186.8619874543431
 30
0.0
 10
289.3581461788443
 20
186.8330710174126
 30
0.0
 10
289.3659815705129
 20
186.8199158653794
 30
0.0
  0
SPLINE
  5
285
330
1F
100
AcDbEntity
  8
0
  6
Continuous
 62
     7
370
    25
100
AcDbSpline
210
0.0
220
0.0
230
1.0
 70
     8
 71
     3
 72
    27
 73
    23
 74
     0
 42
0.000000001
 43
0.00000001
 40
0.0
 40
0.0
 40
0.0
 40
0.0
 40
0.0362138134808971
 40
0.0716518108523366
 40
0.1072770114745175
 40
0.1427015993298693
 40
0.17873291632327
 40
0.215261872746767
 40
0.2525614686810873
 40
0.2911030267797036
 40
0.3302439659166539
 40
0.3697353557737316
 40
0.4095189177264834
 40
0.4499950888742017
 40
0.4909090738598019
 40
0.5331106633605721
 40
0.5761152088262144
 40
0.620696943311087
 40
0.7117147979832114
 40
0.8046663624656345
 40
0.9002973183587791
 40
1.0
 40
1.0
 40
1.0
 40
1.0
 10
278.6500360576923
 20
188.790769230764
 30
0.0
 10
278.6254659908041
 20
188.7903030812121
 30
0.0
 10
278.5768522267157
 20
188.7893807685278
 30
0.0
 10
278.5046093980969
 20
188.779758833245
 30
0.0
 10
278.4339126629383
 20
188.7646311356071
 30
0.0
 10
278.3646867560994
 20
188.7423625602966
 30
0.0
 10
278.2967311566209
 20
188.7149990985781
 30
0.0
 10
278.2296063135322
 20
188.6823819764654
 30
0.0
 10
278.1652254844025
 20
188.6414559552698
 30
0.0
 10
278.1013850632769
 20
188.5965825501671
 30
0.0
 10
278.0408749598487
 20
188.5449767445828
 30
0.0
 10
277.9821935162904
 20
188.490054816672
 30
0.0
 10
277.9285170461864
 20
188.4290140927776
 30
0.0
 10
277.8770009333908
 20
188.3649332130773
 30
0.0
 10
277.830068052375
 20
188.2954134046625
 30
0.0
 10
277.7857369046669
 20
188.2222143132722
 30
0.0
 10
277.7459284197865
 20
188.1436521096028
 30
0.0
 10
277.6960446583333
 20
188.0332412108821
 30
0.0
 10
277.6449589765533
 20
187.8865758234515
 30
0.0
 10
277.5994870470638
 20
187.7022244015045
 30
0.0
 10
277.5736090522884
 20
187.5079830996485
 30
0.0
 10
277.5700312956546
 20
187.3755125714554
 30
0.0
 10
277.5682051282052
 20
187.3078966346102
 30
0.0
  0
SPLINE
  5
286
330
1F
100
AcDbEntity
  8
0
  6
Continuous
 62
     7
370
    25
100
AcDbSpline
210
0.0
220
0.0
230
1.0
 70
     8
 71
     3
 72
    23
 73
    19
 74
     0
 42
0.000000001
 43
0.00000001
 40
0.0
 40
0.0
 40
0.0
 40
0.0
 40
0.0753643028873303
 40
0.1479210478213362
 40
0.2180392056741897
 40
0.2864650244733009
 40
0.3536280076397484
 40
0.41966344058831
 40
0.4850688091839034
 40
0.5506450122955858
 40
0.6143664702835901
 40
0.6745355564297186
 40
0.7315092737162119
 40
0.7862592140879169
 40
0.8397553785722267
 40
0.8925789826456086
 40
0.945856469110418
 40
1.0
 40
1.0
 40
1.0
 40
1.0
 10
279.7220512820513
 20
187.3240224358922
 30
0.0
 10
279.7211460324928
 20
187.3745402456389
 30
0.0
 10
279.7193692567766
 20
187.4736939174048
 30
0.0
 10
279.7043023969496
 20
187.6192178270368
 30
0.0
 10
279.6799088978181
 20
187.7586895148849
 30
0.0
 10
279.6455149945508
 20
187.8923453156282
 30
0.0
 10
279.6014210382091
 20
188.0202327047094
 30
0.0
 10
279.5473173898991
 20
188.1420316238171
 30
0.0
 10
279.4830922843138
 20
188.2575864870759
 30
0.0
 10
279.4101935731582
 20
188.3659903672485
 30
0.0
 10
279.3304229380132
 20
188.465020962202
 30
0.0
 10
279.2454027745067
 20
188.5516692952401
 30
0.0
 10
279.1567201482679
 20
188.6256019422318
 30
0.0
 10
279.0633469407949
 20
188.6855468119022
 30
0.0
 10
278.9662477886148
 20
188.7334989348963
 30
0.0
 10
278.8640917052317
 20
188.7660398410831
 30
0.0
 10
278.7584501181366
 20
188.7876188381082
 30
0.0
 10
278.6863677907014
 20
188.7897134707973
 30
0.0
 10
278.6500360576923
 20
188.790769230764
 30
0.0
  0
SPLINE
  5
287
330
1F
100
AcDbEntity
  8
0
  6
Continuous
 62
     7
370
    25
100
AcDbSpline
210
0.0
220
0.0
230
1.0
 70
     8
 71
     3
 72
    27
 73
    23
 74
     0
 42
0.000000001
 43
0.00000001
 40
0.0
 40
0.0
 40
0.0
 40
0.0
 40
0.0345403335200462
 40
0.0690478905893666
 40
0.1033754852476494
 40
0.1381923175834046
 40
0.1739025756221038
 40
0.2104877019749208
 40
0.2480225815446469
 40
0.2870234984625047
 40
0.3267056395078536
 40
0.3664852153648313
 40
0.4068119831058167
 40
0.4476159030587517
 40
0.4890671194749781
 40
0.5313279591852038
 40
0.5748578081212988
 40
0.6195021344928143
 40
0.7103224458031931
 40
0.8036588163280971
 40
0.8998125578359338
 40
1.0
 40
1.0
 40
1.0
 40
1.0
 10
278.6500360576923
 20
185.8292307692255
 30
0.0
 10
278.6734457647951
 20
185.8296452225447
 30
0.0
 10
278.7202429647649
 20
185.8304737358948
 30
0.0
 10
278.7896060317551
 20
185.8410542863131
 30
0.0
 10
278.8581510625453
 20
185.8563263136916
 30
0.0
 10
278.9258953281438
 20
185.8780598759436
 30
0.0
 10
278.9923417624631
 20
185.9073390162295
 30
0.0
 10
279.0585025559404
 20
185.9414491024827
 30
0.0
 10
279.1232465526547
 20
185.9825775739889
 30
0.0
 10
279.1865025135549
 20
186.0294528167688
 30
0.0
 10
279.2482923892629
 20
186.0807481019347
 30
0.0
 10
279.3056373040735
 20
186.1382313297492
 30
0.0
 10
279.3605106098706
 20
186.1990484532123
 30
0.0
 10
279.4117226769056
 20
186.2644650983511
 30
0.0
 10
279.4594425473692
 20
186.3340372573062
 30
0.0
 10
279.5038503710775
 20
186.4079443504101
 30
0.0
 10
279.5443142926917
 20
186.4865192890213
 30
0.0
 10
279.5939842326135
 20
186.5971285144682
 30
0.0
 10
279.6458746001337
 20
186.7434932112371
 30
0.0
 10
279.6895417007147
 20
186.928496158099
 30
0.0
 10
279.7169705778467
 20
187.1231517785418
 30
0.0
 10
279.7203346762524
 20
187.2561547306782
 30
0.0
 10
279.7220512820513
 20
187.3240224358922
 30
0.0
  0
SPLINE
  5
288
330
1F
100
AcDbEntity
  8
0
  6
Continuous
 62
     7
370
    25
100
AcDbSpline
210
0.0
220
0.0
230
1.0
 70
     8
 71
     3
 72
    31
 73
    27
 74
     0
 42
0.000000001
 43
0.00000001
 40
0.0
 40
0.0
 40
0.0
 40
0.0
 40
0.0501967491003085
 40
0.0994661459104872
 40
0.1475107086710973
 40
0.1948519830460004
 40
0.2412901464816286
 40
0.2868848560375624
 40
0.3320877231231314
 40
0.3770154669259699
 40
0.421156418450194
 40
0.4641967469625672
 40
0.5062815521760671
 40
0.5475660099741246
 40
0.5882144632770131
 40
0.6286323941920237
 40
0.6685312836457489
 40
0.7085919746067305
 40
0.7479832316162439
 40
0.7859182584428758
 40
0.8229148544181987
 40
0.859044868632886
 40
0.8946202371616239
 40
0.9297210202048314
 40
0.9646696030869357
 40
1.0
 40
1.0
 40
1.0
 40
1.0
 10
277.5682051282052
 20
187.3078966346102
 30
0.0
 10
277.5685185322849
 20
187.2739934729812
 30
0.0
 10
277.5691395505078
 20
187.2068134885828
 30
0.0
 10
277.5768335898795
 20
187.1074566014644
 30
0.0
 10
277.5868272420921
 20
187.0102728250459
 30
0.0
 10
277.6022556663946
 20
186.9156917219312
 30
0.0
 10
277.622708898165
 20
186.8237882185012
 30
0.0
 10
277.64730577612
 20
186.734404239628
 30
0.0
 10
277.6761194541323
 20
186.6473673408358
 30
0.0
 10
277.7087772254341
 20
186.5627374174506
 30
0.0
 10
277.7459406623909
 20
186.4815846072855
 30
0.0
 10
277.7865897326707
 20
186.4042923785967
 30
0.0
 10
277.8307903421707
 20
186.3312035965638
 30
0.0
 10
277.8785721389968
 20
186.2623765048073
 30
0.0
 10
277.9297466132159
 20
186.1974182221103
 30
0.0
 10
277.9853391295076
 20
186.1374983643238
 30
0.0
 10
278.0435973459578
 20
186.0807288317577
 30
0.0
 10
278.1058415197252
 20
186.0294160294109
 30
0.0
 10
278.1698278917562
 20
185.9825703492777
 30
0.0
 10
278.2352672843836
 20
185.9414324659049
 30
0.0
 10
278.3021347331495
 20
185.9073470207305
 30
0.0
 10
278.3694647979411
 20
185.8779078549612
 30
0.0
 10
278.4384374066245
 20
185.856332071024
 30
0.0
 10
278.5081483342437
 20
185.8411260595214
 30
0.0
 10
278.5786602257087
 20
185.8304297658854
 30
0.0
 10
278.6261580976799
 20
185.8296318797065
 30
0.0
 10
278.6500360576923
 20
185.8292307692255
 30
0.0
  0
SPLINE
  5
289
330
1F
100
AcDbEntity
  8
0
  6
Continuous
 62
     7
370
    25
100
AcDbSpline
210
0.0
220
0.0
230
1.0
 70
     8
 71
     3
 72
    23
 73
    19
 74
     0
 42
0.000000001
 43
0.00000001
 40
0.0
 40
0.0
 40
0.0
 40
0.0
 40
0.052637714590384
 40
0.1046344211599373
 40
0.1559111889304686
 40
0.2083559366760066
 40
0.2630832660087457
 40
0.3202114250534305
 40
0.380447297674893
 40
0.4447980195517861
 40
0.5111242036976311
 40
0.5774974054657407
 40
0.6441793123782997
 40
0.7114144767159828
 40
0.7809140313908222
 40
0.8517437176383208
 40
0.9244962397856361
 40
1.0
 40
1.0
 40
1.0
 40
1.0
 10
265.138717948718
 20
186.7715384615333
 30
0.0
 10
265.1628552637507
 20
186.7725271327753
 30
0.0
 10
265.2108359560443
 20
186.7744924354853
 30
0.0
 10
265.2811735157549
 20
186.7888541313974
 30
0.0
 10
265.3487317137448
 20
186.8124074694832
 30
0.0
 10
265.413894642881
 20
186.8449680802168
 30
0.0
 10
265.4763393745832
 20
186.8874273082669
 30
0.0
 10
265.5361433723961
 20
186.9390840786956
 30
0.0
 10
265.5933270227817
 20
186.9998723307908
 30
0.0
 10
265.6462558069904
 20
187.0696848137306
 30
0.0
 10
265.6960343510921
 20
187.1451789847638
 30
0.0
 10
265.7384933760479
 20
187.2262365406664
 30
0.0
 10
265.7753889970789
 20
187.3104189081467
 30
0.0
 10
265.804572796846
 20
187.3990688515926
 30
0.0
 10
265.8289114474856
 20
187.4911545358891
 30
0.0
 10
265.8443887940612
 20
187.5876999130285
 30
0.0
 10
265.8546353695492
 20
187.6876831510579
 30
0.0
 10
265.855981242367
 20
187.7556528914508
 30
0.0
 10
265.8566666666667
 20
187.790268429482
 30
0.0
  0
SPLINE
  5
28A
330
1F
100
AcDbEntity
  8
0
  6
Continuous
 62
     7
370
    25
100
AcDbSpline
210
0.0
220
0.0
230
1.0
 70
     8
 71
     3
 72
    19
 73
    15
 74
     0
 42
0.000000001
 43
0.00000001
 40
0.0
 40
0.0
 40
0.0
 40
0.0
 40
0.0983540067612086
 40
0.194377715555627
 40
0.2885695574065537
 40
0.3817844430718731
 40
0.4717465720449179
 40
0.5565305739069382
 40
0.6365496883196355
 40
0.713743157984489
 40
0.7879269027057342
 40
0.8590609970729661
 40
0.929304289462562
 40
1.0
 40
1.0
 40
1.0
 40
1.0
 10
265.8566666666667
 20
187.790268429482
 30
0.0
 10
265.855351371332
 20
187.8349580790051
 30
0.0
 10
265.8527519439079
 20
187.9232785477826
 30
0.0
 10
265.8351840975488
 20
188.0535005408271
 30
0.0
 10
265.8048080841077
 20
188.1788483916821
 30
0.0
 10
265.763228603866
 20
188.2980555222646
 30
0.0
 10
265.7110382658627
 20
188.4082948122841
 30
0.0
 10
265.6504115213713
 20
188.5072407993677
 30
0.0
 10
265.580360209758
 20
188.5924873441386
 30
0.0
 10
265.5024572987341
 20
188.6635910364939
 30
0.0
 10
265.4182280783474
 20
188.7203657313766
 30
0.0
 10
265.3285890722594
 20
188.7606235369632
 30
0.0
 10
265.2350741104917
 20
188.7867660357666
 30
0.0
 10
265.170905330503
 20
188.7894319798465
 30
0.0
 10
265.138717948718
 20
188.790769230764
 30
0.0
  0
SPLINE
  5
28B
330
1F
100
AcDbEntity
  8
0
  6
Continuous
 62
     7
370
    25
100
AcDbSpline
210
0.0
220
0.0
230
1.0
 70
     8
 71
     3
 72
    19
 73
    15
 74
     0
 42
0.000000001
 43
0.00000001
 40
0.0
 40
0.0
 40
0.0
 40
0.0
 40
0.0707160957298385
 40
0.140979642856523
 40
0.2116657836572496
 40
0.28587091934971
 40
0.363086647843554
 40
0.443457247609615
 40
0.5279952547641218
 40
0.6179833244242885
 40
0.7112250887129993
 40
0.8055662353983993
 40
0.9016176327437063
 40
1.0
 40
1.0
 40
1.0
 40
1.0
 10
265.138717948718
 20
188.790769230764
 30
0.0
 10
265.1065347790879
 20
188.7894230433741
 30
0.0
 10
265.0423743964535
 20
188.7867392835386
 30
0.0
 10
264.9490031512152
 20
188.7607877450193
 30
0.0
 10
264.8597846792517
 20
188.7201456519432
 30
0.0
 10
264.7756187016124
 20
188.663655530644
 30
0.0
 10
264.6978653315151
 20
188.5922264013514
 30
0.0
 10
264.6268415710618
 20
188.5077068675745
 30
0.0
 10
264.5673028106094
 20
188.4080202492559
 30
0.0
 10
264.5147776336393
 20
188.298116256469
 30
0.0
 10
264.473569978287
 20
188.1787245720999
 30
0.0
 10
264.4420097451055
 20
188.053618831424
 30
0.0
 10
264.4247485729024
 20
187.9232621819776
 30
0.0
 10
264.4221062373634
 20
187.83495258031
 30
0.0
 10
264.4207692307693
 20
187.790268429482
 30
0.0
  0
SPLINE
  5
28C
330
1F
100
AcDbEntity
  8
0
  6
Continuous
 62
     7
370
    25
100
AcDbSpline
210
0.0
220
0.0
230
1.0
 70
     8
 71
     3
 72
    23
 73
    19
 74
     0
 42
0.000000001
 43
0.00000001
 40
0.0
 40
0.0
 40
0.0
 40
0.0
 40
0.0755318691481649
 40
0.1483114759840189
 40
0.2192537630533109
 40
0.2886537228518816
 40
0.3559139178473505
 40
0.4226206494481346
 40
0.4892590949396754
 40
0.5556099713434177
 40
0.6202970964995616
 40
0.6805553940459701
 40
0.7373188493262606
 40
0.7920665528347091
 40
0.8445308249845732
 40
0.8958266823377516
 40
0.9473426891665856
 40
0.9999999999999999
 40
0.9999999999999999
 40
0.9999999999999999
 40
0.9999999999999999
 10
264.4207692307693
 20
187.790268429482
 30
0.0
 10
264.4214834941328
 20
187.7556583788099
 30
0.0
 10
264.422885994228
 20
187.6876994131846
 30
0.0
 10
264.4327271825802
 20
187.5875989342895
 30
0.0
 10
264.4497001827149
 20
187.491356245473
 30
0.0
 10
264.4725695159971
 20
187.3989356218985
 30
0.0
 10
264.502180935212
 20
187.3104681475518
 30
0.0
 10
264.5387569711949
 20
187.2260162213532
 30
0.0
 10
264.582291510298
 20
187.1454121622235
 30
0.0
 10
264.631751462325
 20
187.0694204360232
 30
0.0
 10
264.6855446430773
 20
187.0000628642068
 30
0.0
 10
264.7426459020763
 20
186.939313725547
 30
0.0
 10
264.8018459631016
 20
186.8872087875196
 30
0.0
 10
264.8642676530515
 20
186.8450007337302
 30
0.0
 10
264.9293969883445
 20
186.8123894438973
 30
0.0
 10
264.9967555417678
 20
186.7889697661334
 30
0.0
 10
265.0668178715117
 20
186.774425105625
 30
0.0
 10
265.1145768434332
 20
186.7725076785584
 30
0.0
 10
265.138717948718
 20
186.7715384615333
 30
0.0
  0
SPLINE
  5
28D
330
1F
100
AcDbEntity
  8
0
  6
Continuous
 62
     7
370
    25
100
AcDbSpline
210
0.0
220
0.0
230
1.0
 70
     8
 71
     3
 72
    27
 73
    23
 74
     0
 42
0.000000001
 43
0.00000001
 40
0.0
 40
0.0
 40
0.0
 40
0.0
 40
0.0345403335200462
 40
0.0690478905893649
 40
0.1033754852476494
 40
0.1381923175834045
 40
0.1739025756221037
 40
0.2104877019749208
 40
0.2480225815446469
 40
0.2870234984625046
 40
0.3267056395078536
 40
0.3664852153648313
 40
0.4068119831058167
 40
0.4476159030587516
 40
0.4890671194749781
 40
0.5313279591852038
 40
0.5748578081212988
 40
0.6195021344928143
 40
0.7103224458031931
 40
0.8036588163280971
 40
0.8998125578359338
 40
1.0
 40
1.0
 40
1.0
 40
1.0
 10
283.8551642628206
 20
185.8292307692255
 30
0.0
 10
283.8785739699233
 20
185.8296452225447
 30
0.0
 10
283.9253711698931
 20
185.8304737358948
 30
0.0
 10
283.9947342368833
 20
185.8410542863131
 30
0.0
 10
284.0632792676736
 20
185.8563263136916
 30
0.0
 10
284.131023533272
 20
185.8780598759436
 30
0.0
 10
284.1974699675912
 20
185.9073390162295
 30
0.0
 10
284.2636307610687
 20
185.9414491024827
 30
0.0
 10
284.3283747577829
 20
185.9825775739889
 30
0.0
 10
284.3916307186832
 20
186.0294528167689
 30
0.0
 10
284.453420594391
 20
186.0807481019347
 30
0.0
 10
284.5107655092016
 20
186.1382313297492
 30
0.0
 10
284.5656388149988
 20
186.1990484532123
 30
0.0
 10
284.6168508820338
 20
186.2644650983511
 30
0.0
 10
284.6645707524975
 20
186.3340372573062
 30
0.0
 10
284.7089785762057
 20
186.4079443504101
 30
0.0
 10
284.7494424978199
 20
186.4865192890213
 30
0.0
 10
284.7991124377418
 20
186.5971285144682
 30
0.0
 10
284.8510028052619
 20
186.7434932112371
 30
0.0
 10
284.8946699058429
 20
186.928496158099
 30
0.0
 10
284.9220987829749
 20
187.1231517785418
 30
0.0
 10
284.9254628813807
 20
187.2561547306782
 30
0.0
 10
284.9271794871796
 20
187.3240224358922
 30
0.0
  0
SPLINE
  5
28E
330
1F
100
AcDbEntity
  8
0
  6
Continuous
 62
     7
370
    25
100
AcDbSpline
210
0.0
220
0.0
230
1.0
 70
     8
 71
     3
 72
    31
 73
    27
 74
     0
 42
0.000000001
 43
0.00000001
 40
0.0
 40
0.0
 40
0.0
 40
0.0
 40
0.0501967491003085
 40
0.0994661459104872
 40
0.1475107086710971
 40
0.1948519830460004
 40
0.2412901464816288
 40
0.2868848560375626
 40
0.3320877231231313
 40
0.3770154669259699
 40
0.421156418450194
 40
0.4641967469625672
 40
0.5062815521760675
 40
0.5475660099741251
 40
0.588214463277013
 40
0.6286323941920235
 40
0.6685312836457488
 40
0.7085919746067297
 40
0.7479832316162439
 40
0.785918258442875
 40
0.822914854418198
 40
0.8590448686328861
 40
0.894620237161624
 40
0.9297210202048315
 40
0.9646696030869357
 40
1.0
 40
1.0
 40
1.0
 40
1.0
 10
282.7733333333334
 20
187.3078966346102
 30
0.0
 10
282.7736467374131
 20
187.2739934729812
 30
0.0
 10
282.7742677556361
 20
187.2068134885828
 30
0.0
 10
282.7819617950077
 20
187.1074566014644
 30
0.0
 10
282.7919554472202
 20
187.0102728250459
 30
0.0
 10
282.8073838715227
 20
186.9156917219312
 30
0.0
 10
282.8278371032932
 20
186.8237882185012
 30
0.0
 10
282.8524339812483
 20
186.734404239628
 30
0.0
 10
282.8812476592605
 20
186.6473673408358
 30
0.0
 10
282.9139054305624
 20
186.5627374174506
 30
0.0
 10
282.9510688675192
 20
186.4815846072856
 30
0.0
 10
282.9917179377989
 20
186.4042923785967
 30
0.0
 10
283.0359185472989
 20
186.3312035965638
 30
0.0
 10
283.0837003441251
 20
186.2623765048073
 30
0.0
 10
283.1348748183441
 20
186.1974182221103
 30
0.0
 10
283.1904673346357
 20
186.1374983643238
 30
0.0
 10
283.248725551086
 20
186.0807288317577
 30
0.0
 10
283.3109697248534
 20
186.0294160294109
 30
0.0
 10
283.3749560968844
 20
185.9825703492777
 30
0.0
 10
283.4403954895118
 20
185.9414324659049
 30
0.0
 10
283.5072629382778
 20
185.9073470207305
 30
0.0
 10
283.5745930030693
 20
185.8779078549612
 30
0.0
 10
283.6435656117527
 20
185.856332071024
 30
0.0
 10
283.7132765393719
 20
185.8411260595214
 30
0.0
 10
283.783788430837
 20
185.8304297658854
 30
0.0
 10
283.8312863028081
 20
185.8296318797065
 30
0.0
 10
283.8551642628206
 20
185.8292307692255
 30
0.0
  0
SPLINE
  5
28F
330
1F
100
AcDbEntity
  8
0
  6
Continuous
 62
     7
370
    25
100
AcDbSpline
210
0.0
220
0.0
230
1.0
 70
     8
 71
     3
 72
    27
 73
    23
 74
     0
 42
0.000000001
 43
0.00000001
 40
0.0
 40
0.0
 40
0.0
 40
0.0
 40
0.0362138134808971
 40
0.0716518108523366
 40
0.1072770114745167
 40
0.1427015993298693
 40
0.17873291632327
 40
0.215261872746767
 40
0.252561468681088
 40
0.2911030267797037
 40
0.3302439659166534
 40
0.3697353557737311
 40
0.4095189177264835
 40
0.4499950888742013
 40
0.4909090738598015
 40
0.5331106633605717
 40
0.5761152088262144
 40
0.6206969433110886
 40
0.711714797983211
 40
0.8046663624656327
 40
0.900297318358779
 40
1.0
 40
1.0
 40
1.0
 40
1.0
 10
283.8551642628206
 20
188.790769230764
 30
0.0
 10
283.8305941959323
 20
188.7903030812121
 30
0.0
 10
283.7819804318439
 20
188.7893807685278
 30
0.0
 10
283.7097376032252
 20
188.779758833245
 30
0.0
 10
283.6390408680665
 20
188.7646311356071
 30
0.0
 10
283.5698149612276
 20
188.7423625602966
 30
0.0
 10
283.5018593617491
 20
188.7149990985781
 30
0.0
 10
283.4347345186604
 20
188.6823819764654
 30
0.0
 10
283.3703536895307
 20
188.6414559552698
 30
0.0
 10
283.3065132684051
 20
188.5965825501671
 30
0.0
 10
283.246003164977
 20
188.5449767445828
 30
0.0
 10
283.1873217214186
 20
188.490054816672
 30
0.0
 10
283.1336452513146
 20
188.4290140927776
 30
0.0
 10
283.0821291385191
 20
188.3649332130773
 30
0.0
 10
283.0351962575032
 20
188.2954134046625
 30
0.0
 10
282.9908651097951
 20
188.2222143132722
 30
0.0
 10
282.9510566249147
 20
188.1436521096028
 30
0.0
 10
282.9011728634615
 20
188.0332412108821
 30
0.0
 10
282.8500871816815
 20
187.8865758234515
 30
0.0
 10
282.804615252192
 20
187.7022244015045
 30
0.0
 10
282.7787372574166
 20
187.5079830996485
 30
0.0
 10
282.7751595007828
 20
187.3755125714554
 30
0.0
 10
282.7733333333334
 20
187.3078966346102
 30
0.0
  0
SPLINE
  5
290
330
1F
100
AcDbEntity
  8
0
  6
Continuous
 62
     7
370
    25
100
AcDbSpline
210
0.0
220
0.0
230
1.0
 70
     8
 71
     3
 72
    23
 73
    19
 74
     0
 42
0.000000001
 43
0.00000001
 40
0.0
 40
0.0
 40
0.0
 40
0.0
 40
0.0753643028873303
 40
0.1479210478213362
 40
0.2180392056741897
 40
0.2864650244733009
 40
0.3536280076397484
 40
0.41966344058831
 40
0.4850688091839034
 40
0.5506450122955858
 40
0.6143664702835915
 40
0.6745355564297186
 40
0.7315092737162119
 40
0.7862592140879169
 40
0.8397553785722267
 40
0.8925789826456086
 40
0.945856469110418
 40
1.0
 40
1.0
 40
1.0
 40
1.0
 10
284.9271794871796
 20
187.3240224358922
 30
0.0
 10
284.926274237621
 20
187.3745402456389
 30
0.0
 10
284.9244974619048
 20
187.4736939174048
 30
0.0
 10
284.9094306020779
 20
187.6192178270368
 30
0.0
 10
284.8850371029464
 20
187.7586895148849
 30
0.0
 10
284.850643199679
 20
187.8923453156283
 30
0.0
 10
284.8065492433373
 20
188.0202327047094
 30
0.0
 10
284.7524455950273
 20
188.1420316238171
 30
0.0
 10
284.688220489442
 20
188.2575864870759
 30
0.0
 10
284.6153217782864
 20
188.3659903672485
 30
0.0
 10
284.5355511431414
 20
188.465020962202
 30
0.0
 10
284.4505309796349
 20
188.5516692952401
 30
0.0
 10
284.3618483533962
 20
188.6256019422318
 30
0.0
 10
284.2684751459231
 20
188.6855468119022
 30
0.0
 10
284.171375993743
 20
188.7334989348963
 30
0.0
 10
284.0692199103599
 20
188.7660398410831
 30
0.0
 10
283.9635783232648
 20
188.7876188381082
 30
0.0
 10
283.8914959958296
 20
188.7897134707973
 30
0.0
 10
283.8551642628206
 20
188.790769230764
 30
0.0
  0
LINE
  5
291
330
1F
100
AcDbEntity
  8
0
  6
Continuous
 62
     7
370
    25
100
AcDbLine
 10
370.94
 20
194.06
 30
0.0
 11
262.94
 21
194.06
 31
0.0
  0
LINE
  5
292
330
1F
100
AcDbEntity
  8
0
  6
Continuous
 62
     7
370
    25
100
AcDbLine
 10
370.94
 20
194.06
 30
0.0
 11
370.94
 21
193.06
 31
0.0
  0
LINE
  5
293
330
1F
100
AcDbEntity
  8
0
  6
Continuous
 62
     7
370
    25
100
AcDbLine
 10
262.94
 20
194.06
 30
0.0
 11
262.94
 21
193.06
 31
0.0
  0
LINE
  5
294
330
1F
100
AcDbEntity
  8
0
  6
Continuous
 62
     7
370
    25
100
AcDbLine
 10
295.1081690705
 20
187.5792307692
 30
0.0
 11
294.3551642628
 21
187.5792307692
 31
0.0
  0
LINE
  5
295
330
1F
100
AcDbEntity
  8
0
  6
Continuous
 62
     7
370
    25
100
AcDbLine
 10
294.7323677885
 20
186.404150641
 30
0.0
 11
295.1081690705
 21
187.5792307692
 31
0.0
  0
LINE
  5
296
330
1F
100
AcDbEntity
  8
0
  6
Continuous
 62
     7
370
    25
100
AcDbLine
 10
294.3551642628
 20
187.5792307692
 30
0.0
 11
294.7323677885
 21
186.404150641
 31
0.0
  0
LINE
  5
297
330
1F
100
AcDbEntity
  8
0
  6
Continuous
 62
     7
370
    25
100
AcDbLine
 10
370.94
 20
150.06
 30
0.0
 11
370.94
 21
149.06
 31
0.0
  0
LINE
  5
298
330
1F
100
AcDbEntity
  8
0
  6
Continuous
 62
     7
370
    25
100
AcDbLine
 10
370.94
 20
149.06
 30
0.0
 11
262.94
 21
149.06
 31
0.0
  0
LINE
  5
299
330
1F
100
AcDbEntity
  8
0
  6
Continuous
 62
     7
370
    25
100
AcDbLine
 10
262.94
 20
150.06
 30
0.0
 11
262.94
 21
149.06
 31
0.0
  0
LINE
  5
29A
330
1F
100
AcDbEntity
  8
0
  6
Continuous
 62
     7
370
    25
100
AcDbLine
 10
273.1041626603
 20
186.404150641
 30
0.0
 11
273.4799639423
 21
187.5792307692
 31
0.0
  0
LINE
  5
29B
330
1F
100
AcDbEntity
  8
0
  6
Continuous
 62
     7
370
    25
100
AcDbLine
 10
273.4799639423
 20
187.5792307692
 30
0.0
 11
272.7269591346
 21
187.5792307692
 31
0.0
  0
LINE
  5
29C
330
1F
100
AcDbEntity
  8
0
  6
Continuous
 62
     7
370
    25
100
AcDbLine
 10
272.7269591346
 20
187.5792307692
 30
0.0
 11
273.1041626603
 21
186.404150641
 31
0.0
  0
CIRCLE
  5
29D
330
1F
100
AcDbEntity
  8
0
  6
Continuous
 62
     7
370
    25
100
AcDbCircle
 10
357.94
 20
171.56
 30
0.0
 40
6.800000000000011
  0
CIRCLE
  5
29E
330
1F
100
AcDbEntity
  8
0
  6
Continuous
 62
     7
370
    25
100
AcDbCircle
 10
282.94
 20
171.56
 30
0.0
 40
6.800000000000068
  0
CIRCLE
  5
29F
330
1F
100
AcDbEntity
  8
0
  6
Continuous
 62
     7
370
    25
100
AcDbCircle
 10
357.94
 20
171.56
 30
0.0
 40
2.75
  0
CIRCLE
  5
2A0
330
1F
100
AcDbEntity
  8
0
  6
Continuous
 62
     7
370
    25
100
AcDbCircle
 10
282.94
 20
171.56
 30
0.0
 40
2.750000000000057
  0
DIMENSION
  5
2A1
330
1F
100
AcDbEntity
  8
0
  6
Continuous
 62
     7
370
    18
100
AcDbDimension
  2
_D_7
 10
262.94
 20
139.06
 30
0.0
 11
243.7712497564
 21
139.06
 31
0.0
 70
   160
  1
<>
 71
     2
 42
-1.0
  3
SLDDIMSTYLE4
100
AcDbAlignedDimension
 13
255.94
 23
167.6870166538
 33
0.0
 14
262.94
 24
149.06
 34
0.0
100
AcDbRotatedDimension
  0
DIMENSION
  5
2AE
330
1F
100
AcDbEntity
  8
0
  6
Continuous
 62
     7
370
    18
100
AcDbDimension
  2
_D_8
 10
370.94
 20
139.06
 30
0.0
 11
316.94
 21
139.06
 31
0.0
 70
   160
  1
<>
 71
     2
 42
-1.0
  3
SLDDIMSTYLE5
100
AcDbAlignedDimension
 13
262.94
 23
149.06
 33
0.0
 14
370.94
 24
149.06
 34
0.0
100
AcDbRotatedDimension
  0
DIMENSION
  5
2B9
330
1F
100
AcDbEntity
  8
0
  6
Continuous
 62
     7
370
    18
100
AcDbDimension
  2
_D_9
 10
370.94
 20
204.06
 30
0.0
 11
379.7100845869
 21
204.06
 31
0.0
 70
   160
  1
<>
 71
     2
 42
-1.0
  3
SLDDIMSTYLE5
100
AcDbAlignedDimension
 13
357.94
 23
184.06
 33
0.0
 14
370.94
 24
194.06
 34
0.0
100
AcDbRotatedDimension
  0
DIMENSION
  5
2C4
330
1F
100
AcDbEntity
  8
0
  6
Continuous
 62
     7
370
    18
100
AcDbDimension
  2
_D_10
 10
262.94
 20
204.06
 30
0.0
 11
272.94
 21
204.06
 31
0.0
 70
   160
  1
<>
 71
     2
 42
-1.0
  3
SLDDIMSTYLE4
100
AcDbAlignedDimension
 13
282.94
 23
184.06
 33
0.0
 14
262.94
 24
194.06
 34
0.0
100
AcDbRotatedDimension
  0
DIMENSION
  5
2CE
330
1F
100
AcDbEntity
  8
0
  6
Continuous
 62
     7
370
    18
100
AcDbDimension
  2
_D_11
 10
245.94
 20
162.56
 30
0.0
 11
245.94
 21
171.0170894019
 31
0.0
 70
   160
  1
%%c<>
 71
     2
 42
-1.0
  3
SLDDIMSTYLE2
100
AcDbAlignedDimension
 13
260.44
 23
180.56
 33
0.0
 14
260.44
 24
162.56
 34
0.0
 50
90.0
100
AcDbRotatedDimension
  0
DIMENSION
  5
2DB
330
1F
100
AcDbEntity
  8
0
  6
Continuous
 62
     7
370
    18
100
AcDbDimension
  2
_D_12
 10
355.8503560821
 20
169.7722952435
 30
0.0
 11
379.7100945869
 21
190.1844672252
 31
0.0
 70
   163
  1
1/4" BSP
 71
     1
 42
-1.0
  3
SLDDIMSTYLE6
100
AcDbDiametricDimension
 15
360.0296439179
 25
173.3477047565
 35
0.0
 40
0.0
  0
INSERT
  5
2EF
330
1F
100
AcDbEntity
  8
0
  6
Continuous
 62
     7
370
     0
100
AcDbBlockReference
  2
SW_CENTERMARKSYMBOL_9
 10
282.94
 20
171.56
 30
0.0
  0
INSERT
  5
2FB
330
1F
100
AcDbEntity
  8
0
  6
Continuous
 62
     7
370
     0
100
AcDbBlockReference
  2
SW_CENTERMARKSYMBOL_10
 10
357.94
 20
171.56
 30
0.0
  0
LINE
  5
2FC
330
1F
100
AcDbEntity
  8
0
  6
CENTERX2
 62
     7
370
    18
100
AcDbLine
 10
372.94
 20
171.56
 30
0.0
 11
260.94
 21
171.56
 31
0.0
  0
LINE
  5
2FD
330
1F
100
AcDbEntity
  8
0
  6
CENTERX2
 62
     7
370
    18
100
AcDbLine
 10
261.94
 20
171.56
 30
0.0
 11
254.44
 21
171.56
 31
0.0
  0
ENDSEC
  0
SECTION
  2
OBJECTS
  0
DICTIONARY
  5
C
330
0
100
AcDbDictionary
281
     1
  3
ACAD_GROUP
350
D
  3
ACAD_LAYOUT
350
1A
  3
ACAD_MLINESTYLE
350
17
  3
ACAD_PLOTSETTINGS
350
19
  3
ACAD_PLOTSTYLENAME
350
E
  3
ACAD_SCALELIST
350
47
  0
DICTIONARY
  5
D
102
{ACAD_REACTORS
330
C
102
}
330
C
100
AcDbDictionary
281
     1
  0
DICTIONARY
  5
1A
102
{ACAD_REACTORS
330
C
102
}
330
C
100
AcDbDictionary
281
     1
  3
Layout1
350
1E
  3
Layout2
350
26
  3
Model
350
22
  0
DICTIONARY
  5
17
102
{ACAD_REACTORS
330
C
102
}
330
C
100
AcDbDictionary
281
     1
  3
Standard
350
18
  0
DICTIONARY
  5
19
102
{ACAD_REACTORS
330
C
102
}
330
C
100
AcDbDictionary
281
     1
  0
ACDBDICTIONARYWDFLT
  5
E
102
{ACAD_REACTORS
330
C
102
}
330
C
100
AcDbDictionary
281
     1
  3
Normal
350
F
100
AcDbDictionaryWithDefault
340
F
  0
DICTIONARY
  5
47
102
{ACAD_REACTORS
330
C
102
}
330
C
100
AcDbDictionary
281
     1
  3
A0
350
48
  3
A1
350
49
  3
A2
350
4A
  3
A3
350
4B
  3
A4
350
4C
  3
A5
350
4D
  3
A6
350
4E
  3
A7
350
4F
  3
A8
350
50
  3
A9
350
51
  3
B0
350
52
  3
B1
350
53
  3
B2
350
54
  3
B3
350
55
  3
B4
350
56
  3
B5
350
57
  3
B6
350
58
  3
B7
350
59
  3
B8
350
5A
  3
B9
350
5B
  3
C0
350
5C
  3
C1
350
5D
  3
C2
350
5E
  3
C3
350
5F
  3
C4
350
60
  3
C5
350
61
  3
C6
350
62
  3
C7
350
63
  3
C8
350
64
  3
C9
350
65
  3
D0
350
66
  3
D1
350
67
  3
D2
350
68
  0
LAYOUT
  5
1E
102
{ACAD_REACTORS
330
1A
102
}
330
1A
100
AcDbPlotSettings
  1

  2
none_device
  4

  6

 40
0.0
 41
0.0
 42
0.0
 43
0.0
 44
0.0
 45
0.0
 46
0.0
 47
0.0
 48
0.0
 49
0.0
140
0.0
141
0.0
142
1.0
143
1.0
 70
   688
 72
     1
 73
     0
 74
     5
  7

 75
    16
147
1.0
148
0.0
149
0.0
100
AcDbLayout
  1
Layout1
 70
     1
 71
     1
 10
0.0
 20
0.0
 11
420.0
 21
297.0
 12
0.0
 22
0.0
 32
0.0
 14
1.0000000000E+20
 24
1.0000000000E+20
 34
1.0000000000E+20
 15
-1.0000000000E+20
 25
-1.0000000000E+20
 35
-1.0000000000E+20
146
0.0
 13
0.0
 23
0.0
 33
0.0
 16
1.0
 26
0.0
 36
0.0
 17
0.0
 27
1.0
 37
0.0
 76
     0
330
1B
  0
LAYOUT
  5
26
102
{ACAD_REACTORS
330
1A
102
}
330
1A
100
AcDbPlotSettings
  1

  2
none_device
  4

  6

 40
0.0
 41
0.0
 42
0.0
 43
0.0
 44
0.0
 45
0.0
 46
0.0
 47
0.0
 48
0.0
 49
0.0
140
0.0
141
0.0
142
1.0
143
1.0
 70
   688
 72
     1
 73
     0
 74
     5
  7

 75
    16
147
1.0
148
0.0
149
0.0
100
AcDbLayout
  1
Layout2
 70
     1
 71
     2
 10
0.0
 20
0.0
 11
0.0
 21
0.0
 12
0.0
 22
0.0
 32
0.0
 14
0.0
 24
0.0
 34
0.0
 15
0.0
 25
0.0
 35
0.0
146
0.0
 13
0.0
 23
0.0
 33
0.0
 16
1.0
 26
0.0
 36
0.0
 17
0.0
 27
1.0
 37
0.0
 76
     0
330
23
  0
LAYOUT
  5
22
102
{ACAD_REACTORS
330
1A
102
}
330
1A
100
AcDbPlotSettings
  1

  2
none_device
  4
Letter_(8.50_x_11.00_Inches)
  6

 40
6.35
 41
6.35
 42
6.35000508
 43
6.35000508
 44
215.9
 45
279.4
 46
0.0
 47
0.0
 48
0.0
 49
0.0
140
0.0
141
0.0
142
1.0
143
1.0
 70
  1712
 72
     1
 73
     0
 74
     0
  7

 75
     0
147
1.0
148
0.0
149
0.0
100
AcDbLayout
  1
Model
 70
     1
 71
     0
 10
0.0
 20
0.0
 11
420.0
 21
297.0
 12
0.0
 22
0.0
 32
0.0
 14
0.0
 24
0.0
 34
0.0
 15
420.0
 25
297.0
 35
0.0
146
0.0
 13
0.0
 23
0.0
 33
0.0
 16
1.0
 26
0.0
 36
0.0
 17
0.0
 27
1.0
 37
0.0
 76
     0
330
1F
331
29
  0
MLINESTYLE
  5
18
102
{ACAD_REACTORS
330
17
102
}
330
17
100
AcDbMlineStyle
  2
Standard
 70
     0
  3

 62
   256
 51
90.0
 52
90.0
 71
     2
 49
0.5
 62
   256
  6
BYLAYER
 49
-0.5
 62
   256
  6
BYLAYER
  0
ACDBPLACEHOLDER
  5
F
102
{ACAD_REACTORS
330
E
102
}
330
E
  0
SCALE
  5
48
102
{ACAD_REACTORS
330
47
102
}
330
47
100
AcDbScale
 70
     0
300
1:1
140
1.0
141
1.0
290
     1
  0
SCALE
  5
49
102
{ACAD_REACTORS
330
47
102
}
330
47
100
AcDbScale
 70
     0
300
1:2
140
1.0
141
2.0
290
     0
  0
SCALE
  5
4A
102
{ACAD_REACTORS
330
47
102
}
330
47
100
AcDbScale
 70
     0
300
1:4
140
1.0
141
4.0
290
     0
  0
SCALE
  5
4B
102
{ACAD_REACTORS
330
47
102
}
330
47
100
AcDbScale
 70
     0
300
1:5
140
1.0
141
5.0
290
     0
  0
SCALE
  5
4C
102
{ACAD_REACTORS
330
47
102
}
330
47
100
AcDbScale
 70
     0
300
1:8
140
1.0
141
8.0
290
     0
  0
SCALE
  5
4D
102
{ACAD_REACTORS
330
47
102
}
330
47
100
AcDbScale
 70
     0
300
1:10
140
1.0
141
10.0
290
     0
  0
SCALE
  5
4E
102
{ACAD_REACTORS
330
47
102
}
330
47
100
AcDbScale
 70
     0
300
1:16
140
1.0
141
16.0
290
     0
  0
SCALE
  5
4F
102
{ACAD_REACTORS
330
47
102
}
330
47
100
AcDbScale
 70
     0
300
1:20
140
1.0
141
20.0
290
     0
  0
SCALE
  5
50
102
{ACAD_REACTORS
330
47
102
}
330
47
100
AcDbScale
 70
     0
300
1:30
140
1.0
141
30.0
290
     0
  0
SCALE
  5
51
102
{ACAD_REACTORS
330
47
102
}
330
47
100
AcDbScale
 70
     0
300
1:40
140
1.0
141
40.0
290
     0
  0
SCALE
  5
52
102
{ACAD_REACTORS
330
47
102
}
330
47
100
AcDbScale
 70
     0
300
1:50
140
1.0
141
50.0
290
     0
  0
SCALE
  5
53
102
{ACAD_REACTORS
330
47
102
}
330
47
100
AcDbScale
 70
     0
300
1:100
140
1.0
141
100.0
290
     0
  0
SCALE
  5
54
102
{ACAD_REACTORS
330
47
102
}
330
47
100
AcDbScale
 70
     0
300
2:1
140
2.0
141
1.0
290
     0
  0
SCALE
  5
55
102
{ACAD_REACTORS
330
47
102
}
330
47
100
AcDbScale
 70
     0
300
4:1
140
4.0
141
1.0
290
     0
  0
SCALE
  5
56
102
{ACAD_REACTORS
330
47
102
}
330
47
100
AcDbScale
 70
     0
300
8:1
140
8.0
141
1.0
290
     0
  0
SCALE
  5
57
102
{ACAD_REACTORS
330
47
102
}
330
47
100
AcDbScale
 70
     0
300
10:1
140
10.0
141
1.0
290
     0
  0
SCALE
  5
58
102
{ACAD_REACTORS
330
47
102
}
330
47
100
AcDbScale
 70
     0
300
100:1
140
100.0
141
1.0
290
     0
  0
SCALE
  5
59
102
{ACAD_REACTORS
330
47
102
}
330
47
100
AcDbScale
 70
     0
300
1/128" = 1'-0"
140
0.0078125
141
12.0
290
     0
  0
SCALE
  5
5A
102
{ACAD_REACTORS
330
47
102
}
330
47
100
AcDbScale
 70
     0
300
1/64" = 1'-0"
140
0.015625
141
12.0
290
     0
  0
SCALE
  5
5B
102
{ACAD_REACTORS
330
47
102
}
330
47
100
AcDbScale
 70
     0
300
1/32" = 1'-0"
140
0.03125
141
12.0
290
     0
  0
SCALE
  5
5C
102
{ACAD_REACTORS
330
47
102
}
330
47
100
AcDbScale
 70
     0
300
1/16" = 1'-0"
140
0.0625
141
12.0
290
     0
  0
SCALE
  5
5D
102
{ACAD_REACTORS
330
47
102
}
330
47
100
AcDbScale
 70
     0
300
3/32" = 1'-0"
140
0.09375
141
12.0
290
     0
  0
SCALE
  5
5E
102
{ACAD_REACTORS
330
47
102
}
330
47
100
AcDbScale
 70
     0
300
1/8" = 1'-0"
140
0.125
141
12.0
290
     0
  0
SCALE
  5
5F
102
{ACAD_REACTORS
330
47
102
}
330
47
100
AcDbScale
 70
     0
300
3/16" = 1'-0"
140
0.1875
141
12.0
290
     0
  0
SCALE
  5
60
102
{ACAD_REACTORS
330
47
102
}
330
47
100
AcDbScale
 70
     0
300
1/4" = 1'-0"
140
0.25
141
12.0
290
     0
  0
SCALE
  5
61
102
{ACAD_REACTORS
330
47
102
}
330
47
100
AcDbScale
 70
     0
300
3/8" = 1'-0"
140
0.375
141
12.0
290
     0
  0
SCALE
  5
62
102
{ACAD_REACTORS
330
47
102
}
330
47
100
AcDbScale
 70
     0
300
1/2" = 1'-0"
140
0.5
141
12.0
290
     0
  0
SCALE
  5
63
102
{ACAD_REACTORS
330
47
102
}
330
47
100
AcDbScale
 70
     0
300
3/4" = 1'-0"
140
0.75
141
12.0
290
     0
  0
SCALE
  5
64
102
{ACAD_REACTORS
330
47
102
}
330
47
100
AcDbScale
 70
     0
300
1" = 1'-0"
140
1.0
141
12.0
290
     0
  0
SCALE
  5
65
102
{ACAD_REACTORS
330
47
102
}
330
47
100
AcDbScale
 70
     0
300
1-1/2" = 1'-0"
140
1.5
141
12.0
290
     0
  0
SCALE
  5
66
102
{ACAD_REACTORS
330
47
102
}
330
47
100
AcDbScale
 70
     0
300
3" = 1'-0"
140
3.0
141
12.0
290
     0
  0
SCALE
  5
67
102
{ACAD_REACTORS
330
47
102
}
330
47
100
AcDbScale
 70
     0
300
6" = 1'-0"
140
6.0
141
12.0
290
     0
  0
SCALE
  5
68
102
{ACAD_REACTORS
330
47
102
}
330
47
100
AcDbScale
 70
     0
300
1'-0" = 1'-0"
140
12.0
141
12.0
290
     0
  0
ENDSEC
  0
EOF
