  0
SECTION
  2
HEADER
  9
$ACADVER
  1
AC1015
  9
$ACADMAINTVER
 70
     6
  9
$DWGCODEPAGE
  3
ANSI_1250
  9
$INSBASE
 10
0.0
 20
0.0
 30
0.0
  9
$EXTMIN
 10
0.0
 20
0.0
 30
0.0
  9
$EXTMAX
 10
420.0
 20
297.0
 30
0.0
  9
$LIMMIN
 10
0.0
 20
0.0
  9
$LIMMAX
 10
420.0
 20
297.0
  9
$ORTHOMODE
 70
     0
  9
$REGENMODE
 70
     1
  9
$FILLMODE
 70
     1
  9
$QTEXTMODE
 70
     0
  9
$MIRRTEXT
 70
     1
  9
$LTSCALE
 40
1.0
  9
$ATTMODE
 70
     1
  9
$TEXTSIZE
 40
3.5
  9
$TRACEWID
 40
1.0
  9
$TEXTSTYLE
  7
Standard
  9
$CLAYER
  8
0
  9
$CELTYPE
  6
ByLayer
  9
$CECOLOR
 62
   256
  9
$CELTSCALE
 40
1.0
  9
$DISPSILH
 70
     0
  9
$DIMSCALE
 40
1.0
  9
$DIMASZ
 40
3.302
  9
$DIMEXO
 40
1.0
  9
$DIMDLI
 40
3.75
  9
$DIMRND
 40
0.0
  9
$DIMDLE
 40
0.0
  9
$DIMEXE
 40
1.0
  9
$DIMTP
 40
0.0
  9
$DIMTM
 40
0.0
  9
$DIMTXT
 40
3.5
  9
$DIMCEN
 40
2.5
  9
$DIMTSZ
 40
0.0
  9
$DIMTOL
 70
     0
  9
$DIMLIM
 70
     0
  9
$DIMTIH
 70
     1
  9
$DIMTOH
 70
     1
  9
$DIMSE1
 70
     0
  9
$DIMSE2
 70
     0
  9
$DIMTAD
 70
     1
  9
$DIMZIN
 70
     1
  9
$DIMBLK
  1

  9
$DIMASO
 70
     1
  9
$DIMSHO
 70
     1
  9
$DIMPOST
  1

  9
$DIMAPOST
  1

  9
$DIMALT
 70
     0
  9
$DIMALTD
 70
     3
  9
$DIMALTF
 40
0.0393700787
  9
$DIMLFAC
 40
1.0
  9
$DIMTOFL
 70
     1
  9
$DIMTVP
 40
0.0
  9
$DIMTIX
 70
     0
  9
$DIMSOXD
 70
     0
  9
$DIMSAH
 70
     0
  9
$DIMBLK1
  1

  9
$DIMBLK2
  1

  9
$DIMSTYLE
  2
ISO-25
  9
$DIMCLRD
 70
     0
  9
$DIMCLRE
 70
     0
  9
$DIMCLRT
 70
     0
  9
$DIMTFAC
 40
1.0
  9
$DIMGAP
 40
1.524
  9
$DIMJUST
 70
     0
  9
$DIMSD1
 70
     0
  9
$DIMSD2
 70
     0
  9
$DIMTOLJ
 70
     0
  9
$DIMTZIN
 70
     1
  9
$DIMALTZ
 70
     0
  9
$DIMALTTZ
 70
     0
  9
$DIMUPT
 70
     0
  9
$DIMDEC
 70
     2
  9
$DIMTDEC
 70
     2
  9
$DIMALTU
 70
     2
  9
$DIMALTTD
 70
     3
  9
$DIMTXSTY
  7
Standard
  9
$DIMAUNIT
 70
     0
  9
$DIMADEC
 70
     2
  9
$DIMALTRND
 40
0.0
  9
$DIMAZIN
 70
     0
  9
$DIMDSEP
 70
    44
  9
$DIMATFIT
 70
     3
  9
$DIMFRAC
 70
     0
  9
$DIMLDRBLK
  1

  9
$DIMLUNIT
 70
     2
  9
$DIMLWD
 70
    -2
  9
$DIMLWE
 70
    -2
  9
$DIMTMOVE
 70
     0
  9
$LUNITS
 70
     2
  9
$LUPREC
 70
     2
  9
$SKETCHINC
 40
1.0
  9
$FILLETRAD
 40
10.0
  9
$AUNITS
 70
     0
  9
$AUPREC
 70
     2
  9
$MENU
  1
.
  9
$ELEVATION
 40
0.0
  9
$PELEVATION
 40
0.0
  9
$THICKNESS
 40
0.0
  9
$LIMCHECK
 70
     0
  9
$CHAMFERA
 40
0.0
  9
$CHAMFERB
 40
0.0
  9
$CHAMFERC
 40
0.0
  9
$CHAMFERD
 40
0.0
  9
$SKPOLY
 70
     0
  9
$TDCREATE
 40
2460329.776034896
  9
$TDUCREATE
 40
2460329.734368229
  9
$TDUPDATE
 40
2460329.776037246
  9
$TDUUPDATE
 40
2460329.734370579
  9
$TDINDWG
 40
0.0000000116
  9
$TDUSRTIMER
 40
0.0000000116
  9
$USRTIMER
 70
     1
  9
$ANGBASE
 50
0.0
  9
$ANGDIR
 70
     0
  9
$PDMODE
 70
     0
  9
$PDSIZE
 40
-1.0
  9
$PLINEWID
 40
0.0
  9
$SPLFRAME
 70
     0
  9
$SPLINETYPE
 70
     6
  9
$SPLINESEGS
 70
     8
  9
$HANDSEED
  5
365
  9
$SURFTAB1
 70
     6
  9
$SURFTAB2
 70
     6
  9
$SURFTYPE
 70
     6
  9
$SURFU
 70
     6
  9
$SURFV
 70
     6
  9
$UCSBASE
  2

  9
$UCSNAME
  2

  9
$UCSORG
 10
0.0
 20
0.0
 30
0.0
  9
$UCSXDIR
 10
1.0
 20
0.0
 30
0.0
  9
$UCSYDIR
 10
0.0
 20
1.0
 30
0.0
  9
$UCSORTHOREF
  2

  9
$UCSORTHOVIEW
 70
     0
  9
$UCSORGTOP
 10
0.0
 20
0.0
 30
0.0
  9
$UCSORGBOTTOM
 10
0.0
 20
0.0
 30
0.0
  9
$UCSORGLEFT
 10
0.0
 20
0.0
 30
0.0
  9
$UCSORGRIGHT
 10
0.0
 20
0.0
 30
0.0
  9
$UCSORGFRONT
 10
0.0
 20
0.0
 30
0.0
  9
$UCSORGBACK
 10
0.0
 20
0.0
 30
0.0
  9
$PUCSBASE
  2

  9
$PUCSNAME
  2

  9
$PUCSORG
 10
0.0
 20
0.0
 30
0.0
  9
$PUCSXDIR
 10
1.0
 20
0.0
 30
0.0
  9
$PUCSYDIR
 10
0.0
 20
1.0
 30
0.0
  9
$PUCSORTHOREF
  2

  9
$PUCSORTHOVIEW
 70
     0
  9
$PUCSORGTOP
 10
0.0
 20
0.0
 30
0.0
  9
$PUCSORGBOTTOM
 10
0.0
 20
0.0
 30
0.0
  9
$PUCSORGLEFT
 10
0.0
 20
0.0
 30
0.0
  9
$PUCSORGRIGHT
 10
0.0
 20
0.0
 30
0.0
  9
$PUCSORGFRONT
 10
0.0
 20
0.0
 30
0.0
  9
$PUCSORGBACK
 10
0.0
 20
0.0
 30
0.0
  9
$USERI1
 70
     0
  9
$USERI2
 70
     0
  9
$USERI3
 70
     0
  9
$USERI4
 70
     0
  9
$USERI5
 70
     0
  9
$USERR1
 40
0.0
  9
$USERR2
 40
0.0
  9
$USERR3
 40
0.0
  9
$USERR4
 40
0.0
  9
$USERR5
 40
0.0
  9
$WORLDVIEW
 70
     1
  9
$SHADEDGE
 70
     3
  9
$SHADEDIF
 70
    70
  9
$TILEMODE
 70
     1
  9
$MAXACTVP
 70
    64
  9
$PINSBASE
 10
0.0
 20
0.0
 30
0.0
  9
$PLIMCHECK
 70
     0
  9
$PEXTMIN
 10
1.0000000000E+20
 20
1.0000000000E+20
 30
1.0000000000E+20
  9
$PEXTMAX
 10
-1.0000000000E+20
 20
-1.0000000000E+20
 30
-1.0000000000E+20
  9
$PLIMMIN
 10
0.0
 20
0.0
  9
$PLIMMAX
 10
420.0
 20
297.0
  9
$UNITMODE
 70
     0
  9
$VISRETAIN
 70
     1
  9
$PLINEGEN
 70
     0
  9
$PSLTSCALE
 70
     1
  9
$TREEDEPTH
 70
  3020
  9
$CMLSTYLE
  2
Standard
  9
$CMLJUST
 70
     0
  9
$CMLSCALE
 40
20.0
  9
$PROXYGRAPHICS
 70
     1
  9
$MEASUREMENT
 70
     1
  9
$CELWEIGHT
370
    -1
  9
$ENDCAPS
280
     0
  9
$JOINSTYLE
280
     0
  9
$LWDISPLAY
290
     1
  9
$INSUNITS
 70
     4
  9
$HYPERLINKBASE
  1

  9
$STYLESHEET
  1

  9
$XEDIT
290
     1
  9
$CEPSNTYPE
380
     0
  9
$PSTYLEMODE
290
     1
  9
$FINGERPRINTGUID
  2
{f25e4596-746b-408c-9371-5e9e9b78bac9}
  9
$VERSIONGUID
  2
{FAEB1C32-E019-11D5-929B-00C0DF256EC4}
  9
$EXTNAMES
290
     1
  9
$PSVPSCALE
 40
0.0
  9
$OLESTARTUP
290
     0
  0
ENDSEC
  0
SECTION
  2
CLASSES
  0
CLASS
  1
ACDBDICTIONARYWDFLT
  2
AcDbDictionaryWithDefault
  3
ObjectDBX Classes
 90
        0
280
     0
281
     0
  0
CLASS
  1
VISUALSTYLE
  2
AcDbVisualStyle
  3
ObjectDBX Classes
 90
     4095
280
     0
281
     0
  0
CLASS
  1
MATERIAL
  2
AcDbMaterial
  3
ObjectDBX Classes
 90
     1153
280
     0
281
     0
  0
CLASS
  1
SCALE
  2
AcDbScale
  3
ObjectDBX Classes
 90
     1153
280
     0
281
     0
  0
CLASS
  1
TABLESTYLE
  2
AcDbTableStyle
  3
ObjectDBX Classes
 90
     4095
280
     0
281
     0
  0
CLASS
  1
MLEADERSTYLE
  2
AcDbMLeaderStyle
  3
ACDB_MLEADERSTYLE_CLASS
 90
     4095
280
     0
281
     0
  0
CLASS
  1
SUN
  2
AcDbSun
  3
SCENEOE
 90
     1153
280
     0
281
     0
  0
CLASS
  1
ACDBPLACEHOLDER
  2
AcDbPlaceHolder
  3
ObjectDBX Classes
 90
        0
280
     0
281
     0
  0
CLASS
  1
LAYOUT
  2
AcDbLayout
  3
ObjectDBX Classes
 90
        0
280
     0
281
     0
  0
ENDSEC
  0
SECTION
  2
TABLES
  0
TABLE
  2
VPORT
  5
8
330
0
100
AcDbSymbolTable
 70
     1
  0
VPORT
  5
29
330
8
100
AcDbSymbolTableRecord
100
AcDbViewportTableRecord
  2
*Active
 70
     0
 10
0.0
 20
0.0
 11
1.0
 21
1.0
 12
210.0
 22
148.5
 13
0.0
 23
0.0
 14
10.0
 24
10.0
 15
10.0
 25
10.0
 16
0.0
 26
0.0
 36
1.0
 17
0.0
 27
0.0
 37
0.0
 40
297.0
 41
1.4141414141
 42
50.0
 43
0.0
 44
0.0
 50
0.0
 51
0.0
 71
     0
 72
  2000
 73
     1
 74
     3
 75
     0
 76
     0
 77
     0
 78
     0
281
     0
 65
     1
110
0.0
120
0.0
130
0.0
111
1.0
121
0.0
131
0.0
112
0.0
122
1.0
132
0.0
 79
     0
146
0.0
  0
ENDTAB
  0
TABLE
  2
LTYPE
  5
5
330
0
100
AcDbSymbolTable
 70
     6
  0
LTYPE
  5
14
330
5
100
AcDbSymbolTableRecord
100
AcDbLinetypeTableRecord
  2
ByBlock
 70
     0
  3

 72
    65
 73
     0
 40
0.0
  0
LTYPE
  5
15
330
5
100
AcDbSymbolTableRecord
100
AcDbLinetypeTableRecord
  2
ByLayer
 70
     0
  3

 72
    65
 73
     0
 40
0.0
  0
LTYPE
  5
16
330
5
100
AcDbSymbolTableRecord
100
AcDbLinetypeTableRecord
  2
Continuous
 70
     0
  3
Solid line
 72
    65
 73
     0
 40
0.0
  0
LTYPE
  5
6E
330
5
100
AcDbSymbolTableRecord
100
AcDbLinetypeTableRecord
  2
HIDDEN
 70
     0
  3
Hidden __ __ __ __ __ __ __ __ __ __ __ __ __ __
 72
    65
 73
     2
 40
1.905
 49
1.27
 74
     0
 49
-0.635
 74
     0
  0
LTYPE
  5
6F
330
5
100
AcDbSymbolTableRecord
100
AcDbLinetypeTableRecord
  2
PHANTOM
 70
     0
  3
Phantom ______  __  __  ______  __  __  ______
 72
    65
 73
     6
 40
12.7
 49
6.35
 74
     0
 49
-1.27
 74
     0
 49
1.27
 74
     0
 49
-1.27
 74
     0
 49
1.27
 74
     0
 49
-1.27
 74
     0
  0
LTYPE
  5
70
330
5
100
AcDbSymbolTableRecord
100
AcDbLinetypeTableRecord
  2
CENTER
 70
     0
  3
Center ____ _ ____ _ ____ _ ____ _ ____ _ ____
 72
    65
 73
     4
 40
10.16
 49
6.35
 74
     0
 49
-1.27
 74
     0
 49
1.27
 74
     0
 49
-1.27
 74
     0
  0
LTYPE
  5
71
330
5
100
AcDbSymbolTableRecord
100
AcDbLinetypeTableRecord
  2
CENTERX2
 70
     0
  3
Center (2x) ________  __  ________  __  _____
 72
    65
 73
     4
 40
20.32
 49
12.7
 74
     0
 49
-2.54
 74
     0
 49
2.54
 74
     0
 49
-2.54
 74
     0
  0
LTYPE
  5
72
330
5
100
AcDbSymbolTableRecord
100
AcDbLinetypeTableRecord
  2
DOT2
 70
     0
  3
Dot (.5x) ........................................
 72
    65
 73
     2
 40
0.635
 49
0.0
 74
     0
 49
-0.635
 74
     0
  0
ENDTAB
  0
TABLE
  2
LAYER
  5
2
330
0
100
AcDbSymbolTable
 70
     2
  0
LAYER
  5
10
330
2
100
AcDbSymbolTableRecord
100
AcDbLayerTableRecord
  2
0
 70
     0
 62
     7
  6
Continuous
370
    -3
390
F
  0
LAYER
  5
73
330
2
100
AcDbSymbolTableRecord
100
AcDbLayerTableRecord
  2
FORMAT
 70
     0
 62
     7
  6
Continuous
370
    -3
390
F
  0
ENDTAB
  0
TABLE
  2
STYLE
  5
3
330
0
100
AcDbSymbolTable
 70
     4
  0
STYLE
  5
11
330
3
100
AcDbSymbolTableRecord
100
AcDbTextStyleTableRecord
  2
Standard
 70
     0
 40
0.0
 41
1.0
 50
0.0
 71
     0
 42
3.5
  3
txt
  4

  0
STYLE
  5
B1
330
3
100
AcDbSymbolTableRecord
100
AcDbTextStyleTableRecord
  2
SLDTEXTSTYLE0
 70
     0
 40
0.0
 41
0.75
 50
0.0
 71
     0
 42
3.5
  3
TXT
  4

  0
STYLE
  5
D1
330
3
100
AcDbSymbolTableRecord
100
AcDbTextStyleTableRecord
  2
SLDTEXTSTYLE1
 70
     0
 40
0.0
 41
0.6875
 50
0.0
 71
     0
 42
3.5
  3
TXT
  4
bigfont
  0
STYLE
  5
D3
330
3
100
AcDbSymbolTableRecord
100
AcDbTextStyleTableRecord
  2
SLDTEXTSTYLE2
 70
     0
 40
0.0
 41
0.75
 50
0.0
 71
     0
 42
3.5
  3
TXT
  4
bigfont
  0
ENDTAB
  0
TABLE
  2
VIEW
  5
6
330
0
100
AcDbSymbolTable
 70
     0
  0
ENDTAB
  0
TABLE
  2
UCS
  5
7
330
0
100
AcDbSymbolTable
 70
     0
  0
ENDTAB
  0
TABLE
  2
APPID
  5
9
330
0
100
AcDbSymbolTable
 70
     1
  0
APPID
  5
12
330
9
100
AcDbSymbolTableRecord
100
AcDbRegAppTableRecord
  2
ACAD
 70
     0
  0
ENDTAB
  0
TABLE
  2
DIMSTYLE
  5
A
330
0
100
AcDbSymbolTable
 70
     7
100
AcDbDimStyleTable
  0
DIMSTYLE
105
27
330
A
100
AcDbSymbolTableRecord
100
AcDbDimStyleTableRecord
  2
ISO-25
 70
     0
 41
2.5
 42
0.625
 43
3.75
 44
1.25
 73
     0
 74
     0
 77
     1
 78
     8
140
2.5
141
2.5
143
0.0393700787
147
0.625
171
     3
172
     1
178
     0
271
     2
272
     2
274
     3
278
    44
283
     0
284
     8
340
11
  0
DIMSTYLE
105
224
102
{ACAD_REACTORS
330
223
330
313
102
}
330
A
100
AcDbSymbolTableRecord
100
AcDbDimStyleTableRecord
  2
SLDDIMSTYLE0
 70
     0
 41
3.302
 44
0.0
 45
0.000000001
 73
     0
 74
     0
 77
     1
 78
    12
 79
     3
140
3.5
147
0.875
173
     1
178
     0
271
     2
272
     2
276
     2
284
    12
340
B1
  0
DIMSTYLE
105
22F
102
{ACAD_REACTORS
330
22E
330
247
330
308
102
}
330
A
100
AcDbSymbolTableRecord
100
AcDbDimStyleTableRecord
  2
SLDDIMSTYLE1
 70
     0
 41
3.302
 44
0.0
 45
0.000000001
 73
     0
 74
     0
 77
     1
 78
    12
 79
     3
140
3.5
147
0.875
172
     1
173
     1
178
     0
271
     0
272
     0
276
     2
284
    12
289
     0
340
B1
  0
DIMSTYLE
105
23A
102
{ACAD_REACTORS
330
239
102
}
330
A
100
AcDbSymbolTableRecord
100
AcDbDimStyleTableRecord
  2
SLDDIMSTYLE2
 70
     0
 41
3.302
 44
0.0
 45
0.000000001
 73
     0
 74
     0
 77
     1
 78
    12
 79
     3
140
3.5
147
0.875
172
     1
173
     1
178
     0
271
     2
272
     2
276
     2
284
    12
289
     0
340
B1
  0
DIMSTYLE
105
254
102
{ACAD_REACTORS
330
253
330
2E9
330
2F3
102
}
330
A
100
AcDbSymbolTableRecord
100
AcDbDimStyleTableRecord
  2
SLDDIMSTYLE3
 70
     0
 41
3.302
 44
0.0
 45
0.000000001
 73
     0
 74
     0
 77
     1
 78
    12
 79
     3
140
3.5
147
0.875
173
     1
178
     0
271
     0
272
     0
276
     2
284
    12
340
B1
  0
DIMSTYLE
105
2FE
102
{ACAD_REACTORS
330
2FD
102
}
330
A
100
AcDbSymbolTableRecord
100
AcDbDimStyleTableRecord
  2
SLDDIMSTYLE4
 70
     0
 41
3.302
 44
0.0
 45
0.000000001
 73
     0
 74
     0
 77
     1
 78
    12
 79
     3
140
3.5
147
0.875
173
     1
178
     0
271
     1
272
     1
276
     2
284
    12
340
B1
  0
DIMSTYLE
105
31E
102
{ACAD_REACTORS
330
31D
102
}
330
A
100
AcDbSymbolTableRecord
100
AcDbDimStyleTableRecord
  2
SLDDIMSTYLE5
 70
     0
  3
<>
 41
3.302
 44
0.0
 45
0.000000001
 73
     0
 74
     0
 77
     1
 78
    12
 79
     3
140
3.5
141
0.0
147
0.875
172
     1
173
     1
178
     0
271
     2
272
     2
276
     2
284
    12
340
B1
341
31F
343
31F
  0
ENDTAB
  0
TABLE
  2
BLOCK_RECORD
  5
1
330
0
100
AcDbSymbolTable
 70
    20
  0
BLOCK_RECORD
  5
1F
330
1
100
AcDbSymbolTableRecord
100
AcDbBlockTableRecord
  2
*Model_Space
340
22
  0
BLOCK_RECORD
  5
1B
330
1
100
AcDbSymbolTableRecord
100
AcDbBlockTableRecord
  2
*Paper_Space
340
1E
  0
BLOCK_RECORD
  5
23
330
1
100
AcDbSymbolTableRecord
100
AcDbBlockTableRecord
  2
*Paper_Space0
340
26
  0
BLOCK_RECORD
  5
DD
330
1
100
AcDbSymbolTableRecord
100
AcDbBlockTableRecord
  2
SW_NOTE_0
340
0
102
{BLKREFS
331
E2
102
}
  0
BLOCK_RECORD
  5
E4
330
1
100
AcDbSymbolTableRecord
100
AcDbBlockTableRecord
  2
SW_NOTE_0_1
340
0
102
{BLKREFS
331
ED
102
}
  0
BLOCK_RECORD
  5
225
330
1
100
AcDbSymbolTableRecord
100
AcDbBlockTableRecord
  2
_D
340
0
  0
BLOCK_RECORD
  5
230
330
1
100
AcDbSymbolTableRecord
100
AcDbBlockTableRecord
  2
_D_1
340
0
  0
BLOCK_RECORD
  5
23B
330
1
100
AcDbSymbolTableRecord
100
AcDbBlockTableRecord
  2
_D_2
340
0
  0
BLOCK_RECORD
  5
248
330
1
100
AcDbSymbolTableRecord
100
AcDbBlockTableRecord
  2
_D_3
340
0
  0
BLOCK_RECORD
  5
255
330
1
100
AcDbSymbolTableRecord
100
AcDbBlockTableRecord
  2
_D_4
340
0
  0
BLOCK_RECORD
  5
2EA
330
1
100
AcDbSymbolTableRecord
100
AcDbBlockTableRecord
  2
_D_5
340
0
  0
BLOCK_RECORD
  5
2F4
330
1
100
AcDbSymbolTableRecord
100
AcDbBlockTableRecord
  2
_D_6
340
0
  0
BLOCK_RECORD
  5
2FF
330
1
100
AcDbSymbolTableRecord
100
AcDbBlockTableRecord
  2
_D_7
340
0
  0
BLOCK_RECORD
  5
309
330
1
100
AcDbSymbolTableRecord
100
AcDbBlockTableRecord
  2
_D_8
340
0
  0
BLOCK_RECORD
  5
314
330
1
100
AcDbSymbolTableRecord
100
AcDbBlockTableRecord
  2
_D_9
340
0
  0
BLOCK_RECORD
  5
31F
330
1
100
AcDbSymbolTableRecord
100
AcDbBlockTableRecord
  2
_None
340
0
  0
BLOCK_RECORD
  5
322
330
1
100
AcDbSymbolTableRecord
100
AcDbBlockTableRecord
  2
_D_10
340
0
  0
BLOCK_RECORD
  5
329
330
1
100
AcDbSymbolTableRecord
100
AcDbBlockTableRecord
  2
SW_CENTERMARKSYMBOL_0
340
0
102
{BLKREFS
331
334
102
}
  0
BLOCK_RECORD
  5
335
330
1
100
AcDbSymbolTableRecord
100
AcDbBlockTableRecord
  2
SW_CENTERMARKSYMBOL_1
340
0
102
{BLKREFS
331
340
102
}
  0
BLOCK_RECORD
  5
341
330
1
100
AcDbSymbolTableRecord
100
AcDbBlockTableRecord
  2
SW_CENTERMARKSYMBOL_2
340
0
102
{BLKREFS
331
34C
102
}
  0
BLOCK_RECORD
  5
34D
330
1
100
AcDbSymbolTableRecord
100
AcDbBlockTableRecord
  2
SW_CENTERMARKSYMBOL_3
340
0
102
{BLKREFS
331
358
102
}
  0
BLOCK_RECORD
  5
359
330
1
100
AcDbSymbolTableRecord
100
AcDbBlockTableRecord
  2
SW_CENTERMARKSYMBOL_4
340
0
102
{BLKREFS
331
364
102
}
  0
ENDTAB
  0
ENDSEC
  0
SECTION
  2
BLOCKS
  0
BLOCK
  5
20
330
1F
100
AcDbEntity
  8
0
100
AcDbBlockBegin
  2
*Model_Space
 70
     0
 10
0.0
 20
0.0
 30
0.0
  3
*Model_Space
  1

  0
ENDBLK
  5
21
330
1F
100
AcDbEntity
  8
0
100
AcDbBlockEnd
  0
BLOCK
  5
1C
330
1B
100
AcDbEntity
 67
     1
  8
0
100
AcDbBlockBegin
  2
*Paper_Space
 70
     0
 10
0.0
 20
0.0
 30
0.0
  3
*Paper_Space
  1

  0
ENDBLK
  5
1D
330
1B
100
AcDbEntity
 67
     1
  8
0
100
AcDbBlockEnd
  0
BLOCK
  5
24
330
23
100
AcDbEntity
  8
0
100
AcDbBlockBegin
  2
*Paper_Space0
 70
     0
 10
0.0
 20
0.0
 30
0.0
  3
*Paper_Space0
  1

  0
ENDBLK
  5
25
330
23
100
AcDbEntity
  8
0
100
AcDbBlockEnd
  0
BLOCK
  5
DE
330
DD
100
AcDbEntity
  8
0
100
AcDbBlockBegin
  2
SW_NOTE_0
 70
     0
 10
0.0
 20
0.0
 30
0.0
  3
SW_NOTE_0
  1

  0
MTEXT
  5
E0
330
DD
100
AcDbEntity
  8
0
  6
Continuous
 62
     0
370
     0
100
AcDbMText
 10
0.0
 20
1.9336016097
 30
0.0
 40
1.5
 41
0.0
 71
     1
 72
     1
  1
ODSTRANIT
  7
SLDTEXTSTYLE0
 73
     1
 44
1.0
  0
MTEXT
  5
E1
330
DD
100
AcDbEntity
  8
0
  6
Continuous
 62
     0
370
     0
100
AcDbMText
 10
0.0
 20
-0.5663983345
 30
0.0
 40
1.5
 41
0.0
 71
     1
 72
     1
  1
OSTRÉ HRANY
  7
SLDTEXTSTYLE0
 73
     1
 44
1.0
  0
ENDBLK
  5
DF
330
DD
100
AcDbEntity
  8
0
100
AcDbBlockEnd
  0
BLOCK
  5
E5
330
E4
100
AcDbEntity
  8
0
100
AcDbBlockBegin
  2
SW_NOTE_0_1
 70
     0
 10
0.0
 20
0.0
 30
0.0
  3
SW_NOTE_0_1
  1

  0
MTEXT
  5
E7
330
E4
100
AcDbEntity
  8
0
  6
Continuous
 62
     0
370
     0
100
AcDbMText
 10
0.0
 20
1.9336016097
 30
0.0
 40
1.5
 41
0.0
 71
     1
 72
     1
  1
POKUD NENÍ UVEDENO JINAK:
  7
SLDTEXTSTYLE0
 73
     1
 44
1.0
  0
MTEXT
  5
E8
330
E4
100
AcDbEntity
  8
0
  6
Continuous
 62
     0
370
     0
100
AcDbMText
 10
0.0
 20
-0.5663983345
 30
0.0
 40
1.5
 41
0.0
 71
     1
 72
     1
  1
JEDNOTKY JSOU V MILIMETRECH
  7
SLDTEXTSTYLE0
 73
     1
 44
1.0
  0
MTEXT
  5
E9
330
E4
100
AcDbEntity
  8
0
  6
Continuous
 62
     0
370
     0
100
AcDbMText
 10
0.0
 20
-3.0663982786
 30
0.0
 40
1.5
 41
0.0
 71
     1
 72
     1
  1
DRSNOST:
  7
SLDTEXTSTYLE0
 73
     1
 44
1.0
  0
MTEXT
  5
EA
330
E4
100
AcDbEntity
  8
0
  6
Continuous
 62
     0
370
     0
100
AcDbMText
 10
0.0
 20
-5.5663982227
 30
0.0
 40
1.5
 41
0.0
 71
     1
 72
     1
  1
TOLERANCE:
  7
SLDTEXTSTYLE0
 73
     1
 44
1.0
  0
MTEXT
  5
EB
330
E4
100
AcDbEntity
  8
0
  6
Continuous
 62
     0
370
     0
100
AcDbMText
 10
1.6875
 20
-8.0663981668
 30
0.0
 40
1.5
 41
0.0
 71
     1
 72
     1
  1
LINEÁRNÍ:
  7
SLDTEXTSTYLE0
 73
     1
 44
1.0
  0
MTEXT
  5
EC
330
E4
100
AcDbEntity
  8
0
  6
Continuous
 62
     0
370
     0
100
AcDbMText
 10
1.6875
 20
-10.5663981109
 30
0.0
 40
1.5
 41
0.0
 71
     1
 72
     1
  1
ÚHLOVÁ:
  7
SLDTEXTSTYLE0
 73
     1
 44
1.0
  0
ENDBLK
  5
E6
330
E4
100
AcDbEntity
  8
0
100
AcDbBlockEnd
  0
BLOCK
  5
226
330
225
100
AcDbEntity
  8
0
100
AcDbBlockBegin
  2
_D
 70
     0
 10
0.0
 20
0.0
 30
0.0
  3
_D
  1

  0
SOLID
  5
228
330
225
100
AcDbEntity
  8
0
  6
Continuous
 62
     7
370
    18
100
AcDbTrace
 10
218.94
 20
193.7488214969
 30
0.0
 11
215.638
 21
194.2568214969
 31
0.0
 12
215.638
 22
193.2408214969
 32
0.0
 13
215.638
 23
193.2408214969
 33
0.0
  0
SOLID
  5
229
330
225
100
AcDbEntity
  8
0
  6
Continuous
 62
     7
370
    18
100
AcDbTrace
 10
84.94
 20
193.7488214969
 30
0.0
 11
88.242
 21
193.2408214969
 31
0.0
 12
88.242
 22
194.2568214969
 32
0.0
 13
88.242
 23
194.2568214969
 33
0.0
  0
LINE
  5
22A
330
225
100
AcDbEntity
  8
0
  6
Continuous
 62
     7
370
     0
100
AcDbLine
 10
218.94
 20
217.9044107485
 30
0.0
 11
218.94
 21
192.7488214969
 31
0.0
  0
LINE
  5
22B
330
225
100
AcDbEntity
  8
0
  6
Continuous
 62
     7
370
     0
100
AcDbLine
 10
84.94
 20
202.9044107485
 30
0.0
 11
84.94
 21
192.7488214969
 31
0.0
  0
LINE
  5
22C
330
225
100
AcDbEntity
  8
0
  6
Continuous
 62
     7
370
     0
100
AcDbLine
 10
218.94
 20
193.7488214969
 30
0.0
 11
84.94
 21
193.7488214969
 31
0.0
  0
MTEXT
  5
22D
330
225
100
AcDbEntity
  8
0
  6
Continuous
 62
     7
370
    18
100
AcDbMText
 10
144.8281940432
 20
198.2605584115
 30
0.0
 40
3.5
 41
0.0
 71
     1
 72
     1
  1
134,00
  7
SLDTEXTSTYLE0
 73
     1
 44
1.0
  0
ENDBLK
  5
227
330
225
100
AcDbEntity
  8
0
100
AcDbBlockEnd
  0
BLOCK
  5
231
330
230
100
AcDbEntity
  8
0
100
AcDbBlockBegin
  2
_D_1
 70
     0
 10
0.0
 20
0.0
 30
0.0
  3
_D_1
  1

  0
SOLID
  5
233
330
230
100
AcDbEntity
  8
0
  6
Continuous
 62
     7
370
    18
100
AcDbTrace
 10
65.94
 20
254.06
 30
0.0
 11
69.242
 21
253.552
 31
0.0
 12
69.242
 22
254.568
 32
0.0
 13
69.242
 23
254.568
 33
0.0
  0
SOLID
  5
234
330
230
100
AcDbEntity
  8
0
  6
Continuous
 62
     7
370
    18
100
AcDbTrace
 10
84.94
 20
254.06
 30
0.0
 11
81.638
 21
254.568
 31
0.0
 12
81.638
 22
253.552
 32
0.0
 13
81.638
 23
253.552
 33
0.0
  0
LINE
  5
235
330
230
100
AcDbEntity
  8
0
  6
Continuous
 62
     7
370
     0
100
AcDbLine
 10
65.94
 20
241.0544107485
 30
0.0
 11
65.94
 21
255.06
 31
0.0
  0
LINE
  5
236
330
230
100
AcDbEntity
  8
0
  6
Continuous
 62
     7
370
     0
100
AcDbLine
 10
84.94
 20
244.9044107485
 30
0.0
 11
84.94
 21
255.06
 31
0.0
  0
LINE
  5
237
330
230
100
AcDbEntity
  8
0
  6
Continuous
 62
     7
370
     0
100
AcDbLine
 10
65.94
 20
254.06
 30
0.0
 11
84.94
 21
254.06
 31
0.0
  0
MTEXT
  5
238
330
230
100
AcDbEntity
  8
0
  6
Continuous
 62
     7
370
    18
100
AcDbMText
 10
72.8538888065
 20
258.5717369146
 30
0.0
 40
3.5
 41
0.0
 71
     1
 72
     1
  1
19
  7
SLDTEXTSTYLE0
 73
     1
 44
1.0
  0
ENDBLK
  5
232
330
230
100
AcDbEntity
  8
0
100
AcDbBlockEnd
  0
BLOCK
  5
23C
330
23B
100
AcDbEntity
  8
0
100
AcDbBlockBegin
  2
_D_2
 70
     0
 10
0.0
 20
0.0
 30
0.0
  3
_D_2
  1

  0
SOLID
  5
23E
330
23B
100
AcDbEntity
  8
0
  6
Continuous
 62
     7
370
    18
100
AcDbTrace
 10
55.94
 20
207.2544107485
 30
0.0
 11
55.432
 21
203.9524107485
 31
0.0
 12
56.448
 22
203.9524107485
 32
0.0
 13
56.448
 23
203.9524107485
 33
0.0
  0
SOLID
  5
23F
330
23B
100
AcDbEntity
  8
0
  6
Continuous
 62
     7
370
    18
100
AcDbTrace
 10
55.94
 20
212.2544107485
 30
0.0
 11
56.448
 21
215.5564107485
 31
0.0
 12
55.432
 22
215.5564107485
 32
0.0
 13
55.432
 23
215.5564107485
 33
0.0
  0
LINE
  5
240
330
23B
100
AcDbEntity
  8
0
  6
Continuous
 62
     7
370
     0
100
AcDbLine
 10
65.44
 20
207.2544107485
 30
0.0
 11
54.94
 21
207.2544107485
 31
0.0
  0
LINE
  5
241
330
23B
100
AcDbEntity
  8
0
  6
Continuous
 62
     7
370
     0
100
AcDbLine
 10
65.44
 20
212.2544107485
 30
0.0
 11
54.94
 21
212.2544107485
 31
0.0
  0
LINE
  5
242
330
23B
100
AcDbEntity
  8
0
  6
Continuous
 62
     7
370
     0
100
AcDbLine
 10
55.94
 20
207.2544107485
 30
0.0
 11
55.94
 21
178.7530560481
 31
0.0
  0
LINE
  5
243
330
23B
100
AcDbEntity
  8
0
  6
Continuous
 62
     7
370
     0
100
AcDbLine
 10
55.94
 20
207.2544107485
 30
0.0
 11
55.94
 21
212.2544107485
 31
0.0
  0
LINE
  5
244
330
23B
100
AcDbEntity
  8
0
  6
Continuous
 62
     7
370
     0
100
AcDbLine
 10
55.94
 20
212.2544107485
 30
0.0
 11
55.94
 21
218.6044107485
 31
0.0
  0
MTEXT
  5
245
330
23B
100
AcDbEntity
  8
0
  6
Continuous
 62
     7
370
    18
100
AcDbMText
 10
51.3747907341
 20
178.7530560481
 30
0.0
 40
3.5
 41
0.0
 71
     1
 72
     1
  1
M5x0.8
  7
SLDTEXTSTYLE0
 11
6.123233995736766E-17
 21
1.0
 31
0.0
 73
     1
 44
1.0
  0
MTEXT
  5
246
330
23B
100
AcDbEntity
  8
0
  6
Continuous
 62
     7
370
    18
100
AcDbMText
 10
51.4282629108
 20
194.3329176369
 30
0.0
 40
3.5
 41
0.0
 71
     1
 72
     1
  1
%%c
  7
SLDTEXTSTYLE0
 11
6.123233995736766E-17
 21
1.0
 31
0.0
 73
     1
 44
1.0
  0
ENDBLK
  5
23D
330
23B
100
AcDbEntity
  8
0
100
AcDbBlockEnd
  0
BLOCK
  5
249
330
248
100
AcDbEntity
  8
0
100
AcDbBlockBegin
  2
_D_3
 70
     0
 10
0.0
 20
0.0
 30
0.0
  3
_D_3
  1

  0
SOLID
  5
24B
330
248
100
AcDbEntity
  8
0
  6
Continuous
 62
     7
370
    18
100
AcDbTrace
 10
218.94
 20
254.06
 30
0.0
 11
222.242
 21
253.552
 31
0.0
 12
222.242
 22
254.568
 32
0.0
 13
222.242
 23
254.568
 33
0.0
  0
SOLID
  5
24C
330
248
100
AcDbEntity
  8
0
  6
Continuous
 62
     7
370
    18
100
AcDbTrace
 10
203.94
 20
254.06
 30
0.0
 11
200.638
 21
254.568
 31
0.0
 12
200.638
 22
253.552
 32
0.0
 13
200.638
 23
253.552
 33
0.0
  0
LINE
  5
24D
330
248
100
AcDbEntity
  8
0
  6
Continuous
 62
     7
370
     0
100
AcDbLine
 10
218.94
 20
229.9044107485
 30
0.0
 11
218.94
 21
255.06
 31
0.0
  0
LINE
  5
24E
330
248
100
AcDbEntity
  8
0
  6
Continuous
 62
     7
370
     0
100
AcDbLine
 10
203.94
 20
244.9044107485
 30
0.0
 11
203.94
 21
255.06
 31
0.0
  0
LINE
  5
24F
330
248
100
AcDbEntity
  8
0
  6
Continuous
 62
     7
370
     0
100
AcDbLine
 10
218.94
 20
254.06
 30
0.0
 11
225.29
 21
254.06
 31
0.0
  0
LINE
  5
250
330
248
100
AcDbEntity
  8
0
  6
Continuous
 62
     7
370
     0
100
AcDbLine
 10
218.94
 20
254.06
 30
0.0
 11
203.94
 21
254.06
 31
0.0
  0
LINE
  5
251
330
248
100
AcDbEntity
  8
0
  6
Continuous
 62
     7
370
     0
100
AcDbLine
 10
203.94
 20
254.06
 30
0.0
 11
197.59
 21
254.06
 31
0.0
  0
MTEXT
  5
252
330
248
100
AcDbEntity
  8
0
  6
Continuous
 62
     7
370
    18
100
AcDbMText
 10
208.8538888065
 20
258.5717369146
 30
0.0
 40
3.5
 41
0.0
 71
     1
 72
     1
  1
15
  7
SLDTEXTSTYLE0
 73
     1
 44
1.0
  0
ENDBLK
  5
24A
330
248
100
AcDbEntity
  8
0
100
AcDbBlockEnd
  0
BLOCK
  5
256
330
255
100
AcDbEntity
  8
0
100
AcDbBlockBegin
  2
_D_4
 70
     0
 10
0.0
 20
0.0
 30
0.0
  3
_D_4
  1

  0
SOLID
  5
258
330
255
100
AcDbEntity
  8
0
  6
Continuous
 62
     7
370
    18
100
AcDbTrace
 10
228.94
 20
217.9044107485
 30
0.0
 11
229.448
 21
221.2064107485
 31
0.0
 12
228.432
 22
221.2064107485
 32
0.0
 13
228.432
 23
221.2064107485
 33
0.0
  0
SOLID
  5
259
330
255
100
AcDbEntity
  8
0
  6
Continuous
 62
     7
370
    18
100
AcDbTrace
 10
228.94
 20
229.9044107485
 30
0.0
 11
228.432
 21
226.6024107485
 31
0.0
 12
229.448
 22
226.6024107485
 32
0.0
 13
229.448
 23
226.6024107485
 33
0.0
  0
LINE
  5
25A
330
255
100
AcDbEntity
  8
0
  6
Continuous
 62
     7
370
     0
100
AcDbLine
 10
214.44
 20
217.9044107485
 30
0.0
 11
229.94
 21
217.9044107485
 31
0.0
  0
LINE
  5
25B
330
255
100
AcDbEntity
  8
0
  6
Continuous
 62
     7
370
     0
100
AcDbLine
 10
214.44
 20
229.9044107485
 30
0.0
 11
229.94
 21
229.9044107485
 31
0.0
  0
LINE
  5
25C
330
255
100
AcDbEntity
  8
0
  6
Continuous
 62
     7
370
     0
100
AcDbLine
 10
228.94
 20
217.9044107485
 30
0.0
 11
228.94
 21
199.8106947842
 31
0.0
  0
LINE
  5
25D
330
255
100
AcDbEntity
  8
0
  6
Continuous
 62
     7
370
     0
100
AcDbLine
 10
228.94
 20
217.9044107485
 30
0.0
 11
228.94
 21
229.9044107485
 31
0.0
  0
MTEXT
  5
25E
330
255
100
AcDbEntity
  8
0
  6
Continuous
 62
     7
370
    18
100
AcDbMText
 10
224.4282629108
 20
199.8106947842
 30
0.0
 40
3.5
 41
0.0
 71
     1
 72
     1
  1
%%c
  7
SLDTEXTSTYLE0
 11
6.123233995736766E-17
 21
1.0
 31
0.0
 73
     1
 44
1.0
  0
MTEXT
  5
25F
330
255
100
AcDbEntity
  8
0
  6
Continuous
 62
     7
370
    18
100
AcDbMText
 10
224.3747907341
 20
205.0891321826
 30
0.0
 40
3.5
 41
0.0
 71
     1
 72
     1
  1
12
  7
SLDTEXTSTYLE0
 11
6.123233995736766E-17
 21
1.0
 31
0.0
 73
     1
 44
1.0
  0
ENDBLK
  5
257
330
255
100
AcDbEntity
  8
0
100
AcDbBlockEnd
  0
BLOCK
  5
2EB
330
2EA
100
AcDbEntity
  8
0
100
AcDbBlockBegin
  2
_D_5
 70
     0
 10
0.0
 20
0.0
 30
0.0
  3
_D_5
  1

  0
SOLID
  5
2ED
330
2EA
100
AcDbEntity
  8
0
  6
Continuous
 62
     7
370
    18
100
AcDbTrace
 10
66.4909483476
 20
51.6290288389
 30
0.0
 11
69.7929483476
 21
51.1210288389
 31
0.0
 12
69.7929483476
 22
52.1370288389
 32
0.0
 13
69.7929483476
 23
52.1370288389
 33
0.0
  0
SOLID
  5
2EE
330
2EA
100
AcDbEntity
  8
0
  6
Continuous
 62
     7
370
    18
100
AcDbTrace
 10
106.4909483476
 20
51.6290288389
 30
0.0
 11
103.1889483476
 21
52.1370288389
 31
0.0
 12
103.1889483476
 22
51.1210288389
 32
0.0
 13
103.1889483476
 23
51.1210288389
 33
0.0
  0
LINE
  5
2EF
330
2EA
100
AcDbEntity
  8
0
  6
Continuous
 62
     7
370
     0
100
AcDbLine
 10
66.4909483476
 20
73.4044107485
 30
0.0
 11
66.4909483476
 21
50.6290288389
 31
0.0
  0
LINE
  5
2F0
330
2EA
100
AcDbEntity
  8
0
  6
Continuous
 62
     7
370
     0
100
AcDbLine
 10
106.4909483476
 20
73.4044107485
 30
0.0
 11
106.4909483476
 21
50.6290288389
 31
0.0
  0
LINE
  5
2F1
330
2EA
100
AcDbEntity
  8
0
  6
Continuous
 62
     7
370
     0
100
AcDbLine
 10
66.4909483476
 20
51.6290288389
 30
0.0
 11
106.4909483476
 21
51.6290288389
 31
0.0
  0
MTEXT
  5
2F2
330
2EA
100
AcDbEntity
  8
0
  6
Continuous
 62
     7
370
    18
100
AcDbMText
 10
84.2487855187
 20
56.1407657534
 30
0.0
 40
3.5
 41
0.0
 71
     1
 72
     1
  1
40
  7
SLDTEXTSTYLE0
 73
     1
 44
1.0
  0
ENDBLK
  5
2EC
330
2EA
100
AcDbEntity
  8
0
100
AcDbBlockEnd
  0
BLOCK
  5
2F5
330
2F4
100
AcDbEntity
  8
0
100
AcDbBlockBegin
  2
_D_6
 70
     0
 10
0.0
 20
0.0
 30
0.0
  3
_D_6
  1

  0
SOLID
  5
2F7
330
2F4
100
AcDbEntity
  8
0
  6
Continuous
 62
     7
370
    18
100
AcDbTrace
 10
43.7844107485
 20
73.9044107485
 30
0.0
 11
44.2924107485
 21
77.2064107485
 31
0.0
 12
43.2764107485
 22
77.2064107485
 32
0.0
 13
43.2764107485
 23
77.2064107485
 33
0.0
  0
SOLID
  5
2F8
330
2F4
100
AcDbEntity
  8
0
  6
Continuous
 62
     7
370
    18
100
AcDbTrace
 10
43.7844107485
 20
113.9044107485
 30
0.0
 11
43.2764107485
 21
110.6024107485
 31
0.0
 12
44.2924107485
 22
110.6024107485
 32
0.0
 13
44.2924107485
 23
110.6024107485
 33
0.0
  0
LINE
  5
2F9
330
2F4
100
AcDbEntity
  8
0
  6
Continuous
 62
     7
370
     0
100
AcDbLine
 10
65.9909483476
 20
73.9044107485
 30
0.0
 11
42.7844107485
 21
73.9044107485
 31
0.0
  0
LINE
  5
2FA
330
2F4
100
AcDbEntity
  8
0
  6
Continuous
 62
     7
370
     0
100
AcDbLine
 10
65.9909483476
 20
113.9044107485
 30
0.0
 11
42.7844107485
 21
113.9044107485
 31
0.0
  0
LINE
  5
2FB
330
2F4
100
AcDbEntity
  8
0
  6
Continuous
 62
     7
370
     0
100
AcDbLine
 10
43.7844107485
 20
73.9044107485
 30
0.0
 11
43.7844107485
 21
113.9044107485
 31
0.0
  0
MTEXT
  5
2FC
330
2F4
100
AcDbEntity
  8
0
  6
Continuous
 62
     7
370
    18
100
AcDbMText
 10
39.2726738339
 20
91.5644283243
 30
0.0
 40
3.5
 41
0.0
 71
     1
 72
     1
  1
40
  7
SLDTEXTSTYLE0
 11
6.123233995736766E-17
 21
1.0
 31
0.0
 73
     1
 44
1.0
  0
ENDBLK
  5
2F6
330
2F4
100
AcDbEntity
  8
0
100
AcDbBlockEnd
  0
BLOCK
  5
300
330
2FF
100
AcDbEntity
  8
0
100
AcDbBlockBegin
  2
_D_7
 70
     0
 10
0.0
 20
0.0
 30
0.0
  3
_D_7
  1

  0
SOLID
  5
302
330
2FF
100
AcDbEntity
  8
0
  6
Continuous
 62
     7
370
    18
100
AcDbTrace
 10
55.7844107485
 20
79.7544107485
 30
0.0
 11
56.2924107485
 21
83.0564107485
 31
0.0
 12
55.2764107485
 22
83.0564107485
 32
0.0
 13
55.2764107485
 23
83.0564107485
 33
0.0
  0
SOLID
  5
303
330
2FF
100
AcDbEntity
  8
0
  6
Continuous
 62
     7
370
    18
100
AcDbTrace
 10
55.7844107485
 20
108.0544107485
 30
0.0
 11
55.2764107485
 21
104.7524107485
 31
0.0
 12
56.2924107485
 22
104.7524107485
 32
0.0
 13
56.2924107485
 23
104.7524107485
 33
0.0
  0
LINE
  5
304
330
2FF
100
AcDbEntity
  8
0
  6
Continuous
 62
     7
370
     0
100
AcDbLine
 10
66.3409483476
 20
79.7544107485
 30
0.0
 11
54.7844107485
 21
79.7544107485
 31
0.0
  0
LINE
  5
305
330
2FF
100
AcDbEntity
  8
0
  6
Continuous
 62
     7
370
     0
100
AcDbLine
 10
66.3409483476
 20
108.0544107485
 30
0.0
 11
54.7844107485
 21
108.0544107485
 31
0.0
  0
LINE
  5
306
330
2FF
100
AcDbEntity
  8
0
  6
Continuous
 62
     7
370
     0
100
AcDbLine
 10
55.7844107485
 20
79.7544107485
 30
0.0
 11
55.7844107485
 21
108.0544107485
 31
0.0
  0
MTEXT
  5
307
330
2FF
100
AcDbEntity
  8
0
  6
Continuous
 62
     7
370
    18
100
AcDbMText
 10
51.2726738339
 20
88.9840220368
 30
0.0
 40
3.5
 41
0.0
 71
     1
 72
     1
  1
28,3
  7
SLDTEXTSTYLE0
 11
6.123233995736766E-17
 21
1.0
 31
0.0
 73
     1
 44
1.0
  0
ENDBLK
  5
301
330
2FF
100
AcDbEntity
  8
0
100
AcDbBlockEnd
  0
BLOCK
  5
30A
330
309
100
AcDbEntity
  8
0
100
AcDbBlockBegin
  2
_D_8
 70
     0
 10
0.0
 20
0.0
 30
0.0
  3
_D_8
  1

  0
SOLID
  5
30C
330
309
100
AcDbEntity
  8
0
  6
Continuous
 62
     7
370
    18
100
AcDbTrace
 10
115.1167054898
 20
105.9044107485
 30
0.0
 11
114.6087054898
 21
102.6024107485
 31
0.0
 12
115.6247054898
 22
102.6024107485
 32
0.0
 13
115.6247054898
 23
102.6024107485
 33
0.0
  0
SOLID
  5
30D
330
309
100
AcDbEntity
  8
0
  6
Continuous
 62
     7
370
    18
100
AcDbTrace
 10
115.1167054898
 20
81.9044107485
 30
0.0
 11
115.6247054898
 21
85.2064107485
 31
0.0
 12
114.6087054898
 22
85.2064107485
 32
0.0
 13
114.6087054898
 23
85.2064107485
 33
0.0
  0
LINE
  5
30E
330
309
100
AcDbEntity
  8
0
  6
Continuous
 62
     7
370
     0
100
AcDbLine
 10
87.4909483476
 20
105.9044107485
 30
0.0
 11
116.1167054898
 21
105.9044107485
 31
0.0
  0
LINE
  5
30F
330
309
100
AcDbEntity
  8
0
  6
Continuous
 62
     7
370
     0
100
AcDbLine
 10
87.4909483476
 20
81.9044107485
 30
0.0
 11
116.1167054898
 21
81.9044107485
 31
0.0
  0
LINE
  5
310
330
309
100
AcDbEntity
  8
0
  6
Continuous
 62
     7
370
     0
100
AcDbLine
 10
115.1167054898
 20
105.9044107485
 30
0.0
 11
115.1167054898
 21
81.9044107485
 31
0.0
  0
MTEXT
  5
311
330
309
100
AcDbEntity
  8
0
  6
Continuous
 62
     7
370
    18
100
AcDbMText
 10
110.6049684006
 20
87.9042287471
 30
0.0
 40
3.5
 41
0.0
 71
     1
 72
     1
  1
%%c
  7
SLDTEXTSTYLE0
 11
-7.044195017643634E-15
 21
1.0
 31
0.0
 73
     1
 44
1.0
  0
MTEXT
  5
312
330
309
100
AcDbEntity
  8
0
  6
Continuous
 62
     7
370
    18
100
AcDbMText
 10
110.5514962239
 20
93.1826661455
 30
0.0
 40
3.5
 41
0.0
 71
     1
 72
     1
  1
24
  7
SLDTEXTSTYLE0
 11
-7.044195017643634E-15
 21
1.0
 31
0.0
 73
     1
 44
1.0
  0
ENDBLK
  5
30B
330
309
100
AcDbEntity
  8
0
100
AcDbBlockEnd
  0
BLOCK
  5
315
330
314
100
AcDbEntity
  8
0
100
AcDbBlockBegin
  2
_D_9
 70
     0
 10
0.0
 20
0.0
 30
0.0
  3
_D_9
  1

  0
SOLID
  5
317
330
314
100
AcDbEntity
  8
0
  6
Continuous
 62
     7
370
    18
100
AcDbTrace
 10
72.3409483476
 20
63.7488214969
 30
0.0
 11
75.6429483476
 21
63.2408214969
 31
0.0
 12
75.6429483476
 22
64.2568214969
 32
0.0
 13
75.6429483476
 23
64.2568214969
 33
0.0
  0
SOLID
  5
318
330
314
100
AcDbEntity
  8
0
  6
Continuous
 62
     7
370
    18
100
AcDbTrace
 10
100.6409483476
 20
63.7488214969
 30
0.0
 11
97.3389483476
 21
64.2568214969
 31
0.0
 12
97.3389483476
 22
63.2408214969
 32
0.0
 13
97.3389483476
 23
63.2408214969
 33
0.0
  0
LINE
  5
319
330
314
100
AcDbEntity
  8
0
  6
Continuous
 62
     7
370
     0
100
AcDbLine
 10
72.3409483476
 20
73.7544107485
 30
0.0
 11
72.3409483476
 21
62.7488214969
 31
0.0
  0
LINE
  5
31A
330
314
100
AcDbEntity
  8
0
  6
Continuous
 62
     7
370
     0
100
AcDbLine
 10
100.6409483476
 20
73.2544107485
 30
0.0
 11
100.6409483476
 21
62.7488214969
 31
0.0
  0
LINE
  5
31B
330
314
100
AcDbEntity
  8
0
  6
Continuous
 62
     7
370
     0
100
AcDbLine
 10
72.3409483476
 20
63.7488214969
 30
0.0
 11
100.6409483476
 21
63.7488214969
 31
0.0
  0
MTEXT
  5
31C
330
314
100
AcDbEntity
  8
0
  6
Continuous
 62
     7
370
    18
100
AcDbMText
 10
80.6721981039
 20
68.2605584115
 30
0.0
 40
3.5
 41
0.0
 71
     1
 72
     1
  1
28,30
  7
SLDTEXTSTYLE0
 73
     1
 44
1.0
  0
ENDBLK
  5
316
330
314
100
AcDbEntity
  8
0
100
AcDbBlockEnd
  0
BLOCK
  5
320
330
31F
100
AcDbEntity
  8
0
100
AcDbBlockBegin
  2
_None
 70
     0
 10
0.0
 20
0.0
 30
0.0
  3
_None
  1

  0
ENDBLK
  5
321
330
31F
100
AcDbEntity
  8
0
100
AcDbBlockEnd
  0
BLOCK
  5
323
330
322
100
AcDbEntity
  8
0
100
AcDbBlockBegin
  2
_D_10
 70
     0
 10
0.0
 20
0.0
 30
0.0
  3
_D_10
  1

  0
SOLID
  5
325
330
322
100
AcDbEntity
  8
0
  6
Continuous
 62
     7
370
    18
100
AcDbTrace
 10
89.0011774208
 20
96.4146398217
 30
0.0
 11
91.6952542571
 21
98.3902961683
 31
0.0
 12
90.9768337674
 22
99.108716658
 32
0.0
 13
90.9768337674
 23
99.108716658
 33
0.0
  0
LINE
  5
326
330
322
100
AcDbEntity
  8
0
  6
Continuous
 62
     7
370
     0
100
AcDbLine
 10
89.0011774208
 20
96.4146398217
 30
0.0
 11
123.9197260293
 21
131.3331884302
 31
0.0
  0
LINE
  5
327
330
322
100
AcDbEntity
  8
0
  6
Continuous
 62
     7
370
     0
100
AcDbLine
 10
89.0011774208
 20
96.4146398217
 30
0.0
 11
83.9807192744
 21
91.3941816752
 31
0.0
  0
MTEXT
  5
328
330
322
100
AcDbEntity
  8
0
  6
Continuous
 62
     7
370
    18
100
AcDbMText
 10
106.059660915
 20
119.8453729627
 30
0.0
 40
3.5
 41
0.0
 71
     1
 72
     1
  1
M10x1.25
  7
SLDTEXTSTYLE0
 11
0.7071067811865471
 21
0.707106781186548
 31
0.0
 73
     1
 44
1.0
  0
ENDBLK
  5
324
330
322
100
AcDbEntity
  8
0
100
AcDbBlockEnd
  0
BLOCK
  5
32A
330
329
100
AcDbEntity
  8
0
100
AcDbBlockBegin
  2
SW_CENTERMARKSYMBOL_0
 70
     0
 10
0.0
 20
0.0
 30
0.0
  3
SW_CENTERMARKSYMBOL_0
  1

  0
LINE
  5
32C
330
329
100
AcDbEntity
  8
0
  6
Continuous
 62
     0
370
    18
100
AcDbLine
 10
0.0
 20
0.0
 30
0.0
 11
0.0
 21
2.5
 31
0.0
  0
LINE
  5
32D
330
329
100
AcDbEntity
  8
0
  6
Continuous
 62
     0
370
    18
100
AcDbLine
 10
0.0
 20
0.0
 30
0.0
 11
-2.5
 21
0.0
 31
0.0
  0
LINE
  5
32E
330
329
100
AcDbEntity
  8
0
  6
Continuous
 62
     0
370
    18
100
AcDbLine
 10
0.0
 20
0.0
 30
0.0
 11
0.0
 21
-2.5
 31
0.0
  0
LINE
  5
32F
330
329
100
AcDbEntity
  8
0
  6
Continuous
 62
     0
370
    18
100
AcDbLine
 10
0.0
 20
0.0
 30
0.0
 11
2.5
 21
0.0
 31
0.0
  0
LINE
  5
330
330
329
100
AcDbEntity
  8
0
  6
Continuous
 62
     0
370
    18
100
AcDbLine
 10
0.0
 20
5.0
 30
0.0
 11
0.0
 21
5.5
 31
0.0
  0
LINE
  5
331
330
329
100
AcDbEntity
  8
0
  6
Continuous
 62
     0
370
    18
100
AcDbLine
 10
-5.0
 20
0.0
 30
0.0
 11
-5.5
 21
0.0
 31
0.0
  0
LINE
  5
332
330
329
100
AcDbEntity
  8
0
  6
Continuous
 62
     0
370
    18
100
AcDbLine
 10
0.0
 20
-5.0
 30
0.0
 11
0.0
 21
-5.5
 31
0.0
  0
LINE
  5
333
330
329
100
AcDbEntity
  8
0
  6
Continuous
 62
     0
370
    18
100
AcDbLine
 10
5.0
 20
0.0
 30
0.0
 11
5.5
 21
0.0
 31
0.0
  0
ENDBLK
  5
32B
330
329
100
AcDbEntity
  8
0
100
AcDbBlockEnd
  0
BLOCK
  5
336
330
335
100
AcDbEntity
  8
0
100
AcDbBlockBegin
  2
SW_CENTERMARKSYMBOL_1
 70
     0
 10
0.0
 20
0.0
 30
0.0
  3
SW_CENTERMARKSYMBOL_1
  1

  0
LINE
  5
338
330
335
100
AcDbEntity
  8
0
  6
Continuous
 62
     0
370
    18
100
AcDbLine
 10
0.0
 20
0.0
 30
0.0
 11
0.0
 21
2.5
 31
0.0
  0
LINE
  5
339
330
335
100
AcDbEntity
  8
0
  6
Continuous
 62
     0
370
    18
100
AcDbLine
 10
0.0
 20
0.0
 30
0.0
 11
-2.5
 21
0.0
 31
0.0
  0
LINE
  5
33A
330
335
100
AcDbEntity
  8
0
  6
Continuous
 62
     0
370
    18
100
AcDbLine
 10
0.0
 20
0.0
 30
0.0
 11
0.0
 21
-2.5
 31
0.0
  0
LINE
  5
33B
330
335
100
AcDbEntity
  8
0
  6
Continuous
 62
     0
370
    18
100
AcDbLine
 10
0.0
 20
0.0
 30
0.0
 11
2.5
 21
0.0
 31
0.0
  0
LINE
  5
33C
330
335
100
AcDbEntity
  8
0
  6
Continuous
 62
     0
370
    18
100
AcDbLine
 10
0.0
 20
5.0
 30
0.0
 11
0.0
 21
19.0
 31
0.0
  0
LINE
  5
33D
330
335
100
AcDbEntity
  8
0
  6
Continuous
 62
     0
370
    18
100
AcDbLine
 10
-5.0
 20
0.0
 30
0.0
 11
-19.0
 21
0.0
 31
0.0
  0
LINE
  5
33E
330
335
100
AcDbEntity
  8
0
  6
Continuous
 62
     0
370
    18
100
AcDbLine
 10
0.0
 20
-5.0
 30
0.0
 11
0.0
 21
-19.0
 31
0.0
  0
LINE
  5
33F
330
335
100
AcDbEntity
  8
0
  6
Continuous
 62
     0
370
    18
100
AcDbLine
 10
5.0
 20
0.0
 30
0.0
 11
19.0
 21
0.0
 31
0.0
  0
ENDBLK
  5
337
330
335
100
AcDbEntity
  8
0
100
AcDbBlockEnd
  0
BLOCK
  5
342
330
341
100
AcDbEntity
  8
0
100
AcDbBlockBegin
  2
SW_CENTERMARKSYMBOL_2
 70
     0
 10
0.0
 20
0.0
 30
0.0
  3
SW_CENTERMARKSYMBOL_2
  1

  0
LINE
  5
344
330
341
100
AcDbEntity
  8
0
  6
Continuous
 62
     0
370
    18
100
AcDbLine
 10
0.0
 20
0.0
 30
0.0
 11
0.0
 21
2.5
 31
0.0
  0
LINE
  5
345
330
341
100
AcDbEntity
  8
0
  6
Continuous
 62
     0
370
    18
100
AcDbLine
 10
0.0
 20
0.0
 30
0.0
 11
-2.5
 21
0.0
 31
0.0
  0
LINE
  5
346
330
341
100
AcDbEntity
  8
0
  6
Continuous
 62
     0
370
    18
100
AcDbLine
 10
0.0
 20
0.0
 30
0.0
 11
0.0
 21
-2.5
 31
0.0
  0
LINE
  5
347
330
341
100
AcDbEntity
  8
0
  6
Continuous
 62
     0
370
    18
100
AcDbLine
 10
0.0
 20
0.0
 30
0.0
 11
2.5
 21
0.0
 31
0.0
  0
LINE
  5
348
330
341
100
AcDbEntity
  8
0
  6
Continuous
 62
     0
370
    18
100
AcDbLine
 10
0.0
 20
2.5
 30
0.0
 11
0.0
 21
5.0
 31
0.0
  0
LINE
  5
349
330
341
100
AcDbEntity
  8
0
  6
Continuous
 62
     0
370
    18
100
AcDbLine
 10
-2.5
 20
0.0
 30
0.0
 11
-5.0
 21
0.0
 31
0.0
  0
LINE
  5
34A
330
341
100
AcDbEntity
  8
0
  6
Continuous
 62
     0
370
    18
100
AcDbLine
 10
0.0
 20
-2.5
 30
0.0
 11
0.0
 21
-5.0
 31
0.0
  0
LINE
  5
34B
330
341
100
AcDbEntity
  8
0
  6
Continuous
 62
     0
370
    18
100
AcDbLine
 10
2.5
 20
0.0
 30
0.0
 11
5.0
 21
0.0
 31
0.0
  0
ENDBLK
  5
343
330
341
100
AcDbEntity
  8
0
100
AcDbBlockEnd
  0
BLOCK
  5
34E
330
34D
100
AcDbEntity
  8
0
100
AcDbBlockBegin
  2
SW_CENTERMARKSYMBOL_3
 70
     0
 10
0.0
 20
0.0
 30
0.0
  3
SW_CENTERMARKSYMBOL_3
  1

  0
LINE
  5
350
330
34D
100
AcDbEntity
  8
0
  6
Continuous
 62
     0
370
    18
100
AcDbLine
 10
0.0
 20
0.0
 30
0.0
 11
0.0
 21
2.5
 31
0.0
  0
LINE
  5
351
330
34D
100
AcDbEntity
  8
0
  6
Continuous
 62
     0
370
    18
100
AcDbLine
 10
0.0
 20
0.0
 30
0.0
 11
-2.5
 21
0.0
 31
0.0
  0
LINE
  5
352
330
34D
100
AcDbEntity
  8
0
  6
Continuous
 62
     0
370
    18
100
AcDbLine
 10
0.0
 20
0.0
 30
0.0
 11
0.0
 21
-2.5
 31
0.0
  0
LINE
  5
353
330
34D
100
AcDbEntity
  8
0
  6
Continuous
 62
     0
370
    18
100
AcDbLine
 10
0.0
 20
0.0
 30
0.0
 11
2.5
 21
0.0
 31
0.0
  0
LINE
  5
354
330
34D
100
AcDbEntity
  8
0
  6
Continuous
 62
     0
370
    18
100
AcDbLine
 10
0.0
 20
2.5
 30
0.0
 11
0.0
 21
5.0
 31
0.0
  0
LINE
  5
355
330
34D
100
AcDbEntity
  8
0
  6
Continuous
 62
     0
370
    18
100
AcDbLine
 10
-2.5
 20
0.0
 30
0.0
 11
-5.0
 21
0.0
 31
0.0
  0
LINE
  5
356
330
34D
100
AcDbEntity
  8
0
  6
Continuous
 62
     0
370
    18
100
AcDbLine
 10
0.0
 20
-2.5
 30
0.0
 11
0.0
 21
-5.0
 31
0.0
  0
LINE
  5
357
330
34D
100
AcDbEntity
  8
0
  6
Continuous
 62
     0
370
    18
100
AcDbLine
 10
2.5
 20
0.0
 30
0.0
 11
5.0
 21
0.0
 31
0.0
  0
ENDBLK
  5
34F
330
34D
100
AcDbEntity
  8
0
100
AcDbBlockEnd
  0
BLOCK
  5
35A
330
359
100
AcDbEntity
  8
0
100
AcDbBlockBegin
  2
SW_CENTERMARKSYMBOL_4
 70
     0
 10
0.0
 20
0.0
 30
0.0
  3
SW_CENTERMARKSYMBOL_4
  1

  0
LINE
  5
35C
330
359
100
AcDbEntity
  8
0
  6
Continuous
 62
     0
370
    18
100
AcDbLine
 10
0.0
 20
0.0
 30
0.0
 11
0.0
 21
2.5
 31
0.0
  0
LINE
  5
35D
330
359
100
AcDbEntity
  8
0
  6
Continuous
 62
     0
370
    18
100
AcDbLine
 10
0.0
 20
0.0
 30
0.0
 11
-2.5
 21
0.0
 31
0.0
  0
LINE
  5
35E
330
359
100
AcDbEntity
  8
0
  6
Continuous
 62
     0
370
    18
100
AcDbLine
 10
0.0
 20
0.0
 30
0.0
 11
0.0
 21
-2.5
 31
0.0
  0
LINE
  5
35F
330
359
100
AcDbEntity
  8
0
  6
Continuous
 62
     0
370
    18
100
AcDbLine
 10
0.0
 20
0.0
 30
0.0
 11
2.5
 21
0.0
 31
0.0
  0
LINE
  5
360
330
359
100
AcDbEntity
  8
0
  6
Continuous
 62
     0
370
    18
100
AcDbLine
 10
0.0
 20
5.0
 30
0.0
 11
0.0
 21
5.5
 31
0.0
  0
LINE
  5
361
330
359
100
AcDbEntity
  8
0
  6
Continuous
 62
     0
370
    18
100
AcDbLine
 10
-5.0
 20
0.0
 30
0.0
 11
-5.5
 21
0.0
 31
0.0
  0
LINE
  5
362
330
359
100
AcDbEntity
  8
0
  6
Continuous
 62
     0
370
    18
100
AcDbLine
 10
0.0
 20
-5.0
 30
0.0
 11
0.0
 21
-5.5
 31
0.0
  0
LINE
  5
363
330
359
100
AcDbEntity
  8
0
  6
Continuous
 62
     0
370
    18
100
AcDbLine
 10
5.0
 20
0.0
 30
0.0
 11
5.5
 21
0.0
 31
0.0
  0
ENDBLK
  5
35B
330
359
100
AcDbEntity
  8
0
100
AcDbBlockEnd
  0
ENDSEC
  0
SECTION
  2
ENTITIES
  0
LINE
  5
74
330
1F
100
AcDbEntity
  8
0
  6
Continuous
 62
     7
370
    50
100
AcDbLine
 10
230.0
 20
14.25
 30
0.0
 11
410.0
 21
14.25
 31
0.0
  0
LINE
  5
75
330
1F
100
AcDbEntity
  8
0
  6
Continuous
 62
     7
370
    50
100
AcDbLine
 10
410.0
 20
48.25
 30
0.0
 11
230.0
 21
48.25
 31
0.0
  0
LINE
  5
76
330
1F
100
AcDbEntity
  8
0
  6
Continuous
 62
     7
370
    50
100
AcDbLine
 10
230.0
 20
65.25
 30
0.0
 11
410.0
 21
65.25
 31
0.0
  0
LINE
  5
77
330
1F
100
AcDbEntity
  8
0
  6
Continuous
 62
     7
370
    50
100
AcDbLine
 10
256.9909524338
 20
48.25
 30
0.0
 11
256.9909524338
 21
10.0
 31
0.0
  0
LINE
  5
78
330
1F
100
AcDbEntity
  8
0
  6
Continuous
 62
     7
370
    50
100
AcDbLine
 10
328.8
 20
31.25
 30
0.0
 11
230.0
 21
31.25
 31
0.0
  0
LINE
  5
79
330
1F
100
AcDbEntity
  8
0
  6
Continuous
 62
     7
370
    50
100
AcDbLine
 10
328.8
 20
35.5
 30
0.0
 11
230.0
 21
35.5
 31
0.0
  0
LINE
  5
7A
330
1F
100
AcDbEntity
  8
0
  6
Continuous
 62
     7
370
    50
100
AcDbLine
 10
328.8
 20
39.75
 30
0.0
 11
230.0
 21
39.75
 31
0.0
  0
LINE
  5
7B
330
1F
100
AcDbEntity
  8
0
  6
Continuous
 62
     7
370
    50
100
AcDbLine
 10
328.8
 20
44.0
 30
0.0
 11
230.0
 21
44.0
 31
0.0
  0
LINE
  5
7C
330
1F
100
AcDbEntity
  8
0
  6
Continuous
 62
     7
370
    50
100
AcDbLine
 10
284.6
 20
10.0
 30
0.0
 11
284.6
 21
48.25
 31
0.0
  0
LINE
  5
7D
330
1F
100
AcDbEntity
  8
0
  6
Continuous
 62
     7
370
    50
100
AcDbLine
 10
230.0
 20
65.25
 30
0.0
 11
230.0
 21
10.0
 31
0.0
  0
LINE
  5
7E
330
1F
100
AcDbEntity
  8
0
  6
Continuous
 62
     7
370
    50
100
AcDbLine
 10
242.0703737145
 20
48.25
 30
0.0
 11
242.0703737145
 21
10.0
 31
0.0
  0
LINE
  5
7F
330
1F
100
AcDbEntity
  8
0
  6
Continuous
 62
     7
370
    50
100
AcDbLine
 10
263.8
 20
48.25
 30
0.0
 11
263.8
 21
65.25
 31
0.0
  0
LINE
  5
80
330
1F
100
AcDbEntity
  8
0
  6
Continuous
 62
     7
370
    50
100
AcDbLine
 10
274.3989261635
 20
48.25
 30
0.0
 11
274.3989261635
 21
10.0
 31
0.0
  0
LINE
  5
81
330
1F
100
AcDbEntity
  8
0
  6
Continuous
 62
     7
370
    50
100
AcDbLine
 10
295.0
 20
31.25
 30
0.0
 11
295.0
 21
48.25
 31
0.0
  0
LINE
  5
82
330
1F
100
AcDbEntity
  8
0
  6
Continuous
 62
     7
370
    50
100
AcDbLine
 10
284.6
 20
18.5
 30
0.0
 11
230.0
 21
18.5
 31
0.0
  0
LINE
  5
83
330
1F
100
AcDbEntity
  8
0
  6
Continuous
 62
     7
370
    50
100
AcDbLine
 10
310.6
 20
65.25
 30
0.0
 11
310.6
 21
27.0
 31
0.0
  0
LINE
  5
84
330
1F
100
AcDbEntity
  8
0
  6
Continuous
 62
     7
370
    50
100
AcDbLine
 10
284.6
 20
22.749928
 30
0.0
 11
230.0
 21
22.749928
 31
0.0
  0
LINE
  5
85
330
1F
100
AcDbEntity
  8
0
  6
Continuous
 62
     7
370
    50
100
AcDbLine
 10
284.6
 20
27.0
 30
0.0
 11
230.0
 21
27.0
 31
0.0
  0
LINE
  5
86
330
1F
100
AcDbEntity
  8
0
  6
Continuous
 62
     7
370
    50
100
AcDbLine
 10
284.6
 20
27.0
 30
0.0
 11
410.0
 21
27.0
 31
0.0
  0
LINE
  5
87
330
1F
100
AcDbEntity
  8
0
  6
Continuous
 62
     7
370
    50
100
AcDbLine
 10
328.8
 20
65.25
 30
0.0
 11
328.8
 21
10.0
 31
0.0
  0
LINE
  5
88
330
1F
100
AcDbEntity
  8
0
  6
Continuous
 62
     7
370
    50
100
AcDbLine
 10
373.0
 20
10.0
 30
0.0
 11
373.0
 21
14.25
 31
0.0
  0
LINE
  5
89
330
1F
100
AcDbEntity
  8
0
  6
Continuous
 62
     7
370
    50
100
AcDbLine
 10
380.8
 20
58.875
 30
0.0
 11
380.8
 21
65.25
 31
0.0
  0
LINE
  5
8A
330
1F
100
AcDbEntity
  8
0
  6
Continuous
 62
     7
370
    50
100
AcDbLine
 10
397.0
 20
14.25
 30
0.0
 11
397.0
 21
27.0
 31
0.0
  0
LINE
  5
8B
330
1F
100
AcDbEntity
  8
0
  6
Continuous
 62
     7
370
    50
100
AcDbLine
 10
410.0
 20
58.875
 30
0.0
 11
328.8
 21
58.875
 31
0.0
  0
LINE
  5
8C
330
1F
100
AcDbEntity
  8
0
  6
Continuous
 62
     7
370
    50
100
AcDbLine
 10
410.0
 20
18.5
 30
0.0
 11
397.0
 21
18.5
 31
0.0
  0
LINE
  5
8D
330
1F
100
AcDbEntity
  8
0
  6
Continuous
 62
     7
370
    70
100
AcDbLine
 10
20.0
 20
10.0
 30
0.0
 11
20.0
 21
287.0
 31
0.0
  0
LINE
  5
8E
330
1F
100
AcDbEntity
  8
0
  6
Continuous
 62
     7
370
    70
100
AcDbLine
 10
20.0
 20
287.0
 30
0.0
 11
410.0
 21
287.0
 31
0.0
  0
LINE
  5
8F
330
1F
100
AcDbEntity
  8
0
  6
Continuous
 62
     7
370
    70
100
AcDbLine
 10
410.0
 20
287.0
 30
0.0
 11
410.0
 21
10.0
 31
0.0
  0
LINE
  5
90
330
1F
100
AcDbEntity
  8
0
  6
Continuous
 62
     7
370
    70
100
AcDbLine
 10
410.0
 20
10.0
 30
0.0
 11
20.0
 21
10.0
 31
0.0
  0
LINE
  5
91
330
1F
100
AcDbEntity
  8
0
  6
Continuous
 62
     7
370
    70
100
AcDbLine
 10
15.0
 20
5.0
 30
0.0
 11
15.0
 21
292.0
 31
0.0
  0
LINE
  5
92
330
1F
100
AcDbEntity
  8
0
  6
Continuous
 62
     7
370
    70
100
AcDbLine
 10
15.0
 20
292.0
 30
0.0
 11
415.0
 21
292.0
 31
0.0
  0
LINE
  5
93
330
1F
100
AcDbEntity
  8
0
  6
Continuous
 62
     7
370
    70
100
AcDbLine
 10
415.0
 20
292.0
 30
0.0
 11
415.0
 21
5.0
 31
0.0
  0
LINE
  5
94
330
1F
100
AcDbEntity
  8
0
  6
Continuous
 62
     7
370
    70
100
AcDbLine
 10
415.0
 20
5.0
 30
0.0
 11
15.0
 21
5.0
 31
0.0
  0
LINE
  5
95
330
1F
100
AcDbEntity
  8
0
  6
Continuous
 62
     7
370
    35
100
AcDbLine
 10
15.0
 20
148.5
 30
0.0
 11
25.0
 21
148.5
 31
0.0
  0
LINE
  5
96
330
1F
100
AcDbEntity
  8
0
  6
Continuous
 62
     7
370
    35
100
AcDbLine
 10
215.0
 20
292.0
 30
0.0
 11
215.0
 21
282.0
 31
0.0
  0
LINE
  5
97
330
1F
100
AcDbEntity
  8
0
  6
Continuous
 62
     7
370
    35
100
AcDbLine
 10
415.0
 20
148.5
 30
0.0
 11
405.0
 21
148.5
 31
0.0
  0
LINE
  5
98
330
1F
100
AcDbEntity
  8
0
  6
Continuous
 62
     7
370
    35
100
AcDbLine
 10
215.0
 20
5.0
 30
0.0
 11
215.0
 21
15.0
 31
0.0
  0
LINE
  5
99
330
1F
100
AcDbEntity
  8
0
  6
Continuous
 62
     7
370
    35
100
AcDbLine
 10
20.0
 20
48.5
 30
0.0
 11
15.0
 21
48.5
 31
0.0
  0
LINE
  5
9A
330
1F
100
AcDbEntity
  8
0
  6
Continuous
 62
     7
370
    35
100
AcDbLine
 10
410.0
 20
48.5
 30
0.0
 11
415.0
 21
48.5
 31
0.0
  0
LINE
  5
9B
330
1F
100
AcDbEntity
  8
0
  6
Continuous
 62
     7
370
    35
100
AcDbLine
 10
20.0
 20
98.5
 30
0.0
 11
15.0
 21
98.5
 31
0.0
  0
LINE
  5
9C
330
1F
100
AcDbEntity
  8
0
  6
Continuous
 62
     7
370
    35
100
AcDbLine
 10
410.0
 20
98.5
 30
0.0
 11
415.0
 21
98.5
 31
0.0
  0
LINE
  5
9D
330
1F
100
AcDbEntity
  8
0
  6
Continuous
 62
     7
370
    35
100
AcDbLine
 10
20.0
 20
148.5
 30
0.0
 11
15.0
 21
148.5
 31
0.0
  0
LINE
  5
9E
330
1F
100
AcDbEntity
  8
0
  6
Continuous
 62
     7
370
    35
100
AcDbLine
 10
410.0
 20
148.5
 30
0.0
 11
415.0
 21
148.5
 31
0.0
  0
LINE
  5
9F
330
1F
100
AcDbEntity
  8
0
  6
Continuous
 62
     7
370
    35
100
AcDbLine
 10
20.0
 20
198.5
 30
0.0
 11
15.0
 21
198.5
 31
0.0
  0
LINE
  5
A0
330
1F
100
AcDbEntity
  8
0
  6
Continuous
 62
     7
370
    35
100
AcDbLine
 10
410.0
 20
198.5
 30
0.0
 11
415.0
 21
198.5
 31
0.0
  0
LINE
  5
A1
330
1F
100
AcDbEntity
  8
0
  6
Continuous
 62
     7
370
    35
100
AcDbLine
 10
20.0
 20
248.5
 30
0.0
 11
15.0
 21
248.5
 31
0.0
  0
LINE
  5
A2
330
1F
100
AcDbEntity
  8
0
  6
Continuous
 62
     7
370
    35
100
AcDbLine
 10
410.0
 20
248.5
 30
0.0
 11
415.0
 21
248.5
 31
0.0
  0
LINE
  5
A3
330
1F
100
AcDbEntity
  8
0
  6
Continuous
 62
     7
370
    35
100
AcDbLine
 10
65.0
 20
287.0
 30
0.0
 11
65.0
 21
292.0
 31
0.0
  0
LINE
  5
A4
330
1F
100
AcDbEntity
  8
0
  6
Continuous
 62
     7
370
    35
100
AcDbLine
 10
65.0
 20
10.0
 30
0.0
 11
65.0
 21
5.0
 31
0.0
  0
LINE
  5
A5
330
1F
100
AcDbEntity
  8
0
  6
Continuous
 62
     7
370
    35
100
AcDbLine
 10
115.0
 20
287.0
 30
0.0
 11
115.0
 21
292.0
 31
0.0
  0
LINE
  5
A6
330
1F
100
AcDbEntity
  8
0
  6
Continuous
 62
     7
370
    35
100
AcDbLine
 10
115.0
 20
10.0
 30
0.0
 11
115.0
 21
5.0
 31
0.0
  0
LINE
  5
A7
330
1F
100
AcDbEntity
  8
0
  6
Continuous
 62
     7
370
    35
100
AcDbLine
 10
165.0
 20
287.0
 30
0.0
 11
165.0
 21
292.0
 31
0.0
  0
LINE
  5
A8
330
1F
100
AcDbEntity
  8
0
  6
Continuous
 62
     7
370
    35
100
AcDbLine
 10
165.0
 20
10.0
 30
0.0
 11
165.0
 21
5.0
 31
0.0
  0
LINE
  5
A9
330
1F
100
AcDbEntity
  8
0
  6
Continuous
 62
     7
370
    35
100
AcDbLine
 10
215.0
 20
287.0
 30
0.0
 11
215.0
 21
292.0
 31
0.0
  0
LINE
  5
AA
330
1F
100
AcDbEntity
  8
0
  6
Continuous
 62
     7
370
    35
100
AcDbLine
 10
215.0
 20
10.0
 30
0.0
 11
215.0
 21
5.0
 31
0.0
  0
LINE
  5
AB
330
1F
100
AcDbEntity
  8
0
  6
Continuous
 62
     7
370
    35
100
AcDbLine
 10
265.0
 20
287.0
 30
0.0
 11
265.0
 21
292.0
 31
0.0
  0
LINE
  5
AC
330
1F
100
AcDbEntity
  8
0
  6
Continuous
 62
     7
370
    35
100
AcDbLine
 10
265.0
 20
10.0
 30
0.0
 11
265.0
 21
5.0
 31
0.0
  0
LINE
  5
AD
330
1F
100
AcDbEntity
  8
0
  6
Continuous
 62
     7
370
    35
100
AcDbLine
 10
315.0
 20
287.0
 30
0.0
 11
315.0
 21
292.0
 31
0.0
  0
LINE
  5
AE
330
1F
100
AcDbEntity
  8
0
  6
Continuous
 62
     7
370
    35
100
AcDbLine
 10
315.0
 20
10.0
 30
0.0
 11
315.0
 21
5.0
 31
0.0
  0
LINE
  5
AF
330
1F
100
AcDbEntity
  8
0
  6
Continuous
 62
     7
370
    35
100
AcDbLine
 10
365.0
 20
287.0
 30
0.0
 11
365.0
 21
292.0
 31
0.0
  0
LINE
  5
B0
330
1F
100
AcDbEntity
  8
0
  6
Continuous
 62
     7
370
    35
100
AcDbLine
 10
365.0
 20
10.0
 30
0.0
 11
365.0
 21
5.0
 31
0.0
  0
MTEXT
  5
B2
330
1F
100
AcDbEntity
  8
0
  6
Continuous
 62
     7
370
     0
100
AcDbMText
 10
17.3396881428
 20
31.1962239326
 30
0.0
 40
3.96875
 41
0.0
 71
     2
 72
     1
  1
A
  7
SLDTEXTSTYLE0
 73
     1
 44
1.0
  0
MTEXT
  5
B3
330
1F
100
AcDbEntity
  8
0
  6
Continuous
 62
     7
370
     0
100
AcDbMText
 10
412.3396881428
 20
31.1962239326
 30
0.0
 40
3.96875
 41
0.0
 71
     2
 72
     1
  1
A
  7
SLDTEXTSTYLE0
 73
     1
 44
1.0
  0
MTEXT
  5
B4
330
1F
100
AcDbEntity
  8
0
  6
Continuous
 62
     7
370
     0
100
AcDbMText
 10
17.4706018241
 20
75.4957779464
 30
0.0
 40
3.96875
 41
0.0
 71
     2
 72
     1
  1
B
  7
SLDTEXTSTYLE0
 73
     1
 44
1.0
  0
MTEXT
  5
B5
330
1F
100
AcDbEntity
  8
0
  6
Continuous
 62
     7
370
     0
100
AcDbMText
 10
412.4706018241
 20
75.4957779464
 30
0.0
 40
3.96875
 41
0.0
 71
     2
 72
     1
  1
B
  7
SLDTEXTSTYLE0
 73
     1
 44
1.0
  0
MTEXT
  5
B6
330
1F
100
AcDbEntity
  8
0
  6
Continuous
 62
     7
370
     0
100
AcDbMText
 10
17.458658902
 20
125.4462239326
 30
0.0
 40
3.96875
 41
0.0
 71
     2
 72
     1
  1
C
  7
SLDTEXTSTYLE0
 73
     1
 44
1.0
  0
MTEXT
  5
B7
330
1F
100
AcDbEntity
  8
0
  6
Continuous
 62
     7
370
     0
100
AcDbMText
 10
412.458658902
 20
125.4462239326
 30
0.0
 40
3.96875
 41
0.0
 71
     2
 72
     1
  1
C
  7
SLDTEXTSTYLE0
 73
     1
 44
1.0
  0
MTEXT
  5
B8
330
1F
100
AcDbEntity
  8
0
  6
Continuous
 62
     7
370
     0
100
AcDbMText
 10
17.4526872821
 20
175.4957779464
 30
0.0
 40
3.96875
 41
0.0
 71
     2
 72
     1
  1
D
  7
SLDTEXTSTYLE0
 73
     1
 44
1.0
  0
MTEXT
  5
B9
330
1F
100
AcDbEntity
  8
0
  6
Continuous
 62
     7
370
     0
100
AcDbMText
 10
412.4526872821
 20
175.4957779464
 30
0.0
 40
3.96875
 41
0.0
 71
     2
 72
     1
  1
D
  7
SLDTEXTSTYLE0
 73
     1
 44
1.0
  0
MTEXT
  5
BA
330
1F
100
AcDbEntity
  8
0
  6
Continuous
 62
     7
370
     0
100
AcDbMText
 10
17.5078089051
 20
225.4462239326
 30
0.0
 40
3.96875
 41
0.0
 71
     2
 72
     1
  1
E
  7
SLDTEXTSTYLE0
 73
     1
 44
1.0
  0
MTEXT
  5
BB
330
1F
100
AcDbEntity
  8
0
  6
Continuous
 62
     7
370
     0
100
AcDbMText
 10
412.5078089051
 20
225.4462239326
 30
0.0
 40
3.96875
 41
0.0
 71
     2
 72
     1
  1
E
  7
SLDTEXTSTYLE0
 73
     1
 44
1.0
  0
MTEXT
  5
BC
330
1F
100
AcDbEntity
  8
0
  6
Continuous
 62
     7
370
     0
100
AcDbMText
 10
17.4577402091
 20
269.7457779464
 30
0.0
 40
3.96875
 41
0.0
 71
     2
 72
     1
  1
F
  7
SLDTEXTSTYLE0
 73
     1
 44
1.0
  0
MTEXT
  5
BD
330
1F
100
AcDbEntity
  8
0
  6
Continuous
 62
     7
370
     0
100
AcDbMText
 10
412.4577402091
 20
269.7457779464
 30
0.0
 40
3.96875
 41
0.0
 71
     2
 72
     1
  1
F
  7
SLDTEXTSTYLE0
 73
     1
 44
1.0
  0
MTEXT
  5
BE
330
1F
100
AcDbEntity
  8
0
  6
Continuous
 62
     7
370
     0
100
AcDbMText
 10
42.4600369465
 20
9.4957779464
 30
0.0
 40
3.96875
 41
0.0
 71
     2
 72
     1
  1
8
  7
SLDTEXTSTYLE0
 73
     1
 44
1.0
  0
MTEXT
  5
BF
330
1F
100
AcDbEntity
  8
0
  6
Continuous
 62
     7
370
     0
100
AcDbMText
 10
42.4600369465
 20
291.4462239326
 30
0.0
 40
3.96875
 41
0.0
 71
     2
 72
     1
  1
8
  7
SLDTEXTSTYLE0
 73
     1
 44
1.0
  0
MTEXT
  5
C0
330
1F
100
AcDbEntity
  8
0
  6
Continuous
 62
     7
370
     0
100
AcDbMText
 10
89.9600369465
 20
9.4957779464
 30
0.0
 40
3.96875
 41
0.0
 71
     2
 72
     1
  1
7
  7
SLDTEXTSTYLE0
 73
     1
 44
1.0
  0
MTEXT
  5
C1
330
1F
100
AcDbEntity
  8
0
  6
Continuous
 62
     7
370
     0
100
AcDbMText
 10
89.9600369465
 20
291.4462239326
 30
0.0
 40
3.96875
 41
0.0
 71
     2
 72
     1
  1
7
  7
SLDTEXTSTYLE0
 73
     1
 44
1.0
  0
MTEXT
  5
C2
330
1F
100
AcDbEntity
  8
0
  6
Continuous
 62
     7
370
     0
100
AcDbMText
 10
139.9600369465
 20
9.4957779464
 30
0.0
 40
3.96875
 41
0.0
 71
     2
 72
     1
  1
6
  7
SLDTEXTSTYLE0
 73
     1
 44
1.0
  0
MTEXT
  5
C3
330
1F
100
AcDbEntity
  8
0
  6
Continuous
 62
     7
370
     0
100
AcDbMText
 10
139.9600369465
 20
291.4462239326
 30
0.0
 40
3.96875
 41
0.0
 71
     2
 72
     1
  1
6
  7
SLDTEXTSTYLE0
 73
     1
 44
1.0
  0
MTEXT
  5
C4
330
1F
100
AcDbEntity
  8
0
  6
Continuous
 62
     7
370
     0
100
AcDbMText
 10
189.9600369465
 20
9.4957779464
 30
0.0
 40
3.96875
 41
0.0
 71
     2
 72
     1
  1
5
  7
SLDTEXTSTYLE0
 73
     1
 44
1.0
  0
MTEXT
  5
C5
330
1F
100
AcDbEntity
  8
0
  6
Continuous
 62
     7
370
     0
100
AcDbMText
 10
189.9600369465
 20
291.4462239326
 30
0.0
 40
3.96875
 41
0.0
 71
     2
 72
     1
  1
5
  7
SLDTEXTSTYLE0
 73
     1
 44
1.0
  0
MTEXT
  5
C6
330
1F
100
AcDbEntity
  8
0
  6
Continuous
 62
     7
370
     0
100
AcDbMText
 10
239.9600369465
 20
9.4957779464
 30
0.0
 40
3.96875
 41
0.0
 71
     2
 72
     1
  1
4
  7
SLDTEXTSTYLE0
 73
     1
 44
1.0
  0
MTEXT
  5
C7
330
1F
100
AcDbEntity
  8
0
  6
Continuous
 62
     7
370
     0
100
AcDbMText
 10
239.9600369465
 20
291.4462239326
 30
0.0
 40
3.96875
 41
0.0
 71
     2
 72
     1
  1
4
  7
SLDTEXTSTYLE0
 73
     1
 44
1.0
  0
MTEXT
  5
C8
330
1F
100
AcDbEntity
  8
0
  6
Continuous
 62
     7
370
     0
100
AcDbMText
 10
289.9600369465
 20
9.4957779464
 30
0.0
 40
3.96875
 41
0.0
 71
     2
 72
     1
  1
3
  7
SLDTEXTSTYLE0
 73
     1
 44
1.0
  0
MTEXT
  5
C9
330
1F
100
AcDbEntity
  8
0
  6
Continuous
 62
     7
370
     0
100
AcDbMText
 10
289.9600369465
 20
291.4462239326
 30
0.0
 40
3.96875
 41
0.0
 71
     2
 72
     1
  1
3
  7
SLDTEXTSTYLE0
 73
     1
 44
1.0
  0
MTEXT
  5
CA
330
1F
100
AcDbEntity
  8
0
  6
Continuous
 62
     7
370
     0
100
AcDbMText
 10
339.9600369465
 20
9.4957779464
 30
0.0
 40
3.96875
 41
0.0
 71
     2
 72
     1
  1
2
  7
SLDTEXTSTYLE0
 73
     1
 44
1.0
  0
MTEXT
  5
CB
330
1F
100
AcDbEntity
  8
0
  6
Continuous
 62
     7
370
     0
100
AcDbMText
 10
339.9600369465
 20
291.4462239326
 30
0.0
 40
3.96875
 41
0.0
 71
     2
 72
     1
  1
2
  7
SLDTEXTSTYLE0
 73
     1
 44
1.0
  0
MTEXT
  5
CC
330
1F
100
AcDbEntity
  8
0
  6
Continuous
 62
     7
370
     0
100
AcDbMText
 10
387.4600369465
 20
9.4957779464
 30
0.0
 40
3.96875
 41
0.0
 71
     2
 72
     1
  1
1
  7
SLDTEXTSTYLE0
 73
     1
 44
1.0
  0
MTEXT
  5
CD
330
1F
100
AcDbEntity
  8
0
  6
Continuous
 62
     7
370
     0
100
AcDbMText
 10
387.4600369465
 20
291.4462239326
 30
0.0
 40
3.96875
 41
0.0
 71
     2
 72
     1
  1
1
  7
SLDTEXTSTYLE0
 73
     1
 44
1.0
  0
MTEXT
  5
CE
330
1F
100
AcDbEntity
  8
0
  6
Continuous
 62
     7
370
     0
100
AcDbMText
 10
364.6358604137
 20
23.347828666
 30
0.0
 40
4.2333333333
 41
0.0
 71
     2
 72
     1
  1
CR025012A0GHGM_#_#_##Svoboda
  7
SLDTEXTSTYLE0
 73
     1
 44
1.0
  0
MTEXT
  5
CF
330
1F
100
AcDbEntity
  8
0
  6
Continuous
 62
     7
370
     0
100
AcDbMText
 10
285.6178111281
 20
12.9493119036
 30
0.0
 40
1.4986
 41
0.0
 71
     1
 72
     1
  1
HMOTNOST:
  7
SLDTEXTSTYLE0
 73
     1
 44
1.0
  0
MTEXT
  5
D0
330
1F
100
AcDbEntity
  8
0
  6
Continuous
 62
     7
370
     0
100
AcDbMText
 10
400.8711564346
 20
24.406388569
 30
0.0
 40
2.9104166667
 41
0.0
 71
     1
 72
     1
  1
A3
  7
SLDTEXTSTYLE0
 73
     1
 44
1.0
  0
MTEXT
  5
D2
330
1F
100
AcDbEntity
  8
0
  6
Continuous
 62
     7
370
     0
100
AcDbMText
 10
374.4782944278
 20
12.9000872745
 30
0.0
 40
1.5
 41
0.0
 71
     1
 72
     1
  1
LIST 1 Z 1 LISTŮ
  7
SLDTEXTSTYLE1
 73
     1
 44
1.0
  0
MTEXT
  5
D4
330
1F
100
AcDbEntity
  8
0
  6
Continuous
 62
     7
370
     0
100
AcDbMText
 10
330.0739661175
 20
12.9000872745
 30
0.0
 40
1.5
 41
0.0
 71
     1
 72
     1
  1
MĚŘÍTKO:1:1
  7
SLDTEXTSTYLE2
 73
     1
 44
1.0
  0
MTEXT
  5
D5
330
1F
100
AcDbEntity
  8
0
  6
Continuous
 62
     7
370
     0
100
AcDbMText
 10
330.2786531243
 20
25.9860562892
 30
0.0
 40
1.5
 41
0.0
 71
     1
 72
     1
  1
Č. VÝKRESU
  7
SLDTEXTSTYLE2
 73
     1
 44
1.0
  0
MTEXT
  5
D6
330
1F
100
AcDbEntity
  8
0
  6
Continuous
 62
     7
370
     0
100
AcDbMText
 10
329.9561869366
 20
46.5761792212
 30
0.0
 40
1.5
 41
0.0
 71
     1
 72
     1
  1
NÁZEV:
  7
SLDTEXTSTYLE0
 73
     1
 44
1.0
  0
MTEXT
  5
D7
330
1F
100
AcDbEntity
  8
0
  6
Continuous
 62
     7
370
     0
100
AcDbMText
 10
383.3275816993
 20
62.3349086805
 30
0.0
 40
1.5
 41
0.0
 71
     1
 72
     1
  1
ZMĚNA
  7
SLDTEXTSTYLE2
 73
     1
 44
1.0
  0
MTEXT
  5
D8
330
1F
100
AcDbEntity
  8
0
  6
Continuous
 62
     7
370
     0
100
AcDbMText
 10
342.6146405229
 20
62.5329935751
 30
0.0
 40
1.5
 41
0.0
 71
     1
 72
     1
  1
NEUPRAVOVAT MĚŘÍTKO VÝKRESU
  7
SLDTEXTSTYLE2
 73
     1
 44
1.0
  0
MTEXT
  5
D9
330
1F
100
AcDbEntity
  8
0
  6
Continuous
 62
     7
370
     0
100
AcDbMText
 10
285.6458623088
 20
25.9860562892
 30
0.0
 40
1.5
 41
0.0
 71
     1
 72
     1
  1
MATERIÁL:
  7
SLDTEXTSTYLE0
 73
     1
 44
1.0
  0
MTEXT
  5
DA
330
1F
100
AcDbEntity
  8
0
  6
Continuous
 62
     7
370
     0
100
AcDbMText
 10
277.2147019657
 20
46.5761792212
 30
0.0
 40
1.5
 41
0.0
 71
     1
 72
     1
  1
DATUM
  7
SLDTEXTSTYLE0
 73
     1
 44
1.0
  0
MTEXT
  5
DB
330
1F
100
AcDbEntity
  8
0
  6
Continuous
 62
     7
370
     0
100
AcDbMText
 10
260.0335875632
 20
46.5617563795
 30
0.0
 40
1.5
 41
0.0
 71
     1
 72
     1
  1
PODPIS
  7
SLDTEXTSTYLE0
 73
     1
 44
1.0
  0
MTEXT
  5
DC
330
1F
100
AcDbEntity
  8
0
  6
Continuous
 62
     7
370
     0
100
AcDbMText
 10
244.3222392177
 20
46.5014826335
 30
0.0
 40
1.5
 41
0.0
 71
     1
 72
     1
  1
JMÉNO
  7
SLDTEXTSTYLE0
 73
     1
 44
1.0
  0
INSERT
  5
E2
330
1F
100
AcDbEntity
  8
0
  6
Continuous
 62
     7
370
     0
100
AcDbBlockReference
  2
SW_NOTE_0
 10
311.3092156863
 20
62.069489643
 30
0.0
  0
MTEXT
  5
E3
330
1F
100
AcDbEntity
  8
0
  6
Continuous
 62
     7
370
     0
100
AcDbMText
 10
264.3712921668
 20
63.9192719951
 30
0.0
 40
1.5
 41
0.0
 71
     1
 72
     1
  1
OPRACOVÁNÍ:
  7
SLDTEXTSTYLE0
 73
     1
 44
1.0
  0
INSERT
  5
ED
330
1F
100
AcDbEntity
  8
0
  6
Continuous
 62
     7
370
     0
100
AcDbBlockReference
  2
SW_NOTE_0_1
 10
230.5936687456
 20
61.9873698743
 30
0.0
  0
MTEXT
  5
EE
330
1F
100
AcDbEntity
  8
0
  6
Continuous
 62
     7
370
     0
100
AcDbMText
 10
230.6690428622
 20
25.3496492073
 30
0.0
 40
1.5
 41
0.0
 71
     1
 72
     1
  1
Z. JAKOSTI
  7
SLDTEXTSTYLE0
 73
     1
 44
1.0
  0
MTEXT
  5
EF
330
1F
100
AcDbEntity
  8
0
  6
Continuous
 62
     7
370
     0
100
AcDbMText
 10
230.4551864991
 20
29.7337046506
 30
0.0
 40
1.5
 41
0.0
 71
     1
 72
     1
  1
VÝROBA
  7
SLDTEXTSTYLE0
 73
     1
 44
1.0
  0
MTEXT
  5
F0
330
1F
100
AcDbEntity
  8
0
  6
Continuous
 62
     7
370
     0
100
AcDbMText
 10
230.4017224083
 20
34.0642960031
 30
0.0
 40
1.5
 41
0.0
 71
     1
 72
     1
  1
SCHVÁLIL
  7
SLDTEXTSTYLE0
 73
     1
 44
1.0
  0
MTEXT
  5
F1
330
1F
100
AcDbEntity
  8
0
  6
Continuous
 62
     7
370
     0
100
AcDbMText
 10
230.4104688676
 20
38.15440716
 30
0.0
 40
1.5
 41
0.0
 71
     1
 72
     1
  1
PŘEZKOUŠEL
  7
SLDTEXTSTYLE2
 73
     1
 44
1.0
  0
MTEXT
  5
F2
330
1F
100
AcDbEntity
  8
0
  6
Continuous
 62
     7
370
     0
100
AcDbMText
 10
230.2121492441
 20
42.4297148859
 30
0.0
 40
1.5
 41
0.0
 71
     1
 72
     1
  1
NAVRHL
  7
SLDTEXTSTYLE0
 73
     1
 44
1.0
  0
LINE
  5
F3
330
1F
100
AcDbEntity
  8
0
  6
Continuous
 62
     7
370
    25
100
AcDbLine
 10
213.44
 20
217.9044107485
 30
0.0
 11
213.94
 21
218.4044107485
 31
0.0
  0
LINE
  5
F4
330
1F
100
AcDbEntity
  8
0
  6
Continuous
 62
     7
370
    25
100
AcDbLine
 10
213.94
 20
229.4044107485
 30
0.0
 11
213.44
 21
229.9044107485
 31
0.0
  0
LINE
  5
F5
330
1F
100
AcDbEntity
  8
0
  6
Continuous
 62
     7
370
    25
100
AcDbLine
 10
210.94
 20
217.9044107485
 30
0.0
 11
213.44
 21
217.9044107485
 31
0.0
  0
LINE
  5
F6
330
1F
100
AcDbEntity
  8
0
  6
Continuous
 62
     7
370
    25
100
AcDbLine
 10
213.44
 20
229.9044107485
 30
0.0
 11
210.94
 21
229.9044107485
 31
0.0
  0
ARC
  5
F7
330
1F
100
AcDbEntity
  8
0
  6
Continuous
 62
     7
370
    25
100
AcDbCircle
 10
211.64
 20
213.4544107485
 30
0.0
 40
0.3000000000000398
100
AcDbArc
 50
0.0
 51
90.0
  0
ARC
  5
F8
330
1F
100
AcDbEntity
  8
0
  6
Continuous
 62
     7
370
    25
100
AcDbCircle
 10
211.64
 20
206.0544107485
 30
0.0
 40
0.3000000000000398
100
AcDbArc
 50
270.0
 51
0.0
  0
LINE
  5
F9
330
1F
100
AcDbEntity
  8
0
  6
Continuous
 62
     7
370
    25
100
AcDbLine
 10
209.94
 20
205.7544107485
 30
0.0
 11
211.64
 21
205.7544107485
 31
0.0
  0
LINE
  5
FA
330
1F
100
AcDbEntity
  8
0
  6
Continuous
 62
     7
370
    25
100
AcDbLine
 10
211.64
 20
213.7544107485
 30
0.0
 11
209.94
 21
213.7544107485
 31
0.0
  0
LINE
  5
FB
330
1F
100
AcDbEntity
  8
0
  6
Continuous
 62
     7
370
    25
100
AcDbLine
 10
209.94
 20
213.7554481139
 30
0.0
 11
209.3210373655
 21
214.3744107485
 31
0.0
  0
LINE
  5
FC
330
1F
100
AcDbEntity
  8
0
  6
Continuous
 62
     7
370
    25
100
AcDbLine
 10
203.94
 20
205.753373383
 30
0.0
 11
204.5589626345
 21
205.1344107485
 31
0.0
  0
LINE
  5
FD
330
1F
100
AcDbEntity
  8
0
  6
Continuous
 62
     7
370
    25
100
AcDbLine
 10
204.5589626345
 20
214.3744107485
 30
0.0
 11
203.94
 21
213.7554481139
 31
0.0
  0
LINE
  5
FE
330
1F
100
AcDbEntity
  8
0
  6
Continuous
 62
     7
370
    25
100
AcDbLine
 10
209.3210373655
 20
205.1344107485
 30
0.0
 11
209.94
 21
205.753373383
 31
0.0
  0
ARC
  5
FF
330
1F
100
AcDbEntity
  8
0
  6
Continuous
 62
     7
370
    25
100
AcDbCircle
 10
211.64
 20
241.7544107485
 30
0.0
 40
0.3000000000000398
100
AcDbArc
 50
0.0
 51
90.0
  0
ARC
  5
100
330
1F
100
AcDbEntity
  8
0
  6
Continuous
 62
     7
370
    25
100
AcDbCircle
 10
211.64
 20
234.3544107485
 30
0.0
 40
0.3000000000000398
100
AcDbArc
 50
270.0
 51
0.0
  0
LINE
  5
101
330
1F
100
AcDbEntity
  8
0
  6
Continuous
 62
     7
370
    25
100
AcDbLine
 10
209.94
 20
234.0544107485
 30
0.0
 11
211.64
 21
234.0544107485
 31
0.0
  0
LINE
  5
102
330
1F
100
AcDbEntity
  8
0
  6
Continuous
 62
     7
370
    25
100
AcDbLine
 10
211.64
 20
242.0544107485
 30
0.0
 11
209.94
 21
242.0544107485
 31
0.0
  0
LINE
  5
103
330
1F
100
AcDbEntity
  8
0
  6
Continuous
 62
     7
370
    25
100
AcDbLine
 10
203.94
 20
234.053373383
 30
0.0
 11
204.5589626345
 21
233.4344107485
 31
0.0
  0
LINE
  5
104
330
1F
100
AcDbEntity
  8
0
  6
Continuous
 62
     7
370
    25
100
AcDbLine
 10
209.3210373655
 20
233.4344107485
 30
0.0
 11
209.94
 21
234.053373383
 31
0.0
  0
LINE
  5
105
330
1F
100
AcDbEntity
  8
0
  6
Continuous
 62
     7
370
    25
100
AcDbLine
 10
204.5589626345
 20
242.6744107485
 30
0.0
 11
203.94
 21
242.0554481139
 31
0.0
  0
LINE
  5
106
330
1F
100
AcDbEntity
  8
0
  6
Continuous
 62
     7
370
    25
100
AcDbLine
 10
209.94
 20
242.0554481139
 30
0.0
 11
209.3210373655
 21
242.6744107485
 31
0.0
  0
LINE
  5
107
330
1F
100
AcDbEntity
  8
0
  6
Continuous
 62
     7
370
    25
100
AcDbLine
 10
155.94
 20
240.5544107485
 30
0.0
 11
108.94
 21
240.5544107485
 31
0.0
  0
LINE
  5
108
330
1F
100
AcDbEntity
  8
0
  6
Continuous
 62
     7
370
    25
100
AcDbLine
 10
84.94
 20
240.5544107485
 30
0.0
 11
66.44
 21
240.5544107485
 31
0.0
  0
LINE
  5
109
330
1F
100
AcDbEntity
  8
0
  6
Continuous
 62
     7
370
    25
100
AcDbLine
 10
66.44
 20
235.5544107485
 30
0.0
 11
84.94
 21
235.5544107485
 31
0.0
  0
LINE
  5
10A
330
1F
100
AcDbEntity
  8
0
  6
Continuous
 62
     7
370
    25
100
AcDbLine
 10
108.94
 20
235.5544107485
 30
0.0
 11
155.94
 21
235.5544107485
 31
0.0
  0
LINE
  5
10B
330
1F
100
AcDbEntity
  8
0
  6
Continuous
 62
     7
370
    25
100
AcDbLine
 10
66.44
 20
240.5544107485
 30
0.0
 11
65.94
 21
240.0544107485
 31
0.0
  0
LINE
  5
10C
330
1F
100
AcDbEntity
  8
0
  6
Continuous
 62
     7
370
    25
100
AcDbLine
 10
65.94
 20
236.0544107485
 30
0.0
 11
66.44
 21
235.5544107485
 31
0.0
  0
LINE
  5
10D
330
1F
100
AcDbEntity
  8
0
  6
Continuous
 62
     7
370
    25
100
AcDbLine
 10
66.44
 20
207.2544107485
 30
0.0
 11
84.94
 21
207.2544107485
 31
0.0
  0
LINE
  5
10E
330
1F
100
AcDbEntity
  8
0
  6
Continuous
 62
     7
370
    25
100
AcDbLine
 10
108.94
 20
207.2544107485
 30
0.0
 11
155.94
 21
207.2544107485
 31
0.0
  0
LINE
  5
10F
330
1F
100
AcDbEntity
  8
0
  6
Continuous
 62
     7
370
    25
100
AcDbLine
 10
155.94
 20
212.2544107485
 30
0.0
 11
108.94
 21
212.2544107485
 31
0.0
  0
LINE
  5
110
330
1F
100
AcDbEntity
  8
0
  6
Continuous
 62
     7
370
    25
100
AcDbLine
 10
84.94
 20
212.2544107485
 30
0.0
 11
66.44
 21
212.2544107485
 31
0.0
  0
LINE
  5
111
330
1F
100
AcDbEntity
  8
0
  6
Continuous
 62
     7
370
    25
100
AcDbLine
 10
66.44
 20
212.2544107485
 30
0.0
 11
65.94
 21
211.7544107485
 31
0.0
  0
LINE
  5
112
330
1F
100
AcDbEntity
  8
0
  6
Continuous
 62
     7
370
    25
100
AcDbLine
 10
65.94
 20
207.7544107485
 30
0.0
 11
66.44
 21
207.2544107485
 31
0.0
  0
LINE
  5
113
330
1F
100
AcDbEntity
  8
0
  6
Continuous
 62
     7
370
    25
100
AcDbLine
 10
213.44
 20
217.9044107485
 30
0.0
 11
213.44
 21
229.9044107485
 31
0.0
  0
LINE
  5
114
330
1F
100
AcDbEntity
  8
0
  6
Continuous
 62
     7
370
    25
100
AcDbLine
 10
213.94
 20
228.9044107485
 30
0.0
 11
213.94
 21
226.1956985959
 31
0.0
  0
LINE
  5
115
330
1F
100
AcDbEntity
  8
0
  6
Continuous
 62
     7
370
    25
100
AcDbLine
 10
213.94
 20
226.1956985959
 30
0.0
 11
213.94
 21
221.613122901
 31
0.0
  0
LINE
  5
116
330
1F
100
AcDbEntity
  8
0
  6
Continuous
 62
     7
370
    25
100
AcDbLine
 10
213.94
 20
221.613122901
 30
0.0
 11
213.94
 21
218.9044107485
 31
0.0
  0
LINE
  5
117
330
1F
100
AcDbEntity
  8
0
  6
Continuous
 62
     7
370
    25
100
AcDbLine
 10
213.94
 20
218.9044107485
 30
0.0
 11
213.94
 21
218.4044107485
 31
0.0
  0
LINE
  5
118
330
1F
100
AcDbEntity
  8
0
  6
Continuous
 62
     7
370
    25
100
AcDbLine
 10
213.94
 20
229.4044107485
 30
0.0
 11
213.94
 21
228.9044107485
 31
0.0
  0
LINE
  5
119
330
1F
100
AcDbEntity
  8
0
  6
Continuous
 62
     7
370
    25
100
AcDbLine
 10
218.44
 20
226.1956985959
 30
0.0
 11
218.44
 21
228.9044107485
 31
0.0
  0
SPLINE
  5
11A
330
1F
100
AcDbEntity
  8
0
  6
Continuous
 62
     7
370
    25
100
AcDbSpline
210
0.0
220
0.0
230
1.0
 70
    24
 71
     3
 72
     9
 73
     5
 74
     0
 42
0.000000001
 43
0.00000001
 40
0.0
 40
0.0
 40
0.0
 40
0.0
 40
0.4909990996182172
 40
1.0
 40
1.0
 40
1.0
 40
1.0
 10
218.4399999999999
 20
228.9044107484542
 30
0.0
 10
218.5784084867392
 20
228.9044107484542
 30
0.0
 10
218.8603000153526
 20
228.9044107484542
 30
0.0
 10
218.9131164083893
 20
228.9044107484542
 30
0.0
 10
218.94
 20
228.9044107484542
 30
0.0
  0
SPLINE
  5
11B
330
1F
100
AcDbEntity
  8
0
  6
Continuous
 62
     7
370
    25
100
AcDbSpline
210
0.0
220
0.0
230
1.0
 70
     8
 71
     3
 72
    10
 73
     6
 74
     0
 42
0.000000001
 43
0.00000001
 40
0.0
 40
0.0
 40
0.0
 40
0.0
 40
0.3812308165503019
 40
0.7734571841602043
 40
1.0
 40
1.0
 40
1.0
 40
1.0
 10
218.94
 20
223.9044107484542
 30
0.0
 10
218.9238495976567
 20
224.204387790181
 30
0.0
 10
218.8910829791748
 20
224.8129938837446
 30
0.0
 10
218.6829860370089
 20
225.5773128725227
 30
0.0
 10
218.505120027966
 20
226.0299718072741
 30
0.0
 10
218.4399999999999
 20
226.1956985959321
 30
0.0
  0
LINE
  5
11C
330
1F
100
AcDbEntity
  8
0
  6
Continuous
 62
     7
370
    25
100
AcDbLine
 10
218.94
 20
228.9044107485
 30
0.0
 11
218.94
 21
223.9044107485
 31
0.0
  0
LINE
  5
11D
330
1F
100
AcDbEntity
  8
0
  6
Continuous
 62
     7
370
    25
100
AcDbLine
 10
213.94
 20
226.1956985959
 30
0.0
 11
218.44
 21
226.1956985959
 31
0.0
  0
SPLINE
  5
11E
330
1F
100
AcDbEntity
  8
0
  6
Continuous
 62
     7
370
    25
100
AcDbSpline
210
0.0
220
0.0
230
1.0
 70
     8
 71
     3
 72
     9
 73
     5
 74
     0
 42
0.000000001
 43
0.00000001
 40
0.0
 40
0.0
 40
0.0
 40
0.0
 40
0.4909990996182198
 40
1.0
 40
1.0
 40
1.0
 40
1.0
 10
218.4399999999999
 20
221.6131229009762
 30
0.0
 10
218.5784084867391
 20
221.9756771595412
 30
0.0
 10
218.8603000153526
 20
222.7140782255451
 30
0.0
 10
218.9131164083893
 20
223.5028998376514
 30
0.0
 10
218.94
 20
223.9044107484542
 30
0.0
  0
LINE
  5
11F
330
1F
100
AcDbEntity
  8
0
  6
Continuous
 62
     7
370
    25
100
AcDbLine
 10
213.94
 20
221.613122901
 30
0.0
 11
218.44
 21
221.613122901
 31
0.0
  0
LINE
  5
120
330
1F
100
AcDbEntity
  8
0
  6
Continuous
 62
     7
370
    25
100
AcDbLine
 10
218.44
 20
218.9044107485
 30
0.0
 11
218.44
 21
221.613122901
 31
0.0
  0
SPLINE
  5
121
330
1F
100
AcDbEntity
  8
0
  6
Continuous
 62
     7
370
    25
100
AcDbSpline
210
0.0
220
0.0
230
1.0
 70
    24
 71
     3
 72
    10
 73
     6
 74
     0
 42
0.000000001
 43
0.00000001
 40
0.0
 40
0.0
 40
0.0
 40
0.0
 40
0.3812308165503022
 40
0.7734571841602046
 40
1.0
 40
1.0
 40
1.0
 40
1.0
 10
218.94
 20
218.9044107484542
 30
0.0
 10
218.9238495976567
 20
218.9044107484542
 30
0.0
 10
218.8910829791748
 20
218.9044107484542
 30
0.0
 10
218.6829860370089
 20
218.9044107484542
 30
0.0
 10
218.505120027966
 20
218.9044107484542
 30
0.0
 10
218.4399999999999
 20
218.9044107484542
 30
0.0
  0
LINE
  5
122
330
1F
100
AcDbEntity
  8
0
  6
Continuous
 62
     7
370
    25
100
AcDbLine
 10
218.94
 20
223.9044107485
 30
0.0
 11
218.94
 21
218.9044107485
 31
0.0
  0
LINE
  5
123
330
1F
100
AcDbEntity
  8
0
  6
Continuous
 62
     7
370
    25
100
AcDbLine
 10
213.94
 20
228.9044107485
 30
0.0
 11
218.44
 21
228.9044107485
 31
0.0
  0
LINE
  5
124
330
1F
100
AcDbEntity
  8
0
  6
Continuous
 62
     7
370
    25
100
AcDbLine
 10
213.94
 20
218.9044107485
 30
0.0
 11
218.44
 21
218.9044107485
 31
0.0
  0
LINE
  5
125
330
1F
100
AcDbEntity
  8
0
  6
Continuous
 62
     7
370
    25
100
AcDbLine
 10
210.44
 20
213.7544107485
 30
0.0
 11
210.44
 21
234.0544107485
 31
0.0
  0
LINE
  5
126
330
1F
100
AcDbEntity
  8
0
  6
Continuous
 62
     7
370
    25
100
AcDbLine
 10
210.94
 20
234.0544107485
 30
0.0
 11
210.94
 21
213.7544107485
 31
0.0
  0
SPLINE
  5
127
330
1F
100
AcDbEntity
  8
0
  6
Continuous
 62
     7
370
    25
100
AcDbSpline
210
0.0
220
0.0
230
1.0
 70
     8
 71
     3
 72
     9
 73
     5
 74
     0
 42
0.000000001
 43
0.00000001
 40
0.0
 40
0.0
 40
0.0
 40
0.0
 40
0.5039921636435323
 40
1.0
 40
1.0
 40
1.0
 40
1.0
 10
203.94
 20
209.7544107484541
 30
0.0
 10
203.975785524619
 20
210.1608270609523
 30
0.0
 10
204.046789653652
 20
210.967221171448
 30
0.0
 10
204.3891494785252
 20
211.7006328223377
 30
0.0
 10
204.5589626345159
 20
212.0644107484542
 30
0.0
  0
LINE
  5
128
330
1F
100
AcDbEntity
  8
0
  6
Continuous
 62
     7
370
    25
100
AcDbLine
 10
204.5589626345
 20
212.0644107485
 30
0.0
 11
209.3210373655
 21
212.0644107485
 31
0.0
  0
SPLINE
  5
129
330
1F
100
AcDbEntity
  8
0
  6
Continuous
 62
     7
370
    25
100
AcDbSpline
210
0.0
220
0.0
230
1.0
 70
     8
 71
     3
 72
    10
 73
     6
 74
     0
 42
0.000000001
 43
0.00000001
 40
0.0
 40
0.0
 40
0.0
 40
0.0
 40
0.4323803487736311
 40
0.8795438931321288
 40
1.0
 40
1.0
 40
1.0
 40
1.0
 10
209.3210373654841
 20
212.0644107484542
 30
0.0
 10
209.4656198610234
 20
211.7481257880253
 30
0.0
 10
209.7597281648953
 20
211.1047420028376
 30
0.0
 10
209.9272517235731
 20
210.3070725395665
 30
0.0
 10
209.9377682577397
 20
209.8511609783364
 30
0.0
 10
209.94
 20
209.7544107484541
 30
0.0
  0
SPLINE
  5
12A
330
1F
100
AcDbEntity
  8
0
  6
Continuous
 62
     7
370
    25
100
AcDbSpline
210
0.0
220
0.0
230
1.0
 70
     8
 71
     3
 72
     9
 73
     5
 74
     0
 42
0.000000001
 43
0.00000001
 40
0.0
 40
0.0
 40
0.0
 40
0.0
 40
0.5039921636435295
 40
1.0
 40
1.0
 40
1.0
 40
1.0
 10
209.94
 20
209.7544107484541
 30
0.0
 10
209.904214475381
 20
209.347994435956
 30
0.0
 10
209.833210346348
 20
208.5416003254603
 30
0.0
 10
209.4908505214748
 20
207.8081886745706
 30
0.0
 10
209.3210373654841
 20
207.4444107484541
 30
0.0
  0
LINE
  5
12B
330
1F
100
AcDbEntity
  8
0
  6
Continuous
 62
     7
370
    25
100
AcDbLine
 10
204.5589626345
 20
207.4444107485
 30
0.0
 11
209.3210373655
 21
207.4444107485
 31
0.0
  0
SPLINE
  5
12C
330
1F
100
AcDbEntity
  8
0
  6
Continuous
 62
     7
370
    25
100
AcDbSpline
210
0.0
220
0.0
230
1.0
 70
     8
 71
     3
 72
    10
 73
     6
 74
     0
 42
0.000000001
 43
0.00000001
 40
0.0
 40
0.0
 40
0.0
 40
0.0
 40
0.4323803487736304
 40
0.8795438931321297
 40
1.0
 40
1.0
 40
1.0
 40
1.0
 10
204.5589626345159
 20
207.4444107484541
 30
0.0
 10
204.4143801389766
 20
207.760695708883
 30
0.0
 10
204.1202718351047
 20
208.4040794940707
 30
0.0
 10
203.9527482764269
 20
209.2017489573418
 30
0.0
 10
203.9422317422604
 20
209.6576605185719
 30
0.0
 10
203.94
 20
209.7544107484541
 30
0.0
  0
LINE
  5
12D
330
1F
100
AcDbEntity
  8
0
  6
Continuous
 62
     7
370
    25
100
AcDbLine
 10
211.94
 20
211.6044107485
 30
0.0
 11
211.94
 21
206.0544107485
 31
0.0
  0
LINE
  5
12E
330
1F
100
AcDbEntity
  8
0
  6
Continuous
 62
     7
370
    25
100
AcDbLine
 10
211.94
 20
213.4544107485
 30
0.0
 11
211.94
 21
211.6044107485
 31
0.0
  0
SPLINE
  5
12F
330
1F
100
AcDbEntity
  8
0
  6
Continuous
 62
     7
370
    25
100
AcDbSpline
210
0.0
220
0.0
230
1.0
 70
     8
 71
     3
 72
    11
 73
     7
 74
     0
 42
0.000000001
 43
0.00000001
 40
0.0
 40
0.0
 40
0.0
 40
0.0
 40
0.0206375028781771
 40
0.3834764963731769
 40
0.760659062968799
 40
1.0
 40
1.0
 40
1.0
 40
1.0
 10
203.94
 20
206.2894107484541
 30
0.0
 10
203.9400662597862
 20
206.297702905844
 30
0.0
 10
203.9412974683685
 20
206.4517839243678
 30
0.0
 10
204.0194538834274
 20
206.7575039653571
 30
0.0
 10
204.263529322474
 20
207.1337261974101
 30
0.0
 10
204.4763452451546
 20
207.3575283777941
 30
0.0
 10
204.5589626345159
 20
207.4444107484541
 30
0.0
  0
SPLINE
  5
130
330
1F
100
AcDbEntity
  8
0
  6
Continuous
 62
     7
370
    25
100
AcDbSpline
210
0.0
220
0.0
230
1.0
 70
     8
 71
     3
 72
     9
 73
     5
 74
     0
 42
0.000000001
 43
0.00000001
 40
0.0
 40
0.0
 40
0.0
 40
0.0
 40
0.5039921636435313
 40
1.0
 40
1.0
 40
1.0
 40
1.0
 10
209.94
 20
213.2194107484541
 30
0.0
 10
209.904214475381
 20
213.0162025922051
 30
0.0
 10
209.833210346348
 20
212.6130055369572
 30
0.0
 10
209.4908505214749
 20
212.2462997115123
 30
0.0
 10
209.3210373654841
 20
212.0644107484542
 30
0.0
  0
LINE
  5
131
330
1F
100
AcDbEntity
  8
0
  6
Continuous
 62
     7
370
    25
100
AcDbLine
 10
209.94
 20
209.7544107485
 30
0.0
 11
209.94
 21
213.2194107485
 31
0.0
  0
SPLINE
  5
132
330
1F
100
AcDbEntity
  8
0
  6
Continuous
 62
     7
370
    25
100
AcDbSpline
210
0.0
220
0.0
230
1.0
 70
     8
 71
     3
 72
    10
 73
     6
 74
     0
 42
0.000000001
 43
0.00000001
 40
0.0
 40
0.0
 40
0.0
 40
0.0
 40
0.4323803487736304
 40
0.8795438931321289
 40
1.0
 40
1.0
 40
1.0
 40
1.0
 10
204.5589626345159
 20
212.0644107484542
 30
0.0
 10
204.4143801389766
 20
212.2225532286686
 30
0.0
 10
204.1202718351047
 20
212.5442451212624
 30
0.0
 10
203.9527482764269
 20
212.943079852898
 30
0.0
 10
203.9422317422604
 20
213.171035633513
 30
0.0
 10
203.94
 20
213.2194107484541
 30
0.0
  0
SPLINE
  5
133
330
1F
100
AcDbEntity
  8
0
  6
Continuous
 62
     7
370
    25
100
AcDbSpline
210
0.0
220
0.0
230
1.0
 70
     8
 71
     3
 72
    10
 73
     6
 74
     0
 42
0.000000001
 43
0.00000001
 40
0.0
 40
0.0
 40
0.0
 40
0.0
 40
0.2841146268164553
 40
0.6363184863281501
 40
1.0
 40
1.0
 40
1.0
 40
1.0
 10
209.3210373654841
 20
207.4444107484541
 30
0.0
 10
209.4179397768216
 20
207.3410839127436
 30
0.0
 10
209.6349676588237
 20
207.1096675424107
 30
0.0
 10
209.8827090670408
 20
206.7236707808835
 30
0.0
 10
209.9206999886048
 20
206.4357030697953
 30
0.0
 10
209.94
 20
206.2894107484541
 30
0.0
  0
LINE
  5
134
330
1F
100
AcDbEntity
  8
0
  6
Continuous
 62
     7
370
    25
100
AcDbLine
 10
209.94
 20
209.7544107485
 30
0.0
 11
209.94
 21
206.2894107485
 31
0.0
  0
SPLINE
  5
135
330
1F
100
AcDbEntity
  8
0
  6
Continuous
 62
     7
370
    25
100
AcDbSpline
210
0.0
220
0.0
230
1.0
 70
     8
 71
     3
 72
     9
 73
     5
 74
     0
 42
0.000000001
 43
0.00000001
 40
0.0
 40
0.0
 40
0.0
 40
0.0
 40
0.5039921636435297
 40
1.0
 40
1.0
 40
1.0
 40
1.0
 10
203.94
 20
213.2194107484541
 30
0.0
 10
203.975785524619
 20
213.4226189047032
 30
0.0
 10
204.046789653652
 20
213.825815959951
 30
0.0
 10
204.3891494785252
 20
214.1925217853959
 30
0.0
 10
204.5589626345159
 20
214.3744107484542
 30
0.0
  0
LINE
  5
136
330
1F
100
AcDbEntity
  8
0
  6
Continuous
 62
     7
370
    25
100
AcDbLine
 10
204.5589626345
 20
214.3744107485
 30
0.0
 11
209.3210373655
 21
214.3744107485
 31
0.0
  0
SPLINE
  5
137
330
1F
100
AcDbEntity
  8
0
  6
Continuous
 62
     7
370
    25
100
AcDbSpline
210
0.0
220
0.0
230
1.0
 70
     8
 71
     3
 72
    10
 73
     6
 74
     0
 42
0.000000001
 43
0.00000001
 40
0.0
 40
0.0
 40
0.0
 40
0.0
 40
0.4323803487736323
 40
0.8795438931321302
 40
1.0
 40
1.0
 40
1.0
 40
1.0
 10
209.3210373654841
 20
214.3744107484542
 30
0.0
 10
209.4656198610234
 20
214.2162682682397
 30
0.0
 10
209.7597281648953
 20
213.8945763756458
 30
0.0
 10
209.927251723573
 20
213.4957416440103
 30
0.0
 10
209.9377682577396
 20
213.2677858633953
 30
0.0
 10
209.94
 20
213.2194107484541
 30
0.0
  0
SPLINE
  5
138
330
1F
100
AcDbEntity
  8
0
  6
Continuous
 62
     7
370
    25
100
AcDbSpline
210
0.0
220
0.0
230
1.0
 70
     8
 71
     3
 72
    11
 73
     7
 74
     0
 42
0.000000001
 43
0.00000001
 40
0.0
 40
0.0
 40
0.0
 40
0.0
 40
0.0206375028781759
 40
0.3834764963731759
 40
0.7606590629687978
 40
1.0
 40
1.0
 40
1.0
 40
1.0
 10
209.94
 20
206.2894107484541
 30
0.0
 10
209.9399337402138
 20
206.2811185910642
 30
0.0
 10
209.9387025316317
 20
206.1270375725404
 30
0.0
 10
209.8605461165725
 20
205.8213175315511
 30
0.0
 10
209.6164706775261
 20
205.4450952994982
 30
0.0
 10
209.4036547548454
 20
205.2212931191142
 30
0.0
 10
209.3210373654841
 20
205.1344107484541
 30
0.0
  0
LINE
  5
139
330
1F
100
AcDbEntity
  8
0
  6
Continuous
 62
     7
370
    25
100
AcDbLine
 10
204.5589626345
 20
205.1344107485
 30
0.0
 11
209.3210373655
 21
205.1344107485
 31
0.0
  0
SPLINE
  5
13A
330
1F
100
AcDbEntity
  8
0
  6
Continuous
 62
     7
370
    25
100
AcDbSpline
210
0.0
220
0.0
230
1.0
 70
     8
 71
     3
 72
    10
 73
     6
 74
     0
 42
0.000000001
 43
0.00000001
 40
0.0
 40
0.0
 40
0.0
 40
0.0
 40
0.2841146268164538
 40
0.6363184863281495
 40
0.9999999999999999
 40
0.9999999999999999
 40
0.9999999999999999
 40
0.9999999999999999
 10
204.5589626345159
 20
205.1344107484541
 30
0.0
 10
204.4620602231784
 20
205.2377375841646
 30
0.0
 10
204.2450323411763
 20
205.4691539544976
 30
0.0
 10
203.9972909329591
 20
205.8551507160247
 30
0.0
 10
203.9593000113953
 20
206.143118427113
 30
0.0
 10
203.94
 20
206.2894107484541
 30
0.0
  0
LINE
  5
13B
330
1F
100
AcDbEntity
  8
0
  6
Continuous
 62
     7
370
    25
100
AcDbLine
 10
209.94
 20
213.2194107485
 30
0.0
 11
209.94
 21
213.7554481139
 31
0.0
  0
LINE
  5
13C
330
1F
100
AcDbEntity
  8
0
  6
Continuous
 62
     7
370
    25
100
AcDbLine
 10
209.94
 20
205.753373383
 30
0.0
 11
209.94
 21
206.2894107485
 31
0.0
  0
SPLINE
  5
13D
330
1F
100
AcDbEntity
  8
0
  6
Continuous
 62
     7
370
    25
100
AcDbSpline
210
0.0
220
0.0
230
1.0
 70
     8
 71
     3
 72
     9
 73
     5
 74
     0
 42
0.000000001
 43
0.00000001
 40
0.0
 40
0.0
 40
0.0
 40
0.0
 40
0.5039921636435287
 40
1.0
 40
1.0
 40
1.0
 40
1.0
 10
203.94
 20
238.0544107484542
 30
0.0
 10
203.975785524619
 20
238.4608270609523
 30
0.0
 10
204.046789653652
 20
239.267221171448
 30
0.0
 10
204.3891494785252
 20
240.0006328223377
 30
0.0
 10
204.5589626345159
 20
240.3644107484542
 30
0.0
  0
LINE
  5
13E
330
1F
100
AcDbEntity
  8
0
  6
Continuous
 62
     7
370
    25
100
AcDbLine
 10
204.5589626345
 20
240.3644107485
 30
0.0
 11
209.3210373655
 21
240.3644107485
 31
0.0
  0
SPLINE
  5
13F
330
1F
100
AcDbEntity
  8
0
  6
Continuous
 62
     7
370
    25
100
AcDbSpline
210
0.0
220
0.0
230
1.0
 70
     8
 71
     3
 72
    10
 73
     6
 74
     0
 42
0.000000001
 43
0.00000001
 40
0.0
 40
0.0
 40
0.0
 40
0.0
 40
0.4323803487736332
 40
0.8795438931321299
 40
1.0
 40
1.0
 40
1.0
 40
1.0
 10
209.3210373654841
 20
240.3644107484542
 30
0.0
 10
209.4656198610234
 20
240.0481257880253
 30
0.0
 10
209.7597281648954
 20
239.4047420028376
 30
0.0
 10
209.927251723573
 20
238.6070725395665
 30
0.0
 10
209.9377682577396
 20
238.1511609783364
 30
0.0
 10
209.94
 20
238.0544107484542
 30
0.0
  0
SPLINE
  5
140
330
1F
100
AcDbEntity
  8
0
  6
Continuous
 62
     7
370
    25
100
AcDbSpline
210
0.0
220
0.0
230
1.0
 70
     8
 71
     3
 72
     9
 73
     5
 74
     0
 42
0.000000001
 43
0.00000001
 40
0.0
 40
0.0
 40
0.0
 40
0.0
 40
0.5039921636435326
 40
1.0
 40
1.0
 40
1.0
 40
1.0
 10
209.94
 20
238.0544107484542
 30
0.0
 10
209.9042144753811
 20
237.647994435956
 30
0.0
 10
209.833210346348
 20
236.8416003254604
 30
0.0
 10
209.4908505214748
 20
236.1081886745706
 30
0.0
 10
209.3210373654841
 20
235.7444107484542
 30
0.0
  0
LINE
  5
141
330
1F
100
AcDbEntity
  8
0
  6
Continuous
 62
     7
370
    25
100
AcDbLine
 10
204.5589626345
 20
235.7444107485
 30
0.0
 11
209.3210373655
 21
235.7444107485
 31
0.0
  0
SPLINE
  5
142
330
1F
100
AcDbEntity
  8
0
  6
Continuous
 62
     7
370
    25
100
AcDbSpline
210
0.0
220
0.0
230
1.0
 70
     8
 71
     3
 72
    10
 73
     6
 74
     0
 42
0.000000001
 43
0.00000001
 40
0.0
 40
0.0
 40
0.0
 40
0.0
 40
0.43238034877363
 40
0.8795438931321281
 40
1.0
 40
1.0
 40
1.0
 40
1.0
 10
204.5589626345159
 20
235.7444107484542
 30
0.0
 10
204.4143801389767
 20
236.0606957088831
 30
0.0
 10
204.1202718351047
 20
236.7040794940707
 30
0.0
 10
203.952748276427
 20
237.5017489573418
 30
0.0
 10
203.9422317422604
 20
237.9576605185719
 30
0.0
 10
203.94
 20
238.0544107484542
 30
0.0
  0
LINE
  5
143
330
1F
100
AcDbEntity
  8
0
  6
Continuous
 62
     7
370
    25
100
AcDbLine
 10
211.94
 20
241.7544107485
 30
0.0
 11
211.94
 21
234.3544107485
 31
0.0
  0
SPLINE
  5
144
330
1F
100
AcDbEntity
  8
0
  6
Continuous
 62
     7
370
    25
100
AcDbSpline
210
0.0
220
0.0
230
1.0
 70
     8
 71
     3
 72
    11
 73
     7
 74
     0
 42
0.000000001
 43
0.00000001
 40
0.0
 40
0.0
 40
0.0
 40
0.0
 40
0.0206375028781752
 40
0.3834764963731767
 40
0.7606590629687981
 40
0.9999999999999999
 40
0.9999999999999999
 40
0.9999999999999999
 40
0.9999999999999999
 10
209.94
 20
241.5194107484542
 30
0.0
 10
209.9399337402138
 20
241.5111185910643
 30
0.0
 10
209.9387025316316
 20
241.3570375725405
 30
0.0
 10
209.8605461165725
 20
241.0513175315512
 30
0.0
 10
209.6164706775261
 20
240.6750952994982
 30
0.0
 10
209.4036547548454
 20
240.4512931191142
 30
0.0
 10
209.3210373654841
 20
240.3644107484542
 30
0.0
  0
LINE
  5
145
330
1F
100
AcDbEntity
  8
0
  6
Continuous
 62
     7
370
    25
100
AcDbLine
 10
209.94
 20
238.0544107485
 30
0.0
 11
209.94
 21
241.5194107485
 31
0.0
  0
SPLINE
  5
146
330
1F
100
AcDbEntity
  8
0
  6
Continuous
 62
     7
370
    25
100
AcDbSpline
210
0.0
220
0.0
230
1.0
 70
     8
 71
     3
 72
    10
 73
     6
 74
     0
 42
0.000000001
 43
0.00000001
 40
0.0
 40
0.0
 40
0.0
 40
0.0
 40
0.4323803487736307
 40
0.879543893132128
 40
1.0
 40
1.0
 40
1.0
 40
1.0
 10
209.3210373654841
 20
235.7444107484542
 30
0.0
 10
209.4656198610234
 20
235.5862682682398
 30
0.0
 10
209.7597281648953
 20
235.2645763756459
 30
0.0
 10
209.9272517235731
 20
234.8657416440104
 30
0.0
 10
209.9377682577397
 20
234.6377858633953
 30
0.0
 10
209.94
 20
234.5894107484542
 30
0.0
  0
LINE
  5
147
330
1F
100
AcDbEntity
  8
0
  6
Continuous
 62
     7
370
    25
100
AcDbLine
 10
209.94
 20
234.5894107485
 30
0.0
 11
209.94
 21
238.0544107485
 31
0.0
  0
SPLINE
  5
148
330
1F
100
AcDbEntity
  8
0
  6
Continuous
 62
     7
370
    25
100
AcDbSpline
210
0.0
220
0.0
230
1.0
 70
     8
 71
     3
 72
     9
 73
     5
 74
     0
 42
0.000000001
 43
0.00000001
 40
0.0
 40
0.0
 40
0.0
 40
0.0
 40
0.5039921636435287
 40
1.0
 40
1.0
 40
1.0
 40
1.0
 10
203.94
 20
234.5894107484542
 30
0.0
 10
203.975785524619
 20
234.7926189047032
 30
0.0
 10
204.046789653652
 20
235.1958159599511
 30
0.0
 10
204.3891494785252
 20
235.562521785396
 30
0.0
 10
204.5589626345159
 20
235.7444107484542
 30
0.0
  0
SPLINE
  5
149
330
1F
100
AcDbEntity
  8
0
  6
Continuous
 62
     7
370
    25
100
AcDbSpline
210
0.0
220
0.0
230
1.0
 70
     8
 71
     3
 72
    10
 73
     6
 74
     0
 42
0.000000001
 43
0.00000001
 40
0.0
 40
0.0
 40
0.0
 40
0.0
 40
0.2841146268164538
 40
0.6363184863281508
 40
1.0
 40
1.0
 40
1.0
 40
1.0
 10
204.5589626345159
 20
240.3644107484542
 30
0.0
 10
204.4620602231784
 20
240.4677375841647
 30
0.0
 10
204.2450323411763
 20
240.6991539544977
 30
0.0
 10
203.9972909329591
 20
241.0851507160248
 30
0.0
 10
203.9593000113952
 20
241.373118427113
 30
0.0
 10
203.94
 20
241.5194107484542
 30
0.0
  0
SPLINE
  5
14A
330
1F
100
AcDbEntity
  8
0
  6
Continuous
 62
     7
370
    25
100
AcDbSpline
210
0.0
220
0.0
230
1.0
 70
     8
 71
     3
 72
     9
 73
     5
 74
     0
 42
0.000000001
 43
0.00000001
 40
0.0
 40
0.0
 40
0.0
 40
0.0
 40
0.5039921636435291
 40
1.0
 40
1.0
 40
1.0
 40
1.0
 10
209.94
 20
234.5894107484542
 30
0.0
 10
209.904214475381
 20
234.3862025922051
 30
0.0
 10
209.833210346348
 20
233.9830055369573
 30
0.0
 10
209.4908505214748
 20
233.6162997115124
 30
0.0
 10
209.3210373654841
 20
233.4344107484542
 30
0.0
  0
LINE
  5
14B
330
1F
100
AcDbEntity
  8
0
  6
Continuous
 62
     7
370
    25
100
AcDbLine
 10
204.5589626345
 20
233.4344107485
 30
0.0
 11
209.3210373655
 21
233.4344107485
 31
0.0
  0
SPLINE
  5
14C
330
1F
100
AcDbEntity
  8
0
  6
Continuous
 62
     7
370
    25
100
AcDbSpline
210
0.0
220
0.0
230
1.0
 70
     8
 71
     3
 72
    10
 73
     6
 74
     0
 42
0.000000001
 43
0.00000001
 40
0.0
 40
0.0
 40
0.0
 40
0.0
 40
0.4323803487736304
 40
0.8795438931321289
 40
1.0
 40
1.0
 40
1.0
 40
1.0
 10
204.5589626345159
 20
233.4344107484542
 30
0.0
 10
204.4143801389766
 20
233.5925532286686
 30
0.0
 10
204.1202718351047
 20
233.9142451212625
 30
0.0
 10
203.9527482764269
 20
234.313079852898
 30
0.0
 10
203.9422317422604
 20
234.541035633513
 30
0.0
 10
203.94
 20
234.5894107484542
 30
0.0
  0
SPLINE
  5
14D
330
1F
100
AcDbEntity
  8
0
  6
Continuous
 62
     7
370
    25
100
AcDbSpline
210
0.0
220
0.0
230
1.0
 70
     8
 71
     3
 72
    11
 73
     7
 74
     0
 42
0.000000001
 43
0.00000001
 40
0.0
 40
0.0
 40
0.0
 40
0.0
 40
0.0206375028781783
 40
0.3834764963731777
 40
0.7606590629687994
 40
1.0
 40
1.0
 40
1.0
 40
1.0
 10
203.94
 20
241.5194107484542
 30
0.0
 10
203.9400662597862
 20
241.5277029058441
 30
0.0
 10
203.9412974683685
 20
241.6817839243678
 30
0.0
 10
204.0194538834274
 20
241.9875039653572
 30
0.0
 10
204.2635293224741
 20
242.3637261974102
 30
0.0
 10
204.4763452451546
 20
242.5875283777941
 30
0.0
 10
204.5589626345159
 20
242.6744107484542
 30
0.0
  0
LINE
  5
14E
330
1F
100
AcDbEntity
  8
0
  6
Continuous
 62
     7
370
    25
100
AcDbLine
 10
204.5589626345
 20
242.6744107485
 30
0.0
 11
209.3210373655
 21
242.6744107485
 31
0.0
  0
SPLINE
  5
14F
330
1F
100
AcDbEntity
  8
0
  6
Continuous
 62
     7
370
    25
100
AcDbSpline
210
0.0
220
0.0
230
1.0
 70
     8
 71
     3
 72
    10
 73
     6
 74
     0
 42
0.000000001
 43
0.00000001
 40
0.0
 40
0.0
 40
0.0
 40
0.0
 40
0.2841146268164553
 40
0.6363184863281494
 40
1.0
 40
1.0
 40
1.0
 40
1.0
 10
209.3210373654841
 20
242.6744107484542
 30
0.0
 10
209.4179397768216
 20
242.5710839127437
 30
0.0
 10
209.6349676588237
 20
242.3396675424107
 30
0.0
 10
209.8827090670408
 20
241.9536707808836
 30
0.0
 10
209.9206999886048
 20
241.6657030697953
 30
0.0
 10
209.94
 20
241.5194107484542
 30
0.0
  0
LINE
  5
150
330
1F
100
AcDbEntity
  8
0
  6
Continuous
 62
     7
370
    25
100
AcDbLine
 10
209.94
 20
234.053373383
 30
0.0
 11
209.94
 21
234.5894107485
 31
0.0
  0
LINE
  5
151
330
1F
100
AcDbEntity
  8
0
  6
Continuous
 62
     7
370
    25
100
AcDbLine
 10
209.94
 20
242.0554481139
 30
0.0
 11
209.94
 21
241.5194107485
 31
0.0
  0
LINE
  5
152
330
1F
100
AcDbEntity
  8
0
  6
Continuous
 62
     7
370
    25
100
AcDbLine
 10
66.44
 20
240.5544107485
 30
0.0
 11
66.44
 21
235.5544107485
 31
0.0
  0
LINE
  5
153
330
1F
100
AcDbEntity
  8
0
  6
Continuous
 62
     7
370
    25
100
AcDbLine
 10
65.94
 20
236.0544107485
 30
0.0
 11
65.94
 21
240.0544107485
 31
0.0
  0
LINE
  5
154
330
1F
100
AcDbEntity
  8
0
  6
Continuous
 62
     7
370
    25
100
AcDbLine
 10
66.44
 20
212.2544107485
 30
0.0
 11
66.44
 21
207.2544107485
 31
0.0
  0
LINE
  5
155
330
1F
100
AcDbEntity
  8
0
  6
Continuous
 62
     7
370
    25
100
AcDbLine
 10
65.94
 20
207.7544107485
 30
0.0
 11
65.94
 21
211.7544107485
 31
0.0
  0
SPLINE
  5
156
330
1F
100
AcDbEntity
  8
0
  6
Continuous
 62
     7
370
    25
100
AcDbSpline
210
0.0
220
0.0
230
1.0
 70
     8
 71
     3
 72
    23
 73
    19
 74
     0
 42
0.000000001
 43
0.00000001
 40
0.0
 40
0.0
 40
0.0
 40
0.0
 40
0.0662661988515363
 40
0.1290617423589508
 40
0.1874385509259947
 40
0.2425684890684792
 40
0.2947445471778636
 40
0.3452673825337203
 40
0.3944888823328484
 40
0.4434743630314708
 40
0.4941803771812256
 40
0.5489940798001303
 40
0.609496144734738
 40
0.6743257828968671
 40
0.7456865948809663
 40
0.8239599365103282
 40
0.908624097461616
 40
1.0
 40
1.0
 40
1.0
 40
1.0
 10
177.2127272727273
 20
207.8056891575451
 30
0.0
 10
177.2131373188374
 20
207.7850790498964
 30
0.0
 10
177.2139359351203
 20
207.744938277535
 30
0.0
 10
177.2200568679972
 20
207.6868645459594
 30
0.0
 10
177.2314962679682
 20
207.6331363972234
 30
0.0
 10
177.2472501856481
 20
207.5840064406566
 30
0.0
 10
177.2662001742986
 20
207.5386402675704
 30
0.0
 10
177.2902641527353
 20
207.4977155310718
 30
0.0
 10
177.3201705007453
 20
207.4622751669225
 30
0.0
 10
177.3529136389921
 20
207.4293894950282
 30
0.0
 10
177.3921303638839
 20
207.4011724128371
 30
0.0
 10
177.4384729081965
 20
207.3781269998932
 30
0.0
 10
177.4906523480021
 20
207.3575197868228
 30
0.0
 10
177.5497598787205
 20
207.3413594554198
 30
0.0
 10
177.6153011853585
 20
207.328776835712
 30
0.0
 10
177.6876391434515
 20
207.3195364408816
 30
0.0
 10
177.7666477311719
 20
207.315021824503
 30
0.0
 10
177.8213876591828
 20
207.3140210978383
 30
0.0
 10
177.8498011363637
 20
207.3135016575451
 30
0.0
  0
SPLINE
  5
157
330
1F
100
AcDbEntity
  8
0
  6
Continuous
 62
     7
370
    25
100
AcDbSpline
210
0.0
220
0.0
230
1.0
 70
     8
 71
     3
 72
    19
 73
    15
 74
     0
 42
0.000000001
 43
0.00000001
 40
0.0
 40
0.0
 40
0.0
 40
0.0
 40
0.0844041230911669
 40
0.1647797158497365
 40
0.243556897401492
 40
0.319988081585217
 40
0.3960935911781411
 40
0.4739401568396899
 40
0.5550728787110201
 40
0.6418716713576381
 40
0.7308444968531829
 40
0.8189541465401567
 40
0.9082362838842443
 40
1.0
 40
1.0
 40
1.0
 40
1.0
 10
177.7801988636364
 20
208.4768539302724
 30
0.0
 10
177.7537716156355
 20
208.4709932462166
 30
0.0
 10
177.7021784676139
 20
208.4595516031067
 30
0.0
 10
177.6284353317807
 20
208.4336597446753
 30
0.0
 10
177.5586085527822
 20
208.4047270299202
 30
0.0
 10
177.4940666794563
 20
208.3679382403903
 30
0.0
 10
177.4340657694667
 20
208.324573495226
 30
0.0
 10
177.3804600203424
 20
208.2712235969509
 30
0.0
 10
177.3325544373105
 20
208.2084748685152
 30
0.0
 10
177.2905255167246
 20
208.1374901886169
 30
0.0
 10
177.2559221513861
 20
208.0601106315461
 30
0.0
 10
177.2308999279632
 20
207.9783251399866
 30
0.0
 10
177.2154777890233
 20
207.8931564659491
 30
0.0
 10
177.2136524514039
 20
207.8351101388922
 30
0.0
 10
177.2127272727273
 20
207.8056891575451
 30
0.0
  0
SPLINE
  5
158
330
1F
100
AcDbEntity
  8
0
  6
Continuous
 62
     7
370
    25
100
AcDbSpline
210
0.0
220
0.0
230
1.0
 70
     8
 71
     3
 72
    15
 73
    11
 74
     0
 42
0.000000001
 43
0.00000001
 40
0.0
 40
0.0
 40
0.0
 40
0.0
 40
0.1797515631756798
 40
0.3437483816151859
 40
0.4919479394321441
 40
0.6243514477431378
 40
0.7411611991481557
 40
0.8423840685814747
 40
0.929856274786423
 40
1.0
 40
1.0
 40
1.0
 40
1.0
 10
178.1388636363637
 20
208.4953198393633
 30
0.0
 10
178.1173185396869
 20
208.4954584611777
 30
0.0
 10
178.0761167165509
 20
208.4957235549745
 30
0.0
 10
178.0171757514573
 20
208.4939263949412
 30
0.0
 10
177.9639129442385
 20
208.4924606426659
 30
0.0
 10
177.9162851398447
 20
208.4915077209257
 30
0.0
 10
177.874364491822
 20
208.4886156896762
 30
0.0
 10
177.8379577783086
 20
208.4847788620722
 30
0.0
 10
177.8070535442907
 20
208.4818153747352
 30
0.0
 10
177.7884693684675
 20
208.4783819190401
 30
0.0
 10
177.7801988636364
 20
208.4768539302724
 30
0.0
  0
LINE
  5
159
330
1F
100
AcDbEntity
  8
0
  6
Continuous
 62
     7
370
    25
100
AcDbLine
 10
178.8206818182
 20
208.4953198394
 30
0.0
 11
178.1388636364
 21
208.4953198394
 31
0.0
  0
LINE
  5
15A
330
1F
100
AcDbEntity
  8
0
  6
Continuous
 62
     7
370
    25
100
AcDbLine
 10
177.8498011364
 20
207.3135016575
 30
0.0
 11
178.6211079545
 21
207.3135016575
 31
0.0
  0
LINE
  5
15B
330
1F
100
AcDbEntity
  8
0
  6
Continuous
 62
     7
370
    25
100
AcDbLine
 10
178.6211079545
 20
207.3135016575
 30
0.0
 11
178.8206818182
 21
208.4953198394
 31
0.0
  0
SPLINE
  5
15C
330
1F
100
AcDbEntity
  8
0
  6
Continuous
 62
     7
370
    25
100
AcDbSpline
210
0.0
220
0.0
230
1.0
 70
     8
 71
     3
 72
    19
 73
    15
 74
     0
 42
0.000000001
 43
0.00000001
 40
0.0
 40
0.0
 40
0.0
 40
0.0
 40
0.0873835900090944
 40
0.1690669541682996
 40
0.2457953790143972
 40
0.3204904784763588
 40
0.3910116533399702
 40
0.4569074950221925
 40
0.5202336872758183
 40
0.5819701241358372
 40
0.6534441996581792
 40
0.7470120304585223
 40
0.8620356682386928
 40
1.0
 40
1.0
 40
1.0
 40
1.0
 10
177.1672727272727
 20
206.2701777939088
 30
0.0
 10
177.1681799692649
 20
206.2452852817179
 30
0.0
 10
177.1699352718372
 20
206.197124051248
 30
0.0
 10
177.1808661722896
 20
206.1276697969704
 30
0.0
 10
177.2012568191895
 20
206.0642482724843
 30
0.0
 10
177.2283742410674
 20
206.006813944259
 30
0.0
 10
177.2629527248104
 20
205.9574008905797
 30
0.0
 10
177.3004004431139
 20
205.914206284849
 30
0.0
 10
177.3437803609142
 20
205.8809443165458
 30
0.0
 10
177.3926446288734
 20
205.8529384111328
 30
0.0
 10
177.4551365903305
 20
205.8348052290225
 30
0.0
 10
177.5339829493448
 20
205.8221608870897
 30
0.0
 10
177.6325856549153
 20
205.8149820756988
 30
0.0
 10
177.704667950173
 20
205.8140240867535
 30
0.0
 10
177.7439772727273
 20
205.8135016575451
 30
0.0
  0
SPLINE
  5
15D
330
1F
100
AcDbEntity
  8
0
  6
Continuous
 62
     7
370
    25
100
AcDbSpline
210
0.0
220
0.0
230
1.0
 70
     8
 71
     3
 72
    15
 73
    11
 74
     0
 42
0.000000001
 43
0.00000001
 40
0.0
 40
0.0
 40
0.0
 40
0.0
 40
0.1234670095574915
 40
0.2449450005387625
 40
0.3642728934610186
 40
0.4854920854918588
 40
0.6070538929442212
 40
0.7328365362852219
 40
0.8643976903441551
 40
1.0
 40
1.0
 40
1.0
 40
1.0
 10
177.3682670454546
 20
206.7595243848178
 30
0.0
 10
177.3523192171381
 20
206.7437280674201
 30
0.0
 10
177.3206804755054
 20
206.7123899068267
 30
0.0
 10
177.2792972805416
 20
206.6604790435187
 30
0.0
 10
177.2449386332546
 20
206.6042197150951
 30
0.0
 10
177.2166270204346
 20
206.544711256014
 30
0.0
 10
177.194174648061
 20
206.481450214076
 30
0.0
 10
177.1790202607785
 20
206.41419958008
 30
0.0
 10
177.1684523523738
 20
206.3434277156754
 30
0.0
 10
177.167669880901
 20
206.2948394191768
 30
0.0
 10
177.1672727272727
 20
206.2701777939088
 30
0.0
  0
SPLINE
  5
15E
330
1F
100
AcDbEntity
  8
0
  6
Continuous
 62
     7
370
    25
100
AcDbSpline
210
0.0
220
0.0
230
1.0
 70
     8
 71
     3
 72
    15
 73
    11
 74
     0
 42
0.000000001
 43
0.00000001
 40
0.0
 40
0.0
 40
0.0
 40
0.0
 40
0.1647800076632266
 40
0.3173691270641171
 40
0.4581393300075231
 40
0.5864778876096098
 40
0.7034014452776737
 40
0.8106869453324155
 40
0.9084754112504348
 40
1.0
 40
1.0
 40
1.0
 40
1.0
 10
177.9598863636364
 20
206.9044107484542
 30
0.0
 10
177.9257809065577
 20
206.9041033783128
 30
0.0
 10
177.860093210006
 20
206.9035113781373
 30
0.0
 10
177.7655032125176
 20
206.8961849876381
 30
0.0
 10
177.6789174089774
 20
206.8850941672474
 30
0.0
 10
177.6003929329266
 20
206.869945084057
 30
0.0
 10
177.5303056713752
 20
206.8492436158659
 30
0.0
 10
177.4683450492218
 20
206.8246057849546
 30
0.0
 10
177.4137611298686
 20
206.7958633411717
 30
0.0
 10
177.3830935028904
 20
206.7713671990339
 30
0.0
 10
177.3682670454546
 20
206.7595243848178
 30
0.0
  0
LINE
  5
15F
330
1F
100
AcDbEntity
  8
0
  6
Continuous
 62
     7
370
    25
100
AcDbLine
 10
177.7439772727
 20
205.8135016575
 30
0.0
 11
178.3675568182
 21
205.8135016575
 31
0.0
  0
LINE
  5
160
330
1F
100
AcDbEntity
  8
0
  6
Continuous
 62
     7
370
    25
100
AcDbLine
 10
178.3675568182
 20
205.8135016575
 30
0.0
 11
178.5515056818
 21
206.9044107485
 31
0.0
  0
LINE
  5
161
330
1F
100
AcDbEntity
  8
0
  6
Continuous
 62
     7
370
    25
100
AcDbLine
 10
178.5515056818
 20
206.9044107485
 30
0.0
 11
177.9598863636
 21
206.9044107485
 31
0.0
  0
LINE
  5
162
330
1F
100
AcDbEntity
  8
0
  6
Continuous
 62
     7
370
    25
100
AcDbLine
 10
164.5912784091
 20
208.4044107485
 30
0.0
 11
164.2191193182
 21
208.4044107485
 31
0.0
  0
LINE
  5
163
330
1F
100
AcDbEntity
  8
0
  6
Continuous
 62
     7
370
    25
100
AcDbLine
 10
164.6672727273
 20
208.9044107485
 30
0.0
 11
164.5912784091
 21
208.4044107485
 31
0.0
  0
LINE
  5
164
330
1F
100
AcDbEntity
  8
0
  6
Continuous
 62
     7
370
    25
100
AcDbLine
 10
164.3036363636
 20
208.9044107485
 30
0.0
 11
164.6672727273
 21
208.9044107485
 31
0.0
  0
LINE
  5
165
330
1F
100
AcDbEntity
  8
0
  6
Continuous
 62
     7
370
    25
100
AcDbLine
 10
164.2191193182
 20
208.4044107485
 30
0.0
 11
164.3036363636
 21
208.9044107485
 31
0.0
  0
SPLINE
  5
166
330
1F
100
AcDbEntity
  8
0
  6
Continuous
 62
     7
370
    25
100
AcDbSpline
210
0.0
220
0.0
230
1.0
 70
     8
 71
     3
 72
    23
 73
    19
 74
     0
 42
0.000000001
 43
0.00000001
 40
0.0
 40
0.0
 40
0.0
 40
0.0
 40
0.0320567278470601
 40
0.0655625139072254
 40
0.1004001713750864
 40
0.1382027864917
 40
0.1790139694266628
 40
0.2234514353430778
 40
0.2718664104837573
 40
0.3249281433599475
 40
0.3834483706024135
 40
0.448795148947584
 40
0.5209568282838368
 40
0.6014006472289694
 40
0.688814026950295
 40
0.7846110948905114
 40
0.8883046448542178
 40
1.0
 40
1.0
 40
1.0
 40
1.0
 10
162.4044886363637
 20
206.7225925666361
 30
0.0
 10
162.4197103096758
 20
206.7235067190293
 30
0.0
 10
162.4508417206227
 20
206.7253763461878
 30
0.0
 10
162.4971670990088
 20
206.7379687534496
 30
0.0
 10
162.5432706461899
 20
206.7585584964024
 30
0.0
 10
162.5896929538045
 20
206.7862066336529
 30
0.0
 10
162.6350704376778
 20
206.8232314053144
 30
0.0
 10
162.6805893856983
 20
206.8675152444988
 30
0.0
 10
162.7261739738793
 20
206.9197771073329
 30
0.0
 10
162.7717847713447
 20
206.9805636378976
 30
0.0
 10
162.8174315714444
 20
207.0512522656573
 30
0.0
 10
162.8582173742583
 20
207.1350475318751
 30
0.0
 10
162.8993094389701
 20
207.2300342267772
 30
0.0
 10
162.9370227423321
 20
207.3376566936331
 30
0.0
 10
162.9722999922107
 20
207.4577706070809
 30
0.0
 10
163.006295975598
 20
207.5896833314562
 30
0.0
 10
163.0382336536116
 20
207.7339526280745
 30
0.0
 10
163.0567949998132
 20
207.8345090138316
 30
0.0
 10
163.0664204545455
 20
207.886655066636
 30
0.0
  0
SPLINE
  5
167
330
1F
100
AcDbEntity
  8
0
  6
Continuous
 62
     7
370
    25
100
AcDbSpline
210
0.0
220
0.0
230
1.0
 70
     8
 71
     3
 72
    11
 73
     7
 74
     0
 42
0.000000001
 43
0.00000001
 40
0.0
 40
0.0
 40
0.0
 40
0.0
 40
0.2760027940161311
 40
0.5287745356601948
 40
0.7665659864569059
 40
1.0
 40
1.0
 40
1.0
 40
1.0
 10
162.22125
 20
206.803558475727
 30
0.0
 10
162.2354905233875
 20
206.7910933001701
 30
0.0
 10
162.2627729506129
 20
206.7672121382402
 30
0.0
 10
162.3093082855972
 20
206.7426171764565
 30
0.0
 10
162.3561552660484
 20
206.7252392241045
 30
0.0
 10
162.3884771400667
 20
206.7234693303705
 30
0.0
 10
162.4044886363637
 20
206.7225925666361
 30
0.0
  0
LINE
  5
168
330
1F
100
AcDbEntity
  8
0
  6
Continuous
 62
     7
370
    25
100
AcDbLine
 10
162.0763636364
 20
206.405831203
 30
0.0
 11
162.22125
 21
206.8035584757
 31
0.0
  0
SPLINE
  5
169
330
1F
100
AcDbEntity
  8
0
  6
Continuous
 62
     7
370
    25
100
AcDbSpline
210
0.0
220
0.0
230
1.0
 70
     8
 71
     3
 72
    11
 73
     7
 74
     0
 42
0.000000001
 43
0.00000001
 40
0.0
 40
0.0
 40
0.0
 40
0.0
 40
0.2007338374434091
 40
0.4314288553531213
 40
0.6959759948133428
 40
1.0
 40
1.0
 40
1.0
 40
1.0
 10
162.3235227272727
 20
206.3135016575451
 30
0.0
 10
162.3056369803261
 20
206.3146854081924
 30
0.0
 10
162.2671958912173
 20
206.3172295940323
 30
0.0
 10
162.2080908400969
 20
206.3372104380982
 30
0.0
 10
162.1427510987286
 20
206.3653673061705
 30
0.0
 10
162.0994939301846
 20
206.3917330316062
 30
0.0
 10
162.0763636363637
 20
206.4058312029997
 30
0.0
  0
SPLINE
  5
16A
330
1F
100
AcDbEntity
  8
0
  6
Continuous
 62
     7
370
    25
100
AcDbSpline
210
0.0
220
0.0
230
1.0
 70
     8
 71
     3
 72
    15
 73
    11
 74
     0
 42
0.000000001
 43
0.00000001
 40
0.0
 40
0.0
 40
0.0
 40
0.0
 40
0.1784706993996116
 40
0.3379890849368378
 40
0.4816100177309079
 40
0.6086632371891164
 40
0.7213717501697167
 40
0.8219672142332544
 40
0.9132902838278593
 40
1.0
 40
1.0
 40
1.0
 40
1.0
 10
162.9137215909091
 20
206.8852346120906
 30
0.0
 10
162.8896572020251
 20
206.8401739577208
 30
0.0
 10
162.844083890519
 20
206.7548377687086
 30
0.0
 10
162.7706082614459
 20
206.6380897858772
 30
0.0
 10
162.6974005907342
 20
206.5389234964868
 30
0.0
 10
162.6234035949498
 20
206.4576343741503
 30
0.0
 10
162.5493311844573
 20
206.3938824360406
 30
0.0
 10
162.47494592164
 20
206.3477887464313
 30
0.0
 10
162.3993434362998
 20
206.319512344812
 30
0.0
 10
162.3483558844408
 20
206.3154703062627
 30
0.0
 10
162.3235227272727
 20
206.3135016575451
 30
0.0
  0
LINE
  5
16B
330
1F
100
AcDbEntity
  8
0
  6
Continuous
 62
     7
370
    25
100
AcDbLine
 10
162.8213920455
 20
206.358956203
 30
0.0
 11
162.9137215909
 21
206.8852346121
 31
0.0
  0
LINE
  5
16C
330
1F
100
AcDbEntity
  8
0
  6
Continuous
 62
     7
370
    25
100
AcDbLine
 10
163.19
 20
206.358956203
 30
0.0
 11
162.8213920455
 21
206.358956203
 31
0.0
  0
LINE
  5
16D
330
1F
100
AcDbEntity
  8
0
  6
Continuous
 62
     7
370
    25
100
AcDbLine
 10
163.6196875
 20
208.9044107485
 30
0.0
 11
163.19
 21
206.358956203
 31
0.0
  0
LINE
  5
16E
330
1F
100
AcDbEntity
  8
0
  6
Continuous
 62
     7
370
    25
100
AcDbLine
 10
163.2510795455
 20
208.9044107485
 30
0.0
 11
163.6196875
 21
208.9044107485
 31
0.0
  0
LINE
  5
16F
330
1F
100
AcDbEntity
  8
0
  6
Continuous
 62
     7
370
    25
100
AcDbLine
 10
163.0664204545
 20
207.8866550666
 30
0.0
 11
163.2510795455
 21
208.9044107485
 31
0.0
  0
LINE
  5
170
330
1F
100
AcDbEntity
  8
0
  6
Continuous
 62
     7
370
    25
100
AcDbLine
 10
162.1367329545
 20
208.4044107485
 30
0.0
 11
161.7645738636
 21
208.4044107485
 31
0.0
  0
LINE
  5
171
330
1F
100
AcDbEntity
  8
0
  6
Continuous
 62
     7
370
    25
100
AcDbLine
 10
162.2127272727
 20
208.9044107485
 30
0.0
 11
162.1367329545
 21
208.4044107485
 31
0.0
  0
LINE
  5
172
330
1F
100
AcDbEntity
  8
0
  6
Continuous
 62
     7
370
    25
100
AcDbLine
 10
161.8490909091
 20
208.9044107485
 30
0.0
 11
162.2127272727
 21
208.9044107485
 31
0.0
  0
LINE
  5
173
330
1F
100
AcDbEntity
  8
0
  6
Continuous
 62
     7
370
    25
100
AcDbLine
 10
161.7645738636
 20
208.4044107485
 30
0.0
 11
161.8490909091
 21
208.9044107485
 31
0.0
  0
SPLINE
  5
174
330
1F
100
AcDbEntity
  8
0
  6
Continuous
 62
     7
370
    25
100
AcDbSpline
210
0.0
220
0.0
230
1.0
 70
     8
 71
     3
 72
    23
 73
    19
 74
     0
 42
0.000000001
 43
0.00000001
 40
0.0
 40
0.0
 40
0.0
 40
0.0
 40
0.0589564899088126
 40
0.1156824852753097
 40
0.1713601759381953
 40
0.2259595972109258
 40
0.2805137102049935
 40
0.3359456247695657
 40
0.3925292949255172
 40
0.4509085296751717
 40
0.5111012148065707
 40
0.5724964578048746
 40
0.6355555115349975
 40
0.7009661634926674
 40
0.7699089804136499
 40
0.8424091104238255
 40
0.9188181387755303
 40
1.0
 40
1.0
 40
1.0
 40
1.0
 10
159.9250852272727
 20
206.3135016575451
 30
0.0
 10
159.8949769505231
 20
206.3143032180653
 30
0.0
 10
159.8358994802201
 20
206.3158760137526
 30
0.0
 10
159.749106576926
 20
206.3287947157059
 30
0.0
 10
159.6666978962503
 20
206.3511467817672
 30
0.0
 10
159.5876869196237
 20
206.3806728275152
 30
0.0
 10
159.5134478837326
 20
206.4204765072964
 30
0.0
 10
159.4428076925856
 20
206.4680975821395
 30
0.0
 10
159.3765410681894
 20
206.5247205969863
 30
0.0
 10
159.3145289882426
 20
206.5893750386266
 30
0.0
 10
159.2586363787317
 20
206.6625327213582
 30
0.0
 10
159.209362147772
 20
206.7431051746578
 30
0.0
 10
159.1681028986113
 20
206.8310322898243
 30
0.0
 10
159.1347685970873
 20
206.9263060679429
 30
0.0
 10
159.1087255513676
 20
207.028773019405
 30
0.0
 10
159.0896031204699
 20
207.1384332831331
 30
0.0
 10
159.0780900905624
 20
207.2554889634581
 30
0.0
 10
159.0769506244714
 20
207.3359652879021
 30
0.0
 10
159.0763636363636
 20
207.3774221120906
 30
0.0
  0
SPLINE
  5
175
330
1F
100
AcDbEntity
  8
0
  6
Continuous
 62
     7
370
    25
100
AcDbSpline
210
0.0
220
0.0
230
1.0
 70
     8
 71
     3
 72
    23
 73
    19
 74
     0
 42
0.000000001
 43
0.00000001
 40
0.0
 40
0.0
 40
0.0
 40
0.0
 40
0.0753614946399934
 40
0.1481167448249837
 40
0.218523642980799
 40
0.2866370119183048
 40
0.3534497018101053
 40
0.4184500389317403
 40
0.4829584831181603
 40
0.546672806414845
 40
0.6085388288378337
 40
0.6672965788844327
 40
0.7232388053819302
 40
0.7779178132543884
 40
0.8319683982367007
 40
0.8865062890455158
 40
0.9422129217808194
 40
1.0
 40
1.0
 40
1.0
 40
1.0
 10
161.0763636363636
 20
207.9356607484542
 30
0.0
 10
161.0754645808272
 20
207.8799886656662
 30
0.0
 10
161.0736975620053
 20
207.7705698209421
 30
0.0
 10
161.0581285043641
 20
207.609782099598
 30
0.0
 10
161.0345965686205
 20
207.455423292069
 30
0.0
 10
161.0001846380301
 20
207.3075809115566
 30
0.0
 10
160.9566314844643
 20
207.1663361972093
 30
0.0
 10
160.9020832852151
 20
207.0318039877969
 30
0.0
 10
160.8382126688031
 20
206.9040428778172
 30
0.0
 10
160.7657527103354
 20
206.7835843864234
 30
0.0
 10
160.6846801292944
 20
206.6739494122196
 30
0.0
 10
160.596810064937
 20
206.5772065590955
 30
0.0
 10
160.5012634374696
 20
206.495894039294
 30
0.0
 10
160.3990473356872
 20
206.4294309691782
 30
0.0
 10
160.2901569664302
 20
206.3767282198152
 30
0.0
 10
160.174168236776
 20
206.3399820186097
 30
0.0
 10
160.0516905618603
 20
206.3172076292892
 30
0.0
 10
159.967799605272
 20
206.3147519862019
 30
0.0
 10
159.9250852272727
 20
206.3135016575451
 30
0.0
  0
SPLINE
  5
176
330
1F
100
AcDbEntity
  8
0
  6
Continuous
 62
     7
370
    25
100
AcDbSpline
210
0.0
220
0.0
230
1.0
 70
     8
 71
     3
 72
    23
 73
    19
 74
     0
 42
0.000000001
 43
0.00000001
 40
0.0
 40
0.0
 40
0.0
 40
0.0
 40
0.0616654615849807
 40
0.1205692146008595
 40
0.1782617024584799
 40
0.235385122462556
 40
0.2917547900932261
 40
0.3482696560285723
 40
0.4065140894219297
 40
0.4664906247742515
 40
0.5274695608460471
 40
0.5888521895165294
 40
0.6509421969372601
 40
0.7154443592576176
 40
0.7817725446502833
 40
0.8507296521552336
 40
0.9236741286389616
 40
1.0
 40
1.0
 40
1.0
 40
1.0
 10
160.2105965909091
 20
208.9498652939088
 30
0.0
 10
160.2414203389248
 20
208.9490939066822
 30
0.0
 10
160.3016873829683
 20
208.947585679067
 30
0.0
 10
160.3899913710522
 20
208.9343499658608
 30
0.0
 10
160.4742514905842
 20
208.9130439749268
 30
0.0
 10
160.5547043068176
 20
208.8834204150178
 30
0.0
 10
160.6303938278128
 20
208.8445013383763
 30
0.0
 10
160.7023359022142
 20
208.7980097301218
 30
0.0
 10
160.769796043878
 20
208.7422936296245
 30
0.0
 10
160.8327201893892
 20
208.6784270018884
 30
0.0
 10
160.8904129506279
 20
208.6077031438536
 30
0.0
 10
160.9401458296529
 20
208.5298822156361
 30
0.0
 10
160.9823552574258
 20
208.4458321708795
 30
0.0
 10
161.0172455862437
 20
208.3557915615985
 30
0.0
 10
161.0431296122185
 20
208.2592255355348
 30
0.0
 10
161.0622537843849
 20
208.1569039134198
 30
0.0
 10
161.0748138384085
 20
208.0484247303762
 30
0.0
 10
161.0758392938912
 20
207.9738121377312
 30
0.0
 10
161.0763636363637
 20
207.9356607484542
 30
0.0
  0
SPLINE
  5
177
330
1F
100
AcDbEntity
  8
0
  6
Continuous
 62
     7
370
    25
100
AcDbSpline
210
0.0
220
0.0
230
1.0
 70
     8
 71
     3
 72
    31
 73
    27
 74
     0
 42
0.000000001
 43
0.00000001
 40
0.0
 40
0.0
 40
0.0
 40
0.0
 40
0.0538870009329435
 40
0.1062097883526477
 40
0.1571243490601981
 40
0.2074378945814196
 40
0.2565128744512559
 40
0.3045440172282137
 40
0.3520997960827619
 40
0.3992345404108408
 40
0.4453573297882714
 40
0.4894323597456895
 40
0.5321724820733637
 40
0.5733586522160679
 40
0.6132624888996144
 40
0.6520672325236277
 40
0.6899720666216396
 40
0.7274523659398795
 40
0.7639343499078401
 40
0.7994376387565347
 40
0.8338806083483533
 40
0.8677656760356861
 40
0.90090929339809
 40
0.9339654626070905
 40
0.9669240109615771
 40
1.0
 40
1.0
 40
1.0
 40
1.0
 10
159.0763636363637
 20
207.3774221120906
 30
0.0
 10
159.0770237220005
 20
207.4160198196033
 30
0.0
 10
159.0783247325333
 20
207.4920948335184
 30
0.0
 10
159.0851955725022
 20
207.6044886169928
 30
0.0
 10
159.0979881190707
 20
207.7138000185616
 30
0.0
 10
159.1166887887514
 20
207.8198717786212
 30
0.0
 10
159.1391628526137
 20
207.9230871901127
 30
0.0
 10
159.1668283112104
 20
208.0230235296611
 30
0.0
 10
159.2004130743247
 20
208.1196490099541
 30
0.0
 10
159.2385689698881
 20
208.2130696185101
 30
0.0
 10
159.2808127130808
 20
208.3019824763587
 30
0.0
 10
159.3267039381736
 20
208.3854573008281
 30
0.0
 10
159.3744338173604
 20
208.4638262792768
 30
0.0
 10
159.4266746284413
 20
208.5356143283269
 30
0.0
 10
159.4813275354333
 20
208.6019402982188
 30
0.0
 10
159.5390101126141
 20
208.6624484157143
 30
0.0
 10
159.5994890540175
 20
208.7176729285219
 30
0.0
 10
159.6634184561754
 20
208.7660954327029
 30
0.0
 10
159.7285277627836
 20
208.8099561961312
 30
0.0
 10
159.7956460187998
 20
208.8462217072228
 30
0.0
 10
159.8623906147749
 20
208.8792348079635
 30
0.0
 10
159.9308106650493
 20
208.9040176346268
 30
0.0
 10
159.9992693945603
 20
208.9255509279357
 30
0.0
 10
160.0690656369733
 20
208.9392800718598
 30
0.0
 10
160.1395746302339
 20
208.9482590070955
 30
0.0
 10
160.1868945516065
 20
208.9493292305163
 30
0.0
 10
160.2105965909091
 20
208.9498652939088
 30
0.0
  0
SPLINE
  5
178
330
1F
100
AcDbEntity
  8
0
  6
Continuous
 62
     7
370
    25
100
AcDbSpline
210
0.0
220
0.0
230
1.0
 70
     8
 71
     3
 72
    27
 73
    23
 74
     0
 42
0.000000001
 43
0.00000001
 40
0.0
 40
0.0
 40
0.0
 40
0.0
 40
0.0524522171021214
 40
0.1038152251651953
 40
0.1538474331226032
 40
0.2032510131134601
 40
0.2515402589622396
 40
0.2991142589917128
 40
0.3460004955355037
 40
0.3924805224706835
 40
0.4821221933891165
 40
0.5664026012726162
 40
0.6461463133959239
 40
0.7220037208448024
 40
0.7584976817432595
 40
0.7943252020270005
 40
0.8294199048812873
 40
0.8641461921101803
 40
0.8981688532014024
 40
0.9319844516704914
 40
0.9660483742471613
 40
0.9999999999999999
 40
0.9999999999999999
 40
0.9999999999999999
 40
0.9999999999999999
 10
170.7581818181819
 20
206.8369391575451
 30
0.0
 10
170.7584509660626
 20
206.8788575318828
 30
0.0
 10
170.7589836727693
 20
206.9618238145464
 30
0.0
 10
170.7674548853538
 20
207.0845138339614
 30
0.0
 10
170.7792173921057
 20
207.2044456575202
 30
0.0
 10
170.7962117787207
 20
207.3212948660106
 30
0.0
 10
170.8181816884438
 20
207.4353163745426
 30
0.0
 10
170.8454721256855
 20
207.5460883543453
 30
0.0
 10
170.876218918537
 20
207.6544808384106
 30
0.0
 10
170.9254115881269
 20
207.7922531944597
 30
0.0
 10
170.9932951496062
 20
207.9549023403754
 30
0.0
 10
171.0855998449013
 20
208.1356150289792
 30
0.0
 10
171.1873310802917
 20
208.298300241721
 30
0.0
 10
171.2802713913964
 20
208.4208742192808
 30
0.0
 10
171.3603526656954
 20
208.5081396418272
 30
0.0
 10
171.4210404623259
 20
208.5689014589736
 30
0.0
 10
171.485340038913
 20
208.6237440247058
 30
0.0
 10
171.5520762537103
 20
208.6730901859391
 30
0.0
 10
171.6203158039607
 20
208.718624912956
 30
0.0
 10
171.6920226652268
 20
208.7573210416182
 30
0.0
 10
171.7653887693872
 20
208.7927062252452
 30
0.0
 10
171.8164834672766
 20
208.8113149365451
 30
0.0
 10
171.8419886363637
 20
208.8206039302724
 30
0.0
  0
SPLINE
  5
179
330
1F
100
AcDbEntity
  8
0
  6
Continuous
 62
     7
370
    25
100
AcDbSpline
210
0.0
220
0.0
230
1.0
 70
     8
 71
     3
 72
    19
 73
    15
 74
     0
 42
0.000000001
 43
0.00000001
 40
0.0
 40
0.0
 40
0.0
 40
0.0
 40
0.0683990243010594
 40
0.136660099998856
 40
0.2059933883539461
 40
0.2775885035156992
 40
0.3518830425212572
 40
0.4292788789734224
 40
0.5112997402475035
 40
0.5985757450851468
 40
0.6912951594049542
 40
0.7885288960444987
 40
0.8914047837864049
 40
1.0
 40
1.0
 40
1.0
 40
1.0
 10
171.5294886363636
 20
205.4498652939088
 30
0.0
 10
171.49239019003
 20
205.4618676775235
 30
0.0
 10
171.4182681182963
 20
205.485848238091
 30
0.0
 10
171.3138223685403
 20
205.540379802061
 30
0.0
 10
171.2160595932804
 20
205.608722720181
 30
0.0
 10
171.123632031905
 20
205.689653722622
 30
0.0
 10
171.0404423764742
 20
205.7862864902026
 30
0.0
 10
170.966826404669
 20
205.89750671403
 30
0.0
 10
170.9039363542097
 20
206.0233904762549
 30
0.0
 10
170.850679852869
 20
206.1629580490436
 30
0.0
 10
170.8092429823963
 20
206.3155047903945
 30
0.0
 10
170.7799765431215
 20
206.4797469491764
 30
0.0
 10
170.7608133799889
 20
206.6546678712709
 30
0.0
 10
170.7590746800839
 20
206.7750963815479
 30
0.0
 10
170.7581818181818
 20
206.8369391575451
 30
0.0
  0
SPLINE
  5
17A
330
1F
100
AcDbEntity
  8
0
  6
Continuous
 62
     7
370
    25
100
AcDbSpline
210
0.0
220
0.0
230
1.0
 70
     8
 71
     3
 72
    11
 73
     7
 74
     0
 42
0.000000001
 43
0.00000001
 40
0.0
 40
0.0
 40
0.0
 40
0.0
 40
0.3060295612379217
 40
0.5748099443670437
 40
0.8056598864433998
 40
0.9999999999999999
 40
0.9999999999999999
 40
0.9999999999999999
 40
0.9999999999999999
 10
171.9762215909091
 20
205.4044107484542
 30
0.0
 10
171.9302726190409
 20
205.4048615538715
 30
0.0
 10
171.8439674730399
 20
205.4057082937609
 30
0.0
 10
171.7233118951585
 20
205.4142554018931
 30
0.0
 10
171.6197065475764
 20
205.4269766502259
 30
0.0
 10
171.5577890484854
 20
205.4426853665482
 30
0.0
 10
171.5294886363636
 20
205.4498652939088
 30
0.0
  0
LINE
  5
17B
330
1F
100
AcDbEntity
  8
0
  6
Continuous
 62
     7
370
    25
100
AcDbLine
 10
172.8483806818
 20
205.4044107485
 30
0.0
 11
171.9762215909
 21
205.4044107485
 31
0.0
  0
LINE
  5
17C
330
1F
100
AcDbEntity
  8
0
  6
Continuous
 62
     7
370
    25
100
AcDbLine
 10
173.44
 20
208.9044107485
 30
0.0
 11
172.8483806818
 21
205.4044107485
 31
0.0
  0
LINE
  5
17D
330
1F
100
AcDbEntity
  8
0
  6
Continuous
 62
     7
370
    25
100
AcDbLine
 10
172.4037784091
 20
208.9044107485
 30
0.0
 11
173.44
 21
208.9044107485
 31
0.0
  0
SPLINE
  5
17E
330
1F
100
AcDbEntity
  8
0
  6
Continuous
 62
     7
370
    25
100
AcDbSpline
210
0.0
220
0.0
230
1.0
 70
     8
 71
     3
 72
    11
 73
     7
 74
     0
 42
0.000000001
 43
0.00000001
 40
0.0
 40
0.0
 40
0.0
 40
0.0
 40
0.2248248322031383
 40
0.4657331686667327
 40
0.7235704030057376
 40
1.0
 40
1.0
 40
1.0
 40
1.0
 10
171.8419886363637
 20
208.8206039302724
 30
0.0
 10
171.8827137683025
 20
208.8337933921961
 30
0.0
 10
171.9670774240268
 20
208.8611158629148
 30
0.0
 10
172.102772500586
 20
208.8859865310507
 30
0.0
 10
172.249500281847
 20
208.9020358319153
 30
0.0
 10
172.351172971286
 20
208.9036009543083
 30
0.0
 10
172.4037784090909
 20
208.9044107484542
 30
0.0
  0
SPLINE
  5
17F
330
1F
100
AcDbEntity
  8
0
  6
Continuous
 62
     7
370
    25
100
AcDbSpline
210
0.0
220
0.0
230
1.0
 70
     8
 71
     3
 72
    23
 73
    19
 74
     0
 42
0.000000001
 43
0.00000001
 40
0.0
 40
0.0
 40
0.0
 40
0.0
 40
0.0588521623302211
 40
0.116018470412314
 40
0.1720998041470435
 40
0.2277322106394017
 40
0.2840672758195384
 40
0.3412198746258951
 40
0.3998024571630721
 40
0.4603841198017496
 40
0.5223242329120861
 40
0.5844361635871894
 40
0.6470431981057346
 40
0.7123338100914476
 40
0.7793163777801734
 40
0.8489286852874396
 40
0.9226882961675745
 40
1.0
 40
1.0
 40
1.0
 40
1.0
 10
165.0309090909091
 20
208.2126493848179
 30
0.0
 10
165.0315681766421
 20
208.2375469306805
 30
0.0
 10
165.0328674682158
 20
208.2866288177961
 30
0.0
 10
165.0438678805614
 20
208.3587513396301
 30
0.0
 10
165.0615471783245
 20
208.4280625166685
 30
0.0
 10
165.0867508557266
 20
208.4946537786387
 30
0.0
 10
165.1187339886427
 20
208.5587574884868
 30
0.0
 10
165.1580934570283
 20
208.6201166894578
 30
0.0
 10
165.2045693070095
 20
208.6785710310618
 30
0.0
 10
165.2577931377063
 20
208.7337689343027
 30
0.0
 10
165.3169106266257
 20
208.7849935279266
 30
0.0
 10
165.3826233139943
 20
208.8290924134484
 30
0.0
 10
165.4540169126223
 20
208.8661863283558
 30
0.0
 10
165.5303292769523
 20
208.8977169076119
 30
0.0
 10
165.6127182699982
 20
208.9206389935205
 30
0.0
 10
165.7000358916361
 20
208.9380231154356
 30
0.0
 10
165.7930016139897
 20
208.9477114931497
 30
0.0
 10
165.8568824437108
 20
208.9491361941383
 30
0.0
 10
165.8895738636364
 20
208.9498652939088
 30
0.0
  0
SPLINE
  5
180
330
1F
100
AcDbEntity
  8
0
  6
Continuous
 62
     7
370
    25
100
AcDbSpline
210
0.0
220
0.0
230
1.0
 70
     8
 71
     3
 72
    15
 73
    11
 74
     0
 42
0.000000001
 43
0.00000001
 40
0.0
 40
0.0
 40
0.0
 40
0.0
 40
0.1272562319668493
 40
0.2516804312228808
 40
0.3738979488418199
 40
0.4947208349720988
 40
0.6170808988273496
 40
0.7413181579012902
 40
0.8690605083175109
 40
1.0
 40
1.0
 40
1.0
 40
1.0
 10
165.2141477272727
 20
207.7502914302724
 30
0.0
 10
165.1996872233469
 20
207.7664084393335
 30
0.0
 10
165.1710880277908
 20
207.7982837803507
 30
0.0
 10
165.1330629500274
 20
207.8494421184421
 30
0.0
 10
165.1018596808701
 20
207.9037563211066
 30
0.0
 10
165.076187238139
 20
207.9604306869505
 30
0.0
 10
165.0551385904636
 20
208.0194163171446
 30
0.0
 10
165.0412842635676
 20
208.0816868744317
 30
0.0
 10
165.0324806336509
 20
208.1463443519803
 30
0.0
 10
165.0314372370601
 20
208.1903663460236
 30
0.0
 10
165.0309090909091
 20
208.2126493848179
 30
0.0
  0
SPLINE
  5
181
330
1F
100
AcDbEntity
  8
0
  6
Continuous
 62
     7
370
    25
100
AcDbSpline
210
0.0
220
0.0
230
1.0
 70
     8
 71
     3
 72
    15
 73
    11
 74
     0
 42
0.000000001
 43
0.00000001
 40
0.0
 40
0.0
 40
0.0
 40
0.0
 40
0.1751042941891373
 40
0.336641097137676
 40
0.4835451996908676
 40
0.6154622123321241
 40
0.7325072955940695
 40
0.835765982591481
 40
0.9245279673430019
 40
1.0
 40
1.0
 40
1.0
 40
1.0
 10
165.7404261363637
 20
207.4143539302724
 30
0.0
 10
165.7081336892351
 20
207.4314624025564
 30
0.0
 10
165.6460508894902
 20
207.4643537425815
 30
0.0
 10
165.5583969374373
 20
207.5143651697423
 30
0.0
 10
165.4786894872136
 20
207.5601069014289
 30
0.0
 10
165.4082876414174
 20
207.6033625875078
 30
0.0
 10
165.3469897548337
 20
207.6439527301515
 30
0.0
 10
165.2943904665605
 20
207.6812919949378
 30
0.0
 10
165.2505497137325
 20
207.7159531650817
 30
0.0
 10
165.2256089812132
 20
207.739479943991
 30
0.0
 10
165.2141477272727
 20
207.7502914302724
 30
0.0
  0
SPLINE
  5
182
330
1F
100
AcDbEntity
  8
0
  6
Continuous
 62
     7
370
    25
100
AcDbSpline
210
0.0
220
0.0
230
1.0
 70
     8
 71
     3
 72
    15
 73
    11
 74
     0
 42
0.000000001
 43
0.00000001
 40
0.0
 40
0.0
 40
0.0
 40
0.0
 40
0.068489530256882
 40
0.1509491867215957
 40
0.248595201438235
 40
0.3639657509556166
 40
0.4964639046939432
 40
0.6449737887028733
 40
0.8138957703902583
 40
1.0
 40
1.0
 40
1.0
 40
1.0
 10
166.0401420454546
 20
207.1877914302724
 30
0.0
 10
166.0360810326048
 20
207.1954877371888
 30
0.0
 10
166.0271306633345
 20
207.2124502023341
 30
0.0
 10
166.0075822243674
 20
207.2374922621782
 30
0.0
 10
165.9796936773455
 20
207.2626719532637
 30
0.0
 10
165.9457435279693
 20
207.290443226465
 30
0.0
 10
165.9044023916288
 20
207.3191813937858
 30
0.0
 10
165.8563000947079
 20
207.3499477106525
 30
0.0
 10
165.8013180496304
 20
207.3825741067292
 30
0.0
 10
165.7613679310795
 20
207.4034242927385
 30
0.0
 10
165.7404261363637
 20
207.4143539302724
 30
0.0
  0
SPLINE
  5
183
330
1F
100
AcDbEntity
  8
0
  6
Continuous
 62
     7
370
    25
100
AcDbSpline
210
0.0
220
0.0
230
1.0
 70
     8
 71
     3
 72
    11
 73
     7
 74
     0
 42
0.000000001
 43
0.00000001
 40
0.0
 40
0.0
 40
0.0
 40
0.0
 40
0.2769740499280725
 40
0.532375006548156
 40
0.7747519076052273
 40
1.0
 40
1.0
 40
1.0
 40
1.0
 10
166.0763636363637
 20
206.9818255211815
 30
0.0
 10
166.0760772244933
 20
207.0012697939278
 30
0.0
 10
166.0755267089436
 20
207.0386438541811
 30
0.0
 10
166.0678895876804
 20
207.0925270088199
 30
0.0
 10
166.0572834381779
 20
207.1422520171384
 30
0.0
 10
166.045714589822
 20
207.17298689226
 30
0.0
 10
166.0401420454546
 20
207.1877914302724
 30
0.0
  0
SPLINE
  5
184
330
1F
100
AcDbEntity
  8
0
  6
Continuous
 62
     7
370
    25
100
AcDbSpline
210
0.0
220
0.0
230
1.0
 70
     8
 71
     3
 72
    15
 73
    11
 74
     0
 42
0.000000001
 43
0.00000001
 40
0.0
 40
0.0
 40
0.0
 40
0.0
 40
0.1408251251502955
 40
0.2722704465591986
 40
0.3983991200086369
 40
0.5253367990638208
 40
0.6502269619441341
 40
0.7687625601639588
 40
0.8824859194387837
 40
1.0
 40
1.0
 40
1.0
 40
1.0
 10
165.6942613636364
 20
206.6316834757269
 30
0.0
 10
165.7213807772754
 20
206.6327613809257
 30
0.0
 10
165.773813287838
 20
206.6348453963277
 30
0.0
 10
165.8483891282144
 20
206.6551697481294
 30
0.0
 10
165.9146121973584
 20
206.6892359758993
 30
0.0
 10
165.9709191483409
 20
206.7358180672799
 30
0.0
 10
166.0180223348805
 20
206.7897816598791
 30
0.0
 10
166.0515949582436
 20
206.8501098897394
 30
0.0
 10
166.0731298561678
 20
206.9145760310126
 30
0.0
 10
166.0752739932102
 20
206.9591653704919
 30
0.0
 10
166.0763636363637
 20
206.9818255211815
 30
0.0
  0
SPLINE
  5
185
330
1F
100
AcDbEntity
  8
0
  6
Continuous
 62
     7
370
    25
100
AcDbSpline
210
0.0
220
0.0
230
1.0
 70
     8
 71
     3
 72
    15
 73
    11
 74
     0
 42
0.000000001
 43
0.00000001
 40
0.0
 40
0.0
 40
0.0
 40
0.0
 40
0.1450584102998438
 40
0.2765042470335488
 40
0.3983062803534597
 40
0.5152629788256099
 40
0.6300974426092953
 40
0.745793306508971
 40
0.8680005598004559
 40
1.0
 40
1.0
 40
1.0
 40
1.0
 10
165.2127272727273
 20
207.1316834757269
 30
0.0
 10
165.2152611135608
 20
207.0938634913938
 30
0.0
 10
165.2200910144975
 20
207.0217726262779
 30
0.0
 10
165.2467393976346
 20
206.9207192289539
 30
0.0
 10
165.2877032147993
 20
206.8325092182711
 30
0.0
 10
165.3457394402901
 20
206.7598279586247
 30
0.0
 10
165.4162746598408
 20
206.7017288742079
 30
0.0
 10
165.4994880086026
 20
206.6610291858601
 30
0.0
 10
165.5933049095739
 20
206.6352676510226
 30
0.0
 10
165.6597559680503
 20
206.632908492865
 30
0.0
 10
165.6942613636364
 20
206.6316834757269
 30
0.0
  0
LINE
  5
186
330
1F
100
AcDbEntity
  8
0
  6
Continuous
 62
     7
370
    25
100
AcDbLine
 10
164.8490909091
 20
207.0862289303
 30
0.0
 11
165.2127272727
 21
207.1316834757
 31
0.0
  0
SPLINE
  5
187
330
1F
100
AcDbEntity
  8
0
  6
Continuous
 62
     7
370
    25
100
AcDbSpline
210
0.0
220
0.0
230
1.0
 70
     8
 71
     3
 72
    23
 73
    19
 74
     0
 42
0.000000001
 43
0.00000001
 40
0.0
 40
0.0
 40
0.0
 40
0.0
 40
0.0722496157943982
 40
0.1410177031229171
 40
0.2060590598673139
 40
0.2691643413366461
 40
0.330026828660746
 40
0.3894059563906476
 40
0.4479529554362032
 40
0.5063469039677879
 40
0.5644866421929475
 40
0.6223710537099797
 40
0.6801994622357584
 40
0.739599373700186
 40
0.8007350378866669
 40
0.8641938531108205
 40
0.9304200142882305
 40
1.0
 40
1.0
 40
1.0
 40
1.0
 10
165.6772159090909
 20
206.3135016575451
 30
0.0
 10
165.6464047638806
 20
206.3138780868954
 30
0.0
 10
165.5862671855646
 20
206.3146128064061
 30
0.0
 10
165.4989707744138
 20
206.3252144023098
 30
0.0
 10
165.4163086293616
 20
206.3402464806321
 30
0.0
 10
165.3390055993644
 20
206.3633575675985
 30
0.0
 10
165.2660113563806
 20
206.3915193495725
 30
0.0
 10
165.19816031537
 20
206.426525169578
 30
0.0
 10
165.1352456097148
 20
206.4678892892392
 30
0.0
 10
165.0777410976871
 20
206.515629975917
 30
0.0
 10
165.0254417314215
 20
206.5687178564687
 30
0.0
 10
164.9809654336318
 20
206.6281865706365
 30
0.0
 10
164.9419257995007
 20
206.6919376316922
 30
0.0
 10
164.9101332456172
 20
206.7611695833881
 30
0.0
 10
164.8845547111507
 20
206.8354091459393
 30
0.0
 10
164.8653110670965
 20
206.914544775492
 30
0.0
 10
164.8532785403964
 20
206.9987646841813
 30
0.0
 10
164.8505095799754
 20
207.0565981031263
 30
0.0
 10
164.8490909090909
 20
207.0862289302724
 30
0.0
  0
SPLINE
  5
188
330
1F
100
AcDbEntity
  8
0
  6
Continuous
 62
     7
370
    25
100
AcDbSpline
210
0.0
220
0.0
230
1.0
 70
     8
 71
     3
 72
    23
 73
    19
 74
     0
 42
0.000000001
 43
0.00000001
 40
0.0
 40
0.0
 40
0.0
 40
0.0
 40
0.0655747665767033
 40
0.1285621902141084
 40
0.189781682367955
 40
0.2494566609341837
 40
0.3085996986050904
 40
0.3673475360838277
 40
0.4278071718735555
 40
0.4886122941086499
 40
0.5499526075395523
 40
0.611151447831647
 40
0.6716827253596929
 40
0.7330760071689797
 40
0.796747786867615
 40
0.8618083203469528
 40
0.9290446411000328
 40
1.0
 40
1.0
 40
1.0
 40
1.0
 10
166.44
 20
207.0379334757269
 30
0.0
 10
166.4391871793633
 20
207.0121122676823
 30
0.0
 10
166.4375936090502
 20
206.9614886630017
 30
0.0
 10
166.4289278197331
 20
206.8870360014341
 30
0.0
 10
166.4111411166584
 20
206.8166976385536
 30
0.0
 10
166.3889567841002
 20
206.7491988563563
 30
0.0
 10
166.3584978926883
 20
206.686073530119
 30
0.0
 10
166.3229966247893
 20
206.6253017206317
 30
0.0
 10
166.2794852129872
 20
206.5691047717052
 30
0.0
 10
166.2305595944631
 20
206.5162243316914
 30
0.0
 10
166.1758012380875
 20
206.4689299023535
 30
0.0
 10
166.1171076404815
 20
206.4268230992145
 30
0.0
 10
166.0538899752764
 20
206.3917195613728
 30
0.0
 10
165.9864144936585
 20
206.3633203002309
 30
0.0
 10
165.9149716287643
 20
206.3403415141313
 30
0.0
 10
165.8391462900379
 20
206.3253769753247
 30
0.0
 10
165.7596756161713
 20
206.3145738323844
 30
0.0
 10
165.7051912423835
 20
206.3138654042711
 30
0.0
 10
165.677215909091
 20
206.3135016575451
 30
0.0
  0
SPLINE
  5
189
330
1F
100
AcDbEntity
  8
0
  6
Continuous
 62
     7
370
    25
100
AcDbSpline
210
0.0
220
0.0
230
1.0
 70
     8
 71
     3
 72
    23
 73
    19
 74
     0
 42
0.000000001
 43
0.00000001
 40
0.0
 40
0.0
 40
0.0
 40
0.0
 40
0.08188141377706
 40
0.1573351785435873
 40
0.2254411081666432
 40
0.2871576233194377
 40
0.3421523217630223
 40
0.3902440800104294
 40
0.4320813267652572
 40
0.4673281748426355
 40
0.5305865620795177
 40
0.5936688200565845
 40
0.65779321534984
 40
0.7230302273948167
 40
0.7892290163085306
 40
0.856822063877748
 40
0.9269825182991669
 40
1.0
 40
1.0
 40
1.0
 40
1.0
 10
165.8192613636364
 20
207.7787005211815
 30
0.0
 10
165.8441649528809
 20
207.7655271470158
 30
0.0
 10
165.8920172123793
 20
207.7402145018039
 30
0.0
 10
165.9598590786953
 20
207.7026083518898
 30
0.0
 10
166.0213572925524
 20
207.6678643619739
 30
0.0
 10
166.0758215532139
 20
207.6350400790907
 30
0.0
 10
166.1242952081372
 20
207.6056082997626
 30
0.0
 10
166.1657064386733
 20
207.5777957515316
 30
0.0
 10
166.2003996201881
 20
207.5522657262692
 30
0.0
 10
166.2383548814656
 20
207.5223814212161
 30
0.0
 10
166.2782597960665
 20
207.4834138595163
 30
0.0
 10
166.3196114589292
 20
207.4324573042168
 30
0.0
 10
166.3562617344491
 20
207.3771172997536
 30
0.0
 10
166.3856483411427
 20
207.3164184210521
 30
0.0
 10
166.4100146675293
 20
207.252341756437
 30
0.0
 10
166.4281719019494
 20
207.1843853343039
 30
0.0
 10
166.4378000344016
 20
207.112312318937
 30
0.0
 10
166.439256987269
 20
207.0630540628222
 30
0.0
 10
166.44
 20
207.0379334757269
 30
0.0
  0
SPLINE
  5
18A
330
1F
100
AcDbEntity
  8
0
  6
Continuous
 62
     7
370
    25
100
AcDbSpline
210
0.0
220
0.0
230
1.0
 70
     8
 71
     3
 72
    15
 73
    11
 74
     0
 42
0.000000001
 43
0.00000001
 40
0.0
 40
0.0
 40
0.0
 40
0.0
 40
0.0802826659629706
 40
0.1711029575925202
 40
0.2765324386878241
 40
0.393563529492824
 40
0.5243923414753581
 40
0.6687491845825904
 40
0.8277322108393497
 40
1.0
 40
1.0
 40
1.0
 40
1.0
 10
165.4705397727273
 20
208.019467566636
 30
0.0
 10
165.4779384311021
 20
208.0107741373863
 30
0.0
 10
165.4937068702161
 20
207.992246209366
 30
0.0
 10
165.5230917368613
 20
207.9660612339438
 30
0.0
 10
165.5574012399115
 20
207.9377113187931
 30
0.0
 10
165.5985430587561
 20
207.9089275927384
 30
0.0
 10
165.6443881940741
 20
207.877262090562
 30
0.0
 10
165.6973571488012
 20
207.8456180802225
 30
0.0
 10
165.7561368464441
 20
207.8123262869672
 30
0.0
 10
165.7976647018255
 20
207.7902048355764
 30
0.0
 10
165.8192613636364
 20
207.7787005211815
 30
0.0
  0
SPLINE
  5
18B
330
1F
100
AcDbEntity
  8
0
  6
Continuous
 62
     7
370
    25
100
AcDbSpline
210
0.0
220
0.0
230
1.0
 70
     8
 71
     3
 72
    11
 73
     7
 74
     0
 42
0.000000001
 43
0.00000001
 40
0.0
 40
0.0
 40
0.0
 40
0.0
 40
0.2511722015286921
 40
0.4968941709300532
 40
0.7437877536505091
 40
1.0
 40
1.0
 40
1.0
 40
1.0
 10
165.3945454545455
 20
208.2410584757269
 30
0.0
 10
165.3955129009256
 20
208.2210773227586
 30
0.0
 10
165.3974268008877
 20
208.1815485915613
 30
0.0
 10
165.4124139138123
 20
208.124044984434
 30
0.0
 10
165.4356359997351
 20
208.0688743310592
 30
0.0
 10
165.4587623972454
 20
208.0361386014863
 30
0.0
 10
165.4705397727273
 20
208.019467566636
 30
0.0
  0
SPLINE
  5
18C
330
1F
100
AcDbEntity
  8
0
  6
Continuous
 62
     7
370
    25
100
AcDbSpline
210
0.0
220
0.0
230
1.0
 70
     8
 71
     3
 72
    15
 73
    11
 74
     0
 42
0.000000001
 43
0.00000001
 40
0.0
 40
0.0
 40
0.0
 40
0.0
 40
0.1511226330693679
 40
0.2887389660723146
 40
0.4165538257356579
 40
0.5397415730312495
 40
0.6565289389082615
 40
0.7692831913413757
 40
0.8815090550860026
 40
1.0
 40
1.0
 40
1.0
 40
1.0
 10
165.8725284090909
 20
208.6316834757269
 30
0.0
 10
165.8376100841264
 20
208.6304157741458
 30
0.0
 10
165.770894193578
 20
208.6279936694193
 30
0.0
 10
165.6764969630356
 20
208.6071244971721
 30
0.0
 10
165.5928388954499
 20
208.57322735622
 30
0.0
 10
165.5225155004461
 20
208.5245896497019
 30
0.0
 10
165.465139246948
 20
208.4659789828824
 30
0.0
 10
165.4239567182372
 20
208.3979783669397
 30
0.0
 10
165.3984487809955
 20
208.32188928934
 30
0.0
 10
165.39586990635
 20
208.2684854712195
 30
0.0
 10
165.3945454545455
 20
208.2410584757269
 30
0.0
  0
SPLINE
  5
18D
330
1F
100
AcDbEntity
  8
0
  6
Continuous
 62
     7
370
    25
100
AcDbSpline
210
0.0
220
0.0
230
1.0
 70
     8
 71
     3
 72
    23
 73
    19
 74
     0
 42
0.000000001
 43
0.00000001
 40
0.0
 40
0.0
 40
0.0
 40
0.0
 40
0.0826389746764205
 40
0.1602582429913982
 40
0.2331630548393044
 40
0.301742610826048
 40
0.3659919239292913
 40
0.4277235313826891
 40
0.4862244481077639
 40
0.5429348833670149
 40
0.5986795944062547
 40
0.6536144118732415
 40
0.7080923284160731
 40
0.7626808815263587
 40
0.8190253736075334
 40
0.8765806286752719
 40
0.9370425800248704
 40
1.0
 40
1.0
 40
1.0
 40
1.0
 10
166.3945454545455
 20
207.9953198393633
 30
0.0
 10
166.3944631703737
 20
208.0211395338731
 30
0.0
 10
166.3943036001847
 20
208.0712105674612
 30
0.0
 10
166.387650017468
 20
208.143817508161
 30
0.0
 10
166.3771139504654
 20
208.2114562606341
 30
0.0
 10
166.3626949569802
 20
208.2741893501941
 30
0.0
 10
166.3423185050124
 20
208.3315353347785
 30
0.0
 10
166.3186262489903
 20
208.3841661549806
 30
0.0
 10
166.2898692237691
 20
208.4315006454561
 30
0.0
 10
166.2571551239237
 20
208.4738942300012
 30
0.0
 10
166.2197433781599
 20
208.5105400972829
 30
0.0
 10
166.1802243925905
 20
208.543857215654
 30
0.0
 10
166.13641276035
 20
208.5707316535087
 30
0.0
 10
166.0896739680438
 20
208.5928536019464
 30
0.0
 10
166.0401075827335
 20
208.6109462192991
 30
0.0
 10
165.9868007637268
 20
208.6224769705386
 30
0.0
 10
165.9308004514419
 20
208.6309346665353
 30
0.0
 10
165.8922124986039
 20
208.6314305306342
 30
0.0
 10
165.8725284090909
 20
208.6316834757269
 30
0.0
  0
LINE
  5
18E
330
1F
100
AcDbEntity
  8
0
  6
Continuous
 62
     7
370
    25
100
AcDbLine
 10
166.7581818182
 20
208.0407743848
 30
0.0
 11
166.3945454545
 21
207.9953198394
 31
0.0
  0
LINE
  5
18F
330
1F
100
AcDbEntity
  8
0
  6
Continuous
 62
     7
370
    25
100
AcDbLine
 10
166.7581818182
 20
208.0876493848
 30
0.0
 11
166.7581818182
 21
208.0407743848
 31
0.0
  0
SPLINE
  5
190
330
1F
100
AcDbEntity
  8
0
  6
Continuous
 62
     7
370
    25
100
AcDbSpline
210
0.0
220
0.0
230
1.0
 70
     8
 71
     3
 72
    23
 73
    19
 74
     0
 42
0.000000001
 43
0.00000001
 40
0.0
 40
0.0
 40
0.0
 40
0.0
 40
0.0710793448130198
 40
0.1389696679515756
 40
0.203111778329532
 40
0.2648853419759198
 40
0.3251480906719822
 40
0.3834706656666732
 40
0.4411629511826038
 40
0.4990923988995071
 40
0.5566033329710189
 40
0.614764485906328
 40
0.6733350482991909
 40
0.7328543357475589
 40
0.7952630008979985
 40
0.8600089199239047
 40
0.9278992430624572
 40
0.9999999999999999
 40
0.9999999999999999
 40
0.9999999999999999
 40
0.9999999999999999
 10
165.8895738636364
 20
208.9498652939088
 30
0.0
 10
165.9225082550005
 20
208.9492033309102
 30
0.0
 10
165.9868994145433
 20
208.9479091043195
 30
0.0
 10
166.0805548252887
 20
208.9372726931608
 30
0.0
 10
166.16859975565
 20
208.9192641648895
 30
0.0
 10
166.2516275957392
 20
208.8954743004678
 30
0.0
 10
166.3291093768675
 20
208.8636382268116
 30
0.0
 10
166.4005879544438
 20
208.8238961742287
 30
0.0
 10
166.4674643532959
 20
208.7786320299253
 30
0.0
 10
166.5274445023868
 20
208.7250768488788
 30
0.0
 10
166.5819629586678
 20
208.6657966760829
 30
0.0
 10
166.6297739321201
 20
208.600480820818
 30
0.0
 10
166.669308614104
 20
208.5288710637842
 30
0.0
 10
166.7028814867243
 20
208.452080906636
 30
0.0
 10
166.7267405921891
 20
208.3687832304147
 30
0.0
 10
166.7457445465225
 20
208.2803713301619
 30
0.0
 10
166.756229266484
 20
208.1859127705248
 30
0.0
 10
166.7575180469714
 20
208.1210540862362
 30
0.0
 10
166.7581818181818
 20
208.0876493848179
 30
0.0
  0
SPLINE
  5
191
330
1F
100
AcDbEntity
  8
0
  6
Continuous
 62
     7
370
    25
100
AcDbSpline
210
0.0
220
0.0
230
1.0
 70
     8
 71
     3
 72
    11
 73
     7
 74
     0
 42
0.000000001
 43
0.00000001
 40
0.0
 40
0.0
 40
0.0
 40
0.0
 40
0.2155138168373283
 40
0.4547053244133465
 40
0.7153144235925746
 40
1.0
 40
1.0
 40
1.0
 40
1.0
 10
190.9485227272727
 20
205.9392118848179
 30
0.0
 10
190.9538875258841
 20
205.9991402714393
 30
0.0
 10
190.9652065333092
 20
206.1255811506376
 30
0.0
 10
190.9896730505334
 20
206.3238062573124
 30
0.0
 10
191.0218196029934
 20
206.5404592949395
 30
0.0
 10
191.0478559150311
 20
206.6904504637318
 30
0.0
 10
191.0614488636364
 20
206.7687573393633
 30
0.0
  0
SPLINE
  5
192
330
1F
100
AcDbEntity
  8
0
  6
Continuous
 62
     7
370
    25
100
AcDbSpline
210
0.0
220
0.0
230
1.0
 70
     8
 71
     3
 72
    11
 73
     7
 74
     0
 42
0.000000001
 43
0.00000001
 40
0.0
 40
0.0
 40
0.0
 40
0.0
 40
0.2791352987209258
 40
0.5384445167415965
 40
0.7791571478745466
 40
1.0
 40
1.0
 40
1.0
 40
1.0
 10
190.6679829545455
 20
206.8923368848179
 30
0.0
 10
190.6963806086085
 20
206.8043400292146
 30
0.0
 10
190.7511589228835
 20
206.6345964510746
 30
0.0
 10
190.826786586081
 20
206.3878165435035
 30
0.0
 10
190.8924273317328
 20
206.1581966387503
 30
0.0
 10
190.9303687158987
 20
206.0100813684065
 30
0.0
 10
190.9485227272727
 20
205.9392118848179
 30
0.0
  0
LINE
  5
193
330
1F
100
AcDbEntity
  8
0
  6
Continuous
 62
     7
370
    25
100
AcDbLine
 10
189.94
 20
208.9044107485
 30
0.0
 11
190.6679829545
 21
206.8923368848
 31
0.0
  0
LINE
  5
194
330
1F
100
AcDbEntity
  8
0
  6
Continuous
 62
     7
370
    25
100
AcDbLine
 10
189.5564772727
 20
208.9044107485
 30
0.0
 11
189.94
 21
208.9044107485
 31
0.0
  0
LINE
  5
195
330
1F
100
AcDbEntity
  8
0
  6
Continuous
 62
     7
370
    25
100
AcDbLine
 10
188.9641477273
 20
205.4044107485
 30
0.0
 11
189.5564772727
 21
208.9044107485
 31
0.0
  0
LINE
  5
196
330
1F
100
AcDbEntity
  8
0
  6
Continuous
 62
     7
370
    25
100
AcDbLine
 10
189.3334659091
 20
205.4044107485
 30
0.0
 11
188.9641477273
 21
205.4044107485
 31
0.0
  0
LINE
  5
197
330
1F
100
AcDbEntity
  8
0
  6
Continuous
 62
     7
370
    25
100
AcDbLine
 10
189.6892897727
 20
207.4555471121
 30
0.0
 11
189.3334659091
 21
205.4044107485
 31
0.0
  0
SPLINE
  5
198
330
1F
100
AcDbEntity
  8
0
  6
Continuous
 62
     7
370
    25
100
AcDbSpline
210
0.0
220
0.0
230
1.0
 70
     8
 71
     3
 72
     9
 73
     5
 74
     0
 42
0.000000001
 43
0.00000001
 40
0.0
 40
0.0
 40
0.0
 40
0.0
 40
0.4961591109685688
 40
1.0
 40
1.0
 40
1.0
 40
1.0
 10
189.8206818181818
 20
208.3745812029997
 30
0.0
 10
189.8013501326743
 20
208.2222427418633
 30
0.0
 10
189.7623874590477
 20
207.9152072410156
 30
0.0
 10
189.7137801317343
 20
207.6095498192248
 30
0.0
 10
189.6892897727273
 20
207.4555471120906
 30
0.0
  0
SPLINE
  5
199
330
1F
100
AcDbEntity
  8
0
  6
Continuous
 62
     7
370
    25
100
AcDbSpline
210
0.0
220
0.0
230
1.0
 70
     8
 71
     3
 72
    11
 73
     7
 74
     0
 42
0.000000001
 43
0.00000001
 40
0.0
 40
0.0
 40
0.0
 40
0.0
 40
0.2121774586276842
 40
0.4489009667349225
 40
0.7114906539182649
 40
1.0
 40
1.0
 40
1.0
 40
1.0
 10
190.0074715909091
 20
207.6892118848178
 30
0.0
 10
189.9925549517885
 20
207.7372000096507
 30
0.0
 10
189.9609960210474
 20
207.8387278334289
 30
0.0
 10
189.9160547620286
 20
208.001147846345
 30
0.0
 10
189.8683583033549
 20
208.1815318206102
 30
0.0
 10
189.8370645888867
 20
208.3082448580504
 30
0.0
 10
189.8206818181818
 20
208.3745812029997
 30
0.0
  0
SPLINE
  5
19A
330
1F
100
AcDbEntity
  8
0
  6
Continuous
 62
     7
370
    25
100
AcDbSpline
210
0.0
220
0.0
230
1.0
 70
     8
 71
     3
 72
    15
 73
    11
 74
     0
 42
0.000000001
 43
0.00000001
 40
0.0
 40
0.0
 40
0.0
 40
0.0
 40
0.1473319395763573
 40
0.2884946194558141
 40
0.4226039186233329
 40
0.5507849952645089
 40
0.6725801496860199
 40
0.7884487574136453
 40
0.8972927867977993
 40
1.0
 40
1.0
 40
1.0
 40
1.0
 10
190.3455397727273
 20
206.7233027939088
 30
0.0
 10
190.3279917253537
 20
206.7704035198534
 30
0.0
 10
190.2936304234947
 20
206.8626327136491
 30
0.0
 10
190.2437864318065
 20
206.9979210986437
 30
0.0
 10
190.1979429896454
 20
207.1277047600323
 30
0.0
 10
190.1533642124895
 20
207.2509279236223
 30
0.0
 10
190.1133802647742
 20
207.3691655377524
 30
0.0
 10
190.0746918857471
 20
207.4808711619445
 30
0.0
 10
190.0399178783575
 20
207.5870275644156
 30
0.0
 10
190.0180758171477
 20
207.655815594
 30
0.0
 10
190.0074715909091
 20
207.6892118848178
 30
0.0
  0
LINE
  5
19B
330
1F
100
AcDbEntity
  8
0
  6
Continuous
 62
     7
370
    25
100
AcDbLine
 10
190.8221022727
 20
205.4044107485
 30
0.0
 11
190.3455397727
 21
206.7233027939
 31
0.0
  0
LINE
  5
19C
330
1F
100
AcDbEntity
  8
0
  6
Continuous
 62
     7
370
    25
100
AcDbLine
 10
191.205625
 20
205.4044107485
 30
0.0
 11
190.8221022727
 21
205.4044107485
 31
0.0
  0
LINE
  5
19D
330
1F
100
AcDbEntity
  8
0
  6
Continuous
 62
     7
370
    25
100
AcDbLine
 10
191.8036363636
 20
208.9044107485
 30
0.0
 11
191.205625
 21
205.4044107485
 31
0.0
  0
LINE
  5
19E
330
1F
100
AcDbEntity
  8
0
  6
Continuous
 62
     7
370
    25
100
AcDbLine
 10
191.4357386364
 20
208.9044107485
 30
0.0
 11
191.8036363636
 21
208.9044107485
 31
0.0
  0
LINE
  5
19F
330
1F
100
AcDbEntity
  8
0
  6
Continuous
 62
     7
370
    25
100
AcDbLine
 10
191.0614488636
 20
206.7687573394
 30
0.0
 11
191.4357386364
 21
208.9044107485
 31
0.0
  0
LINE
  5
1A0
330
1F
100
AcDbEntity
  8
0
  6
Continuous
 62
     7
370
    25
100
AcDbLine
 10
192.6480965909
 20
207.9498652939
 30
0.0
 11
193.8909943182
 21
207.9498652939
 31
0.0
  0
LINE
  5
1A1
330
1F
100
AcDbEntity
  8
0
  6
Continuous
 62
     7
370
    25
100
AcDbLine
 10
192.5309090909
 20
208.9044107485
 30
0.0
 11
192.6480965909
 21
207.9498652939
 31
0.0
  0
LINE
  5
1A2
330
1F
100
AcDbEntity
  8
0
  6
Continuous
 62
     7
370
    25
100
AcDbLine
 10
192.1651420455
 20
208.9044107485
 30
0.0
 11
192.5309090909
 21
208.9044107485
 31
0.0
  0
LINE
  5
1A3
330
1F
100
AcDbEntity
  8
0
  6
Continuous
 62
     7
370
    25
100
AcDbLine
 10
192.6445454545
 20
205.4044107485
 30
0.0
 11
192.1651420455
 21
208.9044107485
 31
0.0
  0
LINE
  5
1A4
330
1F
100
AcDbEntity
  8
0
  6
Continuous
 62
     7
370
    25
100
AcDbLine
 10
193.0891477273
 20
205.4044107485
 30
0.0
 11
192.6445454545
 21
205.4044107485
 31
0.0
  0
LINE
  5
1A5
330
1F
100
AcDbEntity
  8
0
  6
Continuous
 62
     7
370
    25
100
AcDbLine
 10
194.7148579545
 20
208.9044107485
 30
0.0
 11
193.0891477273
 21
205.4044107485
 31
0.0
  0
LINE
  5
1A6
330
1F
100
AcDbEntity
  8
0
  6
Continuous
 62
     7
370
    25
100
AcDbLine
 10
194.3206818182
 20
208.9044107485
 30
0.0
 11
194.7148579545
 21
208.9044107485
 31
0.0
  0
LINE
  5
1A7
330
1F
100
AcDbEntity
  8
0
  6
Continuous
 62
     7
370
    25
100
AcDbLine
 10
193.8909943182
 20
207.9498652939
 30
0.0
 11
194.3206818182
 21
208.9044107485
 31
0.0
  0
SPLINE
  5
1A8
330
1F
100
AcDbEntity
  8
0
  6
Continuous
 62
     7
370
    25
100
AcDbSpline
210
0.0
220
0.0
230
1.0
 70
     8
 71
     3
 72
    15
 73
    11
 74
     0
 42
0.000000001
 43
0.00000001
 40
0.0
 40
0.0
 40
0.0
 40
0.0
 40
0.1266079463577328
 40
0.2474347576742205
 40
0.3659694680941807
 40
0.4846668520267501
 40
0.6055442235070032
 40
0.7298140232730583
 40
0.8602232911045048
 40
1.0
 40
1.0
 40
1.0
 40
1.0
 10
177.2858806818182
 20
207.1089562029997
 30
0.0
 10
177.2519191875184
 20
207.1247225652953
 30
0.0
 10
177.1855469387453
 20
207.1555353708596
 30
0.0
 10
177.0972220742767
 20
207.2187743795555
 30
0.0
 10
177.0208556369334
 20
207.2923973955099
 30
0.0
 10
176.9578183808154
 20
207.3778913042906
 30
0.0
 10
176.9085859971421
 20
207.4738597176928
 30
0.0
 10
176.8738105276742
 20
207.5795213849779
 30
0.0
 10
176.8529674178702
 20
207.694548936662
 30
0.0
 10
176.850412604109
 20
207.7743489735229
 30
0.0
 10
176.8490909090909
 20
207.8156323393633
 30
0.0
  0
SPLINE
  5
1A9
330
1F
100
AcDbEntity
  8
0
  6
Continuous
 62
     7
370
    25
100
AcDbSpline
210
0.0
220
0.0
230
1.0
 70
     8
 71
     3
 72
    15
 73
    11
 74
     0
 42
0.000000001
 43
0.00000001
 40
0.0
 40
0.0
 40
0.0
 40
0.0
 40
0.1397365641356364
 40
0.2708504146265299
 40
0.3965724511891155
 40
0.518677511924548
 40
0.638193793484887
 40
0.7563043459892588
 40
0.8756267044711663
 40
1.0
 40
1.0
 40
1.0
 40
1.0
 10
176.8036363636364
 20
206.2552630211815
 30
0.0
 10
176.8050693966788
 20
206.3036586377762
 30
0.0
 10
176.8078470347014
 20
206.3974635262952
 30
0.0
 10
176.8312407689763
 20
206.5331573773451
 30
0.0
 10
176.8684122499681
 20
206.6593085565906
 30
0.0
 10
176.9220196247659
 20
206.7750885437303
 30
0.0
 10
176.9901854177196
 20
206.8799271241141
 30
0.0
 10
177.0745411917944
 20
206.970864392953
 30
0.0
 10
177.1730309285742
 20
207.0493407825516
 30
0.0
 10
177.2477478924912
 20
207.0888116993279
 30
0.0
 10
177.2858806818182
 20
207.1089562029997
 30
0.0
  0
SPLINE
  5
1AA
330
1F
100
AcDbEntity
  8
0
  6
Continuous
 62
     7
370
    25
100
AcDbSpline
210
0.0
220
0.0
230
1.0
 70
     8
 71
     3
 72
    15
 73
    11
 74
     0
 42
0.000000001
 43
0.00000001
 40
0.0
 40
0.0
 40
0.0
 40
0.0
 40
0.1199282258095554
 40
0.2352687333574119
 40
0.350507383231242
 40
0.4679795394891602
 40
0.5897309334995233
 40
0.7176240374819278
 40
0.8533080888327771
 40
1.0
 40
1.0
 40
1.0
 40
1.0
 10
177.2858806818182
 20
205.4626493848178
 30
0.0
 10
177.2490039356738
 20
205.4777038884882
 30
0.0
 10
177.176661121485
 20
205.5072370028651
 30
0.0
 10
177.0801525246793
 20
205.5732649647609
 30
0.0
 10
176.9959085257734
 20
205.652653010516
 30
0.0
 10
176.9256396476755
 20
205.747585748235
 30
0.0
 10
176.8710547546141
 20
205.8568607402488
 30
0.0
 10
176.8312260208285
 20
205.9785825879946
 30
0.0
 10
176.807694730522
 20
206.1130252054676
 30
0.0
 10
176.8050238587885
 20
206.2066340319073
 30
0.0
 10
176.8036363636364
 20
206.2552630211815
 30
0.0
  0
SPLINE
  5
1AB
330
1F
100
AcDbEntity
  8
0
  6
Continuous
 62
     7
370
    25
100
AcDbSpline
210
0.0
220
0.0
230
1.0
 70
     8
 71
     3
 72
    15
 73
    11
 74
     0
 42
0.000000001
 43
0.00000001
 40
0.0
 40
0.0
 40
0.0
 40
0.0
 40
0.1606672447813239
 40
0.311307509311404
 40
0.4506262229304814
 40
0.5801012520897201
 40
0.6998506863181612
 40
0.8088578036716969
 40
0.9089061274206235
 40
1.0
 40
1.0
 40
1.0
 40
1.0
 10
177.7709659090909
 20
205.4044107484542
 30
0.0
 10
177.7446852539789
 20
205.4044905566605
 30
0.0
 10
177.6937640765034
 20
205.4046451923734
 30
0.0
 10
177.6200908821771
 20
205.4074275603894
 30
0.0
 10
177.5516627340692
 20
205.4125063576423
 30
0.0
 10
177.4884272212145
 20
205.4188679565542
 30
0.0
 10
177.430288015774
 20
205.4263220914151
 30
0.0
 10
177.3774059866684
 20
205.4362711984731
 30
0.0
 10
177.3297368273473
 20
205.4481991243605
 30
0.0
 10
177.300035591742
 20
205.4579854515724
 30
0.0
 10
177.2858806818182
 20
205.4626493848178
 30
0.0
  0
LINE
  5
1AC
330
1F
100
AcDbEntity
  8
0
  6
Continuous
 62
     7
370
    25
100
AcDbLine
 10
178.6665625
 20
205.4044107485
 30
0.0
 11
177.7709659091
 21
205.4044107485
 31
0.0
  0
LINE
  5
1AD
330
1F
100
AcDbEntity
  8
0
  6
Continuous
 62
     7
370
    25
100
AcDbLine
 10
179.2581818182
 20
208.9044107485
 30
0.0
 11
178.6665625
 21
205.4044107485
 31
0.0
  0
LINE
  5
1AE
330
1F
100
AcDbEntity
  8
0
  6
Continuous
 62
     7
370
    25
100
AcDbLine
 10
177.8561931818
 20
208.9044107485
 30
0.0
 11
179.2581818182
 21
208.9044107485
 31
0.0
  0
SPLINE
  5
1AF
330
1F
100
AcDbEntity
  8
0
  6
Continuous
 62
     7
370
    25
100
AcDbSpline
210
0.0
220
0.0
230
1.0
 70
     8
 71
     3
 72
    19
 73
    15
 74
     0
 42
0.000000001
 43
0.00000001
 40
0.0
 40
0.0
 40
0.0
 40
0.0
 40
0.0885780588079902
 40
0.1763653486433847
 40
0.2640477241599677
 40
0.3539282721747503
 40
0.4424674853295908
 40
0.5267236542612338
 40
0.6072594672863053
 40
0.6865691352123094
 40
0.765062182443555
 40
0.8422521071387927
 40
0.9200562976820021
 40
1.0
 40
1.0
 40
1.0
 40
1.0
 10
176.8490909090909
 20
207.8156323393633
 30
0.0
 10
176.8509136541414
 20
207.8642858394675
 30
0.0
 10
176.8545428719256
 20
207.9611584919513
 30
0.0
 10
176.8823211784471
 20
208.1040327553026
 30
0.0
 10
176.9282424538985
 20
208.2426869723266
 30
0.0
 10
176.9921473402877
 20
208.3744199782362
 30
0.0
 10
177.0680971006853
 20
208.4974196187295
 30
0.0
 10
177.1567947732125
 20
208.6050169256356
 30
0.0
 10
177.2540078034114
 20
208.6979154563264
 30
0.0
 10
177.3622312270472
 20
208.7723024173178
 30
0.0
 10
177.4772104969863
 20
208.8316169222635
 30
0.0
 10
177.5986179426874
 20
208.8739186258062
 30
0.0
 10
177.7256222465824
 20
208.8995098970827
 30
0.0
 10
177.8122777713048
 20
208.9027624268009
 30
0.0
 10
177.8561931818182
 20
208.9044107484542
 30
0.0
  0
LINE
  5
1B0
330
1F
100
AcDbEntity
  8
0
  6
Continuous
 62
     7
370
    25
100
AcDbLine
 10
203.94
 20
243.4044107485
 30
0.0
 11
155.94
 21
243.4044107485
 31
0.0
  0
LINE
  5
1B1
330
1F
100
AcDbEntity
  8
0
  6
Continuous
 62
     7
370
    25
100
AcDbLine
 10
203.94
 20
204.4044107485
 30
0.0
 11
203.94
 21
243.4044107485
 31
0.0
  0
LINE
  5
1B2
330
1F
100
AcDbEntity
  8
0
  6
Continuous
 62
     7
370
    25
100
AcDbLine
 10
155.94
 20
204.4044107485
 30
0.0
 11
203.94
 21
204.4044107485
 31
0.0
  0
LINE
  5
1B3
330
1F
100
AcDbEntity
  8
0
  6
Continuous
 62
     7
370
    25
100
AcDbLine
 10
155.94
 20
204.4044107485
 30
0.0
 11
155.94
 21
243.4044107485
 31
0.0
  0
LINE
  5
1B4
330
1F
100
AcDbEntity
  8
0
  6
Continuous
 62
     7
370
    25
100
AcDbLine
 10
158.7730965909
 20
208.4044107485
 30
0.0
 11
158.4009375
 21
208.4044107485
 31
0.0
  0
LINE
  5
1B5
330
1F
100
AcDbEntity
  8
0
  6
Continuous
 62
     7
370
    25
100
AcDbLine
 10
158.8490909091
 20
208.9044107485
 30
0.0
 11
158.7730965909
 21
208.4044107485
 31
0.0
  0
LINE
  5
1B6
330
1F
100
AcDbEntity
  8
0
  6
Continuous
 62
     7
370
    25
100
AcDbLine
 10
158.4854545455
 20
208.9044107485
 30
0.0
 11
158.8490909091
 21
208.9044107485
 31
0.0
  0
LINE
  5
1B7
330
1F
100
AcDbEntity
  8
0
  6
Continuous
 62
     7
370
    25
100
AcDbLine
 10
158.4009375
 20
208.4044107485
 30
0.0
 11
158.4854545455
 21
208.9044107485
 31
0.0
  0
SPLINE
  5
1B8
330
1F
100
AcDbEntity
  8
0
  6
Continuous
 62
     7
370
    25
100
AcDbSpline
210
0.0
220
0.0
230
1.0
 70
     8
 71
     3
 72
    23
 73
    19
 74
     0
 42
0.000000001
 43
0.00000001
 40
0.0
 40
0.0
 40
0.0
 40
0.0
 40
0.0572634327750009
 40
0.1125680570640923
 40
0.1669845284142369
 40
0.2207415784534418
 40
0.2751039573987254
 40
0.3304580237118293
 40
0.3875842853978116
 40
0.4471512336609398
 40
0.5081971405965227
 40
0.5705729247016903
 40
0.6343933180777902
 40
0.7008523166253902
 40
0.770128303681998
 40
0.8428097211193443
 40
0.9193141925768303
 40
1.0
 40
1.0
 40
1.0
 40
1.0
 10
180.6488068181818
 20
205.3589562029997
 30
0.0
 10
180.606596262822
 20
205.3601526820341
 30
0.0
 10
180.5236190472729
 20
205.3625047121814
 30
0.0
 10
180.4017406045492
 20
205.3820594141056
 30
0.0
 10
180.2856783127964
 20
205.4150492440531
 30
0.0
 10
180.1742662946025
 20
205.4597984546058
 30
0.0
 10
180.0690264261605
 20
205.5189180399857
 30
0.0
 10
179.967916819981
 20
205.5892806710917
 30
0.0
 10
179.8734360775285
 20
205.6741982325034
 30
0.0
 10
179.7841119430764
 20
205.7702098576994
 30
0.0
 10
179.7029461151279
 20
205.8782449224013
 30
0.0
 10
179.6328481885535
 20
205.9973662868075
 30
0.0
 10
179.5727432288695
 20
206.1262006648394
 30
0.0
 10
179.5238065981732
 20
206.2651086188403
 30
0.0
 10
179.4864697211029
 20
206.4142709762929
 30
0.0
 10
179.4597783995782
 20
206.5731398911748
 30
0.0
 10
179.443193636487
 20
206.7418916662967
 30
0.0
 10
179.4410832578532
 20
206.8577333008686
 30
0.0
 10
179.44
 20
206.9171948393633
 30
0.0
  0
SPLINE
  5
1B9
330
1F
100
AcDbEntity
  8
0
  6
Continuous
 62
     7
370
    25
100
AcDbSpline
210
0.0
220
0.0
230
1.0
 70
     8
 71
     3
 72
    15
 73
    11
 74
     0
 42
0.000000001
 43
0.00000001
 40
0.0
 40
0.0
 40
0.0
 40
0.0
 40
0.1366486092688848
 40
0.2673174602160044
 40
0.392462286372835
 40
0.5145038537149255
 40
0.6343492826296392
 40
0.7539910928012369
 40
0.8757134371801416
 40
0.9999999999999999
 40
0.9999999999999999
 40
0.9999999999999999
 40
0.9999999999999999
 10
181.6878693181818
 20
205.8873652939088
 30
0.0
 10
181.6522665966664
 20
205.8453693719728
 30
0.0
 10
181.5826191326841
 20
205.7632152743099
 30
0.0
 10
181.4659445871765
 20
205.6561311003155
 30
0.0
 10
181.3446957465923
 20
205.5638881614938
 30
0.0
 10
181.2170063789361
 20
205.4887800825826
 30
0.0
 10
181.083103199084
 20
205.4308140779166
 30
0.0
 10
180.9434018837493
 20
205.389453751157
 30
0.0
 10
180.7979419144177
 20
205.363892220947
 30
0.0
 10
180.6988627600113
 20
205.360612935945
 30
0.0
 10
180.6488068181818
 20
205.3589562029997
 30
0.0
  0
SPLINE
  5
1BA
330
1F
100
AcDbEntity
  8
0
  6
Continuous
 62
     7
370
    25
100
AcDbSpline
210
0.0
220
0.0
230
1.0
 70
     8
 71
     3
 72
    15
 73
    11
 74
     0
 42
0.000000001
 43
0.00000001
 40
0.0
 40
0.0
 40
0.0
 40
0.0
 40
0.1409754907900348
 40
0.2756587093978882
 40
0.4052540319038679
 40
0.5296609519050449
 40
0.6505885197244335
 40
0.7685867380843178
 40
0.8846940504466452
 40
0.9999999999999999
 40
0.9999999999999999
 40
0.9999999999999999
 40
0.9999999999999999
 10
182.1672727272727
 20
207.436370975727
 30
0.0
 10
182.1657126468267
 20
207.3586689012772
 30
0.0
 10
182.1626621182567
 20
207.2067328914055
 30
0.0
 10
182.1405710909916
 20
206.9842198419411
 30
0.0
 10
182.1032410164844
 20
206.7730652338967
 30
0.0
 10
182.0505523314005
 20
206.573020400035
 30
0.0
 10
181.9832573974879
 20
206.38411859979
 30
0.0
 10
181.9004333596965
 20
206.2066004427251
 30
0.0
 10
181.8036115958988
 20
206.0396043836417
 30
0.0
 10
181.7263609067474
 20
205.9379943684455
 30
0.0
 10
181.6878693181818
 20
205.8873652939088
 30
0.0
  0
SPLINE
  5
1BB
330
1F
100
AcDbEntity
  8
0
  6
Continuous
 62
     7
370
    25
100
AcDbSpline
210
0.0
220
0.0
230
1.0
 70
     8
 71
     3
 72
    31
 73
    27
 74
     0
 42
0.000000001
 43
0.00000001
 40
0.0
 40
0.0
 40
0.0
 40
0.0
 40
0.0378713464109286
 40
0.0752373637875362
 40
0.1117100053357611
 40
0.1480293779298887
 40
0.1837275779421374
 40
0.2198555742787957
 40
0.2560644308236269
 40
0.2926970928545352
 40
0.3296945900129153
 40
0.3673249162395037
 40
0.4054911409512016
 40
0.4446574501178607
 40
0.4850732355790512
 40
0.5267893868923019
 40
0.5696934240132842
 40
0.6144400279784294
 40
0.6601209498234307
 40
0.7064610481271777
 40
0.7528957169671188
 40
0.8002348284767891
 40
0.8487179112267822
 40
0.8978269804014999
 40
0.9483118590111306
 40
1.0
 40
1.0
 40
1.0
 40
1.0
 10
180.9655681818182
 20
208.9498652939088
 30
0.0
 10
180.9928058583957
 20
208.9492354087039
 30
0.0
 10
181.0469177708467
 20
208.9479840430462
 30
0.0
 10
181.1270451906264
 20
208.940551626517
 30
0.0
 10
181.2049758818169
 20
208.925763839206
 30
0.0
 10
181.2807201985474
 20
208.9068310303795
 30
0.0
 10
181.3547785746001
 20
208.8826950968452
 30
0.0
 10
181.4261931868736
 20
208.8518398595314
 30
0.0
 10
181.4961463377157
 20
208.8163740637744
 30
0.0
 10
181.5637495446871
 20
208.7752571824064
 30
0.0
 10
181.628224947064
 20
208.7277807284446
 30
0.0
 10
181.6913861441473
 20
208.676657467135
 30
0.0
 10
181.7490786186132
 20
208.6172727366443
 30
0.0
 10
181.806055403318
 20
208.5545087740752
 30
0.0
 10
181.8578013771641
 20
208.4841507530165
 30
0.0
 10
181.9089839724847
 20
208.4101246804352
 30
0.0
 10
181.9545909036433
 20
208.328908608661
 30
0.0
 10
181.9987576120618
 20
208.243752881877
 30
0.0
 10
182.0383816900468
 20
208.1536216794025
 30
0.0
 10
182.0730634251636
 20
208.0602071076685
 30
0.0
 10
182.1024857077356
 20
207.9637343209009
 30
0.0
 10
182.1257121069443
 20
207.864009042479
 30
0.0
 10
182.1440069952542
 20
207.7613370315729
 30
0.0
 10
182.1577624148204
 20
207.6556654060226
 30
0.0
 10
182.1654726577452
 20
207.5470456634597
 30
0.0
 10
182.16666801165
 20
207.4735510466532
 30
0.0
 10
182.1672727272727
 20
207.436370975727
 30
0.0
  0
SPLINE
  5
1BC
330
1F
100
AcDbEntity
  8
0
  6
Continuous
 62
     7
370
    25
100
AcDbSpline
210
0.0
220
0.0
230
1.0
 70
     8
 71
     3
 72
    31
 73
    27
 74
     0
 42
0.000000001
 43
0.00000001
 40
0.0
 40
0.0
 40
0.0
 40
0.0
 40
0.0517952777530688
 40
0.1027059929816704
 40
0.1523631572913466
 40
0.2014101515657458
 40
0.249746324964967
 40
0.2974554366623607
 40
0.3448452138587228
 40
0.3920089530556482
 40
0.43832228436165
 40
0.4829040335041055
 40
0.5259902873728425
 40
0.5675157157543341
 40
0.6078447330163519
 40
0.646962767721618
 40
0.6854328466641002
 40
0.7231187995704225
 40
0.7601799669682295
 40
0.7960229833957799
 40
0.8308293117986166
 40
0.8653586757878794
 40
0.8990131680465294
 40
0.9327972666946308
 40
0.9663824943586458
 40
1.0
 40
1.0
 40
1.0
 40
1.0
 10
179.44
 20
206.9171948393633
 30
0.0
 10
179.4406754140451
 20
206.9657460773555
 30
0.0
 10
179.442014707378
 20
207.0620193927
 30
0.0
 10
179.4528963121025
 20
207.2045065453368
 30
0.0
 10
179.4706564457718
 20
207.3436588362179
 30
0.0
 10
179.4953584949014
 20
207.4793282927039
 30
0.0
 10
179.5276054880641
 20
207.6115010832303
 30
0.0
 10
179.5655784177099
 20
207.7405415481031
 30
0.0
 10
179.6119648018739
 20
207.8656707308805
 30
0.0
 10
179.6653508631646
 20
207.9864804959738
 30
0.0
 10
179.722832427246
 20
208.1024876553701
 30
0.0
 10
179.7857006901254
 20
208.2112743565241
 30
0.0
 10
179.8514437127205
 20
208.3130422815672
 30
0.0
 10
179.9213680253062
 20
208.4070748316706
 30
0.0
 10
179.9943369885755
 20
208.4939654811044
 30
0.0
 10
180.071456345837
 20
208.5732707896175
 30
0.0
 10
180.1522967326183
 20
208.6451175441019
 30
0.0
 10
180.2371232004955
 20
208.7090482557361
 30
0.0
 10
180.3240797552829
 20
208.7655992849699
 30
0.0
 10
180.4122927895262
 20
208.8148693171711
 30
0.0
 10
180.501785710846
 20
208.8564358147244
 30
0.0
 10
180.5922377061017
 20
208.8904166428718
 30
0.0
 10
180.6841420726747
 20
208.9170082163399
 30
0.0
 10
180.7769574650789
 20
208.9361352048868
 30
0.0
 10
180.8710369958071
 20
208.9479691269282
 30
0.0
 10
180.93404769831
 20
208.9492330358936
 30
0.0
 10
180.9655681818182
 20
208.9498652939088
 30
0.0
  0
LINE
  5
1BD
330
1F
100
AcDbEntity
  8
0
  6
Continuous
 62
     7
370
    25
100
AcDbLine
 10
182.6061931818
 20
205.4044107485
 30
0.0
 11
182.2141477273
 21
205.4044107485
 31
0.0
  0
LINE
  5
1BE
330
1F
100
AcDbEntity
  8
0
  6
Continuous
 62
     7
370
    25
100
AcDbLine
 10
183.6211079545
 20
207.6934732485
 30
0.0
 11
182.6061931818
 21
205.4044107485
 31
0.0
  0
SPLINE
  5
1BF
330
1F
100
AcDbEntity
  8
0
  6
Continuous
 62
     7
370
    25
100
AcDbSpline
210
0.0
220
0.0
230
1.0
 70
     8
 71
     3
 72
    15
 73
    11
 74
     0
 42
0.000000001
 43
0.00000001
 40
0.0
 40
0.0
 40
0.0
 40
0.0
 40
0.1551393386909348
 40
0.3012024969288344
 40
0.4388836879579243
 40
0.5686907597159414
 40
0.6885671642288502
 40
0.8009304254617149
 40
0.9050612981925974
 40
0.9999999999999999
 40
0.9999999999999999
 40
0.9999999999999999
 40
0.9999999999999999
 10
183.9172727272728
 20
208.4044107484542
 30
0.0
 10
183.9023100701964
 20
208.3674983064397
 30
0.0
 10
183.8732601225165
 20
208.2958329261671
 30
0.0
 10
183.8317202998076
 20
208.1910896701761
 30
0.0
 10
183.7909173369615
 20
208.0930667168477
 30
0.0
 10
183.752706867444
 20
208.0012517494413
 30
0.0
 10
183.717329047087
 20
207.9152931133813
 30
0.0
 10
183.682739778499
 20
207.8361611900877
 30
0.0
 10
183.6522863248185
 20
207.7622216900798
 30
0.0
 10
183.6311758139778
 20
207.7156729221516
 30
0.0
 10
183.6211079545455
 20
207.6934732484542
 30
0.0
  0
SPLINE
  5
1C0
330
1F
100
AcDbEntity
  8
0
  6
Continuous
 62
     7
370
    25
100
AcDbSpline
210
0.0
220
0.0
230
1.0
 70
     8
 71
     3
 72
    15
 73
    11
 74
     0
 42
0.000000001
 43
0.00000001
 40
0.0
 40
0.0
 40
0.0
 40
0.0
 40
0.1519285434785135
 40
0.2959003752522407
 40
0.4325740366344294
 40
0.5614202412368967
 40
0.6823405234676726
 40
0.7961128507033498
 40
0.9019920966230067
 40
1.0
 40
1.0
 40
1.0
 40
1.0
 10
184.0387215909091
 20
207.4889277939088
 30
0.0
 10
184.0311038749555
 20
207.5350852992707
 30
0.0
 10
184.0162673935568
 20
207.6249829764589
 30
0.0
 10
183.9952760967454
 20
207.7565244635512
 30
0.0
 10
183.9780428082916
 20
207.8814371182739
 30
0.0
 10
183.9613877225935
 20
207.9992594272166
 30
0.0
 10
183.9471454960107
 20
208.1102957291717
 30
0.0
 10
183.9350975583211
 20
208.2144724284516
 30
0.0
 10
183.9249925442697
 20
208.3117694788382
 30
0.0
 10
183.9197789063957
 20
208.3743354738817
 30
0.0
 10
183.9172727272728
 20
208.4044107484542
 30
0.0
  0
LINE
  5
1C1
330
1F
100
AcDbEntity
  8
0
  6
Continuous
 62
     7
370
    25
100
AcDbLine
 10
184.3760795455
 20
205.4044107485
 30
0.0
 11
184.0387215909
 21
207.4889277939
 31
0.0
  0
LINE
  5
1C2
330
1F
100
AcDbEntity
  8
0
  6
Continuous
 62
     7
370
    25
100
AcDbLine
 10
184.7432670455
 20
205.4044107485
 30
0.0
 11
184.3760795455
 21
205.4044107485
 31
0.0
  0
LINE
  5
1C3
330
1F
100
AcDbEntity
  8
0
  6
Continuous
 62
     7
370
    25
100
AcDbLine
 10
184.2077556818
 20
208.9044107485
 30
0.0
 11
184.7432670455
 21
205.4044107485
 31
0.0
  0
LINE
  5
1C4
330
1F
100
AcDbEntity
  8
0
  6
Continuous
 62
     7
370
    25
100
AcDbLine
 10
183.7432670455
 20
208.9044107485
 30
0.0
 11
184.2077556818
 21
208.9044107485
 31
0.0
  0
LINE
  5
1C5
330
1F
100
AcDbEntity
  8
0
  6
Continuous
 62
     7
370
    25
100
AcDbLine
 10
182.2141477273
 20
205.4044107485
 30
0.0
 11
183.7432670455
 21
208.9044107485
 31
0.0
  0
SPLINE
  5
1C6
330
1F
100
AcDbEntity
  8
0
  6
Continuous
 62
     7
370
    25
100
AcDbSpline
210
0.0
220
0.0
230
1.0
 70
     8
 71
     3
 72
    23
 73
    19
 74
     0
 42
0.000000001
 43
0.00000001
 40
0.0
 40
0.0
 40
0.0
 40
0.0
 40
0.0759971182937072
 40
0.1458615052441966
 40
0.2093459961738557
 40
0.2665927078770796
 40
0.318313269229692
 40
0.3636868813396817
 40
0.4037158194105149
 40
0.4377558664539997
 40
0.5011824643789073
 40
0.5653456709679922
 40
0.6311669200577735
 40
0.699697442813405
 40
0.7706078368709492
 40
0.8439607273006215
 40
0.920277420197674
 40
1.0
 40
1.0
 40
1.0
 40
1.0
 10
186.1765056818182
 20
206.9427630211815
 30
0.0
 10
186.1477783915498
 20
206.9580041787463
 30
0.0
 10
186.0926420140895
 20
206.9872565798107
 30
0.0
 10
186.0148001757695
 20
207.0315739045353
 30
0.0
 10
185.9440098487433
 20
207.0721165872549
 30
0.0
 10
185.8822193050403
 20
207.1124759254675
 30
0.0
 10
185.8274396994715
 20
207.1494104833387
 30
0.0
 10
185.7810924926682
 20
207.1854125745878
 30
0.0
 10
185.7417252210367
 20
207.2180874295733
 30
0.0
 10
185.7006968191385
 20
207.260379631116
 30
0.0
 10
185.6581858784473
 20
207.3151426215435
 30
0.0
 10
185.6139446576872
 20
207.3852085712417
 30
0.0
 10
185.5754443766564
 20
207.461051440457
 30
0.0
 10
185.5426631430512
 20
207.542669656478
 30
0.0
 10
185.5172727882403
 20
207.6302615505169
 30
0.0
 10
185.498996959989
 20
207.7229357634815
 30
0.0
 10
185.4871809174894
 20
207.8205360626933
 30
0.0
 10
185.48603831603
 20
207.8873301819583
 30
0.0
 10
185.4854545454545
 20
207.9214562029997
 30
0.0
  0
SPLINE
  5
1C7
330
1F
100
AcDbEntity
  8
0
  6
Continuous
 62
     7
370
    25
100
AcDbSpline
210
0.0
220
0.0
230
1.0
 70
     8
 71
     3
 72
    15
 73
    11
 74
     0
 42
0.000000001
 43
0.00000001
 40
0.0
 40
0.0
 40
0.0
 40
0.0
 40
0.068475416635401
 40
0.1523118016416684
 40
0.2524779237969348
 40
0.3687380718314044
 40
0.5019629055857925
 40
0.6512336726315756
 40
0.8175311130318154
 40
1.0
 40
1.0
 40
1.0
 40
1.0
 10
186.8036363636363
 20
206.5784164302724
 30
0.0
 10
186.7904734459171
 20
206.5884900113024
 30
0.0
 10
186.7611947965684
 20
206.6108969618704
 30
0.0
 10
186.7103323936487
 20
206.6448312229888
 30
0.0
 10
186.6483928047666
 20
206.6828333809185
 30
0.0
 10
186.5757746702355
 20
206.7262768958535
 30
0.0
 10
186.4922701128658
 20
206.7746730641004
 30
0.0
 10
186.3966255512397
 20
206.8261625761488
 30
0.0
 10
186.2902964644285
 20
206.8829204979418
 30
0.0
 10
186.2155905859996
 20
206.9222082870181
 30
0.0
 10
186.1765056818182
 20
206.9427630211815
 30
0.0
  0
SPLINE
  5
1C8
330
1F
100
AcDbEntity
  8
0
  6
Continuous
 62
     7
370
    25
100
AcDbSpline
210
0.0
220
0.0
230
1.0
 70
     8
 71
     3
 72
    15
 73
    11
 74
     0
 42
0.000000001
 43
0.00000001
 40
0.0
 40
0.0
 40
0.0
 40
0.0
 40
0.1388331307871754
 40
0.2727325342737675
 40
0.39900610699776
 40
0.5211149485155228
 40
0.6406823640987432
 40
0.7594359250803723
 40
0.877626710221191
 40
1.0
 40
1.0
 40
1.0
 40
1.0
 10
186.94
 20
206.2659164302724
 30
0.0
 10
186.9395994525092
 20
206.2822718405435
 30
0.0
 10
186.9388125918252
 20
206.3144014371824
 30
0.0
 10
186.9324161913256
 20
206.3610649984092
 30
0.0
 10
186.9217575087965
 20
206.4048866151363
 30
0.0
 10
186.9068126063592
 20
206.4456722405589
 30
0.0
 10
186.8874978525376
 20
206.4835795160224
 30
0.0
 10
186.8641064162908
 20
206.5185837715706
 30
0.0
 10
186.835857908085
 20
206.5502900412171
 30
0.0
 10
186.8145006525728
 20
206.5689329240449
 30
0.0
 10
186.8036363636363
 20
206.5784164302724
 30
0.0
  0
SPLINE
  5
1C9
330
1F
100
AcDbEntity
  8
0
  6
Continuous
 62
     7
370
    25
100
AcDbSpline
210
0.0
220
0.0
230
1.0
 70
     8
 71
     3
 72
    23
 73
    19
 74
     0
 42
0.000000001
 43
0.00000001
 40
0.0
 40
0.0
 40
0.0
 40
0.0
 40
0.0788743244917973
 40
0.1532382342519452
 40
0.2234665353502315
 40
0.2915613871494085
 40
0.3556867428150667
 40
0.4182903149954612
 40
0.4785821349530768
 40
0.5382752558173564
 40
0.5968907653170947
 40
0.6534382912727891
 40
0.709664456654653
 40
0.7654283230060938
 40
0.821452701960237
 40
0.8786205534584056
 40
0.9380093374193239
 40
1.0
 40
1.0
 40
1.0
 40
1.0
 10
186.3363068181818
 20
205.7680471120906
 30
0.0
 10
186.3595224929849
 20
205.7684337055712
 30
0.0
 10
186.4046262582052
 20
205.7691847852506
 30
0.0
 10
186.4701545187359
 20
205.7756242900597
 30
0.0
 10
186.5318699575577
 20
205.7863487368562
 30
0.0
 10
186.5897089934155
 20
205.8009114753862
 30
0.0
 10
186.6438425715477
 20
205.8201533695633
 30
0.0
 10
186.693328517314
 20
205.8444488042438
 30
0.0
 10
186.7394140592448
 20
205.8722493757855
 30
0.0
 10
186.781194751725
 20
205.9042780022593
 30
0.0
 10
186.8189775501443
 20
205.9394072133036
 30
0.0
 10
186.8509945340361
 20
205.9784912042985
 30
0.0
 10
186.8792500170793
 20
206.0194221081457
 30
0.0
 10
186.9007678697342
 20
206.064055427107
 30
0.0
 10
186.919325468381
 20
206.1103095524579
 30
0.0
 10
186.9307073609627
 20
206.1599220081066
 30
0.0
 10
186.9392729400266
 20
206.2118786846155
 30
0.0
 10
186.9397542078711
 20
206.2476482639192
 30
0.0
 10
186.94
 20
206.2659164302724
 30
0.0
  0
SPLINE
  5
1CA
330
1F
100
AcDbEntity
  8
0
  6
Continuous
 62
     7
370
    25
100
AcDbSpline
210
0.0
220
0.0
230
1.0
 70
     8
 71
     3
 72
    19
 73
    15
 74
     0
 42
0.000000001
 43
0.00000001
 40
0.0
 40
0.0
 40
0.0
 40
0.0
 40
0.0821801282358595
 40
0.1628997848937304
 40
0.2433293951352173
 40
0.3249845876517201
 40
0.4061546472060679
 40
0.485584293933231
 40
0.5655973110383354
 40
0.6479223453123701
 40
0.7317774646712778
 40
0.8174304321967999
 40
0.9068975010635278
 40
1.0
 40
1.0
 40
1.0
 40
1.0
 10
185.6651420454545
 20
206.4058312029997
 30
0.0
 10
185.6660071367258
 20
206.3773433118128
 30
0.0
 10
185.6677219452206
 20
206.3208738045726
 30
0.0
 10
185.6842305798519
 20
206.237910718313
 30
0.0
 10
185.7096415875788
 20
206.1575631498215
 30
0.0
 10
185.7460310420599
 20
206.0813537357717
 30
0.0
 10
185.7906999616284
 20
206.0099881669975
 30
0.0
 10
185.8465737867698
 20
205.9477243402501
 30
0.0
 10
185.9102440954924
 20
205.892980945861
 30
0.0
 10
185.9828549682006
 20
205.8476817057983
 30
0.0
 10
186.0628111942506
 20
205.8122125565089
 30
0.0
 10
186.1489613997005
 20
205.7866383756774
 30
0.0
 10
186.2407743046293
 20
205.770578541141
 30
0.0
 10
186.3040427014484
 20
205.7689020495286
 30
0.0
 10
186.3363068181818
 20
205.7680471120906
 30
0.0
  0
LINE
  5
1CB
330
1F
100
AcDbEntity
  8
0
  6
Continuous
 62
     7
370
    25
100
AcDbLine
 10
185.6672727273
 20
206.4860868848
 30
0.0
 11
185.6651420455
 21
206.405831203
 31
0.0
  0
LINE
  5
1CC
330
1F
100
AcDbEntity
  8
0
  6
Continuous
 62
     7
370
    25
100
AcDbLine
 10
185.3036363636
 20
206.4498652939
 30
0.0
 11
185.6672727273
 21
206.4860868848
 31
0.0
  0
LINE
  5
1CD
330
1F
100
AcDbEntity
  8
0
  6
Continuous
 62
     7
370
    25
100
AcDbLine
 10
185.3015056818
 20
206.3731607485
 30
0.0
 11
185.3036363636
 21
206.4498652939
 31
0.0
  0
SPLINE
  5
1CE
330
1F
100
AcDbEntity
  8
0
  6
Continuous
 62
     7
370
    25
100
AcDbSpline
210
0.0
220
0.0
230
1.0
 70
     8
 71
     3
 72
    19
 73
    15
 74
     0
 42
0.000000001
 43
0.00000001
 40
0.0
 40
0.0
 40
0.0
 40
0.0
 40
0.093704771103123
 40
0.1814612720743209
 40
0.2647014142339197
 40
0.3446980461374637
 40
0.4232925716077238
 40
0.5019938573241788
 40
0.5818721705960282
 40
0.6650009329264169
 40
0.7493238967177924
 40
0.8324096915429385
 40
0.915481546188209
 40
0.9999999999999999
 40
0.9999999999999999
 40
0.9999999999999999
 40
0.9999999999999999
 10
186.3242329545454
 20
205.3589562029997
 30
0.0
 10
186.2737163171021
 20
205.3603701758199
 30
0.0
 10
186.1758897797393
 20
205.3631083641066
 30
0.0
 10
186.0346733540728
 20
205.3866350243075
 30
0.0
 10
185.9050940484695
 20
205.4266084866642
 30
0.0
 10
185.7863356962404
 20
205.4813820482454
 30
0.0
 10
185.6795326618085
 20
205.552574129669
 30
0.0
 10
185.5842371211281
 20
205.6384479141816
 30
0.0
 10
185.5013962807234
 20
205.7394816050262
 30
0.0
 10
185.4300266522622
 20
205.8524385521696
 30
0.0
 10
185.373069690946
 20
205.9752458167088
 30
0.0
 10
185.3313461719666
 20
206.1039325180458
 30
0.0
 10
185.3066790990896
 20
206.2372760176546
 30
0.0
 10
185.3032400492585
 20
206.3276059361563
 30
0.0
 10
185.3015056818182
 20
206.3731607484542
 30
0.0
  0
SPLINE
  5
1CF
330
1F
100
AcDbEntity
  8
0
  6
Continuous
 62
     7
370
    25
100
AcDbSpline
210
0.0
220
0.0
230
1.0
 70
     8
 71
     3
 72
    23
 73
    19
 74
     0
 42
0.000000001
 43
0.00000001
 40
0.0
 40
0.0
 40
0.0
 40
0.0
 40
0.0666934546844498
 40
0.1310220238068358
 40
0.1926333827530883
 40
0.2524602873052748
 40
0.3112714121821651
 40
0.3697697244766112
 40
0.4280169499381788
 40
0.4873847897951774
 40
0.5468257337801715
 40
0.6064162608590402
 40
0.6668857463861668
 40
0.7280727309168267
 40
0.7917635617125142
 40
0.8578355336719181
 40
0.9272537158237347
 40
1.0
 40
1.0
 40
1.0
 40
1.0
 10
187.3036363636363
 20
206.2879334757269
 30
0.0
 10
187.3027721171768
 20
206.254047292533
 30
0.0
 10
187.3010742696035
 20
206.1874764975101
 30
0.0
 10
187.289109819737
 20
206.090146684684
 30
0.0
 10
187.2683004394609
 20
205.9979600064096
 30
0.0
 10
187.2400591577172
 20
205.9106798215392
 30
0.0
 10
187.2028847268815
 20
205.8285169329412
 30
0.0
 10
187.1573756592562
 20
205.7515811903956
 30
0.0
 10
187.1033018743243
 20
205.6801150385426
 30
0.0
 10
187.0427767674433
 20
205.6133584426618
 30
0.0
 10
186.974339984955
 20
205.5536245751785
 30
0.0
 10
186.8993324526985
 20
205.5014090731354
 30
0.0
 10
186.8181235304178
 20
205.4576789308226
 30
0.0
 10
186.7313521602895
 20
205.4206443899481
 30
0.0
 10
186.6380030455745
 20
205.3935217087338
 30
0.0
 10
186.5386963879259
 20
205.3736266920123
 30
0.0
 10
186.4334357461318
 20
205.3614261494653
 30
0.0
 10
186.3611975888922
 20
205.3597922683294
 30
0.0
 10
186.3242329545454
 20
205.3589562029997
 30
0.0
  0
SPLINE
  5
1D0
330
1F
100
AcDbEntity
  8
0
  6
Continuous
 62
     7
370
    25
100
AcDbSpline
210
0.0
220
0.0
230
1.0
 70
     8
 71
     3
 72
    15
 73
    11
 74
     0
 42
0.000000001
 43
0.00000001
 40
0.0
 40
0.0
 40
0.0
 40
0.0
 40
0.1395177794906584
 40
0.2704089020153985
 40
0.3947415535738415
 40
0.513130887852623
 40
0.630360999034714
 40
0.7486905623727571
 40
0.8719598426545057
 40
1.0
 40
1.0
 40
1.0
 40
1.0
 10
186.8917045454545
 20
207.0528482484542
 30
0.0
 10
186.9252109186946
 20
207.0272784973697
 30
0.0
 10
186.9901519006359
 20
206.9777200228811
 30
0.0
 10
187.0750952869108
 20
206.8937165799325
 30
0.0
 10
187.1467905945895
 20
206.8063925066196
 30
0.0
 10
187.2047576093761
 20
206.7140951368185
 30
0.0
 10
187.2489043992046
 20
206.6165032718271
 30
0.0
 10
187.2816719993469
 20
206.5129656906749
 30
0.0
 10
187.2998484026116
 20
206.4024485651752
 30
0.0
 10
187.3023578302412
 20
206.3265852372306
 30
0.0
 10
187.3036363636363
 20
206.2879334757269
 30
0.0
  0
SPLINE
  5
1D1
330
1F
100
AcDbEntity
  8
0
  6
Continuous
 62
     7
370
    25
100
AcDbSpline
210
0.0
220
0.0
230
1.0
 70
     8
 71
     3
 72
    15
 73
    11
 74
     0
 42
0.000000001
 43
0.00000001
 40
0.0
 40
0.0
 40
0.0
 40
0.0
 40
0.1726418875523976
 40
0.3309193384753099
 40
0.4766517779054696
 40
0.6080914625119239
 40
0.7270042168469067
 40
0.8309993185236452
 40
0.9224993359265528
 40
1.0
 40
1.0
 40
1.0
 40
1.0
 10
186.4542045454545
 20
207.3063993848178
 30
0.0
 10
186.4800806531008
 20
207.2930376932398
 30
0.0
 10
186.5296798815731
 20
207.2674260517046
 30
0.0
 10
186.5999918083917
 20
207.2284297525042
 30
0.0
 10
186.6646986867544
 20
207.1936537778895
 30
0.0
 10
186.7222117486039
 20
207.1596461284076
 30
0.0
 10
186.7739735134408
 20
207.1297434172923
 30
0.0
 10
186.8188347893746
 20
207.1014654835128
 30
0.0
 10
186.8581038372505
 20
207.0773651940065
 30
0.0
 10
186.8811403954158
 20
207.0605564398927
 30
0.0
 10
186.8917045454545
 20
207.0528482484542
 30
0.0
  0
SPLINE
  5
1D2
330
1F
100
AcDbEntity
  8
0
  6
Continuous
 62
     7
370
    25
100
AcDbSpline
210
0.0
220
0.0
230
1.0
 70
     8
 71
     3
 72
    15
 73
    11
 74
     0
 42
0.000000001
 43
0.00000001
 40
0.0
 40
0.0
 40
0.0
 40
0.0
 40
0.0716554735848559
 40
0.1570520993964977
 40
0.2575314687216467
 40
0.3738636975007327
 40
0.5061246569992689
 40
0.6544903653502863
 40
0.8190851814102
 40
1.0
 40
1.0
 40
1.0
 40
1.0
 10
185.9435511363636
 20
207.6487289302724
 30
0.0
 10
185.9529846354746
 20
207.6373381248699
 30
0.0
 10
185.9736606671291
 20
207.6123721339584
 30
0.0
 10
186.0140149529388
 20
207.5776700091226
 30
0.0
 10
186.0619970543654
 20
207.5379836824796
 30
0.0
 10
186.1215303774936
 20
207.4974570758673
 30
0.0
 10
186.1904227477147
 20
207.4533749995492
 30
0.0
 10
186.2694163875181
 20
207.4066738307886
 30
0.0
 10
186.3582193999844
 20
207.3569471525734
 30
0.0
 10
186.4212175991354
 20
207.3237709946991
 30
0.0
 10
186.4542045454545
 20
207.3063993848178
 30
0.0
  0
SPLINE
  5
1D3
330
1F
100
AcDbEntity
  8
0
  6
Continuous
 62
     7
370
    25
100
AcDbSpline
210
0.0
220
0.0
230
1.0
 70
     8
 71
     3
 72
    11
 73
     7
 74
     0
 42
0.000000001
 43
0.00000001
 40
0.0
 40
0.0
 40
0.0
 40
0.0
 40
0.2623513372930009
 40
0.5126828216524114
 40
0.7553307468634723
 40
1.0
 40
1.0
 40
1.0
 40
1.0
 10
185.8490909090909
 20
207.9548368848179
 30
0.0
 10
185.8500681342212
 20
207.9263264234268
 30
0.0
 10
185.851977812069
 20
207.8706117320384
 30
0.0
 10
185.8702643253171
 20
207.7902388131029
 30
0.0
 10
185.9001816251908
 20
207.7154783000093
 30
0.0
 10
185.9290547120432
 20
207.6710401613805
 30
0.0
 10
185.9435511363636
 20
207.6487289302724
 30
0.0
  0
SPLINE
  5
1D4
330
1F
100
AcDbEntity
  8
0
  6
Continuous
 62
     7
370
    25
100
AcDbSpline
210
0.0
220
0.0
230
1.0
 70
     8
 71
     3
 72
    23
 73
    19
 74
     0
 42
0.000000001
 43
0.00000001
 40
0.0
 40
0.0
 40
0.0
 40
0.0
 40
0.0771040173472127
 40
0.1511069390552304
 40
0.2210116082551463
 40
0.2881109265279211
 40
0.3536580073187803
 40
0.4164274427866973
 40
0.4788528299699051
 40
0.5405268348779404
 40
0.600858506263427
 40
0.6589152508298256
 40
0.7153975198825784
 40
0.7714085341165389
 40
0.8267308098742301
 40
0.8829695292380708
 40
0.9407688871594055
 40
1.0
 40
1.0
 40
1.0
 40
1.0
 10
186.5593181818182
 20
208.5407743848179
 30
0.0
 10
186.5327829557094
 20
208.5401989727932
 30
0.0
 10
186.4807797406708
 20
208.5390712916072
 30
0.0
 10
186.4050572528056
 20
208.5311602154493
 30
0.0
 10
186.3334572553246
 20
208.518658318153
 30
0.0
 10
186.2661482412142
 20
208.5000971749565
 30
0.0
 10
186.203293851924
 20
208.4759492141125
 30
0.0
 10
186.1441283536882
 20
208.4473502121544
 30
0.0
 10
186.0892745763542
 20
208.4134863226136
 30
0.0
 10
186.0398581556298
 20
208.373445528919
 30
0.0
 10
185.9953291954767
 20
208.3302895669181
 30
0.0
 10
185.9556737219543
 20
208.2848647929445
 30
0.0
 10
185.922901170889
 20
208.2360203822613
 30
0.0
 10
185.8957085019017
 20
208.1849485415171
 30
0.0
 10
185.8749732494122
 20
208.1309855240499
 30
0.0
 10
185.8601462468724
 20
208.0745489262051
 30
0.0
 10
185.8504866110576
 20
208.0155372365323
 30
0.0
 10
185.8495599221282
 20
207.9752346896508
 30
0.0
 10
185.8490909090909
 20
207.9548368848179
 30
0.0
  0
SPLINE
  5
1D5
330
1F
100
AcDbEntity
  8
0
  6
Continuous
 62
     7
370
    25
100
AcDbSpline
210
0.0
220
0.0
230
1.0
 70
     8
 71
     3
 72
    15
 73
    11
 74
     0
 42
0.000000001
 43
0.00000001
 40
0.0
 40
0.0
 40
0.0
 40
0.0
 40
0.101632588254902
 40
0.2071784412693466
 40
0.3190021679967128
 40
0.4408272229545646
 40
0.5695581242190477
 40
0.7044896318148134
 40
0.8478065612669241
 40
1.0
 40
1.0
 40
1.0
 40
1.0
 10
187.2105965909091
 20
208.2382175666361
 30
0.0
 10
187.1974159052015
 20
208.2601075370713
 30
0.0
 10
187.1705470241995
 20
208.304730330135
 30
0.0
 10
187.11406686965
 20
208.3622443497675
 30
0.0
 10
187.0462499579028
 20
208.4138280661811
 30
0.0
 10
186.96699084751
 20
208.4587519263696
 30
0.0
 10
186.8774555624199
 20
208.4958773768378
 30
0.0
 10
186.778489570244
 20
208.5215326240154
 30
0.0
 10
186.6716485438628
 20
208.5385594837724
 30
0.0
 10
186.5975040176533
 20
208.5400214463765
 30
0.0
 10
186.5593181818182
 20
208.5407743848179
 30
0.0
  0
SPLINE
  5
1D6
330
1F
100
AcDbEntity
  8
0
  6
Continuous
 62
     7
370
    25
100
AcDbSpline
210
0.0
220
0.0
230
1.0
 70
     8
 71
     3
 72
    11
 73
     7
 74
     0
 42
0.000000001
 43
0.00000001
 40
0.0
 40
0.0
 40
0.0
 40
0.0
 40
0.2636440923137342
 40
0.5155515481879305
 40
0.7605841254471137
 40
1.0
 40
1.0
 40
1.0
 40
1.0
 10
187.3064772727272
 20
207.8355187029997
 30
0.0
 10
187.3056011416172
 20
207.872313882402
 30
0.0
 10
187.3038878821003
 20
207.9442662312683
 30
0.0
 10
187.2841348935251
 20
208.0487221052636
 30
0.0
 10
187.2556302341677
 20
208.1477217910191
 30
0.0
 10
187.2254913283514
 20
208.2082863703144
 30
0.0
 10
187.2105965909091
 20
208.2382175666361
 30
0.0
  0
LINE
  5
1D7
330
1F
100
AcDbEntity
  8
0
  6
Continuous
 62
     7
370
    25
100
AcDbLine
 10
187.3036363636
 20
207.7225925666
 30
0.0
 11
187.3064772727
 21
207.835518703
 31
0.0
  0
LINE
  5
1D8
330
1F
100
AcDbEntity
  8
0
  6
Continuous
 62
     7
370
    25
100
AcDbLine
 10
187.6672727273
 20
207.765206203
 30
0.0
 11
187.3036363636
 21
207.7225925666
 31
0.0
  0
SPLINE
  5
1D9
330
1F
100
AcDbEntity
  8
0
  6
Continuous
 62
     7
370
    25
100
AcDbSpline
210
0.0
220
0.0
230
1.0
 70
     8
 71
     3
 72
    23
 73
    19
 74
     0
 42
0.000000001
 43
0.00000001
 40
0.0
 40
0.0
 40
0.0
 40
0.0
 40
0.0698134016162514
 40
0.1357560403050075
 40
0.1982791963763496
 40
0.2578008330946323
 40
0.3144991381795984
 40
0.3697276476210715
 40
0.4238622803433943
 40
0.4773340150096278
 40
0.5317766027442765
 40
0.5878065351004035
 40
0.6465971391529165
 40
0.7085484232541991
 40
0.7742800124540353
 40
0.8446267329969527
 40
0.9197710936592457
 40
0.9999999999999999
 40
0.9999999999999999
 40
0.9999999999999999
 40
0.9999999999999999
 10
186.5834659090909
 20
208.9498652939088
 30
0.0
 10
186.6263529584794
 20
208.9491460042669
 30
0.0
 10
186.7097492100667
 20
208.9477473055735
 30
0.0
 10
186.8309464701952
 20
208.9340872643942
 30
0.0
 10
186.9442927211506
 20
208.9114612687819
 30
0.0
 10
187.049717698436
 20
208.8803625996734
 30
0.0
 10
187.1475360592401
 20
208.8407522868107
 30
0.0
 10
187.2365669133372
 20
208.790515928339
 30
0.0
 10
187.3180960682317
 20
208.73225692368
 30
0.0
 10
187.3915125466617
 20
208.6646713536465
 30
0.0
 10
187.4565133936663
 20
208.5874310929514
 30
0.0
 10
187.5130276585994
 20
208.4998634479081
 30
0.0
 10
187.5604538972644
 20
208.4019442943192
 30
0.0
 10
187.5993555651552
 20
208.2940599509727
 30
0.0
 10
187.6300829004518
 20
208.1761886753383
 30
0.0
 10
187.6504386175036
 20
208.0479551724471
 30
0.0
 10
187.6644307873993
 20
207.9099231921347
 30
0.0
 10
187.6663049699524
 20
207.814486248266
 30
0.0
 10
187.6672727272727
 20
207.7652062029997
 30
0.0
  0
SPLINE
  5
1DA
330
1F
100
AcDbEntity
  8
0
  6
Continuous
 62
     7
370
    25
100
AcDbSpline
210
0.0
220
0.0
230
1.0
 70
     8
 71
     3
 72
    23
 73
    19
 74
     0
 42
0.000000001
 43
0.00000001
 40
0.0
 40
0.0
 40
0.0
 40
0.0
 40
0.0640634305032973
 40
0.1261069565219161
 40
0.1862559074706988
 40
0.2452488267937791
 40
0.3040053971388849
 40
0.3631423702007615
 40
0.4231851342172748
 40
0.4845391386303137
 40
0.5466026607212815
 40
0.6079292120606076
 40
0.669555636425023
 40
0.7315848755882627
 40
0.7951036667408259
 40
0.8609141306758209
 40
0.928802164200483
 40
1.0
 40
1.0
 40
1.0
 40
1.0
 10
185.4854545454545
 20
207.9214562029997
 30
0.0
 10
185.4864254277168
 20
207.9574904829619
 30
0.0
 10
185.4883365805581
 20
208.0284228907458
 30
0.0
 10
185.5029427638101
 20
208.1323390705147
 30
0.0
 10
185.5260047326149
 20
208.2317459439024
 30
0.0
 10
185.5598748435476
 20
208.3260999116654
 30
0.0
 10
185.6027032609215
 20
208.4160285108458
 30
0.0
 10
185.6546047208773
 20
208.501806251545
 30
0.0
 10
185.7169142801687
 20
208.5822028538744
 30
0.0
 10
185.7878766461307
 20
208.6572813879282
 30
0.0
 10
185.8661157629556
 20
208.725860170682
 30
0.0
 10
185.9511612618735
 20
208.7861804159429
 30
0.0
 10
186.0425434968036
 20
208.8362069522111
 30
0.0
 10
186.138899644288
 20
208.878967466394
 30
0.0
 10
186.2419728629497
 20
208.9107247181948
 30
0.0
 10
186.3507171938687
 20
208.9328824947888
 30
0.0
 10
186.4651473273911
 20
208.9479985476545
 30
0.0
 10
186.5434056155606
 20
208.9492332511491
 30
0.0
 10
186.5834659090909
 20
208.9498652939088
 30
0.0
  0
SPLINE
  5
1DB
330
1F
100
AcDbEntity
  8
0
  6
Continuous
 62
     7
370
    25
100
AcDbSpline
210
0.0
220
0.0
230
1.0
 70
     8
 71
     3
 72
    23
 73
    19
 74
     0
 42
0.000000001
 43
0.00000001
 40
0.0
 40
0.0
 40
0.0
 40
0.0
 40
0.0911126537636148
 40
0.1765800696039826
 40
0.2556845860823204
 40
0.3297893522729339
 40
0.3981379158075909
 40
0.4620790670543468
 40
0.5214380676844854
 40
0.5768138317737721
 40
0.6303117502478065
 40
0.6822058483736754
 40
0.7332336985795439
 40
0.7847403808678604
 40
0.8364741952409217
 40
0.8892249475537716
 40
0.943603670525443
 40
1.0
 40
1.0
 40
1.0
 40
1.0
 10
194.9584659090909
 20
207.9697516575451
 30
0.0
 10
194.9663428438562
 20
208.0126832442863
 30
0.0
 10
194.9816086673357
 20
208.0958864247646
 30
0.0
 10
195.0103872954975
 20
208.2150380714139
 30
0.0
 10
195.0444556207755
 20
208.3242082733026
 30
0.0
 10
195.079631315114
 20
208.4244124345734
 30
0.0
 10
195.120431955553
 20
208.5146104764498
 30
0.0
 10
195.1649668896762
 20
208.5949986273805
 30
0.0
 10
195.2131746253067
 20
208.6659118307116
 30
0.0
 10
195.2657895916008
 20
208.7271578461622
 30
0.0
 10
195.3219941152261
 20
208.7800492750532
 30
0.0
 10
195.3822538411512
 20
208.8247930701273
 30
0.0
 10
195.4452537886016
 20
208.8637393143718
 30
0.0
 10
195.5119752090432
 20
208.8958947162116
 30
0.0
 10
195.582878943668
 20
208.9200331455642
 30
0.0
 10
195.6571904162002
 20
208.9367985426944
 30
0.0
 10
195.7348816693258
 20
208.9479745004762
 30
0.0
 10
195.7879715713196
 20
208.9492274227123
 30
0.0
 10
195.815
 20
208.9498652939088
 30
0.0
  0
LINE
  5
1DC
330
1F
100
AcDbEntity
  8
0
  6
Continuous
 62
     7
370
    25
100
AcDbLine
 10
194.5252272727
 20
205.4044107485
 30
0.0
 11
194.9584659091
 21
207.9697516575
 31
0.0
  0
LINE
  5
1DD
330
1F
100
AcDbEntity
  8
0
  6
Continuous
 62
     7
370
    25
100
AcDbLine
 10
194.8938352273
 20
205.4044107485
 30
0.0
 11
194.5252272727
 21
205.4044107485
 31
0.0
  0
LINE
  5
1DE
330
1F
100
AcDbEntity
  8
0
  6
Continuous
 62
     7
370
    25
100
AcDbLine
 10
195.3135795455
 20
207.882393703
 30
0.0
 11
194.8938352273
 21
205.4044107485
 31
0.0
  0
SPLINE
  5
1DF
330
1F
100
AcDbEntity
  8
0
  6
Continuous
 62
     7
370
    25
100
AcDbSpline
210
0.0
220
0.0
230
1.0
 70
     8
 71
     3
 72
    23
 73
    19
 74
     0
 42
0.000000001
 43
0.00000001
 40
0.0
 40
0.0
 40
0.0
 40
0.0
 40
0.0631846891658384
 40
0.1250224895901023
 40
0.185101943370911
 40
0.246089838324276
 40
0.3071184733589752
 40
0.3701258983966846
 40
0.4358744649828323
 40
0.5065775414682037
 40
0.5457221382137274
 40
0.5911144757929374
 40
0.6432179052634472
 40
0.7013632099082898
 40
0.7663656625718462
 40
0.8373319027826919
 40
0.9152471708503329
 40
1.0
 40
1.0
 40
1.0
 40
1.0
 10
195.7915625
 20
208.5407743848179
 30
0.0
 10
195.772576201539
 20
208.5400976027078
 30
0.0
 10
195.7350083297486
 20
208.5387584652453
 30
0.0
 10
195.6802029124583
 20
208.5279603526156
 30
0.0
 10
195.628231960928
 20
208.5097797324061
 30
0.0
 10
195.5791194703332
 20
208.4852306194608
 30
0.0
 10
195.5339777539928
 20
208.452518253169
 30
0.0
 10
195.492161488232
 20
208.4134520297786
 30
0.0
 10
195.456052837186
 20
208.3653896987602
 30
0.0
 10
195.4287310904438
 20
208.3201670827859
 30
0.0
 10
195.4088900571432
 20
208.2779061226028
 30
0.0
 10
195.3950588587655
 20
208.2392295316171
 30
0.0
 10
195.3809814756399
 20
208.1946543619664
 30
0.0
 10
195.3667916287843
 20
208.1439605816744
 30
0.0
 10
195.3525591319538
 20
208.0874139360596
 30
0.0
 10
195.3393264632275
 20
208.0245480197751
 30
0.0
 10
195.3255733587602
 20
207.9557341647307
 30
0.0
 10
195.3176879675871
 20
207.9075161197415
 30
0.0
 10
195.3135795454545
 20
207.8823937029997
 30
0.0
  0
SPLINE
  5
1E0
330
1F
100
AcDbEntity
  8
0
  6
Continuous
 62
     7
370
    25
100
AcDbSpline
210
0.0
220
0.0
230
1.0
 70
     8
 71
     3
 72
    15
 73
    11
 74
     0
 42
0.000000001
 43
0.00000001
 40
0.0
 40
0.0
 40
0.0
 40
0.0
 40
0.1484990052884188
 40
0.2825157645263471
 40
0.4071628118033749
 40
0.526582969220794
 40
0.6434294538395922
 40
0.7566073868398492
 40
0.8747372118289284
 40
1.0
 40
1.0
 40
1.0
 40
1.0
 10
196.1672727272727
 20
208.1181891575451
 30
0.0
 10
196.166271582382
 20
208.1498032453287
 30
0.0
 10
196.1643669284508
 20
208.2099482824124
 30
0.0
 10
196.1439458769461
 20
208.294636722295
 30
0.0
 10
196.1114705671211
 20
208.368705083838
 30
0.0
 10
196.0651750940637
 20
208.4306791797278
 30
0.0
 10
196.0089132235674
 20
208.4799597006262
 30
0.0
 10
195.9437016309345
 20
208.5161381892546
 30
0.0
 10
195.8699723597706
 20
208.5367843340607
 30
0.0
 10
195.8182048267352
 20
208.5394186339433
 30
0.0
 10
195.7915625
 20
208.5407743848179
 30
0.0
  0
SPLINE
  5
1E1
330
1F
100
AcDbEntity
  8
0
  6
Continuous
 62
     7
370
    25
100
AcDbSpline
210
0.0
220
0.0
230
1.0
 70
     8
 71
     3
 72
    11
 73
     7
 74
     0
 42
0.000000001
 43
0.00000001
 40
0.0
 40
0.0
 40
0.0
 40
0.0
 40
0.3140156463087511
 40
0.5868196412658935
 40
0.8146583949753017
 40
1.0
 40
1.0
 40
1.0
 40
1.0
 10
196.1338920454546
 20
207.8135016575451
 30
0.0
 10
196.1391620731803
 20
207.8451844715399
 30
0.0
 10
196.1490104862
 20
207.9043920230146
 30
0.0
 10
196.1583420318452
 20
207.9871790518632
 30
0.0
 10
196.1657054962167
 20
208.0569832301171
 30
0.0
 10
196.1667874098793
 20
208.0992357932353
 30
0.0
 10
196.1672727272727
 20
208.1181891575451
 30
0.0
  0
LINE
  5
1E2
330
1F
100
AcDbEntity
  8
0
  6
Continuous
 62
     7
370
    25
100
AcDbLine
 10
196.4989488636
 20
207.858956203
 30
0.0
 11
196.1338920455
 21
207.8135016575
 31
0.0
  0
SPLINE
  5
1E3
330
1F
100
AcDbEntity
  8
0
  6
Continuous
 62
     7
370
    25
100
AcDbSpline
210
0.0
220
0.0
230
1.0
 70
     8
 71
     3
 72
     9
 73
     5
 74
     0
 42
0.000000001
 43
0.00000001
 40
0.0
 40
0.0
 40
0.0
 40
0.0
 40
0.5007640933970482
 40
1.0
 40
1.0
 40
1.0
 40
1.0
 10
196.5309090909091
 20
208.1778482484542
 30
0.0
 10
196.5296744426546
 20
208.1242070951087
 30
0.0
 10
196.5272089139341
 20
208.0170884856621
 30
0.0
 10
196.508359278481
 20
207.9116132352589
 30
0.0
 10
196.4989488636364
 20
207.8589562029997
 30
0.0
  0
SPLINE
  5
1E4
330
1F
100
AcDbEntity
  8
0
  6
Continuous
 62
     7
370
    25
100
AcDbSpline
210
0.0
220
0.0
230
1.0
 70
     8
 71
     3
 72
    23
 73
    19
 74
     0
 42
0.000000001
 43
0.00000001
 40
0.0
 40
0.0
 40
0.0
 40
0.0
 40
0.0681299729089231
 40
0.1325358139356433
 40
0.1943163794817937
 40
0.2536925314478427
 40
0.3112245777777531
 40
0.367698869088073
 40
0.4240706464046171
 40
0.4802274715617593
 40
0.5368722072480022
 40
0.5945107860407399
 40
0.653827868998958
 40
0.7160607141225852
 40
0.781127200704778
 40
0.8497595684802682
 40
0.922401829661724
 40
1.0
 40
1.0
 40
1.0
 40
1.0
 10
195.815
 20
208.9498652939088
 30
0.0
 10
195.8422495998075
 20
208.9493963160526
 30
0.0
 10
195.8952592772771
 20
208.9484839956856
 30
0.0
 10
195.9725758519959
 20
208.9391901624418
 30
0.0
 10
196.0450560629753
 20
208.9231281587832
 30
0.0
 10
196.113879444511
 20
208.9033866384988
 30
0.0
 10
196.1773011973647
 20
208.8749571370086
 30
0.0
 10
196.2368528640672
 20
208.8416640058716
 30
0.0
 10
196.2915950179641
 20
208.8017409492267
 30
0.0
 10
196.3415257796626
 20
208.7559511267398
 30
0.0
 10
196.386870346131
 20
208.704818256015
 30
0.0
 10
196.4250580596574
 20
208.6466174157813
 30
0.0
 10
196.458015060506
 20
208.5828723926664
 30
0.0
 10
196.4849659412176
 20
208.5131220756545
 30
0.0
 10
196.505322483954
 20
208.4373433981165
 30
0.0
 10
196.5200386830272
 20
208.3560994341709
 30
0.0
 10
196.5296259502651
 20
208.2689856897421
 30
0.0
 10
196.5304720738038
 20
208.2088881979429
 30
0.0
 10
196.5309090909091
 20
208.1778482484542
 30
0.0
  0
LINE
  5
1E5
330
1F
100
AcDbEntity
  8
0
  6
Continuous
 62
     7
370
    25
100
AcDbLine
 10
168.6935511364
 20
207.9498652939
 30
0.0
 11
169.9364488636
 21
207.9498652939
 31
0.0
  0
LINE
  5
1E6
330
1F
100
AcDbEntity
  8
0
  6
Continuous
 62
     7
370
    25
100
AcDbLine
 10
168.5763636364
 20
208.9044107485
 30
0.0
 11
168.6935511364
 21
207.9498652939
 31
0.0
  0
LINE
  5
1E7
330
1F
100
AcDbEntity
  8
0
  6
Continuous
 62
     7
370
    25
100
AcDbLine
 10
168.2105965909
 20
208.9044107485
 30
0.0
 11
168.5763636364
 21
208.9044107485
 31
0.0
  0
LINE
  5
1E8
330
1F
100
AcDbEntity
  8
0
  6
Continuous
 62
     7
370
    25
100
AcDbLine
 10
168.69
 20
205.4044107485
 30
0.0
 11
168.2105965909
 21
208.9044107485
 31
0.0
  0
LINE
  5
1E9
330
1F
100
AcDbEntity
  8
0
  6
Continuous
 62
     7
370
    25
100
AcDbLine
 10
169.1346022727
 20
205.4044107485
 30
0.0
 11
168.69
 21
205.4044107485
 31
0.0
  0
LINE
  5
1EA
330
1F
100
AcDbEntity
  8
0
  6
Continuous
 62
     7
370
    25
100
AcDbLine
 10
170.7603125
 20
208.9044107485
 30
0.0
 11
169.1346022727
 21
205.4044107485
 31
0.0
  0
LINE
  5
1EB
330
1F
100
AcDbEntity
  8
0
  6
Continuous
 62
     7
370
    25
100
AcDbLine
 10
170.3661363636
 20
208.9044107485
 30
0.0
 11
170.7603125
 21
208.9044107485
 31
0.0
  0
LINE
  5
1EC
330
1F
100
AcDbEntity
  8
0
  6
Continuous
 62
     7
370
    25
100
AcDbLine
 10
169.9364488636
 20
207.9498652939
 30
0.0
 11
170.3661363636
 21
208.9044107485
 31
0.0
  0
SPLINE
  5
1ED
330
1F
100
AcDbEntity
  8
0
  6
Continuous
 62
     7
370
    25
100
AcDbSpline
210
0.0
220
0.0
230
1.0
 70
     8
 71
     3
 72
    15
 73
    11
 74
     0
 42
0.000000001
 43
0.00000001
 40
0.0
 40
0.0
 40
0.0
 40
0.0
 40
0.1366486092688848
 40
0.2673174602160044
 40
0.392462286372835
 40
0.5145038537149255
 40
0.6343492826296392
 40
0.7539910928012369
 40
0.8757134371801416
 40
0.9999999999999999
 40
0.9999999999999999
 40
0.9999999999999999
 40
0.9999999999999999
 10
175.8696875
 20
205.8873652939088
 30
0.0
 10
175.8340847784846
 20
205.8453693719728
 30
0.0
 10
175.7644373145023
 20
205.7632152743099
 30
0.0
 10
175.6477627689947
 20
205.6561311003155
 30
0.0
 10
175.5265139284104
 20
205.5638881614938
 30
0.0
 10
175.3988245607543
 20
205.4887800825826
 30
0.0
 10
175.2649213809022
 20
205.4308140779166
 30
0.0
 10
175.1252200655676
 20
205.389453751157
 30
0.0
 10
174.9797600962359
 20
205.363892220947
 30
0.0
 10
174.8806809418295
 20
205.360612935945
 30
0.0
 10
174.830625
 20
205.3589562029997
 30
0.0
  0
SPLINE
  5
1EE
330
1F
100
AcDbEntity
  8
0
  6
Continuous
 62
     7
370
    25
100
AcDbSpline
210
0.0
220
0.0
230
1.0
 70
     8
 71
     3
 72
    15
 73
    11
 74
     0
 42
0.000000001
 43
0.00000001
 40
0.0
 40
0.0
 40
0.0
 40
0.0
 40
0.1409754907900348
 40
0.2756587093978882
 40
0.4052540319038679
 40
0.5296609519050449
 40
0.6505885197244335
 40
0.7685867380843178
 40
0.8846940504466452
 40
0.9999999999999999
 40
0.9999999999999999
 40
0.9999999999999999
 40
0.9999999999999999
 10
176.3490909090909
 20
207.436370975727
 30
0.0
 10
176.3475308286448
 20
207.3586689012772
 30
0.0
 10
176.3444803000749
 20
207.2067328914055
 30
0.0
 10
176.3223892728098
 20
206.9842198419411
 30
0.0
 10
176.2850591983025
 20
206.7730652338967
 30
0.0
 10
176.2323705132187
 20
206.573020400035
 30
0.0
 10
176.1650755793061
 20
206.38411859979
 30
0.0
 10
176.0822515415146
 20
206.2066004427251
 30
0.0
 10
175.985429777717
 20
206.0396043836417
 30
0.0
 10
175.9081790885655
 20
205.9379943684455
 30
0.0
 10
175.8696875
 20
205.8873652939088
 30
0.0
  0
SPLINE
  5
1EF
330
1F
100
AcDbEntity
  8
0
  6
Continuous
 62
     7
370
    25
100
AcDbSpline
210
0.0
220
0.0
230
1.0
 70
     8
 71
     3
 72
    31
 73
    27
 74
     0
 42
0.000000001
 43
0.00000001
 40
0.0
 40
0.0
 40
0.0
 40
0.0
 40
0.0378713464109286
 40
0.0752373637875362
 40
0.1117100053357611
 40
0.1480293779298887
 40
0.1837275779421374
 40
0.2198555742787957
 40
0.2560644308236269
 40
0.2926970928545352
 40
0.3296945900129153
 40
0.3673249162395037
 40
0.4054911409512016
 40
0.4446574501178607
 40
0.4850732355790512
 40
0.5267893868923019
 40
0.5696934240132842
 40
0.6144400279784294
 40
0.6601209498234307
 40
0.7064610481271777
 40
0.7528957169671188
 40
0.8002348284767891
 40
0.8487179112267822
 40
0.8978269804014999
 40
0.9483118590111306
 40
1.0
 40
1.0
 40
1.0
 40
1.0
 10
175.1473863636364
 20
208.9498652939088
 30
0.0
 10
175.1746240402139
 20
208.9492354087039
 30
0.0
 10
175.2287359526649
 20
208.9479840430462
 30
0.0
 10
175.3088633724446
 20
208.940551626517
 30
0.0
 10
175.3867940636351
 20
208.925763839206
 30
0.0
 10
175.4625383803656
 20
208.9068310303795
 30
0.0
 10
175.5365967564183
 20
208.8826950968452
 30
0.0
 10
175.6080113686918
 20
208.8518398595314
 30
0.0
 10
175.6779645195339
 20
208.8163740637744
 30
0.0
 10
175.7455677265053
 20
208.7752571824064
 30
0.0
 10
175.8100431288821
 20
208.7277807284446
 30
0.0
 10
175.8732043259654
 20
208.676657467135
 30
0.0
 10
175.9308968004314
 20
208.6172727366443
 30
0.0
 10
175.9878735851362
 20
208.5545087740752
 30
0.0
 10
176.0396195589822
 20
208.4841507530165
 30
0.0
 10
176.0908021543029
 20
208.4101246804352
 30
0.0
 10
176.1364090854616
 20
208.328908608661
 30
0.0
 10
176.1805757938799
 20
208.243752881877
 30
0.0
 10
176.2201998718649
 20
208.1536216794025
 30
0.0
 10
176.2548816069818
 20
208.0602071076685
 30
0.0
 10
176.2843038895539
 20
207.9637343209009
 30
0.0
 10
176.3075302887625
 20
207.864009042479
 30
0.0
 10
176.3258251770723
 20
207.7613370315729
 30
0.0
 10
176.3395805966386
 20
207.6556654060226
 30
0.0
 10
176.3472908395634
 20
207.5470456634597
 30
0.0
 10
176.3484861934682
 20
207.4735510466532
 30
0.0
 10
176.3490909090909
 20
207.436370975727
 30
0.0
  0
SPLINE
  5
1F0
330
1F
100
AcDbEntity
  8
0
  6
Continuous
 62
     7
370
    25
100
AcDbSpline
210
0.0
220
0.0
230
1.0
 70
     8
 71
     3
 72
    31
 73
    27
 74
     0
 42
0.000000001
 43
0.00000001
 40
0.0
 40
0.0
 40
0.0
 40
0.0
 40
0.0517952777530688
 40
0.1027059929816704
 40
0.1523631572913466
 40
0.2014101515657458
 40
0.249746324964967
 40
0.2974554366623607
 40
0.3448452138587228
 40
0.3920089530556482
 40
0.43832228436165
 40
0.4829040335041055
 40
0.5259902873728425
 40
0.5675157157543341
 40
0.6078447330163519
 40
0.646962767721618
 40
0.6854328466641002
 40
0.7231187995704225
 40
0.7601799669682295
 40
0.7960229833957799
 40
0.8308293117986166
 40
0.8653586757878794
 40
0.8990131680465294
 40
0.9327972666946308
 40
0.9663824943586458
 40
1.0
 40
1.0
 40
1.0
 40
1.0
 10
173.6218181818182
 20
206.9171948393633
 30
0.0
 10
173.6224935958632
 20
206.9657460773555
 30
0.0
 10
173.6238328891961
 20
207.0620193927
 30
0.0
 10
173.6347144939207
 20
207.2045065453368
 30
0.0
 10
173.65247462759
 20
207.3436588362179
 30
0.0
 10
173.6771766767196
 20
207.4793282927039
 30
0.0
 10
173.7094236698823
 20
207.6115010832303
 30
0.0
 10
173.7473965995281
 20
207.7405415481031
 30
0.0
 10
173.7937829836921
 20
207.8656707308805
 30
0.0
 10
173.8471690449828
 20
207.9864804959738
 30
0.0
 10
173.9046506090642
 20
208.1024876553701
 30
0.0
 10
173.9675188719436
 20
208.2112743565241
 30
0.0
 10
174.0332618945387
 20
208.3130422815672
 30
0.0
 10
174.1031862071244
 20
208.4070748316706
 30
0.0
 10
174.1761551703937
 20
208.4939654811044
 30
0.0
 10
174.2532745276552
 20
208.5732707896175
 30
0.0
 10
174.3341149144365
 20
208.6451175441019
 30
0.0
 10
174.4189413823137
 20
208.7090482557361
 30
0.0
 10
174.505897937101
 20
208.7655992849699
 30
0.0
 10
174.5941109713443
 20
208.8148693171711
 30
0.0
 10
174.6836038926642
 20
208.8564358147244
 30
0.0
 10
174.77405588792
 20
208.8904166428718
 30
0.0
 10
174.8659602544928
 20
208.9170082163399
 30
0.0
 10
174.9587756468971
 20
208.9361352048868
 30
0.0
 10
175.0528551776253
 20
208.9479691269282
 30
0.0
 10
175.1158658801282
 20
208.9492330358936
 30
0.0
 10
175.1473863636364
 20
208.9498652939088
 30
0.0
  0
SPLINE
  5
1F1
330
1F
100
AcDbEntity
  8
0
  6
Continuous
 62
     7
370
    25
100
AcDbSpline
210
0.0
220
0.0
230
1.0
 70
     8
 71
     3
 72
    23
 73
    19
 74
     0
 42
0.000000001
 43
0.00000001
 40
0.0
 40
0.0
 40
0.0
 40
0.0
 40
0.0572634327750009
 40
0.1125680570640923
 40
0.1669845284142369
 40
0.2207415784534418
 40
0.2751039573987254
 40
0.3304580237118293
 40
0.3875842853978116
 40
0.4471512336609398
 40
0.5081971405965227
 40
0.5705729247016903
 40
0.6343933180777902
 40
0.7008523166253902
 40
0.770128303681998
 40
0.8428097211193443
 40
0.9193141925768303
 40
1.0
 40
1.0
 40
1.0
 40
1.0
 10
174.830625
 20
205.3589562029997
 30
0.0
 10
174.7884144446402
 20
205.3601526820341
 30
0.0
 10
174.705437229091
 20
205.3625047121814
 30
0.0
 10
174.5835587863673
 20
205.3820594141056
 30
0.0
 10
174.4674964946146
 20
205.4150492440531
 30
0.0
 10
174.3560844764207
 20
205.4597984546058
 30
0.0
 10
174.2508446079786
 20
205.5189180399857
 30
0.0
 10
174.1497350017992
 20
205.5892806710917
 30
0.0
 10
174.0552542593467
 20
205.6741982325034
 30
0.0
 10
173.9659301248946
 20
205.7702098576994
 30
0.0
 10
173.8847642969461
 20
205.8782449224013
 30
0.0
 10
173.8146663703716
 20
205.9973662868075
 30
0.0
 10
173.7545614106877
 20
206.1262006648394
 30
0.0
 10
173.7056247799914
 20
206.2651086188403
 30
0.0
 10
173.6682879029211
 20
206.4142709762929
 30
0.0
 10
173.6415965813964
 20
206.5731398911748
 30
0.0
 10
173.6250118183052
 20
206.7418916662967
 30
0.0
 10
173.6229014396714
 20
206.8577333008686
 30
0.0
 10
173.6218181818182
 20
206.9171948393633
 30
0.0
  0
SPLINE
  5
1F2
330
1F
100
AcDbEntity
  8
0
  6
Continuous
 62
     7
370
    25
100
AcDbSpline
210
0.0
220
0.0
230
1.0
 70
     8
 71
     3
 72
    23
 73
    19
 74
     0
 42
0.000000001
 43
0.00000001
 40
0.0
 40
0.0
 40
0.0
 40
0.0
 40
0.0802326734030886
 40
0.1566863913389074
 40
0.2289346548216596
 40
0.2981581398344674
 40
0.3650796822572296
 40
0.4297252619193052
 40
0.492502448741389
 40
0.5545694486634416
 40
0.6151555615502389
 40
0.6729060019049423
 40
0.7287300999690447
 40
0.7826770297091754
 40
0.8362747229524126
 40
0.8900406382016054
 40
0.9441869325498206
 40
1.0
 40
1.0
 40
1.0
 40
1.0
 10
173.9854545454546
 20
206.878842566636
 30
0.0
 10
173.9863829772571
 20
206.8369198070957
 30
0.0
 10
173.9881961117642
 20
206.7550488481866
 30
0.0
 10
173.9990704893877
 20
206.6357505859629
 30
0.0
 10
174.0194527750647
 20
206.5236031957427
 30
0.0
 10
174.045891933239
 20
206.4178402575711
 30
0.0
 10
174.081467176385
 20
206.3189185693536
 30
0.0
 10
174.1250094992431
 20
206.2270320015519
 30
0.0
 10
174.175331469501
 20
206.1415157491548
 30
0.0
 10
174.2345370004541
 20
206.0645377001023
 30
0.0
 10
174.2987713656784
 20
205.9953855165296
 30
0.0
 10
174.3664785089901
 20
205.9343605519568
 30
0.0
 10
174.437535568549
 20
205.8828782116788
 30
0.0
 10
174.5123438887712
 20
205.8413777961789
 30
0.0
 10
174.5900820066597
 20
205.8083396289691
 30
0.0
 10
174.6713402033446
 20
205.7847763373555
 30
0.0
 10
174.7560676530748
 20
205.7711649999065
 30
0.0
 10
174.8135314464713
 20
205.7690968577193
 30
0.0
 10
174.8426988636364
 20
205.7680471120906
 30
0.0
  0
SPLINE
  5
1F3
330
1F
100
AcDbEntity
  8
0
  6
Continuous
 62
     7
370
    25
100
AcDbSpline
210
0.0
220
0.0
230
1.0
 70
     8
 71
     3
 72
    31
 73
    27
 74
     0
 42
0.000000001
 43
0.00000001
 40
0.0
 40
0.0
 40
0.0
 40
0.0
 40
0.0301756518175108
 40
0.0602932964483566
 40
0.0908028780173973
 40
0.1217410141489671
 40
0.1536658708313838
 40
0.1866556031144473
 40
0.2205936461813657
 40
0.255910079026497
 40
0.2924251345961456
 40
0.3298624081485452
 40
0.3689121943544735
 40
0.4095877027264626
 40
0.4520232120824408
 40
0.4961916846599375
 40
0.5426783412182837
 40
0.591466860169276
 40
0.641257129857198
 40
0.6908580015722796
 40
0.7412132124616347
 40
0.7915520782362546
 40
0.8426454606106198
 40
0.8940039102596142
 40
0.9467438101360443
 40
1.0
 40
1.0
 40
1.0
 40
1.0
 10
175.1211079545455
 20
208.5407743848179
 30
0.0
 10
175.0988148144703
 20
208.5403167035446
 30
0.0
 10
175.0542713888156
 20
208.539402220807
 30
0.0
 10
174.9878979383967
 20
208.5291994473174
 30
0.0
 10
174.9216466234628
 20
208.5155880127494
 30
0.0
 10
174.855860551364
 20
208.4945840974416
 30
0.0
 10
174.7905156709874
 20
208.4673145697602
 30
0.0
 10
174.7251459878071
 20
208.4347416685136
 30
0.0
 10
174.6603535155747
 20
208.3959340020315
 30
0.0
 10
174.5956413434017
 20
208.3521685936676
 30
0.0
 10
174.5324730599193
 20
208.3018539786057
 30
0.0
 10
174.4718083287248
 20
208.2444876670361
 30
0.0
 10
174.413428557118
 20
208.1805548830117
 30
0.0
 10
174.3583283468298
 20
208.1090863443912
 30
0.0
 10
174.3048970655774
 20
208.0317487212935
 30
0.0
 10
174.2544842743496
 20
207.9473594431648
 30
0.0
 10
174.2061281819958
 20
207.8564503562797
 30
0.0
 10
174.1611262746647
 20
207.7592201406694
 30
0.0
 10
174.1204610314568
 20
207.6576493368885
 30
0.0
 10
174.083561784746
 20
207.5533965258196
 30
0.0
 10
174.0534805566775
 20
207.4465438822976
 30
0.0
 10
174.0283405115667
 20
207.3373154694798
 30
0.0
 10
174.0092919104865
 20
207.226086593338
 30
0.0
 10
173.9959586856141
 20
207.112282374004
 30
0.0
 10
173.9870401531535
 20
206.9964087203286
 30
0.0
 10
173.985984794848
 20
206.9181583329044
 30
0.0
 10
173.9854545454546
 20
206.878842566636
 30
0.0
  0
SPLINE
  5
1F4
330
1F
100
AcDbEntity
  8
0
  6
Continuous
 62
     7
370
    25
100
AcDbSpline
210
0.0
220
0.0
230
1.0
 70
     8
 71
     3
 72
    23
 73
    19
 74
     0
 42
0.000000001
 43
0.00000001
 40
0.0
 40
0.0
 40
0.0
 40
0.0
 40
0.0780325357412825
 40
0.1522985270717772
 40
0.2236497358165494
 40
0.2920865500904308
 40
0.3578578370732183
 40
0.4224800794262349
 40
0.4861311448502689
 40
0.5491776410002762
 40
0.6108387757840069
 40
0.6697010909339804
 40
0.7262272621469514
 40
0.7814770110557905
 40
0.8355720682872141
 40
0.8895736835765925
 40
0.9444009501337872
 40
1.0
 40
1.0
 40
1.0
 40
1.0
 10
175.9854545454546
 20
207.4534164302724
 30
0.0
 10
175.9846288911158
 20
207.4936945074421
 30
0.0
 10
175.9830174358623
 20
207.5723064834332
 30
0.0
 10
175.9706693091008
 20
207.6872130868875
 30
0.0
 10
175.951000844598
 20
207.7960085534524
 30
0.0
 10
175.9236460194248
 20
207.8986611529342
 30
0.0
 10
175.887174987664
 20
207.9948020939113
 30
0.0
 10
175.8419208074909
 20
208.0842534031537
 30
0.0
 10
175.7906841692671
 20
208.1689058659446
 30
0.0
 10
175.7296339160615
 20
208.2447773806932
 30
0.0
 10
175.6653404126232
 20
208.3145398603614
 30
0.0
 10
175.5957607210275
 20
208.3740141874037
 30
0.0
 10
175.5245902377958
 20
208.426061337261
 30
0.0
 10
175.4498302675843
 20
208.468279424568
 30
0.0
 10
175.3716025975569
 20
208.5001268589053
 30
0.0
 10
175.2908696144445
 20
208.5242238525601
 30
0.0
 10
175.2067743997935
 20
208.5375393170229
 30
0.0
 10
175.1497961789274
 20
208.5396910160551
 30
0.0
 10
175.1211079545455
 20
208.5407743848179
 30
0.0
  0
SPLINE
  5
1F5
330
1F
100
AcDbEntity
  8
0
  6
Continuous
 62
     7
370
    25
100
AcDbSpline
210
0.0
220
0.0
230
1.0
 70
     8
 71
     3
 72
    15
 73
    11
 74
     0
 42
0.000000001
 43
0.00000001
 40
0.0
 40
0.0
 40
0.0
 40
0.0
 40
0.1130347842828604
 40
0.2268334822110524
 40
0.3435029415735574
 40
0.4639328931901981
 40
0.5883359110333789
 40
0.7189972985797175
 40
0.8559435506265416
 40
1.0
 40
1.0
 40
1.0
 40
1.0
 10
175.5834659090909
 20
206.1565414302724
 30
0.0
 10
175.6158645208575
 20
206.1975572195197
 30
0.0
 10
175.6808807012523
 20
206.2798659916346
 30
0.0
 10
175.7626545469716
 20
206.4164172946403
 30
0.0
 10
175.8313958298027
 20
206.5634553094391
 30
0.0
 10
175.8885827903813
 20
206.7206789912552
 30
0.0
 10
175.9312375520211
 20
206.8890629545279
 30
0.0
 10
175.9635559176669
 20
207.0674284462206
 30
0.0
 10
175.9817421203778
 20
207.2570159815476
 30
0.0
 10
175.9841963705061
 20
207.386854514723
 30
0.0
 10
175.9854545454546
 20
207.4534164302724
 30
0.0
  0
SPLINE
  5
1F6
330
1F
100
AcDbEntity
  8
0
  6
Continuous
 62
     7
370
    25
100
AcDbSpline
210
0.0
220
0.0
230
1.0
 70
     8
 71
     3
 72
    15
 73
    11
 74
     0
 42
0.000000001
 43
0.00000001
 40
0.0
 40
0.0
 40
0.0
 40
0.0
 40
0.1177275761199055
 40
0.2337686221826908
 40
0.3509645643764772
 40
0.4701001219487871
 40
0.5935383012539042
 40
0.7220435396388029
 40
0.8569583974414975
 40
1.0
 40
1.0
 40
1.0
 40
1.0
 10
174.8426988636364
 20
205.7680471120906
 30
0.0
 10
174.8766256907662
 20
205.7693774768275
 30
0.0
 10
174.9439933194438
 20
205.7720191478938
 30
0.0
 10
175.0438442037882
 20
205.7901978705921
 30
0.0
 10
175.1408444943393
 20
205.8210030502474
 30
0.0
 10
175.2353205714201
 20
205.8642237042604
 30
0.0
 10
175.3272690209945
 20
205.9192130072508
 30
0.0
 10
175.4162810549013
 20
205.9866065576614
 30
0.0
 10
175.5027708417775
 20
206.0658904603923
 30
0.0
 10
175.5560483203566
 20
206.125741146026
 30
0.0
 10
175.5834659090909
 20
206.1565414302724
 30
0.0
  0
SPLINE
  5
1F7
330
1F
100
AcDbEntity
  8
0
  6
Continuous
 62
     7
370
    25
100
AcDbSpline
210
0.0
220
0.0
230
1.0
 70
     8
 71
     3
 72
    31
 73
    27
 74
     0
 42
0.000000001
 43
0.00000001
 40
0.0
 40
0.0
 40
0.0
 40
0.0
 40
0.0301756518175108
 40
0.0602932964483566
 40
0.0908028780173973
 40
0.1217410141489671
 40
0.1536658708313838
 40
0.1866556031144473
 40
0.2205936461813657
 40
0.255910079026497
 40
0.2924251345961456
 40
0.3298624081485452
 40
0.3689121943544735
 40
0.4095877027264626
 40
0.4520232120824408
 40
0.4961916846599375
 40
0.5426783412182837
 40
0.591466860169276
 40
0.641257129857198
 40
0.6908580015722796
 40
0.7412132124616347
 40
0.7915520782362546
 40
0.8426454606106198
 40
0.8940039102596142
 40
0.9467438101360443
 40
1.0
 40
1.0
 40
1.0
 40
1.0
 10
180.9392897727273
 20
208.5407743848179
 30
0.0
 10
180.9169966326521
 20
208.5403167035446
 30
0.0
 10
180.8724532069975
 20
208.539402220807
 30
0.0
 10
180.8060797565785
 20
208.5291994473174
 30
0.0
 10
180.7398284416446
 20
208.5155880127494
 30
0.0
 10
180.6740423695458
 20
208.4945840974416
 30
0.0
 10
180.6086974891692
 20
208.4673145697602
 30
0.0
 10
180.5433278059889
 20
208.4347416685136
 30
0.0
 10
180.4785353337565
 20
208.3959340020315
 30
0.0
 10
180.4138231615835
 20
208.3521685936676
 30
0.0
 10
180.3506548781011
 20
208.3018539786057
 30
0.0
 10
180.2899901469065
 20
208.2444876670361
 30
0.0
 10
180.2316103752998
 20
208.1805548830117
 30
0.0
 10
180.1765101650116
 20
208.1090863443912
 30
0.0
 10
180.1230788837593
 20
208.0317487212935
 30
0.0
 10
180.0726660925315
 20
207.9473594431648
 30
0.0
 10
180.0243100001776
 20
207.8564503562797
 30
0.0
 10
179.9793080928465
 20
207.7592201406694
 30
0.0
 10
179.9386428496387
 20
207.6576493368885
 30
0.0
 10
179.9017436029278
 20
207.5533965258196
 30
0.0
 10
179.8716623748593
 20
207.4465438822976
 30
0.0
 10
179.8465223297486
 20
207.3373154694798
 30
0.0
 10
179.8274737286684
 20
207.226086593338
 30
0.0
 10
179.814140503796
 20
207.112282374004
 30
0.0
 10
179.8052219713354
 20
206.9964087203286
 30
0.0
 10
179.8041666130298
 20
206.9181583329044
 30
0.0
 10
179.8036363636364
 20
206.878842566636
 30
0.0
  0
SPLINE
  5
1F8
330
1F
100
AcDbEntity
  8
0
  6
Continuous
 62
     7
370
    25
100
AcDbSpline
210
0.0
220
0.0
230
1.0
 70
     8
 71
     3
 72
    23
 73
    19
 74
     0
 42
0.000000001
 43
0.00000001
 40
0.0
 40
0.0
 40
0.0
 40
0.0
 40
0.0780325357412824
 40
0.152298527071777
 40
0.2236497358165491
 40
0.2920865500904304
 40
0.3578578370732178
 40
0.4224800794262343
 40
0.4861311448502683
 40
0.5491776410002699
 40
0.6108387757840068
 40
0.6697010909339735
 40
0.7262272621469517
 40
0.7814770110557907
 40
0.8355720682872141
 40
0.8895736835765925
 40
0.9444009501337871
 40
1.0
 40
1.0
 40
1.0
 40
1.0
 10
181.8036363636364
 20
207.4534164302724
 30
0.0
 10
181.8028107092976
 20
207.4936945074421
 30
0.0
 10
181.8011992540441
 20
207.5723064834332
 30
0.0
 10
181.7888511272826
 20
207.6872130868875
 30
0.0
 10
181.7691826627798
 20
207.7960085534524
 30
0.0
 10
181.7418278376066
 20
207.8986611529342
 30
0.0
 10
181.7053568058458
 20
207.9948020939113
 30
0.0
 10
181.6601026256728
 20
208.0842534031537
 30
0.0
 10
181.608865987449
 20
208.1689058659446
 30
0.0
 10
181.5478157342432
 20
208.2447773806932
 30
0.0
 10
181.483522230805
 20
208.3145398603614
 30
0.0
 10
181.4139425392093
 20
208.3740141874037
 30
0.0
 10
181.3427720559775
 20
208.426061337261
 30
0.0
 10
181.2680120857661
 20
208.468279424568
 30
0.0
 10
181.1897844157387
 20
208.5001268589054
 30
0.0
 10
181.1090514326263
 20
208.5242238525601
 30
0.0
 10
181.0249562179753
 20
208.5375393170229
 30
0.0
 10
180.9679779971092
 20
208.5396910160551
 30
0.0
 10
180.9392897727273
 20
208.5407743848179
 30
0.0
  0
SPLINE
  5
1F9
330
1F
100
AcDbEntity
  8
0
  6
Continuous
 62
     7
370
    25
100
AcDbSpline
210
0.0
220
0.0
230
1.0
 70
     8
 71
     3
 72
    15
 73
    11
 74
     0
 42
0.000000001
 43
0.00000001
 40
0.0
 40
0.0
 40
0.0
 40
0.0
 40
0.1130347842828604
 40
0.2268334822110524
 40
0.3435029415735574
 40
0.4639328931901981
 40
0.5883359110333789
 40
0.7189972985797175
 40
0.8559435506265416
 40
1.0
 40
1.0
 40
1.0
 40
1.0
 10
181.4016477272727
 20
206.1565414302724
 30
0.0
 10
181.4340463390393
 20
206.1975572195197
 30
0.0
 10
181.4990625194341
 20
206.2798659916346
 30
0.0
 10
181.5808363651535
 20
206.4164172946403
 30
0.0
 10
181.6495776479846
 20
206.5634553094391
 30
0.0
 10
181.706764608563
 20
206.7206789912552
 30
0.0
 10
181.7494193702029
 20
206.8890629545279
 30
0.0
 10
181.7817377358487
 20
207.0674284462206
 30
0.0
 10
181.7999239385596
 20
207.2570159815476
 30
0.0
 10
181.802378188688
 20
207.386854514723
 30
0.0
 10
181.8036363636364
 20
207.4534164302724
 30
0.0
  0
SPLINE
  5
1FA
330
1F
100
AcDbEntity
  8
0
  6
Continuous
 62
     7
370
    25
100
AcDbSpline
210
0.0
220
0.0
230
1.0
 70
     8
 71
     3
 72
    15
 73
    11
 74
     0
 42
0.000000001
 43
0.00000001
 40
0.0
 40
0.0
 40
0.0
 40
0.0
 40
0.1177275761199055
 40
0.2337686221826908
 40
0.3509645643764772
 40
0.4701001219487871
 40
0.5935383012539042
 40
0.7220435396388029
 40
0.8569583974414975
 40
1.0
 40
1.0
 40
1.0
 40
1.0
 10
180.6608806818182
 20
205.7680471120906
 30
0.0
 10
180.694807508948
 20
205.7693774768275
 30
0.0
 10
180.7621751376256
 20
205.7720191478938
 30
0.0
 10
180.86202602197
 20
205.7901978705921
 30
0.0
 10
180.9590263125211
 20
205.8210030502474
 30
0.0
 10
181.0535023896019
 20
205.8642237042604
 30
0.0
 10
181.1454508391763
 20
205.9192130072508
 30
0.0
 10
181.2344628730831
 20
205.9866065576614
 30
0.0
 10
181.3209526599593
 20
206.0658904603923
 30
0.0
 10
181.3742301385384
 20
206.125741146026
 30
0.0
 10
181.4016477272727
 20
206.1565414302724
 30
0.0
  0
SPLINE
  5
1FB
330
1F
100
AcDbEntity
  8
0
  6
Continuous
 62
     7
370
    25
100
AcDbSpline
210
0.0
220
0.0
230
1.0
 70
     8
 71
     3
 72
    23
 73
    19
 74
     0
 42
0.000000001
 43
0.00000001
 40
0.0
 40
0.0
 40
0.0
 40
0.0
 40
0.0802326734030886
 40
0.1566863913389074
 40
0.2289346548216596
 40
0.2981581398344674
 40
0.3650796822572296
 40
0.4297252619193052
 40
0.492502448741389
 40
0.5545694486634416
 40
0.6151555615502389
 40
0.6729060019049423
 40
0.7287300999690447
 40
0.7826770297091754
 40
0.8362747229524126
 40
0.8900406382016054
 40
0.9441869325498206
 40
1.0
 40
1.0
 40
1.0
 40
1.0
 10
179.8036363636364
 20
206.878842566636
 30
0.0
 10
179.8045647954389
 20
206.8369198070957
 30
0.0
 10
179.806377929946
 20
206.7550488481866
 30
0.0
 10
179.8172523075696
 20
206.6357505859629
 30
0.0
 10
179.8376345932465
 20
206.5236031957427
 30
0.0
 10
179.8640737514208
 20
206.4178402575711
 30
0.0
 10
179.8996489945668
 20
206.3189185693536
 30
0.0
 10
179.9431913174249
 20
206.2270320015519
 30
0.0
 10
179.9935132876828
 20
206.1415157491548
 30
0.0
 10
180.0527188186359
 20
206.0645377001023
 30
0.0
 10
180.1169531838603
 20
205.9953855165296
 30
0.0
 10
180.1846603271719
 20
205.9343605519568
 30
0.0
 10
180.2557173867308
 20
205.8828782116788
 30
0.0
 10
180.330525706953
 20
205.8413777961789
 30
0.0
 10
180.4082638248415
 20
205.8083396289691
 30
0.0
 10
180.4895220215263
 20
205.7847763373555
 30
0.0
 10
180.5742494712566
 20
205.7711649999065
 30
0.0
 10
180.6317132646531
 20
205.7690968577193
 30
0.0
 10
180.6608806818182
 20
205.7680471120906
 30
0.0
  0
SPLINE
  5
1FC
330
1F
100
AcDbEntity
  8
0
  6
Continuous
 62
     7
370
    25
100
AcDbSpline
210
0.0
220
0.0
230
1.0
 70
     8
 71
     3
 72
    15
 73
    11
 74
     0
 42
0.000000001
 43
0.00000001
 40
0.0
 40
0.0
 40
0.0
 40
0.0
 40
0.0888850639833435
 40
0.1885604992980149
 40
0.2964207560055922
 40
0.416745848836607
 40
0.5457914368464766
 40
0.6867289581444844
 40
0.8380762687167772
 40
1.0
 40
1.0
 40
1.0
 40
1.0
 10
171.5614488636364
 20
205.8724505211815
 30
0.0
 10
171.5744067921635
 20
205.8677506367785
 30
0.0
 10
171.6018957015871
 20
205.8577803165698
 30
0.0
 10
171.6464438780705
 20
205.8463892819649
 30
0.0
 10
171.6960038740555
 20
205.8350127172104
 30
0.0
 10
171.7509963311665
 20
205.8281081194026
 30
0.0
 10
171.8111156954143
 20
205.8215037599668
 30
0.0
 10
171.8762470872889
 20
205.8165562617571
 30
0.0
 10
171.9466026515865
 20
205.8137243129232
 30
0.0
 10
171.9951582393597
 20
205.8135775278864
 30
0.0
 10
172.0202556818182
 20
205.8135016575451
 30
0.0
  0
SPLINE
  5
1FD
330
1F
100
AcDbEntity
  8
0
  6
Continuous
 62
     7
370
    25
100
AcDbSpline
210
0.0
220
0.0
230
1.0
 70
     8
 71
     3
 72
    23
 73
    19
 74
     0
 42
0.000000001
 43
0.00000001
 40
0.0
 40
0.0
 40
0.0
 40
0.0
 40
0.0874471253209927
 40
0.1698532365731059
 40
0.2487233605391757
 40
0.3230176537768683
 40
0.3933723588794129
 40
0.4601284551383311
 40
0.5231789542235916
 40
0.5838819851265968
 40
0.6417016078346145
 40
0.6973283864639704
 40
0.7504393443940258
 40
0.8013819101248645
 40
0.8519376935375632
 40
0.9015653905945169
 40
0.9505224122680793
 40
1.0
 40
1.0
 40
1.0
 40
1.0
 10
171.1218181818182
 20
206.8149221120906
 30
0.0
 10
171.122331344286
 20
206.7827198976696
 30
0.0
 10
171.1233280872403
 20
206.7201718113356
 30
0.0
 10
171.1280537618963
 20
206.6286668974504
 30
0.0
 10
171.137002509894
 20
206.5423147400992
 30
0.0
 10
171.1508708902745
 20
206.4611341523064
 30
0.0
 10
171.1669372294867
 20
206.3849358639276
 30
0.0
 10
171.1864307706219
 20
206.3137625857217
 30
0.0
 10
171.2109645282376
 20
206.2479439358077
 30
0.0
 10
171.2385879367066
 20
206.1870079554268
 30
0.0
 10
171.2689430940466
 20
206.1304157442212
 30
0.0
 10
171.3032333511499
 20
206.0794550859353
 30
0.0
 10
171.3394481435864
 20
206.0330749653922
 30
0.0
 10
171.3780959742033
 20
205.9911148682577
 30
0.0
 10
171.4201748525187
 20
205.9545851557693
 30
0.0
 10
171.4639842789557
 20
205.9213183917071
 30
0.0
 10
171.5114873289059
 20
205.8942047256532
 30
0.0
 10
171.5447364067485
 20
205.8797274434443
 30
0.0
 10
171.5614488636364
 20
205.8724505211815
 30
0.0
  0
SPLINE
  5
1FE
330
1F
100
AcDbEntity
  8
0
  6
Continuous
 62
     7
370
    25
100
AcDbSpline
210
0.0
220
0.0
230
1.0
 70
     8
 71
     3
 72
    23
 73
    19
 74
     0
 42
0.000000001
 43
0.00000001
 40
0.0
 40
0.0
 40
0.0
 40
0.0
 40
0.0629146460526536
 40
0.1209315349946724
 40
0.1745411124553721
 40
0.2241494446847019
 40
0.271663827215392
 40
0.3194602966361598
 40
0.3688676139482361
 40
0.420564256713874
 40
0.4757378977585194
 40
0.5360113800178268
 40
0.6020247859115533
 40
0.6741562728592339
 40
0.7505794982871675
 40
0.8296454383855258
 40
0.912678676071477
 40
1.0
 40
1.0
 40
1.0
 40
1.0
 10
172.5351704545455
 20
208.4953198393633
 30
0.0
 10
172.4825821391364
 20
208.4945968950397
 30
0.0
 10
172.3814993848937
 20
208.4932072859065
 30
0.0
 10
172.2361100010603
 20
208.4800431608851
 30
0.0
 10
172.1027394091626
 20
208.4602022196775
 30
0.0
 10
171.9800673433814
 20
208.4306532256653
 30
0.0
 10
171.8661256661105
 20
208.3885491926592
 30
0.0
 10
171.7597308029252
 20
208.3300911934513
 30
0.0
 10
171.659942654747
 20
208.2552106515265
 30
0.0
 10
171.5651427181668
 20
208.1649102894391
 30
0.0
 10
171.4771819962293
 20
208.055931399953
 30
0.0
 10
171.3957091904741
 20
207.9277308542794
 30
0.0
 10
171.3200101688699
 20
207.7799838413193
 30
0.0
 10
171.2509964863076
 20
207.6143113252413
 30
0.0
 10
171.1924320993893
 20
207.4329951495937
 30
0.0
 10
171.1518910626479
 20
207.2375340930643
 30
0.0
 10
171.1265297063058
 20
207.0303167059186
 30
0.0
 10
171.1234148254277
 20
206.8879151322192
 30
0.0
 10
171.1218181818182
 20
206.8149221120906
 30
0.0
  0
LINE
  5
1FF
330
1F
100
AcDbEntity
  8
0
  6
Continuous
 62
     7
370
    25
100
AcDbLine
 10
173.0025
 20
208.4953198394
 30
0.0
 11
172.5351704545
 21
208.4953198394
 31
0.0
  0
LINE
  5
200
330
1F
100
AcDbEntity
  8
0
  6
Continuous
 62
     7
370
    25
100
AcDbLine
 10
172.549375
 20
205.8135016575
 30
0.0
 11
173.0025
 21
208.4953198394
 31
0.0
  0
LINE
  5
201
330
1F
100
AcDbEntity
  8
0
  6
Continuous
 62
     7
370
    25
100
AcDbLine
 10
172.0202556818
 20
205.8135016575
 30
0.0
 11
172.549375
 21
205.8135016575
 31
0.0
  0
SPLINE
  5
202
330
1F
100
AcDbEntity
  8
0
  6
Continuous
 62
     7
370
    25
100
AcDbSpline
210
0.0
220
0.0
230
1.0
 70
     8
 71
     3
 72
    15
 73
    11
 74
     0
 42
0.000000001
 43
0.00000001
 40
0.0
 40
0.0
 40
0.0
 40
0.0
 40
0.14700353928029
 40
0.2872715534845759
 40
0.4217205364044849
 40
0.5494635590464956
 40
0.6714069658017919
 40
0.7875597556586433
 40
0.8970633487028926
 40
0.9999999999999999
 40
0.9999999999999999
 40
0.9999999999999999
 40
0.9999999999999999
 10
168.8703977272727
 20
206.660092566636
 30
0.0
 10
168.8764309375112
 20
206.617494248097
 30
0.0
 10
168.8882209235633
 20
206.5342494146568
 30
0.0
 10
168.903600648927
 20
206.4117866703359
 30
0.0
 10
168.918084350856
 20
206.294892654461
 30
0.0
 10
168.9299989953382
 20
206.1830989657556
 30
0.0
 10
168.9406628791818
 20
206.0765642561191
 30
0.0
 10
168.9501191907499
 20
205.9752703136056
 30
0.0
 10
168.9570969219841
 20
205.8793509063996
 30
0.0
 10
168.96088956851
 20
205.817293024433
 30
0.0
 10
168.9627272727273
 20
205.7872232484542
 30
0.0
  0
LINE
  5
203
330
1F
100
AcDbEntity
  8
0
  6
Continuous
 62
     7
370
    25
100
AcDbLine
 10
168.7446875
 20
207.5407743848
 30
0.0
 11
168.8703977273
 21
206.6600925666
 31
0.0
  0
LINE
  5
204
330
1F
100
AcDbEntity
  8
0
  6
Continuous
 62
     7
370
    25
100
AcDbLine
 10
169.736875
 20
207.5407743848
 30
0.0
 11
168.7446875
 21
207.5407743848
 31
0.0
  0
LINE
  5
205
330
1F
100
AcDbEntity
  8
0
  6
Continuous
 62
     7
370
    25
100
AcDbLine
 10
169.2532102273
 20
206.5024221121
 30
0.0
 11
169.736875
 21
207.5407743848
 31
0.0
  0
SPLINE
  5
206
330
1F
100
AcDbEntity
  8
0
  6
Continuous
 62
     7
370
    25
100
AcDbSpline
210
0.0
220
0.0
230
1.0
 70
     8
 71
     3
 72
    11
 73
     7
 74
     0
 42
0.000000001
 43
0.00000001
 40
0.0
 40
0.0
 40
0.0
 40
0.0
 40
0.2160703134542942
 40
0.4547988730342452
 40
0.7156038406523293
 40
0.9999999999999999
 40
0.9999999999999999
 40
0.9999999999999999
 40
0.9999999999999999
 10
168.9627272727272
 20
205.7872232484542
 30
0.0
 10
168.9805586580425
 20
205.8399232709595
 30
0.0
 10
169.0180913195931
 20
205.9508497118071
 30
0.0
 10
169.085466062431
 20
206.1223921766447
 30
0.0
 10
169.1646922926249
 20
206.3080365230716
 30
0.0
 10
169.2228651899123
 20
206.435784339931
 30
0.0
 10
169.2532102272727
 20
206.5024221120906
 30
0.0
  0
SPLINE
  5
207
330
1F
100
AcDbEntity
  8
0
  6
Continuous
 62
     7
370
    25
100
AcDbSpline
210
0.0
220
0.0
230
1.0
 70
     8
 71
     3
 72
    15
 73
    11
 74
     0
 42
0.000000001
 43
0.00000001
 40
0.0
 40
0.0
 40
0.0
 40
0.0
 40
0.14700353928029
 40
0.2872715534845759
 40
0.4217205364044849
 40
0.5494635590464956
 40
0.6714069658017919
 40
0.7875597556586433
 40
0.8970633487028926
 40
0.9999999999999999
 40
0.9999999999999999
 40
0.9999999999999999
 40
0.9999999999999999
 10
192.8249431818182
 20
206.660092566636
 30
0.0
 10
192.8309763920567
 20
206.617494248097
 30
0.0
 10
192.8427663781088
 20
206.5342494146568
 30
0.0
 10
192.8581461034725
 20
206.4117866703359
 30
0.0
 10
192.8726298054015
 20
206.294892654461
 30
0.0
 10
192.8845444498837
 20
206.1830989657556
 30
0.0
 10
192.8952083337273
 20
206.0765642561191
 30
0.0
 10
192.9046646452954
 20
205.9752703136056
 30
0.0
 10
192.9116423765296
 20
205.8793509063996
 30
0.0
 10
192.9154350230555
 20
205.817293024433
 30
0.0
 10
192.9172727272727
 20
205.7872232484542
 30
0.0
  0
LINE
  5
208
330
1F
100
AcDbEntity
  8
0
  6
Continuous
 62
     7
370
    25
100
AcDbLine
 10
192.6992329545
 20
207.5407743848
 30
0.0
 11
192.8249431818
 21
206.6600925666
 31
0.0
  0
LINE
  5
209
330
1F
100
AcDbEntity
  8
0
  6
Continuous
 62
     7
370
    25
100
AcDbLine
 10
193.6914204545
 20
207.5407743848
 30
0.0
 11
192.6992329545
 21
207.5407743848
 31
0.0
  0
LINE
  5
20A
330
1F
100
AcDbEntity
  8
0
  6
Continuous
 62
     7
370
    25
100
AcDbLine
 10
193.2077556818
 20
206.5024221121
 30
0.0
 11
193.6914204545
 21
207.5407743848
 31
0.0
  0
SPLINE
  5
20B
330
1F
100
AcDbEntity
  8
0
  6
Continuous
 62
     7
370
    25
100
AcDbSpline
210
0.0
220
0.0
230
1.0
 70
     8
 71
     3
 72
    11
 73
     7
 74
     0
 42
0.000000001
 43
0.00000001
 40
0.0
 40
0.0
 40
0.0
 40
0.0
 40
0.2160703134542942
 40
0.4547988730342452
 40
0.7156038406523293
 40
0.9999999999999999
 40
0.9999999999999999
 40
0.9999999999999999
 40
0.9999999999999999
 10
192.9172727272727
 20
205.7872232484542
 30
0.0
 10
192.935104112588
 20
205.8399232709595
 30
0.0
 10
192.9726367741386
 20
205.9508497118071
 30
0.0
 10
193.0400115169764
 20
206.1223921766447
 30
0.0
 10
193.1192377471704
 20
206.3080365230716
 30
0.0
 10
193.1774106444578
 20
206.435784339931
 30
0.0
 10
193.2077556818182
 20
206.5024221120906
 30
0.0
  0
SPLINE
  5
20C
330
1F
100
AcDbEntity
  8
0
  6
Continuous
 62
     7
370
    25
100
AcDbSpline
210
0.0
220
0.0
230
1.0
 70
     8
 71
     3
 72
    23
 73
    19
 74
     0
 42
0.000000001
 43
0.00000001
 40
0.0
 40
0.0
 40
0.0
 40
0.0
 40
0.0534248788120509
 40
0.1094776745490436
 40
0.1691115031767313
 40
0.2346182880819566
 40
0.2697522345685142
 40
0.306736585541312
 40
0.3457606475791343
 40
0.3871708766523052
 40
0.4313131166952666
 40
0.4778805983088639
 40
0.5274191677239689
 40
0.5798297631974509
 40
0.6861612429797427
 40
0.7910273572963172
 40
0.8953390052638514
 40
0.9999999999999999
 40
0.9999999999999999
 40
0.9999999999999999
 40
0.9999999999999999
 10
160.2077556818182
 20
208.6316834757269
 30
0.0
 10
160.1791565264942
 20
208.6300186606771
 30
0.0
 10
160.1205514516946
 20
208.6266071399722
 30
0.0
 10
160.0337220444043
 20
208.5984510569823
 30
0.0
 10
159.9475623594719
 20
208.5538397682815
 30
0.0
 10
159.8770384067949
 20
208.5046371482642
 30
0.0
 10
159.8221368822625
 20
208.4555324557757
 30
0.0
 10
159.7820055056989
 20
208.4116848833175
 30
0.0
 10
159.7415507301492
 20
208.3636234385107
 30
0.0
 10
159.7045134590196
 20
208.308208265352
 30
0.0
 10
159.6672063276602
 20
208.2482296861897
 30
0.0
 10
159.6328403830104
 20
208.1815597323288
 30
0.0
 10
159.5985785847584
 20
208.1099570514987
 30
0.0
 10
159.5553750279731
 20
208.0073361268912
 30
0.0
 10
159.5093915144016
 20
207.8739343736721
 30
0.0
 10
159.4696603372281
 20
207.7098928173937
 30
0.0
 10
159.4442859665051
 20
207.5436974123372
 30
0.0
 10
159.4414302468367
 20
207.4319625061736
 30
0.0
 10
159.44
 20
207.3760016575451
 30
0.0
  0
SPLINE
  5
20D
330
1F
100
AcDbEntity
  8
0
  6
Continuous
 62
     7
370
    25
100
AcDbSpline
210
0.0
220
0.0
230
1.0
 70
     8
 71
     3
 72
    23
 73
    19
 74
     0
 42
0.000000001
 43
0.00000001
 40
0.0
 40
0.0
 40
0.0
 40
0.0
 40
0.0881844926297957
 40
0.1716697626267754
 40
0.2492911852220309
 40
0.3227816059158867
 40
0.3920406632923344
 40
0.4573946107644628
 40
0.5194151872373389
 40
0.5791736687483018
 40
0.6361612253081224
 40
0.6909787473269142
 40
0.7431699809285592
 40
0.7945018801205299
 40
0.8448193721053736
 40
0.8954173539747732
 40
0.9473123613877379
 40
1.0
 40
1.0
 40
1.0
 40
1.0
 10
160.7127272727273
 20
207.8965982484542
 30
0.0
 10
160.7124019447855
 20
207.9259699495678
 30
0.0
 10
160.7117686251522
 20
207.983148176802
 30
0.0
 10
160.7044943980785
 20
208.0659216332621
 30
0.0
 10
160.6931536464444
 20
208.1432434149357
 30
0.0
 10
160.6779504163622
 20
208.2151169057577
 30
0.0
 10
160.6572525913282
 20
208.2813588851227
 30
0.0
 10
160.6324251830809
 20
208.3420170109452
 30
0.0
 10
160.6034779889722
 20
208.3973763437011
 30
0.0
 10
160.5690546377431
 20
208.4460891714254
 30
0.0
 10
160.5322034518989
 20
208.4898661422789
 30
0.0
 10
160.4923014619693
 20
208.5272980185908
 30
0.0
 10
160.4508090991008
 20
208.559957728423
 30
0.0
 10
160.4067497505225
 20
208.5864582794249
 30
0.0
 10
160.3599155978592
 20
208.6061396875182
 30
0.0
 10
160.3113394590023
 20
208.6216403251888
 30
0.0
 10
160.2601281240958
 20
208.6299952406008
 30
0.0
 10
160.2253011470555
 20
208.6311178944894
 30
0.0
 10
160.2077556818182
 20
208.6316834757269
 30
0.0
  0
SPLINE
  5
20E
330
1F
100
AcDbEntity
  8
0
  6
Continuous
 62
     7
370
    25
100
AcDbSpline
210
0.0
220
0.0
230
1.0
 70
     8
 71
     3
 72
    23
 73
    19
 74
     0
 42
0.000000001
 43
0.00000001
 40
0.0
 40
0.0
 40
0.0
 40
0.0
 40
0.088578627365613
 40
0.1717665497732649
 40
0.24981235544706
 40
0.3237333750202092
 40
0.3932168337134458
 40
0.4589936296702758
 40
0.5214195023544689
 40
0.5821336346096069
 40
0.6394591842730621
 40
0.6945708264409702
 40
0.7470134211878545
 40
0.7981624927207646
 40
0.8482356651202844
 40
0.8977697234125944
 40
0.9482073959699504
 40
1.0
 40
1.0
 40
1.0
 40
1.0
 10
159.44
 20
207.3760016575451
 30
0.0
 10
159.440314245086
 20
207.3463920059702
 30
0.0
 10
159.4409236109772
 20
207.2889746826013
 30
0.0
 10
159.4483065359368
 20
207.2057449959055
 30
0.0
 10
159.459499358989
 20
207.1279184606979
 30
0.0
 10
159.4750172894913
 20
207.0555035608394
 30
0.0
 10
159.4945796782806
 20
206.9882877466039
 30
0.0
 10
159.5196114014901
 20
206.9270399718575
 30
0.0
 10
159.5487398625773
 20
206.8708939194878
 30
0.0
 10
159.582732133662
 20
206.820936974296
 30
0.0
 10
159.6198142163934
 20
206.7763592446634
 30
0.0
 10
159.659748538973
 20
206.7383144330998
 30
0.0
 10
159.7009164339796
 20
206.7046114971435
 30
0.0
 10
159.7455344543681
 20
206.6789838856481
 30
0.0
 10
159.7908309105168
 20
206.6565492274526
 30
0.0
 10
159.8393089082865
 20
206.6431191707791
 30
0.0
 10
159.8891510477637
 20
206.6329812463995
 30
0.0
 10
159.9233726462736
 20
206.6321198714254
 30
0.0
 10
159.9407102272727
 20
206.6316834757269
 30
0.0
  0
SPLINE
  5
20F
330
1F
100
AcDbEntity
  8
0
  6
Continuous
 62
     7
370
    25
100
AcDbSpline
210
0.0
220
0.0
230
1.0
 70
     8
 71
     3
 72
    23
 73
    19
 74
     0
 42
0.000000001
 43
0.00000001
 40
0.0
 40
0.0
 40
0.0
 40
0.0
 40
0.0565773340948678
 40
0.114643471483666
 40
0.1753838366757025
 40
0.240789567867563
 40
0.2754624472849138
 40
0.3122204355087029
 40
0.3504134675726098
 40
0.390875897168849
 40
0.4337902850947111
 40
0.4791060516064611
 40
0.5265958957558798
 40
0.5773601131623443
 40
0.6816250494067012
 40
0.7858790107796606
 40
0.8920470796367247
 40
1.0
 40
1.0
 40
1.0
 40
1.0
 10
159.9407102272727
 20
206.6316834757269
 30
0.0
 10
159.9714106072223
 20
206.6333835107035
 30
0.0
 10
160.0336192317464
 20
206.6368283161981
 30
0.0
 10
160.1257607115332
 20
206.6635969828562
 30
0.0
 10
160.2152891566427
 20
206.708496079522
 30
0.0
 10
160.2879237595383
 20
206.7572571296612
 30
0.0
 10
160.344223248827
 20
206.8057311957766
 30
0.0
 10
160.3849852619457
 20
206.8491025404274
 30
0.0
 10
160.424317243692
 20
206.8978262345219
 30
0.0
 10
160.4618842558114
 20
206.9520352444277
 30
0.0
 10
160.498178968817
 20
207.0116738918536
 30
0.0
 10
160.5320111732743
 20
207.0770646488598
 30
0.0
 10
160.564165824883
 20
207.1479801885569
 30
0.0
 10
160.6045542901183
 20
207.2500904450615
 30
0.0
 10
160.6488459713367
 20
207.3837452154932
 30
0.0
 10
160.685206632249
 20
207.5506283597712
 30
0.0
 10
160.7091251265333
 20
207.7218961776652
 30
0.0
 10
160.7115199032706
 20
207.8380415067437
 30
0.0
 10
160.7127272727273
 20
207.8965982484542
 30
0.0
  0
LINE
  5
210
330
1F
100
AcDbEntity
  8
0
  6
Continuous
 62
     7
370
    25
100
AcDbLine
 10
84.94
 20
204.4044107485
 30
0.0
 11
108.94
 21
204.4044107485
 31
0.0
  0
LINE
  5
211
330
1F
100
AcDbEntity
  8
0
  6
Continuous
 62
     7
370
    25
100
AcDbLine
 10
84.94
 20
204.4044107485
 30
0.0
 11
84.94
 21
243.4044107485
 31
0.0
  0
LINE
  5
212
330
1F
100
AcDbEntity
  8
0
  6
Continuous
 62
     7
370
    25
100
AcDbLine
 10
108.94
 20
243.4044107485
 30
0.0
 11
84.94
 21
243.4044107485
 31
0.0
  0
LINE
  5
213
330
1F
100
AcDbEntity
  8
0
  6
Continuous
 62
     7
370
    25
100
AcDbLine
 10
108.94
 20
204.4044107485
 30
0.0
 11
108.94
 21
243.4044107485
 31
0.0
  0
LINE
  5
214
330
1F
100
AcDbEntity
  8
0
  6
Continuous
 62
     7
370
    25
100
AcDbLine
 10
84.94
 20
243.9044107485
 30
0.0
 11
108.94
 21
243.9044107485
 31
0.0
  0
LINE
  5
215
330
1F
100
AcDbEntity
  8
0
  6
Continuous
 62
     7
370
    25
100
AcDbLine
 10
84.94
 20
243.4044107485
 30
0.0
 11
84.94
 21
243.9044107485
 31
0.0
  0
LINE
  5
216
330
1F
100
AcDbEntity
  8
0
  6
Continuous
 62
     7
370
    25
100
AcDbLine
 10
108.94
 20
243.9044107485
 30
0.0
 11
108.94
 21
243.4044107485
 31
0.0
  0
LINE
  5
217
330
1F
100
AcDbEntity
  8
0
  6
Continuous
 62
     7
370
    25
100
AcDbLine
 10
108.94
 20
203.9044107485
 30
0.0
 11
84.94
 21
203.9044107485
 31
0.0
  0
LINE
  5
218
330
1F
100
AcDbEntity
  8
0
  6
Continuous
 62
     7
370
    25
100
AcDbLine
 10
84.94
 20
203.9044107485
 30
0.0
 11
84.94
 21
204.4044107485
 31
0.0
  0
LINE
  5
219
330
1F
100
AcDbEntity
  8
0
  6
Continuous
 62
     7
370
    25
100
AcDbLine
 10
108.94
 20
204.4044107485
 30
0.0
 11
108.94
 21
203.9044107485
 31
0.0
  0
LINE
  5
21A
330
1F
100
AcDbEntity
  8
0
  6
Continuous
 62
     7
370
    25
100
AcDbLine
 10
155.94
 20
243.4044107485
 30
0.0
 11
155.94
 21
243.9044107485
 31
0.0
  0
LINE
  5
21B
330
1F
100
AcDbEntity
  8
0
  6
Continuous
 62
     7
370
    25
100
AcDbLine
 10
155.94
 20
243.9044107485
 30
0.0
 11
203.94
 21
243.9044107485
 31
0.0
  0
LINE
  5
21C
330
1F
100
AcDbEntity
  8
0
  6
Continuous
 62
     7
370
    25
100
AcDbLine
 10
203.94
 20
243.9044107485
 30
0.0
 11
203.94
 21
243.4044107485
 31
0.0
  0
LINE
  5
21D
330
1F
100
AcDbEntity
  8
0
  6
Continuous
 62
     7
370
    25
100
AcDbLine
 10
203.94
 20
203.9044107485
 30
0.0
 11
155.94
 21
203.9044107485
 31
0.0
  0
LINE
  5
21E
330
1F
100
AcDbEntity
  8
0
  6
Continuous
 62
     7
370
    25
100
AcDbLine
 10
155.94
 20
203.9044107485
 30
0.0
 11
155.94
 21
204.4044107485
 31
0.0
  0
LINE
  5
21F
330
1F
100
AcDbEntity
  8
0
  6
Continuous
 62
     7
370
    25
100
AcDbLine
 10
203.94
 20
204.4044107485
 30
0.0
 11
203.94
 21
203.9044107485
 31
0.0
  0
LINE
  5
220
330
1F
100
AcDbEntity
  8
0
  6
Continuous
 62
     8
370
    25
100
AcDbLine
 10
211.64
 20
211.7544107485
 30
0.0
 11
211.64
 21
213.7544107485
 31
0.0
  0
LINE
  5
221
330
1F
100
AcDbEntity
  8
0
  6
Continuous
 62
     8
370
    25
100
AcDbLine
 10
211.64
 20
205.7544107485
 30
0.0
 11
211.64
 21
211.7544107485
 31
0.0
  0
LINE
  5
222
330
1F
100
AcDbEntity
  8
0
  6
Continuous
 62
     8
370
    25
100
AcDbLine
 10
211.64
 20
234.0544107485
 30
0.0
 11
211.64
 21
242.0544107485
 31
0.0
  0
DIMENSION
  5
223
330
1F
100
AcDbEntity
  8
0
  6
Continuous
 62
     7
370
    18
100
AcDbDimension
  2
_D
 10
84.94
 20
193.7488214969
 30
0.0
 11
151.94
 21
193.7488214969
 31
0.0
 70
   160
  1
<>
 71
     2
 42
-1.0
  3
SLDDIMSTYLE0
100
AcDbAlignedDimension
 13
218.94
 23
218.9044107485
 33
0.0
 14
84.94
 24
203.9044107485
 34
0.0
100
AcDbRotatedDimension
  0
DIMENSION
  5
22E
330
1F
100
AcDbEntity
  8
0
  6
Continuous
 62
     7
370
    18
100
AcDbDimension
  2
_D_1
 10
84.94
 20
254.06
 30
0.0
 11
75.44
 21
254.06
 31
0.0
 70
   160
  1
<>
 71
     2
 42
-1.0
  3
SLDDIMSTYLE1
100
AcDbAlignedDimension
 13
65.94
 23
240.0544107485
 33
0.0
 14
84.94
 24
243.9044107485
 34
0.0
100
AcDbRotatedDimension
  0
DIMENSION
  5
239
330
1F
100
AcDbEntity
  8
0
  6
Continuous
 62
     7
370
    18
100
AcDbDimension
  2
_D_2
 10
55.94
 20
212.2544107485
 30
0.0
 11
55.94
 21
189.1822055417
 31
0.0
 70
   160
  1
M5x0.8%%c
 71
     2
 42
-1.0
  3
SLDDIMSTYLE2
100
AcDbAlignedDimension
 13
66.44
 23
207.2544107485
 33
0.0
 14
66.44
 24
212.2544107485
 34
0.0
 50
90.0
100
AcDbRotatedDimension
  0
DIMENSION
  5
247
330
1F
100
AcDbEntity
  8
0
  6
Continuous
 62
     7
370
    18
100
AcDbDimension
  2
_D_3
 10
203.94
 20
254.06
 30
0.0
 11
211.44
 21
254.06
 31
0.0
 70
   160
  1
<>
 71
     2
 42
-1.0
  3
SLDDIMSTYLE1
100
AcDbAlignedDimension
 13
218.94
 23
228.9044107485
 33
0.0
 14
203.94
 24
243.9044107485
 34
0.0
100
AcDbRotatedDimension
  0
DIMENSION
  5
253
330
1F
100
AcDbEntity
  8
0
  6
Continuous
 62
     7
370
    18
100
AcDbDimension
  2
_D_4
 10
228.94
 20
229.9044107485
 30
0.0
 11
228.94
 21
205.0360249097
 31
0.0
 70
   160
  1
%%c<>
 71
     2
 42
-1.0
  3
SLDDIMSTYLE3
100
AcDbAlignedDimension
 13
213.44
 23
217.9044107485
 33
0.0
 14
213.44
 24
229.9044107485
 34
0.0
 50
90.0
100
AcDbRotatedDimension
  0
LINE
  5
260
330
1F
100
AcDbEntity
  8
0
  6
CENTERX2
 62
     7
370
    18
100
AcDbLine
 10
64.44
 20
238.0544107485
 30
0.0
 11
213.44
 21
238.0544107485
 31
0.0
  0
LINE
  5
261
330
1F
100
AcDbEntity
  8
0
  6
CENTERX2
 62
     7
370
    18
100
AcDbLine
 10
64.44
 20
209.7544107485
 30
0.0
 11
213.44
 21
209.7544107485
 31
0.0
  0
LINE
  5
262
330
1F
100
AcDbEntity
  8
0
  6
CENTERX2
 62
     7
370
    18
100
AcDbLine
 10
215.44
 20
223.9044107485
 30
0.0
 11
133.94
 21
223.9044107485
 31
0.0
  0
LINE
  5
263
330
1F
100
AcDbEntity
  8
0
  6
CENTERX2
 62
     7
370
    18
100
AcDbLine
 10
157.94
 20
223.9044107485
 30
0.0
 11
108.94
 21
223.9044107485
 31
0.0
  0
LINE
  5
264
330
1F
100
AcDbEntity
  8
0
  6
CENTERX2
 62
     7
370
    18
100
AcDbLine
 10
82.94
 20
223.9044107485
 30
0.0
 11
108.94
 21
223.9044107485
 31
0.0
  0
ARC
  5
265
330
1F
100
AcDbEntity
  8
0
  6
Continuous
 62
     7
370
    25
100
AcDbCircle
 10
86.4909483476
 20
93.9044107485
 30
0.0
 40
5.499999999999992
100
AcDbArc
 50
294.6199773287
 51
335.3800226713
  0
SPLINE
  5
266
330
1F
100
AcDbEntity
  8
0
  6
Continuous
 62
     7
370
    25
100
AcDbSpline
210
0.0
220
0.0
230
1.0
 70
    24
 71
     3
 72
     9
 73
     5
 74
     0
 42
0.000000001
 43
0.00000001
 40
0.0
 40
0.0
 40
0.0
 40
0.0
 40
0.4909990996182161
 40
1.0
 40
1.0
 40
1.0
 40
1.0
 10
88.7822361950612
 20
88.9044107484542
 30
0.0
 10
88.4196819364962
 20
88.9044107484542
 30
0.0
 10
87.68128087049237
 20
88.90441074845418
 30
0.0
 10
86.89245925838603
 20
88.90441074845418
 30
0.0
 10
86.49094834758328
 20
88.90441074845418
 30
0.0
  0
ARC
  5
267
330
1F
100
AcDbEntity
  8
0
  6
Continuous
 62
     7
370
    25
100
AcDbCircle
 10
86.4909483476
 20
93.9044107485
 30
0.0
 40
5.0
100
AcDbArc
 50
270.0
 51
0.0
  0
SPLINE
  5
268
330
1F
100
AcDbEntity
  8
0
  6
Continuous
 62
     7
370
    25
100
AcDbSpline
210
0.0
220
0.0
230
1.0
 70
    24
 71
     3
 72
    10
 73
     6
 74
     0
 42
0.000000001
 43
0.00000001
 40
0.0
 40
0.0
 40
0.0
 40
0.0
 40
0.3812308165502947
 40
0.7734571841601906
 40
1.0
 40
1.0
 40
1.0
 40
1.0
 10
91.49094834758327
 20
93.90441074845418
 30
0.0
 10
91.49094834758327
 20
93.60443370672736
 30
0.0
 10
91.49094834758327
 20
92.99582761316374
 30
0.0
 10
91.49094834758328
 20
92.23150862438568
 30
0.0
 10
91.49094834758327
 20
91.77884968963423
 30
0.0
 10
91.49094834758327
 20
91.61312290097625
 30
0.0
  0
ARC
  5
269
330
1F
100
AcDbEntity
  8
0
  6
Continuous
 62
     7
370
    25
100
AcDbCircle
 10
86.4909483476
 20
93.9044107485
 30
0.0
 40
5.499999999999999
100
AcDbArc
 50
24.6199773287
 51
65.3800226713
  0
SPLINE
  5
26A
330
1F
100
AcDbEntity
  8
0
  6
Continuous
 62
     7
370
    25
100
AcDbSpline
210
0.0
220
0.0
230
1.0
 70
    24
 71
     3
 72
     9
 73
     5
 74
     0
 42
0.000000001
 43
0.00000001
 40
0.0
 40
0.0
 40
0.0
 40
0.0
 40
0.4909990996182188
 40
1.0
 40
1.0
 40
1.0
 40
1.0
 10
91.49094834758327
 20
96.1956985959321
 30
0.0
 10
91.49094834758327
 20
95.8331443373671
 30
0.0
 10
91.49094834758327
 20
95.09474327136328
 30
0.0
 10
91.49094834758327
 20
94.30592165925692
 30
0.0
 10
91.49094834758327
 20
93.90441074845418
 30
0.0
  0
ARC
  5
26B
330
1F
100
AcDbEntity
  8
0
  6
Continuous
 62
     7
370
    25
100
AcDbCircle
 10
86.4909483476
 20
93.9044107485
 30
0.0
 40
5.0
100
AcDbArc
 50
0.0
 51
90.0
  0
SPLINE
  5
26C
330
1F
100
AcDbEntity
  8
0
  6
Continuous
 62
     7
370
    25
100
AcDbSpline
210
0.0
220
0.0
230
1.0
 70
    24
 71
     3
 72
    10
 73
     6
 74
     0
 42
0.000000001
 43
0.00000001
 40
0.0
 40
0.0
 40
0.0
 40
0.0
 40
0.3812308165502878
 40
0.7734571841601812
 40
1.0
 40
1.0
 40
1.0
 40
1.0
 10
86.49094834758328
 20
98.90441074845418
 30
0.0
 10
86.7909253893101
 20
98.90441074845418
 30
0.0
 10
87.39953148287371
 20
98.90441074845418
 30
0.0
 10
88.16385047165176
 20
98.90441074845418
 30
0.0
 10
88.61650940640321
 20
98.90441074845418
 30
0.0
 10
88.7822361950612
 20
98.90441074845418
 30
0.0
  0
ARC
  5
26D
330
1F
100
AcDbEntity
  8
0
  6
Continuous
 62
     7
370
    25
100
AcDbCircle
 10
86.4909483476
 20
93.9044107485
 30
0.0
 40
5.000000000000014
100
AcDbArc
 50
180.0
 51
270.0
  0
ARC
  5
26E
330
1F
100
AcDbEntity
  8
0
  6
Continuous
 62
     7
370
    25
100
AcDbCircle
 10
86.4909483476
 20
93.9044107485
 30
0.0
 40
5.000000000000014
100
AcDbArc
 50
90.0
 51
180.0
  0
CIRCLE
  5
26F
330
1F
100
AcDbEntity
  8
0
  6
Continuous
 62
     7
370
    25
100
AcDbCircle
 10
86.4909483476
 20
93.9044107485
 30
0.0
 40
3.550000000000011
  0
ARC
  5
270
330
1F
100
AcDbEntity
  8
0
  6
Continuous
 62
     7
370
    25
100
AcDbCircle
 10
86.4909483476
 20
93.9044107485
 30
0.0
 40
5.500000000000012
100
AcDbArc
 50
114.6199773287
 51
155.3800226713
  0
SPLINE
  5
271
330
1F
100
AcDbEntity
  8
0
  6
Continuous
 62
     7
370
    25
100
AcDbSpline
210
0.0
220
0.0
230
1.0
 70
    24
 71
     3
 72
     9
 73
     5
 74
     0
 42
0.000000001
 43
0.00000001
 40
0.0
 40
0.0
 40
0.0
 40
0.0
 40
0.4909990996182172
 40
0.9999999999999999
 40
0.9999999999999999
 40
0.9999999999999999
 40
0.9999999999999999
 10
84.19966050010535
 20
98.90441074845418
 30
0.0
 10
84.56221475867036
 20
98.90441074845418
 30
0.0
 10
85.30061582467417
 20
98.90441074845418
 30
0.0
 10
86.08943743678053
 20
98.90441074845418
 30
0.0
 10
86.49094834758328
 20
98.90441074845418
 30
0.0
  0
SPLINE
  5
272
330
1F
100
AcDbEntity
  8
0
  6
Continuous
 62
     7
370
    25
100
AcDbSpline
210
0.0
220
0.0
230
1.0
 70
    24
 71
     3
 72
    10
 73
     6
 74
     0
 42
0.000000001
 43
0.00000001
 40
0.0
 40
0.0
 40
0.0
 40
0.0
 40
0.3812308165503019
 40
0.7734571841602041
 40
1.0
 40
1.0
 40
1.0
 40
1.0
 10
81.49094834758327
 20
93.90441074845418
 30
0.0
 10
81.49094834758327
 20
94.20438779018102
 30
0.0
 10
81.49094834758327
 20
94.81299388374464
 30
0.0
 10
81.49094834758327
 20
95.5773128725227
 30
0.0
 10
81.49094834758327
 20
96.02997180727412
 30
0.0
 10
81.49094834758327
 20
96.1956985959321
 30
0.0
  0
CIRCLE
  5
273
330
1F
100
AcDbEntity
  8
0
  6
Continuous
 62
     7
370
    25
100
AcDbCircle
 10
86.4909483476
 20
93.9044107485
 30
0.0
 40
3.249999999999986
  0
ARC
  5
274
330
1F
100
AcDbEntity
  8
0
  6
Continuous
 62
     7
370
    25
100
AcDbCircle
 10
86.4909483476
 20
93.9044107485
 30
0.0
 40
5.500000000000018
100
AcDbArc
 50
204.6199773287
 51
245.3800226713
  0
SPLINE
  5
275
330
1F
100
AcDbEntity
  8
0
  6
Continuous
 62
     7
370
    25
100
AcDbSpline
210
0.0
220
0.0
230
1.0
 70
    24
 71
     3
 72
     9
 73
     5
 74
     0
 42
0.000000001
 43
0.00000001
 40
0.0
 40
0.0
 40
0.0
 40
0.0
 40
0.4909990996182197
 40
1.0
 40
1.0
 40
1.0
 40
1.0
 10
81.49094834758327
 20
91.61312290097625
 30
0.0
 10
81.49094834758327
 20
91.97567715954128
 30
0.0
 10
81.49094834758327
 20
92.7140782255451
 30
0.0
 10
81.49094834758327
 20
93.50289983765146
 30
0.0
 10
81.49094834758327
 20
93.90441074845418
 30
0.0
  0
SPLINE
  5
276
330
1F
100
AcDbEntity
  8
0
  6
Continuous
 62
     7
370
    25
100
AcDbSpline
210
0.0
220
0.0
230
1.0
 70
    24
 71
     3
 72
    10
 73
     6
 74
     0
 42
0.000000001
 43
0.00000001
 40
0.0
 40
0.0
 40
0.0
 40
0.0
 40
0.3812308165503022
 40
0.7734571841602047
 40
1.0
 40
1.0
 40
1.0
 40
1.0
 10
86.49094834758328
 20
88.90441074845418
 30
0.0
 10
86.19097130585644
 20
88.90441074845418
 30
0.0
 10
85.58236521229281
 20
88.90441074845418
 30
0.0
 10
84.81804622351477
 20
88.90441074845418
 30
0.0
 10
84.36538728876332
 20
88.9044107484542
 30
0.0
 10
84.19966050010535
 20
88.9044107484542
 30
0.0
  0
ARC
  5
277
330
1F
100
AcDbEntity
  8
0
  6
Continuous
 62
     7
370
    25
100
AcDbCircle
 10
86.4909483476
 20
93.9044107485
 30
0.0
 40
5.499999999999992
100
AcDbArc
 50
335.3800226713
 51
24.6199773287
  0
CIRCLE
  5
278
330
1F
100
AcDbEntity
  8
0
  6
Continuous
 62
     7
370
    25
100
AcDbCircle
 10
86.4909483476
 20
93.9044107485
 30
0.0
 40
6.0
  0
ARC
  5
279
330
1F
100
AcDbEntity
  8
0
  6
Continuous
 62
     7
370
    25
100
AcDbCircle
 10
86.4909483476
 20
93.9044107485
 30
0.0
 40
5.500000000000018
100
AcDbArc
 50
155.3800226713
 51
204.6199773287
  0
ARC
  5
27A
330
1F
100
AcDbEntity
  8
0
  6
Continuous
 62
     7
370
    25
100
AcDbCircle
 10
86.4909483476
 20
93.9044107485
 30
0.0
 40
5.499999999999992
100
AcDbArc
 50
245.3800226713
 51
294.6199773287
  0
ARC
  5
27B
330
1F
100
AcDbEntity
  8
0
  6
Continuous
 62
     7
370
    25
100
AcDbCircle
 10
86.4909483476
 20
93.9044107485
 30
0.0
 40
5.500000000000011
100
AcDbArc
 50
65.3800226713
 51
114.6199773287
  0
CIRCLE
  5
27C
330
1F
100
AcDbEntity
  8
0
  6
Continuous
 62
     7
370
    25
100
AcDbCircle
 10
86.4909483476
 20
93.9044107485
 30
0.0
 40
11.5
  0
CIRCLE
  5
27D
330
1F
100
AcDbEntity
  8
0
  6
Continuous
 62
     7
370
    25
100
AcDbCircle
 10
86.4909483476
 20
93.9044107485
 30
0.0
 40
12.00000000000001
  0
CIRCLE
  5
27E
330
1F
100
AcDbEntity
  8
0
  6
Continuous
 62
     7
370
    25
100
AcDbCircle
 10
86.4909483476
 20
93.9044107485
 30
0.0
 40
7.5
  0
CIRCLE
  5
27F
330
1F
100
AcDbEntity
  8
0
  6
Continuous
 62
     7
370
    25
100
AcDbCircle
 10
86.4909483476
 20
93.9044107485
 30
0.0
 40
15.0
  0
CIRCLE
  5
280
330
1F
100
AcDbEntity
  8
0
  6
Continuous
 62
     7
370
    25
100
AcDbCircle
 10
100.6409483476
 20
79.7544107485
 30
0.0
 40
2.499999999999996
  0
CIRCLE
  5
281
330
1F
100
AcDbEntity
  8
0
  6
Continuous
 62
     7
370
    25
100
AcDbCircle
 10
100.6409483476
 20
79.7544107485
 30
0.0
 40
3.0
  0
CIRCLE
  5
282
330
1F
100
AcDbEntity
  8
0
  6
Continuous
 62
     7
370
    25
100
AcDbCircle
 10
100.6409483476
 20
79.7544107485
 30
0.0
 40
3.699999999999995
  0
CIRCLE
  5
283
330
1F
100
AcDbEntity
  8
0
  6
Continuous
 62
     7
370
    25
100
AcDbCircle
 10
100.6409483476
 20
79.7544107485
 30
0.0
 40
4.000000000000015
  0
ARC
  5
284
330
1F
100
AcDbEntity
  8
0
  6
Continuous
 62
     7
370
    25
100
AcDbCircle
 10
100.6409483476
 20
79.7544107485
 30
0.0
 40
4.001037365484109
100
AcDbArc
 50
120.0
 51
180.0
  0
SPLINE
  5
285
330
1F
100
AcDbEntity
  8
0
  6
Continuous
 62
     7
370
    25
100
AcDbSpline
210
0.0
220
0.0
230
1.0
 70
    24
 71
     3
 72
    10
 73
     6
 74
     0
 42
0.000000001
 43
0.00000001
 40
0.0
 40
0.0
 40
0.0
 40
0.0
 40
0.4323803487736342
 40
0.8795438931321279
 40
1.0
 40
1.0
 40
1.0
 40
1.0
 10
96.6399109820992
 20
82.06441074845418
 30
0.0
 10
96.6399109820992
 20
81.7481257880253
 30
0.0
 10
96.6399109820992
 20
81.10474200283763
 30
0.0
 10
96.63991098209918
 20
80.30707253956653
 30
0.0
 10
96.6399109820992
 20
79.85116097833641
 30
0.0
 10
96.6399109820992
 20
79.75441074845418
 30
0.0
  0
SPLINE
  5
286
330
1F
100
AcDbEntity
  8
0
  6
Continuous
 62
     7
370
    25
100
AcDbSpline
210
0.0
220
0.0
230
1.0
 70
    24
 71
     3
 72
    11
 73
     7
 74
     0
 42
0.000000001
 43
0.00000001
 40
0.0
 40
0.0
 40
0.0
 40
0.0
 40
0.020637502878175
 40
0.3834764963731757
 40
0.760659062968798
 40
1.0
 40
1.0
 40
1.0
 40
1.0
 10
98.64042966484124
 20
83.21941074845417
 30
0.0
 10
98.62606722693756
 20
83.21111859106426
 30
0.0
 10
98.35919107437243
 20
83.05703757254057
 30
0.0
 10
97.82966843048689
 20
82.75131753155114
 30
0.0
 10
97.17803240963418
 20
82.37509529949821
 30
0.0
 10
96.79039566236442
 20
82.15129311911421
 30
0.0
 10
96.6399109820992
 20
82.06441074845418
 30
0.0
  0
ARC
  5
287
330
1F
100
AcDbEntity
  8
0
  6
Continuous
 62
     7
370
    25
100
AcDbCircle
 10
100.6409483476
 20
79.7544107485
 30
0.0
 40
4.001037365484122
100
AcDbArc
 50
240.0
 51
300.0
  0
SPLINE
  5
288
330
1F
100
AcDbEntity
  8
0
  6
Continuous
 62
     7
370
    25
100
AcDbSpline
210
0.0
220
0.0
230
1.0
 70
    24
 71
     3
 72
    10
 73
     6
 74
     0
 42
0.000000001
 43
0.00000001
 40
0.0
 40
0.0
 40
0.0
 40
0.0
 40
0.2841146268164554
 40
0.6363184863281496
 40
1.0
 40
1.0
 40
1.0
 40
1.0
 10
100.6409483475833
 20
75.13441074845417
 30
0.0
 10
100.8199156768192
 20
75.23773758416466
 30
0.0
 10
101.2207405879391
 20
75.46915395449764
 30
0.0
 10
101.8893065904611
 20
75.85515071602475
 30
0.0
 10
102.3880812970053
 20
76.14311842711302
 30
0.0
 10
102.6414670303253
 20
76.28941074845416
 30
0.0
  0
SPLINE
  5
289
330
1F
100
AcDbEntity
  8
0
  6
Continuous
 62
     7
370
    25
100
AcDbSpline
210
0.0
220
0.0
230
1.0
 70
    24
 71
     3
 72
     9
 73
     5
 74
     0
 42
0.000000001
 43
0.00000001
 40
0.0
 40
0.0
 40
0.0
 40
0.0
 40
0.5039921636435325
 40
1.0
 40
1.0
 40
1.0
 40
1.0
 10
98.64042966484122
 20
76.28941074845417
 30
0.0
 10
98.99239651597699
 20
76.08620259220511
 30
0.0
 10
99.69075430112844
 20
75.68300553695725
 30
0.0
 10
100.3259074222304
 20
75.31629971151239
 30
0.0
 10
100.6409483475833
 20
75.13441074845416
 30
0.0
  0
SPLINE
  5
28A
330
1F
100
AcDbEntity
  8
0
  6
Continuous
 62
     7
370
    25
100
AcDbSpline
210
0.0
220
0.0
230
1.0
 70
    24
 71
     3
 72
    11
 73
     7
 74
     0
 42
0.000000001
 43
0.00000001
 40
0.0
 40
0.0
 40
0.0
 40
0.0
 40
0.0206375028781766
 40
0.3834764963731763
 40
0.7606590629687986
 40
1.0
 40
1.0
 40
1.0
 40
1.0
 10
102.6414670303253
 20
76.28941074845416
 30
0.0
 10
102.655829468229
 20
76.29770290584408
 30
0.0
 10
102.9227056207941
 20
76.45178392436789
 30
0.0
 10
103.4522282646797
 20
76.75750396535716
 30
0.0
 10
104.1038642855324
 20
77.13372619741013
 30
0.0
 10
104.4915010328022
 20
77.35752837779413
 30
0.0
 10
104.6419857130674
 20
77.44441074845416
 30
0.0
  0
ARC
  5
28B
330
1F
100
AcDbEntity
  8
0
  6
Continuous
 62
     7
370
    25
100
AcDbCircle
 10
100.6409483476
 20
79.7544107485
 30
0.0
 40
4.001037365484122
100
AcDbArc
 50
300.0
 51
0.0
  0
SPLINE
  5
28C
330
1F
100
AcDbEntity
  8
0
  6
Continuous
 62
     7
370
    25
100
AcDbSpline
210
0.0
220
0.0
230
1.0
 70
    24
 71
     3
 72
    10
 73
     6
 74
     0
 42
0.000000001
 43
0.00000001
 40
0.0
 40
0.0
 40
0.0
 40
0.0
 40
0.4323803487736317
 40
0.8795438931321284
 40
1.0
 40
1.0
 40
1.0
 40
1.0
 10
104.6419857130674
 20
77.44441074845416
 30
0.0
 10
104.6419857130674
 20
77.76069570888302
 30
0.0
 10
104.6419857130674
 20
78.4040794940707
 30
0.0
 10
104.6419857130674
 20
79.20174895734179
 30
0.0
 10
104.6419857130674
 20
79.65766051857192
 30
0.0
 10
104.6419857130674
 20
79.75441074845418
 30
0.0
  0
ARC
  5
28D
330
1F
100
AcDbEntity
  8
0
  6
Continuous
 62
     7
370
    25
100
AcDbCircle
 10
100.6409483476
 20
79.7544107485
 30
0.0
 40
4.001037365484117
100
AcDbArc
 50
180.0
 51
240.0
  0
SPLINE
  5
28E
330
1F
100
AcDbEntity
  8
0
  6
Continuous
 62
     7
370
    25
100
AcDbSpline
210
0.0
220
0.0
230
1.0
 70
    24
 71
     3
 72
     9
 73
     5
 74
     0
 42
0.000000001
 43
0.00000001
 40
0.0
 40
0.0
 40
0.0
 40
0.0
 40
0.5039921636435315
 40
1.0
 40
1.0
 40
1.0
 40
1.0
 10
96.63991098209918
 20
79.75441074845418
 30
0.0
 10
96.63991098209918
 20
79.34799443595604
 30
0.0
 10
96.6399109820992
 20
78.54160032546035
 30
0.0
 10
96.63991098209918
 20
77.8081886745706
 30
0.0
 10
96.63991098209918
 20
77.44441074845416
 30
0.0
  0
SPLINE
  5
28F
330
1F
100
AcDbEntity
  8
0
  6
Continuous
 62
     7
370
    25
100
AcDbSpline
210
0.0
220
0.0
230
1.0
 70
    24
 71
     3
 72
    10
 73
     6
 74
     0
 42
0.000000001
 43
0.00000001
 40
0.0
 40
0.0
 40
0.0
 40
0.0
 40
0.4323803487736319
 40
0.8795438931321304
 40
1.0
 40
1.0
 40
1.0
 40
1.0
 10
96.63991098209918
 20
77.44441074845417
 30
0.0
 10
96.91382179266554
 20
77.28626826823974
 30
0.0
 10
97.47100849502107
 20
76.96457637564589
 30
0.0
 10
98.1618105140369
 20
76.56574164401034
 30
0.0
 10
98.55664150794122
 20
76.3377858633953
 30
0.0
 10
98.64042966484122
 20
76.28941074845417
 30
0.0
  0
ARC
  5
290
330
1F
100
AcDbEntity
  8
0
  6
Continuous
 62
     7
370
    25
100
AcDbCircle
 10
100.6409483476
 20
79.7544107485
 30
0.0
 40
4.001037365484098
100
AcDbArc
 50
0.0
 51
60.0
  0
SPLINE
  5
291
330
1F
100
AcDbEntity
  8
0
  6
Continuous
 62
     7
370
    25
100
AcDbSpline
210
0.0
220
0.0
230
1.0
 70
    24
 71
     3
 72
    10
 73
     6
 74
     0
 42
0.000000001
 43
0.00000001
 40
0.0
 40
0.0
 40
0.0
 40
0.0
 40
0.4323803487736315
 40
0.8795438931321277
 40
1.0
 40
1.0
 40
1.0
 40
1.0
 10
104.6419857130674
 20
82.06441074845416
 30
0.0
 10
104.368074902501
 20
82.2225532286686
 30
0.0
 10
103.8108882001455
 20
82.54424512126245
 30
0.0
 10
103.1200861811297
 20
82.94307985289798
 30
0.0
 10
102.7252551872254
 20
83.17103563351304
 30
0.0
 10
102.6414670303253
 20
83.21941074845417
 30
0.0
  0
SPLINE
  5
292
330
1F
100
AcDbEntity
  8
0
  6
Continuous
 62
     7
370
    25
100
AcDbSpline
210
0.0
220
0.0
230
1.0
 70
    24
 71
     3
 72
     9
 73
     5
 74
     0
 42
0.000000001
 43
0.00000001
 40
0.0
 40
0.0
 40
0.0
 40
0.0
 40
0.503992163643536
 40
1.0
 40
1.0
 40
1.0
 40
1.0
 10
104.6419857130674
 20
79.75441074845418
 30
0.0
 10
104.6419857130674
 20
80.16082706095229
 30
0.0
 10
104.6419857130674
 20
80.96722117144799
 30
0.0
 10
104.6419857130674
 20
81.70063282233772
 30
0.0
 10
104.6419857130674
 20
82.06441074845416
 30
0.0
  0
ARC
  5
293
330
1F
100
AcDbEntity
  8
0
  6
Continuous
 62
     7
370
    25
100
AcDbCircle
 10
100.6409483476
 20
79.7544107485
 30
0.0
 40
4.001037365484098
100
AcDbArc
 50
60.0
 51
120.0
  0
SPLINE
  5
294
330
1F
100
AcDbEntity
  8
0
  6
Continuous
 62
     7
370
    25
100
AcDbSpline
210
0.0
220
0.0
230
1.0
 70
    24
 71
     3
 72
    10
 73
     6
 74
     0
 42
0.000000001
 43
0.00000001
 40
0.0
 40
0.0
 40
0.0
 40
0.0
 40
0.2841146268164537
 40
0.636318486328149
 40
0.9999999999999999
 40
0.9999999999999999
 40
0.9999999999999999
 40
0.9999999999999999
 10
100.6409483475833
 20
84.37441074845417
 30
0.0
 10
100.4619810183474
 20
84.27108391274368
 30
0.0
 10
100.0611561072275
 20
84.03966754241068
 30
0.0
 10
99.39259010470548
 20
83.65367078088357
 30
0.0
 10
98.89381539816131
 20
83.36570306979532
 30
0.0
 10
98.64042966484124
 20
83.21941074845417
 30
0.0
  0
SPLINE
  5
295
330
1F
100
AcDbEntity
  8
0
  6
Continuous
 62
     7
370
    25
100
AcDbSpline
210
0.0
220
0.0
230
1.0
 70
    24
 71
     3
 72
     9
 73
     5
 74
     0
 42
0.000000001
 43
0.00000001
 40
0.0
 40
0.0
 40
0.0
 40
0.0
 40
0.5039921636435287
 40
1.0
 40
1.0
 40
1.0
 40
1.0
 10
102.6414670303253
 20
83.21941074845417
 30
0.0
 10
102.2895001791896
 20
83.42261890470323
 30
0.0
 10
101.5911423940381
 20
83.82581595995107
 30
0.0
 10
100.9559892729362
 20
84.19252178539595
 30
0.0
 10
100.6409483475833
 20
84.37441074845417
 30
0.0
  0
CIRCLE
  5
296
330
1F
100
AcDbEntity
  8
0
  6
Continuous
 62
     7
370
    25
100
AcDbCircle
 10
72.3409483476
 20
79.7544107485
 30
0.0
 40
3.699999999999988
  0
CIRCLE
  5
297
330
1F
100
AcDbEntity
  8
0
  6
Continuous
 62
     7
370
    25
100
AcDbCircle
 10
72.3409483476
 20
79.7544107485
 30
0.0
 40
3.999999999999996
  0
CIRCLE
  5
298
330
1F
100
AcDbEntity
  8
0
  6
Continuous
 62
     7
370
    25
100
AcDbCircle
 10
72.3409483476
 20
79.7544107485
 30
0.0
 40
2.499999999999996
  0
CIRCLE
  5
299
330
1F
100
AcDbEntity
  8
0
  6
Continuous
 62
     7
370
    25
100
AcDbCircle
 10
72.3409483476
 20
79.7544107485
 30
0.0
 40
3.0
  0
SPLINE
  5
29A
330
1F
100
AcDbEntity
  8
0
  6
Continuous
 62
     7
370
    25
100
AcDbSpline
210
0.0
220
0.0
230
1.0
 70
    24
 71
     3
 72
     9
 73
     5
 74
     0
 42
0.000000001
 43
0.00000001
 40
0.0
 40
0.0
 40
0.0
 40
0.0
 40
0.503992163643536
 40
1.0
 40
1.0
 40
1.0
 40
1.0
 10
74.34146703032532
 20
76.28941074845417
 30
0.0
 10
74.69343388146109
 20
76.49261890470324
 30
0.0
 10
75.39179166661252
 20
76.89581595995108
 30
0.0
 10
76.02694478771451
 20
77.26252178539595
 30
0.0
 10
76.34198571306737
 20
77.44441074845416
 30
0.0
  0
ARC
  5
29B
330
1F
100
AcDbEntity
  8
0
  6
Continuous
 62
     7
370
    25
100
AcDbCircle
 10
72.3409483476
 20
79.7544107485
 30
0.0
 40
4.001037365484109
100
AcDbArc
 50
300.0
 51
0.0
  0
SPLINE
  5
29C
330
1F
100
AcDbEntity
  8
0
  6
Continuous
 62
     7
370
    25
100
AcDbSpline
210
0.0
220
0.0
230
1.0
 70
    24
 71
     3
 72
    10
 73
     6
 74
     0
 42
0.000000001
 43
0.00000001
 40
0.0
 40
0.0
 40
0.0
 40
0.0
 40
0.432380348773633
 40
0.8795438931321282
 40
1.0
 40
1.0
 40
1.0
 40
1.0
 10
76.34198571306737
 20
77.44441074845416
 30
0.0
 10
76.34198571306737
 20
77.76069570888302
 30
0.0
 10
76.34198571306739
 20
78.40407949407071
 30
0.0
 10
76.34198571306737
 20
79.20174895734179
 30
0.0
 10
76.34198571306737
 20
79.65766051857192
 30
0.0
 10
76.34198571306737
 20
79.75441074845416
 30
0.0
  0
SPLINE
  5
29D
330
1F
100
AcDbEntity
  8
0
  6
Continuous
 62
     7
370
    25
100
AcDbSpline
210
0.0
220
0.0
230
1.0
 70
    24
 71
     3
 72
     9
 73
     5
 74
     0
 42
0.000000001
 43
0.00000001
 40
0.0
 40
0.0
 40
0.0
 40
0.0
 40
0.5039921636435291
 40
1.0
 40
1.0
 40
1.0
 40
1.0
 10
76.34198571306737
 20
79.75441074845416
 30
0.0
 10
76.34198571306737
 20
80.16082706095229
 30
0.0
 10
76.34198571306737
 20
80.96722117144799
 30
0.0
 10
76.34198571306737
 20
81.70063282233772
 30
0.0
 10
76.34198571306737
 20
82.06441074845416
 30
0.0
  0
ARC
  5
29E
330
1F
100
AcDbEntity
  8
0
  6
Continuous
 62
     7
370
    25
100
AcDbCircle
 10
72.3409483476
 20
79.7544107485
 30
0.0
 40
4.00103736548411
100
AcDbArc
 50
0.0
 51
60.0
  0
SPLINE
  5
29F
330
1F
100
AcDbEntity
  8
0
  6
Continuous
 62
     7
370
    25
100
AcDbSpline
210
0.0
220
0.0
230
1.0
 70
    24
 71
     3
 72
    10
 73
     6
 74
     0
 42
0.000000001
 43
0.00000001
 40
0.0
 40
0.0
 40
0.0
 40
0.0
 40
0.2841146268164536
 40
0.6363184863281495
 40
1.0
 40
1.0
 40
1.0
 40
1.0
 10
76.34198571306737
 20
82.06441074845416
 30
0.0
 10
76.16301838383148
 20
82.16773758416466
 30
0.0
 10
75.76219347271157
 20
82.39915395449763
 30
0.0
 10
75.09362747018955
 20
82.78515071602476
 30
0.0
 10
74.59485276364538
 20
83.07311842711302
 30
0.0
 10
74.34146703032532
 20
83.21941074845417
 30
0.0
  0
ARC
  5
2A0
330
1F
100
AcDbEntity
  8
0
  6
Continuous
 62
     7
370
    25
100
AcDbCircle
 10
72.3409483476
 20
79.7544107485
 30
0.0
 40
4.001037365484103
100
AcDbArc
 50
180.0
 51
240.0
  0
ARC
  5
2A1
330
1F
100
AcDbEntity
  8
0
  6
Continuous
 62
     7
370
    25
100
AcDbCircle
 10
72.3409483476
 20
79.7544107485
 30
0.0
 40
4.00103736548411
100
AcDbArc
 50
120.0
 51
180.0
  0
ARC
  5
2A2
330
1F
100
AcDbEntity
  8
0
  6
Continuous
 62
     7
370
    25
100
AcDbCircle
 10
72.3409483476
 20
79.7544107485
 30
0.0
 40
4.00103736548411
100
AcDbArc
 50
60.0
 51
120.0
  0
ARC
  5
2A3
330
1F
100
AcDbEntity
  8
0
  6
Continuous
 62
     7
370
    25
100
AcDbCircle
 10
72.3409483476
 20
79.7544107485
 30
0.0
 40
4.001037365484103
100
AcDbArc
 50
240.0
 51
300.0
  0
SPLINE
  5
2A4
330
1F
100
AcDbEntity
  8
0
  6
Continuous
 62
     7
370
    25
100
AcDbSpline
210
0.0
220
0.0
230
1.0
 70
    24
 71
     3
 72
    11
 73
     7
 74
     0
 42
0.000000001
 43
0.00000001
 40
0.0
 40
0.0
 40
0.0
 40
0.0
 40
0.0206375028781769
 40
0.3834764963731768
 40
0.7606590629687991
 40
1.0
 40
1.0
 40
1.0
 40
1.0
 10
70.34042966484122
 20
76.28941074845416
 30
0.0
 10
70.3547921027449
 20
76.28111859106426
 30
0.0
 10
70.62166825531003
 20
76.12703757254054
 30
0.0
 10
71.15119089919557
 20
75.82131753155113
 30
0.0
 10
71.80282692004828
 20
75.4450952994982
 30
0.0
 10
72.19046366731804
 20
75.2212931191142
 30
0.0
 10
72.34094834758326
 20
75.13441074845417
 30
0.0
  0
SPLINE
  5
2A5
330
1F
100
AcDbEntity
  8
0
  6
Continuous
 62
     7
370
    25
100
AcDbSpline
210
0.0
220
0.0
230
1.0
 70
    24
 71
     3
 72
    10
 73
     6
 74
     0
 42
0.000000001
 43
0.00000001
 40
0.0
 40
0.0
 40
0.0
 40
0.0
 40
0.4323803487736325
 40
0.8795438931321282
 40
1.0
 40
1.0
 40
1.0
 40
1.0
 10
72.34094834758326
 20
75.13441074845417
 30
0.0
 10
72.61485915814963
 20
75.2925532286686
 30
0.0
 10
73.17204586050515
 20
75.61424512126244
 30
0.0
 10
73.86284787952101
 20
76.01307985289799
 30
0.0
 10
74.25767887342529
 20
76.24103563351305
 30
0.0
 10
74.34146703032532
 20
76.28941074845416
 30
0.0
  0
SPLINE
  5
2A6
330
1F
100
AcDbEntity
  8
0
  6
Continuous
 62
     7
370
    25
100
AcDbSpline
210
0.0
220
0.0
230
1.0
 70
    24
 71
     3
 72
    10
 73
     6
 74
     0
 42
0.000000001
 43
0.00000001
 40
0.0
 40
0.0
 40
0.0
 40
0.0
 40
0.4323803487736344
 40
0.879543893132128
 40
1.0
 40
1.0
 40
1.0
 40
1.0
 10
72.34094834758326
 20
84.37441074845417
 30
0.0
 10
72.0670375370169
 20
84.21626826823973
 30
0.0
 10
71.50985083466138
 20
83.89457637564588
 30
0.0
 10
70.81904881564553
 20
83.49574164401035
 30
0.0
 10
70.42421782174121
 20
83.2677858633953
 30
0.0
 10
70.34042966484121
 20
83.21941074845417
 30
0.0
  0
SPLINE
  5
2A7
330
1F
100
AcDbEntity
  8
0
  6
Continuous
 62
     7
370
    25
100
AcDbSpline
210
0.0
220
0.0
230
1.0
 70
    24
 71
     3
 72
    11
 73
     7
 74
     0
 42
0.000000001
 43
0.00000001
 40
0.0
 40
0.0
 40
0.0
 40
0.0
 40
0.020637502878175
 40
0.3834764963731751
 40
0.7606590629687979
 40
1.0
 40
1.0
 40
1.0
 40
1.0
 10
74.34146703032532
 20
83.21941074845417
 30
0.0
 10
74.32710459242165
 20
83.22770290584407
 30
0.0
 10
74.06022843985657
 20
83.38178392436785
 30
0.0
 10
73.53070579597093
 20
83.68750396535715
 30
0.0
 10
72.87906977511827
 20
84.06372619741013
 30
0.0
 10
72.4914330278485
 20
84.28752837779413
 30
0.0
 10
72.34094834758326
 20
84.37441074845417
 30
0.0
  0
SPLINE
  5
2A8
330
1F
100
AcDbEntity
  8
0
  6
Continuous
 62
     7
370
    25
100
AcDbSpline
210
0.0
220
0.0
230
1.0
 70
    24
 71
     3
 72
    10
 73
     6
 74
     0
 42
0.000000001
 43
0.00000001
 40
0.0
 40
0.0
 40
0.0
 40
0.0
 40
0.2841146268164558
 40
0.6363184863281498
 40
1.0
 40
1.0
 40
1.0
 40
1.0
 10
68.33991098209916
 20
77.44441074845416
 30
0.0
 10
68.51887831133504
 20
77.34108391274367
 30
0.0
 10
68.91970322245496
 20
77.10966754241069
 30
0.0
 10
69.58826922497697
 20
76.72367078088358
 30
0.0
 10
70.08704393152115
 20
76.4357030697953
 30
0.0
 10
70.34042966484121
 20
76.28941074845416
 30
0.0
  0
SPLINE
  5
2A9
330
1F
100
AcDbEntity
  8
0
  6
Continuous
 62
     7
370
    25
100
AcDbSpline
210
0.0
220
0.0
230
1.0
 70
    24
 71
     3
 72
     9
 73
     5
 74
     0
 42
0.000000001
 43
0.00000001
 40
0.0
 40
0.0
 40
0.0
 40
0.0
 40
0.5039921636435326
 40
1.0
 40
1.0
 40
1.0
 40
1.0
 10
68.33991098209917
 20
79.75441074845418
 30
0.0
 10
68.33991098209916
 20
79.34799443595604
 30
0.0
 10
68.33991098209916
 20
78.54160032546034
 30
0.0
 10
68.33991098209916
 20
77.8081886745706
 30
0.0
 10
68.33991098209916
 20
77.44441074845416
 30
0.0
  0
SPLINE
  5
2AA
330
1F
100
AcDbEntity
  8
0
  6
Continuous
 62
     7
370
    25
100
AcDbSpline
210
0.0
220
0.0
230
1.0
 70
    24
 71
     3
 72
    10
 73
     6
 74
     0
 42
0.000000001
 43
0.00000001
 40
0.0
 40
0.0
 40
0.0
 40
0.0
 40
0.4323803487736321
 40
0.8795438931321307
 40
1.0
 40
1.0
 40
1.0
 40
1.0
 10
68.33991098209916
 20
82.06441074845416
 30
0.0
 10
68.33991098209916
 20
81.74812578802529
 30
0.0
 10
68.33991098209917
 20
81.10474200283763
 30
0.0
 10
68.33991098209914
 20
80.30707253956653
 30
0.0
 10
68.33991098209916
 20
79.85116097833641
 30
0.0
 10
68.33991098209917
 20
79.75441074845418
 30
0.0
  0
SPLINE
  5
2AB
330
1F
100
AcDbEntity
  8
0
  6
Continuous
 62
     7
370
    25
100
AcDbSpline
210
0.0
220
0.0
230
1.0
 70
    24
 71
     3
 72
     9
 73
     5
 74
     0
 42
0.000000001
 43
0.00000001
 40
0.0
 40
0.0
 40
0.0
 40
0.0
 40
0.5039921636435322
 40
1.0
 40
1.0
 40
1.0
 40
1.0
 10
70.34042966484121
 20
83.21941074845417
 30
0.0
 10
69.98846281370544
 20
83.0162025922051
 30
0.0
 10
69.29010502855401
 20
82.61300553695726
 30
0.0
 10
68.65495190745202
 20
82.24629971151239
 30
0.0
 10
68.33991098209916
 20
82.06441074845416
 30
0.0
  0
CIRCLE
  5
2AC
330
1F
100
AcDbEntity
  8
0
  6
Continuous
 62
     7
370
    25
100
AcDbCircle
 10
72.3409483476
 20
108.0544107485
 30
0.0
 40
3.70000000000002
  0
CIRCLE
  5
2AD
330
1F
100
AcDbEntity
  8
0
  6
Continuous
 62
     7
370
    25
100
AcDbCircle
 10
72.3409483476
 20
108.0544107485
 30
0.0
 40
3.000000000000012
  0
CIRCLE
  5
2AE
330
1F
100
AcDbEntity
  8
0
  6
Continuous
 62
     7
370
    25
100
AcDbCircle
 10
72.3409483476
 20
108.0544107485
 30
0.0
 40
2.500000000000008
  0
CIRCLE
  5
2AF
330
1F
100
AcDbEntity
  8
0
  6
Continuous
 62
     7
370
    25
100
AcDbCircle
 10
72.3409483476
 20
108.0544107485
 30
0.0
 40
4.000000000000008
  0
ARC
  5
2B0
330
1F
100
AcDbEntity
  8
0
  6
Continuous
 62
     7
370
    25
100
AcDbCircle
 10
72.3409483476
 20
108.0544107485
 30
0.0
 40
4.001037365484117
100
AcDbArc
 50
60.0
 51
120.0
  0
ARC
  5
2B1
330
1F
100
AcDbEntity
  8
0
  6
Continuous
 62
     7
370
    25
100
AcDbCircle
 10
72.3409483476
 20
108.0544107485
 30
0.0
 40
4.001037365484123
100
AcDbArc
 50
0.0
 51
60.0
  0
ARC
  5
2B2
330
1F
100
AcDbEntity
  8
0
  6
Continuous
 62
     7
370
    25
100
AcDbCircle
 10
72.3409483476
 20
108.0544107485
 30
0.0
 40
4.001037365484123
100
AcDbArc
 50
300.0
 51
0.0
  0
ARC
  5
2B3
330
1F
100
AcDbEntity
  8
0
  6
Continuous
 62
     7
370
    25
100
AcDbCircle
 10
72.3409483476
 20
108.0544107485
 30
0.0
 40
4.001037365484105
100
AcDbArc
 50
240.0
 51
300.0
  0
ARC
  5
2B4
330
1F
100
AcDbEntity
  8
0
  6
Continuous
 62
     7
370
    25
100
AcDbCircle
 10
72.3409483476
 20
108.0544107485
 30
0.0
 40
4.001037365484095
100
AcDbArc
 50
180.0
 51
240.0
  0
ARC
  5
2B5
330
1F
100
AcDbEntity
  8
0
  6
Continuous
 62
     7
370
    25
100
AcDbCircle
 10
72.3409483476
 20
108.0544107485
 30
0.0
 40
4.001037365484115
100
AcDbArc
 50
120.0
 51
180.0
  0
SPLINE
  5
2B6
330
1F
100
AcDbEntity
  8
0
  6
Continuous
 62
     7
370
    25
100
AcDbSpline
210
0.0
220
0.0
230
1.0
 70
    24
 71
     3
 72
    10
 73
     6
 74
     0
 42
0.000000001
 43
0.00000001
 40
0.0
 40
0.0
 40
0.0
 40
0.0
 40
0.4323803487736342
 40
0.8795438931321279
 40
1.0
 40
1.0
 40
1.0
 40
1.0
 10
76.34198571306737
 20
105.7444107484542
 30
0.0
 10
76.34198571306737
 20
106.0606957088831
 30
0.0
 10
76.34198571306736
 20
106.7040794940707
 30
0.0
 10
76.34198571306739
 20
107.5017489573418
 30
0.0
 10
76.34198571306737
 20
107.9576605185719
 30
0.0
 10
76.34198571306737
 20
108.0544107484542
 30
0.0
  0
SPLINE
  5
2B7
330
1F
100
AcDbEntity
  8
0
  6
Continuous
 62
     7
370
    25
100
AcDbSpline
210
0.0
220
0.0
230
1.0
 70
    24
 71
     3
 72
    11
 73
     7
 74
     0
 42
0.000000001
 43
0.00000001
 40
0.0
 40
0.0
 40
0.0
 40
0.0
 40
0.020637502878175
 40
0.3834764963731757
 40
0.760659062968798
 40
1.0
 40
1.0
 40
1.0
 40
1.0
 10
74.3414670303253
 20
104.5894107484542
 30
0.0
 10
74.35582946822898
 20
104.5977029058441
 30
0.0
 10
74.62270562079412
 20
104.7517839243678
 30
0.0
 10
75.15222826467966
 20
105.0575039653572
 30
0.0
 10
75.80386428553236
 20
105.4337261974102
 30
0.0
 10
76.19150103280215
 20
105.6575283777942
 30
0.0
 10
76.34198571306737
 20
105.7444107484542
 30
0.0
  0
SPLINE
  5
2B8
330
1F
100
AcDbEntity
  8
0
  6
Continuous
 62
     7
370
    25
100
AcDbSpline
210
0.0
220
0.0
230
1.0
 70
    24
 71
     3
 72
    10
 73
     6
 74
     0
 42
0.000000001
 43
0.00000001
 40
0.0
 40
0.0
 40
0.0
 40
0.0
 40
0.2841146268164554
 40
0.6363184863281496
 40
1.0
 40
1.0
 40
1.0
 40
1.0
 10
72.34094834758326
 20
112.6744107484542
 30
0.0
 10
72.16198101834738
 20
112.5710839127437
 30
0.0
 10
71.76115610722746
 20
112.3396675424107
 30
0.0
 10
71.09259010470545
 20
111.9536707808836
 30
0.0
 10
70.59381539816127
 20
111.6657030697953
 30
0.0
 10
70.34042966484121
 20
111.5194107484542
 30
0.0
  0
SPLINE
  5
2B9
330
1F
100
AcDbEntity
  8
0
  6
Continuous
 62
     7
370
    25
100
AcDbSpline
210
0.0
220
0.0
230
1.0
 70
    24
 71
     3
 72
     9
 73
     5
 74
     0
 42
0.000000001
 43
0.00000001
 40
0.0
 40
0.0
 40
0.0
 40
0.0
 40
0.5039921636435325
 40
1.0
 40
1.0
 40
1.0
 40
1.0
 10
74.34146703032532
 20
111.5194107484542
 30
0.0
 10
73.98950017918955
 20
111.7226189047033
 30
0.0
 10
73.29114239403812
 20
112.1258159599511
 30
0.0
 10
72.65598927293613
 20
112.492521785396
 30
0.0
 10
72.34094834758326
 20
112.6744107484542
 30
0.0
  0
SPLINE
  5
2BA
330
1F
100
AcDbEntity
  8
0
  6
Continuous
 62
     7
370
    25
100
AcDbSpline
210
0.0
220
0.0
230
1.0
 70
    24
 71
     3
 72
     9
 73
     5
 74
     0
 42
0.000000001
 43
0.00000001
 40
0.0
 40
0.0
 40
0.0
 40
0.0
 40
0.5039921636435315
 40
1.0
 40
1.0
 40
1.0
 40
1.0
 10
76.34198571306737
 20
108.0544107484542
 30
0.0
 10
76.34198571306737
 20
108.4608270609523
 30
0.0
 10
76.34198571306737
 20
109.267221171448
 30
0.0
 10
76.34198571306737
 20
110.0006328223377
 30
0.0
 10
76.34198571306737
 20
110.3644107484542
 30
0.0
  0
SPLINE
  5
2BB
330
1F
100
AcDbEntity
  8
0
  6
Continuous
 62
     7
370
    25
100
AcDbSpline
210
0.0
220
0.0
230
1.0
 70
    24
 71
     3
 72
    10
 73
     6
 74
     0
 42
0.000000001
 43
0.00000001
 40
0.0
 40
0.0
 40
0.0
 40
0.0
 40
0.4323803487736319
 40
0.8795438931321304
 40
1.0
 40
1.0
 40
1.0
 40
1.0
 10
76.34198571306737
 20
110.3644107484542
 30
0.0
 10
76.06807490250102
 20
110.5225532286686
 30
0.0
 10
75.5108882001455
 20
110.8442451212625
 30
0.0
 10
74.82008618112967
 20
111.243079852898
 30
0.0
 10
74.42525518722535
 20
111.4710356335131
 30
0.0
 10
74.34146703032532
 20
111.5194107484542
 30
0.0
  0
SPLINE
  5
2BC
330
1F
100
AcDbEntity
  8
0
  6
Continuous
 62
     7
370
    25
100
AcDbSpline
210
0.0
220
0.0
230
1.0
 70
    24
 71
     3
 72
     9
 73
     5
 74
     0
 42
0.000000001
 43
0.00000001
 40
0.0
 40
0.0
 40
0.0
 40
0.0
 40
0.5039921636435287
 40
1.0
 40
1.0
 40
1.0
 40
1.0
 10
70.34042966484121
 20
104.5894107484542
 30
0.0
 10
70.69239651597698
 20
104.3862025922051
 30
0.0
 10
71.3907543011284
 20
103.9830055369573
 30
0.0
 10
72.0259074222304
 20
103.6162997115124
 30
0.0
 10
72.34094834758325
 20
103.4344107484542
 30
0.0
  0
SPLINE
  5
2BD
330
1F
100
AcDbEntity
  8
0
  6
Continuous
 62
     7
370
    25
100
AcDbSpline
210
0.0
220
0.0
230
1.0
 70
    24
 71
     3
 72
    10
 73
     6
 74
     0
 42
0.000000001
 43
0.00000001
 40
0.0
 40
0.0
 40
0.0
 40
0.0
 40
0.2841146268164537
 40
0.636318486328149
 40
0.9999999999999999
 40
0.9999999999999999
 40
0.9999999999999999
 40
0.9999999999999999
 10
72.34094834758325
 20
103.4344107484542
 30
0.0
 10
72.51991567681915
 20
103.5377375841647
 30
0.0
 10
72.92074058793905
 20
103.7691539544977
 30
0.0
 10
73.58930659046108
 20
104.1551507160248
 30
0.0
 10
74.08808129700526
 20
104.443118427113
 30
0.0
 10
74.34146703032532
 20
104.5894107484542
 30
0.0
  0
SPLINE
  5
2BE
330
1F
100
AcDbEntity
  8
0
  6
Continuous
 62
     7
370
    25
100
AcDbSpline
210
0.0
220
0.0
230
1.0
 70
    24
 71
     3
 72
    10
 73
     6
 74
     0
 42
0.000000001
 43
0.00000001
 40
0.0
 40
0.0
 40
0.0
 40
0.0
 40
0.4323803487736315
 40
0.8795438931321277
 40
1.0
 40
1.0
 40
1.0
 40
1.0
 10
68.33991098209916
 20
105.7444107484542
 30
0.0
 10
68.6138217926655
 20
105.5862682682398
 30
0.0
 10
69.17100849502101
 20
105.2645763756459
 30
0.0
 10
69.86181051403689
 20
104.8657416440104
 30
0.0
 10
70.2566415079412
 20
104.6377858633953
 30
0.0
 10
70.34042966484121
 20
104.5894107484542
 30
0.0
  0
SPLINE
  5
2BF
330
1F
100
AcDbEntity
  8
0
  6
Continuous
 62
     7
370
    25
100
AcDbSpline
210
0.0
220
0.0
230
1.0
 70
    24
 71
     3
 72
     9
 73
     5
 74
     0
 42
0.000000001
 43
0.00000001
 40
0.0
 40
0.0
 40
0.0
 40
0.0
 40
0.503992163643536
 40
1.0
 40
1.0
 40
1.0
 40
1.0
 10
68.33991098209916
 20
108.0544107484542
 30
0.0
 10
68.33991098209916
 20
107.6479944359561
 30
0.0
 10
68.33991098209916
 20
106.8416003254604
 30
0.0
 10
68.33991098209916
 20
106.1081886745706
 30
0.0
 10
68.33991098209916
 20
105.7444107484542
 30
0.0
  0
SPLINE
  5
2C0
330
1F
100
AcDbEntity
  8
0
  6
Continuous
 62
     7
370
    25
100
AcDbSpline
210
0.0
220
0.0
230
1.0
 70
    24
 71
     3
 72
    10
 73
     6
 74
     0
 42
0.000000001
 43
0.00000001
 40
0.0
 40
0.0
 40
0.0
 40
0.0
 40
0.4323803487736317
 40
0.8795438931321284
 40
1.0
 40
1.0
 40
1.0
 40
1.0
 10
68.33991098209916
 20
110.3644107484542
 30
0.0
 10
68.33991098209916
 20
110.0481257880253
 30
0.0
 10
68.33991098209916
 20
109.4047420028377
 30
0.0
 10
68.33991098209916
 20
108.6070725395666
 30
0.0
 10
68.33991098209917
 20
108.1511609783364
 30
0.0
 10
68.33991098209916
 20
108.0544107484542
 30
0.0
  0
SPLINE
  5
2C1
330
1F
100
AcDbEntity
  8
0
  6
Continuous
 62
     7
370
    25
100
AcDbSpline
210
0.0
220
0.0
230
1.0
 70
    24
 71
     3
 72
    11
 73
     7
 74
     0
 42
0.000000001
 43
0.00000001
 40
0.0
 40
0.0
 40
0.0
 40
0.0
 40
0.0206375028781766
 40
0.3834764963731763
 40
0.7606590629687986
 40
1.0
 40
1.0
 40
1.0
 40
1.0
 10
70.34042966484121
 20
111.5194107484542
 30
0.0
 10
70.32606722693752
 20
111.5111185910643
 30
0.0
 10
70.05919107437248
 20
111.3570375725405
 30
0.0
 10
69.52966843048684
 20
111.0513175315512
 30
0.0
 10
68.87803240963416
 20
110.6750952994982
 30
0.0
 10
68.49039566236438
 20
110.4512931191142
 30
0.0
 10
68.33991098209916
 20
110.3644107484542
 30
0.0
  0
CIRCLE
  5
2C2
330
1F
100
AcDbEntity
  8
0
  6
Continuous
 62
     7
370
    25
100
AcDbCircle
 10
100.6409483476
 20
108.0544107485
 30
0.0
 40
3.699999999999995
  0
CIRCLE
  5
2C3
330
1F
100
AcDbEntity
  8
0
  6
Continuous
 62
     7
370
    25
100
AcDbCircle
 10
100.6409483476
 20
108.0544107485
 30
0.0
 40
3.999999999999996
  0
CIRCLE
  5
2C4
330
1F
100
AcDbEntity
  8
0
  6
Continuous
 62
     7
370
    25
100
AcDbCircle
 10
100.6409483476
 20
108.0544107485
 30
0.0
 40
2.499999999999996
  0
CIRCLE
  5
2C5
330
1F
100
AcDbEntity
  8
0
  6
Continuous
 62
     7
370
    25
100
AcDbCircle
 10
100.6409483476
 20
108.0544107485
 30
0.0
 40
3.0
  0
SPLINE
  5
2C6
330
1F
100
AcDbEntity
  8
0
  6
Continuous
 62
     7
370
    25
100
AcDbSpline
210
0.0
220
0.0
230
1.0
 70
    24
 71
     3
 72
    11
 73
     7
 74
     0
 42
0.000000001
 43
0.00000001
 40
0.0
 40
0.0
 40
0.0
 40
0.0
 40
0.0206375028781762
 40
0.3834764963731763
 40
0.7606590629687996
 40
1.0
 40
1.0
 40
1.0
 40
1.0
 10
102.6414670303253
 20
111.5194107484542
 30
0.0
 10
102.6271045924217
 20
111.5277029058441
 30
0.0
 10
102.3602284398566
 20
111.6817839243678
 30
0.0
 10
101.830705795971
 20
111.9875039653572
 30
0.0
 10
101.1790697751183
 20
112.3637261974102
 30
0.0
 10
100.7914330278485
 20
112.5875283777941
 30
0.0
 10
100.6409483475833
 20
112.6744107484542
 30
0.0
  0
ARC
  5
2C7
330
1F
100
AcDbEntity
  8
0
  6
Continuous
 62
     7
370
    25
100
AcDbCircle
 10
100.6409483476
 20
108.0544107485
 30
0.0
 40
4.00103736548411
100
AcDbArc
 50
60.0
 51
120.0
  0
SPLINE
  5
2C8
330
1F
100
AcDbEntity
  8
0
  6
Continuous
 62
     7
370
    25
100
AcDbSpline
210
0.0
220
0.0
230
1.0
 70
    24
 71
     3
 72
    10
 73
     6
 74
     0
 42
0.000000001
 43
0.00000001
 40
0.0
 40
0.0
 40
0.0
 40
0.0
 40
0.4323803487736319
 40
0.8795438931321282
 40
1.0
 40
1.0
 40
1.0
 40
1.0
 10
100.6409483475833
 20
112.6744107484542
 30
0.0
 10
100.3670375370169
 20
112.5162682682398
 30
0.0
 10
99.80985083466142
 20
112.1945763756459
 30
0.0
 10
99.11904881564556
 20
111.7957416440104
 30
0.0
 10
98.72421782174125
 20
111.5677858633953
 30
0.0
 10
98.64042966484124
 20
111.5194107484542
 30
0.0
  0
ARC
  5
2C9
330
1F
100
AcDbEntity
  8
0
  6
Continuous
 62
     7
370
    25
100
AcDbCircle
 10
100.6409483476
 20
108.0544107485
 30
0.0
 40
4.001037365484109
100
AcDbArc
 50
120.0
 51
180.0
  0
SPLINE
  5
2CA
330
1F
100
AcDbEntity
  8
0
  6
Continuous
 62
     7
370
    25
100
AcDbSpline
210
0.0
220
0.0
230
1.0
 70
    24
 71
     3
 72
    10
 73
     6
 74
     0
 42
0.000000001
 43
0.00000001
 40
0.0
 40
0.0
 40
0.0
 40
0.0
 40
0.4323803487736324
 40
0.8795438931321276
 40
1.0
 40
1.0
 40
1.0
 40
1.0
 10
96.63991098209918
 20
110.3644107484542
 30
0.0
 10
96.63991098209918
 20
110.0481257880253
 30
0.0
 10
96.63991098209918
 20
109.4047420028377
 30
0.0
 10
96.6399109820992
 20
108.6070725395666
 30
0.0
 10
96.63991098209918
 20
108.1511609783364
 30
0.0
 10
96.6399109820992
 20
108.0544107484542
 30
0.0
  0
SPLINE
  5
2CB
330
1F
100
AcDbEntity
  8
0
  6
Continuous
 62
     7
370
    25
100
AcDbSpline
210
0.0
220
0.0
230
1.0
 70
    24
 71
     3
 72
     9
 73
     5
 74
     0
 42
0.000000001
 43
0.00000001
 40
0.0
 40
0.0
 40
0.0
 40
0.0
 40
0.503992163643536
 40
1.0
 40
1.0
 40
1.0
 40
1.0
 10
98.64042966484124
 20
111.5194107484542
 30
0.0
 10
98.28846281370545
 20
111.3162025922051
 30
0.0
 10
97.59010502855404
 20
110.9130055369573
 30
0.0
 10
96.95495190745204
 20
110.5462997115124
 30
0.0
 10
96.63991098209918
 20
110.3644107484542
 30
0.0
  0
ARC
  5
2CC
330
1F
100
AcDbEntity
  8
0
  6
Continuous
 62
     7
370
    25
100
AcDbCircle
 10
100.6409483476
 20
108.0544107485
 30
0.0
 40
4.00103736548411
100
AcDbArc
 50
0.0
 51
60.0
  0
ARC
  5
2CD
330
1F
100
AcDbEntity
  8
0
  6
Continuous
 62
     7
370
    25
100
AcDbCircle
 10
100.6409483476
 20
108.0544107485
 30
0.0
 40
4.00103736548411
100
AcDbArc
 50
300.0
 51
0.0
  0
ARC
  5
2CE
330
1F
100
AcDbEntity
  8
0
  6
Continuous
 62
     7
370
    25
100
AcDbCircle
 10
100.6409483476
 20
108.0544107485
 30
0.0
 40
4.00103736548411
100
AcDbArc
 50
240.0
 51
300.0
  0
ARC
  5
2CF
330
1F
100
AcDbEntity
  8
0
  6
Continuous
 62
     7
370
    25
100
AcDbCircle
 10
100.6409483476
 20
108.0544107485
 30
0.0
 40
4.00103736548411
100
AcDbArc
 50
180.0
 51
240.0
  0
SPLINE
  5
2D0
330
1F
100
AcDbEntity
  8
0
  6
Continuous
 62
     7
370
    25
100
AcDbSpline
210
0.0
220
0.0
230
1.0
 70
    24
 71
     3
 72
    10
 73
     6
 74
     0
 42
0.000000001
 43
0.00000001
 40
0.0
 40
0.0
 40
0.0
 40
0.0
 40
0.4323803487736348
 40
0.8795438931321278
 40
1.0
 40
1.0
 40
1.0
 40
1.0
 10
100.6409483475833
 20
103.4344107484542
 30
0.0
 10
100.9148591581496
 20
103.5925532286686
 30
0.0
 10
101.4720458605052
 20
103.9142451212625
 30
0.0
 10
102.162847879521
 20
104.313079852898
 30
0.0
 10
102.5576788734253
 20
104.5410356335131
 30
0.0
 10
102.6414670303253
 20
104.5894107484542
 30
0.0
  0
SPLINE
  5
2D1
330
1F
100
AcDbEntity
  8
0
  6
Continuous
 62
     7
370
    25
100
AcDbSpline
210
0.0
220
0.0
230
1.0
 70
    24
 71
     3
 72
    11
 73
     7
 74
     0
 42
0.000000001
 43
0.00000001
 40
0.0
 40
0.0
 40
0.0
 40
0.0
 40
0.020637502878175
 40
0.3834764963731749
 40
0.7606590629687976
 40
1.0
 40
1.0
 40
1.0
 40
1.0
 10
98.64042966484124
 20
104.5894107484542
 30
0.0
 10
98.65479210274492
 20
104.5811185910643
 30
0.0
 10
98.92166825530995
 20
104.4270375725405
 30
0.0
 10
99.45119089919562
 20
104.1213175315512
 30
0.0
 10
100.1028269200483
 20
103.7450952994982
 30
0.0
 10
100.4904636673181
 20
103.5212931191142
 30
0.0
 10
100.6409483475833
 20
103.4344107484542
 30
0.0
  0
SPLINE
  5
2D2
330
1F
100
AcDbEntity
  8
0
  6
Continuous
 62
     7
370
    25
100
AcDbSpline
210
0.0
220
0.0
230
1.0
 70
    24
 71
     3
 72
     9
 73
     5
 74
     0
 42
0.000000001
 43
0.00000001
 40
0.0
 40
0.0
 40
0.0
 40
0.0
 40
0.5039921636435292
 40
1.0
 40
1.0
 40
1.0
 40
1.0
 10
96.63991098209918
 20
108.0544107484542
 30
0.0
 10
96.63991098209918
 20
107.6479944359561
 30
0.0
 10
96.63991098209918
 20
106.8416003254604
 30
0.0
 10
96.6399109820992
 20
106.1081886745706
 30
0.0
 10
96.6399109820992
 20
105.7444107484542
 30
0.0
  0
SPLINE
  5
2D3
330
1F
100
AcDbEntity
  8
0
  6
Continuous
 62
     7
370
    25
100
AcDbSpline
210
0.0
220
0.0
230
1.0
 70
    24
 71
     3
 72
    10
 73
     6
 74
     0
 42
0.000000001
 43
0.00000001
 40
0.0
 40
0.0
 40
0.0
 40
0.0
 40
0.2841146268164538
 40
0.6363184863281495
 40
0.9999999999999999
 40
0.9999999999999999
 40
0.9999999999999999
 40
0.9999999999999999
 10
96.6399109820992
 20
105.7444107484542
 30
0.0
 10
96.81887831133507
 20
105.6410839127437
 30
0.0
 10
97.21970322245498
 20
105.4096675424107
 30
0.0
 10
97.88826922497701
 20
105.0236707808836
 30
0.0
 10
98.38704393152118
 20
104.7357030697953
 30
0.0
 10
98.64042966484124
 20
104.5894107484542
 30
0.0
  0
SPLINE
  5
2D4
330
1F
100
AcDbEntity
  8
0
  6
Continuous
 62
     7
370
    25
100
AcDbSpline
210
0.0
220
0.0
230
1.0
 70
    24
 71
     3
 72
     9
 73
     5
 74
     0
 42
0.000000001
 43
0.00000001
 40
0.0
 40
0.0
 40
0.0
 40
0.0
 40
0.5039921636435307
 40
1.0
 40
1.0
 40
1.0
 40
1.0
 10
102.6414670303253
 20
104.5894107484542
 30
0.0
 10
102.9934338814611
 20
104.7926189047033
 30
0.0
 10
103.6917916666125
 20
105.1958159599511
 30
0.0
 10
104.3269447877145
 20
105.562521785396
 30
0.0
 10
104.6419857130674
 20
105.7444107484542
 30
0.0
  0
SPLINE
  5
2D5
330
1F
100
AcDbEntity
  8
0
  6
Continuous
 62
     7
370
    25
100
AcDbSpline
210
0.0
220
0.0
230
1.0
 70
    24
 71
     3
 72
    10
 73
     6
 74
     0
 42
0.000000001
 43
0.00000001
 40
0.0
 40
0.0
 40
0.0
 40
0.0
 40
0.4323803487736321
 40
0.8795438931321307
 40
1.0
 40
1.0
 40
1.0
 40
1.0
 10
104.6419857130674
 20
105.7444107484542
 30
0.0
 10
104.6419857130674
 20
106.0606957088831
 30
0.0
 10
104.6419857130674
 20
106.7040794940707
 30
0.0
 10
104.6419857130674
 20
107.5017489573418
 30
0.0
 10
104.6419857130674
 20
107.9576605185719
 30
0.0
 10
104.6419857130674
 20
108.0544107484542
 30
0.0
  0
SPLINE
  5
2D6
330
1F
100
AcDbEntity
  8
0
  6
Continuous
 62
     7
370
    25
100
AcDbSpline
210
0.0
220
0.0
230
1.0
 70
    24
 71
     3
 72
    10
 73
     6
 74
     0
 42
0.000000001
 43
0.00000001
 40
0.0
 40
0.0
 40
0.0
 40
0.0
 40
0.2841146268164552
 40
0.6363184863281498
 40
1.0
 40
1.0
 40
1.0
 40
1.0
 10
104.6419857130674
 20
110.3644107484542
 30
0.0
 10
104.4630183838315
 20
110.4677375841647
 30
0.0
 10
104.0621934727116
 20
110.6991539544977
 30
0.0
 10
103.3936274701896
 20
111.0851507160248
 30
0.0
 10
102.8948527636454
 20
111.3731184271131
 30
0.0
 10
102.6414670303253
 20
111.5194107484542
 30
0.0
  0
SPLINE
  5
2D7
330
1F
100
AcDbEntity
  8
0
  6
Continuous
 62
     7
370
    25
100
AcDbSpline
210
0.0
220
0.0
230
1.0
 70
    24
 71
     3
 72
     9
 73
     5
 74
     0
 42
0.000000001
 43
0.00000001
 40
0.0
 40
0.0
 40
0.0
 40
0.0
 40
0.5039921636435323
 40
1.0
 40
1.0
 40
1.0
 40
1.0
 10
104.6419857130674
 20
108.0544107484542
 30
0.0
 10
104.6419857130674
 20
108.4608270609523
 30
0.0
 10
104.6419857130674
 20
109.267221171448
 30
0.0
 10
104.6419857130674
 20
110.0006328223377
 30
0.0
 10
104.6419857130674
 20
110.3644107484542
 30
0.0
  0
CIRCLE
  5
2D8
330
1F
100
AcDbEntity
  8
0
  6
Continuous
 62
     7
370
    25
100
AcDbCircle
 10
100.6409483476
 20
79.7544107485
 30
0.0
 40
1.999999999999957
  0
CIRCLE
  5
2D9
330
1F
100
AcDbEntity
  8
0
  6
Continuous
 62
     7
370
    25
100
AcDbCircle
 10
72.3409483476
 20
108.0544107485
 30
0.0
 40
1.999999999999957
  0
CIRCLE
  5
2DA
330
1F
100
AcDbEntity
  8
0
  6
Continuous
 62
     7
370
    25
100
AcDbCircle
 10
100.6409483476
 20
108.0544107485
 30
0.0
 40
2.0
  0
CIRCLE
  5
2DB
330
1F
100
AcDbEntity
  8
0
  6
Continuous
 62
     7
370
    25
100
AcDbCircle
 10
72.3409483476
 20
79.7544107485
 30
0.0
 40
2.0
  0
LINE
  5
2DC
330
1F
100
AcDbEntity
  8
0
  6
Continuous
 62
     7
370
    25
100
AcDbLine
 10
105.9909483476
 20
73.9044107485
 30
0.0
 11
106.4909483476
 21
74.4044107485
 31
0.0
  0
LINE
  5
2DD
330
1F
100
AcDbEntity
  8
0
  6
Continuous
 62
     7
370
    25
100
AcDbLine
 10
66.9909483476
 20
73.9044107485
 30
0.0
 11
105.9909483476
 21
73.9044107485
 31
0.0
  0
LINE
  5
2DE
330
1F
100
AcDbEntity
  8
0
  6
Continuous
 62
     7
370
    25
100
AcDbLine
 10
66.4909483476
 20
74.4044107485
 30
0.0
 11
66.9909483476
 21
73.9044107485
 31
0.0
  0
LINE
  5
2DF
330
1F
100
AcDbEntity
  8
0
  6
Continuous
 62
     7
370
    25
100
AcDbLine
 10
66.4909483476
 20
74.4044107485
 30
0.0
 11
66.4909483476
 21
113.4044107485
 31
0.0
  0
LINE
  5
2E0
330
1F
100
AcDbEntity
  8
0
  6
Continuous
 62
     7
370
    25
100
AcDbLine
 10
66.9909483476
 20
113.9044107485
 30
0.0
 11
66.4909483476
 21
113.4044107485
 31
0.0
  0
LINE
  5
2E1
330
1F
100
AcDbEntity
  8
0
  6
Continuous
 62
     7
370
    25
100
AcDbLine
 10
106.4909483476
 20
113.4044107485
 30
0.0
 11
105.9909483476
 21
113.9044107485
 31
0.0
  0
ARC
  5
2E2
330
1F
100
AcDbEntity
  8
0
  6
Continuous
 62
     7
370
    25
100
AcDbCircle
 10
86.4909483476
 20
93.9044107485
 30
0.0
 40
16.50000000000001
100
AcDbArc
 50
232.0234450749
 51
270.0
  0
ARC
  5
2E3
330
1F
100
AcDbEntity
  8
0
  6
Continuous
 62
     7
370
    25
100
AcDbCircle
 10
86.4909483476
 20
93.9044107485
 30
0.0
 40
16.50000000000003
100
AcDbArc
 50
141.2818463598
 51
218.7605576882
  0
ARC
  5
2E4
330
1F
100
AcDbEntity
  8
0
  6
Continuous
 62
     7
370
    25
100
AcDbCircle
 10
86.4909483476
 20
93.9044107485
 30
0.0
 40
16.50000000000002
100
AcDbArc
 50
51.9687568421
 51
127.9934013241
  0
ARC
  5
2E5
330
1F
100
AcDbEntity
  8
0
  6
Continuous
 62
     7
370
    25
100
AcDbCircle
 10
86.4909483476
 20
93.9044107485
 30
0.0
 40
16.50000000000001
100
AcDbArc
 50
321.3543717703
 51
38.7686333067
  0
ARC
  5
2E6
330
1F
100
AcDbEntity
  8
0
  6
Continuous
 62
     7
370
    25
100
AcDbCircle
 10
86.4909483476
 20
93.9044107485
 30
0.0
 40
16.50000000000002
100
AcDbArc
 50
270.0
 51
308.0353078963
  0
LINE
  5
2E7
330
1F
100
AcDbEntity
  8
0
  6
Continuous
 62
     7
370
    25
100
AcDbLine
 10
106.4909483476
 20
74.4044107485
 30
0.0
 11
106.4909483476
 21
113.4044107485
 31
0.0
  0
LINE
  5
2E8
330
1F
100
AcDbEntity
  8
0
  6
Continuous
 62
     7
370
    25
100
AcDbLine
 10
66.9909483476
 20
113.9044107485
 30
0.0
 11
105.9909483476
 21
113.9044107485
 31
0.0
  0
DIMENSION
  5
2E9
330
1F
100
AcDbEntity
  8
0
  6
Continuous
 62
     7
370
    18
100
AcDbDimension
  2
_D_5
 10
106.4909483476
 20
51.6290288389
 30
0.0
 11
86.8348967122
 21
51.6290288389
 31
0.0
 70
   160
  1
<>
 71
     2
 42
-1.0
  3
SLDDIMSTYLE3
100
AcDbAlignedDimension
 13
66.4909483476
 23
74.4044107485
 33
0.0
 14
106.4909483476
 24
74.4044107485
 34
0.0
100
AcDbRotatedDimension
  0
DIMENSION
  5
2F3
330
1F
100
AcDbEntity
  8
0
  6
Continuous
 62
     7
370
    18
100
AcDbDimension
  2
_D_6
 10
43.7844107485
 20
113.9044107485
 30
0.0
 11
43.7844107485
 21
94.1505395179
 31
0.0
 70
   160
  1
<>
 71
     2
 42
-1.0
  3
SLDDIMSTYLE3
100
AcDbAlignedDimension
 13
66.9909483476
 23
73.9044107485
 33
0.0
 14
66.9909483476
 24
113.9044107485
 34
0.0
 50
90.0
100
AcDbRotatedDimension
  0
DIMENSION
  5
2FD
330
1F
100
AcDbEntity
  8
0
  6
Continuous
 62
     7
370
    18
100
AcDbDimension
  2
_D_7
 10
55.7844107485
 20
108.0544107485
 30
0.0
 11
55.7844107485
 21
93.5097165672
 31
0.0
 70
   160
  1
<>
 71
     2
 42
-1.0
  3
SLDDIMSTYLE4
100
AcDbAlignedDimension
 13
67.3409483476
 23
79.7544107485
 33
0.0
 14
67.3409483476
 24
108.0544107485
 34
0.0
 50
90.0
100
AcDbRotatedDimension
  0
DIMENSION
  5
308
330
1F
100
AcDbEntity
  8
0
  6
Continuous
 62
     7
370
    18
100
AcDbDimension
  2
_D_8
 10
115.1167054898
 20
81.9044107485
 30
0.0
 11
115.1167054898
 21
93.1295588727
 31
0.0
 70
   160
  1
%%c<>
 71
     2
 42
-1.0
  3
SLDDIMSTYLE1
100
AcDbAlignedDimension
 13
86.4909483476
 23
105.9044107485
 33
0.0
 14
86.4909483476
 24
81.9044107485
 34
0.0
 50
90.0
100
AcDbRotatedDimension
  0
DIMENSION
  5
313
330
1F
100
AcDbEntity
  8
0
  6
Continuous
 62
     7
370
    18
100
AcDbDimension
  2
_D_9
 10
100.6409483476
 20
63.7488214969
 30
0.0
 11
86.4909483476
 21
63.7488214969
 31
0.0
 70
   160
  1
<>
 71
     2
 42
-1.0
  3
SLDDIMSTYLE0
100
AcDbAlignedDimension
 13
72.3409483476
 23
74.7544107485
 33
0.0
 14
100.6409483476
 24
74.2544107485
 34
0.0
100
AcDbRotatedDimension
  0
DIMENSION
  5
31D
330
1F
100
AcDbEntity
  8
0
  6
Continuous
 62
     7
370
    18
100
AcDbDimension
  2
_D_10
 10
83.9807192744
 20
91.3941816752
 30
0.0
 11
116.6465475991
 21
124.06001
 31
0.0
 70
   163
  1
M10x1.25
 71
     1
 42
-1.0
  3
SLDDIMSTYLE5
100
AcDbDiametricDimension
 15
89.0011774208
 25
96.4146398217
 35
0.0
 40
0.0
  0
INSERT
  5
334
330
1F
100
AcDbEntity
  8
0
  6
Continuous
 62
     7
370
     0
100
AcDbBlockReference
  2
SW_CENTERMARKSYMBOL_0
 10
100.6409483476
 20
108.0544107485
 30
0.0
  0
INSERT
  5
340
330
1F
100
AcDbEntity
  8
0
  6
Continuous
 62
     7
370
     0
100
AcDbBlockReference
  2
SW_CENTERMARKSYMBOL_1
 10
86.4909483476
 20
93.9044107485
 30
0.0
  0
INSERT
  5
34C
330
1F
100
AcDbEntity
  8
0
  6
Continuous
 62
     7
370
     0
100
AcDbBlockReference
  2
SW_CENTERMARKSYMBOL_2
 10
72.3409483476
 20
108.0544107485
 30
0.0
  0
INSERT
  5
358
330
1F
100
AcDbEntity
  8
0
  6
Continuous
 62
     7
370
     0
100
AcDbBlockReference
  2
SW_CENTERMARKSYMBOL_3
 10
72.3409483476
 20
79.7544107485
 30
0.0
  0
INSERT
  5
364
330
1F
100
AcDbEntity
  8
0
  6
Continuous
 62
     7
370
     0
100
AcDbBlockReference
  2
SW_CENTERMARKSYMBOL_4
 10
100.6409483476
 20
79.7544107485
 30
0.0
  0
ENDSEC
  0
SECTION
  2
OBJECTS
  0
DICTIONARY
  5
C
330
0
100
AcDbDictionary
281
     1
  3
ACAD_GROUP
350
D
  3
ACAD_LAYOUT
350
1A
  3
ACAD_MLINESTYLE
350
17
  3
ACAD_PLOTSETTINGS
350
19
  3
ACAD_PLOTSTYLENAME
350
E
  3
ACAD_SCALELIST
350
47
  0
DICTIONARY
  5
D
102
{ACAD_REACTORS
330
C
102
}
330
C
100
AcDbDictionary
281
     1
  0
DICTIONARY
  5
1A
102
{ACAD_REACTORS
330
C
102
}
330
C
100
AcDbDictionary
281
     1
  3
Layout1
350
1E
  3
Layout2
350
26
  3
Model
350
22
  0
DICTIONARY
  5
17
102
{ACAD_REACTORS
330
C
102
}
330
C
100
AcDbDictionary
281
     1
  3
Standard
350
18
  0
DICTIONARY
  5
19
102
{ACAD_REACTORS
330
C
102
}
330
C
100
AcDbDictionary
281
     1
  0
ACDBDICTIONARYWDFLT
  5
E
102
{ACAD_REACTORS
330
C
102
}
330
C
100
AcDbDictionary
281
     1
  3
Normal
350
F
100
AcDbDictionaryWithDefault
340
F
  0
DICTIONARY
  5
47
102
{ACAD_REACTORS
330
C
102
}
330
C
100
AcDbDictionary
281
     1
  3
A0
350
48
  3
A1
350
49
  3
A2
350
4A
  3
A3
350
4B
  3
A4
350
4C
  3
A5
350
4D
  3
A6
350
4E
  3
A7
350
4F
  3
A8
350
50
  3
A9
350
51
  3
B0
350
52
  3
B1
350
53
  3
B2
350
54
  3
B3
350
55
  3
B4
350
56
  3
B5
350
57
  3
B6
350
58
  3
B7
350
59
  3
B8
350
5A
  3
B9
350
5B
  3
C0
350
5C
  3
C1
350
5D
  3
C2
350
5E
  3
C3
350
5F
  3
C4
350
60
  3
C5
350
61
  3
C6
350
62
  3
C7
350
63
  3
C8
350
64
  3
C9
350
65
  3
D0
350
66
  3
D1
350
67
  3
D2
350
68
  0
LAYOUT
  5
1E
102
{ACAD_REACTORS
330
1A
102
}
330
1A
100
AcDbPlotSettings
  1

  2
none_device
  4

  6

 40
0.0
 41
0.0
 42
0.0
 43
0.0
 44
0.0
 45
0.0
 46
0.0
 47
0.0
 48
0.0
 49
0.0
140
0.0
141
0.0
142
1.0
143
1.0
 70
   688
 72
     1
 73
     0
 74
     5
  7

 75
    16
147
1.0
148
0.0
149
0.0
100
AcDbLayout
  1
Layout1
 70
     1
 71
     1
 10
0.0
 20
0.0
 11
420.0
 21
297.0
 12
0.0
 22
0.0
 32
0.0
 14
1.0000000000E+20
 24
1.0000000000E+20
 34
1.0000000000E+20
 15
-1.0000000000E+20
 25
-1.0000000000E+20
 35
-1.0000000000E+20
146
0.0
 13
0.0
 23
0.0
 33
0.0
 16
1.0
 26
0.0
 36
0.0
 17
0.0
 27
1.0
 37
0.0
 76
     0
330
1B
  0
LAYOUT
  5
26
102
{ACAD_REACTORS
330
1A
102
}
330
1A
100
AcDbPlotSettings
  1

  2
none_device
  4

  6

 40
0.0
 41
0.0
 42
0.0
 43
0.0
 44
0.0
 45
0.0
 46
0.0
 47
0.0
 48
0.0
 49
0.0
140
0.0
141
0.0
142
1.0
143
1.0
 70
   688
 72
     1
 73
     0
 74
     5
  7

 75
    16
147
1.0
148
0.0
149
0.0
100
AcDbLayout
  1
Layout2
 70
     1
 71
     2
 10
0.0
 20
0.0
 11
0.0
 21
0.0
 12
0.0
 22
0.0
 32
0.0
 14
0.0
 24
0.0
 34
0.0
 15
0.0
 25
0.0
 35
0.0
146
0.0
 13
0.0
 23
0.0
 33
0.0
 16
1.0
 26
0.0
 36
0.0
 17
0.0
 27
1.0
 37
0.0
 76
     0
330
23
  0
LAYOUT
  5
22
102
{ACAD_REACTORS
330
1A
102
}
330
1A
100
AcDbPlotSettings
  1

  2
none_device
  4
Letter_(8.50_x_11.00_Inches)
  6

 40
6.35
 41
6.35
 42
6.35000508
 43
6.35000508
 44
215.9
 45
279.4
 46
0.0
 47
0.0
 48
0.0
 49
0.0
140
0.0
141
0.0
142
1.0
143
1.0
 70
  1712
 72
     1
 73
     0
 74
     0
  7

 75
     0
147
1.0
148
0.0
149
0.0
100
AcDbLayout
  1
Model
 70
     1
 71
     0
 10
0.0
 20
0.0
 11
420.0
 21
297.0
 12
0.0
 22
0.0
 32
0.0
 14
0.0
 24
0.0
 34
0.0
 15
420.0
 25
297.0
 35
0.0
146
0.0
 13
0.0
 23
0.0
 33
0.0
 16
1.0
 26
0.0
 36
0.0
 17
0.0
 27
1.0
 37
0.0
 76
     0
330
1F
331
29
  0
MLINESTYLE
  5
18
102
{ACAD_REACTORS
330
17
102
}
330
17
100
AcDbMlineStyle
  2
Standard
 70
     0
  3

 62
   256
 51
90.0
 52
90.0
 71
     2
 49
0.5
 62
   256
  6
BYLAYER
 49
-0.5
 62
   256
  6
BYLAYER
  0
ACDBPLACEHOLDER
  5
F
102
{ACAD_REACTORS
330
E
102
}
330
E
  0
SCALE
  5
48
102
{ACAD_REACTORS
330
47
102
}
330
47
100
AcDbScale
 70
     0
300
1:1
140
1.0
141
1.0
290
     1
  0
SCALE
  5
49
102
{ACAD_REACTORS
330
47
102
}
330
47
100
AcDbScale
 70
     0
300
1:2
140
1.0
141
2.0
290
     0
  0
SCALE
  5
4A
102
{ACAD_REACTORS
330
47
102
}
330
47
100
AcDbScale
 70
     0
300
1:4
140
1.0
141
4.0
290
     0
  0
SCALE
  5
4B
102
{ACAD_REACTORS
330
47
102
}
330
47
100
AcDbScale
 70
     0
300
1:5
140
1.0
141
5.0
290
     0
  0
SCALE
  5
4C
102
{ACAD_REACTORS
330
47
102
}
330
47
100
AcDbScale
 70
     0
300
1:8
140
1.0
141
8.0
290
     0
  0
SCALE
  5
4D
102
{ACAD_REACTORS
330
47
102
}
330
47
100
AcDbScale
 70
     0
300
1:10
140
1.0
141
10.0
290
     0
  0
SCALE
  5
4E
102
{ACAD_REACTORS
330
47
102
}
330
47
100
AcDbScale
 70
     0
300
1:16
140
1.0
141
16.0
290
     0
  0
SCALE
  5
4F
102
{ACAD_REACTORS
330
47
102
}
330
47
100
AcDbScale
 70
     0
300
1:20
140
1.0
141
20.0
290
     0
  0
SCALE
  5
50
102
{ACAD_REACTORS
330
47
102
}
330
47
100
AcDbScale
 70
     0
300
1:30
140
1.0
141
30.0
290
     0
  0
SCALE
  5
51
102
{ACAD_REACTORS
330
47
102
}
330
47
100
AcDbScale
 70
     0
300
1:40
140
1.0
141
40.0
290
     0
  0
SCALE
  5
52
102
{ACAD_REACTORS
330
47
102
}
330
47
100
AcDbScale
 70
     0
300
1:50
140
1.0
141
50.0
290
     0
  0
SCALE
  5
53
102
{ACAD_REACTORS
330
47
102
}
330
47
100
AcDbScale
 70
     0
300
1:100
140
1.0
141
100.0
290
     0
  0
SCALE
  5
54
102
{ACAD_REACTORS
330
47
102
}
330
47
100
AcDbScale
 70
     0
300
2:1
140
2.0
141
1.0
290
     0
  0
SCALE
  5
55
102
{ACAD_REACTORS
330
47
102
}
330
47
100
AcDbScale
 70
     0
300
4:1
140
4.0
141
1.0
290
     0
  0
SCALE
  5
56
102
{ACAD_REACTORS
330
47
102
}
330
47
100
AcDbScale
 70
     0
300
8:1
140
8.0
141
1.0
290
     0
  0
SCALE
  5
57
102
{ACAD_REACTORS
330
47
102
}
330
47
100
AcDbScale
 70
     0
300
10:1
140
10.0
141
1.0
290
     0
  0
SCALE
  5
58
102
{ACAD_REACTORS
330
47
102
}
330
47
100
AcDbScale
 70
     0
300
100:1
140
100.0
141
1.0
290
     0
  0
SCALE
  5
59
102
{ACAD_REACTORS
330
47
102
}
330
47
100
AcDbScale
 70
     0
300
1/128" = 1'-0"
140
0.0078125
141
12.0
290
     0
  0
SCALE
  5
5A
102
{ACAD_REACTORS
330
47
102
}
330
47
100
AcDbScale
 70
     0
300
1/64" = 1'-0"
140
0.015625
141
12.0
290
     0
  0
SCALE
  5
5B
102
{ACAD_REACTORS
330
47
102
}
330
47
100
AcDbScale
 70
     0
300
1/32" = 1'-0"
140
0.03125
141
12.0
290
     0
  0
SCALE
  5
5C
102
{ACAD_REACTORS
330
47
102
}
330
47
100
AcDbScale
 70
     0
300
1/16" = 1'-0"
140
0.0625
141
12.0
290
     0
  0
SCALE
  5
5D
102
{ACAD_REACTORS
330
47
102
}
330
47
100
AcDbScale
 70
     0
300
3/32" = 1'-0"
140
0.09375
141
12.0
290
     0
  0
SCALE
  5
5E
102
{ACAD_REACTORS
330
47
102
}
330
47
100
AcDbScale
 70
     0
300
1/8" = 1'-0"
140
0.125
141
12.0
290
     0
  0
SCALE
  5
5F
102
{ACAD_REACTORS
330
47
102
}
330
47
100
AcDbScale
 70
     0
300
3/16" = 1'-0"
140
0.1875
141
12.0
290
     0
  0
SCALE
  5
60
102
{ACAD_REACTORS
330
47
102
}
330
47
100
AcDbScale
 70
     0
300
1/4" = 1'-0"
140
0.25
141
12.0
290
     0
  0
SCALE
  5
61
102
{ACAD_REACTORS
330
47
102
}
330
47
100
AcDbScale
 70
     0
300
3/8" = 1'-0"
140
0.375
141
12.0
290
     0
  0
SCALE
  5
62
102
{ACAD_REACTORS
330
47
102
}
330
47
100
AcDbScale
 70
     0
300
1/2" = 1'-0"
140
0.5
141
12.0
290
     0
  0
SCALE
  5
63
102
{ACAD_REACTORS
330
47
102
}
330
47
100
AcDbScale
 70
     0
300
3/4" = 1'-0"
140
0.75
141
12.0
290
     0
  0
SCALE
  5
64
102
{ACAD_REACTORS
330
47
102
}
330
47
100
AcDbScale
 70
     0
300
1" = 1'-0"
140
1.0
141
12.0
290
     0
  0
SCALE
  5
65
102
{ACAD_REACTORS
330
47
102
}
330
47
100
AcDbScale
 70
     0
300
1-1/2" = 1'-0"
140
1.5
141
12.0
290
     0
  0
SCALE
  5
66
102
{ACAD_REACTORS
330
47
102
}
330
47
100
AcDbScale
 70
     0
300
3" = 1'-0"
140
3.0
141
12.0
290
     0
  0
SCALE
  5
67
102
{ACAD_REACTORS
330
47
102
}
330
47
100
AcDbScale
 70
     0
300
6" = 1'-0"
140
6.0
141
12.0
290
     0
  0
SCALE
  5
68
102
{ACAD_REACTORS
330
47
102
}
330
47
100
AcDbScale
 70
     0
300
1'-0" = 1'-0"
140
12.0
141
12.0
290
     0
  0
ENDSEC
  0
EOF
