  0
SECTION
  2
HEADER
  9
$ACADVER
  1
AC1015
  9
$ACADMAINTVER
 70
     6
  9
$DWGCODEPAGE
  3
ANSI_1250
  9
$INSBASE
 10
0.0
 20
0.0
 30
0.0
  9
$EXTMIN
 10
0.0
 20
0.0
 30
0.0
  9
$EXTMAX
 10
420.0
 20
297.0
 30
0.0
  9
$LIMMIN
 10
0.0
 20
0.0
  9
$LIMMAX
 10
420.0
 20
297.0
  9
$ORTHOMODE
 70
     0
  9
$REGENMODE
 70
     1
  9
$FILLMODE
 70
     1
  9
$QTEXTMODE
 70
     0
  9
$MIRRTEXT
 70
     1
  9
$LTSCALE
 40
1.0
  9
$ATTMODE
 70
     1
  9
$TEXTSIZE
 40
3.5
  9
$TRACEWID
 40
1.0
  9
$TEXTSTYLE
  7
Standard
  9
$CLAYER
  8
0
  9
$CELTYPE
  6
ByLayer
  9
$CECOLOR
 62
   256
  9
$CELTSCALE
 40
1.0
  9
$DISPSILH
 70
     0
  9
$DIMSCALE
 40
1.0
  9
$DIMASZ
 40
3.302
  9
$DIMEXO
 40
1.0
  9
$DIMDLI
 40
3.75
  9
$DIMRND
 40
0.0
  9
$DIMDLE
 40
0.0
  9
$DIMEXE
 40
1.0
  9
$DIMTP
 40
0.0
  9
$DIMTM
 40
0.0
  9
$DIMTXT
 40
3.5
  9
$DIMCEN
 40
2.5
  9
$DIMTSZ
 40
0.0
  9
$DIMTOL
 70
     0
  9
$DIMLIM
 70
     0
  9
$DIMTIH
 70
     1
  9
$DIMTOH
 70
     1
  9
$DIMSE1
 70
     0
  9
$DIMSE2
 70
     0
  9
$DIMTAD
 70
     1
  9
$DIMZIN
 70
     1
  9
$DIMBLK
  1

  9
$DIMASO
 70
     1
  9
$DIMSHO
 70
     1
  9
$DIMPOST
  1

  9
$DIMAPOST
  1

  9
$DIMALT
 70
     0
  9
$DIMALTD
 70
     3
  9
$DIMALTF
 40
0.0393700787
  9
$DIMLFAC
 40
1.0
  9
$DIMTOFL
 70
     1
  9
$DIMTVP
 40
0.0
  9
$DIMTIX
 70
     0
  9
$DIMSOXD
 70
     0
  9
$DIMSAH
 70
     0
  9
$DIMBLK1
  1

  9
$DIMBLK2
  1

  9
$DIMSTYLE
  2
ISO-25
  9
$DIMCLRD
 70
     0
  9
$DIMCLRE
 70
     0
  9
$DIMCLRT
 70
     0
  9
$DIMTFAC
 40
1.0
  9
$DIMGAP
 40
1.524
  9
$DIMJUST
 70
     0
  9
$DIMSD1
 70
     0
  9
$DIMSD2
 70
     0
  9
$DIMTOLJ
 70
     0
  9
$DIMTZIN
 70
     1
  9
$DIMALTZ
 70
     0
  9
$DIMALTTZ
 70
     0
  9
$DIMUPT
 70
     0
  9
$DIMDEC
 70
     2
  9
$DIMTDEC
 70
     2
  9
$DIMALTU
 70
     2
  9
$DIMALTTD
 70
     3
  9
$DIMTXSTY
  7
Standard
  9
$DIMAUNIT
 70
     0
  9
$DIMADEC
 70
     2
  9
$DIMALTRND
 40
0.0
  9
$DIMAZIN
 70
     0
  9
$DIMDSEP
 70
    44
  9
$DIMATFIT
 70
     3
  9
$DIMFRAC
 70
     0
  9
$DIMLDRBLK
  1

  9
$DIMLUNIT
 70
     2
  9
$DIMLWD
 70
    -2
  9
$DIMLWE
 70
    -2
  9
$DIMTMOVE
 70
     0
  9
$LUNITS
 70
     2
  9
$LUPREC
 70
     2
  9
$SKETCHINC
 40
1.0
  9
$FILLETRAD
 40
10.0
  9
$AUNITS
 70
     0
  9
$AUPREC
 70
     2
  9
$MENU
  1
.
  9
$ELEVATION
 40
0.0
  9
$PELEVATION
 40
0.0
  9
$THICKNESS
 40
0.0
  9
$LIMCHECK
 70
     0
  9
$CHAMFERA
 40
0.0
  9
$CHAMFERB
 40
0.0
  9
$CHAMFERC
 40
0.0
  9
$CHAMFERD
 40
0.0
  9
$SKPOLY
 70
     0
  9
$TDCREATE
 40
2460788.782113704
  9
$TDUCREATE
 40
2460788.69878037
  9
$TDUPDATE
 40
2460788.782116782
  9
$TDUUPDATE
 40
2460788.698783449
  9
$TDINDWG
 40
0.0000000116
  9
$TDUSRTIMER
 40
0.0000000116
  9
$USRTIMER
 70
     1
  9
$ANGBASE
 50
0.0
  9
$ANGDIR
 70
     0
  9
$PDMODE
 70
     0
  9
$PDSIZE
 40
-1.0
  9
$PLINEWID
 40
0.0
  9
$SPLFRAME
 70
     0
  9
$SPLINETYPE
 70
     6
  9
$SPLINESEGS
 70
     8
  9
$HANDSEED
  5
37E
  9
$SURFTAB1
 70
     6
  9
$SURFTAB2
 70
     6
  9
$SURFTYPE
 70
     6
  9
$SURFU
 70
     6
  9
$SURFV
 70
     6
  9
$UCSBASE
  2

  9
$UCSNAME
  2

  9
$UCSORG
 10
0.0
 20
0.0
 30
0.0
  9
$UCSXDIR
 10
1.0
 20
0.0
 30
0.0
  9
$UCSYDIR
 10
0.0
 20
1.0
 30
0.0
  9
$UCSORTHOREF
  2

  9
$UCSORTHOVIEW
 70
     0
  9
$UCSORGTOP
 10
0.0
 20
0.0
 30
0.0
  9
$UCSORGBOTTOM
 10
0.0
 20
0.0
 30
0.0
  9
$UCSORGLEFT
 10
0.0
 20
0.0
 30
0.0
  9
$UCSORGRIGHT
 10
0.0
 20
0.0
 30
0.0
  9
$UCSORGFRONT
 10
0.0
 20
0.0
 30
0.0
  9
$UCSORGBACK
 10
0.0
 20
0.0
 30
0.0
  9
$PUCSBASE
  2

  9
$PUCSNAME
  2

  9
$PUCSORG
 10
0.0
 20
0.0
 30
0.0
  9
$PUCSXDIR
 10
1.0
 20
0.0
 30
0.0
  9
$PUCSYDIR
 10
0.0
 20
1.0
 30
0.0
  9
$PUCSORTHOREF
  2

  9
$PUCSORTHOVIEW
 70
     0
  9
$PUCSORGTOP
 10
0.0
 20
0.0
 30
0.0
  9
$PUCSORGBOTTOM
 10
0.0
 20
0.0
 30
0.0
  9
$PUCSORGLEFT
 10
0.0
 20
0.0
 30
0.0
  9
$PUCSORGRIGHT
 10
0.0
 20
0.0
 30
0.0
  9
$PUCSORGFRONT
 10
0.0
 20
0.0
 30
0.0
  9
$PUCSORGBACK
 10
0.0
 20
0.0
 30
0.0
  9
$USERI1
 70
     0
  9
$USERI2
 70
     0
  9
$USERI3
 70
     0
  9
$USERI4
 70
     0
  9
$USERI5
 70
     0
  9
$USERR1
 40
0.0
  9
$USERR2
 40
0.0
  9
$USERR3
 40
0.0
  9
$USERR4
 40
0.0
  9
$USERR5
 40
0.0
  9
$WORLDVIEW
 70
     1
  9
$SHADEDGE
 70
     3
  9
$SHADEDIF
 70
    70
  9
$TILEMODE
 70
     1
  9
$MAXACTVP
 70
    64
  9
$PINSBASE
 10
0.0
 20
0.0
 30
0.0
  9
$PLIMCHECK
 70
     0
  9
$PEXTMIN
 10
1.0000000000E+20
 20
1.0000000000E+20
 30
1.0000000000E+20
  9
$PEXTMAX
 10
-1.0000000000E+20
 20
-1.0000000000E+20
 30
-1.0000000000E+20
  9
$PLIMMIN
 10
0.0
 20
0.0
  9
$PLIMMAX
 10
420.0
 20
297.0
  9
$UNITMODE
 70
     0
  9
$VISRETAIN
 70
     1
  9
$PLINEGEN
 70
     0
  9
$PSLTSCALE
 70
     1
  9
$TREEDEPTH
 70
  3020
  9
$CMLSTYLE
  2
Standard
  9
$CMLJUST
 70
     0
  9
$CMLSCALE
 40
20.0
  9
$PROXYGRAPHICS
 70
     1
  9
$MEASUREMENT
 70
     1
  9
$CELWEIGHT
370
    -1
  9
$ENDCAPS
280
     0
  9
$JOINSTYLE
280
     0
  9
$LWDISPLAY
290
     1
  9
$INSUNITS
 70
     4
  9
$HYPERLINKBASE
  1

  9
$STYLESHEET
  1

  9
$XEDIT
290
     1
  9
$CEPSNTYPE
380
     0
  9
$PSTYLEMODE
290
     1
  9
$FINGERPRINTGUID
  2
{54eee028-8641-4fd8-b1f4-9a1fc8ecd149}
  9
$VERSIONGUID
  2
{FAEB1C32-E019-11D5-929B-00C0DF256EC4}
  9
$EXTNAMES
290
     1
  9
$PSVPSCALE
 40
0.0
  9
$OLESTARTUP
290
     0
  0
ENDSEC
  0
SECTION
  2
CLASSES
  0
CLASS
  1
ACDBDICTIONARYWDFLT
  2
AcDbDictionaryWithDefault
  3
ObjectDBX Classes
 90
        0
280
     0
281
     0
  0
CLASS
  1
VISUALSTYLE
  2
AcDbVisualStyle
  3
ObjectDBX Classes
 90
     4095
280
     0
281
     0
  0
CLASS
  1
MATERIAL
  2
AcDbMaterial
  3
ObjectDBX Classes
 90
     1153
280
     0
281
     0
  0
CLASS
  1
SCALE
  2
AcDbScale
  3
ObjectDBX Classes
 90
     1153
280
     0
281
     0
  0
CLASS
  1
TABLESTYLE
  2
AcDbTableStyle
  3
ObjectDBX Classes
 90
     4095
280
     0
281
     0
  0
CLASS
  1
MLEADERSTYLE
  2
AcDbMLeaderStyle
  3
ACDB_MLEADERSTYLE_CLASS
 90
     4095
280
     0
281
     0
  0
CLASS
  1
SUN
  2
AcDbSun
  3
SCENEOE
 90
     1153
280
     0
281
     0
  0
CLASS
  1
ACDBPLACEHOLDER
  2
AcDbPlaceHolder
  3
ObjectDBX Classes
 90
        0
280
     0
281
     0
  0
CLASS
  1
LAYOUT
  2
AcDbLayout
  3
ObjectDBX Classes
 90
        0
280
     0
281
     0
  0
ENDSEC
  0
SECTION
  2
TABLES
  0
TABLE
  2
VPORT
  5
8
330
0
100
AcDbSymbolTable
 70
     1
  0
VPORT
  5
29
330
8
100
AcDbSymbolTableRecord
100
AcDbViewportTableRecord
  2
*Active
 70
     0
 10
0.0
 20
0.0
 11
1.0
 21
1.0
 12
210.0
 22
148.5
 13
0.0
 23
0.0
 14
10.0
 24
10.0
 15
10.0
 25
10.0
 16
0.0
 26
0.0
 36
1.0
 17
0.0
 27
0.0
 37
0.0
 40
297.0
 41
1.4141414141
 42
50.0
 43
0.0
 44
0.0
 50
0.0
 51
0.0
 71
     0
 72
  2000
 73
     1
 74
     3
 75
     0
 76
     0
 77
     0
 78
     0
281
     0
 65
     1
110
0.0
120
0.0
130
0.0
111
1.0
121
0.0
131
0.0
112
0.0
122
1.0
132
0.0
 79
     0
146
0.0
  0
ENDTAB
  0
TABLE
  2
LTYPE
  5
5
330
0
100
AcDbSymbolTable
 70
     6
  0
LTYPE
  5
14
330
5
100
AcDbSymbolTableRecord
100
AcDbLinetypeTableRecord
  2
ByBlock
 70
     0
  3

 72
    65
 73
     0
 40
0.0
  0
LTYPE
  5
15
330
5
100
AcDbSymbolTableRecord
100
AcDbLinetypeTableRecord
  2
ByLayer
 70
     0
  3

 72
    65
 73
     0
 40
0.0
  0
LTYPE
  5
16
330
5
100
AcDbSymbolTableRecord
100
AcDbLinetypeTableRecord
  2
Continuous
 70
     0
  3
Solid line
 72
    65
 73
     0
 40
0.0
  0
LTYPE
  5
6E
330
5
100
AcDbSymbolTableRecord
100
AcDbLinetypeTableRecord
  2
HIDDEN
 70
     0
  3
Hidden __ __ __ __ __ __ __ __ __ __ __ __ __ __
 72
    65
 73
     2
 40
1.905
 49
1.27
 74
     0
 49
-0.635
 74
     0
  0
LTYPE
  5
6F
330
5
100
AcDbSymbolTableRecord
100
AcDbLinetypeTableRecord
  2
PHANTOM
 70
     0
  3
Phantom ______  __  __  ______  __  __  ______
 72
    65
 73
     6
 40
12.7
 49
6.35
 74
     0
 49
-1.27
 74
     0
 49
1.27
 74
     0
 49
-1.27
 74
     0
 49
1.27
 74
     0
 49
-1.27
 74
     0
  0
LTYPE
  5
70
330
5
100
AcDbSymbolTableRecord
100
AcDbLinetypeTableRecord
  2
CENTER
 70
     0
  3
Center ____ _ ____ _ ____ _ ____ _ ____ _ ____
 72
    65
 73
     4
 40
10.16
 49
6.35
 74
     0
 49
-1.27
 74
     0
 49
1.27
 74
     0
 49
-1.27
 74
     0
  0
LTYPE
  5
71
330
5
100
AcDbSymbolTableRecord
100
AcDbLinetypeTableRecord
  2
CENTERX2
 70
     0
  3
Center (2x) ________  __  ________  __  _____
 72
    65
 73
     4
 40
20.32
 49
12.7
 74
     0
 49
-2.54
 74
     0
 49
2.54
 74
     0
 49
-2.54
 74
     0
  0
LTYPE
  5
72
330
5
100
AcDbSymbolTableRecord
100
AcDbLinetypeTableRecord
  2
DOT2
 70
     0
  3
Dot (.5x) ........................................
 72
    65
 73
     2
 40
0.635
 49
0.0
 74
     0
 49
-0.635
 74
     0
  0
ENDTAB
  0
TABLE
  2
LAYER
  5
2
330
0
100
AcDbSymbolTable
 70
     2
  0
LAYER
  5
10
330
2
100
AcDbSymbolTableRecord
100
AcDbLayerTableRecord
  2
0
 70
     0
 62
     7
  6
Continuous
370
    -3
390
F
  0
LAYER
  5
73
330
2
100
AcDbSymbolTableRecord
100
AcDbLayerTableRecord
  2
FORMAT
 70
     0
 62
     7
  6
Continuous
370
    -3
390
F
  0
ENDTAB
  0
TABLE
  2
STYLE
  5
3
330
0
100
AcDbSymbolTable
 70
     4
  0
STYLE
  5
11
330
3
100
AcDbSymbolTableRecord
100
AcDbTextStyleTableRecord
  2
Standard
 70
     0
 40
0.0
 41
1.0
 50
0.0
 71
     0
 42
3.5
  3
txt
  4

  0
STYLE
  5
B1
330
3
100
AcDbSymbolTableRecord
100
AcDbTextStyleTableRecord
  2
SLDTEXTSTYLE0
 70
     0
 40
0.0
 41
0.75
 50
0.0
 71
     0
 42
3.5
  3
TXT
  4

  0
STYLE
  5
D1
330
3
100
AcDbSymbolTableRecord
100
AcDbTextStyleTableRecord
  2
SLDTEXTSTYLE1
 70
     0
 40
0.0
 41
0.6875
 50
0.0
 71
     0
 42
3.5
  3
TXT
  4
bigfont
  0
STYLE
  5
D3
330
3
100
AcDbSymbolTableRecord
100
AcDbTextStyleTableRecord
  2
SLDTEXTSTYLE2
 70
     0
 40
0.0
 41
0.75
 50
0.0
 71
     0
 42
3.5
  3
TXT
  4
bigfont
  0
ENDTAB
  0
TABLE
  2
VIEW
  5
6
330
0
100
AcDbSymbolTable
 70
     0
  0
ENDTAB
  0
TABLE
  2
UCS
  5
7
330
0
100
AcDbSymbolTable
 70
     0
  0
ENDTAB
  0
TABLE
  2
APPID
  5
9
330
0
100
AcDbSymbolTable
 70
     1
  0
APPID
  5
12
330
9
100
AcDbSymbolTableRecord
100
AcDbRegAppTableRecord
  2
ACAD
 70
     0
  0
ENDTAB
  0
TABLE
  2
DIMSTYLE
  5
A
330
0
100
AcDbSymbolTable
 70
     6
100
AcDbDimStyleTable
  0
DIMSTYLE
105
27
330
A
100
AcDbSymbolTableRecord
100
AcDbDimStyleTableRecord
  2
ISO-25
 70
     0
 41
2.5
 42
0.625
 43
3.75
 44
1.25
 73
     0
 74
     0
 77
     1
 78
     8
140
2.5
141
2.5
143
0.0393700787
147
0.625
171
     3
172
     1
178
     0
271
     2
272
     2
274
     3
278
    44
283
     0
284
     8
340
11
  0
DIMSTYLE
105
23D
102
{ACAD_REACTORS
330
23C
330
25E
330
26A
330
276
330
290
102
}
330
A
100
AcDbSymbolTableRecord
100
AcDbDimStyleTableRecord
  2
SLDDIMSTYLE0
 70
     0
 41
3.302
 44
0.0
 45
0.000000001
 73
     0
 74
     0
 77
     1
 78
    12
 79
     3
140
3.5
147
0.875
172
     1
173
     1
178
     0
271
     0
272
     0
276
     2
284
    12
289
     0
340
B1
  0
DIMSTYLE
105
24A
102
{ACAD_REACTORS
330
249
330
254
330
31E
330
328
330
332
330
33C
102
}
330
A
100
AcDbSymbolTableRecord
100
AcDbDimStyleTableRecord
  2
SLDDIMSTYLE1
 70
     0
 41
3.302
 44
0.0
 45
0.000000001
 73
     0
 74
     0
 77
     1
 78
    12
 79
     3
140
3.5
147
0.875
173
     1
178
     0
271
     0
272
     0
276
     2
284
    12
340
B1
  0
DIMSTYLE
105
284
102
{ACAD_REACTORS
330
283
102
}
330
A
100
AcDbSymbolTableRecord
100
AcDbDimStyleTableRecord
  2
SLDDIMSTYLE2
 70
     0
 41
3.302
 44
0.0
 45
0.000000001
 73
     0
 74
     0
 77
     1
 78
    12
 79
     3
140
3.5
147
0.875
173
     1
178
     0
271
     0
272
     2
276
     2
284
    12
340
B1
  0
DIMSTYLE
105
309
102
{ACAD_REACTORS
330
308
330
346
102
}
330
A
100
AcDbSymbolTableRecord
100
AcDbDimStyleTableRecord
  2
SLDDIMSTYLE3
 70
     0
  3
<>
 41
3.302
 44
0.0
 45
0.000000001
 73
     0
 74
     0
 77
     1
 78
    12
 79
     3
140
3.5
141
0.0
147
0.875
172
     1
173
     1
178
     0
271
     2
272
     2
276
     2
284
    12
340
B1
341
30A
343
30A
  0
DIMSTYLE
105
315
102
{ACAD_REACTORS
330
314
102
}
330
A
100
AcDbSymbolTableRecord
100
AcDbDimStyleTableRecord
  2
SLDDIMSTYLE4
 70
     0
 41
3.302
 44
0.0
 45
0.000000001
 73
     0
 74
     0
 77
     1
 78
    12
 79
     3
140
3.5
141
0.0
147
0.875
172
     1
173
     1
178
     0
271
     0
272
     2
276
     2
284
    12
340
B1
341
30A
343
30A
  0
ENDTAB
  0
TABLE
  2
BLOCK_RECORD
  5
1
330
0
100
AcDbSymbolTable
 70
    23
  0
BLOCK_RECORD
  5
1F
330
1
100
AcDbSymbolTableRecord
100
AcDbBlockTableRecord
  2
*Model_Space
340
22
  0
BLOCK_RECORD
  5
1B
330
1
100
AcDbSymbolTableRecord
100
AcDbBlockTableRecord
  2
*Paper_Space
340
1E
  0
BLOCK_RECORD
  5
23
330
1
100
AcDbSymbolTableRecord
100
AcDbBlockTableRecord
  2
*Paper_Space0
340
26
  0
BLOCK_RECORD
  5
DD
330
1
100
AcDbSymbolTableRecord
100
AcDbBlockTableRecord
  2
SW_NOTE_0
340
0
102
{BLKREFS
331
E2
102
}
  0
BLOCK_RECORD
  5
E4
330
1
100
AcDbSymbolTableRecord
100
AcDbBlockTableRecord
  2
SW_NOTE_0_1
340
0
102
{BLKREFS
331
ED
102
}
  0
BLOCK_RECORD
  5
23E
330
1
100
AcDbSymbolTableRecord
100
AcDbBlockTableRecord
  2
_D
340
0
  0
BLOCK_RECORD
  5
24B
330
1
100
AcDbSymbolTableRecord
100
AcDbBlockTableRecord
  2
_D_1
340
0
  0
BLOCK_RECORD
  5
255
330
1
100
AcDbSymbolTableRecord
100
AcDbBlockTableRecord
  2
_D_2
340
0
  0
BLOCK_RECORD
  5
25F
330
1
100
AcDbSymbolTableRecord
100
AcDbBlockTableRecord
  2
_D_3
340
0
  0
BLOCK_RECORD
  5
26B
330
1
100
AcDbSymbolTableRecord
100
AcDbBlockTableRecord
  2
_D_4
340
0
  0
BLOCK_RECORD
  5
277
330
1
100
AcDbSymbolTableRecord
100
AcDbBlockTableRecord
  2
_D_5
340
0
  0
BLOCK_RECORD
  5
285
330
1
100
AcDbSymbolTableRecord
100
AcDbBlockTableRecord
  2
_D_6
340
0
  0
BLOCK_RECORD
  5
291
330
1
100
AcDbSymbolTableRecord
100
AcDbBlockTableRecord
  2
_D_7
340
0
  0
BLOCK_RECORD
  5
30A
330
1
100
AcDbSymbolTableRecord
100
AcDbBlockTableRecord
  2
_None
340
0
  0
BLOCK_RECORD
  5
30D
330
1
100
AcDbSymbolTableRecord
100
AcDbBlockTableRecord
  2
_D_8
340
0
  0
BLOCK_RECORD
  5
316
330
1
100
AcDbSymbolTableRecord
100
AcDbBlockTableRecord
  2
_D_9
340
0
  0
BLOCK_RECORD
  5
31F
330
1
100
AcDbSymbolTableRecord
100
AcDbBlockTableRecord
  2
_D_10
340
0
  0
BLOCK_RECORD
  5
329
330
1
100
AcDbSymbolTableRecord
100
AcDbBlockTableRecord
  2
_D_11
340
0
  0
BLOCK_RECORD
  5
333
330
1
100
AcDbSymbolTableRecord
100
AcDbBlockTableRecord
  2
_D_12
340
0
  0
BLOCK_RECORD
  5
33D
330
1
100
AcDbSymbolTableRecord
100
AcDbBlockTableRecord
  2
_D_13
340
0
  0
BLOCK_RECORD
  5
347
330
1
100
AcDbSymbolTableRecord
100
AcDbBlockTableRecord
  2
_D_14
340
0
  0
BLOCK_RECORD
  5
34E
330
1
100
AcDbSymbolTableRecord
100
AcDbBlockTableRecord
  2
SW_CENTERMARKSYMBOL_0
340
0
102
{BLKREFS
331
359
102
}
  0
BLOCK_RECORD
  5
35A
330
1
100
AcDbSymbolTableRecord
100
AcDbBlockTableRecord
  2
SW_CENTERMARKSYMBOL_1
340
0
102
{BLKREFS
331
365
102
}
  0
BLOCK_RECORD
  5
366
330
1
100
AcDbSymbolTableRecord
100
AcDbBlockTableRecord
  2
SW_CENTERMARKSYMBOL_2
340
0
102
{BLKREFS
331
371
102
}
  0
BLOCK_RECORD
  5
372
330
1
100
AcDbSymbolTableRecord
100
AcDbBlockTableRecord
  2
SW_CENTERMARKSYMBOL_3
340
0
102
{BLKREFS
331
37D
102
}
  0
ENDTAB
  0
ENDSEC
  0
SECTION
  2
BLOCKS
  0
BLOCK
  5
20
330
1F
100
AcDbEntity
  8
0
100
AcDbBlockBegin
  2
*Model_Space
 70
     0
 10
0.0
 20
0.0
 30
0.0
  3
*Model_Space
  1

  0
ENDBLK
  5
21
330
1F
100
AcDbEntity
  8
0
100
AcDbBlockEnd
  0
BLOCK
  5
1C
330
1B
100
AcDbEntity
 67
     1
  8
0
100
AcDbBlockBegin
  2
*Paper_Space
 70
     0
 10
0.0
 20
0.0
 30
0.0
  3
*Paper_Space
  1

  0
ENDBLK
  5
1D
330
1B
100
AcDbEntity
 67
     1
  8
0
100
AcDbBlockEnd
  0
BLOCK
  5
24
330
23
100
AcDbEntity
  8
0
100
AcDbBlockBegin
  2
*Paper_Space0
 70
     0
 10
0.0
 20
0.0
 30
0.0
  3
*Paper_Space0
  1

  0
ENDBLK
  5
25
330
23
100
AcDbEntity
  8
0
100
AcDbBlockEnd
  0
BLOCK
  5
DE
330
DD
100
AcDbEntity
  8
0
100
AcDbBlockBegin
  2
SW_NOTE_0
 70
     0
 10
0.0
 20
0.0
 30
0.0
  3
SW_NOTE_0
  1

  0
MTEXT
  5
E0
330
DD
100
AcDbEntity
  8
0
  6
Continuous
 62
     0
370
     0
100
AcDbMText
 10
0.0
 20
1.9336016097
 30
0.0
 40
1.5
 41
0.0
 71
     1
 72
     1
  1
ODSTRANIT
  7
SLDTEXTSTYLE0
 73
     1
 44
1.0
  0
MTEXT
  5
E1
330
DD
100
AcDbEntity
  8
0
  6
Continuous
 62
     0
370
     0
100
AcDbMText
 10
0.0
 20
-0.5663983345
 30
0.0
 40
1.5
 41
0.0
 71
     1
 72
     1
  1
OSTRÉ HRANY
  7
SLDTEXTSTYLE0
 73
     1
 44
1.0
  0
ENDBLK
  5
DF
330
DD
100
AcDbEntity
  8
0
100
AcDbBlockEnd
  0
BLOCK
  5
E5
330
E4
100
AcDbEntity
  8
0
100
AcDbBlockBegin
  2
SW_NOTE_0_1
 70
     0
 10
0.0
 20
0.0
 30
0.0
  3
SW_NOTE_0_1
  1

  0
MTEXT
  5
E7
330
E4
100
AcDbEntity
  8
0
  6
Continuous
 62
     0
370
     0
100
AcDbMText
 10
0.0
 20
1.9336016097
 30
0.0
 40
1.5
 41
0.0
 71
     1
 72
     1
  1
POKUD NENÍ UVEDENO JINAK:
  7
SLDTEXTSTYLE0
 73
     1
 44
1.0
  0
MTEXT
  5
E8
330
E4
100
AcDbEntity
  8
0
  6
Continuous
 62
     0
370
     0
100
AcDbMText
 10
0.0
 20
-0.5663983345
 30
0.0
 40
1.5
 41
0.0
 71
     1
 72
     1
  1
JEDNOTKY JSOU V MILIMETRECH
  7
SLDTEXTSTYLE0
 73
     1
 44
1.0
  0
MTEXT
  5
E9
330
E4
100
AcDbEntity
  8
0
  6
Continuous
 62
     0
370
     0
100
AcDbMText
 10
0.0
 20
-3.0663982786
 30
0.0
 40
1.5
 41
0.0
 71
     1
 72
     1
  1
DRSNOST:
  7
SLDTEXTSTYLE0
 73
     1
 44
1.0
  0
MTEXT
  5
EA
330
E4
100
AcDbEntity
  8
0
  6
Continuous
 62
     0
370
     0
100
AcDbMText
 10
0.0
 20
-5.5663982227
 30
0.0
 40
1.5
 41
0.0
 71
     1
 72
     1
  1
TOLERANCE:
  7
SLDTEXTSTYLE0
 73
     1
 44
1.0
  0
MTEXT
  5
EB
330
E4
100
AcDbEntity
  8
0
  6
Continuous
 62
     0
370
     0
100
AcDbMText
 10
1.6875
 20
-8.0663981668
 30
0.0
 40
1.5
 41
0.0
 71
     1
 72
     1
  1
LINEÁRNÍ:
  7
SLDTEXTSTYLE0
 73
     1
 44
1.0
  0
MTEXT
  5
EC
330
E4
100
AcDbEntity
  8
0
  6
Continuous
 62
     0
370
     0
100
AcDbMText
 10
1.6875
 20
-10.5663981109
 30
0.0
 40
1.5
 41
0.0
 71
     1
 72
     1
  1
ÚHLOVÁ:
  7
SLDTEXTSTYLE0
 73
     1
 44
1.0
  0
ENDBLK
  5
E6
330
E4
100
AcDbEntity
  8
0
100
AcDbBlockEnd
  0
BLOCK
  5
23F
330
23E
100
AcDbEntity
  8
0
100
AcDbBlockBegin
  2
_D
 70
     0
 10
0.0
 20
0.0
 30
0.0
  3
_D
  1

  0
SOLID
  5
241
330
23E
100
AcDbEntity
  8
0
  6
Continuous
 62
     7
370
    18
100
AcDbTrace
 10
224.94
 20
160.6300341254
 30
0.0
 11
221.638
 21
161.1380341254
 31
0.0
 12
221.638
 22
160.1220341254
 32
0.0
 13
221.638
 23
160.1220341254
 33
0.0
  0
SOLID
  5
242
330
23E
100
AcDbEntity
  8
0
  6
Continuous
 62
     7
370
    18
100
AcDbTrace
 10
231.94
 20
160.6300341254
 30
0.0
 11
235.242
 21
160.1220341254
 31
0.0
 12
235.242
 22
161.1380341254
 32
0.0
 13
235.242
 23
161.1380341254
 33
0.0
  0
LINE
  5
243
330
23E
100
AcDbEntity
  8
0
  6
Continuous
 62
     7
370
     0
100
AcDbLine
 10
224.94
 20
171.56
 30
0.0
 11
224.94
 21
159.6300341254
 31
0.0
  0
LINE
  5
244
330
23E
100
AcDbEntity
  8
0
  6
Continuous
 62
     7
370
     0
100
AcDbLine
 10
231.94
 20
199.56
 30
0.0
 11
231.94
 21
159.6300341254
 31
0.0
  0
LINE
  5
245
330
23E
100
AcDbEntity
  8
0
  6
Continuous
 62
     7
370
     0
100
AcDbLine
 10
224.94
 20
160.6300341254
 30
0.0
 11
218.59
 21
160.6300341254
 31
0.0
  0
LINE
  5
246
330
23E
100
AcDbEntity
  8
0
  6
Continuous
 62
     7
370
     0
100
AcDbLine
 10
224.94
 20
160.6300341254
 30
0.0
 11
231.94
 21
160.6300341254
 31
0.0
  0
LINE
  5
247
330
23E
100
AcDbEntity
  8
0
  6
Continuous
 62
     7
370
     0
100
AcDbLine
 10
231.94
 20
160.6300341254
 30
0.0
 11
238.29
 21
160.6300341254
 31
0.0
  0
MTEXT
  5
248
330
23E
100
AcDbEntity
  8
0
  6
Continuous
 62
     7
370
    18
100
AcDbMText
 10
227.1469444032
 20
165.14177104
 30
0.0
 40
3.5
 41
0.0
 71
     1
 72
     1
  1
7
  7
SLDTEXTSTYLE0
 73
     1
 44
1.0
  0
ENDBLK
  5
240
330
23E
100
AcDbEntity
  8
0
100
AcDbBlockEnd
  0
BLOCK
  5
24C
330
24B
100
AcDbEntity
  8
0
100
AcDbBlockBegin
  2
_D_1
 70
     0
 10
0.0
 20
0.0
 30
0.0
  3
_D_1
  1

  0
SOLID
  5
24E
330
24B
100
AcDbEntity
  8
0
  6
Continuous
 62
     7
370
    18
100
AcDbTrace
 10
165.94
 20
264.06
 30
0.0
 11
169.242
 21
263.552
 31
0.0
 12
169.242
 22
264.568
 32
0.0
 13
169.242
 23
264.568
 33
0.0
  0
SOLID
  5
24F
330
24B
100
AcDbEntity
  8
0
  6
Continuous
 62
     7
370
    18
100
AcDbTrace
 10
208.94
 20
264.06
 30
0.0
 11
205.638
 21
264.568
 31
0.0
 12
205.638
 22
263.552
 32
0.0
 13
205.638
 23
263.552
 33
0.0
  0
LINE
  5
250
330
24B
100
AcDbEntity
  8
0
  6
Continuous
 62
     7
370
     0
100
AcDbLine
 10
165.94
 20
248.06
 30
0.0
 11
165.94
 21
265.06
 31
0.0
  0
LINE
  5
251
330
24B
100
AcDbEntity
  8
0
  6
Continuous
 62
     7
370
     0
100
AcDbLine
 10
208.94
 20
248.06
 30
0.0
 11
208.94
 21
265.06
 31
0.0
  0
LINE
  5
252
330
24B
100
AcDbEntity
  8
0
  6
Continuous
 62
     7
370
     0
100
AcDbLine
 10
165.94
 20
264.06
 30
0.0
 11
208.94
 21
264.06
 31
0.0
  0
MTEXT
  5
253
330
24B
100
AcDbEntity
  8
0
  6
Continuous
 62
     7
370
    18
100
AcDbMText
 10
184.8538888065
 20
268.5717369146
 30
0.0
 40
3.5
 41
0.0
 71
     1
 72
     1
  1
43
  7
SLDTEXTSTYLE0
 73
     1
 44
1.0
  0
ENDBLK
  5
24D
330
24B
100
AcDbEntity
  8
0
100
AcDbBlockEnd
  0
BLOCK
  5
256
330
255
100
AcDbEntity
  8
0
100
AcDbBlockBegin
  2
_D_2
 70
     0
 10
0.0
 20
0.0
 30
0.0
  3
_D_2
  1

  0
SOLID
  5
258
330
255
100
AcDbEntity
  8
0
  6
Continuous
 62
     7
370
    18
100
AcDbTrace
 10
231.94
 20
154.6300341254
 30
0.0
 11
228.638
 21
155.1380341254
 31
0.0
 12
228.638
 22
154.1220341254
 32
0.0
 13
228.638
 23
154.1220341254
 33
0.0
  0
SOLID
  5
259
330
255
100
AcDbEntity
  8
0
  6
Continuous
 62
     7
370
    18
100
AcDbTrace
 10
81.94
 20
154.6300341254
 30
0.0
 11
85.242
 21
154.1220341254
 31
0.0
 12
85.242
 22
155.1380341254
 32
0.0
 13
85.242
 23
155.1380341254
 33
0.0
  0
LINE
  5
25A
330
255
100
AcDbEntity
  8
0
  6
Continuous
 62
     7
370
     0
100
AcDbLine
 10
231.94
 20
199.56
 30
0.0
 11
231.94
 21
153.6300341254
 31
0.0
  0
LINE
  5
25B
330
255
100
AcDbEntity
  8
0
  6
Continuous
 62
     7
370
     0
100
AcDbLine
 10
81.94
 20
171.06
 30
0.0
 11
81.94
 21
153.6300341254
 31
0.0
  0
LINE
  5
25C
330
255
100
AcDbEntity
  8
0
  6
Continuous
 62
     7
370
     0
100
AcDbLine
 10
231.94
 20
154.6300341254
 30
0.0
 11
81.94
 21
154.6300341254
 31
0.0
  0
MTEXT
  5
25D
330
255
100
AcDbEntity
  8
0
  6
Continuous
 62
     7
370
    18
100
AcDbMText
 10
153.0608333261
 20
159.14177104
 30
0.0
 40
3.5
 41
0.0
 71
     1
 72
     1
  1
150
  7
SLDTEXTSTYLE0
 73
     1
 44
1.0
  0
ENDBLK
  5
257
330
255
100
AcDbEntity
  8
0
100
AcDbBlockEnd
  0
BLOCK
  5
260
330
25F
100
AcDbEntity
  8
0
100
AcDbBlockBegin
  2
_D_3
 70
     0
 10
0.0
 20
0.0
 30
0.0
  3
_D_3
  1

  0
SOLID
  5
262
330
25F
100
AcDbEntity
  8
0
  6
Continuous
 62
     7
370
    18
100
AcDbTrace
 10
65.94
 20
160.6300341254
 30
0.0
 11
62.638
 21
161.1380341254
 31
0.0
 12
62.638
 22
160.1220341254
 32
0.0
 13
62.638
 23
160.1220341254
 33
0.0
  0
SOLID
  5
263
330
25F
100
AcDbEntity
  8
0
  6
Continuous
 62
     7
370
    18
100
AcDbTrace
 10
81.94
 20
160.6300341254
 30
0.0
 11
85.242
 21
160.1220341254
 31
0.0
 12
85.242
 22
161.1380341254
 32
0.0
 13
85.242
 23
161.1380341254
 33
0.0
  0
LINE
  5
264
330
25F
100
AcDbEntity
  8
0
  6
Continuous
 62
     7
370
     0
100
AcDbLine
 10
65.94
 20
175.21
 30
0.0
 11
65.94
 21
159.6300341254
 31
0.0
  0
LINE
  5
265
330
25F
100
AcDbEntity
  8
0
  6
Continuous
 62
     7
370
     0
100
AcDbLine
 10
81.94
 20
171.06
 30
0.0
 11
81.94
 21
159.6300341254
 31
0.0
  0
LINE
  5
266
330
25F
100
AcDbEntity
  8
0
  6
Continuous
 62
     7
370
     0
100
AcDbLine
 10
65.94
 20
160.6300341254
 30
0.0
 11
59.59
 21
160.6300341254
 31
0.0
  0
LINE
  5
267
330
25F
100
AcDbEntity
  8
0
  6
Continuous
 62
     7
370
     0
100
AcDbLine
 10
65.94
 20
160.6300341254
 30
0.0
 11
81.94
 21
160.6300341254
 31
0.0
  0
LINE
  5
268
330
25F
100
AcDbEntity
  8
0
  6
Continuous
 62
     7
370
     0
100
AcDbLine
 10
81.94
 20
160.6300341254
 30
0.0
 11
88.29
 21
160.6300341254
 31
0.0
  0
MTEXT
  5
269
330
25F
100
AcDbEntity
  8
0
  6
Continuous
 62
     7
370
    18
100
AcDbMText
 10
71.3538888065
 20
165.14177104
 30
0.0
 40
3.5
 41
0.0
 71
     1
 72
     1
  1
16
  7
SLDTEXTSTYLE0
 73
     1
 44
1.0
  0
ENDBLK
  5
261
330
25F
100
AcDbEntity
  8
0
100
AcDbBlockEnd
  0
BLOCK
  5
26C
330
26B
100
AcDbEntity
  8
0
100
AcDbBlockBegin
  2
_D_4
 70
     0
 10
0.0
 20
0.0
 30
0.0
  3
_D_4
  1

  0
SOLID
  5
26E
330
26B
100
AcDbEntity
  8
0
  6
Continuous
 62
     7
370
    18
100
AcDbTrace
 10
224.94
 20
270.06
 30
0.0
 11
228.242
 21
269.552
 31
0.0
 12
228.242
 22
270.568
 32
0.0
 13
228.242
 23
270.568
 33
0.0
  0
SOLID
  5
26F
330
26B
100
AcDbEntity
  8
0
  6
Continuous
 62
     7
370
    18
100
AcDbTrace
 10
208.94
 20
270.06
 30
0.0
 11
205.638
 21
270.568
 31
0.0
 12
205.638
 22
269.552
 32
0.0
 13
205.638
 23
269.552
 33
0.0
  0
LINE
  5
270
330
26B
100
AcDbEntity
  8
0
  6
Continuous
 62
     7
370
     0
100
AcDbLine
 10
224.94
 20
247.56
 30
0.0
 11
224.94
 21
271.06
 31
0.0
  0
LINE
  5
271
330
26B
100
AcDbEntity
  8
0
  6
Continuous
 62
     7
370
     0
100
AcDbLine
 10
208.94
 20
248.06
 30
0.0
 11
208.94
 21
271.06
 31
0.0
  0
LINE
  5
272
330
26B
100
AcDbEntity
  8
0
  6
Continuous
 62
     7
370
     0
100
AcDbLine
 10
224.94
 20
270.06
 30
0.0
 11
231.29
 21
270.06
 31
0.0
  0
LINE
  5
273
330
26B
100
AcDbEntity
  8
0
  6
Continuous
 62
     7
370
     0
100
AcDbLine
 10
224.94
 20
270.06
 30
0.0
 11
208.94
 21
270.06
 31
0.0
  0
LINE
  5
274
330
26B
100
AcDbEntity
  8
0
  6
Continuous
 62
     7
370
     0
100
AcDbLine
 10
208.94
 20
270.06
 30
0.0
 11
202.59
 21
270.06
 31
0.0
  0
MTEXT
  5
275
330
26B
100
AcDbEntity
  8
0
  6
Continuous
 62
     7
370
    18
100
AcDbMText
 10
214.3538888065
 20
274.5717369146
 30
0.0
 40
3.5
 41
0.0
 71
     1
 72
     1
  1
16
  7
SLDTEXTSTYLE0
 73
     1
 44
1.0
  0
ENDBLK
  5
26D
330
26B
100
AcDbEntity
  8
0
100
AcDbBlockEnd
  0
BLOCK
  5
278
330
277
100
AcDbEntity
  8
0
100
AcDbBlockBegin
  2
_D_5
 70
     0
 10
0.0
 20
0.0
 30
0.0
  3
_D_5
  1

  0
SOLID
  5
27A
330
277
100
AcDbEntity
  8
0
  6
Continuous
 62
     7
370
    18
100
AcDbTrace
 10
243.94
 20
198.56
 30
0.0
 11
243.432
 21
195.258
 31
0.0
 12
244.448
 22
195.258
 32
0.0
 13
244.448
 23
195.258
 33
0.0
  0
SOLID
  5
27B
330
277
100
AcDbEntity
  8
0
  6
Continuous
 62
     7
370
    18
100
AcDbTrace
 10
243.94
 20
220.56
 30
0.0
 11
244.448
 21
223.862
 31
0.0
 12
243.432
 22
223.862
 32
0.0
 13
243.432
 23
223.862
 33
0.0
  0
LINE
  5
27C
330
277
100
AcDbEntity
  8
0
  6
Continuous
 62
     7
370
     0
100
AcDbLine
 10
224.44
 20
198.56
 30
0.0
 11
244.94
 21
198.56
 31
0.0
  0
LINE
  5
27D
330
277
100
AcDbEntity
  8
0
  6
Continuous
 62
     7
370
     0
100
AcDbLine
 10
224.44
 20
220.56
 30
0.0
 11
244.94
 21
220.56
 31
0.0
  0
LINE
  5
27E
330
277
100
AcDbEntity
  8
0
  6
Continuous
 62
     7
370
     0
100
AcDbLine
 10
243.94
 20
198.56
 30
0.0
 11
243.94
 21
192.21
 31
0.0
  0
LINE
  5
27F
330
277
100
AcDbEntity
  8
0
  6
Continuous
 62
     7
370
     0
100
AcDbLine
 10
243.94
 20
198.56
 30
0.0
 11
243.94
 21
220.56
 31
0.0
  0
LINE
  5
280
330
277
100
AcDbEntity
  8
0
  6
Continuous
 62
     7
370
     0
100
AcDbLine
 10
243.94
 20
220.56
 30
0.0
 11
243.94
 21
226.91
 31
0.0
  0
MTEXT
  5
281
330
277
100
AcDbEntity
  8
0
  6
Continuous
 62
     7
370
    18
100
AcDbMText
 10
239.4282629108
 20
204.3346698745
 30
0.0
 40
3.5
 41
0.0
 71
     1
 72
     1
  1
%%c
  7
SLDTEXTSTYLE0
 11
6.123233995736766E-17
 21
1.0
 31
0.0
 73
     1
 44
1.0
  0
MTEXT
  5
282
330
277
100
AcDbEntity
  8
0
  6
Continuous
 62
     7
370
    18
100
AcDbMText
 10
239.3747907341
 20
209.6131072728
 30
0.0
 40
3.5
 41
0.0
 71
     1
 72
     1
  1
22
  7
SLDTEXTSTYLE0
 11
6.123233995736766E-17
 21
1.0
 31
0.0
 73
     1
 44
1.0
  0
ENDBLK
  5
279
330
277
100
AcDbEntity
  8
0
100
AcDbBlockEnd
  0
BLOCK
  5
286
330
285
100
AcDbEntity
  8
0
100
AcDbBlockBegin
  2
_D_6
 70
     0
 10
0.0
 20
0.0
 30
0.0
  3
_D_6
  1

  0
SOLID
  5
288
330
285
100
AcDbEntity
  8
0
  6
Continuous
 62
     7
370
    18
100
AcDbTrace
 10
249.94
 20
226.56
 30
0.0
 11
249.432
 21
223.258
 31
0.0
 12
250.448
 22
223.258
 32
0.0
 13
250.448
 23
223.258
 33
0.0
  0
SOLID
  5
289
330
285
100
AcDbEntity
  8
0
  6
Continuous
 62
     7
370
    18
100
AcDbTrace
 10
249.94
 20
192.56
 30
0.0
 11
250.448
 21
195.862
 31
0.0
 12
249.432
 22
195.862
 32
0.0
 13
249.432
 23
195.862
 33
0.0
  0
LINE
  5
28A
330
285
100
AcDbEntity
  8
0
  6
Continuous
 62
     7
370
     0
100
AcDbLine
 10
234.44
 20
226.56
 30
0.0
 11
250.94
 21
226.56
 31
0.0
  0
LINE
  5
28B
330
285
100
AcDbEntity
  8
0
  6
Continuous
 62
     7
370
     0
100
AcDbLine
 10
234.44
 20
192.56
 30
0.0
 11
250.94
 21
192.56
 31
0.0
  0
LINE
  5
28C
330
285
100
AcDbEntity
  8
0
  6
Continuous
 62
     7
370
     0
100
AcDbLine
 10
249.94
 20
226.56
 30
0.0
 11
249.94
 21
192.56
 31
0.0
  0
MTEXT
  5
28D
330
285
100
AcDbEntity
  8
0
  6
Continuous
 62
     7
370
    18
100
AcDbMText
 10
245.4282629108
 20
201.6634891158
 30
0.0
 40
3.5
 41
0.0
 71
     1
 72
     1
  1
%%c
  7
SLDTEXTSTYLE0
 11
-6.156016597943509E-15
 21
1.0
 31
0.0
 73
     1
 44
1.0
  0
MTEXT
  5
28E
330
285
100
AcDbEntity
  8
0
  6
Continuous
 62
     7
370
    18
100
AcDbMText
 10
245.3747907341
 20
206.9419265142
 30
0.0
 40
3.5
 41
0.0
 71
     1
 72
     1
  1
34
  7
SLDTEXTSTYLE0
 11
-6.156016597943509E-15
 21
1.0
 31
0.0
 73
     1
 44
1.0
  0
MTEXT
  5
28F
330
285
100
AcDbEntity
  8
0
  6
Continuous
 62
     7
370
    18
100
AcDbMText
 10
245.3747907341
 20
213.4266484356
 30
0.0
 40
3.5
 41
0.0
 71
     1
 72
     1
  1
f9
  7
SLDTEXTSTYLE0
 11
-6.156016597943509E-15
 21
1.0
 31
0.0
 73
     1
 44
1.0
  0
ENDBLK
  5
287
330
285
100
AcDbEntity
  8
0
100
AcDbBlockEnd
  0
BLOCK
  5
292
330
291
100
AcDbEntity
  8
0
100
AcDbBlockBegin
  2
_D_7
 70
     0
 10
0.0
 20
0.0
 30
0.0
  3
_D_7
  1

  0
SOLID
  5
294
330
291
100
AcDbEntity
  8
0
  6
Continuous
 62
     7
370
    18
100
AcDbTrace
 10
233.94
 20
264.06
 30
0.0
 11
237.242
 21
263.552
 31
0.0
 12
237.242
 22
264.568
 32
0.0
 13
237.242
 23
264.568
 33
0.0
  0
SOLID
  5
295
330
291
100
AcDbEntity
  8
0
  6
Continuous
 62
     7
370
    18
100
AcDbTrace
 10
224.94
 20
264.06
 30
0.0
 11
221.638
 21
264.568
 31
0.0
 12
221.638
 22
263.552
 32
0.0
 13
221.638
 23
263.552
 33
0.0
  0
LINE
  5
296
330
291
100
AcDbEntity
  8
0
  6
Continuous
 62
     7
370
     0
100
AcDbLine
 10
233.94
 20
227.06
 30
0.0
 11
233.94
 21
265.06
 31
0.0
  0
LINE
  5
297
330
291
100
AcDbEntity
  8
0
  6
Continuous
 62
     7
370
     0
100
AcDbLine
 10
224.94
 20
247.56
 30
0.0
 11
224.94
 21
265.06
 31
0.0
  0
LINE
  5
298
330
291
100
AcDbEntity
  8
0
  6
Continuous
 62
     7
370
     0
100
AcDbLine
 10
233.94
 20
264.06
 30
0.0
 11
240.29
 21
264.06
 31
0.0
  0
LINE
  5
299
330
291
100
AcDbEntity
  8
0
  6
Continuous
 62
     7
370
     0
100
AcDbLine
 10
233.94
 20
264.06
 30
0.0
 11
224.94
 21
264.06
 31
0.0
  0
LINE
  5
29A
330
291
100
AcDbEntity
  8
0
  6
Continuous
 62
     7
370
     0
100
AcDbLine
 10
224.94
 20
264.06
 30
0.0
 11
218.59
 21
264.06
 31
0.0
  0
MTEXT
  5
29B
330
291
100
AcDbEntity
  8
0
  6
Continuous
 62
     7
370
    18
100
AcDbMText
 10
228.1469444032
 20
268.5717369146
 30
0.0
 40
3.5
 41
0.0
 71
     1
 72
     1
  1
9
  7
SLDTEXTSTYLE0
 73
     1
 44
1.0
  0
ENDBLK
  5
293
330
291
100
AcDbEntity
  8
0
100
AcDbBlockEnd
  0
BLOCK
  5
30B
330
30A
100
AcDbEntity
  8
0
100
AcDbBlockBegin
  2
_None
 70
     0
 10
0.0
 20
0.0
 30
0.0
  3
_None
  1

  0
ENDBLK
  5
30C
330
30A
100
AcDbEntity
  8
0
100
AcDbBlockEnd
  0
BLOCK
  5
30E
330
30D
100
AcDbEntity
  8
0
100
AcDbBlockBegin
  2
_D_8
 70
     0
 10
0.0
 20
0.0
 30
0.0
  3
_D_8
  1

  0
SOLID
  5
310
330
30D
100
AcDbEntity
  8
0
  6
Continuous
 62
     7
370
    18
100
AcDbTrace
 10
134.2966940212
 20
56.1217275841
 30
0.0
 11
136.5740203763
 21
53.6773354977
 31
0.0
 12
137.2034410564
 22
54.47488525
 32
0.0
 13
137.2034410564
 23
54.47488525
 33
0.0
  0
LINE
  5
311
330
30D
100
AcDbEntity
  8
0
  6
Continuous
 62
     7
370
     0
100
AcDbLine
 10
134.2966940212
 20
56.1217275841
 30
0.0
 11
199.031734769
 21
5.0332867022
 31
0.0
  0
LINE
  5
312
330
30D
100
AcDbEntity
  8
0
  6
Continuous
 62
     7
370
     0
100
AcDbLine
 10
134.2966940212
 20
56.1217275841
 30
0.0
 11
125.5833059788
 21
62.9982724159
 31
0.0
  0
MTEXT
  5
313
330
30D
100
AcDbEntity
  8
0
  6
Continuous
 62
     7
370
    18
100
AcDbMText
 10
187.5656243231
 20
19.8275829139
 30
0.0
 40
3.5
 41
0.0
 71
     1
 72
     1
  1
M16x1.5
  7
SLDTEXTSTYLE0
 11
0.784989913729369
 21
-0.6195085433980372
 31
0.0
 73
     1
 44
1.0
  0
ENDBLK
  5
30F
330
30D
100
AcDbEntity
  8
0
100
AcDbBlockEnd
  0
BLOCK
  5
317
330
316
100
AcDbEntity
  8
0
100
AcDbBlockBegin
  2
_D_9
 70
     0
 10
0.0
 20
0.0
 30
0.0
  3
_D_9
  1

  0
SOLID
  5
319
330
316
100
AcDbEntity
  8
0
  6
Continuous
 62
     7
370
    18
100
AcDbTrace
 10
100.895373192
 20
36.6381838943
 30
0.0
 11
97.9886261568
 21
34.9913415601
 31
0.0
 12
98.6180468369
 22
34.1937918078
 32
0.0
 13
98.6180468369
 23
34.1937918078
 33
0.0
  0
LINE
  5
31A
330
316
100
AcDbEntity
  8
0
  6
Continuous
 62
     7
370
     0
100
AcDbLine
 10
100.895373192
 20
36.6381838943
 30
0.0
 11
63.8772273345
 21
7.4237223854
 31
0.0
  0
LINE
  5
31B
330
316
100
AcDbEntity
  8
0
  6
Continuous
 62
     7
370
     0
100
AcDbLine
 10
100.895373192
 20
36.6381838943
 30
0.0
 11
158.984626808
 21
82.4818161057
 31
0.0
  0
MTEXT
  5
31C
330
316
100
AcDbEntity
  8
0
  6
Continuous
 62
     7
370
    18
100
AcDbMText
 10
61.0832623383
 20
10.9640034109
 30
0.0
 40
3.5
 41
0.0
 71
     1
 72
     1
  1
%%c
  7
SLDTEXTSTYLE0
 11
0.7849899137293554
 21
0.6195085433980545
 31
0.0
 73
     1
 44
1.0
  0
MTEXT
  5
31D
330
316
100
AcDbEntity
  8
0
  6
Continuous
 62
     7
370
    18
100
AcDbMText
 10
65.193655986
 20
14.2760155944
 30
0.0
 40
3.5
 41
0.0
 71
     1
 72
     1
  1
74
  7
SLDTEXTSTYLE0
 11
0.7849899137293554
 21
0.6195085433980545
 31
0.0
 73
     1
 44
1.0
  0
ENDBLK
  5
318
330
316
100
AcDbEntity
  8
0
100
AcDbBlockEnd
  0
BLOCK
  5
320
330
31F
100
AcDbEntity
  8
0
100
AcDbBlockBegin
  2
_D_10
 70
     0
 10
0.0
 20
0.0
 30
0.0
  3
_D_10
  1

  0
SOLID
  5
322
330
31F
100
AcDbEntity
  8
0
  6
Continuous
 62
     7
370
    18
100
AcDbTrace
 10
203.94
 20
85.56
 30
0.0
 11
203.432
 21
82.258
 31
0.0
 12
204.448
 22
82.258
 32
0.0
 13
204.448
 23
82.258
 33
0.0
  0
SOLID
  5
323
330
31F
100
AcDbEntity
  8
0
  6
Continuous
 62
     7
370
    18
100
AcDbTrace
 10
203.94
 20
33.56
 30
0.0
 11
204.448
 21
36.862
 31
0.0
 12
203.432
 22
36.862
 32
0.0
 13
203.432
 23
36.862
 33
0.0
  0
LINE
  5
324
330
31F
100
AcDbEntity
  8
0
  6
Continuous
 62
     7
370
     0
100
AcDbLine
 10
193.44
 20
85.56
 30
0.0
 11
204.94
 21
85.56
 31
0.0
  0
LINE
  5
325
330
31F
100
AcDbEntity
  8
0
  6
Continuous
 62
     7
370
     0
100
AcDbLine
 10
192.94
 20
33.56
 30
0.0
 11
204.94
 21
33.56
 31
0.0
  0
LINE
  5
326
330
31F
100
AcDbEntity
  8
0
  6
Continuous
 62
     7
370
     0
100
AcDbLine
 10
203.94
 20
85.56
 30
0.0
 11
203.94
 21
33.56
 31
0.0
  0
MTEXT
  5
327
330
31F
100
AcDbEntity
  8
0
  6
Continuous
 62
     7
370
    18
100
AcDbMText
 10
199.4282630854
 20
56.9738888065
 30
0.0
 40
3.5
 41
0.0
 71
     1
 72
     1
  1
52
  7
SLDTEXTSTYLE0
 11
-7.044195017643634E-15
 21
1.0
 31
0.0
 73
     1
 44
1.0
  0
ENDBLK
  5
321
330
31F
100
AcDbEntity
  8
0
100
AcDbBlockEnd
  0
BLOCK
  5
32A
330
329
100
AcDbEntity
  8
0
100
AcDbBlockBegin
  2
_D_11
 70
     0
 10
0.0
 20
0.0
 30
0.0
  3
_D_11
  1

  0
SOLID
  5
32C
330
329
100
AcDbEntity
  8
0
  6
Continuous
 62
     7
370
    18
100
AcDbTrace
 10
209.94
 20
22.06
 30
0.0
 11
210.448
 21
25.362
 31
0.0
 12
209.432
 22
25.362
 32
0.0
 13
209.432
 23
25.362
 33
0.0
  0
SOLID
  5
32D
330
329
100
AcDbEntity
  8
0
  6
Continuous
 62
     7
370
    18
100
AcDbTrace
 10
209.94
 20
97.06
 30
0.0
 11
209.432
 21
93.758
 31
0.0
 12
210.448
 22
93.758
 32
0.0
 13
210.448
 23
93.758
 33
0.0
  0
LINE
  5
32E
330
329
100
AcDbEntity
  8
0
  6
Continuous
 62
     7
370
     0
100
AcDbLine
 10
194.44
 20
22.06
 30
0.0
 11
210.94
 21
22.06
 31
0.0
  0
LINE
  5
32F
330
329
100
AcDbEntity
  8
0
  6
Continuous
 62
     7
370
     0
100
AcDbLine
 10
194.44
 20
97.06
 30
0.0
 11
210.94
 21
97.06
 31
0.0
  0
LINE
  5
330
330
329
100
AcDbEntity
  8
0
  6
Continuous
 62
     7
370
     0
100
AcDbLine
 10
209.94
 20
22.06
 30
0.0
 11
209.94
 21
97.06
 31
0.0
  0
MTEXT
  5
331
330
329
100
AcDbEntity
  8
0
  6
Continuous
 62
     7
370
    18
100
AcDbMText
 10
205.4282630854
 20
56.9738888065
 30
0.0
 40
3.5
 41
0.0
 71
     1
 72
     1
  1
75
  7
SLDTEXTSTYLE0
 11
6.123233995736766E-17
 21
1.0
 31
0.0
 73
     1
 44
1.0
  0
ENDBLK
  5
32B
330
329
100
AcDbEntity
  8
0
100
AcDbBlockEnd
  0
BLOCK
  5
334
330
333
100
AcDbEntity
  8
0
100
AcDbBlockBegin
  2
_D_12
 70
     0
 10
0.0
 20
0.0
 30
0.0
  3
_D_12
  1

  0
SOLID
  5
336
330
333
100
AcDbEntity
  8
0
  6
Continuous
 62
     7
370
    18
100
AcDbTrace
 10
77.44
 20
114.06
 30
0.0
 11
80.742
 21
113.552
 31
0.0
 12
80.742
 22
114.568
 32
0.0
 13
80.742
 23
114.568
 33
0.0
  0
SOLID
  5
337
330
333
100
AcDbEntity
  8
0
  6
Continuous
 62
     7
370
    18
100
AcDbTrace
 10
182.44
 20
114.06
 30
0.0
 11
179.138
 21
114.568
 31
0.0
 12
179.138
 22
113.552
 32
0.0
 13
179.138
 23
113.552
 33
0.0
  0
LINE
  5
338
330
333
100
AcDbEntity
  8
0
  6
Continuous
 62
     7
370
     0
100
AcDbLine
 10
77.44
 20
96.56
 30
0.0
 11
77.44
 21
115.06
 31
0.0
  0
LINE
  5
339
330
333
100
AcDbEntity
  8
0
  6
Continuous
 62
     7
370
     0
100
AcDbLine
 10
182.44
 20
96.56
 30
0.0
 11
182.44
 21
115.06
 31
0.0
  0
LINE
  5
33A
330
333
100
AcDbEntity
  8
0
  6
Continuous
 62
     7
370
     0
100
AcDbLine
 10
77.44
 20
114.06
 30
0.0
 11
182.44
 21
114.06
 31
0.0
  0
MTEXT
  5
33B
330
333
100
AcDbEntity
  8
0
  6
Continuous
 62
     7
370
    18
100
AcDbMText
 10
126.0608333261
 20
118.5717369146
 30
0.0
 40
3.5
 41
0.0
 71
     1
 72
     1
  1
105
  7
SLDTEXTSTYLE0
 73
     1
 44
1.0
  0
ENDBLK
  5
335
330
333
100
AcDbEntity
  8
0
100
AcDbBlockEnd
  0
BLOCK
  5
33E
330
33D
100
AcDbEntity
  8
0
100
AcDbBlockBegin
  2
_D_13
 70
     0
 10
0.0
 20
0.0
 30
0.0
  3
_D_13
  1

  0
SOLID
  5
340
330
33D
100
AcDbEntity
  8
0
  6
Continuous
 62
     7
370
    18
100
AcDbTrace
 10
65.94
 20
120.06
 30
0.0
 11
69.242
 21
119.552
 31
0.0
 12
69.242
 22
120.568
 32
0.0
 13
69.242
 23
120.568
 33
0.0
  0
SOLID
  5
341
330
33D
100
AcDbEntity
  8
0
  6
Continuous
 62
     7
370
    18
100
AcDbTrace
 10
193.94
 20
120.06
 30
0.0
 11
190.638
 21
120.568
 31
0.0
 12
190.638
 22
119.552
 32
0.0
 13
190.638
 23
119.552
 33
0.0
  0
LINE
  5
342
330
33D
100
AcDbEntity
  8
0
  6
Continuous
 62
     7
370
     0
100
AcDbLine
 10
65.94
 20
97.56
 30
0.0
 11
65.94
 21
121.06
 31
0.0
  0
LINE
  5
343
330
33D
100
AcDbEntity
  8
0
  6
Continuous
 62
     7
370
     0
100
AcDbLine
 10
193.94
 20
97.56
 30
0.0
 11
193.94
 21
121.06
 31
0.0
  0
LINE
  5
344
330
33D
100
AcDbEntity
  8
0
  6
Continuous
 62
     7
370
     0
100
AcDbLine
 10
65.94
 20
120.06
 30
0.0
 11
193.94
 21
120.06
 31
0.0
  0
MTEXT
  5
345
330
33D
100
AcDbEntity
  8
0
  6
Continuous
 62
     7
370
    18
100
AcDbMText
 10
126.0608333261
 20
124.5717369146
 30
0.0
 40
3.5
 41
0.0
 71
     1
 72
     1
  1
128
  7
SLDTEXTSTYLE0
 73
     1
 44
1.0
  0
ENDBLK
  5
33F
330
33D
100
AcDbEntity
  8
0
100
AcDbBlockEnd
  0
BLOCK
  5
348
330
347
100
AcDbEntity
  8
0
100
AcDbBlockBegin
  2
_D_14
 70
     0
 10
0.0
 20
0.0
 30
0.0
  3
_D_14
  1

  0
SOLID
  5
34A
330
347
100
AcDbEntity
  8
0
  6
Continuous
 62
     7
370
    18
100
AcDbTrace
 10
71.8852763243
 20
80.5206503508
 30
0.0
 11
69.0983846978
 21
78.6782326289
 31
0.0
 12
69.781048597
 22
77.9257527283
 32
0.0
 13
69.781048597
 23
77.9257527283
 33
0.0
  0
LINE
  5
34B
330
347
100
AcDbEntity
  8
0
  6
Continuous
 62
     7
370
     0
100
AcDbLine
 10
71.8852763243
 20
80.5206503508
 30
0.0
 11
48.3529771133
 21
59.1717065152
 31
0.0
  0
LINE
  5
34C
330
347
100
AcDbEntity
  8
0
  6
Continuous
 62
     7
370
     0
100
AcDbLine
 10
71.8852763243
 20
80.5206503508
 30
0.0
 11
82.9947236757
 21
90.5993496492
 31
0.0
  0
MTEXT
  5
34D
330
347
100
AcDbEntity
  8
0
  6
Continuous
 62
     7
370
    18
100
AcDbMText
 10
45.3299708547
 20
62.5038754666
 30
0.0
 40
3.5
 41
0.0
 71
     1
 72
     1
  1
M12x1.75
  7
SLDTEXTSTYLE0
 11
0.7406298234224653
 21
0.6719132865610025
 31
0.0
 73
     1
 44
1.0
  0
ENDBLK
  5
349
330
347
100
AcDbEntity
  8
0
100
AcDbBlockEnd
  0
BLOCK
  5
34F
330
34E
100
AcDbEntity
  8
0
100
AcDbBlockBegin
  2
SW_CENTERMARKSYMBOL_0
 70
     0
 10
0.0
 20
0.0
 30
0.0
  3
SW_CENTERMARKSYMBOL_0
  1

  0
LINE
  5
351
330
34E
100
AcDbEntity
  8
0
  6
Continuous
 62
     0
370
    18
100
AcDbLine
 10
0.0
 20
0.0
 30
0.0
 11
0.0
 21
2.5
 31
0.0
  0
LINE
  5
352
330
34E
100
AcDbEntity
  8
0
  6
Continuous
 62
     0
370
    18
100
AcDbLine
 10
0.0
 20
0.0
 30
0.0
 11
-2.5
 21
0.0
 31
0.0
  0
LINE
  5
353
330
34E
100
AcDbEntity
  8
0
  6
Continuous
 62
     0
370
    18
100
AcDbLine
 10
0.0
 20
0.0
 30
0.0
 11
0.0
 21
-2.5
 31
0.0
  0
LINE
  5
354
330
34E
100
AcDbEntity
  8
0
  6
Continuous
 62
     0
370
    18
100
AcDbLine
 10
0.0
 20
0.0
 30
0.0
 11
2.5
 21
0.0
 31
0.0
  0
LINE
  5
355
330
34E
100
AcDbEntity
  8
0
  6
Continuous
 62
     0
370
    18
100
AcDbLine
 10
0.0
 20
5.0
 30
0.0
 11
0.0
 21
10.0
 31
0.0
  0
LINE
  5
356
330
34E
100
AcDbEntity
  8
0
  6
Continuous
 62
     0
370
    18
100
AcDbLine
 10
-5.0
 20
0.0
 30
0.0
 11
-10.0
 21
0.0
 31
0.0
  0
LINE
  5
357
330
34E
100
AcDbEntity
  8
0
  6
Continuous
 62
     0
370
    18
100
AcDbLine
 10
0.0
 20
-5.0
 30
0.0
 11
0.0
 21
-10.0
 31
0.0
  0
LINE
  5
358
330
34E
100
AcDbEntity
  8
0
  6
Continuous
 62
     0
370
    18
100
AcDbLine
 10
5.0
 20
0.0
 30
0.0
 11
10.0
 21
0.0
 31
0.0
  0
ENDBLK
  5
350
330
34E
100
AcDbEntity
  8
0
100
AcDbBlockEnd
  0
BLOCK
  5
35B
330
35A
100
AcDbEntity
  8
0
100
AcDbBlockBegin
  2
SW_CENTERMARKSYMBOL_1
 70
     0
 10
0.0
 20
0.0
 30
0.0
  3
SW_CENTERMARKSYMBOL_1
  1

  0
LINE
  5
35D
330
35A
100
AcDbEntity
  8
0
  6
Continuous
 62
     0
370
    18
100
AcDbLine
 10
0.0
 20
0.0
 30
0.0
 11
0.0
 21
2.5
 31
0.0
  0
LINE
  5
35E
330
35A
100
AcDbEntity
  8
0
  6
Continuous
 62
     0
370
    18
100
AcDbLine
 10
0.0
 20
0.0
 30
0.0
 11
-2.5
 21
0.0
 31
0.0
  0
LINE
  5
35F
330
35A
100
AcDbEntity
  8
0
  6
Continuous
 62
     0
370
    18
100
AcDbLine
 10
0.0
 20
0.0
 30
0.0
 11
0.0
 21
-2.5
 31
0.0
  0
LINE
  5
360
330
35A
100
AcDbEntity
  8
0
  6
Continuous
 62
     0
370
    18
100
AcDbLine
 10
0.0
 20
0.0
 30
0.0
 11
2.5
 21
0.0
 31
0.0
  0
LINE
  5
361
330
35A
100
AcDbEntity
  8
0
  6
Continuous
 62
     0
370
    18
100
AcDbLine
 10
0.0
 20
5.0
 30
0.0
 11
0.0
 21
10.0
 31
0.0
  0
LINE
  5
362
330
35A
100
AcDbEntity
  8
0
  6
Continuous
 62
     0
370
    18
100
AcDbLine
 10
-5.0
 20
0.0
 30
0.0
 11
-10.0
 21
0.0
 31
0.0
  0
LINE
  5
363
330
35A
100
AcDbEntity
  8
0
  6
Continuous
 62
     0
370
    18
100
AcDbLine
 10
0.0
 20
-5.0
 30
0.0
 11
0.0
 21
-10.0
 31
0.0
  0
LINE
  5
364
330
35A
100
AcDbEntity
  8
0
  6
Continuous
 62
     0
370
    18
100
AcDbLine
 10
5.0
 20
0.0
 30
0.0
 11
10.0
 21
0.0
 31
0.0
  0
ENDBLK
  5
35C
330
35A
100
AcDbEntity
  8
0
100
AcDbBlockEnd
  0
BLOCK
  5
367
330
366
100
AcDbEntity
  8
0
100
AcDbBlockBegin
  2
SW_CENTERMARKSYMBOL_2
 70
     0
 10
0.0
 20
0.0
 30
0.0
  3
SW_CENTERMARKSYMBOL_2
  1

  0
LINE
  5
369
330
366
100
AcDbEntity
  8
0
  6
Continuous
 62
     0
370
    18
100
AcDbLine
 10
0.0
 20
0.0
 30
0.0
 11
0.0
 21
2.5
 31
0.0
  0
LINE
  5
36A
330
366
100
AcDbEntity
  8
0
  6
Continuous
 62
     0
370
    18
100
AcDbLine
 10
0.0
 20
0.0
 30
0.0
 11
-2.5
 21
0.0
 31
0.0
  0
LINE
  5
36B
330
366
100
AcDbEntity
  8
0
  6
Continuous
 62
     0
370
    18
100
AcDbLine
 10
0.0
 20
0.0
 30
0.0
 11
0.0
 21
-2.5
 31
0.0
  0
LINE
  5
36C
330
366
100
AcDbEntity
  8
0
  6
Continuous
 62
     0
370
    18
100
AcDbLine
 10
0.0
 20
0.0
 30
0.0
 11
2.5
 21
0.0
 31
0.0
  0
LINE
  5
36D
330
366
100
AcDbEntity
  8
0
  6
Continuous
 62
     0
370
    18
100
AcDbLine
 10
0.0
 20
5.0
 30
0.0
 11
0.0
 21
9.5
 31
0.0
  0
LINE
  5
36E
330
366
100
AcDbEntity
  8
0
  6
Continuous
 62
     0
370
    18
100
AcDbLine
 10
-5.0
 20
0.0
 30
0.0
 11
-9.5
 21
0.0
 31
0.0
  0
LINE
  5
36F
330
366
100
AcDbEntity
  8
0
  6
Continuous
 62
     0
370
    18
100
AcDbLine
 10
0.0
 20
-5.0
 30
0.0
 11
0.0
 21
-9.5
 31
0.0
  0
LINE
  5
370
330
366
100
AcDbEntity
  8
0
  6
Continuous
 62
     0
370
    18
100
AcDbLine
 10
5.0
 20
0.0
 30
0.0
 11
9.5
 21
0.0
 31
0.0
  0
ENDBLK
  5
368
330
366
100
AcDbEntity
  8
0
100
AcDbBlockEnd
  0
BLOCK
  5
373
330
372
100
AcDbEntity
  8
0
100
AcDbBlockBegin
  2
SW_CENTERMARKSYMBOL_3
 70
     0
 10
0.0
 20
0.0
 30
0.0
  3
SW_CENTERMARKSYMBOL_3
  1

  0
LINE
  5
375
330
372
100
AcDbEntity
  8
0
  6
Continuous
 62
     0
370
    18
100
AcDbLine
 10
0.0
 20
0.0
 30
0.0
 11
0.0
 21
2.5
 31
0.0
  0
LINE
  5
376
330
372
100
AcDbEntity
  8
0
  6
Continuous
 62
     0
370
    18
100
AcDbLine
 10
0.0
 20
0.0
 30
0.0
 11
-2.5
 21
0.0
 31
0.0
  0
LINE
  5
377
330
372
100
AcDbEntity
  8
0
  6
Continuous
 62
     0
370
    18
100
AcDbLine
 10
0.0
 20
0.0
 30
0.0
 11
0.0
 21
-2.5
 31
0.0
  0
LINE
  5
378
330
372
100
AcDbEntity
  8
0
  6
Continuous
 62
     0
370
    18
100
AcDbLine
 10
0.0
 20
0.0
 30
0.0
 11
2.5
 21
0.0
 31
0.0
  0
LINE
  5
379
330
372
100
AcDbEntity
  8
0
  6
Continuous
 62
     0
370
    18
100
AcDbLine
 10
0.0
 20
5.0
 30
0.0
 11
0.0
 21
10.0
 31
0.0
  0
LINE
  5
37A
330
372
100
AcDbEntity
  8
0
  6
Continuous
 62
     0
370
    18
100
AcDbLine
 10
-5.0
 20
0.0
 30
0.0
 11
-10.0
 21
0.0
 31
0.0
  0
LINE
  5
37B
330
372
100
AcDbEntity
  8
0
  6
Continuous
 62
     0
370
    18
100
AcDbLine
 10
0.0
 20
-5.0
 30
0.0
 11
0.0
 21
-10.0
 31
0.0
  0
LINE
  5
37C
330
372
100
AcDbEntity
  8
0
  6
Continuous
 62
     0
370
    18
100
AcDbLine
 10
5.0
 20
0.0
 30
0.0
 11
10.0
 21
0.0
 31
0.0
  0
ENDBLK
  5
374
330
372
100
AcDbEntity
  8
0
100
AcDbBlockEnd
  0
ENDSEC
  0
SECTION
  2
ENTITIES
  0
LINE
  5
74
330
1F
100
AcDbEntity
  8
0
  6
Continuous
 62
     7
370
    50
100
AcDbLine
 10
230.0
 20
14.25
 30
0.0
 11
410.0
 21
14.25
 31
0.0
  0
LINE
  5
75
330
1F
100
AcDbEntity
  8
0
  6
Continuous
 62
     7
370
    50
100
AcDbLine
 10
410.0
 20
48.25
 30
0.0
 11
230.0
 21
48.25
 31
0.0
  0
LINE
  5
76
330
1F
100
AcDbEntity
  8
0
  6
Continuous
 62
     7
370
    50
100
AcDbLine
 10
230.0
 20
65.25
 30
0.0
 11
410.0
 21
65.25
 31
0.0
  0
LINE
  5
77
330
1F
100
AcDbEntity
  8
0
  6
Continuous
 62
     7
370
    50
100
AcDbLine
 10
256.9909524338
 20
48.25
 30
0.0
 11
256.9909524338
 21
10.0
 31
0.0
  0
LINE
  5
78
330
1F
100
AcDbEntity
  8
0
  6
Continuous
 62
     7
370
    50
100
AcDbLine
 10
328.8
 20
31.25
 30
0.0
 11
230.0
 21
31.25
 31
0.0
  0
LINE
  5
79
330
1F
100
AcDbEntity
  8
0
  6
Continuous
 62
     7
370
    50
100
AcDbLine
 10
328.8
 20
35.5
 30
0.0
 11
230.0
 21
35.5
 31
0.0
  0
LINE
  5
7A
330
1F
100
AcDbEntity
  8
0
  6
Continuous
 62
     7
370
    50
100
AcDbLine
 10
328.8
 20
39.75
 30
0.0
 11
230.0
 21
39.75
 31
0.0
  0
LINE
  5
7B
330
1F
100
AcDbEntity
  8
0
  6
Continuous
 62
     7
370
    50
100
AcDbLine
 10
328.8
 20
44.0
 30
0.0
 11
230.0
 21
44.0
 31
0.0
  0
LINE
  5
7C
330
1F
100
AcDbEntity
  8
0
  6
Continuous
 62
     7
370
    50
100
AcDbLine
 10
284.6
 20
10.0
 30
0.0
 11
284.6
 21
48.25
 31
0.0
  0
LINE
  5
7D
330
1F
100
AcDbEntity
  8
0
  6
Continuous
 62
     7
370
    50
100
AcDbLine
 10
230.0
 20
65.25
 30
0.0
 11
230.0
 21
10.0
 31
0.0
  0
LINE
  5
7E
330
1F
100
AcDbEntity
  8
0
  6
Continuous
 62
     7
370
    50
100
AcDbLine
 10
242.0703737145
 20
48.25
 30
0.0
 11
242.0703737145
 21
10.0
 31
0.0
  0
LINE
  5
7F
330
1F
100
AcDbEntity
  8
0
  6
Continuous
 62
     7
370
    50
100
AcDbLine
 10
263.8
 20
48.25
 30
0.0
 11
263.8
 21
65.25
 31
0.0
  0
LINE
  5
80
330
1F
100
AcDbEntity
  8
0
  6
Continuous
 62
     7
370
    50
100
AcDbLine
 10
274.3989261635
 20
48.25
 30
0.0
 11
274.3989261635
 21
10.0
 31
0.0
  0
LINE
  5
81
330
1F
100
AcDbEntity
  8
0
  6
Continuous
 62
     7
370
    50
100
AcDbLine
 10
295.0
 20
31.25
 30
0.0
 11
295.0
 21
48.25
 31
0.0
  0
LINE
  5
82
330
1F
100
AcDbEntity
  8
0
  6
Continuous
 62
     7
370
    50
100
AcDbLine
 10
284.6
 20
18.5
 30
0.0
 11
230.0
 21
18.5
 31
0.0
  0
LINE
  5
83
330
1F
100
AcDbEntity
  8
0
  6
Continuous
 62
     7
370
    50
100
AcDbLine
 10
310.6
 20
65.25
 30
0.0
 11
310.6
 21
27.0
 31
0.0
  0
LINE
  5
84
330
1F
100
AcDbEntity
  8
0
  6
Continuous
 62
     7
370
    50
100
AcDbLine
 10
284.6
 20
22.749928
 30
0.0
 11
230.0
 21
22.749928
 31
0.0
  0
LINE
  5
85
330
1F
100
AcDbEntity
  8
0
  6
Continuous
 62
     7
370
    50
100
AcDbLine
 10
284.6
 20
27.0
 30
0.0
 11
230.0
 21
27.0
 31
0.0
  0
LINE
  5
86
330
1F
100
AcDbEntity
  8
0
  6
Continuous
 62
     7
370
    50
100
AcDbLine
 10
284.6
 20
27.0
 30
0.0
 11
410.0
 21
27.0
 31
0.0
  0
LINE
  5
87
330
1F
100
AcDbEntity
  8
0
  6
Continuous
 62
     7
370
    50
100
AcDbLine
 10
328.8
 20
65.25
 30
0.0
 11
328.8
 21
10.0
 31
0.0
  0
LINE
  5
88
330
1F
100
AcDbEntity
  8
0
  6
Continuous
 62
     7
370
    50
100
AcDbLine
 10
373.0
 20
10.0
 30
0.0
 11
373.0
 21
14.25
 31
0.0
  0
LINE
  5
89
330
1F
100
AcDbEntity
  8
0
  6
Continuous
 62
     7
370
    50
100
AcDbLine
 10
380.8
 20
58.875
 30
0.0
 11
380.8
 21
65.25
 31
0.0
  0
LINE
  5
8A
330
1F
100
AcDbEntity
  8
0
  6
Continuous
 62
     7
370
    50
100
AcDbLine
 10
397.0
 20
14.25
 30
0.0
 11
397.0
 21
27.0
 31
0.0
  0
LINE
  5
8B
330
1F
100
AcDbEntity
  8
0
  6
Continuous
 62
     7
370
    50
100
AcDbLine
 10
410.0
 20
58.875
 30
0.0
 11
328.8
 21
58.875
 31
0.0
  0
LINE
  5
8C
330
1F
100
AcDbEntity
  8
0
  6
Continuous
 62
     7
370
    50
100
AcDbLine
 10
410.0
 20
18.5
 30
0.0
 11
397.0
 21
18.5
 31
0.0
  0
LINE
  5
8D
330
1F
100
AcDbEntity
  8
0
  6
Continuous
 62
     7
370
    70
100
AcDbLine
 10
20.0
 20
10.0
 30
0.0
 11
20.0
 21
287.0
 31
0.0
  0
LINE
  5
8E
330
1F
100
AcDbEntity
  8
0
  6
Continuous
 62
     7
370
    70
100
AcDbLine
 10
20.0
 20
287.0
 30
0.0
 11
410.0
 21
287.0
 31
0.0
  0
LINE
  5
8F
330
1F
100
AcDbEntity
  8
0
  6
Continuous
 62
     7
370
    70
100
AcDbLine
 10
410.0
 20
287.0
 30
0.0
 11
410.0
 21
10.0
 31
0.0
  0
LINE
  5
90
330
1F
100
AcDbEntity
  8
0
  6
Continuous
 62
     7
370
    70
100
AcDbLine
 10
410.0
 20
10.0
 30
0.0
 11
20.0
 21
10.0
 31
0.0
  0
LINE
  5
91
330
1F
100
AcDbEntity
  8
0
  6
Continuous
 62
     7
370
    70
100
AcDbLine
 10
15.0
 20
5.0
 30
0.0
 11
15.0
 21
292.0
 31
0.0
  0
LINE
  5
92
330
1F
100
AcDbEntity
  8
0
  6
Continuous
 62
     7
370
    70
100
AcDbLine
 10
15.0
 20
292.0
 30
0.0
 11
415.0
 21
292.0
 31
0.0
  0
LINE
  5
93
330
1F
100
AcDbEntity
  8
0
  6
Continuous
 62
     7
370
    70
100
AcDbLine
 10
415.0
 20
292.0
 30
0.0
 11
415.0
 21
5.0
 31
0.0
  0
LINE
  5
94
330
1F
100
AcDbEntity
  8
0
  6
Continuous
 62
     7
370
    70
100
AcDbLine
 10
415.0
 20
5.0
 30
0.0
 11
15.0
 21
5.0
 31
0.0
  0
LINE
  5
95
330
1F
100
AcDbEntity
  8
0
  6
Continuous
 62
     7
370
    35
100
AcDbLine
 10
15.0
 20
148.5
 30
0.0
 11
25.0
 21
148.5
 31
0.0
  0
LINE
  5
96
330
1F
100
AcDbEntity
  8
0
  6
Continuous
 62
     7
370
    35
100
AcDbLine
 10
215.0
 20
292.0
 30
0.0
 11
215.0
 21
282.0
 31
0.0
  0
LINE
  5
97
330
1F
100
AcDbEntity
  8
0
  6
Continuous
 62
     7
370
    35
100
AcDbLine
 10
415.0
 20
148.5
 30
0.0
 11
405.0
 21
148.5
 31
0.0
  0
LINE
  5
98
330
1F
100
AcDbEntity
  8
0
  6
Continuous
 62
     7
370
    35
100
AcDbLine
 10
215.0
 20
5.0
 30
0.0
 11
215.0
 21
15.0
 31
0.0
  0
LINE
  5
99
330
1F
100
AcDbEntity
  8
0
  6
Continuous
 62
     7
370
    35
100
AcDbLine
 10
20.0
 20
48.5
 30
0.0
 11
15.0
 21
48.5
 31
0.0
  0
LINE
  5
9A
330
1F
100
AcDbEntity
  8
0
  6
Continuous
 62
     7
370
    35
100
AcDbLine
 10
410.0
 20
48.5
 30
0.0
 11
415.0
 21
48.5
 31
0.0
  0
LINE
  5
9B
330
1F
100
AcDbEntity
  8
0
  6
Continuous
 62
     7
370
    35
100
AcDbLine
 10
20.0
 20
98.5
 30
0.0
 11
15.0
 21
98.5
 31
0.0
  0
LINE
  5
9C
330
1F
100
AcDbEntity
  8
0
  6
Continuous
 62
     7
370
    35
100
AcDbLine
 10
410.0
 20
98.5
 30
0.0
 11
415.0
 21
98.5
 31
0.0
  0
LINE
  5
9D
330
1F
100
AcDbEntity
  8
0
  6
Continuous
 62
     7
370
    35
100
AcDbLine
 10
20.0
 20
148.5
 30
0.0
 11
15.0
 21
148.5
 31
0.0
  0
LINE
  5
9E
330
1F
100
AcDbEntity
  8
0
  6
Continuous
 62
     7
370
    35
100
AcDbLine
 10
410.0
 20
148.5
 30
0.0
 11
415.0
 21
148.5
 31
0.0
  0
LINE
  5
9F
330
1F
100
AcDbEntity
  8
0
  6
Continuous
 62
     7
370
    35
100
AcDbLine
 10
20.0
 20
198.5
 30
0.0
 11
15.0
 21
198.5
 31
0.0
  0
LINE
  5
A0
330
1F
100
AcDbEntity
  8
0
  6
Continuous
 62
     7
370
    35
100
AcDbLine
 10
410.0
 20
198.5
 30
0.0
 11
415.0
 21
198.5
 31
0.0
  0
LINE
  5
A1
330
1F
100
AcDbEntity
  8
0
  6
Continuous
 62
     7
370
    35
100
AcDbLine
 10
20.0
 20
248.5
 30
0.0
 11
15.0
 21
248.5
 31
0.0
  0
LINE
  5
A2
330
1F
100
AcDbEntity
  8
0
  6
Continuous
 62
     7
370
    35
100
AcDbLine
 10
410.0
 20
248.5
 30
0.0
 11
415.0
 21
248.5
 31
0.0
  0
LINE
  5
A3
330
1F
100
AcDbEntity
  8
0
  6
Continuous
 62
     7
370
    35
100
AcDbLine
 10
65.0
 20
287.0
 30
0.0
 11
65.0
 21
292.0
 31
0.0
  0
LINE
  5
A4
330
1F
100
AcDbEntity
  8
0
  6
Continuous
 62
     7
370
    35
100
AcDbLine
 10
65.0
 20
10.0
 30
0.0
 11
65.0
 21
5.0
 31
0.0
  0
LINE
  5
A5
330
1F
100
AcDbEntity
  8
0
  6
Continuous
 62
     7
370
    35
100
AcDbLine
 10
115.0
 20
287.0
 30
0.0
 11
115.0
 21
292.0
 31
0.0
  0
LINE
  5
A6
330
1F
100
AcDbEntity
  8
0
  6
Continuous
 62
     7
370
    35
100
AcDbLine
 10
115.0
 20
10.0
 30
0.0
 11
115.0
 21
5.0
 31
0.0
  0
LINE
  5
A7
330
1F
100
AcDbEntity
  8
0
  6
Continuous
 62
     7
370
    35
100
AcDbLine
 10
165.0
 20
287.0
 30
0.0
 11
165.0
 21
292.0
 31
0.0
  0
LINE
  5
A8
330
1F
100
AcDbEntity
  8
0
  6
Continuous
 62
     7
370
    35
100
AcDbLine
 10
165.0
 20
10.0
 30
0.0
 11
165.0
 21
5.0
 31
0.0
  0
LINE
  5
A9
330
1F
100
AcDbEntity
  8
0
  6
Continuous
 62
     7
370
    35
100
AcDbLine
 10
215.0
 20
287.0
 30
0.0
 11
215.0
 21
292.0
 31
0.0
  0
LINE
  5
AA
330
1F
100
AcDbEntity
  8
0
  6
Continuous
 62
     7
370
    35
100
AcDbLine
 10
215.0
 20
10.0
 30
0.0
 11
215.0
 21
5.0
 31
0.0
  0
LINE
  5
AB
330
1F
100
AcDbEntity
  8
0
  6
Continuous
 62
     7
370
    35
100
AcDbLine
 10
265.0
 20
287.0
 30
0.0
 11
265.0
 21
292.0
 31
0.0
  0
LINE
  5
AC
330
1F
100
AcDbEntity
  8
0
  6
Continuous
 62
     7
370
    35
100
AcDbLine
 10
265.0
 20
10.0
 30
0.0
 11
265.0
 21
5.0
 31
0.0
  0
LINE
  5
AD
330
1F
100
AcDbEntity
  8
0
  6
Continuous
 62
     7
370
    35
100
AcDbLine
 10
315.0
 20
287.0
 30
0.0
 11
315.0
 21
292.0
 31
0.0
  0
LINE
  5
AE
330
1F
100
AcDbEntity
  8
0
  6
Continuous
 62
     7
370
    35
100
AcDbLine
 10
315.0
 20
10.0
 30
0.0
 11
315.0
 21
5.0
 31
0.0
  0
LINE
  5
AF
330
1F
100
AcDbEntity
  8
0
  6
Continuous
 62
     7
370
    35
100
AcDbLine
 10
365.0
 20
287.0
 30
0.0
 11
365.0
 21
292.0
 31
0.0
  0
LINE
  5
B0
330
1F
100
AcDbEntity
  8
0
  6
Continuous
 62
     7
370
    35
100
AcDbLine
 10
365.0
 20
10.0
 30
0.0
 11
365.0
 21
5.0
 31
0.0
  0
MTEXT
  5
B2
330
1F
100
AcDbEntity
  8
0
  6
Continuous
 62
     7
370
     0
100
AcDbMText
 10
17.3396881428
 20
31.1962239326
 30
0.0
 40
3.96875
 41
0.0
 71
     2
 72
     1
  1
A
  7
SLDTEXTSTYLE0
 73
     1
 44
1.0
  0
MTEXT
  5
B3
330
1F
100
AcDbEntity
  8
0
  6
Continuous
 62
     7
370
     0
100
AcDbMText
 10
412.3396881428
 20
31.1962239326
 30
0.0
 40
3.96875
 41
0.0
 71
     2
 72
     1
  1
A
  7
SLDTEXTSTYLE0
 73
     1
 44
1.0
  0
MTEXT
  5
B4
330
1F
100
AcDbEntity
  8
0
  6
Continuous
 62
     7
370
     0
100
AcDbMText
 10
17.4706018241
 20
75.4957779464
 30
0.0
 40
3.96875
 41
0.0
 71
     2
 72
     1
  1
B
  7
SLDTEXTSTYLE0
 73
     1
 44
1.0
  0
MTEXT
  5
B5
330
1F
100
AcDbEntity
  8
0
  6
Continuous
 62
     7
370
     0
100
AcDbMText
 10
412.4706018241
 20
75.4957779464
 30
0.0
 40
3.96875
 41
0.0
 71
     2
 72
     1
  1
B
  7
SLDTEXTSTYLE0
 73
     1
 44
1.0
  0
MTEXT
  5
B6
330
1F
100
AcDbEntity
  8
0
  6
Continuous
 62
     7
370
     0
100
AcDbMText
 10
17.458658902
 20
125.4462239326
 30
0.0
 40
3.96875
 41
0.0
 71
     2
 72
     1
  1
C
  7
SLDTEXTSTYLE0
 73
     1
 44
1.0
  0
MTEXT
  5
B7
330
1F
100
AcDbEntity
  8
0
  6
Continuous
 62
     7
370
     0
100
AcDbMText
 10
412.458658902
 20
125.4462239326
 30
0.0
 40
3.96875
 41
0.0
 71
     2
 72
     1
  1
C
  7
SLDTEXTSTYLE0
 73
     1
 44
1.0
  0
MTEXT
  5
B8
330
1F
100
AcDbEntity
  8
0
  6
Continuous
 62
     7
370
     0
100
AcDbMText
 10
17.4526872821
 20
175.4957779464
 30
0.0
 40
3.96875
 41
0.0
 71
     2
 72
     1
  1
D
  7
SLDTEXTSTYLE0
 73
     1
 44
1.0
  0
MTEXT
  5
B9
330
1F
100
AcDbEntity
  8
0
  6
Continuous
 62
     7
370
     0
100
AcDbMText
 10
412.4526872821
 20
175.4957779464
 30
0.0
 40
3.96875
 41
0.0
 71
     2
 72
     1
  1
D
  7
SLDTEXTSTYLE0
 73
     1
 44
1.0
  0
MTEXT
  5
BA
330
1F
100
AcDbEntity
  8
0
  6
Continuous
 62
     7
370
     0
100
AcDbMText
 10
17.5078089051
 20
225.4462239326
 30
0.0
 40
3.96875
 41
0.0
 71
     2
 72
     1
  1
E
  7
SLDTEXTSTYLE0
 73
     1
 44
1.0
  0
MTEXT
  5
BB
330
1F
100
AcDbEntity
  8
0
  6
Continuous
 62
     7
370
     0
100
AcDbMText
 10
412.5078089051
 20
225.4462239326
 30
0.0
 40
3.96875
 41
0.0
 71
     2
 72
     1
  1
E
  7
SLDTEXTSTYLE0
 73
     1
 44
1.0
  0
MTEXT
  5
BC
330
1F
100
AcDbEntity
  8
0
  6
Continuous
 62
     7
370
     0
100
AcDbMText
 10
17.4577402091
 20
269.7457779464
 30
0.0
 40
3.96875
 41
0.0
 71
     2
 72
     1
  1
F
  7
SLDTEXTSTYLE0
 73
     1
 44
1.0
  0
MTEXT
  5
BD
330
1F
100
AcDbEntity
  8
0
  6
Continuous
 62
     7
370
     0
100
AcDbMText
 10
412.4577402091
 20
269.7457779464
 30
0.0
 40
3.96875
 41
0.0
 71
     2
 72
     1
  1
F
  7
SLDTEXTSTYLE0
 73
     1
 44
1.0
  0
MTEXT
  5
BE
330
1F
100
AcDbEntity
  8
0
  6
Continuous
 62
     7
370
     0
100
AcDbMText
 10
42.4600369465
 20
9.4957779464
 30
0.0
 40
3.96875
 41
0.0
 71
     2
 72
     1
  1
8
  7
SLDTEXTSTYLE0
 73
     1
 44
1.0
  0
MTEXT
  5
BF
330
1F
100
AcDbEntity
  8
0
  6
Continuous
 62
     7
370
     0
100
AcDbMText
 10
42.4600369465
 20
291.4462239326
 30
0.0
 40
3.96875
 41
0.0
 71
     2
 72
     1
  1
8
  7
SLDTEXTSTYLE0
 73
     1
 44
1.0
  0
MTEXT
  5
C0
330
1F
100
AcDbEntity
  8
0
  6
Continuous
 62
     7
370
     0
100
AcDbMText
 10
89.9600369465
 20
9.4957779464
 30
0.0
 40
3.96875
 41
0.0
 71
     2
 72
     1
  1
7
  7
SLDTEXTSTYLE0
 73
     1
 44
1.0
  0
MTEXT
  5
C1
330
1F
100
AcDbEntity
  8
0
  6
Continuous
 62
     7
370
     0
100
AcDbMText
 10
89.9600369465
 20
291.4462239326
 30
0.0
 40
3.96875
 41
0.0
 71
     2
 72
     1
  1
7
  7
SLDTEXTSTYLE0
 73
     1
 44
1.0
  0
MTEXT
  5
C2
330
1F
100
AcDbEntity
  8
0
  6
Continuous
 62
     7
370
     0
100
AcDbMText
 10
139.9600369465
 20
9.4957779464
 30
0.0
 40
3.96875
 41
0.0
 71
     2
 72
     1
  1
6
  7
SLDTEXTSTYLE0
 73
     1
 44
1.0
  0
MTEXT
  5
C3
330
1F
100
AcDbEntity
  8
0
  6
Continuous
 62
     7
370
     0
100
AcDbMText
 10
139.9600369465
 20
291.4462239326
 30
0.0
 40
3.96875
 41
0.0
 71
     2
 72
     1
  1
6
  7
SLDTEXTSTYLE0
 73
     1
 44
1.0
  0
MTEXT
  5
C4
330
1F
100
AcDbEntity
  8
0
  6
Continuous
 62
     7
370
     0
100
AcDbMText
 10
189.9600369465
 20
9.4957779464
 30
0.0
 40
3.96875
 41
0.0
 71
     2
 72
     1
  1
5
  7
SLDTEXTSTYLE0
 73
     1
 44
1.0
  0
MTEXT
  5
C5
330
1F
100
AcDbEntity
  8
0
  6
Continuous
 62
     7
370
     0
100
AcDbMText
 10
189.9600369465
 20
291.4462239326
 30
0.0
 40
3.96875
 41
0.0
 71
     2
 72
     1
  1
5
  7
SLDTEXTSTYLE0
 73
     1
 44
1.0
  0
MTEXT
  5
C6
330
1F
100
AcDbEntity
  8
0
  6
Continuous
 62
     7
370
     0
100
AcDbMText
 10
239.9600369465
 20
9.4957779464
 30
0.0
 40
3.96875
 41
0.0
 71
     2
 72
     1
  1
4
  7
SLDTEXTSTYLE0
 73
     1
 44
1.0
  0
MTEXT
  5
C7
330
1F
100
AcDbEntity
  8
0
  6
Continuous
 62
     7
370
     0
100
AcDbMText
 10
239.9600369465
 20
291.4462239326
 30
0.0
 40
3.96875
 41
0.0
 71
     2
 72
     1
  1
4
  7
SLDTEXTSTYLE0
 73
     1
 44
1.0
  0
MTEXT
  5
C8
330
1F
100
AcDbEntity
  8
0
  6
Continuous
 62
     7
370
     0
100
AcDbMText
 10
289.9600369465
 20
9.4957779464
 30
0.0
 40
3.96875
 41
0.0
 71
     2
 72
     1
  1
3
  7
SLDTEXTSTYLE0
 73
     1
 44
1.0
  0
MTEXT
  5
C9
330
1F
100
AcDbEntity
  8
0
  6
Continuous
 62
     7
370
     0
100
AcDbMText
 10
289.9600369465
 20
291.4462239326
 30
0.0
 40
3.96875
 41
0.0
 71
     2
 72
     1
  1
3
  7
SLDTEXTSTYLE0
 73
     1
 44
1.0
  0
MTEXT
  5
CA
330
1F
100
AcDbEntity
  8
0
  6
Continuous
 62
     7
370
     0
100
AcDbMText
 10
339.9600369465
 20
9.4957779464
 30
0.0
 40
3.96875
 41
0.0
 71
     2
 72
     1
  1
2
  7
SLDTEXTSTYLE0
 73
     1
 44
1.0
  0
MTEXT
  5
CB
330
1F
100
AcDbEntity
  8
0
  6
Continuous
 62
     7
370
     0
100
AcDbMText
 10
339.9600369465
 20
291.4462239326
 30
0.0
 40
3.96875
 41
0.0
 71
     2
 72
     1
  1
2
  7
SLDTEXTSTYLE0
 73
     1
 44
1.0
  0
MTEXT
  5
CC
330
1F
100
AcDbEntity
  8
0
  6
Continuous
 62
     7
370
     0
100
AcDbMText
 10
387.4600369465
 20
9.4957779464
 30
0.0
 40
3.96875
 41
0.0
 71
     2
 72
     1
  1
1
  7
SLDTEXTSTYLE0
 73
     1
 44
1.0
  0
MTEXT
  5
CD
330
1F
100
AcDbEntity
  8
0
  6
Continuous
 62
     7
370
     0
100
AcDbMText
 10
387.4600369465
 20
291.4462239326
 30
0.0
 40
3.96875
 41
0.0
 71
     2
 72
     1
  1
1
  7
SLDTEXTSTYLE0
 73
     1
 44
1.0
  0
MTEXT
  5
CE
330
1F
100
AcDbEntity
  8
0
  6
Continuous
 62
     7
370
     0
100
AcDbMText
 10
364.6853451296
 20
23.347828666
 30
0.0
 40
4.2333333333
 41
0.0
 71
     2
 72
     1
  1
CR050022D3GEGM_#_#_##Svoboda
  7
SLDTEXTSTYLE0
 73
     1
 44
1.0
  0
MTEXT
  5
CF
330
1F
100
AcDbEntity
  8
0
  6
Continuous
 62
     7
370
     0
100
AcDbMText
 10
285.6178111281
 20
12.9493119036
 30
0.0
 40
1.4986
 41
0.0
 71
     1
 72
     1
  1
HMOTNOST:
  7
SLDTEXTSTYLE0
 73
     1
 44
1.0
  0
MTEXT
  5
D0
330
1F
100
AcDbEntity
  8
0
  6
Continuous
 62
     7
370
     0
100
AcDbMText
 10
400.8711564346
 20
24.406388569
 30
0.0
 40
2.9104166667
 41
0.0
 71
     1
 72
     1
  1
A3
  7
SLDTEXTSTYLE0
 73
     1
 44
1.0
  0
MTEXT
  5
D2
330
1F
100
AcDbEntity
  8
0
  6
Continuous
 62
     7
370
     0
100
AcDbMText
 10
374.4782944278
 20
12.9000872745
 30
0.0
 40
1.5
 41
0.0
 71
     1
 72
     1
  1
LIST 1 Z 1 LISTŮ
  7
SLDTEXTSTYLE1
 73
     1
 44
1.0
  0
MTEXT
  5
D4
330
1F
100
AcDbEntity
  8
0
  6
Continuous
 62
     7
370
     0
100
AcDbMText
 10
330.0739661175
 20
12.9000872745
 30
0.0
 40
1.5
 41
0.0
 71
     1
 72
     1
  1
MĚŘÍTKO:1:1
  7
SLDTEXTSTYLE2
 73
     1
 44
1.0
  0
MTEXT
  5
D5
330
1F
100
AcDbEntity
  8
0
  6
Continuous
 62
     7
370
     0
100
AcDbMText
 10
330.2786531243
 20
25.9860562892
 30
0.0
 40
1.5
 41
0.0
 71
     1
 72
     1
  1
Č. VÝKRESU
  7
SLDTEXTSTYLE2
 73
     1
 44
1.0
  0
MTEXT
  5
D6
330
1F
100
AcDbEntity
  8
0
  6
Continuous
 62
     7
370
     0
100
AcDbMText
 10
329.9561869366
 20
46.5761792212
 30
0.0
 40
1.5
 41
0.0
 71
     1
 72
     1
  1
NÁZEV:
  7
SLDTEXTSTYLE0
 73
     1
 44
1.0
  0
MTEXT
  5
D7
330
1F
100
AcDbEntity
  8
0
  6
Continuous
 62
     7
370
     0
100
AcDbMText
 10
383.3275816993
 20
62.3349086805
 30
0.0
 40
1.5
 41
0.0
 71
     1
 72
     1
  1
ZMĚNA
  7
SLDTEXTSTYLE2
 73
     1
 44
1.0
  0
MTEXT
  5
D8
330
1F
100
AcDbEntity
  8
0
  6
Continuous
 62
     7
370
     0
100
AcDbMText
 10
342.6146405229
 20
62.5329935751
 30
0.0
 40
1.5
 41
0.0
 71
     1
 72
     1
  1
NEUPRAVOVAT MĚŘÍTKO VÝKRESU
  7
SLDTEXTSTYLE2
 73
     1
 44
1.0
  0
MTEXT
  5
D9
330
1F
100
AcDbEntity
  8
0
  6
Continuous
 62
     7
370
     0
100
AcDbMText
 10
285.6458623088
 20
25.9860562892
 30
0.0
 40
1.5
 41
0.0
 71
     1
 72
     1
  1
MATERIÁL:
  7
SLDTEXTSTYLE0
 73
     1
 44
1.0
  0
MTEXT
  5
DA
330
1F
100
AcDbEntity
  8
0
  6
Continuous
 62
     7
370
     0
100
AcDbMText
 10
277.2147019657
 20
46.5761792212
 30
0.0
 40
1.5
 41
0.0
 71
     1
 72
     1
  1
DATUM
  7
SLDTEXTSTYLE0
 73
     1
 44
1.0
  0
MTEXT
  5
DB
330
1F
100
AcDbEntity
  8
0
  6
Continuous
 62
     7
370
     0
100
AcDbMText
 10
260.0335875632
 20
46.5617563795
 30
0.0
 40
1.5
 41
0.0
 71
     1
 72
     1
  1
PODPIS
  7
SLDTEXTSTYLE0
 73
     1
 44
1.0
  0
MTEXT
  5
DC
330
1F
100
AcDbEntity
  8
0
  6
Continuous
 62
     7
370
     0
100
AcDbMText
 10
244.3222392177
 20
46.5014826335
 30
0.0
 40
1.5
 41
0.0
 71
     1
 72
     1
  1
JMÉNO
  7
SLDTEXTSTYLE0
 73
     1
 44
1.0
  0
INSERT
  5
E2
330
1F
100
AcDbEntity
  8
0
  6
Continuous
 62
     7
370
     0
100
AcDbBlockReference
  2
SW_NOTE_0
 10
311.3092156863
 20
62.069489643
 30
0.0
  0
MTEXT
  5
E3
330
1F
100
AcDbEntity
  8
0
  6
Continuous
 62
     7
370
     0
100
AcDbMText
 10
264.3712921668
 20
63.9192719951
 30
0.0
 40
1.5
 41
0.0
 71
     1
 72
     1
  1
OPRACOVÁNÍ:
  7
SLDTEXTSTYLE0
 73
     1
 44
1.0
  0
INSERT
  5
ED
330
1F
100
AcDbEntity
  8
0
  6
Continuous
 62
     7
370
     0
100
AcDbBlockReference
  2
SW_NOTE_0_1
 10
230.5936687456
 20
61.9873698743
 30
0.0
  0
MTEXT
  5
EE
330
1F
100
AcDbEntity
  8
0
  6
Continuous
 62
     7
370
     0
100
AcDbMText
 10
230.6690428622
 20
25.3496492073
 30
0.0
 40
1.5
 41
0.0
 71
     1
 72
     1
  1
Z. JAKOSTI
  7
SLDTEXTSTYLE0
 73
     1
 44
1.0
  0
MTEXT
  5
EF
330
1F
100
AcDbEntity
  8
0
  6
Continuous
 62
     7
370
     0
100
AcDbMText
 10
230.4551864991
 20
29.7337046506
 30
0.0
 40
1.5
 41
0.0
 71
     1
 72
     1
  1
VÝROBA
  7
SLDTEXTSTYLE0
 73
     1
 44
1.0
  0
MTEXT
  5
F0
330
1F
100
AcDbEntity
  8
0
  6
Continuous
 62
     7
370
     0
100
AcDbMText
 10
230.4017224083
 20
34.0642960031
 30
0.0
 40
1.5
 41
0.0
 71
     1
 72
     1
  1
SCHVÁLIL
  7
SLDTEXTSTYLE0
 73
     1
 44
1.0
  0
MTEXT
  5
F1
330
1F
100
AcDbEntity
  8
0
  6
Continuous
 62
     7
370
     0
100
AcDbMText
 10
230.4104688676
 20
38.15440716
 30
0.0
 40
1.5
 41
0.0
 71
     1
 72
     1
  1
PŘEZKOUŠEL
  7
SLDTEXTSTYLE2
 73
     1
 44
1.0
  0
MTEXT
  5
F2
330
1F
100
AcDbEntity
  8
0
  6
Continuous
 62
     7
370
     0
100
AcDbMText
 10
230.2121492441
 20
42.4297148859
 30
0.0
 40
1.5
 41
0.0
 71
     1
 72
     1
  1
NAVRHL
  7
SLDTEXTSTYLE0
 73
     1
 44
1.0
  0
LINE
  5
F3
330
1F
100
AcDbEntity
  8
0
  6
Continuous
 62
     7
370
    25
100
AcDbLine
 10
118.94
 20
229.71
 30
0.0
 11
165.94
 21
229.71
 31
0.0
  0
LINE
  5
F4
330
1F
100
AcDbEntity
  8
0
  6
Continuous
 62
     7
370
    25
100
AcDbLine
 10
165.94
 20
241.71
 30
0.0
 11
118.94
 21
241.71
 31
0.0
  0
LINE
  5
F5
330
1F
100
AcDbEntity
  8
0
  6
Continuous
 62
     7
370
    25
100
AcDbLine
 10
165.94
 20
189.41
 30
0.0
 11
118.94
 21
189.41
 31
0.0
  0
LINE
  5
F6
330
1F
100
AcDbEntity
  8
0
  6
Continuous
 62
     7
370
    25
100
AcDbLine
 10
118.94
 20
177.41
 30
0.0
 11
165.94
 21
177.41
 31
0.0
  0
LINE
  5
F7
330
1F
100
AcDbEntity
  8
0
  6
Continuous
 62
     7
370
    25
100
AcDbLine
 10
67.94
 20
243.21
 30
0.0
 11
66.24
 21
243.21
 31
0.0
  0
LINE
  5
F8
330
1F
100
AcDbEntity
  8
0
  6
Continuous
 62
     7
370
    25
100
AcDbLine
 10
66.24
 20
228.21
 30
0.0
 11
67.94
 21
228.21
 31
0.0
  0
ARC
  5
F9
330
1F
100
AcDbEntity
  8
0
  6
Continuous
 62
     7
370
    25
100
AcDbCircle
 10
66.24
 20
228.51
 30
0.0
 40
0.3000000000000114
100
AcDbArc
 50
180.0
 51
270.0
  0
ARC
  5
FA
330
1F
100
AcDbEntity
  8
0
  6
Continuous
 62
     7
370
    25
100
AcDbCircle
 10
66.24
 20
242.91
 30
0.0
 40
0.3000000000000114
100
AcDbArc
 50
90.0
 51
180.0
  0
LINE
  5
FB
330
1F
100
AcDbEntity
  8
0
  6
Continuous
 62
     7
370
    25
100
AcDbLine
 10
69.496784808
 20
247.33
 30
0.0
 11
67.94
 21
245.773215192
 31
0.0
  0
LINE
  5
FC
330
1F
100
AcDbEntity
  8
0
  6
Continuous
 62
     7
370
    25
100
AcDbLine
 10
81.94
 20
245.773215192
 30
0.0
 11
80.383215192
 21
247.33
 31
0.0
  0
LINE
  5
FD
330
1F
100
AcDbEntity
  8
0
  6
Continuous
 62
     7
370
    25
100
AcDbLine
 10
80.383215192
 20
224.09
 30
0.0
 11
81.94
 21
225.646784808
 31
0.0
  0
LINE
  5
FE
330
1F
100
AcDbEntity
  8
0
  6
Continuous
 62
     7
370
    25
100
AcDbLine
 10
67.94
 20
225.646784808
 30
0.0
 11
69.496784808
 21
224.09
 31
0.0
  0
LINE
  5
FF
330
1F
100
AcDbEntity
  8
0
  6
Continuous
 62
     7
370
    25
100
AcDbLine
 10
67.94
 20
190.91
 30
0.0
 11
66.24
 21
190.91
 31
0.0
  0
LINE
  5
100
330
1F
100
AcDbEntity
  8
0
  6
Continuous
 62
     7
370
    25
100
AcDbLine
 10
66.24
 20
175.91
 30
0.0
 11
67.94
 21
175.91
 31
0.0
  0
ARC
  5
101
330
1F
100
AcDbEntity
  8
0
  6
Continuous
 62
     7
370
    25
100
AcDbCircle
 10
66.24
 20
176.21
 30
0.0
 40
0.3000000000000114
100
AcDbArc
 50
180.0
 51
270.0
  0
ARC
  5
102
330
1F
100
AcDbEntity
  8
0
  6
Continuous
 62
     7
370
    25
100
AcDbCircle
 10
66.24
 20
190.61
 30
0.0
 40
0.3000000000000114
100
AcDbArc
 50
90.0
 51
180.0
  0
LINE
  5
103
330
1F
100
AcDbEntity
  8
0
  6
Continuous
 62
     7
370
    25
100
AcDbLine
 10
69.496784808
 20
195.03
 30
0.0
 11
67.94
 21
193.473215192
 31
0.0
  0
LINE
  5
104
330
1F
100
AcDbEntity
  8
0
  6
Continuous
 62
     7
370
    25
100
AcDbLine
 10
81.94
 20
193.473215192
 30
0.0
 11
80.383215192
 21
195.03
 31
0.0
  0
LINE
  5
105
330
1F
100
AcDbEntity
  8
0
  6
Continuous
 62
     7
370
    25
100
AcDbLine
 10
67.94
 20
173.346784808
 30
0.0
 11
69.496784808
 21
171.79
 31
0.0
  0
LINE
  5
106
330
1F
100
AcDbEntity
  8
0
  6
Continuous
 62
     7
370
    25
100
AcDbLine
 10
80.383215192
 20
171.79
 30
0.0
 11
81.94
 21
173.346784808
 31
0.0
  0
LINE
  5
107
330
1F
100
AcDbEntity
  8
0
  6
Continuous
 62
     7
370
    25
100
AcDbLine
 10
224.94
 20
192.56
 30
0.0
 11
233.44
 21
192.56
 31
0.0
  0
LINE
  5
108
330
1F
100
AcDbEntity
  8
0
  6
Continuous
 62
     7
370
    25
100
AcDbLine
 10
233.44
 20
226.56
 30
0.0
 11
224.94
 21
226.56
 31
0.0
  0
LINE
  5
109
330
1F
100
AcDbEntity
  8
0
  6
Continuous
 62
     7
370
    25
100
AcDbLine
 10
233.44
 20
192.56
 30
0.0
 11
233.94
 21
193.06
 31
0.0
  0
LINE
  5
10A
330
1F
100
AcDbEntity
  8
0
  6
Continuous
 62
     7
370
    25
100
AcDbLine
 10
233.94
 20
226.06
 30
0.0
 11
233.44
 21
226.56
 31
0.0
  0
LINE
  5
10B
330
1F
100
AcDbEntity
  8
0
  6
Continuous
 62
     7
370
    25
100
AcDbLine
 10
208.94
 20
172.56
 30
0.0
 11
224.94
 21
172.56
 31
0.0
  0
LINE
  5
10C
330
1F
100
AcDbEntity
  8
0
  6
Continuous
 62
     7
370
    25
100
AcDbLine
 10
224.94
 20
246.56
 30
0.0
 11
208.94
 21
246.56
 31
0.0
  0
SPLINE
  5
10D
330
1F
100
AcDbEntity
  8
0
  6
Continuous
 62
     7
370
    25
100
AcDbSpline
210
0.0
220
0.0
230
1.0
 70
     8
 71
     3
 72
    10
 73
     6
 74
     0
 42
0.000000001
 43
0.00000001
 40
0.0
 40
0.0
 40
0.0
 40
0.0
 40
0.2999528966734432
 40
0.6483731547620911
 40
1.0
 40
1.0
 40
1.0
 40
1.0
 10
104.6210016110434
 20
247.06
 30
0.0
 10
104.1851493659849
 20
247.1578456564282
 30
0.0
 10
103.2430184571897
 20
247.3693471876408
 30
0.0
 10
101.8459493257407
 20
247.9491693650829
 30
0.0
 10
100.910078703242
 20
248.4598809853339
 30
0.0
 10
100.44
 20
248.716406460551
 30
0.0
  0
LINE
  5
10E
330
1F
100
AcDbEntity
  8
0
  6
Continuous
 62
     7
370
    25
100
AcDbLine
 10
100.44
 20
249.3035935394
 30
0.0
 11
100.44
 21
248.7164064606
 31
0.0
  0
SPLINE
  5
10F
330
1F
100
AcDbEntity
  8
0
  6
Continuous
 62
     7
370
    25
100
AcDbSpline
210
0.0
220
0.0
230
1.0
 70
     8
 71
     3
 72
    11
 73
     7
 74
     0
 42
0.000000001
 43
0.00000001
 40
0.0
 40
0.0
 40
0.0
 40
0.0
 40
0.4320494329431813
 40
0.6559250873348006
 40
0.8796491222701223
 40
0.9999999999999999
 40
0.9999999999999999
 40
0.9999999999999999
 40
0.9999999999999999
 10
100.44
 20
249.303593539449
 30
0.0
 10
101.2618512771412
 20
249.7403426998796
 30
0.0
 10
102.5095623713621
 20
250.4034027790177
 30
0.0
 10
104.2927910995565
 20
250.9349724302196
 30
0.0
 10
105.4699479526717
 20
251.1358126396973
 30
0.0
 10
106.1886215930422
 20
251.1537321094078
 30
0.0
 10
106.44
 20
251.1600000000001
 30
0.0
  0
SPLINE
  5
110
330
1F
100
AcDbEntity
  8
0
  6
Continuous
 62
     7
370
    25
100
AcDbSpline
210
0.0
220
0.0
230
1.0
 70
     8
 71
     3
 72
    11
 73
     7
 74
     0
 42
0.000000001
 43
0.00000001
 40
0.0
 40
0.0
 40
0.0
 40
0.0
 40
0.2495768535213321
 40
0.5043619258214556
 40
0.7510458202383322
 40
0.9999999999999999
 40
0.9999999999999999
 40
0.9999999999999999
 40
0.9999999999999999
 10
106.44
 20
251.1600000000001
 30
0.0
 10
106.9617366890941
 20
251.1335287053158
 30
0.0
 10
108.0160977709429
 20
251.0800337077728
 30
0.0
 10
109.5507670123151
 20
250.6663330490591
 30
0.0
 10
111.0346780291418
 20
250.0755810477457
 30
0.0
 10
111.9701310526605
 20
249.561707313662
 30
0.0
 10
112.44
 20
249.303593539449
 30
0.0
  0
LINE
  5
111
330
1F
100
AcDbEntity
  8
0
  6
Continuous
 62
     7
370
    25
100
AcDbLine
 10
112.44
 20
249.3035935394
 30
0.0
 11
112.44
 21
248.7164064606
 31
0.0
  0
SPLINE
  5
112
330
1F
100
AcDbEntity
  8
0
  6
Continuous
 62
     7
370
    25
100
AcDbSpline
210
0.0
220
0.0
230
1.0
 70
     8
 71
     3
 72
    10
 73
     6
 74
     0
 42
0.000000001
 43
0.00000001
 40
0.0
 40
0.0
 40
0.0
 40
0.0
 40
0.6089827880570893
 40
0.9245402446674843
 40
1.0
 40
1.0
 40
1.0
 40
1.0
 10
112.44
 20
248.716406460551
 30
0.0
 10
111.6172237440323
 20
248.2876054659743
 30
0.0
 10
110.3681083734225
 20
247.6366120648233
 30
0.0
 10
108.9352850565743
 20
247.1614948531973
 30
0.0
 10
108.3605110386781
 20
247.0764183385828
 30
0.0
 10
108.2495893057282
 20
247.06
 30
0.0
  0
LINE
  5
113
330
1F
100
AcDbEntity
  8
0
  6
Continuous
 62
     7
370
    25
100
AcDbLine
 10
94.44
 20
251.16
 30
0.0
 11
106.44
 21
251.16
 31
0.0
  0
SPLINE
  5
114
330
1F
100
AcDbEntity
  8
0
  6
Continuous
 62
     7
370
    25
100
AcDbSpline
210
0.0
220
0.0
230
1.0
 70
     8
 71
     3
 72
    11
 73
     7
 74
     0
 42
0.000000001
 43
0.00000001
 40
0.0
 40
0.0
 40
0.0
 40
0.0
 40
0.2495768535213329
 40
0.504361925821458
 40
0.7510458202383333
 40
0.9999999999999999
 40
0.9999999999999999
 40
0.9999999999999999
 40
0.9999999999999999
 10
94.43999999999998
 20
251.1600000000001
 30
0.0
 10
94.96173668909405
 20
251.1335287053158
 30
0.0
 10
96.01609777094293
 20
251.0800337077728
 30
0.0
 10
97.5507670123151
 20
250.6663330490591
 30
0.0
 10
99.03467802914176
 20
250.0755810477457
 30
0.0
 10
99.97013105266045
 20
249.561707313662
 30
0.0
 10
100.44
 20
249.303593539449
 30
0.0
  0
SPLINE
  5
115
330
1F
100
AcDbEntity
  8
0
  6
Continuous
 62
     7
370
    25
100
AcDbSpline
210
0.0
220
0.0
230
1.0
 70
     8
 71
     3
 72
    10
 73
     6
 74
     0
 42
0.000000001
 43
0.00000001
 40
0.0
 40
0.0
 40
0.0
 40
0.0
 40
0.299952896673443
 40
0.6483731547620906
 40
1.0
 40
1.0
 40
1.0
 40
1.0
 10
92.62100161104343
 20
247.06
 30
0.0
 10
92.18514936598493
 20
247.1578456564282
 30
0.0
 10
91.24301845718969
 20
247.3693471876408
 30
0.0
 10
89.84594932574073
 20
247.9491693650829
 30
0.0
 10
88.910078703242
 20
248.4598809853339
 30
0.0
 10
88.44
 20
248.716406460551
 30
0.0
  0
LINE
  5
116
330
1F
100
AcDbEntity
  8
0
  6
Continuous
 62
     7
370
    25
100
AcDbLine
 10
88.44
 20
249.3035935394
 30
0.0
 11
88.44
 21
248.7164064606
 31
0.0
  0
SPLINE
  5
117
330
1F
100
AcDbEntity
  8
0
  6
Continuous
 62
     7
370
    25
100
AcDbSpline
210
0.0
220
0.0
230
1.0
 70
     8
 71
     3
 72
    11
 73
     7
 74
     0
 42
0.000000001
 43
0.00000001
 40
0.0
 40
0.0
 40
0.0
 40
0.0
 40
0.432049432943182
 40
0.6559250873348014
 40
0.8796491222701236
 40
1.0
 40
1.0
 40
1.0
 40
1.0
 10
88.44
 20
249.303593539449
 30
0.0
 10
89.26185127714119
 20
249.7403426998796
 30
0.0
 10
90.5095623713621
 20
250.4034027790177
 30
0.0
 10
92.2927910995565
 20
250.9349724302196
 30
0.0
 10
93.46994795267172
 20
251.1358126396973
 30
0.0
 10
94.1886215930422
 20
251.1537321094078
 30
0.0
 10
94.43999999999998
 20
251.16
 30
0.0
  0
SPLINE
  5
118
330
1F
100
AcDbEntity
  8
0
  6
Continuous
 62
     7
370
    25
100
AcDbSpline
210
0.0
220
0.0
230
1.0
 70
     8
 71
     3
 72
    10
 73
     6
 74
     0
 42
0.000000001
 43
0.00000001
 40
0.0
 40
0.0
 40
0.0
 40
0.0
 40
0.6089827880570894
 40
0.9245402446674841
 40
1.0
 40
1.0
 40
1.0
 40
1.0
 10
100.44
 20
248.716406460551
 30
0.0
 10
99.61722374403232
 20
248.2876054659743
 30
0.0
 10
98.3681083734225
 20
247.6366120648233
 30
0.0
 10
96.93528505657432
 20
247.1614948531973
 30
0.0
 10
96.36051103867808
 20
247.0764183385828
 30
0.0
 10
96.24958930572821
 20
247.06
 30
0.0
  0
SPLINE
  5
119
330
1F
100
AcDbEntity
  8
0
  6
Continuous
 62
     7
370
    25
100
AcDbSpline
210
0.0
220
0.0
230
1.0
 70
    24
 71
     3
 72
    11
 73
     7
 74
     0
 42
0.000000001
 43
0.00000001
 40
0.0
 40
0.0
 40
0.0
 40
0.0
 40
0.0405778104788576
 40
0.394190623067553
 40
0.7608637224128542
 40
1.0
 40
1.0
 40
1.0
 40
1.0
 10
88.44
 20
251.16
 30
0.0
 10
88.44
 20
251.159240564434
 30
0.0
 10
88.44
 20
251.151863074731
 30
0.0
 10
88.43999999999998
 20
250.8993168498879
 30
0.0
 10
88.44
 20
250.1786557318981
 30
0.0
 10
88.44
 20
249.5512533909912
 30
0.0
 10
88.44
 20
249.303593539449
 30
0.0
  0
LINE
  5
11A
330
1F
100
AcDbEntity
  8
0
  6
Continuous
 62
     7
370
    25
100
AcDbLine
 10
88.44
 20
251.16
 30
0.0
 11
94.44
 21
251.16
 31
0.0
  0
SPLINE
  5
11B
330
1F
100
AcDbEntity
  8
0
  6
Continuous
 62
     7
370
    25
100
AcDbSpline
210
0.0
220
0.0
230
1.0
 70
    24
 71
     3
 72
    10
 73
     6
 74
     0
 42
0.000000001
 43
0.00000001
 40
0.0
 40
0.0
 40
0.0
 40
0.0
 40
0.1879994248618238
 40
0.6794721205531665
 40
1.0
 40
1.0
 40
1.0
 40
1.0
 10
112.44
 20
247.06
 30
0.0
 10
112.44
 20
247.0953806178412
 30
0.0
 10
112.44
 20
247.2232541123943
 30
0.0
 10
112.44
 20
247.8532934737181
 30
0.0
 10
112.44
 20
248.4721284697663
 30
0.0
 10
112.44
 20
248.716406460551
 30
0.0
  0
LINE
  5
11C
330
1F
100
AcDbEntity
  8
0
  6
Continuous
 62
     7
370
    25
100
AcDbLine
 10
96.19
 20
253.56
 30
0.0
 11
104.69
 21
253.56
 31
0.0
  0
SPLINE
  5
11D
330
1F
100
AcDbEntity
  8
0
  6
Continuous
 62
     7
370
    25
100
AcDbSpline
210
0.0
220
0.0
230
1.0
 70
     8
 71
     3
 72
    11
 73
     7
 74
     0
 42
0.000000001
 43
0.00000001
 40
0.0
 40
0.0
 40
0.0
 40
0.0
 40
0.4320483217019646
 40
0.6559233426691434
 40
0.879646745556239
 40
1.0
 40
1.0
 40
1.0
 40
1.0
 10
100.44
 20
252.2450454237764
 30
0.0
 10
101.0221431284353
 20
252.5544086691693
 30
0.0
 10
101.9059360921738
 20
253.0240750555999
 30
0.0
 10
103.1690527749207
 20
253.400603553343
 30
0.0
 10
104.0028736913202
 20
253.542866814009
 30
0.0
 10
104.5119367758904
 20
253.5555600734563
 30
0.0
 10
104.69
 20
253.56
 30
0.0
  0
SPLINE
  5
11E
330
1F
100
AcDbEntity
  8
0
  6
Continuous
 62
     7
370
    25
100
AcDbSpline
210
0.0
220
0.0
230
1.0
 70
     8
 71
     3
 72
    10
 73
     6
 74
     0
 42
0.000000001
 43
0.00000001
 40
0.0
 40
0.0
 40
0.0
 40
0.0
 40
0.2497057580813441
 40
0.504622389900451
 40
1.0
 40
1.0
 40
1.0
 40
1.0
 10
96.18999999999998
 20
253.56
 30
0.0
 10
96.55935472477361
 20
253.5407271020137
 30
0.0
 10
97.30577188939331
 20
253.5017791181269
 30
0.0
 10
98.75661635415348
 20
253.12240412957
 30
0.0
 10
99.7705535755592
 20
252.5939526084189
 30
0.0
 10
100.44
 20
252.2450454237764
 30
0.0
  0
SPLINE
  5
11F
330
1F
100
AcDbEntity
  8
0
  6
Continuous
 62
     7
370
    25
100
AcDbSpline
210
0.0
220
0.0
230
1.0
 70
     8
 71
     3
 72
    10
 73
     6
 74
     0
 42
0.000000001
 43
0.00000001
 40
0.0
 40
0.0
 40
0.0
 40
0.0
 40
0.2497057580813442
 40
0.5046223899004504
 40
1.0
 40
1.0
 40
1.0
 40
1.0
 10
104.69
 20
253.56
 30
0.0
 10
105.0593547247736
 20
253.5407271020137
 30
0.0
 10
105.8057718893933
 20
253.5017791181269
 30
0.0
 10
107.2566163541535
 20
253.12240412957
 30
0.0
 10
108.2705535755592
 20
252.5939526084189
 30
0.0
 10
108.94
 20
252.2450454237764
 30
0.0
  0
LINE
  5
120
330
1F
100
AcDbEntity
  8
0
  6
Continuous
 62
     7
370
    25
100
AcDbLine
 10
108.94
 20
252.2450454238
 30
0.0
 11
108.94
 21
251.16
 31
0.0
  0
LINE
  5
121
330
1F
100
AcDbEntity
  8
0
  6
Continuous
 62
     7
370
    25
100
AcDbLine
 10
100.44
 20
252.2450454238
 30
0.0
 11
100.44
 21
251.16
 31
0.0
  0
SPLINE
  5
122
330
1F
100
AcDbEntity
  8
0
  6
Continuous
 62
     7
370
    25
100
AcDbSpline
210
0.0
220
0.0
230
1.0
 70
    24
 71
     3
 72
    10
 73
     6
 74
     0
 42
0.000000001
 43
0.00000001
 40
0.0
 40
0.0
 40
0.0
 40
0.0
 40
0.3224976220939159
 40
0.6562140891574935
 40
1.0
 40
1.0
 40
1.0
 40
1.0
 10
112.44
 20
249.303593539449
 30
0.0
 10
112.44
 20
249.6316579015424
 30
0.0
 10
112.44
 20
250.2991991229577
 30
0.0
 10
112.44
 20
251.006452273709
 30
0.0
 10
112.44
 20
251.1083127873664
 30
0.0
 10
112.44
 20
251.16
 30
0.0
  0
LINE
  5
123
330
1F
100
AcDbEntity
  8
0
  6
Continuous
 62
     7
370
    25
100
AcDbLine
 10
106.44
 20
251.16
 30
0.0
 11
112.44
 21
251.16
 31
0.0
  0
SPLINE
  5
124
330
1F
100
AcDbEntity
  8
0
  6
Continuous
 62
     7
370
    25
100
AcDbSpline
210
0.0
220
0.0
230
1.0
 70
    24
 71
     3
 72
    10
 73
     6
 74
     0
 42
0.000000001
 43
0.00000001
 40
0.0
 40
0.0
 40
0.0
 40
0.0
 40
0.4433663523993282
 40
0.9021562553353638
 40
1.0
 40
1.0
 40
1.0
 40
1.0
 10
88.44
 20
248.716406460551
 30
0.0
 10
88.44
 20
248.3937921129645
 30
0.0
 10
88.44
 20
247.7373405122486
 30
0.0
 10
88.44
 20
247.1601512295206
 30
0.0
 10
88.44
 20
247.0749725130996
 30
0.0
 10
88.44
 20
247.06
 30
0.0
  0
LINE
  5
125
330
1F
100
AcDbEntity
  8
0
  6
Continuous
 62
     7
370
    25
100
AcDbLine
 10
91.94
 20
252.2450454238
 30
0.0
 11
91.94
 21
251.16
 31
0.0
  0
SPLINE
  5
126
330
1F
100
AcDbEntity
  8
0
  6
Continuous
 62
     7
370
    25
100
AcDbSpline
210
0.0
220
0.0
230
1.0
 70
     8
 71
     3
 72
    11
 73
     7
 74
     0
 42
0.000000001
 43
0.00000001
 40
0.0
 40
0.0
 40
0.0
 40
0.0
 40
0.4320483217019642
 40
0.6559233426691427
 40
0.8796467455562383
 40
1.0
 40
1.0
 40
1.0
 40
1.0
 10
91.93999999999998
 20
252.2450454237764
 30
0.0
 10
92.52214312843535
 20
252.5544086691693
 30
0.0
 10
93.40593609217379
 20
253.0240750555999
 30
0.0
 10
94.66905277492073
 20
253.400603553343
 30
0.0
 10
95.50287369132023
 20
253.542866814009
 30
0.0
 10
96.01193677589036
 20
253.5555600734563
 30
0.0
 10
96.18999999999998
 20
253.56
 30
0.0
  0
SPLINE
  5
127
330
1F
100
AcDbEntity
  8
0
  6
Continuous
 62
     7
370
    25
100
AcDbSpline
210
0.0
220
0.0
230
1.0
 70
    24
 71
     3
 72
    11
 73
     7
 74
     0
 42
0.000000001
 43
0.00000001
 40
0.0
 40
0.0
 40
0.0
 40
0.0
 40
0.049856369138317
 40
0.3999064981623696
 40
0.762518550902887
 40
1.0
 40
1.0
 40
1.0
 40
1.0
 10
91.93999999999998
 20
253.56
 30
0.0
 10
91.93999999999998
 20
253.5591920310895
 30
0.0
 10
91.93999999999998
 20
253.5527111737139
 30
0.0
 10
91.94
 20
253.3672605540237
 30
0.0
 10
91.93999999999998
 20
252.8597074610918
 30
0.0
 10
91.93999999999998
 20
252.4193233569497
 30
0.0
 10
91.93999999999998
 20
252.2450454237764
 30
0.0
  0
LINE
  5
128
330
1F
100
AcDbEntity
  8
0
  6
Continuous
 62
     7
370
    25
100
AcDbLine
 10
91.94
 20
253.56
 30
0.0
 11
96.19
 21
253.56
 31
0.0
  0
SPLINE
  5
129
330
1F
100
AcDbEntity
  8
0
  6
Continuous
 62
     7
370
    25
100
AcDbSpline
210
0.0
220
0.0
230
1.0
 70
    24
 71
     3
 72
    10
 73
     6
 74
     0
 42
0.000000001
 43
0.00000001
 40
0.0
 40
0.0
 40
0.0
 40
0.0
 40
0.3388723645390124
 40
0.6646901103026058
 40
1.0
 40
1.0
 40
1.0
 40
1.0
 10
108.94
 20
252.2450454237764
 30
0.0
 10
108.94
 20
252.4886609490005
 30
0.0
 10
108.94
 20
252.966507026986
 30
0.0
 10
108.94
 20
253.4565365413207
 30
0.0
 10
108.94
 20
253.5251836466998
 30
0.0
 10
108.94
 20
253.56
 30
0.0
  0
LINE
  5
12A
330
1F
100
AcDbEntity
  8
0
  6
Continuous
 62
     7
370
    25
100
AcDbLine
 10
104.69
 20
253.56
 30
0.0
 11
108.94
 21
253.56
 31
0.0
  0
LINE
  5
12B
330
1F
100
AcDbEntity
  8
0
  6
Continuous
 62
     7
370
    25
100
AcDbLine
 10
93.9592593016
 20
254.06
 30
0.0
 11
106.9207406984
 21
254.06
 31
0.0
  0
LINE
  5
12C
330
1F
100
AcDbEntity
  8
0
  6
Continuous
 62
     7
370
    25
100
AcDbLine
 10
106.9207406984
 20
254.06
 30
0.0
 11
107.4221200219
 21
253.56
 31
0.0
  0
LINE
  5
12D
330
1F
100
AcDbEntity
  8
0
  6
Continuous
 62
     7
370
    25
100
AcDbLine
 10
93.4578799781
 20
253.56
 30
0.0
 11
93.9592593016
 21
254.06
 31
0.0
  0
LINE
  5
12E
330
1F
100
AcDbEntity
  8
0
  6
Continuous
 62
     7
370
    25
100
AcDbLine
 10
176.94
 20
251.16
 30
0.0
 11
188.94
 21
251.16
 31
0.0
  0
SPLINE
  5
12F
330
1F
100
AcDbEntity
  8
0
  6
Continuous
 62
     7
370
    25
100
AcDbSpline
210
0.0
220
0.0
230
1.0
 70
     8
 71
     3
 72
    11
 73
     7
 74
     0
 42
0.000000001
 43
0.00000001
 40
0.0
 40
0.0
 40
0.0
 40
0.0
 40
0.4320494329431815
 40
0.6559250873348014
 40
0.8796491222701226
 40
1.0
 40
1.0
 40
1.0
 40
1.0
 10
182.94
 20
249.303593539449
 30
0.0
 10
183.7618512771412
 20
249.7403426998796
 30
0.0
 10
185.0095623713621
 20
250.4034027790177
 30
0.0
 10
186.7927910995565
 20
250.9349724302196
 30
0.0
 10
187.9699479526717
 20
251.1358126396973
 30
0.0
 10
188.6886215930422
 20
251.1537321094078
 30
0.0
 10
188.94
 20
251.1600000000001
 30
0.0
  0
SPLINE
  5
130
330
1F
100
AcDbEntity
  8
0
  6
Continuous
 62
     7
370
    25
100
AcDbSpline
210
0.0
220
0.0
230
1.0
 70
     8
 71
     3
 72
    11
 73
     7
 74
     0
 42
0.000000001
 43
0.00000001
 40
0.0
 40
0.0
 40
0.0
 40
0.0
 40
0.2495768535213329
 40
0.5043619258214579
 40
0.7510458202383338
 40
1.0
 40
1.0
 40
1.0
 40
1.0
 10
176.94
 20
251.1600000000001
 30
0.0
 10
177.461736689094
 20
251.1335287053158
 30
0.0
 10
178.516097770943
 20
251.0800337077728
 30
0.0
 10
180.0507670123151
 20
250.6663330490591
 30
0.0
 10
181.5346780291418
 20
250.0755810477458
 30
0.0
 10
182.4701310526604
 20
249.561707313662
 30
0.0
 10
182.94
 20
249.303593539449
 30
0.0
  0
SPLINE
  5
131
330
1F
100
AcDbEntity
  8
0
  6
Continuous
 62
     7
370
    25
100
AcDbSpline
210
0.0
220
0.0
230
1.0
 70
     8
 71
     3
 72
    10
 73
     6
 74
     0
 42
0.000000001
 43
0.00000001
 40
0.0
 40
0.0
 40
0.0
 40
0.0
 40
0.2999528966734427
 40
0.6483731547620922
 40
1.0
 40
1.0
 40
1.0
 40
1.0
 10
187.1210016110434
 20
247.06
 30
0.0
 10
186.6851493659849
 20
247.1578456564282
 30
0.0
 10
185.7430184571897
 20
247.3693471876409
 30
0.0
 10
184.3459493257408
 20
247.9491693650829
 30
0.0
 10
183.410078703242
 20
248.4598809853339
 30
0.0
 10
182.94
 20
248.716406460551
 30
0.0
  0
LINE
  5
132
330
1F
100
AcDbEntity
  8
0
  6
Continuous
 62
     7
370
    25
100
AcDbLine
 10
182.94
 20
249.3035935394
 30
0.0
 11
182.94
 21
248.7164064606
 31
0.0
  0
SPLINE
  5
133
330
1F
100
AcDbEntity
  8
0
  6
Continuous
 62
     7
370
    25
100
AcDbSpline
210
0.0
220
0.0
230
1.0
 70
     8
 71
     3
 72
    11
 73
     7
 74
     0
 42
0.000000001
 43
0.00000001
 40
0.0
 40
0.0
 40
0.0
 40
0.0
 40
0.2495768535213327
 40
0.504361925821457
 40
0.7510458202383331
 40
0.9999999999999999
 40
0.9999999999999999
 40
0.9999999999999999
 40
0.9999999999999999
 10
188.94
 20
251.1600000000001
 30
0.0
 10
189.461736689094
 20
251.1335287053158
 30
0.0
 10
190.5160977709429
 20
251.0800337077728
 30
0.0
 10
192.0507670123151
 20
250.6663330490591
 30
0.0
 10
193.5346780291418
 20
250.0755810477458
 30
0.0
 10
194.4701310526604
 20
249.561707313662
 30
0.0
 10
194.94
 20
249.303593539449
 30
0.0
  0
LINE
  5
134
330
1F
100
AcDbEntity
  8
0
  6
Continuous
 62
     7
370
    25
100
AcDbLine
 10
194.94
 20
249.3035935394
 30
0.0
 11
194.94
 21
248.7164064606
 31
0.0
  0
SPLINE
  5
135
330
1F
100
AcDbEntity
  8
0
  6
Continuous
 62
     7
370
    25
100
AcDbSpline
210
0.0
220
0.0
230
1.0
 70
     8
 71
     3
 72
    10
 73
     6
 74
     0
 42
0.000000001
 43
0.00000001
 40
0.0
 40
0.0
 40
0.0
 40
0.0
 40
0.6089827880570899
 40
0.9245402446674854
 40
1.0
 40
1.0
 40
1.0
 40
1.0
 10
194.94
 20
248.716406460551
 30
0.0
 10
194.1172237440323
 20
248.2876054659743
 30
0.0
 10
192.8681083734225
 20
247.6366120648233
 30
0.0
 10
191.4352850565743
 20
247.1614948531973
 30
0.0
 10
190.8605110386781
 20
247.0764183385828
 30
0.0
 10
190.7495893057282
 20
247.06
 30
0.0
  0
SPLINE
  5
136
330
1F
100
AcDbEntity
  8
0
  6
Continuous
 62
     7
370
    25
100
AcDbSpline
210
0.0
220
0.0
230
1.0
 70
     8
 71
     3
 72
    10
 73
     6
 74
     0
 42
0.000000001
 43
0.00000001
 40
0.0
 40
0.0
 40
0.0
 40
0.0
 40
0.2999528966734447
 40
0.6483731547620918
 40
1.0
 40
1.0
 40
1.0
 40
1.0
 10
175.1210016110434
 20
247.06
 30
0.0
 10
174.6851493659849
 20
247.1578456564282
 30
0.0
 10
173.7430184571896
 20
247.3693471876408
 30
0.0
 10
172.3459493257407
 20
247.9491693650829
 30
0.0
 10
171.410078703242
 20
248.4598809853339
 30
0.0
 10
170.94
 20
248.716406460551
 30
0.0
  0
LINE
  5
137
330
1F
100
AcDbEntity
  8
0
  6
Continuous
 62
     7
370
    25
100
AcDbLine
 10
170.94
 20
249.3035935394
 30
0.0
 11
170.94
 21
248.7164064606
 31
0.0
  0
SPLINE
  5
138
330
1F
100
AcDbEntity
  8
0
  6
Continuous
 62
     7
370
    25
100
AcDbSpline
210
0.0
220
0.0
230
1.0
 70
     8
 71
     3
 72
    11
 73
     7
 74
     0
 42
0.000000001
 43
0.00000001
 40
0.0
 40
0.0
 40
0.0
 40
0.0
 40
0.4320494329431817
 40
0.6559250873348014
 40
0.8796491222701243
 40
0.9999999999999999
 40
0.9999999999999999
 40
0.9999999999999999
 40
0.9999999999999999
 10
170.94
 20
249.303593539449
 30
0.0
 10
171.7618512771412
 20
249.7403426998796
 30
0.0
 10
173.0095623713621
 20
250.4034027790177
 30
0.0
 10
174.7927910995565
 20
250.9349724302196
 30
0.0
 10
175.9699479526717
 20
251.1358126396973
 30
0.0
 10
176.6886215930422
 20
251.1537321094078
 30
0.0
 10
176.94
 20
251.1600000000001
 30
0.0
  0
SPLINE
  5
139
330
1F
100
AcDbEntity
  8
0
  6
Continuous
 62
     7
370
    25
100
AcDbSpline
210
0.0
220
0.0
230
1.0
 70
     8
 71
     3
 72
    10
 73
     6
 74
     0
 42
0.000000001
 43
0.00000001
 40
0.0
 40
0.0
 40
0.0
 40
0.0
 40
0.6089827880570898
 40
0.9245402446674853
 40
1.0
 40
1.0
 40
1.0
 40
1.0
 10
182.94
 20
248.716406460551
 30
0.0
 10
182.1172237440323
 20
248.2876054659742
 30
0.0
 10
180.8681083734225
 20
247.6366120648233
 30
0.0
 10
179.4352850565743
 20
247.1614948531973
 30
0.0
 10
178.8605110386781
 20
247.0764183385828
 30
0.0
 10
178.7495893057282
 20
247.06
 30
0.0
  0
SPLINE
  5
13A
330
1F
100
AcDbEntity
  8
0
  6
Continuous
 62
     7
370
    25
100
AcDbSpline
210
0.0
220
0.0
230
1.0
 70
    24
 71
     3
 72
    11
 73
     7
 74
     0
 42
0.000000001
 43
0.00000001
 40
0.0
 40
0.0
 40
0.0
 40
0.0
 40
0.0405778104788576
 40
0.394190623067553
 40
0.7608637224128543
 40
1.0
 40
1.0
 40
1.0
 40
1.0
 10
170.94
 20
251.1600000000001
 30
0.0
 10
170.94
 20
251.159240564434
 30
0.0
 10
170.94
 20
251.151863074731
 30
0.0
 10
170.9399999999999
 20
250.8993168498879
 30
0.0
 10
170.94
 20
250.1786557318981
 30
0.0
 10
170.94
 20
249.5512533909912
 30
0.0
 10
170.94
 20
249.303593539449
 30
0.0
  0
LINE
  5
13B
330
1F
100
AcDbEntity
  8
0
  6
Continuous
 62
     7
370
    25
100
AcDbLine
 10
170.94
 20
251.16
 30
0.0
 11
176.94
 21
251.16
 31
0.0
  0
SPLINE
  5
13C
330
1F
100
AcDbEntity
  8
0
  6
Continuous
 62
     7
370
    25
100
AcDbSpline
210
0.0
220
0.0
230
1.0
 70
    24
 71
     3
 72
    10
 73
     6
 74
     0
 42
0.000000001
 43
0.00000001
 40
0.0
 40
0.0
 40
0.0
 40
0.0
 40
0.1879994248618238
 40
0.6794721205531665
 40
1.0
 40
1.0
 40
1.0
 40
1.0
 10
194.94
 20
247.06
 30
0.0
 10
194.94
 20
247.0953806178412
 30
0.0
 10
194.94
 20
247.2232541123943
 30
0.0
 10
194.9400000000001
 20
247.8532934737181
 30
0.0
 10
194.94
 20
248.4721284697663
 30
0.0
 10
194.94
 20
248.716406460551
 30
0.0
  0
SPLINE
  5
13D
330
1F
100
AcDbEntity
  8
0
  6
Continuous
 62
     7
370
    25
100
AcDbSpline
210
0.0
220
0.0
230
1.0
 70
     8
 71
     3
 72
    10
 73
     6
 74
     0
 42
0.000000001
 43
0.00000001
 40
0.0
 40
0.0
 40
0.0
 40
0.0
 40
0.2497057580813432
 40
0.5046223899004508
 40
1.0
 40
1.0
 40
1.0
 40
1.0
 10
187.19
 20
253.56
 30
0.0
 10
187.5593547247736
 20
253.5407271020136
 30
0.0
 10
188.3057718893933
 20
253.5017791181269
 30
0.0
 10
189.7566163541534
 20
253.12240412957
 30
0.0
 10
190.7705535755592
 20
252.5939526084189
 30
0.0
 10
191.44
 20
252.2450454237764
 30
0.0
  0
LINE
  5
13E
330
1F
100
AcDbEntity
  8
0
  6
Continuous
 62
     7
370
    25
100
AcDbLine
 10
191.44
 20
252.2450454238
 30
0.0
 11
191.44
 21
251.16
 31
0.0
  0
LINE
  5
13F
330
1F
100
AcDbEntity
  8
0
  6
Continuous
 62
     7
370
    25
100
AcDbLine
 10
182.94
 20
252.2450454238
 30
0.0
 11
182.94
 21
251.16
 31
0.0
  0
SPLINE
  5
140
330
1F
100
AcDbEntity
  8
0
  6
Continuous
 62
     7
370
    25
100
AcDbSpline
210
0.0
220
0.0
230
1.0
 70
     8
 71
     3
 72
    11
 73
     7
 74
     0
 42
0.000000001
 43
0.00000001
 40
0.0
 40
0.0
 40
0.0
 40
0.0
 40
0.4320483217019651
 40
0.6559233426691431
 40
0.8796467455562386
 40
1.0
 40
1.0
 40
1.0
 40
1.0
 10
182.94
 20
252.2450454237764
 30
0.0
 10
183.5221431284353
 20
252.5544086691694
 30
0.0
 10
184.4059360921738
 20
253.0240750555999
 30
0.0
 10
185.6690527749207
 20
253.4006035533431
 30
0.0
 10
186.5028736913202
 20
253.542866814009
 30
0.0
 10
187.0119367758903
 20
253.5555600734563
 30
0.0
 10
187.19
 20
253.56
 30
0.0
  0
LINE
  5
141
330
1F
100
AcDbEntity
  8
0
  6
Continuous
 62
     7
370
    25
100
AcDbLine
 10
178.69
 20
253.56
 30
0.0
 11
187.19
 21
253.56
 31
0.0
  0
SPLINE
  5
142
330
1F
100
AcDbEntity
  8
0
  6
Continuous
 62
     7
370
    25
100
AcDbSpline
210
0.0
220
0.0
230
1.0
 70
     8
 71
     3
 72
    10
 73
     6
 74
     0
 42
0.000000001
 43
0.00000001
 40
0.0
 40
0.0
 40
0.0
 40
0.0
 40
0.249705758081345
 40
0.5046223899004498
 40
1.0
 40
1.0
 40
1.0
 40
1.0
 10
178.69
 20
253.56
 30
0.0
 10
179.0593547247736
 20
253.5407271020136
 30
0.0
 10
179.8057718893933
 20
253.5017791181269
 30
0.0
 10
181.2566163541535
 20
253.12240412957
 30
0.0
 10
182.2705535755592
 20
252.5939526084189
 30
0.0
 10
182.94
 20
252.2450454237764
 30
0.0
  0
SPLINE
  5
143
330
1F
100
AcDbEntity
  8
0
  6
Continuous
 62
     7
370
    25
100
AcDbSpline
210
0.0
220
0.0
230
1.0
 70
    24
 71
     3
 72
    10
 73
     6
 74
     0
 42
0.000000001
 43
0.00000001
 40
0.0
 40
0.0
 40
0.0
 40
0.0
 40
0.3224976220939159
 40
0.6562140891574935
 40
1.0
 40
1.0
 40
1.0
 40
1.0
 10
194.94
 20
249.303593539449
 30
0.0
 10
194.94
 20
249.6316579015424
 30
0.0
 10
194.94
 20
250.2991991229577
 30
0.0
 10
194.9399999999999
 20
251.006452273709
 30
0.0
 10
194.94
 20
251.1083127873665
 30
0.0
 10
194.94
 20
251.1600000000001
 30
0.0
  0
LINE
  5
144
330
1F
100
AcDbEntity
  8
0
  6
Continuous
 62
     7
370
    25
100
AcDbLine
 10
188.94
 20
251.16
 30
0.0
 11
194.94
 21
251.16
 31
0.0
  0
SPLINE
  5
145
330
1F
100
AcDbEntity
  8
0
  6
Continuous
 62
     7
370
    25
100
AcDbSpline
210
0.0
220
0.0
230
1.0
 70
    24
 71
     3
 72
    10
 73
     6
 74
     0
 42
0.000000001
 43
0.00000001
 40
0.0
 40
0.0
 40
0.0
 40
0.0
 40
0.443366352399328
 40
0.9021562553353637
 40
1.0
 40
1.0
 40
1.0
 40
1.0
 10
170.94
 20
248.716406460551
 30
0.0
 10
170.94
 20
248.3937921129645
 30
0.0
 10
170.94
 20
247.7373405122486
 30
0.0
 10
170.94
 20
247.1601512295206
 30
0.0
 10
170.94
 20
247.0749725130996
 30
0.0
 10
170.94
 20
247.06
 30
0.0
  0
LINE
  5
146
330
1F
100
AcDbEntity
  8
0
  6
Continuous
 62
     7
370
    25
100
AcDbLine
 10
174.44
 20
252.2450454238
 30
0.0
 11
174.44
 21
251.16
 31
0.0
  0
SPLINE
  5
147
330
1F
100
AcDbEntity
  8
0
  6
Continuous
 62
     7
370
    25
100
AcDbSpline
210
0.0
220
0.0
230
1.0
 70
     8
 71
     3
 72
    11
 73
     7
 74
     0
 42
0.000000001
 43
0.00000001
 40
0.0
 40
0.0
 40
0.0
 40
0.0
 40
0.4320483217019633
 40
0.6559233426691422
 40
0.8796467455562382
 40
1.0
 40
1.0
 40
1.0
 40
1.0
 10
174.44
 20
252.2450454237764
 30
0.0
 10
175.0221431284353
 20
252.5544086691694
 30
0.0
 10
175.9059360921738
 20
253.0240750555999
 30
0.0
 10
177.1690527749208
 20
253.4006035533431
 30
0.0
 10
178.0028736913202
 20
253.542866814009
 30
0.0
 10
178.5119367758903
 20
253.5555600734563
 30
0.0
 10
178.69
 20
253.56
 30
0.0
  0
SPLINE
  5
148
330
1F
100
AcDbEntity
  8
0
  6
Continuous
 62
     7
370
    25
100
AcDbSpline
210
0.0
220
0.0
230
1.0
 70
    24
 71
     3
 72
    11
 73
     7
 74
     0
 42
0.000000001
 43
0.00000001
 40
0.0
 40
0.0
 40
0.0
 40
0.0
 40
0.049856369138317
 40
0.3999064981623695
 40
0.7625185509028869
 40
1.0
 40
1.0
 40
1.0
 40
1.0
 10
174.44
 20
253.56
 30
0.0
 10
174.44
 20
253.5591920310895
 30
0.0
 10
174.44
 20
253.552711173714
 30
0.0
 10
174.44
 20
253.3672605540237
 30
0.0
 10
174.44
 20
252.8597074610919
 30
0.0
 10
174.44
 20
252.4193233569497
 30
0.0
 10
174.44
 20
252.2450454237764
 30
0.0
  0
LINE
  5
149
330
1F
100
AcDbEntity
  8
0
  6
Continuous
 62
     7
370
    25
100
AcDbLine
 10
174.44
 20
253.56
 30
0.0
 11
178.69
 21
253.56
 31
0.0
  0
SPLINE
  5
14A
330
1F
100
AcDbEntity
  8
0
  6
Continuous
 62
     7
370
    25
100
AcDbSpline
210
0.0
220
0.0
230
1.0
 70
    24
 71
     3
 72
    10
 73
     6
 74
     0
 42
0.000000001
 43
0.00000001
 40
0.0
 40
0.0
 40
0.0
 40
0.0
 40
0.3388723645390125
 40
0.6646901103026058
 40
1.0
 40
1.0
 40
1.0
 40
1.0
 10
191.44
 20
252.2450454237764
 30
0.0
 10
191.44
 20
252.4886609490005
 30
0.0
 10
191.4399999999999
 20
252.966507026986
 30
0.0
 10
191.44
 20
253.4565365413207
 30
0.0
 10
191.44
 20
253.5251836466998
 30
0.0
 10
191.44
 20
253.56
 30
0.0
  0
LINE
  5
14B
330
1F
100
AcDbEntity
  8
0
  6
Continuous
 62
     7
370
    25
100
AcDbLine
 10
187.19
 20
253.56
 30
0.0
 11
191.44
 21
253.56
 31
0.0
  0
LINE
  5
14C
330
1F
100
AcDbEntity
  8
0
  6
Continuous
 62
     7
370
    25
100
AcDbLine
 10
176.4592593016
 20
254.06
 30
0.0
 11
189.4207406984
 21
254.06
 31
0.0
  0
LINE
  5
14D
330
1F
100
AcDbEntity
  8
0
  6
Continuous
 62
     7
370
    25
100
AcDbLine
 10
189.4207406984
 20
254.06
 30
0.0
 11
189.9221200219
 21
253.56
 31
0.0
  0
LINE
  5
14E
330
1F
100
AcDbEntity
  8
0
  6
Continuous
 62
     7
370
    25
100
AcDbLine
 10
175.9578799781
 20
253.56
 30
0.0
 11
176.4592593016
 21
254.06
 31
0.0
  0
SPLINE
  5
14F
330
1F
100
AcDbEntity
  8
0
  6
Continuous
 62
     7
370
    25
100
AcDbSpline
210
0.0
220
0.0
230
1.0
 70
     8
 71
     3
 72
    11
 73
     7
 74
     0
 42
0.000000001
 43
0.00000001
 40
0.0
 40
0.0
 40
0.0
 40
0.0
 40
0.2495764276467894
 40
0.5043610488117487
 40
0.7510453744754443
 40
0.9999999999999999
 40
0.9999999999999999
 40
0.9999999999999999
 40
0.9999999999999999
 10
67.93999999999998
 20
226.995
 30
0.0
 10
67.96219878450047
 20
227.2476070821903
 30
0.0
 10
68.00705960063831
 20
227.7580926841842
 30
0.0
 10
68.35398873136266
 20
228.5011279873255
 30
0.0
 10
68.84939400173148
 20
229.2195887239917
 30
0.0
 10
69.28032989787056
 20
229.6725047063001
 30
0.0
 10
69.49678480802478
 20
229.9
 30
0.0
  0
LINE
  5
150
330
1F
100
AcDbEntity
  8
0
  6
Continuous
 62
     7
370
    25
100
AcDbLine
 10
67.94
 20
235.71
 30
0.0
 11
67.94
 21
226.995
 31
0.0
  0
SPLINE
  5
151
330
1F
100
AcDbEntity
  8
0
  6
Continuous
 62
     7
370
    25
100
AcDbSpline
210
0.0
220
0.0
230
1.0
 70
     8
 71
     3
 72
    10
 73
     6
 74
     0
 42
0.000000001
 43
0.00000001
 40
0.0
 40
0.0
 40
0.0
 40
0.0
 40
0.3528678512837001
 40
0.6719287159605555
 40
1.0
 40
1.0
 40
1.0
 40
1.0
 10
69.49678480802478
 20
229.9
 30
0.0
 10
69.19703707577956
 20
230.5475385558489
 30
0.0
 10
68.62625935231476
 20
231.7805773514877
 30
0.0
 10
68.05725535190759
 20
233.7368949569974
 30
0.0
 10
67.97944624533581
 20
235.0462214659424
 30
0.0
 10
67.93999999999998
 20
235.71
 30
0.0
  0
SPLINE
  5
152
330
1F
100
AcDbEntity
  8
0
  6
Continuous
 62
     7
370
    25
100
AcDbSpline
210
0.0
220
0.0
230
1.0
 70
     8
 71
     3
 72
    10
 73
     6
 74
     0
 42
0.000000001
 43
0.00000001
 40
0.0
 40
0.0
 40
0.0
 40
0.0
 40
0.3528678512836995
 40
0.6719287159605554
 40
1.0
 40
1.0
 40
1.0
 40
1.0
 10
80.38321519197517
 20
241.52
 30
0.0
 10
80.6829629242204
 20
240.8724614441512
 30
0.0
 10
81.25374064768522
 20
239.6394226485124
 30
0.0
 10
81.82274464809237
 20
237.6831050430026
 30
0.0
 10
81.90055375466414
 20
236.3737785340576
 30
0.0
 10
81.93999999999998
 20
235.71
 30
0.0
  0
SPLINE
  5
153
330
1F
100
AcDbEntity
  8
0
  6
Continuous
 62
     7
370
    25
100
AcDbSpline
210
0.0
220
0.0
230
1.0
 70
     8
 71
     3
 72
    11
 73
     7
 74
     0
 42
0.000000001
 43
0.00000001
 40
0.0
 40
0.0
 40
0.0
 40
0.0
 40
0.2495764276467895
 40
0.5043610488117493
 40
0.7510453744754446
 40
1.0
 40
1.0
 40
1.0
 40
1.0
 10
81.93999999999998
 20
244.425
 30
0.0
 10
81.91780121549951
 20
244.1723929178097
 30
0.0
 10
81.87294039936165
 20
243.6619073158158
 30
0.0
 10
81.52601126863733
 20
242.9188720126746
 30
0.0
 10
81.03060599826848
 20
242.2004112760084
 30
0.0
 10
80.59967010212941
 20
241.7474952936999
 30
0.0
 10
80.38321519197517
 20
241.52
 30
0.0
  0
SPLINE
  5
154
330
1F
100
AcDbEntity
  8
0
  6
Continuous
 62
     7
370
    25
100
AcDbSpline
210
0.0
220
0.0
230
1.0
 70
     8
 71
     3
 72
    11
 73
     7
 74
     0
 42
0.000000001
 43
0.00000001
 40
0.0
 40
0.0
 40
0.0
 40
0.0
 40
0.4320489135257241
 40
0.655924271841397
 40
0.8796480113440435
 40
1.0
 40
1.0
 40
1.0
 40
1.0
 10
80.38321519197517
 20
229.9
 30
0.0
 10
80.74947317953632
 20
229.5020874942676
 30
0.0
 10
81.30551555408296
 20
228.8979881379026
 30
0.0
 10
81.75129053367498
 20
228.0346094000658
 30
0.0
 10
81.91971618758754
 20
227.464668817886
 30
0.0
 10
81.93474364454794
 20
227.1167101697332
 30
0.0
 10
81.93999999999998
 20
226.995
 30
0.0
  0
SPLINE
  5
155
330
1F
100
AcDbEntity
  8
0
  6
Continuous
 62
     7
370
    25
100
AcDbSpline
210
0.0
220
0.0
230
1.0
 70
     8
 71
     3
 72
    11
 73
     7
 74
     0
 42
0.000000001
 43
0.00000001
 40
0.0
 40
0.0
 40
0.0
 40
0.0
 40
0.0581237806725208
 40
0.4052923505119559
 40
0.76461761004419
 40
1.0
 40
1.0
 40
1.0
 40
1.0
 10
81.93999999999998
 20
235.71
 30
0.0
 10
81.93870550068759
 20
235.5925004180457
 30
0.0
 10
81.92967906326406
 20
234.7731854801074
 30
0.0
 10
81.70290522821826
 20
233.2321241389097
 30
0.0
 10
81.10472275540533
 20
231.4157789964968
 30
0.0
 10
80.58780766578099
 20
230.3298180509181
 30
0.0
 10
80.38321519197517
 20
229.9
 30
0.0
  0
LINE
  5
156
330
1F
100
AcDbEntity
  8
0
  6
Continuous
 62
     7
370
    25
100
AcDbLine
 10
67.94
 20
244.425
 30
0.0
 11
67.94
 21
235.71
 31
0.0
  0
SPLINE
  5
157
330
1F
100
AcDbEntity
  8
0
  6
Continuous
 62
     7
370
    25
100
AcDbSpline
210
0.0
220
0.0
230
1.0
 70
     8
 71
     3
 72
    11
 73
     7
 74
     0
 42
0.000000001
 43
0.00000001
 40
0.0
 40
0.0
 40
0.0
 40
0.0
 40
0.432048913525724
 40
0.6559242718413965
 40
0.879648011344043
 40
0.9999999999999999
 40
0.9999999999999999
 40
0.9999999999999999
 40
0.9999999999999999
 10
69.49678480802478
 20
241.52
 30
0.0
 10
69.13052682046366
 20
241.9179125057324
 30
0.0
 10
68.57448444591702
 20
242.5220118620974
 30
0.0
 10
68.128709466325
 20
243.3853905999342
 30
0.0
 10
67.96028381241246
 20
243.955331182114
 30
0.0
 10
67.94525635545205
 20
244.3032898302669
 30
0.0
 10
67.93999999999998
 20
244.425
 30
0.0
  0
SPLINE
  5
158
330
1F
100
AcDbEntity
  8
0
  6
Continuous
 62
     7
370
    25
100
AcDbSpline
210
0.0
220
0.0
230
1.0
 70
     8
 71
     3
 72
    11
 73
     7
 74
     0
 42
0.000000001
 43
0.00000001
 40
0.0
 40
0.0
 40
0.0
 40
0.0
 40
0.0581237806725213
 40
0.4052923505119566
 40
0.7646176100441903
 40
1.0
 40
1.0
 40
1.0
 40
1.0
 10
67.93999999999998
 20
235.71
 30
0.0
 10
67.94129449931238
 20
235.8274995819544
 30
0.0
 10
67.95032093673592
 20
236.6468145198927
 30
0.0
 10
68.17709477178171
 20
238.1878758610903
 30
0.0
 10
68.77527724459463
 20
240.0042210035033
 30
0.0
 10
69.29219233421898
 20
241.090181949082
 30
0.0
 10
69.49678480802478
 20
241.52
 30
0.0
  0
LINE
  5
159
330
1F
100
AcDbEntity
  8
0
  6
Continuous
 62
     7
370
    25
100
AcDbLine
 10
80.383215192
 20
229.9
 30
0.0
 11
69.496784808
 21
229.9
 31
0.0
  0
LINE
  5
15A
330
1F
100
AcDbEntity
  8
0
  6
Continuous
 62
     7
370
    25
100
AcDbLine
 10
80.383215192
 20
241.52
 30
0.0
 11
69.496784808
 21
241.52
 31
0.0
  0
SPLINE
  5
15B
330
1F
100
AcDbEntity
  8
0
  6
Continuous
 62
     7
370
    25
100
AcDbSpline
210
0.0
220
0.0
230
1.0
 70
     8
 71
     3
 72
    11
 73
     7
 74
     0
 42
0.000000001
 43
0.00000001
 40
0.0
 40
0.0
 40
0.0
 40
0.0
 40
0.2495764276467888
 40
0.5043610488117481
 40
0.7510453744754446
 40
1.0
 40
1.0
 40
1.0
 40
1.0
 10
67.93999999999998
 20
244.425
 30
0.0
 10
67.96219878450047
 20
244.6776070821903
 30
0.0
 10
68.00705960063833
 20
245.1880926841843
 30
0.0
 10
68.35398873136265
 20
245.9311279873255
 30
0.0
 10
68.84939400173148
 20
246.6495887239917
 30
0.0
 10
69.28032989787056
 20
247.1025047063001
 30
0.0
 10
69.49678480802478
 20
247.33
 30
0.0
  0
LINE
  5
15C
330
1F
100
AcDbEntity
  8
0
  6
Continuous
 62
     7
370
    25
100
AcDbLine
 10
80.383215192
 20
247.33
 30
0.0
 11
69.496784808
 21
247.33
 31
0.0
  0
SPLINE
  5
15D
330
1F
100
AcDbEntity
  8
0
  6
Continuous
 62
     7
370
    25
100
AcDbSpline
210
0.0
220
0.0
230
1.0
 70
     8
 71
     3
 72
    12
 73
     8
 74
     0
 42
0.000000001
 43
0.00000001
 40
0.0
 40
0.0
 40
0.0
 40
0.0
 40
0.2155169805765113
 40
0.4322262234987878
 40
0.6544575858718127
 40
0.8796881841288726
 40
1.0
 40
1.0
 40
1.0
 40
1.0
 10
80.38321519197517
 20
247.33
 30
0.0
 10
80.57141345064983
 20
247.1333022275979
 30
0.0
 10
80.94885110033479
 20
246.7388185302645
 30
0.0
 10
81.40845668198547
 20
246.1168522006706
 30
0.0
 10
81.75308160041507
 20
245.4666624038531
 30
0.0
 10
81.91934232750191
 20
244.896213064953
 30
0.0
 10
81.93466493608972
 20
244.5466957920653
 30
0.0
 10
81.93999999999998
 20
244.425
 30
0.0
  0
SPLINE
  5
15E
330
1F
100
AcDbEntity
  8
0
  6
Continuous
 62
     7
370
    25
100
AcDbSpline
210
0.0
220
0.0
230
1.0
 70
     8
 71
     3
 72
    11
 73
     7
 74
     0
 42
0.000000001
 43
0.00000001
 40
0.0
 40
0.0
 40
0.0
 40
0.0
 40
0.2495764276467895
 40
0.5043610488117489
 40
0.7510453744754443
 40
1.0
 40
1.0
 40
1.0
 40
1.0
 10
81.93999999999998
 20
226.995
 30
0.0
 10
81.91780121549951
 20
226.7423929178097
 30
0.0
 10
81.87294039936165
 20
226.2319073158158
 30
0.0
 10
81.52601126863733
 20
225.4888720126746
 30
0.0
 10
81.03060599826848
 20
224.7704112760084
 30
0.0
 10
80.59967010212941
 20
224.3174952936999
 30
0.0
 10
80.38321519197518
 20
224.09
 30
0.0
  0
LINE
  5
15F
330
1F
100
AcDbEntity
  8
0
  6
Continuous
 62
     7
370
    25
100
AcDbLine
 10
80.383215192
 20
224.09
 30
0.0
 11
69.496784808
 21
224.09
 31
0.0
  0
SPLINE
  5
160
330
1F
100
AcDbEntity
  8
0
  6
Continuous
 62
     7
370
    25
100
AcDbSpline
210
0.0
220
0.0
230
1.0
 70
     8
 71
     3
 72
    11
 73
     7
 74
     0
 42
0.000000001
 43
0.00000001
 40
0.0
 40
0.0
 40
0.0
 40
0.0
 40
0.4320489135257252
 40
0.6559242718413973
 40
0.8796480113440447
 40
1.0
 40
1.0
 40
1.0
 40
1.0
 10
69.49678480802478
 20
224.09
 30
0.0
 10
69.13052682046366
 20
224.4879125057324
 30
0.0
 10
68.57448444591702
 20
225.0920118620975
 30
0.0
 10
68.128709466325
 20
225.9553905999342
 30
0.0
 10
67.96028381241244
 20
226.525331182114
 30
0.0
 10
67.94525635545205
 20
226.8732898302669
 30
0.0
 10
67.93999999999998
 20
226.995
 30
0.0
  0
LINE
  5
161
330
1F
100
AcDbEntity
  8
0
  6
Continuous
 62
     7
370
    25
100
AcDbLine
 10
65.94
 20
228.5100001114
 30
0.0
 11
65.94
 21
242.91
 31
0.0
  0
LINE
  5
162
330
1F
100
AcDbEntity
  8
0
  6
Continuous
 62
     7
370
    25
100
AcDbLine
 10
67.94
 20
245.773215192
 30
0.0
 11
67.94
 21
244.425
 31
0.0
  0
LINE
  5
163
330
1F
100
AcDbEntity
  8
0
  6
Continuous
 62
     7
370
    25
100
AcDbLine
 10
67.94
 20
226.995
 30
0.0
 11
67.94
 21
225.646784808
 31
0.0
  0
LINE
  5
164
330
1F
100
AcDbEntity
  8
0
  6
Continuous
 62
     7
370
    25
100
AcDbLine
 10
67.94
 20
192.125
 30
0.0
 11
67.94
 21
183.41
 31
0.0
  0
SPLINE
  5
165
330
1F
100
AcDbEntity
  8
0
  6
Continuous
 62
     7
370
    25
100
AcDbSpline
210
0.0
220
0.0
230
1.0
 70
     8
 71
     3
 72
    11
 73
     7
 74
     0
 42
0.000000001
 43
0.00000001
 40
0.0
 40
0.0
 40
0.0
 40
0.0
 40
0.4320489135257246
 40
0.6559242718413967
 40
0.8796480113440434
 40
0.9999999999999999
 40
0.9999999999999999
 40
0.9999999999999999
 40
0.9999999999999999
 10
69.49678480802478
 20
189.22
 30
0.0
 10
69.13052682046366
 20
189.6179125057324
 30
0.0
 10
68.57448444591702
 20
190.2220118620975
 30
0.0
 10
68.128709466325
 20
191.0853905999342
 30
0.0
 10
67.96028381241244
 20
191.655331182114
 30
0.0
 10
67.94525635545205
 20
192.0032898302669
 30
0.0
 10
67.93999999999998
 20
192.125
 30
0.0
  0
SPLINE
  5
166
330
1F
100
AcDbEntity
  8
0
  6
Continuous
 62
     7
370
    25
100
AcDbSpline
210
0.0
220
0.0
230
1.0
 70
     8
 71
     3
 72
    11
 73
     7
 74
     0
 42
0.000000001
 43
0.00000001
 40
0.0
 40
0.0
 40
0.0
 40
0.0
 40
0.0581237806725214
 40
0.4052923505119568
 40
0.7646176100441906
 40
1.0
 40
1.0
 40
1.0
 40
1.0
 10
67.93999999999998
 20
183.41
 30
0.0
 10
67.94129449931238
 20
183.5274995819543
 30
0.0
 10
67.9503209367359
 20
184.3468145198927
 30
0.0
 10
68.17709477178171
 20
185.8878758610903
 30
0.0
 10
68.77527724459462
 20
187.7042210035032
 30
0.0
 10
69.29219233421898
 20
188.790181949082
 30
0.0
 10
69.49678480802478
 20
189.22
 30
0.0
  0
SPLINE
  5
167
330
1F
100
AcDbEntity
  8
0
  6
Continuous
 62
     7
370
    25
100
AcDbSpline
210
0.0
220
0.0
230
1.0
 70
     8
 71
     3
 72
    11
 73
     7
 74
     0
 42
0.000000001
 43
0.00000001
 40
0.0
 40
0.0
 40
0.0
 40
0.0
 40
0.2495764276467891
 40
0.5043610488117487
 40
0.7510453744754443
 40
0.9999999999999999
 40
0.9999999999999999
 40
0.9999999999999999
 40
0.9999999999999999
 10
67.93999999999998
 20
174.695
 30
0.0
 10
67.96219878450047
 20
174.9476070821903
 30
0.0
 10
68.00705960063831
 20
175.4580926841843
 30
0.0
 10
68.35398873136265
 20
176.2011279873255
 30
0.0
 10
68.84939400173148
 20
176.9195887239917
 30
0.0
 10
69.28032989787056
 20
177.3725047063001
 30
0.0
 10
69.49678480802478
 20
177.6
 30
0.0
  0
SPLINE
  5
168
330
1F
100
AcDbEntity
  8
0
  6
Continuous
 62
     7
370
    25
100
AcDbSpline
210
0.0
220
0.0
230
1.0
 70
     8
 71
     3
 72
    10
 73
     6
 74
     0
 42
0.000000001
 43
0.00000001
 40
0.0
 40
0.0
 40
0.0
 40
0.0
 40
0.3528678512837001
 40
0.6719287159605555
 40
1.0
 40
1.0
 40
1.0
 40
1.0
 10
69.49678480802478
 20
177.6
 30
0.0
 10
69.19703707577956
 20
178.2475385558489
 30
0.0
 10
68.62625935231476
 20
179.4805773514877
 30
0.0
 10
68.05725535190759
 20
181.4368949569974
 30
0.0
 10
67.97944624533581
 20
182.7462214659424
 30
0.0
 10
67.93999999999998
 20
183.41
 30
0.0
  0
LINE
  5
169
330
1F
100
AcDbEntity
  8
0
  6
Continuous
 62
     7
370
    25
100
AcDbLine
 10
67.94
 20
183.41
 30
0.0
 11
67.94
 21
174.695
 31
0.0
  0
SPLINE
  5
16A
330
1F
100
AcDbEntity
  8
0
  6
Continuous
 62
     7
370
    25
100
AcDbSpline
210
0.0
220
0.0
230
1.0
 70
     8
 71
     3
 72
    11
 73
     7
 74
     0
 42
0.000000001
 43
0.00000001
 40
0.0
 40
0.0
 40
0.0
 40
0.0
 40
0.4320489135257238
 40
0.655924271841397
 40
0.8796480113440435
 40
1.0
 40
1.0
 40
1.0
 40
1.0
 10
80.38321519197517
 20
177.6
 30
0.0
 10
80.74947317953632
 20
177.2020874942676
 30
0.0
 10
81.30551555408296
 20
176.5979881379026
 30
0.0
 10
81.75129053367498
 20
175.7346094000658
 30
0.0
 10
81.91971618758754
 20
175.164668817886
 30
0.0
 10
81.93474364454794
 20
174.8167101697332
 30
0.0
 10
81.93999999999998
 20
174.695
 30
0.0
  0
SPLINE
  5
16B
330
1F
100
AcDbEntity
  8
0
  6
Continuous
 62
     7
370
    25
100
AcDbSpline
210
0.0
220
0.0
230
1.0
 70
     8
 71
     3
 72
    11
 73
     7
 74
     0
 42
0.000000001
 43
0.00000001
 40
0.0
 40
0.0
 40
0.0
 40
0.0
 40
0.0581237806725208
 40
0.4052923505119559
 40
0.76461761004419
 40
1.0
 40
1.0
 40
1.0
 40
1.0
 10
81.93999999999998
 20
183.41
 30
0.0
 10
81.93870550068759
 20
183.2925004180457
 30
0.0
 10
81.92967906326406
 20
182.4731854801073
 30
0.0
 10
81.70290522821826
 20
180.9321241389098
 30
0.0
 10
81.10472275540533
 20
179.1157789964968
 30
0.0
 10
80.58780766578099
 20
178.0298180509181
 30
0.0
 10
80.38321519197517
 20
177.6
 30
0.0
  0
SPLINE
  5
16C
330
1F
100
AcDbEntity
  8
0
  6
Continuous
 62
     7
370
    25
100
AcDbSpline
210
0.0
220
0.0
230
1.0
 70
     8
 71
     3
 72
    10
 73
     6
 74
     0
 42
0.000000001
 43
0.00000001
 40
0.0
 40
0.0
 40
0.0
 40
0.0
 40
0.3528678512836995
 40
0.6719287159605554
 40
1.0
 40
1.0
 40
1.0
 40
1.0
 10
80.38321519197517
 20
189.22
 30
0.0
 10
80.6829629242204
 20
188.5724614441511
 30
0.0
 10
81.25374064768522
 20
187.3394226485123
 30
0.0
 10
81.82274464809237
 20
185.3831050430026
 30
0.0
 10
81.90055375466414
 20
184.0737785340577
 30
0.0
 10
81.93999999999998
 20
183.41
 30
0.0
  0
SPLINE
  5
16D
330
1F
100
AcDbEntity
  8
0
  6
Continuous
 62
     7
370
    25
100
AcDbSpline
210
0.0
220
0.0
230
1.0
 70
     8
 71
     3
 72
    11
 73
     7
 74
     0
 42
0.000000001
 43
0.00000001
 40
0.0
 40
0.0
 40
0.0
 40
0.0
 40
0.2495764276467896
 40
0.5043610488117491
 40
0.7510453744754444
 40
1.0
 40
1.0
 40
1.0
 40
1.0
 10
81.93999999999998
 20
192.125
 30
0.0
 10
81.91780121549951
 20
191.8723929178097
 30
0.0
 10
81.87294039936165
 20
191.3619073158158
 30
0.0
 10
81.52601126863733
 20
190.6188720126746
 30
0.0
 10
81.03060599826848
 20
189.9004112760084
 30
0.0
 10
80.59967010212941
 20
189.4474952936999
 30
0.0
 10
80.38321519197517
 20
189.22
 30
0.0
  0
LINE
  5
16E
330
1F
100
AcDbEntity
  8
0
  6
Continuous
 62
     7
370
    25
100
AcDbLine
 10
80.383215192
 20
189.22
 30
0.0
 11
69.496784808
 21
189.22
 31
0.0
  0
SPLINE
  5
16F
330
1F
100
AcDbEntity
  8
0
  6
Continuous
 62
     7
370
    25
100
AcDbSpline
210
0.0
220
0.0
230
1.0
 70
     8
 71
     3
 72
    11
 73
     7
 74
     0
 42
0.000000001
 43
0.00000001
 40
0.0
 40
0.0
 40
0.0
 40
0.0
 40
0.2495764276467893
 40
0.5043610488117481
 40
0.7510453744754443
 40
1.0
 40
1.0
 40
1.0
 40
1.0
 10
67.93999999999998
 20
192.125
 30
0.0
 10
67.96219878450046
 20
192.3776070821903
 30
0.0
 10
68.00705960063831
 20
192.8880926841842
 30
0.0
 10
68.35398873136265
 20
193.6311279873255
 30
0.0
 10
68.84939400173148
 20
194.3495887239917
 30
0.0
 10
69.28032989787056
 20
194.8025047063001
 30
0.0
 10
69.49678480802478
 20
195.03
 30
0.0
  0
LINE
  5
170
330
1F
100
AcDbEntity
  8
0
  6
Continuous
 62
     7
370
    25
100
AcDbLine
 10
80.383215192
 20
195.03
 30
0.0
 11
69.496784808
 21
195.03
 31
0.0
  0
SPLINE
  5
171
330
1F
100
AcDbEntity
  8
0
  6
Continuous
 62
     7
370
    25
100
AcDbSpline
210
0.0
220
0.0
230
1.0
 70
     8
 71
     3
 72
    12
 73
     8
 74
     0
 42
0.000000001
 43
0.00000001
 40
0.0
 40
0.0
 40
0.0
 40
0.0
 40
0.2155169805765114
 40
0.432226223498788
 40
0.6544575858718125
 40
0.8796881841288721
 40
1.0
 40
1.0
 40
1.0
 40
1.0
 10
80.38321519197517
 20
195.03
 30
0.0
 10
80.57141345064983
 20
194.833302227598
 30
0.0
 10
80.94885110033479
 20
194.4388185302645
 30
0.0
 10
81.40845668198547
 20
193.8168522006706
 30
0.0
 10
81.75308160041507
 20
193.1666624038531
 30
0.0
 10
81.91934232750192
 20
192.596213064953
 30
0.0
 10
81.93466493608972
 20
192.2466957920653
 30
0.0
 10
81.93999999999998
 20
192.125
 30
0.0
  0
SPLINE
  5
172
330
1F
100
AcDbEntity
  8
0
  6
Continuous
 62
     7
370
    25
100
AcDbSpline
210
0.0
220
0.0
230
1.0
 70
     8
 71
     3
 72
    11
 73
     7
 74
     0
 42
0.000000001
 43
0.00000001
 40
0.0
 40
0.0
 40
0.0
 40
0.0
 40
0.2495764276467892
 40
0.5043610488117489
 40
0.7510453744754443
 40
1.0
 40
1.0
 40
1.0
 40
1.0
 10
81.93999999999998
 20
174.695
 30
0.0
 10
81.91780121549951
 20
174.4423929178097
 30
0.0
 10
81.87294039936165
 20
173.9319073158158
 30
0.0
 10
81.52601126863733
 20
173.1888720126746
 30
0.0
 10
81.03060599826848
 20
172.4704112760084
 30
0.0
 10
80.59967010212941
 20
172.0174952936999
 30
0.0
 10
80.38321519197518
 20
171.79
 30
0.0
  0
LINE
  5
173
330
1F
100
AcDbEntity
  8
0
  6
Continuous
 62
     7
370
    25
100
AcDbLine
 10
80.383215192
 20
171.79
 30
0.0
 11
69.496784808
 21
171.79
 31
0.0
  0
SPLINE
  5
174
330
1F
100
AcDbEntity
  8
0
  6
Continuous
 62
     7
370
    25
100
AcDbSpline
210
0.0
220
0.0
230
1.0
 70
     8
 71
     3
 72
    11
 73
     7
 74
     0
 42
0.000000001
 43
0.00000001
 40
0.0
 40
0.0
 40
0.0
 40
0.0
 40
0.4320489135257252
 40
0.6559242718413973
 40
0.879648011344045
 40
1.0
 40
1.0
 40
1.0
 40
1.0
 10
69.49678480802478
 20
171.79
 30
0.0
 10
69.13052682046366
 20
172.1879125057324
 30
0.0
 10
68.57448444591702
 20
172.7920118620975
 30
0.0
 10
68.128709466325
 20
173.6553905999342
 30
0.0
 10
67.96028381241244
 20
174.225331182114
 30
0.0
 10
67.94525635545205
 20
174.5732898302669
 30
0.0
 10
67.93999999999998
 20
174.695
 30
0.0
  0
LINE
  5
175
330
1F
100
AcDbEntity
  8
0
  6
Continuous
 62
     7
370
    25
100
AcDbLine
 10
80.383215192
 20
177.6
 30
0.0
 11
69.496784808
 21
177.6
 31
0.0
  0
LINE
  5
176
330
1F
100
AcDbEntity
  8
0
  6
Continuous
 62
     7
370
    25
100
AcDbLine
 10
65.94
 20
176.2100001114
 30
0.0
 11
65.94
 21
190.61
 31
0.0
  0
LINE
  5
177
330
1F
100
AcDbEntity
  8
0
  6
Continuous
 62
     7
370
    25
100
AcDbLine
 10
67.94
 20
193.473215192
 30
0.0
 11
67.94
 21
192.125
 31
0.0
  0
LINE
  5
178
330
1F
100
AcDbEntity
  8
0
  6
Continuous
 62
     7
370
    25
100
AcDbLine
 10
67.94
 20
174.695
 30
0.0
 11
67.94
 21
173.346784808
 31
0.0
  0
LINE
  5
179
330
1F
100
AcDbEntity
  8
0
  6
Continuous
 62
     7
370
    25
100
AcDbLine
 10
233.44
 20
209.56
 30
0.0
 11
233.44
 21
226.56
 31
0.0
  0
LINE
  5
17A
330
1F
100
AcDbEntity
  8
0
  6
Continuous
 62
     7
370
    25
100
AcDbLine
 10
233.44
 20
192.56
 30
0.0
 11
233.44
 21
209.56
 31
0.0
  0
LINE
  5
17B
330
1F
100
AcDbEntity
  8
0
  6
Continuous
 62
     7
370
    25
100
AcDbLine
 10
233.94
 20
209.56
 30
0.0
 11
233.94
 21
193.06
 31
0.0
  0
LINE
  5
17C
330
1F
100
AcDbEntity
  8
0
  6
Continuous
 62
     7
370
    25
100
AcDbLine
 10
233.94
 20
226.06
 30
0.0
 11
233.94
 21
209.56
 31
0.0
  0
SPLINE
  5
17D
330
1F
100
AcDbEntity
  8
0
  6
Continuous
 62
     7
370
    25
100
AcDbSpline
210
0.0
220
0.0
230
1.0
 70
     8
 71
     3
 72
    23
 73
    19
 74
     0
 42
0.000000001
 43
0.00000001
 40
0.0
 40
0.0
 40
0.0
 40
0.0
 40
0.0912767643244942
 40
0.1764629232372357
 40
0.2562801431555522
 40
0.3309455529399324
 40
0.400638990444719
 40
0.4660089483284481
 40
0.5279263555437902
 40
0.5867234830687502
 40
0.6428721960916929
 40
0.6962716546317803
 40
0.7475656410401084
 40
0.7976820514592228
 40
0.8471601091351866
 40
0.8969249623901863
 40
0.9476183243460209
 40
1.0
 40
1.0
 40
1.0
 40
1.0
 10
168.0763636363636
 20
175.7609943181818
 30
0.0
 10
168.0772717689825
 20
175.8159337475609
 30
0.0
 10
168.0790274374464
 20
175.9221466745963
 30
0.0
 10
168.0899200311511
 20
176.0761542291522
 30
0.0
 10
168.1101361383647
 20
176.219065149455
 30
0.0
 10
168.136135575147
 20
176.3516221056936
 30
0.0
 10
168.1721433661527
 20
176.4727689519634
 30
0.0
 10
168.2141202973717
 20
176.5838483169411
 30
0.0
 10
168.2655960219407
 20
176.6835878255508
 30
0.0
 10
168.3237977969898
 20
176.772980229592
 30
0.0
 10
168.3886801118346
 20
176.8510671123397
 30
0.0
 10
168.4576825024756
 20
176.9192510796501
 30
0.0
 10
168.5314894346662
 20
176.976472214825
 30
0.0
 10
168.6091781064731
 20
177.0239592740605
 30
0.0
 10
168.6916926504643
 20
177.0602913818745
 30
0.0
 10
168.7781514697055
 20
177.0867828532998
 30
0.0
 10
168.8690876992808
 20
177.1028704854277
 30
0.0
 10
168.931175095522
 20
177.1045838375169
 30
0.0
 10
168.9627272727273
 20
177.1054545454546
 30
0.0
  0
SPLINE
  5
17E
330
1F
100
AcDbEntity
  8
0
  6
Continuous
 62
     7
370
    25
100
AcDbSpline
210
0.0
220
0.0
230
1.0
 70
     8
 71
     3
 72
    23
 73
    19
 74
     0
 42
0.000000001
 43
0.00000001
 40
0.0
 40
0.0
 40
0.0
 40
0.0
 40
0.0527852402278165
 40
0.1042458293004915
 40
0.1551604530941803
 40
0.2054268083520251
 40
0.2570914424417255
 40
0.3099700308447287
 40
0.3653095312247657
 40
0.4234521060082713
 40
0.4838428220610418
 40
0.5467834342241119
 40
0.6120626180216412
 40
0.6811908593868685
 40
0.7539750279956062
 40
0.8310409578182189
 40
0.9131989722938649
 40
1.0
 40
1.0
 40
1.0
 40
1.0
 10
168.9627272727273
 20
174.4690909090909
 30
0.0
 10
168.9318822492232
 20
174.4699647991179
 30
0.0
 10
168.8709662613239
 20
174.4716906488097
 30
0.0
 10
168.7814914508103
 20
174.4879011024036
 30
0.0
 10
168.6960815294658
 20
174.5140531580237
 30
0.0
 10
168.6145739035921
 20
174.5509886076814
 30
0.0
 10
168.5371200921059
 20
174.5979962738772
 30
0.0
 10
168.463353355084
 20
174.655529319358
 30
0.0
 10
168.3935477056824
 20
174.7233573785159
 30
0.0
 10
168.328592284189
 20
174.8015788204294
 30
0.0
 10
168.2683874451967
 20
174.8890091989405
 30
0.0
 10
168.2168654046291
 20
174.9866037723478
 30
0.0
 10
168.1732728652267
 20
175.0934631827861
 30
0.0
 10
168.1384348775935
 20
175.2094509304284
 30
0.0
 10
168.10964286116
 20
175.3341372240188
 30
0.0
 10
168.0900919270659
 20
175.4683286890802
 30
0.0
 10
168.0790397578363
 20
175.6116583012259
 30
0.0
 10
168.0772718707655
 20
175.7103119745658
 30
0.0
 10
168.0763636363636
 20
175.7609943181818
 30
0.0
  0
SPLINE
  5
17F
330
1F
100
AcDbEntity
  8
0
  6
Continuous
 62
     7
370
    25
100
AcDbSpline
210
0.0
220
0.0
230
1.0
 70
     8
 71
     3
 72
    23
 73
    19
 74
     0
 42
0.000000001
 43
0.00000001
 40
0.0
 40
0.0
 40
0.0
 40
0.0
 40
0.0890390678183914
 40
0.1727021385026571
 40
0.250936452833334
 40
0.3247546437725811
 40
0.3939511538506414
 40
0.4596932424381905
 40
0.5218198132862305
 40
0.5813764206301941
 40
0.6383575883276247
 40
0.6925487413961094
 40
0.7446032068334275
 40
0.7954626376687939
 40
0.8456742516130858
 40
0.8957953612070874
 40
0.9472402973995027
 40
1.0
 40
1.0
 40
1.0
 40
1.0
 10
169.8490909090909
 20
175.7872727272728
 30
0.0
 10
169.8481726211236
 20
175.7344639776456
 30
0.0
 10
169.8463914895416
 20
175.6320349628803
 30
0.0
 10
169.8355683944203
 20
175.4834545459052
 30
0.0
 10
169.815215496617
 20
175.3450553156094
 30
0.0
 10
169.7892156789382
 20
175.2162935522056
 30
0.0
 10
169.7532786424527
 20
175.0976262234576
 30
0.0
 10
169.7104438915336
 20
174.9887095965604
 30
0.0
 10
169.659156000549
 20
174.8898091880546
 30
0.0
 10
169.5999384186306
 20
174.8016847571786
 30
0.0
 10
169.5354174179151
 20
174.72343617422
 30
0.0
 10
169.4663360519674
 20
174.6553036906848
 30
0.0
 10
169.3925472897513
 20
174.5980753280672
 30
0.0
 10
169.3148602080399
 20
174.5505693988931
 30
0.0
 10
169.2325299542309
 20
174.5144097281033
 30
0.0
 10
169.146394166064
 20
174.4876402098697
 30
0.0
 10
169.0558840205001
 20
174.4717383882936
 30
0.0
 10
168.9940396221698
 20
174.4699807941064
 30
0.0
 10
168.9627272727273
 20
174.4690909090909
 30
0.0
  0
SPLINE
  5
180
330
1F
100
AcDbEntity
  8
0
  6
Continuous
 62
     7
370
    25
100
AcDbSpline
210
0.0
220
0.0
230
1.0
 70
     8
 71
     3
 72
    23
 73
    19
 74
     0
 42
0.000000001
 43
0.00000001
 40
0.0
 40
0.0
 40
0.0
 40
0.0
 40
0.0524221588341679
 40
0.1031397662365303
 40
0.1533192909396092
 40
0.2032243992953783
 40
0.2543512222751581
 40
0.3064663561075197
 40
0.3610010158153166
 40
0.4183041352387569
 40
0.4781533511349289
 40
0.5407068807815065
 40
0.6063044484403416
 40
0.6755816056093631
 40
0.7495689674650345
 40
0.8278944622592452
 40
0.9112566128591809
 40
0.9999999999999999
 40
0.9999999999999999
 40
0.9999999999999999
 40
0.9999999999999999
 10
168.9627272727273
 20
177.1054545454546
 30
0.0
 10
168.9938080687934
 20
177.1045891197207
 30
0.0
 10
169.0549590421985
 20
177.1028864083124
 30
0.0
 10
169.1446952548833
 20
177.0866870064819
 30
0.0
 10
169.2302092674453
 20
177.0602706462289
 30
0.0
 10
169.3123963021922
 20
177.0239074305879
 30
0.0
 10
169.389462275338
 20
176.9756271192543
 30
0.0
 10
169.4638007421354
 20
176.9186214869332
 30
0.0
 10
169.5323326168481
 20
176.849462512331
 30
0.0
 10
169.5977924958389
 20
176.7715043568547
 30
0.0
 10
169.6580905267134
 20
176.6834119289608
 30
0.0
 10
169.7084239373894
 20
176.5838137710695
 30
0.0
 10
169.7530457133417
 20
176.4755452071875
 30
0.0
 10
169.788174884263
 20
176.3566878431639
 30
0.0
 10
169.8155097021973
 20
176.2281888862638
 30
0.0
 10
169.8354342701643
 20
176.0898827306798
 30
0.0
 10
169.84642517902
 20
175.9418078593336
 30
0.0
 10
169.848184001325
 20
175.839847109389
 30
0.0
 10
169.8490909090909
 20
175.7872727272728
 30
0.0
  0
LINE
  5
181
330
1F
100
AcDbEntity
  8
0
  6
Continuous
 62
     7
370
    25
100
AcDbLine
 10
171.5763636364
 20
175.7403977273
 30
0.0
 11
171.5763636364
 21
177.06
 31
0.0
  0
SPLINE
  5
182
330
1F
100
AcDbEntity
  8
0
  6
Continuous
 62
     7
370
    25
100
AcDbSpline
210
0.0
220
0.0
230
1.0
 70
     8
 71
     3
 72
    11
 73
     7
 74
     0
 42
0.000000001
 43
0.00000001
 40
0.0
 40
0.0
 40
0.0
 40
0.0
 40
0.2422089502770346
 40
0.4884794597618003
 40
0.7412752106879985
 40
1.0
 40
1.0
 40
1.0
 40
1.0
 10
171.5167045454545
 20
175.2205113636364
 30
0.0
 10
171.5260565665507
 20
175.2618306553865
 30
0.0
 10
171.544917431137
 20
175.3451621148092
 30
0.0
 10
171.5625669136391
 20
175.4736674693635
 30
0.0
 10
171.574606640466
 20
175.6056955297591
 30
0.0
 10
171.5757734628488
 20
175.6951513670099
 30
0.0
 10
171.5763636363636
 20
175.7403977272728
 30
0.0
  0
SPLINE
  5
183
330
1F
100
AcDbEntity
  8
0
  6
Continuous
 62
     7
370
    25
100
AcDbSpline
210
0.0
220
0.0
230
1.0
 70
     8
 71
     3
 72
    15
 73
    11
 74
     0
 42
0.000000001
 43
0.00000001
 40
0.0
 40
0.0
 40
0.0
 40
0.0
 40
0.1080294790989981
 40
0.2159128736428842
 40
0.3274236087165067
 40
0.4471094889623537
 40
0.5750455314220732
 40
0.7081311642011745
 40
0.8482590320714908
 40
0.9999999999999999
 40
0.9999999999999999
 40
0.9999999999999999
 40
0.9999999999999999
 10
171.2148579545454
 20
174.9236363636364
 30
0.0
 10
171.2313165225979
 20
174.9245655685668
 30
0.0
 10
171.2642114023462
 20
174.9264227218956
 30
0.0
 10
171.3118537636934
 20
174.9424687802901
 30
0.0
 10
171.3574381940567
 20
174.9669588479555
 30
0.0
 10
171.4000012233505
 20
175.0015914852667
 30
0.0
 10
171.4390215556471
 20
175.0446585140265
 30
0.0
 10
171.4715988381683
 20
175.0964945187464
 30
0.0
 10
171.4982602244138
 20
175.1555825857671
 30
0.0
 10
171.5103954893787
 20
175.198301855376
 30
0.0
 10
171.5167045454545
 20
175.2205113636364
 30
0.0
  0
SPLINE
  5
184
330
1F
100
AcDbEntity
  8
0
  6
Continuous
 62
     7
370
    25
100
AcDbSpline
210
0.0
220
0.0
230
1.0
 70
     8
 71
     3
 72
    11
 73
     7
 74
     0
 42
0.000000001
 43
0.00000001
 40
0.0
 40
0.0
 40
0.0
 40
0.0
 40
0.2617400869703893
 40
0.5166989218434787
 40
0.7610587188810208
 40
1.0
 40
1.0
 40
1.0
 40
1.0
 10
170.9854545454545
 20
174.9690909090909
 30
0.0
 10
171.0047498829494
 20
174.9620789412145
 30
0.0
 10
171.0428406477061
 20
174.9482366739343
 30
0.0
 10
171.1009695610446
 20
174.9344464638527
 30
0.0
 10
171.1582231347037
 20
174.9252974702857
 30
0.0
 10
171.1961213127034
 20
174.9241859117843
 30
0.0
 10
171.2148579545454
 20
174.9236363636364
 30
0.0
  0
LINE
  5
185
330
1F
100
AcDbEntity
  8
0
  6
Continuous
 62
     7
370
    25
100
AcDbLine
 10
170.8945454545
 20
174.6054545455
 30
0.0
 11
170.9854545455
 21
174.9690909091
 31
0.0
  0
SPLINE
  5
186
330
1F
100
AcDbEntity
  8
0
  6
Continuous
 62
     7
370
    25
100
AcDbSpline
210
0.0
220
0.0
230
1.0
 70
     8
 71
     3
 72
    11
 73
     7
 74
     0
 42
0.000000001
 43
0.00000001
 40
0.0
 40
0.0
 40
0.0
 40
0.0
 40
0.2215004838521578
 40
0.4561273429754458
 40
0.7132387558380799
 40
1.0
 40
1.0
 40
1.0
 40
1.0
 10
171.1971022727273
 20
174.4690909090909
 30
0.0
 10
171.1720320970236
 20
174.4708076835805
 30
0.0
 10
171.1204060579613
 20
174.4743429706045
 30
0.0
 10
171.0439009216178
 20
174.5022330716507
 30
0.0
 10
170.9668740361988
 20
174.5453868644946
 30
0.0
 10
170.9195155816179
 20
174.584717271306
 30
0.0
 10
170.8945454545454
 20
174.6054545454546
 30
0.0
  0
SPLINE
  5
187
330
1F
100
AcDbEntity
  8
0
  6
Continuous
 62
     7
370
    25
100
AcDbSpline
210
0.0
220
0.0
230
1.0
 70
     8
 71
     3
 72
    19
 73
    15
 74
     0
 42
0.000000001
 43
0.00000001
 40
0.0
 40
0.0
 40
0.0
 40
0.0
 40
0.1117631428826433
 40
0.2142806808058618
 40
0.3089378987489448
 40
0.3944457138045703
 40
0.471912192211814
 40
0.5403995933747349
 40
0.6010371244503135
 40
0.6540510379455227
 40
0.747811654685913
 40
0.8335660735218149
 40
0.9169214501301761
 40
1.0
 40
1.0
 40
1.0
 40
1.0
 10
171.5763636363636
 20
174.9207954545455
 30
0.0
 10
171.5678360820711
 20
174.899019869741
 30
0.0
 10
171.5514864153359
 20
174.8572700851834
 30
0.0
 10
171.5279911267144
 20
174.7970025647554
 30
0.0
 10
171.5025383503747
 20
174.7435873122407
 30
0.0
 10
171.4797309251979
 20
174.6946970351861
 30
0.0
 10
171.4558001865946
 20
174.6525873753797
 30
0.0
 10
171.4346564808376
 20
174.6147776118117
 30
0.0
 10
171.4112251610419
 20
174.5846336532736
 30
0.0
 10
171.384068379661
 20
174.5507272509751
 30
0.0
 10
171.3470682212361
 20
174.5185566560576
 30
0.0
 10
171.3000615988882
 20
174.4894769243902
 30
0.0
 10
171.2493523561724
 20
174.4725769317528
 30
0.0
 10
171.2144996438998
 20
174.4702516274317
 30
0.0
 10
171.1971022727272
 20
174.4690909090909
 30
0.0
  0
LINE
  5
188
330
1F
100
AcDbEntity
  8
0
  6
Continuous
 62
     7
370
    25
100
AcDbLine
 10
171.5763636364
 20
174.5145454545
 30
0.0
 11
171.5763636364
 21
174.9207954545
 31
0.0
  0
LINE
  5
189
330
1F
100
AcDbEntity
  8
0
  6
Continuous
 62
     7
370
    25
100
AcDbLine
 10
171.8945454545
 20
174.5145454545
 30
0.0
 11
171.5763636364
 21
174.5145454545
 31
0.0
  0
LINE
  5
18A
330
1F
100
AcDbEntity
  8
0
  6
Continuous
 62
     7
370
    25
100
AcDbLine
 10
171.8945454545
 20
177.06
 30
0.0
 11
171.8945454545
 21
174.5145454545
 31
0.0
  0
LINE
  5
18B
330
1F
100
AcDbEntity
  8
0
  6
Continuous
 62
     7
370
    25
100
AcDbLine
 10
171.5763636364
 20
177.06
 30
0.0
 11
171.8945454545
 21
177.06
 31
0.0
  0
SPLINE
  5
18C
330
1F
100
AcDbEntity
  8
0
  6
Continuous
 62
     7
370
    25
100
AcDbSpline
210
0.0
220
0.0
230
1.0
 70
     8
 71
     3
 72
    23
 73
    19
 74
     0
 42
0.000000001
 43
0.00000001
 40
0.0
 40
0.0
 40
0.0
 40
0.0
 40
0.0704753344234586
 40
0.1384899825933952
 40
0.2034870202581009
 40
0.266440756706912
 40
0.3271541255849949
 40
0.3876484468101611
 40
0.447326609620125
 40
0.5072945563284812
 40
0.5669701020769063
 40
0.6258897472579776
 40
0.684362380003543
 40
0.7436177071928427
 40
0.803887002264719
 40
0.8663875953882733
 40
0.9317584026438588
 40
1.0
 40
1.0
 40
1.0
 40
1.0
 10
173.3036363636364
 20
176.2830113636364
 30
0.0
 10
173.3044341259366
 20
176.3128594367068
 30
0.0
 10
173.3060017962139
 20
176.3715134204558
 30
0.0
 10
173.3148747244382
 20
176.4573799102218
 30
0.0
 10
173.331387864867
 20
176.538856706207
 30
0.0
 10
173.3541177058993
 20
176.6155673748484
 30
0.0
 10
173.3825995001116
 20
176.6883189854348
 30
0.0
 10
173.4180611796642
 20
176.7564183450311
 30
0.0
 10
173.4603701099653
 20
176.8200792107444
 30
0.0
 10
173.5085396797224
 20
176.8789696259561
 30
0.0
 10
173.5623514954754
 20
176.9323602858864
 30
0.0
 10
173.6216109336482
 20
176.9785966400103
 30
0.0
 10
173.685316609428
 20
177.0181540648683
 30
0.0
 10
173.753825626723
 20
177.0500297772562
 30
0.0
 10
173.8268907448343
 20
177.0751179091971
 30
0.0
 10
173.9047541151251
 20
177.0926802472968
 30
0.0
 10
173.9872788254922
 20
177.1035250718597
 30
0.0
 10
174.0438957853486
 20
177.1048022405268
 30
0.0
 10
174.0728125
 20
177.1054545454546
 30
0.0
  0
SPLINE
  5
18D
330
1F
100
AcDbEntity
  8
0
  6
Continuous
 62
     7
370
    25
100
AcDbSpline
210
0.0
220
0.0
230
1.0
 70
     8
 71
     3
 72
    23
 73
    19
 74
     0
 42
0.000000001
 43
0.00000001
 40
0.0
 40
0.0
 40
0.0
 40
0.0
 40
0.0848796314697547
 40
0.1619397066732111
 40
0.2312102305654494
 40
0.2932914147883914
 40
0.3471249254879917
 40
0.3936264181688757
 40
0.4324011008917206
 40
0.4640970294341318
 40
0.5205483819505572
 40
0.578611358604088
 40
0.6391667976871416
 40
0.7030067405352206
 40
0.7704894571118569
 40
0.8422247471235923
 40
0.9183328229940622
 40
1.0
 40
1.0
 40
1.0
 40
1.0
 10
174.0195454545455
 20
175.4989204545455
 30
0.0
 10
173.9880205990083
 20
175.5094613831125
 30
0.0
 10
173.9278751227593
 20
175.5295721546916
 30
0.0
 10
173.8425963390959
 20
175.5600390966523
 30
0.0
 10
173.7664181646957
 20
175.5893245896145
 30
0.0
 10
173.6991012948693
 20
175.6163853184473
 30
0.0
 10
173.6414722989523
 20
175.6432847156319
 30
0.0
 10
173.5920788188079
 20
175.6664107762553
 30
0.0
 10
173.5529567964977
 20
175.6903286817576
 30
0.0
 10
173.511733619683
 20
175.7182214367262
 30
0.0
 10
173.4704254476401
 20
175.7584091738499
 30
0.0
 10
173.4277546060246
 20
175.8121751270367
 30
0.0
 10
173.389603010761
 20
175.8728389538775
 30
0.0
 10
173.3586905908134
 20
175.9415365546929
 30
0.0
 10
173.333678690761
 20
176.0171777538396
 30
0.0
 10
173.316332549502
 20
176.0998396044179
 30
0.0
 10
173.3054668789386
 20
176.1892084386861
 30
0.0
 10
173.3042607016757
 20
176.2510177855585
 30
0.0
 10
173.3036363636364
 20
176.2830113636364
 30
0.0
  0
SPLINE
  5
18E
330
1F
100
AcDbEntity
  8
0
  6
Continuous
 62
     7
370
    25
100
AcDbSpline
210
0.0
220
0.0
230
1.0
 70
     8
 71
     3
 72
    15
 73
    11
 74
     0
 42
0.000000001
 43
0.00000001
 40
0.0
 40
0.0
 40
0.0
 40
0.0
 40
0.0577637959166497
 40
0.1339095606009048
 40
0.2295030292916195
 40
0.3448176406847308
 40
0.4789606386437709
 40
0.6330175227221325
 40
0.8070638318754225
 40
1.0
 40
1.0
 40
1.0
 40
1.0
 10
174.3831818181818
 20
175.3540340909091
 30
0.0
 10
174.3768377257246
 20
175.358138204767
 30
0.0
 10
174.3621306826733
 20
175.3676524701412
 30
0.0
 10
174.3355997535602
 20
175.3817621170042
 30
0.0
 10
174.3013898919396
 20
175.3972504221926
 30
0.0
 10
174.2594414393321
 20
175.4138862704191
 30
0.0
 10
174.2104045337983
 20
175.4333744971765
 30
0.0
 10
174.1535100357837
 20
175.4538214397373
 30
0.0
 10
174.0889375908002
 20
175.4755613253236
 30
0.0
 10
174.0434565226567
 20
175.4908713907756
 30
0.0
 10
174.0195454545455
 20
175.4989204545455
 30
0.0
  0
SPLINE
  5
18F
330
1F
100
AcDbEntity
  8
0
  6
Continuous
 62
     7
370
    25
100
AcDbSpline
210
0.0
220
0.0
230
1.0
 70
     8
 71
     3
 72
    11
 73
     7
 74
     0
 42
0.000000001
 43
0.00000001
 40
0.0
 40
0.0
 40
0.0
 40
0.0
 40
0.2612018464440475
 40
0.50497920008016
 40
0.7479683367497256
 40
1.0
 40
1.0
 40
1.0
 40
1.0
 10
174.4854545454546
 20
175.1430965909091
 30
0.0
 10
174.4843611887386
 20
175.1643478739519
 30
0.0
 10
174.4822474119512
 20
175.2054327899191
 30
0.0
 10
174.4618882963869
 20
175.263277662799
 30
0.0
 10
174.4297940133541
 20
175.3148227288609
 30
0.0
 10
174.3989072854765
 20
175.3408054285561
 30
0.0
 10
174.3831818181818
 20
175.3540340909091
 30
0.0
  0
SPLINE
  5
190
330
1F
100
AcDbEntity
  8
0
  6
Continuous
 62
     7
370
    25
100
AcDbSpline
210
0.0
220
0.0
230
1.0
 70
     8
 71
     3
 72
    15
 73
    11
 74
     0
 42
0.000000001
 43
0.00000001
 40
0.0
 40
0.0
 40
0.0
 40
0.0
 40
0.1679916647423591
 40
0.3151574940028694
 40
0.4449673626661164
 40
0.5641363972236315
 40
0.6758278916254677
 40
0.7812169892488665
 40
0.8880605774475784
 40
1.0
 40
1.0
 40
1.0
 40
1.0
 10
174.0749431818182
 20
174.8327272727273
 30
0.0
 10
174.1074597778173
 20
174.8337112622982
 30
0.0
 10
174.1684619050617
 20
174.8355572567869
 30
0.0
 10
174.2533545482447
 20
174.851728571836
 30
0.0
 10
174.3258186759321
 20
174.878208325409
 30
0.0
 10
174.3843249379274
 20
174.9173096366279
 30
0.0
 10
174.429873172933
 20
174.9645040961537
 30
0.0
 10
174.4619681418824
 20
175.0188269840142
 30
0.0
 10
174.482085079832
 20
175.0789768790461
 30
0.0
 10
174.4843140844573
 20
175.1213940307033
 30
0.0
 10
174.4854545454546
 20
175.1430965909091
 30
0.0
  0
SPLINE
  5
191
330
1F
100
AcDbEntity
  8
0
  6
Continuous
 62
     7
370
    25
100
AcDbSpline
210
0.0
220
0.0
230
1.0
 70
     8
 71
     3
 72
    15
 73
    11
 74
     0
 42
0.000000001
 43
0.00000001
 40
0.0
 40
0.0
 40
0.0
 40
0.0
 40
0.1502582195245586
 40
0.2850603007255584
 40
0.4068984126074031
 40
0.520987251139564
 40
0.6319879778142727
 40
0.7454829310191508
 40
0.8667103714755049
 40
1.0
 40
1.0
 40
1.0
 40
1.0
 10
173.6672727272727
 20
175.2418181818182
 30
0.0
 10
173.6714791155316
 20
175.2096503510208
 30
0.0
 10
173.679459206776
 20
175.1486235962129
 30
0.0
 10
173.7062923626548
 20
175.0647129397342
 30
0.0
 10
173.7413631203416
 20
174.9924571638624
 30
0.0
 10
173.7884701812494
 20
174.933560886885
 30
0.0
 10
173.8459366813152
 20
174.887576748882
 30
0.0
 10
173.9137289611608
 20
174.8553643678655
 30
0.0
 10
173.9912476022913
 20
174.8358996591912
 30
0.0
 10
174.046176910436
 20
174.8338176257718
 30
0.0
 10
174.0749431818182
 20
174.8327272727273
 30
0.0
  0
LINE
  5
192
330
1F
100
AcDbEntity
  8
0
  6
Continuous
 62
     7
370
    25
100
AcDbLine
 10
173.3490909091
 20
175.1963636364
 30
0.0
 11
173.6672727273
 21
175.2418181818
 31
0.0
  0
SPLINE
  5
193
330
1F
100
AcDbEntity
  8
0
  6
Continuous
 62
     7
370
    25
100
AcDbSpline
210
0.0
220
0.0
230
1.0
 70
     8
 71
     3
 72
    19
 73
    15
 74
     0
 42
0.000000001
 43
0.00000001
 40
0.0
 40
0.0
 40
0.0
 40
0.0
 40
0.0890223283603136
 40
0.1734761019486486
 40
0.2547393000803043
 40
0.3337873141316962
 40
0.4103332026615519
 40
0.4835724380709335
 40
0.555574933524482
 40
0.6273395677255196
 40
0.7038289784086773
 40
0.791258299392563
 40
0.8895416060842852
 40
0.9999999999999999
 40
0.9999999999999999
 40
0.9999999999999999
 40
0.9999999999999999
 10
174.0863068181818
 20
174.4690909090909
 30
0.0
 10
174.051927330062
 20
174.4702622038846
 30
0.0
 10
173.984932681687
 20
174.4725446835588
 30
0.0
 10
173.8874221923436
 20
174.4879851835223
 30
0.0
 10
173.7967555602471
 20
174.5154412899497
 30
0.0
 10
173.7124628958452
 20
174.5517656093728
 30
0.0
 10
173.6376061435442
 20
174.5992176716876
 30
0.0
 10
173.5702630574984
 20
174.6525216941439
 30
0.0
 10
173.5132121225938
 20
174.7143207399351
 30
0.0
 10
173.4640060728225
 20
174.7840773857762
 30
0.0
 10
173.4244274715836
 20
174.86645795605
 30
0.0
 10
173.3926013357101
 20
174.9627581006145
 30
0.0
 10
173.3662718044926
 20
175.0742398943182
 30
0.0
 10
173.3550363149497
 20
175.1541030210419
 30
0.0
 10
173.3490909090909
 20
175.1963636363637
 30
0.0
  0
SPLINE
  5
194
330
1F
100
AcDbEntity
  8
0
  6
Continuous
 62
     7
370
    25
100
AcDbSpline
210
0.0
220
0.0
230
1.0
 70
     8
 71
     3
 72
    23
 73
    19
 74
     0
 42
0.000000001
 43
0.00000001
 40
0.0
 40
0.0
 40
0.0
 40
0.0
 40
0.0684541638465215
 40
0.1336601907647524
 40
0.1972381692343305
 40
0.2578650826206743
 40
0.3180739285712212
 40
0.3770977210116653
 40
0.4360732295901454
 40
0.4959689880522543
 40
0.555686919673297
 40
0.6147300146026509
 40
0.6741322713623804
 40
0.734268525172835
 40
0.7964419763033059
 40
0.8613531697595954
 40
0.9290821631124683
 40
1.0
 40
1.0
 40
1.0
 40
1.0
 10
174.8036363636363
 20
175.1949431818182
 30
0.0
 10
174.8031959733766
 20
175.1686319888319
 30
0.0
 10
174.8023360892905
 20
175.1172580639136
 30
0.0
 10
174.7925172640148
 20
175.042000485742
 30
0.0
 10
174.7780754995948
 20
174.9706175397354
 30
0.0
 10
174.7571992158242
 20
174.902793805303
 30
0.0
 10
174.7303298779481
 20
174.8390085274901
 30
0.0
 10
174.6973163029048
 20
174.7789216475326
 30
0.0
 10
174.6588455620752
 20
174.7222836086323
 30
0.0
 10
174.6140917865079
 20
174.6701590146246
 30
0.0
 10
174.5648429841167
 20
174.6221149650645
 30
0.0
 10
174.5093378128949
 20
174.5817786583695
 30
0.0
 10
174.4503186560817
 20
174.5466100665365
 30
0.0
 10
174.3864603409439
 20
174.5180366737304
 30
0.0
 10
174.3178589890498
 20
174.4959423721399
 30
0.0
 10
174.244483540356
 20
174.4808589722853
 30
0.0
 10
174.1668718110482
 20
174.4702112482797
 30
0.0
 10
174.1135704552312
 20
174.4694700380392
 30
0.0
 10
174.0863068181818
 20
174.4690909090909
 30
0.0
  0
SPLINE
  5
195
330
1F
100
AcDbEntity
  8
0
  6
Continuous
 62
     7
370
    25
100
AcDbSpline
210
0.0
220
0.0
230
1.0
 70
     8
 71
     3
 72
    23
 73
    19
 74
     0
 42
0.000000001
 43
0.00000001
 40
0.0
 40
0.0
 40
0.0
 40
0.0
 40
0.0775405969985331
 40
0.1491571696458426
 40
0.2143106706065599
 40
0.2737849970163068
 40
0.3276265935731645
 40
0.3751148465947307
 40
0.416832741644363
 40
0.4526482340629355
 40
0.5179942125506977
 40
0.5827052352963724
 40
0.6479405426656943
 40
0.7144426225795188
 40
0.7827618385493933
 40
0.8523782127499074
 40
0.9248045777620266
 40
1.0
 40
1.0
 40
1.0
 40
1.0
 10
174.0167045454545
 20
175.9754829545455
 30
0.0
 10
174.0463204302734
 20
175.9653694759975
 30
0.0
 10
174.1032895758195
 20
175.9459151785858
 30
0.0
 10
174.1847753278254
 20
175.916903244005
 30
0.0
 10
174.2590064951551
 20
175.8892670694427
 30
0.0
 10
174.325822666903
 20
175.8623405347721
 30
0.0
 10
174.385266013045
 20
175.8362539063948
 30
0.0
 10
174.4372883048955
 20
175.8112214114881
 30
0.0
 10
174.4822751050735
 20
175.7882967489541
 30
0.0
 10
174.5313650945426
 20
175.7579477784303
 30
0.0
 10
174.5850427557364
 20
175.7176770847839
 30
0.0
 10
174.6418639263449
 20
175.6626922556776
 30
0.0
 10
174.6903204734747
 20
175.5995948864274
 30
0.0
 10
174.7308206552264
 20
175.5295218127096
 30
0.0
 10
174.7635430541245
 20
175.4535636310539
 30
0.0
 10
174.7872516347352
 20
175.3718006387834
 30
0.0
 10
174.8005007863618
 20
175.2848639517823
 30
0.0
 10
174.8025781820998
 20
175.2252892681055
 30
0.0
 10
174.8036363636364
 20
175.1949431818182
 30
0.0
  0
SPLINE
  5
196
330
1F
100
AcDbEntity
  8
0
  6
Continuous
 62
     7
370
    25
100
AcDbSpline
210
0.0
220
0.0
230
1.0
 70
     8
 71
     3
 72
    15
 73
    11
 74
     0
 42
0.000000001
 43
0.00000001
 40
0.0
 40
0.0
 40
0.0
 40
0.0
 40
0.0642898394880095
 40
0.1476271262044785
 40
0.2461686922708316
 40
0.3603015254696307
 40
0.4940629204354133
 40
0.6446251559091962
 40
0.8132322161245422
 40
1.0
 40
1.0
 40
1.0
 40
1.0
 10
173.7034943181818
 20
176.1161079545455
 30
0.0
 10
173.7090665803943
 20
176.1112282900187
 30
0.0
 10
173.7218620246423
 20
176.1000232402525
 30
0.0
 10
173.7460882931231
 20
176.0851586869746
 30
0.0
 10
173.7759601642888
 20
176.068847487203
 30
0.0
 10
173.8119089538301
 20
176.0515526980241
 30
0.0
 10
173.8544407001337
 20
176.0344296225464
 30
0.0
 10
173.9027488628803
 20
176.0148967299599
 30
0.0
 10
173.957517180486
 20
175.9951507066673
 30
0.0
 10
173.9963145365927
 20
175.9822584824013
 30
0.0
 10
174.0167045454545
 20
175.9754829545455
 30
0.0
  0
SPLINE
  5
197
330
1F
100
AcDbEntity
  8
0
  6
Continuous
 62
     7
370
    25
100
AcDbSpline
210
0.0
220
0.0
230
1.0
 70
     8
 71
     3
 72
    11
 73
     7
 74
     0
 42
0.000000001
 43
0.00000001
 40
0.0
 40
0.0
 40
0.0
 40
0.0
 40
0.2808399984848051
 40
0.5347733217096201
 40
0.7701835190502123
 40
0.9999999999999999
 40
0.9999999999999999
 40
0.9999999999999999
 40
0.9999999999999999
 10
173.6218181818182
 20
176.3469318181818
 30
0.0
 10
173.622580133724
 20
176.3233808598534
 30
0.0
 10
173.6240310365649
 20
176.2785353097796
 30
0.0
 10
173.6401458400028
 20
176.2157259742448
 30
0.0
 10
173.6654607706895
 20
176.1604294524604
 30
0.0
 10
173.6909185005128
 20
176.1307628871864
 30
0.0
 10
173.7034943181818
 20
176.1161079545455
 30
0.0
  0
SPLINE
  5
198
330
1F
100
AcDbEntity
  8
0
  6
Continuous
 62
     7
370
    25
100
AcDbSpline
210
0.0
220
0.0
230
1.0
 70
     8
 71
     3
 72
    15
 73
    11
 74
     0
 42
0.000000001
 43
0.00000001
 40
0.0
 40
0.0
 40
0.0
 40
0.0
 40
0.1472807282839321
 40
0.280615335477235
 40
0.4047813093738554
 40
0.5247085089494833
 40
0.6421143683919478
 40
0.7566027311301562
 40
0.8742517544788387
 40
1.0
 40
1.0
 40
1.0
 40
1.0
 10
174.0507954545454
 20
176.7418181818182
 30
0.0
 10
174.0184765059827
 20
176.7405456958492
 30
0.0
 10
173.9568989139999
 20
176.7381212165487
 30
0.0
 10
173.8699908447975
 20
176.7174230705224
 30
0.0
 10
173.7941762172797
 20
176.6826259170823
 30
0.0
 10
173.7317997257322
 20
176.6326023793535
 30
0.0
 10
173.682467346285
 20
176.5726495017836
 30
0.0
 10
173.6467438213911
 20
176.5042704410901
 30
0.0
 10
173.6256976003466
 20
176.4279421348214
 30
0.0
 10
173.6231396934026
 20
176.3745277249162
 30
0.0
 10
173.6218181818182
 20
176.3469318181818
 30
0.0
  0
SPLINE
  5
199
330
1F
100
AcDbEntity
  8
0
  6
Continuous
 62
     7
370
    25
100
AcDbSpline
210
0.0
220
0.0
230
1.0
 70
     8
 71
     3
 72
    15
 73
    11
 74
     0
 42
0.000000001
 43
0.00000001
 40
0.0
 40
0.0
 40
0.0
 40
0.0
 40
0.1555424125785241
 40
0.2941247662045888
 40
0.4190131343703056
 40
0.5346399020775103
 40
0.6456767424937829
 40
0.7570057606629105
 40
0.873750914043657
 40
1.0
 40
1.0
 40
1.0
 40
1.0
 10
174.5309090909091
 20
176.2418181818182
 30
0.0
 10
174.5254073081867
 20
176.2815797434916
 30
0.0
 10
174.5150036470238
 20
176.3567673391915
 30
0.0
 10
174.4829594884207
 20
176.4604330670789
 30
0.0
 10
174.439147074455
 20
176.5483874091563
 30
0.0
 10
174.3819929472862
 20
176.6196517517857
 30
0.0
 10
174.3137131394796
 20
176.6747383108338
 30
0.0
 10
174.2353416561282
 20
176.7148710879702
 30
0.0
 10
174.1460291489084
 20
176.7375586291004
 30
0.0
 10
174.0833570908486
 20
176.740361785452
 30
0.0
 10
174.0507954545454
 20
176.7418181818182
 30
0.0
  0
LINE
  5
19A
330
1F
100
AcDbEntity
  8
0
  6
Continuous
 62
     7
370
    25
100
AcDbLine
 10
174.8490909091
 20
176.2872727273
 30
0.0
 11
174.5309090909
 21
176.2418181818
 31
0.0
  0
SPLINE
  5
19B
330
1F
100
AcDbEntity
  8
0
  6
Continuous
 62
     7
370
    25
100
AcDbSpline
210
0.0
220
0.0
230
1.0
 70
     8
 71
     3
 72
    23
 73
    19
 74
     0
 42
0.000000001
 43
0.00000001
 40
0.0
 40
0.0
 40
0.0
 40
0.0
 40
0.0650583079318768
 40
0.1266305141833309
 40
0.1861784727427857
 40
0.2433911603167968
 40
0.2990748799455721
 40
0.3543437316461281
 40
0.4088467230880556
 40
0.4648395764645822
 40
0.5213806544919296
 40
0.5803460118935557
 40
0.6413575701834346
 40
0.7056522768013381
 40
0.7730846599530058
 40
0.8446898584428083
 40
0.9198751042775389
 40
1.0
 40
1.0
 40
1.0
 40
1.0
 10
174.0728125
 20
177.1054545454546
 30
0.0
 10
174.1000801928518
 20
177.1050962340557
 30
0.0
 10
174.1531544592473
 20
177.1043988111114
 30
0.0
 10
174.2304798027563
 20
177.0935367840284
 30
0.0
 10
174.3038210650365
 20
177.078869499742
 30
0.0
 10
174.372271289857
 20
177.0554198099638
 30
0.0
 10
174.4369941586528
 20
177.0273684319167
 30
0.0
 10
174.4965003287383
 20
176.9915386709901
 30
0.0
 10
174.5521395481031
 20
176.949833398807
 30
0.0
 10
174.6029617063072
 20
176.9015718662023
 30
0.0
 10
174.6498286277979
 20
176.846966106397
 30
0.0
 10
174.6912458266822
 20
176.7856207440618
 30
0.0
 10
174.7296133937781
 20
176.7185312449426
 30
0.0
 10
174.7613888022222
 20
176.6442348362312
 30
0.0
 10
174.7912886466321
 20
176.5644483651152
 30
0.0
 10
174.8146464804653
 20
176.477742601246
 30
0.0
 10
174.8349928888229
 20
176.3848762916355
 30
0.0
 10
174.8442929723992
 20
176.3204898537764
 30
0.0
 10
174.8490909090909
 20
176.2872727272728
 30
0.0
  0
SPLINE
  5
19C
330
1F
100
AcDbEntity
  8
0
  6
Continuous
 62
     7
370
    25
100
AcDbSpline
210
0.0
220
0.0
230
1.0
 70
     8
 71
     3
 72
    31
 73
    27
 74
     0
 42
0.000000001
 43
0.00000001
 40
0.0
 40
0.0
 40
0.0
 40
0.0
 40
0.0600146686512148
 40
0.1180632243206454
 40
0.1736112481814742
 40
0.2273480732113695
 40
0.2787957782707432
 40
0.3286447324858093
 40
0.3764527930657439
 40
0.4229248385111836
 40
0.4674437840351616
 40
0.5094788674739545
 40
0.5491706570762992
 40
0.5869330764944723
 40
0.6227040356379082
 40
0.6567128713833548
 40
0.6892156866119727
 40
0.7207171031619531
 40
0.7519013924558355
 40
0.7838457898797445
 40
0.8164065518265717
 40
0.8501091436336218
 40
0.8852578676166843
 40
0.9216898465026334
 40
0.9598798403630362
 40
1.0
 40
1.0
 40
1.0
 40
1.0
 10
178.5309090909091
 20
175.2908238636364
 30
0.0
 10
178.5311718132372
 20
175.339369109938
 30
0.0
 10
178.531688650968
 20
175.4348692340345
 30
0.0
 10
178.5400887176435
 20
175.5750787958984
 30
0.0
 10
178.551809838632
 20
175.709920553547
 30
0.0
 10
178.568701226165
 20
175.8388644533685
 30
0.0
 10
178.5908091937184
 20
175.9623267963498
 30
0.0
 10
178.6175010201208
 20
176.0799784640605
 30
0.0
 10
178.649594579842
 20
176.1921066283674
 30
0.0
 10
178.6864867577419
 20
176.2981787383208
 30
0.0
 10
178.7266837895311
 20
176.3980190347692
 30
0.0
 10
178.7698928307501
 20
176.490594883559
 30
0.0
 10
178.8162127069078
 20
176.5754802457094
 30
0.0
 10
178.8650044550705
 20
176.6530451938628
 30
0.0
 10
178.9168038700782
 20
176.7230600557786
 30
0.0
 10
178.971874030866
 20
176.7848815467682
 30
0.0
 10
179.0285671477632
 20
176.8404601269328
 30
0.0
 10
179.089696166205
 20
176.8875256880304
 30
0.0
 10
179.1544618630596
 20
176.9284692333406
 30
0.0
 10
179.2233504415346
 20
176.9639521401769
 30
0.0
 10
179.296994406152
 20
176.9940074151203
 30
0.0
 10
179.3755506918014
 20
177.0178838058935
 30
0.0
 10
179.4585646579802
 20
177.0371373556239
 30
0.0
 10
179.5464069845289
 20
177.050530835954
 30
0.0
 10
179.6389596587479
 20
177.0582751214738
 30
0.0
 10
179.7022957353354
 20
177.0594156698569
 30
0.0
 10
179.7347443181818
 20
177.06
 30
0.0
  0
SPLINE
  5
19D
330
1F
100
AcDbEntity
  8
0
  6
Continuous
 62
     7
370
    25
100
AcDbSpline
210
0.0
220
0.0
230
1.0
 70
     8
 71
     3
 72
    15
 73
    11
 74
     0
 42
0.000000001
 43
0.00000001
 40
0.0
 40
0.0
 40
0.0
 40
0.0
 40
0.1575667473574126
 40
0.305531271097508
 40
0.4439157034432847
 40
0.5729506810152654
 40
0.6928478267623386
 40
0.8035992676273503
 40
0.9060809889277631
 40
1.0
 40
1.0
 40
1.0
 40
1.0
 10
179.7752272727273
 20
173.56
 30
0.0
 10
179.7484691186744
 20
173.5599862362954
 30
0.0
 10
179.6965834704832
 20
173.5599595476555
 30
0.0
 10
179.6212998255671
 20
173.5640262764875
 30
0.0
 10
179.550922041978
 20
173.5686320158921
 30
0.0
 10
179.4854998921726
 20
173.5756160939634
 30
0.0
 10
179.4251630080448
 20
173.5850830098904
 30
0.0
 10
179.3694726138092
 20
173.5951576559409
 30
0.0
 10
179.3190696688574
 20
173.6087922459153
 30
0.0
 10
179.2874885051853
 20
173.6195069164852
 30
0.0
 10
179.2723863636363
 20
173.6246306818182
 30
0.0
  0
LINE
  5
19E
330
1F
100
AcDbEntity
  8
0
  6
Continuous
 62
     7
370
    25
100
AcDbLine
 10
180.6672727273
 20
173.56
 30
0.0
 11
179.7752272727
 21
173.56
 31
0.0
  0
LINE
  5
19F
330
1F
100
AcDbEntity
  8
0
  6
Continuous
 62
     7
370
    25
100
AcDbLine
 10
180.6672727273
 20
177.06
 30
0.0
 11
180.6672727273
 21
173.56
 31
0.0
  0
LINE
  5
1A0
330
1F
100
AcDbEntity
  8
0
  6
Continuous
 62
     7
370
    25
100
AcDbLine
 10
179.7347443182
 20
177.06
 30
0.0
 11
180.6672727273
 21
177.06
 31
0.0
  0
SPLINE
  5
1A1
330
1F
100
AcDbEntity
  8
0
  6
Continuous
 62
     7
370
    25
100
AcDbSpline
210
0.0
220
0.0
230
1.0
 70
     8
 71
     3
 72
    23
 73
    19
 74
     0
 42
0.000000001
 43
0.00000001
 40
0.0
 40
0.0
 40
0.0
 40
0.0
 40
0.0968192816718779
 40
0.1879688264533231
 40
0.2754194753544094
 40
0.3598337273088536
 40
0.4399412145866785
 40
0.5152097928626779
 40
0.5867202398916694
 40
0.6563463397493271
 40
0.6917361708376786
 40
0.7292083367414267
 40
0.7682863087763641
 40
0.8098729623450036
 40
0.8531673973810608
 40
0.8996294221862327
 40
0.9485553412259714
 40
1.0
 40
1.0
 40
1.0
 40
1.0
 10
183.94
 20
176.0323011363637
 30
0.0
 10
183.9412141198495
 20
176.0844684236309
 30
0.0
 10
183.9435712606933
 20
176.1857480819546
 30
0.0
 10
183.9661333343707
 20
176.3327561316179
 30
0.0
 10
184.0028486221884
 20
176.469848140816
 30
0.0
 10
184.0537568253446
 20
176.5959782022135
 30
0.0
 10
184.1163798235403
 20
176.7093543346666
 30
0.0
 10
184.1907629371284
 20
176.8068274749048
 30
0.0
 10
184.2744164549171
 20
176.8886227800906
 30
0.0
 10
184.3534366821283
 20
176.9425292743601
 30
0.0
 10
184.4222683548055
 20
176.9765673057614
 30
0.0
 10
184.4781121923056
 20
176.9994857697492
 30
0.0
 10
184.5391788897692
 20
177.0175753668537
 30
0.0
 10
184.6041015091495
 20
177.0331837677197
 30
0.0
 10
184.6738274802231
 20
177.0454184234898
 30
0.0
 10
184.7481031821871
 20
177.053366987841
 30
0.0
 10
184.826968582584
 20
177.059654296391
 30
0.0
 10
184.8810372538516
 20
177.0598828536279
 30
0.0
 10
184.90875
 20
177.06
 30
0.0
  0
SPLINE
  5
1A2
330
1F
100
AcDbEntity
  8
0
  6
Continuous
 62
     7
370
    25
100
AcDbSpline
210
0.0
220
0.0
230
1.0
 70
     8
 71
     3
 72
    15
 73
    11
 74
     0
 42
0.000000001
 43
0.00000001
 40
0.0
 40
0.0
 40
0.0
 40
0.0
 40
0.1075455009599655
 40
0.2161484786361839
 40
0.3275339862401738
 40
0.446674109229004
 40
0.5723517132400954
 40
0.7049746126034377
 40
0.8469541779204285
 40
1.0
 40
1.0
 40
1.0
 40
1.0
 10
184.3746590909091
 20
175.1736363636364
 30
0.0
 10
184.3422200829005
 20
175.1905009156126
 30
0.0
 10
184.2770230996057
 20
175.2243958458515
 30
0.0
 10
184.1913680476406
 20
175.2964686902888
 30
0.0
 10
184.1163791607644
 20
175.3841845725164
 30
0.0
 10
184.0528627187128
 20
175.4874676805945
 30
0.0
 10
184.0015009537881
 20
175.6052055072592
 30
0.0
 10
183.9659807692874
 20
175.7365815682579
 30
0.0
 10
183.9434432199011
 20
175.8802455243793
 30
0.0
 10
183.9411760863211
 20
175.9803641324996
 30
0.0
 10
183.94
 20
176.0323011363637
 30
0.0
  0
SPLINE
  5
1A3
330
1F
100
AcDbEntity
  8
0
  6
Continuous
 62
     7
370
    25
100
AcDbSpline
210
0.0
220
0.0
230
1.0
 70
     8
 71
     3
 72
    15
 73
    11
 74
     0
 42
0.000000001
 43
0.00000001
 40
0.0
 40
0.0
 40
0.0
 40
0.0
 40
0.137631948103129
 40
0.2699093307690303
 40
0.3973560729775372
 40
0.5229561724864108
 40
0.645993202084504
 40
0.7649178872134271
 40
0.8818553540181846
 40
1.0
 40
1.0
 40
1.0
 40
1.0
 10
184.0309090909091
 20
174.4399715909091
 30
0.0
 10
184.0319327954262
 20
174.4786320525909
 30
0.0
 10
184.0339403772772
 20
174.5544488922387
 30
0.0
 10
184.0516773541783
 20
174.6648516342513
 30
0.0
 10
184.0788487465744
 20
174.7697955358726
 30
0.0
 10
184.1191740449941
 20
174.8676443734366
 30
0.0
 10
184.1681969448704
 20
174.95874095032
 30
0.0
 10
184.2279874774327
 20
175.0401031641255
 30
0.0
 10
184.2955481037453
 20
175.1135654861145
 30
0.0
 10
184.3481986392594
 20
175.1535443055392
 30
0.0
 10
184.3746590909091
 20
175.1736363636364
 30
0.0
  0
SPLINE
  5
1A4
330
1F
100
AcDbEntity
  8
0
  6
Continuous
 62
     7
370
    25
100
AcDbSpline
210
0.0
220
0.0
230
1.0
 70
     8
 71
     3
 72
    19
 73
    15
 74
     0
 42
0.000000001
 43
0.00000001
 40
0.0
 40
0.0
 40
0.0
 40
0.0
 40
0.1010806791914292
 40
0.1924048240394082
 40
0.274241022131996
 40
0.3492460202577992
 40
0.4212246326965196
 40
0.4951685410591017
 40
0.5724434811404169
 40
0.6547053216758479
 40
0.7394460711456389
 40
0.8244151355839414
 40
0.9104915248380988
 40
1.0
 40
1.0
 40
1.0
 40
1.0
 10
184.9059090909091
 20
173.56
 30
0.0
 10
184.8584990647842
 20
173.5611739478003
 30
0.0
 10
184.7682551348142
 20
173.5634085313207
 30
0.0
 10
184.6405809014104
 20
173.5814161631243
 30
0.0
 10
184.5279791975915
 20
173.6122353459571
 30
0.0
 10
184.4298241124114
 20
173.6568582461548
 30
0.0
 10
184.3438911866515
 20
173.7154900140422
 30
0.0
 10
184.2670983262433
 20
173.7872454104357
 30
0.0
 10
184.1997549607851
 20
173.8739843649273
 30
0.0
 10
184.1396791296744
 20
173.9717730958348
 30
0.0
 10
184.0909313512416
 20
174.0797997567896
 30
0.0
 10
184.0561566195528
 20
174.1948704249678
 30
0.0
 10
184.0349362035537
 20
174.3156101060986
 30
0.0
 10
184.0322688410737
 20
174.3979810720527
 30
0.0
 10
184.0309090909091
 20
174.4399715909091
 30
0.0
  0
LINE
  5
1A5
330
1F
100
AcDbEntity
  8
0
  6
Continuous
 62
     7
370
    25
100
AcDbLine
 10
185.8945454545
 20
173.56
 30
0.0
 11
184.9059090909
 21
173.56
 31
0.0
  0
LINE
  5
1A6
330
1F
100
AcDbEntity
  8
0
  6
Continuous
 62
     7
370
    25
100
AcDbLine
 10
185.8945454545
 20
177.06
 30
0.0
 11
185.8945454545
 21
173.56
 31
0.0
  0
LINE
  5
1A7
330
1F
100
AcDbEntity
  8
0
  6
Continuous
 62
     7
370
    25
100
AcDbLine
 10
184.90875
 20
177.06
 30
0.0
 11
185.8945454545
 21
177.06
 31
0.0
  0
LINE
  5
1A8
330
1F
100
AcDbEntity
  8
0
  6
Continuous
 62
     7
370
    25
100
AcDbLine
 10
189.0159943182
 20
173.56
 30
0.0
 11
190.0152840909
 21
177.06
 31
0.0
  0
LINE
  5
1A9
330
1F
100
AcDbEntity
  8
0
  6
Continuous
 62
     7
370
    25
100
AcDbLine
 10
189.3490909091
 20
173.56
 30
0.0
 11
189.0159943182
 21
173.56
 31
0.0
  0
LINE
  5
1AA
330
1F
100
AcDbEntity
  8
0
  6
Continuous
 62
     7
370
    25
100
AcDbLine
 10
190.0515056818
 20
176.0990625
 30
0.0
 11
189.3490909091
 21
173.56
 31
0.0
  0
SPLINE
  5
1AB
330
1F
100
AcDbEntity
  8
0
  6
Continuous
 62
     7
370
    25
100
AcDbSpline
210
0.0
220
0.0
230
1.0
 70
     8
 71
     3
 72
     9
 73
     5
 74
     0
 42
0.000000001
 43
0.00000001
 40
0.0
 40
0.0
 40
0.0
 40
0.0
 40
0.4901564748819405
 40
1.0
 40
1.0
 40
1.0
 40
1.0
 10
190.19
 20
176.6509090909091
 30
0.0
 10
190.1689777037306
 20
176.5603427942623
 30
0.0
 10
190.1260887542897
 20
176.3755726212913
 30
0.0
 10
190.0766908721709
 20
176.1924343578281
 30
0.0
 10
190.0515056818182
 20
176.0990625
 30
0.0
  0
SPLINE
  5
1AC
330
1F
100
AcDbEntity
  8
0
  6
Continuous
 62
     7
370
    25
100
AcDbSpline
210
0.0
220
0.0
230
1.0
 70
     8
 71
     3
 72
    11
 73
     7
 74
     0
 42
0.000000001
 43
0.00000001
 40
0.0
 40
0.0
 40
0.0
 40
0.0
 40
0.2644827939617669
 40
0.519552554454929
 40
0.7649478036282251
 40
1.0
 40
1.0
 40
1.0
 40
1.0
 10
190.3157102272727
 20
176.0990625
 30
0.0
 10
190.3040672615036
 20
176.1475842711652
 30
0.0
 10
190.2811957071156
 20
176.2429009069959
 30
0.0
 10
190.2482473314727
 20
176.3834152345332
 30
0.0
 10
190.2188750689592
 20
176.5190424166536
 30
0.0
 10
190.1994858864794
 20
176.6075889414693
 30
0.0
 10
190.19
 20
176.6509090909091
 30
0.0
  0
LINE
  5
1AD
330
1F
100
AcDbEntity
  8
0
  6
Continuous
 62
     7
370
    25
100
AcDbLine
 10
190.94
 20
173.56
 30
0.0
 11
190.3157102273
 21
176.0990625
 31
0.0
  0
LINE
  5
1AE
330
1F
100
AcDbEntity
  8
0
  6
Continuous
 62
     7
370
    25
100
AcDbLine
 10
191.2695454545
 20
173.56
 30
0.0
 11
190.94
 21
173.56
 31
0.0
  0
LINE
  5
1AF
330
1F
100
AcDbEntity
  8
0
  6
Continuous
 62
     7
370
    25
100
AcDbLine
 10
190.3263636364
 20
177.06
 30
0.0
 11
191.2695454545
 21
173.56
 31
0.0
  0
LINE
  5
1B0
330
1F
100
AcDbEntity
  8
0
  6
Continuous
 62
     7
370
    25
100
AcDbLine
 10
190.0152840909
 20
177.06
 30
0.0
 11
190.3263636364
 21
177.06
 31
0.0
  0
LINE
  5
1B1
330
1F
100
AcDbEntity
  8
0
  6
Continuous
 62
     7
370
    25
100
AcDbLine
 10
196.8036363636
 20
174.2588636364
 30
0.0
 11
196.8036363636
 21
177.06
 31
0.0
  0
LINE
  5
1B2
330
1F
100
AcDbEntity
  8
0
  6
Continuous
 62
     7
370
    25
100
AcDbLine
 10
195.4634375
 20
177.06
 30
0.0
 11
196.8036363636
 21
174.2588636364
 31
0.0
  0
LINE
  5
1B3
330
1F
100
AcDbEntity
  8
0
  6
Continuous
 62
     7
370
    25
100
AcDbLine
 10
195.1218181818
 20
177.06
 30
0.0
 11
195.4634375
 21
177.06
 31
0.0
  0
LINE
  5
1B4
330
1F
100
AcDbEntity
  8
0
  6
Continuous
 62
     7
370
    25
100
AcDbLine
 10
195.1218181818
 20
173.56
 30
0.0
 11
195.1218181818
 21
177.06
 31
0.0
  0
LINE
  5
1B5
330
1F
100
AcDbEntity
  8
0
  6
Continuous
 62
     7
370
    25
100
AcDbLine
 10
195.44
 20
173.56
 30
0.0
 11
195.1218181818
 21
173.56
 31
0.0
  0
LINE
  5
1B6
330
1F
100
AcDbEntity
  8
0
  6
Continuous
 62
     7
370
    25
100
AcDbLine
 10
195.44
 20
176.3661079545
 30
0.0
 11
195.44
 21
173.56
 31
0.0
  0
LINE
  5
1B7
330
1F
100
AcDbEntity
  8
0
  6
Continuous
 62
     7
370
    25
100
AcDbLine
 10
196.7823295455
 20
173.56
 30
0.0
 11
195.44
 21
176.3661079545
 31
0.0
  0
LINE
  5
1B8
330
1F
100
AcDbEntity
  8
0
  6
Continuous
 62
     7
370
    25
100
AcDbLine
 10
197.1218181818
 20
173.56
 30
0.0
 11
196.7823295455
 21
173.56
 31
0.0
  0
LINE
  5
1B9
330
1F
100
AcDbEntity
  8
0
  6
Continuous
 62
     7
370
    25
100
AcDbLine
 10
197.1218181818
 20
177.06
 30
0.0
 11
197.1218181818
 21
173.56
 31
0.0
  0
LINE
  5
1BA
330
1F
100
AcDbEntity
  8
0
  6
Continuous
 62
     7
370
    25
100
AcDbLine
 10
196.8036363636
 20
177.06
 30
0.0
 11
197.1218181818
 21
177.06
 31
0.0
  0
SPLINE
  5
1BB
330
1F
100
AcDbEntity
  8
0
  6
Continuous
 62
     7
370
    25
100
AcDbSpline
210
0.0
220
0.0
230
1.0
 70
     8
 71
     3
 72
    15
 73
    11
 74
     0
 42
0.000000001
 43
0.00000001
 40
0.0
 40
0.0
 40
0.0
 40
0.0
 40
0.13932153928621
 40
0.2716012228177643
 40
0.3968894546682092
 40
0.5172934503899375
 40
0.6360268189227902
 40
0.7552113132249803
 40
0.8752184670120041
 40
1.0
 40
1.0
 40
1.0
 40
1.0
 10
200.8426988636364
 20
177.1054545454546
 30
0.0
 10
200.8697425910241
 20
177.1049477218649
 30
0.0
 10
200.9224631499964
 20
177.1039596915331
 30
0.0
 10
200.9985855889634
 20
177.0912386391124
 30
0.0
 10
201.0695917194877
 20
177.0725309003561
 30
0.0
 10
201.1349860684755
 20
177.0451633387866
 30
0.0
 10
201.1952446873074
 20
177.0101381386148
 30
0.0
 10
201.2499550596557
 20
176.9671867209481
 30
0.0
 10
201.3001938187274
 20
176.9171634991833
 30
0.0
 10
201.3274066253443
 20
176.8781716362861
 30
0.0
 10
201.3412784090909
 20
176.8582954545455
 30
0.0
  0
LINE
  5
1BC
330
1F
100
AcDbEntity
  8
0
  6
Continuous
 62
     7
370
    25
100
AcDbLine
 10
200.1218181818
 20
173.56
 30
0.0
 11
200.1218181818
 21
175.9357102273
 31
0.0
  0
LINE
  5
1BD
330
1F
100
AcDbEntity
  8
0
  6
Continuous
 62
     7
370
    25
100
AcDbLine
 10
200.44
 20
173.56
 30
0.0
 11
200.1218181818
 21
173.56
 31
0.0
  0
LINE
  5
1BE
330
1F
100
AcDbEntity
  8
0
  6
Continuous
 62
     7
370
    25
100
AcDbLine
 10
200.44
 20
175.9634090909
 30
0.0
 11
200.44
 21
173.56
 31
0.0
  0
SPLINE
  5
1BF
330
1F
100
AcDbEntity
  8
0
  6
Continuous
 62
     7
370
    25
100
AcDbSpline
210
0.0
220
0.0
230
1.0
 70
     8
 71
     3
 72
    11
 73
     7
 74
     0
 42
0.000000001
 43
0.00000001
 40
0.0
 40
0.0
 40
0.0
 40
0.0
 40
0.1897211885864156
 40
0.4188043445050529
 40
0.6886196378243429
 40
1.0
 40
1.0
 40
1.0
 40
1.0
 10
200.4854545454546
 20
176.4321590909091
 30
0.0
 10
200.4782632542717
 20
176.4031473045025
 30
0.0
 10
200.4623886753045
 20
176.3391045780179
 30
0.0
 10
200.4498077650979
 20
176.2312174934243
 30
0.0
 10
200.4412567432191
 20
176.103944497988
 30
0.0
 10
200.4404384222195
 20
176.0124356893034
 30
0.0
 10
200.44
 20
175.9634090909091
 30
0.0
  0
SPLINE
  5
1C0
330
1F
100
AcDbEntity
  8
0
  6
Continuous
 62
     7
370
    25
100
AcDbSpline
210
0.0
220
0.0
230
1.0
 70
     8
 71
     3
 72
    15
 73
    11
 74
     0
 42
0.000000001
 43
0.00000001
 40
0.0
 40
0.0
 40
0.0
 40
0.0
 40
0.128947803447948
 40
0.253247385237385
 40
0.3764406309892721
 40
0.5033025917821549
 40
0.6299799454329826
 40
0.7520759981192171
 40
0.8746598439576622
 40
1.0
 40
1.0
 40
1.0
 40
1.0
 10
200.8277840909091
 20
176.6963636363637
 30
0.0
 10
200.807840228024
 20
176.6952925054037
 30
0.0
 10
200.7686714248949
 20
176.6931888548752
 30
0.0
 10
200.7114377958713
 20
176.6799813914831
 30
0.0
 10
200.659003505585
 20
176.6545849278954
 30
0.0
 10
200.6102900116303
 20
176.6222997005553
 30
0.0
 10
200.5670361747619
 20
176.5829816749681
 30
0.0
 10
200.5319448302484
 20
176.5372299090001
 30
0.0
 10
200.5033497509318
 20
176.487224571574
 30
0.0
 10
200.4914636620528
 20
176.4506497919115
 30
0.0
 10
200.4854545454546
 20
176.4321590909091
 30
0.0
  0
SPLINE
  5
1C1
330
1F
100
AcDbEntity
  8
0
  6
Continuous
 62
     7
370
    25
100
AcDbSpline
210
0.0
220
0.0
230
1.0
 70
     8
 71
     3
 72
    23
 73
    19
 74
     0
 42
0.000000001
 43
0.00000001
 40
0.0
 40
0.0
 40
0.0
 40
0.0
 40
0.1092372335715514
 40
0.2102209308449021
 40
0.3021972615310254
 40
0.3860574403282951
 40
0.4615364433605484
 40
0.528859402615023
 40
0.5889404170742092
 40
0.641943221339512
 40
0.6902628885277908
 40
0.7362901207039036
 40
0.7807076703864047
 40
0.8236437590948571
 40
0.8662436383458323
 40
0.9093259936573099
 40
0.9535000835603569
 40
1.0
 40
1.0
 40
1.0
 40
1.0
 10
201.2127272727273
 20
175.9690909090909
 30
0.0
 10
201.2116263164762
 20
176.0024895462668
 30
0.0
 10
201.2095075879041
 20
176.0667633507794
 30
0.0
 10
201.2013589939274
 20
176.1588715992233
 30
0.0
 10
201.191471042216
 20
176.2429595734659
 30
0.0
 10
201.1800342418495
 20
176.3190094515594
 30
0.0
 10
201.1644991922765
 20
176.3866642675297
 30
0.0
 10
201.1458704458031
 20
176.4458814895271
 30
0.0
 10
201.1259583092149
 20
176.4974675149337
 30
0.0
 10
201.1019334077226
 20
176.5407323770654
 30
0.0
 10
201.0761476595727
 20
176.5778193295038
 30
0.0
 10
201.0473598688612
 20
176.6091531427641
 30
0.0
 10
201.0168882347258
 20
176.6363618401004
 30
0.0
 10
200.9840035090142
 20
176.6590178522006
 30
0.0
 10
200.9479084556625
 20
176.6750848763294
 30
0.0
 10
200.9100475090763
 20
176.6871495894781
 30
0.0
 10
200.8698210351628
 20
176.6956296409548
 30
0.0
 10
200.8420339888163
 20
176.6961148228539
 30
0.0
 10
200.8277840909091
 20
176.6963636363637
 30
0.0
  0
LINE
  5
1C2
330
1F
100
AcDbEntity
  8
0
  6
Continuous
 62
     7
370
    25
100
AcDbLine
 10
201.5309090909
 20
176.0145454545
 30
0.0
 11
201.2127272727
 21
175.9690909091
 31
0.0
  0
SPLINE
  5
1C3
330
1F
100
AcDbEntity
  8
0
  6
Continuous
 62
     7
370
    25
100
AcDbSpline
210
0.0
220
0.0
230
1.0
 70
     8
 71
     3
 72
    15
 73
    11
 74
     0
 42
0.000000001
 43
0.00000001
 40
0.0
 40
0.0
 40
0.0
 40
0.0
 40
0.0991998587249351
 40
0.2043290549486981
 40
0.3160441565315457
 40
0.434922999798912
 40
0.5626713396712523
 40
0.6990277588033712
 40
0.8444221531856717
 40
1.0
 40
1.0
 40
1.0
 40
1.0
 10
201.3412784090909
 20
176.8582954545455
 30
0.0
 10
201.3568073941287
 20
176.833773739326
 30
0.0
 10
201.3887935569908
 20
176.7832646059369
 30
0.0
 10
201.4261759431044
 20
176.6985205456305
 30
0.0
 10
201.4591545092539
 20
176.6060512913254
 30
0.0
 10
201.4850501934906
 20
176.5044440735915
 30
0.0
 10
201.5054723585698
 20
176.394339050812
 30
0.0
 10
201.5200658376475
 20
176.2755103538035
 30
0.0
 10
201.5296302528369
 20
176.1479882597456
 30
0.0
 10
201.5304733032947
 20
176.0600185468766
 30
0.0
 10
201.5309090909091
 20
176.0145454545455
 30
0.0
  0
LINE
  5
1C4
330
1F
100
AcDbEntity
  8
0
  6
Continuous
 62
     7
370
    25
100
AcDbLine
 10
208.94
 20
246.56
 30
0.0
 11
165.94
 21
246.56
 31
0.0
  0
LINE
  5
1C5
330
1F
100
AcDbEntity
  8
0
  6
Continuous
 62
     7
370
    25
100
AcDbLine
 10
208.94
 20
246.56
 30
0.0
 11
208.94
 21
172.56
 31
0.0
  0
LINE
  5
1C6
330
1F
100
AcDbEntity
  8
0
  6
Continuous
 62
     7
370
    25
100
AcDbLine
 10
165.94
 20
172.56
 30
0.0
 11
208.94
 21
172.56
 31
0.0
  0
LINE
  5
1C7
330
1F
100
AcDbEntity
  8
0
  6
Continuous
 62
     7
370
    25
100
AcDbLine
 10
165.94
 20
246.56
 30
0.0
 11
165.94
 21
172.56
 31
0.0
  0
LINE
  5
1C8
330
1F
100
AcDbEntity
  8
0
  6
Continuous
 62
     7
370
    25
100
AcDbLine
 10
199.1949715909
 20
176.0145454545
 30
0.0
 11
199.4698295455
 21
177.06
 31
0.0
  0
LINE
  5
1C9
330
1F
100
AcDbEntity
  8
0
  6
Continuous
 62
     7
370
    25
100
AcDbLine
 10
198.0941193182
 20
176.0145454545
 30
0.0
 11
199.1949715909
 21
176.0145454545
 31
0.0
  0
LINE
  5
1CA
330
1F
100
AcDbEntity
  8
0
  6
Continuous
 62
     7
370
    25
100
AcDbLine
 10
197.8185511364
 20
177.06
 30
0.0
 11
198.0941193182
 21
176.0145454545
 31
0.0
  0
LINE
  5
1CB
330
1F
100
AcDbEntity
  8
0
  6
Continuous
 62
     7
370
    25
100
AcDbLine
 10
197.4854545455
 20
177.06
 30
0.0
 11
197.8185511364
 21
177.06
 31
0.0
  0
LINE
  5
1CC
330
1F
100
AcDbEntity
  8
0
  6
Continuous
 62
     7
370
    25
100
AcDbLine
 10
198.5010795455
 20
173.56
 30
0.0
 11
197.4854545455
 21
177.06
 31
0.0
  0
LINE
  5
1CD
330
1F
100
AcDbEntity
  8
0
  6
Continuous
 62
     7
370
    25
100
AcDbLine
 10
198.8355965909
 20
173.56
 30
0.0
 11
198.5010795455
 21
173.56
 31
0.0
  0
LINE
  5
1CE
330
1F
100
AcDbEntity
  8
0
  6
Continuous
 62
     7
370
    25
100
AcDbLine
 10
199.8036363636
 20
177.06
 30
0.0
 11
198.8355965909
 21
173.56
 31
0.0
  0
LINE
  5
1CF
330
1F
100
AcDbEntity
  8
0
  6
Continuous
 62
     7
370
    25
100
AcDbLine
 10
199.4698295455
 20
177.06
 30
0.0
 11
199.8036363636
 21
177.06
 31
0.0
  0
SPLINE
  5
1D0
330
1F
100
AcDbEntity
  8
0
  6
Continuous
 62
     7
370
    25
100
AcDbSpline
210
0.0
220
0.0
230
1.0
 70
     8
 71
     3
 72
    15
 73
    11
 74
     0
 42
0.000000001
 43
0.00000001
 40
0.0
 40
0.0
 40
0.0
 40
0.0
 40
0.12844688231054
 40
0.2509512281717685
 40
0.3695993612597401
 40
0.4873459931406922
 40
0.6075091423425184
 40
0.7314364510607464
 40
0.8612952611733194
 40
1.0
 40
1.0
 40
1.0
 40
1.0
 10
192.0593181818182
 20
175.2574431818182
 30
0.0
 10
192.0207662119042
 20
175.2781431754889
 30
0.0
 10
191.9454458613878
 20
175.3185854870604
 30
0.0
 10
191.8458679639598
 20
175.3963684305183
 30
0.0
 10
191.7614639375034
 20
175.4852138572366
 30
0.0
 10
191.6932481317628
 20
175.5861720075245
 30
0.0
 10
191.6406725858605
 20
175.6979439065377
 30
0.0
 10
191.6028723122448
 20
175.8197973526579
 30
0.0
 10
191.5808475160829
 20
175.9519615481127
 30
0.0
 10
191.5778907264516
 20
176.0433437178671
 30
0.0
 10
191.5763636363636
 20
176.0905397727273
 30
0.0
  0
SPLINE
  5
1D1
330
1F
100
AcDbEntity
  8
0
  6
Continuous
 62
     7
370
    25
100
AcDbSpline
210
0.0
220
0.0
230
1.0
 70
     8
 71
     3
 72
    15
 73
    11
 74
     0
 42
0.000000001
 43
0.00000001
 40
0.0
 40
0.0
 40
0.0
 40
0.0
 40
0.168224816682213
 40
0.3246971115483562
 40
0.4684230130816658
 40
0.5993115057484893
 40
0.7178407301013341
 40
0.8248710192981631
 40
0.9180531695307848
 40
1.0
 40
1.0
 40
1.0
 40
1.0
 10
192.6111647727273
 20
175.075625
 30
0.0
 10
192.5796215834665
 20
175.0839493270187
 30
0.0
 10
192.5187388751719
 20
175.1000164269381
 30
0.0
 10
192.4318167924291
 20
175.1263944606583
 30
0.0
 10
192.3512682843209
 20
175.1488153837051
 30
0.0
 10
192.2789660082326
 20
175.1730039677611
 30
0.0
 10
192.2131772065414
 20
175.1942704553072
 30
0.0
 10
192.1556370769449
 20
175.216853619556
 30
0.0
 10
192.1043606807145
 20
175.2360345565959
 30
0.0
 10
192.0736761644077
 20
175.2506188564424
 30
0.0
 10
192.0593181818182
 20
175.2574431818182
 30
0.0
  0
SPLINE
  5
1D2
330
1F
100
AcDbEntity
  8
0
  6
Continuous
 62
     7
370
    25
100
AcDbSpline
210
0.0
220
0.0
230
1.0
 70
     8
 71
     3
 72
    15
 73
    11
 74
     0
 42
0.000000001
 43
0.00000001
 40
0.0
 40
0.0
 40
0.0
 40
0.0
 40
0.0771004015863267
 40
0.1663775667591673
 40
0.2676842814794598
 40
0.3844615905691982
 40
0.5151148496494798
 40
0.6610947405362072
 40
0.8222347294061997
 40
1.0
 40
1.0
 40
1.0
 40
1.0
 10
193.1125852272727
 20
174.8419602272728
 30
0.0
 10
193.1029098440924
 20
174.8526530208486
 30
0.0
 10
193.0820310071748
 20
174.8757273621024
 30
0.0
 10
193.0424199864426
 20
174.9066452659409
 30
0.0
 10
192.9932123000986
 20
174.9362986238599
 30
0.0
 10
192.9352212054517
 20
174.9661178742221
 30
0.0
 10
192.8671637284001
 20
174.9939603012176
 30
0.0
 10
192.7905262909583
 20
175.0224792273893
 30
0.0
 10
192.7042626200895
 20
175.050195053603
 30
0.0
 10
192.643195947461
 20
175.0668755919354
 30
0.0
 10
192.6111647727273
 20
175.075625
 30
0.0
  0
SPLINE
  5
1D3
330
1F
100
AcDbEntity
  8
0
  6
Continuous
 62
     7
370
    25
100
AcDbSpline
210
0.0
220
0.0
230
1.0
 70
     8
 71
     3
 72
    11
 73
     7
 74
     0
 42
0.000000001
 43
0.00000001
 40
0.0
 40
0.0
 40
0.0
 40
0.0
 40
0.2887558057439027
 40
0.5477747969496816
 40
0.78151679057983
 40
1.0
 40
1.0
 40
1.0
 40
1.0
 10
193.2127272727272
 20
174.4854261363637
 30
0.0
 10
193.2115907341607
 20
174.5217468531902
 30
0.0
 10
193.2094347006885
 20
174.5906478861354
 30
0.0
 10
193.1910460553083
 20
174.6874229874962
 30
0.0
 10
193.1608229530113
 20
174.7724588641657
 30
0.0
 10
193.1282986624087
 20
174.8193201640375
 30
0.0
 10
193.1125852272727
 20
174.8419602272728
 30
0.0
  0
SPLINE
  5
1D4
330
1F
100
AcDbEntity
  8
0
  6
Continuous
 62
     7
370
    25
100
AcDbSpline
210
0.0
220
0.0
230
1.0
 70
     8
 71
     3
 72
    23
 73
    19
 74
     0
 42
0.000000001
 43
0.00000001
 40
0.0
 40
0.0
 40
0.0
 40
0.0
 40
0.0757464277983986
 40
0.1481248213654862
 40
0.2159176359181011
 40
0.2805255174643401
 40
0.3425893393403905
 40
0.4028312233486506
 40
0.4615987758002679
 40
0.5206046968589729
 40
0.579097924419131
 40
0.6372401393001597
 40
0.6944391982372642
 40
0.7519797775595617
 40
0.8114743177404167
 40
0.8717792746522146
 40
0.9349545526564584
 40
1.0
 40
1.0
 40
1.0
 40
1.0
 10
192.6154261363636
 20
173.9236363636364
 30
0.0
 10
192.6388911114065
 20
173.9238933903221
 30
0.0
 10
192.6847777008813
 20
173.9243960151061
 30
0.0
 10
192.7512059054146
 20
173.9327075288416
 30
0.0
 10
192.8135679333683
 20
173.9444011410571
 30
0.0
 10
192.8713990319705
 20
173.9615023979955
 30
0.0
 10
192.9250706885821
 20
173.9834571763606
 30
0.0
 10
192.9741410136274
 20
174.0107325367563
 30
0.0
 10
193.0197577691314
 20
174.0419251337277
 30
0.0
 10
193.059748245151
 20
174.0792501229093
 30
0.0
 10
193.0963581861251
 20
174.1195704879114
 30
0.0
 10
193.1273081038226
 20
174.163732365099
 30
0.0
 10
193.1540404592779
 20
174.2101971270594
 30
0.0
 10
193.1753636067678
 20
174.2598535051787
 30
0.0
 10
193.1923686456215
 20
174.3121329383176
 30
0.0
 10
193.2045232184878
 20
174.3675390250533
 30
0.0
 10
193.2116808285436
 20
174.4255753347976
 30
0.0
 10
193.2123750826409
 20
174.4652828173983
 30
0.0
 10
193.2127272727272
 20
174.4854261363637
 30
0.0
  0
SPLINE
  5
1D5
330
1F
100
AcDbEntity
  8
0
  6
Continuous
 62
     7
370
    25
100
AcDbSpline
210
0.0
220
0.0
230
1.0
 70
     8
 71
     3
 72
    23
 73
    19
 74
     0
 42
0.000000001
 43
0.00000001
 40
0.0
 40
0.0
 40
0.0
 40
0.0
 40
0.0804477882082802
 40
0.1567184202519699
 40
0.2276382366421015
 40
0.2952096785152912
 40
0.358185921929896
 40
0.4185551117576336
 40
0.4763070988559097
 40
0.5321475233053569
 40
0.5868560422685121
 40
0.6411170575345246
 40
0.695800343879395
 40
0.7519979995854887
 40
0.809698185808651
 40
0.8699567778300635
 40
0.9334749109575677
 40
1.0
 40
1.0
 40
1.0
 40
1.0
 10
191.9854545454545
 20
174.6054545454546
 30
0.0
 10
191.9879303972388
 20
174.577474123995
 30
0.0
 10
191.9927535451345
 20
174.5229661313355
 30
0.0
 10
192.0057962875601
 20
174.4445327413687
 30
0.0
 10
192.021679556801
 20
174.3712064762338
 30
0.0
 10
192.0430667550158
 20
174.3041172755215
 30
0.0
 10
192.0679674772594
 20
174.2422372783209
 30
0.0
 10
192.0969598320791
 20
174.1859387497248
 30
0.0
 10
192.1304585838485
 20
174.1351575421209
 30
0.0
 10
192.168224836473
 20
174.0899525682686
 30
0.0
 10
192.2106100827508
 20
174.050892768734
 30
0.0
 10
192.2561633441388
 20
174.0162217499841
 30
0.0
 10
192.3065036345986
 20
173.9878051080906
 30
0.0
 10
192.3606131687687
 20
173.9644950608488
 30
0.0
 10
192.4185449729595
 20
173.9456708899676
 30
0.0
 10
192.4807701898909
 20
173.9332982543918
 30
0.0
 10
192.546800893144
 20
173.9253143512956
 30
0.0
 10
192.5922011293033
 20
173.9242042490588
 30
0.0
 10
192.6154261363636
 20
173.9236363636364
 30
0.0
  0
LINE
  5
1D6
330
1F
100
AcDbEntity
  8
0
  6
Continuous
 62
     7
370
    25
100
AcDbLine
 10
191.6672727273
 20
174.56
 30
0.0
 11
191.9854545455
 21
174.6054545455
 31
0.0
  0
SPLINE
  5
1D7
330
1F
100
AcDbEntity
  8
0
  6
Continuous
 62
     7
370
    25
100
AcDbSpline
210
0.0
220
0.0
230
1.0
 70
     8
 71
     3
 72
    19
 73
    15
 74
     0
 42
0.000000001
 43
0.00000001
 40
0.0
 40
0.0
 40
0.0
 40
0.0
 40
0.0865775949512848
 40
0.1690725108249566
 40
0.2486833552258013
 40
0.3267938260044196
 40
0.4039221542924464
 40
0.4805132303931617
 40
0.5585181541663322
 40
0.6395967169939422
 40
0.7236708257947476
 40
0.8108232075359799
 40
0.9026065276165662
 40
1.0
 40
1.0
 40
1.0
 40
1.0
 10
192.6253693181818
 20
173.5145454545455
 30
0.0
 10
192.5793175131542
 20
173.5158719744706
 30
0.0
 10
192.4893855358518
 20
173.5184624605486
 30
0.0
 10
192.3591903320498
 20
173.5437728362606
 30
0.0
 10
192.2371098149246
 20
173.5821791459878
 30
0.0
 10
192.1249914797714
 20
173.6381321682221
 30
0.0
 10
192.023498640056
 20
173.7087006637797
 30
0.0
 10
191.9338112082056
 20
173.7936929925757
 30
0.0
 10
191.8555783461948
 20
173.8920020404251
 30
0.0
 10
191.7903441645666
 20
174.0040266329862
 30
0.0
 10
191.7387902424263
 20
174.1281602651376
 30
0.0
 10
191.7005140906862
 20
174.2628221151051
 30
0.0
 10
191.6753129002597
 20
174.4078400027097
 30
0.0
 10
191.6700052521081
 20
174.5082870614583
 30
0.0
 10
191.6672727272727
 20
174.56
 30
0.0
  0
SPLINE
  5
1D8
330
1F
100
AcDbEntity
  8
0
  6
Continuous
 62
     7
370
    25
100
AcDbSpline
210
0.0
220
0.0
230
1.0
 70
     8
 71
     3
 72
    23
 73
    19
 74
     0
 42
0.000000001
 43
0.00000001
 40
0.0
 40
0.0
 40
0.0
 40
0.0
 40
0.0693710964658217
 40
0.1363273747438203
 40
0.2007482635856186
 40
0.26307872125965
 40
0.3241699842583342
 40
0.3842746986192595
 40
0.4446128818247949
 40
0.5054040324133632
 40
0.5655885696712204
 40
0.6248042707666307
 40
0.6838498558897425
 40
0.7435270449451914
 40
0.8041600418760242
 40
0.8664464704951085
 40
0.931566225721727
 40
1.0
 40
1.0
 40
1.0
 40
1.0
 10
193.5309090909091
 20
174.4733522727273
 30
0.0
 10
193.5303804205704
 20
174.4389844829643
 30
0.0
 10
193.5293414829861
 20
174.3714452513127
 30
0.0
 10
193.5166360732
 20
174.2726754489969
 30
0.0
 10
193.4976125697065
 20
174.1786168970667
 30
0.0
 10
193.4717107127633
 20
174.0891037165741
 30
0.0
 10
193.4364325263639
 20
174.0051811779033
 30
0.0
 10
193.3943778745756
 20
173.925603233182
 30
0.0
 10
193.3444956702872
 20
173.8508196789521
 30
0.0
 10
193.287284639295
 20
173.7814132348227
 30
0.0
 10
193.2232754084042
 20
173.7190436004306
 30
0.0
 10
193.1541744802816
 20
173.6637067209157
 30
0.0
 10
193.0790262201512
 20
173.6172869515805
 30
0.0
 10
192.9984015458884
 20
173.5796414729681
 30
0.0
 10
192.9126647906797
 20
173.5503509154982
 30
0.0
 10
192.8216704348848
 20
173.5300665874288
 30
0.0
 10
192.725428308457
 20
173.5167785918357
 30
0.0
 10
192.6592695397638
 20
173.5153020467193
 30
0.0
 10
192.6253693181818
 20
173.5145454545455
 30
0.0
  0
SPLINE
  5
1D9
330
1F
100
AcDbEntity
  8
0
  6
Continuous
 62
     7
370
    25
100
AcDbSpline
210
0.0
220
0.0
230
1.0
 70
     8
 71
     3
 72
    23
 73
    19
 74
     0
 42
0.000000001
 43
0.00000001
 40
0.0
 40
0.0
 40
0.0
 40
0.0
 40
0.0665937809649134
 40
0.1296300901791006
 40
0.1904016394759171
 40
0.2488308065797646
 40
0.3069728175292957
 40
0.3653075481434117
 40
0.4257607325073122
 40
0.4885936730267221
 40
0.5248069070189696
 40
0.5683297976887679
 40
0.620078522267212
 40
0.6804534838021147
 40
0.7477414589828887
 40
0.8237470338929971
 40
0.9080929728108434
 40
1.0
 40
1.0
 40
1.0
 40
1.0
 10
191.8945454545454
 20
176.0969318181818
 30
0.0
 10
191.8950402835776
 20
176.0717759673085
 30
0.0
 10
191.8960035076375
 20
176.0228081031927
 30
0.0
 10
191.9089203664952
 20
175.9519048084423
 30
0.0
 10
191.9275090743083
 20
175.8855965168134
 30
0.0
 10
191.9547486918091
 20
175.8241591948812
 30
0.0
 10
191.9908257503838
 20
175.7686726675442
 30
0.0
 10
192.0337858925007
 20
175.7173188503991
 30
0.0
 10
192.0854213816963
 20
175.6719399099897
 30
0.0
 10
192.1353507920735
 20
175.6380168610199
 30
0.0
 10
192.1830623633881
 20
175.6130897019528
 30
0.0
 10
192.2282709320272
 20
175.59265687126
 30
0.0
 10
192.2823250786097
 20
175.5696884560913
 30
0.0
 10
192.3458295208848
 20
175.5462345541387
 30
0.0
 10
192.4181089011491
 20
175.5201634371156
 30
0.0
 10
192.4998095936757
 20
175.4936777551937
 30
0.0
 10
192.5903600024413
 20
175.4644042729835
 30
0.0
 10
192.6539829398124
 20
175.4450777870829
 30
0.0
 10
192.6871590909091
 20
175.435
 30
0.0
  0
SPLINE
  5
1DA
330
1F
100
AcDbEntity
  8
0
  6
Continuous
 62
     7
370
    25
100
AcDbSpline
210
0.0
220
0.0
230
1.0
 70
     8
 71
     3
 72
    23
 73
    19
 74
     0
 42
0.000000001
 43
0.00000001
 40
0.0
 40
0.0
 40
0.0
 40
0.0
 40
0.0750222036375238
 40
0.1454315668675442
 40
0.2130639118137926
 40
0.2778946462649218
 40
0.3403423292469216
 40
0.4004015265856889
 40
0.4604140232373362
 40
0.5201242094585483
 40
0.5792466953593345
 40
0.6369378121232346
 40
0.6942432680149923
 40
0.7520932165419401
 40
0.811700866592102
 40
0.8716411178864529
 40
0.9342518499265964
 40
1.0
 40
1.0
 40
1.0
 40
1.0
 10
192.5394318181818
 20
176.6963636363637
 30
0.0
 10
192.5145494924424
 20
176.6958138246436
 30
0.0
 10
192.4663147640003
 20
176.6947480071115
 30
0.0
 10
192.3960511954047
 20
176.6866269939695
 30
0.0
 10
192.3298280190078
 20
176.6743135376463
 30
0.0
 10
192.2678465707193
 20
176.65561201276
 30
0.0
 10
192.2101228543888
 20
176.6324001263132
 30
0.0
 10
192.1567475624317
 20
176.6035844683468
 30
0.0
 10
192.1077374185041
 20
176.5694351832432
 30
0.0
 10
192.0629591577243
 20
176.5303804408915
 30
0.0
 10
192.0232779583553
 20
176.4871735477575
 30
0.0
 10
191.9890869261292
 20
176.4405586870257
 30
0.0
 10
191.9593544022909
 20
176.3913949175348
 30
0.0
 10
191.9363307506348
 20
176.3381077981573
 30
0.0
 10
191.9166756422064
 20
176.2825563272588
 30
0.0
 10
191.9042796768337
 20
176.2233116268413
 30
0.0
 10
191.8962024426093
 20
176.1613140606969
 30
0.0
 10
191.8951067113874
 20
176.1187394430538
 30
0.0
 10
191.8945454545454
 20
176.0969318181818
 30
0.0
  0
SPLINE
  5
1DB
330
1F
100
AcDbEntity
  8
0
  6
Continuous
 62
     7
370
    25
100
AcDbSpline
210
0.0
220
0.0
230
1.0
 70
     8
 71
     3
 72
    19
 73
    15
 74
     0
 42
0.000000001
 43
0.00000001
 40
0.0
 40
0.0
 40
0.0
 40
0.0
 40
0.1115386988604593
 40
0.2111858982479931
 40
0.3000555850404654
 40
0.3790407121108807
 40
0.4533673303775997
 40
0.5273876160435247
 40
0.6022090806920061
 40
0.6792044111390656
 40
0.757657287355297
 40
0.8361101635715309
 40
0.9163904141621703
 40
1.0
 40
1.0
 40
1.0
 40
1.0
 10
193.3036363636363
 20
175.8781818181818
 30
0.0
 10
193.2986687746772
 20
175.9244428370515
 30
0.0
 10
193.289263207397
 20
176.0120328387611
 30
0.0
 10
193.2649859000823
 20
176.135011130395
 30
0.0
 10
193.2312505337713
 20
176.2416352223333
 30
0.0
 10
193.1885512343262
 20
176.3334517634119
 30
0.0
 10
193.1373457849422
 20
176.4136598966276
 30
0.0
 10
193.075306814168
 20
176.4834384050006
 30
0.0
 10
193.0045713680664
 20
176.5459966382434
 30
0.0
 10
192.9241310225175
 20
176.5989815055749
 30
0.0
 10
192.8364396638932
 20
176.6422877188563
 30
0.0
 10
192.7424190501379
 20
176.6739152418348
 30
0.0
 10
192.642688043079
 20
176.6926935851693
 30
0.0
 10
192.5743135569744
 20
176.6951238295894
 30
0.0
 10
192.5394318181818
 20
176.6963636363637
 30
0.0
  0
LINE
  5
1DC
330
1F
100
AcDbEntity
  8
0
  6
Continuous
 62
     7
370
    25
100
AcDbLine
 10
193.6218181818
 20
175.9236363636
 30
0.0
 11
193.3036363636
 21
175.8781818182
 31
0.0
  0
SPLINE
  5
1DD
330
1F
100
AcDbEntity
  8
0
  6
Continuous
 62
     7
370
    25
100
AcDbSpline
210
0.0
220
0.0
230
1.0
 70
     8
 71
     3
 72
    23
 73
    19
 74
     0
 42
0.000000001
 43
0.00000001
 40
0.0
 40
0.0
 40
0.0
 40
0.0
 40
0.0654269295587576
 40
0.1277715422625292
 40
0.1876132577745469
 40
0.245982018285567
 40
0.3035615681224865
 40
0.3609421192559333
 40
0.4184609369781225
 40
0.4773661465012357
 40
0.537186619889665
 40
0.5974410600249315
 40
0.6585814788279106
 40
0.7215687515434952
 40
0.786776779980819
 40
0.8543149312294046
 40
0.9253587099778985
 40
1.0
 40
1.0
 40
1.0
 40
1.0
 10
192.5678409090909
 20
177.1054545454546
 30
0.0
 10
192.6067169561818
 20
177.1045494694562
 30
0.0
 10
192.682637567578
 20
177.1027819563395
 30
0.0
 10
192.7932706888853
 20
177.0875510975487
 30
0.0
 10
192.8977936968668
 20
177.0627917011876
 30
0.0
 10
192.9963678241037
 20
177.0277793246144
 30
0.0
 10
193.0894183248147
 20
176.9831519811435
 30
0.0
 10
193.1755076755922
 20
176.9271651513703
 30
0.0
 10
193.255807312041
 20
176.861995917394
 30
0.0
 10
193.3295043698923
 20
176.7873567060587
 30
0.0
 10
193.3961539922408
 20
176.7043213921561
 30
0.0
 10
193.4548377208735
 20
176.6138229936818
 30
0.0
 10
193.503654941357
 20
176.5155878359809
 30
0.0
 10
193.5451315318138
 20
176.4109042392278
 30
0.0
 10
193.5774976141702
 20
176.2990809010255
 30
0.0
 10
193.6019141847586
 20
176.1803944344333
 30
0.0
 10
193.6164934788627
 20
176.0544196138537
 30
0.0
 10
193.6200143000686
 20
175.9679425944614
 30
0.0
 10
193.6218181818182
 20
175.9236363636364
 30
0.0
  0
SPLINE
  5
1DE
330
1F
100
AcDbEntity
  8
0
  6
Continuous
 62
     7
370
    25
100
AcDbSpline
210
0.0
220
0.0
230
1.0
 70
     8
 71
     3
 72
    15
 73
    11
 74
     0
 42
0.000000001
 43
0.00000001
 40
0.0
 40
0.0
 40
0.0
 40
0.0
 40
0.1242932805988097
 40
0.2441976065026626
 40
0.3621020961546613
 40
0.4804622735820421
 40
0.6015356061300534
 40
0.7271826864019549
 40
0.8593297437366231
 40
1.0
 40
1.0
 40
1.0
 40
1.0
 10
187.5763636363636
 20
177.1054545454546
 30
0.0
 10
187.6226435945975
 20
177.1038644995825
 30
0.0
 10
187.7135693065532
 20
177.1007405543917
 30
0.0
 10
187.846418280462
 20
177.0746295820488
 30
0.0
 10
187.9717765942704
 20
177.0305552072355
 30
0.0
 10
188.0910089466008
 20
176.9707169823465
 30
0.0
 10
188.202428491865
 20
176.8921695528906
 30
0.0
 10
188.3065797516745
 20
176.7967056398099
 30
0.0
 10
188.4039718644048
 20
176.6843461278791
 30
0.0
 10
188.4605454149377
 20
176.5999600650552
 30
0.0
 10
188.4897159090909
 20
176.5564488636364
 30
0.0
  0
SPLINE
  5
1DF
330
1F
100
AcDbEntity
  8
0
  6
Continuous
 62
     7
370
    25
100
AcDbSpline
210
0.0
220
0.0
230
1.0
 70
     8
 71
     3
 72
    15
 73
    11
 74
     0
 42
0.000000001
 43
0.00000001
 40
0.0
 40
0.0
 40
0.0
 40
0.0
 40
0.1394697222340732
 40
0.2714440392482553
 40
0.3970670061204193
 40
0.51826643510855
 40
0.6366686768362164
 40
0.7547356293976168
 40
0.8750956945676509
 40
1.0
 40
1.0
 40
1.0
 40
1.0
 10
186.6651420454545
 20
176.5706534090909
 30
0.0
 10
186.6942905259415
 20
176.6130250546745
 30
0.0
 10
186.7510209843851
 20
176.6954912017534
 30
0.0
 10
186.8492625949567
 20
176.804403517286
 30
0.0
 10
186.953112873927
 20
176.8980664031184
 30
0.0
 10
187.064721595346
 20
176.9740216301668
 30
0.0
 10
187.183089108657
 20
177.0328195745857
 30
0.0
 10
187.3079086151738
 20
177.0752030631338
 30
0.0
 10
187.4399197072402
 20
177.1006052842298
 30
0.0
 10
187.5303239920042
 20
177.1038182816528
 30
0.0
 10
187.5763636363636
 20
177.1054545454546
 30
0.0
  0
SPLINE
  5
1E0
330
1F
100
AcDbEntity
  8
0
  6
Continuous
 62
     7
370
    25
100
AcDbSpline
210
0.0
220
0.0
230
1.0
 70
     8
 71
     3
 72
    15
 73
    11
 74
     0
 42
0.000000001
 43
0.00000001
 40
0.0
 40
0.0
 40
0.0
 40
0.0
 40
0.1432681464111842
 40
0.2804711964080589
 40
0.411550242689976
 40
0.5374730003684051
 40
0.6585546162302278
 40
0.7751958344968026
 40
0.8890505039341897
 40
1.0
 40
1.0
 40
1.0
 40
1.0
 10
186.3490909090909
 20
175.3135511363637
 30
0.0
 10
186.35001235231
 20
175.3763167667019
 30
0.0
 10
186.3518162304823
 20
175.4991909147608
 30
0.0
 10
186.3668758371894
 20
175.6790033013674
 30
0.0
 10
186.391847757747
 20
175.8499444853248
 30
0.0
 10
186.4251909578753
 20
176.0123281760857
 30
0.0
 10
186.4703362880992
 20
176.1652697348114
 30
0.0
 10
186.5241473955097
 20
176.3096971061644
 30
0.0
 10
186.5884042086737
 20
176.4450925796085
 30
0.0
 10
186.6397840961764
 20
176.529161945702
 30
0.0
 10
186.6651420454545
 20
176.5706534090909
 30
0.0
  0
SPLINE
  5
1E1
330
1F
100
AcDbEntity
  8
0
  6
Continuous
 62
     7
370
    25
100
AcDbSpline
210
0.0
220
0.0
230
1.0
 70
     8
 71
     3
 72
    31
 73
    27
 74
     0
 42
0.000000001
 43
0.00000001
 40
0.0
 40
0.0
 40
0.0
 40
0.0
 40
0.0346106073731405
 40
0.0688507703645527
 40
0.1026440893565838
 40
0.1362986261647411
 40
0.1702567235791166
 40
0.2045933114684091
 40
0.2394215822067719
 40
0.2751925605013177
 40
0.3116260095862323
 40
0.3485127347950802
 40
0.3862828791584565
 40
0.4249662291362312
 40
0.4648734148785783
 40
0.5058382372382696
 40
0.548431022659545
 40
0.59279745062205
 40
0.6384150381181913
 40
0.685599289184363
 40
0.7338596464824882
 40
0.7836888862914249
 40
0.8349554106805397
 40
0.8882586071008145
 40
0.9431367460011159
 40
0.9999999999999999
 40
0.9999999999999999
 40
0.9999999999999999
 40
0.9999999999999999
 10
187.5742329545454
 20
173.5145454545455
 30
0.0
 10
187.5462666442633
 20
173.5152676546607
 30
0.0
 10
187.4906333528155
 20
173.5167043250362
 30
0.0
 10
187.408237572338
 20
173.5270143830774
 30
0.0
 10
187.3275587023015
 20
173.5430143142309
 30
0.0
 10
187.2491129906746
 20
173.5669885206745
 30
0.0
 10
187.1721413828468
 20
173.5965425862727
 30
0.0
 10
187.0975046586267
 20
173.6338218367665
 30
0.0
 10
187.0247579184877
 20
173.6774800764336
 30
0.0
 10
186.953834553404
 20
173.7270557356942
 30
0.0
 10
186.8854946277371
 20
173.7829081234229
 30
0.0
 10
186.8217585466622
 20
173.8461996509395
 30
0.0
 10
186.7601340319527
 20
173.9140394971739
 30
0.0
 10
186.7037418310072
 20
173.9893651945049
 30
0.0
 10
186.649442147327
 20
174.0692977115386
 30
0.0
 10
186.5997304779614
 20
174.1558713357129
 30
0.0
 10
186.5535460379909
 20
174.2483785608075
 30
0.0
 10
186.511213408791
 20
174.3468180068646
 30
0.0
 10
186.4726209960495
 20
174.4507521442522
 30
0.0
 10
186.4394070303277
 20
174.5598366963239
 30
0.0
 10
186.4117396321067
 20
174.6739546010423
 30
0.0
 10
186.3894147456743
 20
174.7925621662998
 30
0.0
 10
186.3704506501286
 20
174.9158867009097
 30
0.0
 10
186.3579549585022
 20
175.0441542039769
 30
0.0
 10
186.351026470569
 20
175.1773469130557
 30
0.0
 10
186.3497436925461
 20
175.267615182117
 30
0.0
 10
186.3490909090909
 20
175.3135511363637
 30
0.0
  0
SPLINE
  5
1E2
330
1F
100
AcDbEntity
  8
0
  6
Continuous
 62
     7
370
    25
100
AcDbSpline
210
0.0
220
0.0
230
1.0
 70
     8
 71
     3
 72
    23
 73
    19
 74
     0
 42
0.000000001
 43
0.00000001
 40
0.0
 40
0.0
 40
0.0
 40
0.0
 40
0.0871129335663631
 40
0.1695750657123377
 40
0.247125494884861
 40
0.3203519332033725
 40
0.3899979855710966
 40
0.4559088171547077
 40
0.5190233411238216
 40
0.5798445404000914
 40
0.6380622781156962
 40
0.6933405345429068
 40
0.7460800388807993
 40
0.7971995082749449
 40
0.8473425891371631
 40
0.8973371953428839
 40
0.9479010371482658
 40
0.9999999999999999
 40
0.9999999999999999
 40
0.9999999999999999
 40
0.9999999999999999
 10
188.8036363636363
 20
175.3561647727273
 30
0.0
 10
188.8025302477175
 20
175.2844023981089
 30
0.0
 10
188.8003770694013
 20
175.1447089118101
 30
0.0
 10
188.7841875744196
 20
174.9416178966735
 30
0.0
 10
188.7565781845188
 20
174.7513633121712
 30
0.0
 10
188.718627402689
 20
174.5736297963775
 30
0.0
 10
188.6690914885797
 20
174.4087352001601
 30
0.0
 10
188.6088904478263
 20
174.2563005033924
 30
0.0
 10
188.53692800737
 20
174.1171635455284
 30
0.0
 10
188.4547975574662
 20
173.9912328597094
 30
0.0
 10
188.3635227246627
 20
173.8801154371414
 30
0.0
 10
188.2679680223429
 20
173.7817235641932
 30
0.0
 10
188.165609112166
 20
173.6992352044589
 30
0.0
 10
188.0576071670207
 20
173.6322293868671
 30
0.0
 10
187.9447582337573
 20
173.5784866603475
 30
0.0
 10
187.8257437428234
 20
173.5421844581695
 30
0.0
 10
187.7018688287486
 20
173.5180226405197
 30
0.0
 10
187.6172002634337
 20
173.5157160135654
 30
0.0
 10
187.5742329545454
 20
173.5145454545455
 30
0.0
  0
SPLINE
  5
1E3
330
1F
100
AcDbEntity
  8
0
  6
Continuous
 62
     7
370
    25
100
AcDbSpline
210
0.0
220
0.0
230
1.0
 70
     8
 71
     3
 72
    15
 73
    11
 74
     0
 42
0.000000001
 43
0.00000001
 40
0.0
 40
0.0
 40
0.0
 40
0.0
 40
0.1174320155698736
 40
0.2349305867975003
 40
0.3547353147139759
 40
0.4764229971975756
 40
0.6014157797204307
 40
0.7299590806802116
 40
0.8626746788056003
 40
1.0
 40
1.0
 40
1.0
 40
1.0
 10
188.4897159090909
 20
176.5564488636364
 30
0.0
 10
188.515094119046
 20
176.5142483554062
 30
0.0
 10
188.5658649222866
 20
176.429823421426
 30
0.0
 10
188.6288025078188
 20
176.2948554018491
 30
0.0
 10
188.6826002458369
 20
176.1542721110322
 30
0.0
 10
188.7279572505907
 20
176.0073672240925
 30
0.0
 10
188.7616639868944
 20
175.8535924824313
 30
0.0
 10
188.7854374215813
 20
175.6933974892139
 30
0.0
 10
188.8009538534789
 20
175.526923421807
 30
0.0
 10
188.8027320752287
 20
175.4137284193908
 30
0.0
 10
188.8036363636363
 20
175.3561647727273
 30
0.0
  0
SPLINE
  5
1E4
330
1F
100
AcDbEntity
  8
0
  6
Continuous
 62
     7
370
    25
100
AcDbSpline
210
0.0
220
0.0
230
1.0
 70
     8
 71
     3
 72
    15
 73
    11
 74
     0
 42
0.000000001
 43
0.00000001
 40
0.0
 40
0.0
 40
0.0
 40
0.0
 40
0.1242932805988097
 40
0.2441976065026626
 40
0.3621020961546613
 40
0.4804622735820421
 40
0.6015356061300534
 40
0.7271826864019549
 40
0.8593297437366231
 40
1.0
 40
1.0
 40
1.0
 40
1.0
 10
182.3490909090909
 20
177.1054545454546
 30
0.0
 10
182.3953708673248
 20
177.1038644995825
 30
0.0
 10
182.4862965792805
 20
177.1007405543917
 30
0.0
 10
182.6191455531892
 20
177.0746295820488
 30
0.0
 10
182.7445038669976
 20
177.0305552072355
 30
0.0
 10
182.863736219328
 20
176.9707169823465
 30
0.0
 10
182.9751557645922
 20
176.8921695528906
 30
0.0
 10
183.0793070244018
 20
176.7967056398099
 30
0.0
 10
183.1766991371321
 20
176.6843461278791
 30
0.0
 10
183.233272687665
 20
176.5999600650552
 30
0.0
 10
183.2624431818182
 20
176.5564488636364
 30
0.0
  0
SPLINE
  5
1E5
330
1F
100
AcDbEntity
  8
0
  6
Continuous
 62
     7
370
    25
100
AcDbSpline
210
0.0
220
0.0
230
1.0
 70
     8
 71
     3
 72
    15
 73
    11
 74
     0
 42
0.000000001
 43
0.00000001
 40
0.0
 40
0.0
 40
0.0
 40
0.0
 40
0.1394697222340732
 40
0.2714440392482553
 40
0.3970670061204193
 40
0.51826643510855
 40
0.6366686768362164
 40
0.7547356293976168
 40
0.8750956945676509
 40
1.0
 40
1.0
 40
1.0
 40
1.0
 10
181.4378693181818
 20
176.5706534090909
 30
0.0
 10
181.4670177986688
 20
176.6130250546745
 30
0.0
 10
181.5237482571123
 20
176.6954912017534
 30
0.0
 10
181.621989867684
 20
176.804403517286
 30
0.0
 10
181.7258401466542
 20
176.8980664031184
 30
0.0
 10
181.8374488680732
 20
176.9740216301668
 30
0.0
 10
181.9558163813843
 20
177.0328195745857
 30
0.0
 10
182.0806358879011
 20
177.0752030631338
 30
0.0
 10
182.2126469799675
 20
177.1006052842298
 30
0.0
 10
182.3030512647315
 20
177.1038182816528
 30
0.0
 10
182.3490909090909
 20
177.1054545454546
 30
0.0
  0
SPLINE
  5
1E6
330
1F
100
AcDbEntity
  8
0
  6
Continuous
 62
     7
370
    25
100
AcDbSpline
210
0.0
220
0.0
230
1.0
 70
     8
 71
     3
 72
    15
 73
    11
 74
     0
 42
0.000000001
 43
0.00000001
 40
0.0
 40
0.0
 40
0.0
 40
0.0
 40
0.1432681464111842
 40
0.2804711964080589
 40
0.411550242689976
 40
0.5374730003684051
 40
0.6585546162302278
 40
0.7751958344968026
 40
0.8890505039341897
 40
1.0
 40
1.0
 40
1.0
 40
1.0
 10
181.1218181818182
 20
175.3135511363637
 30
0.0
 10
181.1227396250373
 20
175.3763167667019
 30
0.0
 10
181.1245435032095
 20
175.4991909147608
 30
0.0
 10
181.1396031099166
 20
175.6790033013674
 30
0.0
 10
181.1645750304743
 20
175.8499444853248
 30
0.0
 10
181.1979182306025
 20
176.0123281760857
 30
0.0
 10
181.2430635608265
 20
176.1652697348114
 30
0.0
 10
181.296874668237
 20
176.3096971061644
 30
0.0
 10
181.361131481401
 20
176.4450925796085
 30
0.0
 10
181.4125113689037
 20
176.529161945702
 30
0.0
 10
181.4378693181818
 20
176.5706534090909
 30
0.0
  0
SPLINE
  5
1E7
330
1F
100
AcDbEntity
  8
0
  6
Continuous
 62
     7
370
    25
100
AcDbSpline
210
0.0
220
0.0
230
1.0
 70
     8
 71
     3
 72
    31
 73
    27
 74
     0
 42
0.000000001
 43
0.00000001
 40
0.0
 40
0.0
 40
0.0
 40
0.0
 40
0.0346106073731405
 40
0.0688507703645527
 40
0.1026440893565838
 40
0.1362986261647411
 40
0.1702567235791166
 40
0.2045933114684091
 40
0.2394215822067719
 40
0.2751925605013177
 40
0.3116260095862323
 40
0.3485127347950802
 40
0.3862828791584565
 40
0.4249662291362312
 40
0.4648734148785783
 40
0.5058382372382696
 40
0.548431022659545
 40
0.59279745062205
 40
0.6384150381181913
 40
0.685599289184363
 40
0.7338596464824882
 40
0.7836888862914249
 40
0.8349554106805397
 40
0.8882586071008145
 40
0.9431367460011159
 40
0.9999999999999999
 40
0.9999999999999999
 40
0.9999999999999999
 40
0.9999999999999999
 10
182.3469602272727
 20
173.5145454545455
 30
0.0
 10
182.3189939169906
 20
173.5152676546607
 30
0.0
 10
182.2633606255427
 20
173.5167043250362
 30
0.0
 10
182.1809648450653
 20
173.5270143830774
 30
0.0
 10
182.1002859750288
 20
173.5430143142309
 30
0.0
 10
182.0218402634019
 20
173.5669885206745
 30
0.0
 10
181.9448686555741
 20
173.5965425862727
 30
0.0
 10
181.870231931354
 20
173.6338218367665
 30
0.0
 10
181.7974851912149
 20
173.6774800764336
 30
0.0
 10
181.7265618261313
 20
173.7270557356942
 30
0.0
 10
181.6582219004644
 20
173.7829081234229
 30
0.0
 10
181.5944858193894
 20
173.8461996509395
 30
0.0
 10
181.53286130468
 20
173.9140394971739
 30
0.0
 10
181.4764691037344
 20
173.9893651945049
 30
0.0
 10
181.4221694200542
 20
174.0692977115386
 30
0.0
 10
181.3724577506887
 20
174.1558713357129
 30
0.0
 10
181.3262733107182
 20
174.2483785608075
 30
0.0
 10
181.2839406815183
 20
174.3468180068646
 30
0.0
 10
181.2453482687767
 20
174.4507521442522
 30
0.0
 10
181.212134303055
 20
174.5598366963239
 30
0.0
 10
181.184466904834
 20
174.6739546010423
 30
0.0
 10
181.1621420184015
 20
174.7925621662998
 30
0.0
 10
181.1431779228558
 20
174.9158867009097
 30
0.0
 10
181.1306822312295
 20
175.0441542039769
 30
0.0
 10
181.1237537432962
 20
175.1773469130557
 30
0.0
 10
181.1224709652734
 20
175.267615182117
 30
0.0
 10
181.1218181818182
 20
175.3135511363637
 30
0.0
  0
SPLINE
  5
1E8
330
1F
100
AcDbEntity
  8
0
  6
Continuous
 62
     7
370
    25
100
AcDbSpline
210
0.0
220
0.0
230
1.0
 70
     8
 71
     3
 72
    23
 73
    19
 74
     0
 42
0.000000001
 43
0.00000001
 40
0.0
 40
0.0
 40
0.0
 40
0.0
 40
0.0871129335663631
 40
0.1695750657123377
 40
0.247125494884861
 40
0.3203519332033725
 40
0.3899979855710966
 40
0.4559088171547077
 40
0.5190233411238216
 40
0.5798445404000914
 40
0.6380622781156962
 40
0.6933405345429068
 40
0.7460800388807993
 40
0.7971995082749449
 40
0.8473425891371631
 40
0.8973371953428839
 40
0.9479010371482658
 40
0.9999999999999999
 40
0.9999999999999999
 40
0.9999999999999999
 40
0.9999999999999999
 10
183.5763636363636
 20
175.3561647727273
 30
0.0
 10
183.5752575204448
 20
175.2844023981089
 30
0.0
 10
183.5731043421286
 20
175.1447089118101
 30
0.0
 10
183.5569148471468
 20
174.9416178966735
 30
0.0
 10
183.5293054572461
 20
174.7513633121712
 30
0.0
 10
183.4913546754163
 20
174.5736297963775
 30
0.0
 10
183.441818761307
 20
174.4087352001601
 30
0.0
 10
183.3816177205536
 20
174.2563005033924
 30
0.0
 10
183.3096552800972
 20
174.1171635455284
 30
0.0
 10
183.2275248301934
 20
173.9912328597094
 30
0.0
 10
183.13624999739
 20
173.8801154371414
 30
0.0
 10
183.0406952950702
 20
173.7817235641932
 30
0.0
 10
182.9383363848933
 20
173.6992352044589
 30
0.0
 10
182.830334439748
 20
173.6322293868671
 30
0.0
 10
182.7174855064845
 20
173.5784866603475
 30
0.0
 10
182.5984710155507
 20
173.5421844581695
 30
0.0
 10
182.4745961014758
 20
173.5180226405197
 30
0.0
 10
182.389927536161
 20
173.5157160135654
 30
0.0
 10
182.3469602272727
 20
173.5145454545455
 30
0.0
  0
SPLINE
  5
1E9
330
1F
100
AcDbEntity
  8
0
  6
Continuous
 62
     7
370
    25
100
AcDbSpline
210
0.0
220
0.0
230
1.0
 70
     8
 71
     3
 72
    15
 73
    11
 74
     0
 42
0.000000001
 43
0.00000001
 40
0.0
 40
0.0
 40
0.0
 40
0.0
 40
0.1174320155698736
 40
0.2349305867975003
 40
0.3547353147139759
 40
0.4764229971975756
 40
0.6014157797204307
 40
0.7299590806802116
 40
0.8626746788056003
 40
1.0
 40
1.0
 40
1.0
 40
1.0
 10
183.2624431818182
 20
176.5564488636364
 30
0.0
 10
183.2878213917733
 20
176.5142483554062
 30
0.0
 10
183.3385921950138
 20
176.429823421426
 30
0.0
 10
183.4015297805461
 20
176.2948554018491
 30
0.0
 10
183.4553275185642
 20
176.1542721110322
 30
0.0
 10
183.5006845233179
 20
176.0073672240925
 30
0.0
 10
183.5343912596216
 20
175.8535924824313
 30
0.0
 10
183.5581646943085
 20
175.6933974892139
 30
0.0
 10
183.5736811262062
 20
175.526923421807
 30
0.0
 10
183.5754593479559
 20
175.4137284193908
 30
0.0
 10
183.5763636363636
 20
175.3561647727273
 30
0.0
  0
LINE
  5
1EA
330
1F
100
AcDbEntity
  8
0
  6
Continuous
 62
     7
370
    25
100
AcDbLine
 10
177.7404261364
 20
176.0145454545
 30
0.0
 11
178.0152840909
 21
177.06
 31
0.0
  0
LINE
  5
1EB
330
1F
100
AcDbEntity
  8
0
  6
Continuous
 62
     7
370
    25
100
AcDbLine
 10
176.6395738636
 20
176.0145454545
 30
0.0
 11
177.7404261364
 21
176.0145454545
 31
0.0
  0
LINE
  5
1EC
330
1F
100
AcDbEntity
  8
0
  6
Continuous
 62
     7
370
    25
100
AcDbLine
 10
176.3640056818
 20
177.06
 30
0.0
 11
176.6395738636
 21
176.0145454545
 31
0.0
  0
LINE
  5
1ED
330
1F
100
AcDbEntity
  8
0
  6
Continuous
 62
     7
370
    25
100
AcDbLine
 10
176.0309090909
 20
177.06
 30
0.0
 11
176.3640056818
 21
177.06
 31
0.0
  0
LINE
  5
1EE
330
1F
100
AcDbEntity
  8
0
  6
Continuous
 62
     7
370
    25
100
AcDbLine
 10
177.0465340909
 20
173.56
 30
0.0
 11
176.0309090909
 21
177.06
 31
0.0
  0
LINE
  5
1EF
330
1F
100
AcDbEntity
  8
0
  6
Continuous
 62
     7
370
    25
100
AcDbLine
 10
177.3810511364
 20
173.56
 30
0.0
 11
177.0465340909
 21
173.56
 31
0.0
  0
LINE
  5
1F0
330
1F
100
AcDbEntity
  8
0
  6
Continuous
 62
     7
370
    25
100
AcDbLine
 10
178.3490909091
 20
177.06
 30
0.0
 11
177.3810511364
 21
173.56
 31
0.0
  0
LINE
  5
1F1
330
1F
100
AcDbEntity
  8
0
  6
Continuous
 62
     7
370
    25
100
AcDbLine
 10
178.0152840909
 20
177.06
 30
0.0
 11
178.3490909091
 21
177.06
 31
0.0
  0
LINE
  5
1F2
330
1F
100
AcDbEntity
  8
0
  6
Continuous
 62
     7
370
    25
100
AcDbLine
 10
172.4854545455
 20
176.56
 30
0.0
 11
172.4854545455
 21
177.06
 31
0.0
  0
LINE
  5
1F3
330
1F
100
AcDbEntity
  8
0
  6
Continuous
 62
     7
370
    25
100
AcDbLine
 10
172.8036363636
 20
176.56
 30
0.0
 11
172.4854545455
 21
176.56
 31
0.0
  0
LINE
  5
1F4
330
1F
100
AcDbEntity
  8
0
  6
Continuous
 62
     7
370
    25
100
AcDbLine
 10
172.8036363636
 20
177.06
 30
0.0
 11
172.8036363636
 21
176.56
 31
0.0
  0
LINE
  5
1F5
330
1F
100
AcDbEntity
  8
0
  6
Continuous
 62
     7
370
    25
100
AcDbLine
 10
172.4854545455
 20
177.06
 30
0.0
 11
172.8036363636
 21
177.06
 31
0.0
  0
LINE
  5
1F6
330
1F
100
AcDbEntity
  8
0
  6
Continuous
 62
     7
370
    25
100
AcDbLine
 10
170.3036363636
 20
176.56
 30
0.0
 11
170.3036363636
 21
177.06
 31
0.0
  0
LINE
  5
1F7
330
1F
100
AcDbEntity
  8
0
  6
Continuous
 62
     7
370
    25
100
AcDbLine
 10
170.6218181818
 20
176.56
 30
0.0
 11
170.3036363636
 21
176.56
 31
0.0
  0
LINE
  5
1F8
330
1F
100
AcDbEntity
  8
0
  6
Continuous
 62
     7
370
    25
100
AcDbLine
 10
170.6218181818
 20
177.06
 30
0.0
 11
170.6218181818
 21
176.56
 31
0.0
  0
LINE
  5
1F9
330
1F
100
AcDbEntity
  8
0
  6
Continuous
 62
     7
370
    25
100
AcDbLine
 10
170.3036363636
 20
177.06
 30
0.0
 11
170.6218181818
 21
177.06
 31
0.0
  0
SPLINE
  5
1FA
330
1F
100
AcDbEntity
  8
0
  6
Continuous
 62
     7
370
    25
100
AcDbSpline
210
0.0
220
0.0
230
1.0
 70
     8
 71
     3
 72
    23
 73
    19
 74
     0
 42
0.000000001
 43
0.00000001
 40
0.0
 40
0.0
 40
0.0
 40
0.0
 40
0.0994431688498003
 40
0.1913077015538615
 40
0.2757215482566735
 40
0.3534769429097848
 40
0.4244929843969387
 40
0.4889624360411827
 40
0.5481480844568272
 40
0.6021993962054101
 40
0.653127930654244
 40
0.7024715583656395
 40
0.7502734845581455
 40
0.7980754107506539
 40
0.8461052506998795
 40
0.8953476000127792
 40
0.9461124950813907
 40
1.0
 40
1.0
 40
1.0
 40
1.0
 10
200.1218181818182
 20
175.9357102272728
 30
0.0
 10
200.1222245679166
 20
175.9873386025115
 30
0.0
 10
200.1230063691337
 20
176.086660717003
 30
0.0
 10
200.132783560917
 20
176.2295118979552
 30
0.0
 10
200.1462717313984
 20
176.3607199791943
 30
0.0
 10
200.1664611164282
 20
176.4801951138141
 30
0.0
 10
200.1935740826174
 20
176.5876011132837
 30
0.0
 10
200.2249957572474
 20
176.6837776432382
 30
0.0
 10
200.2631610150405
 20
176.7679889924607
 30
0.0
 10
200.3076023146957
 20
176.8409808712261
 30
0.0
 10
200.3581448867001
 20
176.9033897152258
 30
0.0
 10
200.4128252199458
 20
176.9575989854462
 30
0.0
 10
200.4723498320724
 20
177.00403399681
 30
0.0
 10
200.5375298481731
 20
177.0406587922929
 30
0.0
 10
200.6069224602361
 20
177.0703663730852
 30
0.0
 10
200.6812337207604
 20
177.0907221949667
 30
0.0
 10
200.7603743554087
 20
177.1030386192283
 30
0.0
 10
200.8147168716913
 20
177.1046333753115
 30
0.0
 10
200.8426988636364
 20
177.1054545454546
 30
0.0
  0
SPLINE
  5
1FB
330
1F
100
AcDbEntity
  8
0
  6
Continuous
 62
     7
370
    25
100
AcDbSpline
210
0.0
220
0.0
230
1.0
 70
     8
 71
     3
 72
    19
 73
    15
 74
     0
 42
0.000000001
 43
0.00000001
 40
0.0
 40
0.0
 40
0.0
 40
0.0
 40
0.0623640400735977
 40
0.125500756671968
 40
0.1911061941901558
 40
0.2605141750850601
 40
0.3340557159649622
 40
0.4115279921742319
 40
0.4938220724186503
 40
0.581291350593091
 40
0.6752318168145591
 40
0.7759740931165818
 40
0.88411878994016
 40
1.0
 40
1.0
 40
1.0
 40
1.0
 10
179.2723863636363
 20
173.6246306818182
 30
0.0
 10
179.235332265874
 20
173.6402812785259
 30
0.0
 10
179.1607649783559
 20
173.6717763793384
 30
0.0
 10
179.0582393871335
 20
173.7411607645031
 30
0.0
 10
178.9639983151795
 20
173.8275909310738
 30
0.0
 10
178.8771866095678
 20
173.9304881753276
 30
0.0
 10
178.7994578326494
 20
174.0495722307613
 30
0.0
 10
178.7307493137838
 20
174.1833555538691
 30
0.0
 10
178.6702114985611
 20
174.3307734593059
 30
0.0
 10
178.6200920245933
 20
174.4931551781993
 30
0.0
 10
178.5792892061941
 20
174.670356286326
 30
0.0
 10
178.5520834266168
 20
174.8635456980106
 30
0.0
 10
178.5335890649008
 20
175.0719513103039
 30
0.0
 10
178.5318227482396
 20
175.2162057839764
 30
0.0
 10
178.5309090909091
 20
175.2908238636364
 30
0.0
  0
SPLINE
  5
1FC
330
1F
100
AcDbEntity
  8
0
  6
Continuous
 62
     7
370
    25
100
AcDbSpline
210
0.0
220
0.0
230
1.0
 70
     8
 71
     3
 72
    19
 73
    15
 74
     0
 42
0.000000001
 43
0.00000001
 40
0.0
 40
0.0
 40
0.0
 40
0.0
 40
0.0886619328966461
 40
0.1748887269201075
 40
0.2591738099539858
 40
0.343006870624876
 40
0.4254833967761628
 40
0.5048291987789573
 40
0.581974595832819
 40
0.6598298721495326
 40
0.739221802174728
 40
0.8211192259217946
 40
0.9077844165653726
 40
1.0
 40
1.0
 40
1.0
 40
1.0
 10
191.5763636363636
 20
176.0905397727273
 30
0.0
 10
191.5778456222326
 20
176.1377431687368
 30
0.0
 10
191.5807688905788
 20
176.2308534987815
 30
0.0
 10
191.6045126434827
 20
176.3672515627242
 30
0.0
 10
191.6448645378443
 20
176.4967624680229
 30
0.0
 10
191.6991516304083
 20
176.6189487605305
 30
0.0
 10
191.7676478291586
 20
176.7307536770748
 30
0.0
 10
191.8481794856515
 20
176.8297141209102
 30
0.0
 10
191.9405547672652
 20
176.9141819872931
 30
0.0
 10
192.0442767672412
 20
176.9842375276221
 30
0.0
 10
192.1595121103009
 20
177.0394995030124
 30
0.0
 10
192.2863237055374
 20
177.0773294981189
 30
0.0
 10
192.4234615126666
 20
177.1014030010015
 30
0.0
 10
192.5187291084037
 20
177.1040763803661
 30
0.0
 10
192.5678409090909
 20
177.1054545454546
 30
0.0
  0
SPLINE
  5
1FD
330
1F
100
AcDbEntity
  8
0
  6
Continuous
 62
     7
370
    25
100
AcDbSpline
210
0.0
220
0.0
230
1.0
 70
     8
 71
     3
 72
    23
 73
    19
 74
     0
 42
0.000000001
 43
0.00000001
 40
0.0
 40
0.0
 40
0.0
 40
0.0
 40
0.0671079261495157
 40
0.1293963874838157
 40
0.1869096036358242
 40
0.2403683257358317
 40
0.2894097904625865
 40
0.3341423274745958
 40
0.374715153023926
 40
0.4113670673199499
 40
0.4803794914761907
 40
0.5490981687733082
 40
0.6192181813141168
 40
0.6907390952448603
 40
0.7641781433278066
 40
0.8396522635915785
 40
0.9181933187023926
 40
0.9999999999999999
 40
0.9999999999999999
 40
0.9999999999999999
 40
0.9999999999999999
 10
192.6871590909091
 20
175.435
 30
0.0
 10
192.7170387482958
 20
175.4256852067743
 30
0.0
 10
192.7746522068981
 20
175.4077245773415
 30
0.0
 10
192.8570659368102
 20
175.3792852485791
 30
0.0
 10
192.9327263401344
 20
175.3509066031054
 30
0.0
 10
193.0016426582075
 20
175.3221757886235
 30
0.0
 10
193.0632859274076
 20
175.2918888255198
 30
0.0
 10
193.1190627774128
 20
175.2633171529012
 30
0.0
 10
193.1676575542711
 20
175.2335955775336
 30
0.0
 10
193.2223135854339
 20
175.192708516544
 30
0.0
 10
193.2829283404622
 20
175.1381760780544
 30
0.0
 10
193.3466945002595
 20
175.0648847224131
 30
0.0
 10
193.4023548323035
 20
174.9837974213299
 30
0.0
 10
193.4483786537106
 20
174.894434598648
 30
0.0
 10
193.4857021649415
 20
174.7983837711041
 30
0.0
 10
193.5114421182369
 20
174.6952913785604
 30
0.0
 10
193.5286109990138
 20
174.5863800063859
 30
0.0
 10
193.5301327298043
 20
174.5115362706605
 30
0.0
 10
193.5309090909091
 20
174.4733522727273
 30
0.0
  0
SPLINE
  5
1FE
330
1F
100
AcDbEntity
  8
0
  6
Continuous
 62
     7
370
    25
100
AcDbSpline
210
0.0
220
0.0
230
1.0
 70
     8
 71
     3
 72
     9
 73
     5
 74
     0
 42
0.000000001
 43
0.00000001
 40
0.0
 40
0.0
 40
0.0
 40
0.0
 40
0.4981500763365782
 40
1.0
 40
1.0
 40
1.0
 40
1.0
 10
198.6445454545454
 20
173.9243465909091
 30
0.0
 10
198.6636610867696
 20
174.0355210932191
 30
0.0
 10
198.7020343263458
 20
174.2586958102191
 30
0.0
 10
198.7611733554738
 20
174.4772881082723
 30
0.0
 10
198.7908522727272
 20
174.5869886363637
 30
0.0
  0
SPLINE
  5
1FF
330
1F
100
AcDbEntity
  8
0
  6
Continuous
 62
     7
370
    25
100
AcDbSpline
210
0.0
220
0.0
230
1.0
 70
     8
 71
     3
 72
    15
 73
    11
 74
     0
 42
0.000000001
 43
0.00000001
 40
0.0
 40
0.0
 40
0.0
 40
0.0
 40
0.1510411693611073
 40
0.2946121881085221
 40
0.4302855204201309
 40
0.5596771982198175
 40
0.6809401468628637
 40
0.7940822557068427
 40
0.9011932675821683
 40
1.0
 40
1.0
 40
1.0
 40
1.0
 10
198.4655681818182
 20
174.6438068181818
 30
0.0
 10
198.475651338487
 20
174.6078595625335
 30
0.0
 10
198.4953189619688
 20
174.5377429202443
 30
0.0
 10
198.5217104273612
 20
174.4347098362369
 30
0.0
 10
198.5478343343107
 20
174.3371409294801
 30
0.0
 10
198.5709667864475
 20
174.2444929393707
 30
0.0
 10
198.5924153138993
 20
174.1571659485133
 30
0.0
 10
198.6114873656192
 20
174.0749360936512
 30
0.0
 10
198.629584363154
 20
173.9981702329044
 30
0.0
 10
198.6396943294578
 20
173.9482838634232
 30
0.0
 10
198.6445454545454
 20
173.9243465909091
 30
0.0
  0
LINE
  5
200
330
1F
100
AcDbEntity
  8
0
  6
Continuous
 62
     7
370
    25
100
AcDbLine
 10
198.2020738636
 20
175.6054545455
 30
0.0
 11
198.4655681818
 21
174.6438068182
 31
0.0
  0
LINE
  5
201
330
1F
100
AcDbEntity
  8
0
  6
Continuous
 62
     7
370
    25
100
AcDbLine
 10
199.0877272727
 20
175.6054545455
 30
0.0
 11
198.2020738636
 21
175.6054545455
 31
0.0
  0
LINE
  5
202
330
1F
100
AcDbEntity
  8
0
  6
Continuous
 62
     7
370
    25
100
AcDbLine
 10
198.7908522727
 20
174.5869886364
 30
0.0
 11
199.0877272727
 21
175.6054545455
 31
0.0
  0
SPLINE
  5
203
330
1F
100
AcDbEntity
  8
0
  6
Continuous
 62
     7
370
    25
100
AcDbSpline
210
0.0
220
0.0
230
1.0
 70
     8
 71
     3
 72
     9
 73
     5
 74
     0
 42
0.000000001
 43
0.00000001
 40
0.0
 40
0.0
 40
0.0
 40
0.0
 40
0.4981500763365782
 40
1.0
 40
1.0
 40
1.0
 40
1.0
 10
177.19
 20
173.9243465909091
 30
0.0
 10
177.2091156322242
 20
174.0355210932191
 30
0.0
 10
177.2474888718004
 20
174.2586958102191
 30
0.0
 10
177.3066279009284
 20
174.4772881082723
 30
0.0
 10
177.3363068181819
 20
174.5869886363637
 30
0.0
  0
SPLINE
  5
204
330
1F
100
AcDbEntity
  8
0
  6
Continuous
 62
     7
370
    25
100
AcDbSpline
210
0.0
220
0.0
230
1.0
 70
     8
 71
     3
 72
    15
 73
    11
 74
     0
 42
0.000000001
 43
0.00000001
 40
0.0
 40
0.0
 40
0.0
 40
0.0
 40
0.1510411693611073
 40
0.2946121881085221
 40
0.4302855204201309
 40
0.5596771982198175
 40
0.6809401468628637
 40
0.7940822557068427
 40
0.9011932675821683
 40
1.0
 40
1.0
 40
1.0
 40
1.0
 10
177.0110227272727
 20
174.6438068181818
 30
0.0
 10
177.0211058839415
 20
174.6078595625335
 30
0.0
 10
177.0407735074234
 20
174.5377429202443
 30
0.0
 10
177.0671649728158
 20
174.4347098362369
 30
0.0
 10
177.0932888797653
 20
174.3371409294801
 30
0.0
 10
177.1164213319021
 20
174.2444929393707
 30
0.0
 10
177.1378698593538
 20
174.1571659485133
 30
0.0
 10
177.1569419110738
 20
174.0749360936512
 30
0.0
 10
177.1750389086086
 20
173.9981702329044
 30
0.0
 10
177.1851488749124
 20
173.9482838634232
 30
0.0
 10
177.19
 20
173.9243465909091
 30
0.0
  0
LINE
  5
205
330
1F
100
AcDbEntity
  8
0
  6
Continuous
 62
     7
370
    25
100
AcDbLine
 10
176.7475284091
 20
175.6054545455
 30
0.0
 11
177.0110227273
 21
174.6438068182
 31
0.0
  0
LINE
  5
206
330
1F
100
AcDbEntity
  8
0
  6
Continuous
 62
     7
370
    25
100
AcDbLine
 10
177.6331818182
 20
175.6054545455
 30
0.0
 11
176.7475284091
 21
175.6054545455
 31
0.0
  0
LINE
  5
207
330
1F
100
AcDbEntity
  8
0
  6
Continuous
 62
     7
370
    25
100
AcDbLine
 10
177.3363068182
 20
174.5869886364
 30
0.0
 11
177.6331818182
 21
175.6054545455
 31
0.0
  0
SPLINE
  5
208
330
1F
100
AcDbEntity
  8
0
  6
Continuous
 62
     7
370
    25
100
AcDbSpline
210
0.0
220
0.0
230
1.0
 70
     8
 71
     3
 72
    23
 73
    19
 74
     0
 42
0.000000001
 43
0.00000001
 40
0.0
 40
0.0
 40
0.0
 40
0.0
 40
0.0939000732089501
 40
0.1817019718777198
 40
0.2636319288039824
 40
0.3405307205795972
 40
0.4123196216204696
 40
0.4793162932096585
 40
0.5420447274823766
 40
0.6019300876275343
 40
0.6582575692032164
 40
0.7112926327489408
 40
0.7616435407157197
 40
0.8103808947028353
 40
0.8574842038333345
 40
0.9040030950564575
 40
0.9512626460128842
 40
1.0
 40
1.0
 40
1.0
 40
1.0
 10
168.3945454545455
 20
175.7858522727273
 30
0.0
 10
168.3951085387533
 20
175.7470130799315
 30
0.0
 10
168.3961981386587
 20
175.6718570371728
 30
0.0
 10
168.4040357914405
 20
175.5630318859185
 30
0.0
 10
168.416735604855
 20
175.4617798505531
 30
0.0
 10
168.4340036731572
 20
175.3678854274063
 30
0.0
 10
168.4574876091411
 20
175.2817141340197
 30
0.0
 10
168.4857602209035
 20
175.203217206661
 30
0.0
 10
168.5190821472721
 20
175.1320471493515
 30
0.0
 10
168.5582469215429
 20
175.0690801891126
 30
0.0
 10
168.6007898301778
 20
175.0133332041246
 30
0.0
 10
168.6465767979787
 20
174.9655505997019
 30
0.0
 10
168.6943831095363
 20
174.9244684641175
 30
0.0
 10
168.744848589052
 20
174.8908398575518
 30
0.0
 10
168.7979849896592
 20
174.8650553502388
 30
0.0
 10
168.8533141464442
 20
174.8464251893414
 30
0.0
 10
168.9113170096002
 20
174.834489340529
 30
0.0
 10
168.9510683554453
 20
174.8333206258341
 30
0.0
 10
168.97125
 20
174.8327272727273
 30
0.0
  0
SPLINE
  5
209
330
1F
100
AcDbEntity
  8
0
  6
Continuous
 62
     7
370
    25
100
AcDbSpline
210
0.0
220
0.0
230
1.0
 70
     8
 71
     3
 72
    23
 73
    19
 74
     0
 42
0.000000001
 43
0.00000001
 40
0.0
 40
0.0
 40
0.0
 40
0.0
 40
0.04637634935745
 40
0.0913119611971418
 40
0.1366923441388068
 40
0.1830145260461659
 40
0.2308407070677047
 40
0.281243229242764
 40
0.3348762673578901
 40
0.3919239229234021
 40
0.4521541540374953
 40
0.516083467390464
 40
0.5838039861901142
 40
0.6563685107735825
 40
0.7340981345083658
 40
0.8169132812413269
 40
0.9056638115050187
 40
1.0
 40
1.0
 40
1.0
 40
1.0
 10
168.9542045454545
 20
176.7418181818182
 30
0.0
 10
168.9351967293312
 20
176.7412422109847
 30
0.0
 10
168.8977715979368
 20
176.7401081625498
 30
0.0
 10
168.8429380909237
 20
176.7278297069538
 30
0.0
 10
168.7899144596865
 20
176.7096507790473
 30
0.0
 10
168.7393251264439
 20
176.6827705360636
 30
0.0
 10
168.6904393933036
 20
176.6492070388597
 30
0.0
 10
168.6444288891364
 20
176.6072493999473
 30
0.0
 10
168.5993071136448
 20
176.5590714079157
 30
0.0
 10
168.5577324317456
 20
176.502673983776
 30
0.0
 10
168.5189527793924
 20
176.4393373710577
 30
0.0
 10
168.4859108996529
 20
176.3679444602639
 30
0.0
 10
168.4574645330811
 20
176.2892903119012
 30
0.0
 10
168.4340105142525
 20
176.2031058832097
 30
0.0
 10
168.4167336328696
 20
176.1092153557288
 30
0.0
 10
168.4040361837492
 20
176.0079621665062
 30
0.0
 10
168.3962158294972
 20
175.8993735773607
 30
0.0
 10
168.3951134566901
 20
175.8244545903877
 30
0.0
 10
168.3945454545455
 20
175.7858522727273
 30
0.0
  0
SPLINE
  5
20A
330
1F
100
AcDbEntity
  8
0
  6
Continuous
 62
     7
370
    25
100
AcDbSpline
210
0.0
220
0.0
230
1.0
 70
     8
 71
     3
 72
    23
 73
    19
 74
     0
 42
0.000000001
 43
0.00000001
 40
0.0
 40
0.0
 40
0.0
 40
0.0
 40
0.0464338675617925
 40
0.0919922340957309
 40
0.1379758408203244
 40
0.1843554737509191
 40
0.2319139838421266
 40
0.2823790176768963
 40
0.3356865669521312
 40
0.3923418977363411
 40
0.4526468293128265
 40
0.5161316352054456
 40
0.5839361442866119
 40
0.6564403988768394
 40
0.7338080119846765
 40
0.816725870090972
 40
0.9055468111752841
 40
0.9999999999999999
 40
0.9999999999999999
 40
0.9999999999999999
 40
0.9999999999999999
 10
168.97125
 20
174.8327272727273
 30
0.0
 10
168.990257007767
 20
174.8333154563351
 30
0.0
 10
169.0279126500768
 20
174.8344807334697
 30
0.0
 10
169.0831968910406
 20
174.8467458888134
 30
0.0
 10
169.1368119862735
 20
174.864687467917
 30
0.0
 10
169.1873216435024
 20
174.891886019702
 30
0.0
 10
169.2366287756669
 20
174.9245560161878
 30
0.0
 10
169.2824512521398
 20
174.9663905771781
 30
0.0
 10
169.3265734872654
 20
175.0149577237354
 30
0.0
 10
169.3687268113223
 20
175.0704650334937
 30
0.0
 10
169.4069779255443
 20
175.1336817526167
 30
0.0
 10
169.4403860699689
 20
175.2046241268683
 30
0.0
 10
169.4689288956979
 20
175.2830129420562
 30
0.0
 10
169.4908993360275
 20
175.3693041468273
 30
0.0
 10
169.509798828367
 20
175.4625966539822
 30
0.0
 10
169.5222424935512
 20
175.5637345513107
 30
0.0
 10
169.5290121074104
 20
175.6723582708048
 30
0.0
 10
169.5302639396095
 20
175.7472537277843
 30
0.0
 10
169.5309090909091
 20
175.7858522727273
 30
0.0
  0
SPLINE
  5
20B
330
1F
100
AcDbEntity
  8
0
  6
Continuous
 62
     7
370
    25
100
AcDbSpline
210
0.0
220
0.0
230
1.0
 70
     8
 71
     3
 72
    23
 73
    19
 74
     0
 42
0.000000001
 43
0.00000001
 40
0.0
 40
0.0
 40
0.0
 40
0.0
 40
0.0942870310003971
 40
0.1824865538417561
 40
0.2648226075690462
 40
0.3415705974885845
 40
0.413218717390083
 40
0.4802813817547993
 40
0.5434033429972469
 40
0.602686063569769
 40
0.6589030845182606
 40
0.7118588003809551
 40
0.7621109680398409
 40
0.8107527459681939
 40
0.857763683472547
 40
0.9041913491383226
 40
0.951358222071647
 40
1.0
 40
1.0
 40
1.0
 40
1.0
 10
169.5309090909091
 20
175.7858522727273
 30
0.0
 10
169.5303476090006
 20
175.8249285762959
 30
0.0
 10
169.5292608964652
 20
175.9005582774271
 30
0.0
 10
169.5213972985372
 20
176.0100862109018
 30
0.0
 10
169.508809661536
 20
176.1118370007349
 30
0.0
 10
169.4913597865631
 20
176.2059160301466
 30
0.0
 10
169.4682353917632
 20
176.292311716966
 30
0.0
 10
169.4385845972698
 20
176.370595021494
 30
0.0
 10
169.4061073208735
 20
176.4422521026415
 30
0.0
 10
169.3663206129482
 20
176.5049146346203
 30
0.0
 10
169.3236948890615
 20
176.5602593248748
 30
0.0
 10
169.2791280880402
 20
176.6092194480032
 30
0.0
 10
169.2310100778862
 20
176.6500184936653
 30
0.0
 10
169.1806215711389
 20
176.6837204835782
 30
0.0
 10
169.1274654931433
 20
176.7094862311057
 30
0.0
 10
169.0721414947431
 20
176.7281213098402
 30
0.0
 10
169.014137250045
 20
176.7400558415352
 30
0.0
 10
168.9743860937667
 20
176.7412247369569
 30
0.0
 10
168.9542045454545
 20
176.7418181818182
 30
0.0
  0
LINE
  5
20C
330
1F
100
AcDbEntity
  8
0
  6
Continuous
 62
     7
370
    25
100
AcDbLine
 10
185.0223863636
 20
173.9690909091
 30
0.0
 11
185.5763636364
 21
173.9690909091
 31
0.0
  0
SPLINE
  5
20D
330
1F
100
AcDbEntity
  8
0
  6
Continuous
 62
     7
370
    25
100
AcDbSpline
210
0.0
220
0.0
230
1.0
 70
     8
 71
     3
 72
    23
 73
    19
 74
     0
 42
0.000000001
 43
0.00000001
 40
0.0
 40
0.0
 40
0.0
 40
0.0
 40
0.0895178427956115
 40
0.1715344284982281
 40
0.2483478135858476
 40
0.3210588788121118
 40
0.3895543666070036
 40
0.4538555256872285
 40
0.5165948010499213
 40
0.5781714246136643
 40
0.6118333134916882
 40
0.6507350923846005
 40
0.695420818440868
 40
0.744801788314128
 40
0.8004452515257778
 40
0.8608701913016513
 40
0.9276117187282884
 40
1.0
 40
1.0
 40
1.0
 40
1.0
 10
184.3490909090909
 20
174.4975
 30
0.0
 10
184.3497264729321
 20
174.4676024168388
 30
0.0
 10
184.3509443427653
 20
174.410312555054
 30
0.0
 10
184.3652252283665
 20
174.328453287618
 30
0.0
 10
184.3857680455143
 20
174.2538134069683
 30
0.0
 10
184.4162795201401
 20
174.1873491203873
 30
0.0
 10
184.4550499602532
 20
174.1305541902081
 30
0.0
 10
184.4986040026695
 20
174.0815929805553
 30
0.0
 10
184.5488314679762
 20
174.0432044458355
 30
0.0
 10
184.5956106061214
 20
174.018072740082
 30
0.0
 10
184.6383508425841
 20
174.0045969821096
 30
0.0
 10
184.6760971593399
 20
173.9942380751511
 30
0.0
 10
184.719931253964
 20
173.9870455978628
 30
0.0
 10
184.7694653500245
 20
173.9807617979919
 30
0.0
 10
184.8243600383569
 20
173.974815836614
 30
0.0
 10
184.8852814968181
 20
173.9716401582637
 30
0.0
 10
184.9518201868656
 20
173.9694380721021
 30
0.0
 10
184.9982363523864
 20
173.9692097194192
 30
0.0
 10
185.0223863636363
 20
173.9690909090909
 30
0.0
  0
SPLINE
  5
20E
330
1F
100
AcDbEntity
  8
0
  6
Continuous
 62
     7
370
    25
100
AcDbSpline
210
0.0
220
0.0
230
1.0
 70
     8
 71
     3
 72
    15
 73
    11
 74
     0
 42
0.000000001
 43
0.00000001
 40
0.0
 40
0.0
 40
0.0
 40
0.0
 40
0.1187245559887824
 40
0.2331742428431053
 40
0.3451302772580629
 40
0.4585783656324778
 40
0.5755493760739369
 40
0.7038163917799598
 40
0.8440554930145773
 40
1.0
 40
1.0
 40
1.0
 40
1.0
 10
184.6452556818182
 20
174.9811647727273
 30
0.0
 10
184.6226134602397
 20
174.9724859983309
 30
0.0
 10
184.5781442867913
 20
174.9554409428086
 30
0.0
 10
184.5189767798316
 20
174.9166650601054
 30
0.0
 10
184.4665655966448
 20
174.8710143431822
 30
0.0
 10
184.4236992500011
 20
174.8154466815624
 30
0.0
 10
184.3894191580652
 20
174.750509276346
 30
0.0
 10
184.3658169912325
 20
174.6752427526588
 30
0.0
 10
184.3517225185147
 20
174.5896450043218
 30
0.0
 10
184.3499985833107
 20
174.5292819369928
 30
0.0
 10
184.3490909090909
 20
174.4975
 30
0.0
  0
SPLINE
  5
20F
330
1F
100
AcDbEntity
  8
0
  6
Continuous
 62
     7
370
    25
100
AcDbSpline
210
0.0
220
0.0
230
1.0
 70
     8
 71
     3
 72
    11
 73
     7
 74
     0
 42
0.000000001
 43
0.00000001
 40
0.0
 40
0.0
 40
0.0
 40
0.0
 40
0.322908278019093
 40
0.5957736263814164
 40
0.8213872836918679
 40
1.0
 40
1.0
 40
1.0
 40
1.0
 10
184.9790625
 20
175.0145454545455
 30
0.0
 10
184.9428169944857
 20
175.0142732007145
 30
0.0
 10
184.8759431552868
 20
175.013770885775
 30
0.0
 10
184.7840815553934
 20
175.0069118322191
 30
0.0
 10
184.7082730031067
 20
174.9990159800556
 30
0.0
 10
184.6645675212681
 20
174.9866353265824
 30
0.0
 10
184.6452556818182
 20
174.9811647727273
 30
0.0
  0
LINE
  5
210
330
1F
100
AcDbEntity
  8
0
  6
Continuous
 62
     7
370
    25
100
AcDbLine
 10
185.5763636364
 20
175.0145454545
 30
0.0
 11
184.9790625
 21
175.0145454545
 31
0.0
  0
LINE
  5
211
330
1F
100
AcDbEntity
  8
0
  6
Continuous
 62
     7
370
    25
100
AcDbLine
 10
185.5763636364
 20
173.9690909091
 30
0.0
 11
185.5763636364
 21
175.0145454545
 31
0.0
  0
LINE
  5
212
330
1F
100
AcDbEntity
  8
0
  6
Continuous
 62
     7
370
    25
100
AcDbLine
 10
184.9485227273
 20
175.4236363636
 30
0.0
 11
185.5763636364
 21
175.4236363636
 31
0.0
  0
SPLINE
  5
213
330
1F
100
AcDbEntity
  8
0
  6
Continuous
 62
     7
370
    25
100
AcDbSpline
210
0.0
220
0.0
230
1.0
 70
     8
 71
     3
 72
    19
 73
    15
 74
     0
 42
0.000000001
 43
0.00000001
 40
0.0
 40
0.0
 40
0.0
 40
0.0
 40
0.0915283846851322
 40
0.1766505977910729
 40
0.2566641606045297
 40
0.332812060759083
 40
0.4057346604470963
 40
0.4747782317076276
 40
0.5424443422377385
 40
0.6100709666077713
 40
0.6844173621205101
 40
0.7737974540760387
 40
0.8784999863466297
 40
1.0
 40
1.0
 40
1.0
 40
1.0
 10
184.2581818181818
 20
176.0351420454546
 30
0.0
 10
184.2591327882383
 20
176.0026569005356
 30
0.0
 10
184.2609681689187
 20
175.9399602814593
 30
0.0
 10
184.2751014713717
 20
175.8497004282576
 30
0.0
 10
184.299249310841
 20
175.7673149899122
 30
0.0
 10
184.3326225722394
 20
175.6929007150755
 30
0.0
 10
184.3744569222738
 20
175.6274299836367
 30
0.0
 10
184.4235565156859
 20
175.5712544273451
 30
0.0
 10
184.4784833725647
 20
175.5234629989454
 30
0.0
 10
184.542756785886
 20
175.4852412888876
 30
0.0
 10
184.6199066448329
 20
175.4559925604894
 30
0.0
 10
184.7136567567926
 20
175.4376786145624
 30
0.0
 10
184.8251066975517
 20
175.4257125927231
 30
0.0
 10
184.9053966446969
 20
175.4243618741494
 30
0.0
 10
184.9485227272727
 20
175.4236363636364
 30
0.0
  0
SPLINE
  5
214
330
1F
100
AcDbEntity
  8
0
  6
Continuous
 62
     7
370
    25
100
AcDbSpline
210
0.0
220
0.0
230
1.0
 70
     8
 71
     3
 72
    11
 73
     7
 74
     0
 42
0.000000001
 43
0.00000001
 40
0.0
 40
0.0
 40
0.0
 40
0.0
 40
0.3124900160920082
 40
0.5812578930334287
 40
0.810481818000951
 40
1.0
 40
1.0
 40
1.0
 40
1.0
 10
184.9016477272727
 20
176.6509090909091
 30
0.0
 10
184.8668280494715
 20
176.6503698629007
 30
0.0
 10
184.8020605000697
 20
176.6493668531407
 30
0.0
 10
184.7120196761686
 20
176.6420670181024
 30
0.0
 10
184.63625262422
 20
176.6289777525325
 30
0.0
 10
184.5920898639116
 20
176.6137616463143
 30
0.0
 10
184.5721022727272
 20
176.606875
 30
0.0
  0
LINE
  5
215
330
1F
100
AcDbEntity
  8
0
  6
Continuous
 62
     7
370
    25
100
AcDbLine
 10
185.5763636364
 20
176.6509090909
 30
0.0
 11
184.9016477273
 21
176.6509090909
 31
0.0
  0
LINE
  5
216
330
1F
100
AcDbEntity
  8
0
  6
Continuous
 62
     7
370
    25
100
AcDbLine
 10
185.5763636364
 20
175.4236363636
 30
0.0
 11
185.5763636364
 21
176.6509090909
 31
0.0
  0
SPLINE
  5
217
330
1F
100
AcDbEntity
  8
0
  6
Continuous
 62
     7
370
    25
100
AcDbSpline
210
0.0
220
0.0
230
1.0
 70
     8
 71
     3
 72
    15
 73
    11
 74
     0
 42
0.000000001
 43
0.00000001
 40
0.0
 40
0.0
 40
0.0
 40
0.0
 40
0.1170149010310911
 40
0.2294406109021506
 40
0.3422188405734969
 40
0.4587237923636678
 40
0.5799350121058454
 40
0.7099406575914746
 40
0.8485672211185736
 40
1.0
 40
1.0
 40
1.0
 40
1.0
 10
184.5721022727273
 20
176.606875
 30
0.0
 10
184.5474466233912
 20
176.5954431261296
 30
0.0
 10
184.4991022912079
 20
176.5730277234632
 30
0.0
 10
184.4357329613828
 20
176.5244772114936
 30
0.0
 10
184.3807434339155
 20
176.4671158619642
 30
0.0
 10
184.3359573777528
 20
176.3988562251179
 30
0.0
 10
184.3010692999552
 20
176.3208376926082
 30
0.0
 10
184.275632141814
 20
176.2339280918827
 30
0.0
 10
184.2607316827462
 20
176.1374511713895
 30
0.0
 10
184.2590564273948
 20
176.0702343030468
 30
0.0
 10
184.2581818181818
 20
176.0351420454546
 30
0.0
  0
LINE
  5
218
330
1F
100
AcDbEntity
  8
0
  6
Continuous
 62
     7
370
    25
100
AcDbLine
 10
179.7858806818
 20
173.9690909091
 30
0.0
 11
180.3490909091
 21
173.9690909091
 31
0.0
  0
SPLINE
  5
219
330
1F
100
AcDbEntity
  8
0
  6
Continuous
 62
     7
370
    25
100
AcDbSpline
210
0.0
220
0.0
230
1.0
 70
     8
 71
     3
 72
    15
 73
    11
 74
     0
 42
0.000000001
 43
0.00000001
 40
0.0
 40
0.0
 40
0.0
 40
0.0
 40
0.0901288015275073
 40
0.188704596982442
 40
0.2978271886832041
 40
0.4162253375982842
 40
0.5463143019173398
 40
0.6865899079084482
 40
0.8372008478997239
 40
0.9999999999999999
 40
0.9999999999999999
 40
0.9999999999999999
 40
0.9999999999999999
 10
179.3320454545455
 20
174.0386931818182
 30
0.0
 10
179.3447378001878
 20
174.0330134632167
 30
0.0
 10
179.3713120353782
 20
174.0211217150574
 30
0.0
 10
179.415157660262
 20
174.0072235171863
 30
0.0
 10
179.4639778518742
 20
173.9950570883824
 30
0.0
 10
179.5184593333751
 20
173.986336605315
 30
0.0
 10
179.5778681590036
 20
173.9784062820799
 30
0.0
 10
179.6425503244874
 20
173.9726436572338
 30
0.0
 10
179.7124729716923
 20
173.9702369425304
 30
0.0
 10
179.7607851736736
 20
173.9694826975211
 30
0.0
 10
179.7858806818182
 20
173.9690909090909
 30
0.0
  0
SPLINE
  5
21A
330
1F
100
AcDbEntity
  8
0
  6
Continuous
 62
     7
370
    25
100
AcDbSpline
210
0.0
220
0.0
230
1.0
 70
     8
 71
     3
 72
    23
 73
    19
 74
     0
 42
0.000000001
 43
0.00000001
 40
0.0
 40
0.0
 40
0.0
 40
0.0
 40
0.0926501324187904
 40
0.1803440764637877
 40
0.2632060708009765
 40
0.3408819097543554
 40
0.4144577048609531
 40
0.4838260401889174
 40
0.5485109684903481
 40
0.6100824229047587
 40
0.667822220019248
 40
0.7224490943685165
 40
0.7739764009907302
 40
0.8229932516797638
 40
0.8695486927613155
 40
0.914362467689007
 40
0.9576166174378854
 40
1.0
 40
1.0
 40
1.0
 40
1.0
 10
178.8490909090909
 20
175.2858522727273
 30
0.0
 10
178.8494732771285
 20
175.242519524887
 30
0.0
 10
178.8502175589641
 20
175.1581720535357
 30
0.0
 10
178.8567427543887
 20
175.0352171585488
 30
0.0
 10
178.867031744849
 20
174.9195404695899
 30
0.0
 10
178.8823207385791
 20
174.8111030851584
 30
0.0
 10
178.9000099532055
 20
174.7093900186222
 30
0.0
 10
178.9237872211521
 20
174.6151850354128
 30
0.0
 10
178.9503407148957
 20
174.5275544914072
 30
0.0
 10
178.9825919882884
 20
174.4476842410548
 30
0.0
 10
179.0172979974925
 20
174.3740558629565
 30
0.0
 10
179.0550604163144
 20
174.3072868928956
 30
0.0
 10
179.0946918282225
 20
174.246415938194
 30
0.0
 10
179.1373698395022
 20
174.1923232667844
 30
0.0
 10
179.1824539181604
 20
174.1445197380522
 30
0.0
 10
179.2290624362421
 20
174.102028951175
 30
0.0
 10
179.2792638435259
 20
174.0670157740522
 30
0.0
 10
179.3145712534408
 20
174.0480698314304
 30
0.0
 10
179.3320454545455
 20
174.0386931818182
 30
0.0
  0
SPLINE
  5
21B
330
1F
100
AcDbEntity
  8
0
  6
Continuous
 62
     7
370
    25
100
AcDbSpline
210
0.0
220
0.0
230
1.0
 70
     8
 71
     3
 72
    23
 73
    19
 74
     0
 42
0.000000001
 43
0.00000001
 40
0.0
 40
0.0
 40
0.0
 40
0.0
 40
0.0813358770532294
 40
0.1580204213296496
 40
0.2302408174490496
 40
0.2976741432014611
 40
0.3611915332746027
 40
0.4204751070065271
 40
0.4768816708711239
 40
0.5306507777215588
 40
0.5832954809950173
 40
0.6364607207589387
 40
0.6915729541454197
 40
0.7480804393321616
 40
0.8067521618681913
 40
0.8681253328504842
 40
0.9325666742475827
 40
1.0
 40
1.0
 40
1.0
 40
1.0
 10
179.7766477272727
 20
176.6509090909091
 30
0.0
 10
179.748700717288
 20
176.6504792139861
 30
0.0
 10
179.694404895411
 20
176.6496440433953
 30
0.0
 10
179.6154822942092
 20
176.6438017274279
 30
0.0
 10
179.5416189880149
 20
176.6350699435558
 30
0.0
 10
179.4731079789084
 20
176.6213584365247
 30
0.0
 10
179.4099056721841
 20
176.6045490871828
 30
0.0
 10
179.351735670653
 20
176.5840714634424
 30
0.0
 10
179.2990715608443
 20
176.559043433155
 30
0.0
 10
179.2507984999753
 20
176.5305723578418
 30
0.0
 10
179.2070952541939
 20
176.4972906483783
 30
0.0
 10
179.1662058348969
 20
176.4599845844366
 30
0.0
 10
179.1279467312864
 20
176.41813444104
 30
0.0
 10
179.0924754942709
 20
176.3715425028164
 30
0.0
 10
179.0587747716397
 20
176.3210412804029
 30
0.0
 10
179.0283074320919
 20
176.265373182169
 30
0.0
 10
179.0007469919406
 20
176.2049112876596
 30
0.0
 10
178.9845194485759
 20
176.1626010150423
 30
0.0
 10
178.9762215909091
 20
176.140965909091
 30
0.0
  0
LINE
  5
21C
330
1F
100
AcDbEntity
  8
0
  6
Continuous
 62
     7
370
    25
100
AcDbLine
 10
180.3490909091
 20
176.6509090909
 30
0.0
 11
179.7766477273
 21
176.6509090909
 31
0.0
  0
LINE
  5
21D
330
1F
100
AcDbEntity
  8
0
  6
Continuous
 62
     7
370
    25
100
AcDbLine
 10
180.3490909091
 20
173.9690909091
 30
0.0
 11
180.3490909091
 21
176.6509090909
 31
0.0
  0
SPLINE
  5
21E
330
1F
100
AcDbEntity
  8
0
  6
Continuous
 62
     7
370
    25
100
AcDbSpline
210
0.0
220
0.0
230
1.0
 70
     8
 71
     3
 72
    15
 73
    11
 74
     0
 42
0.000000001
 43
0.00000001
 40
0.0
 40
0.0
 40
0.0
 40
0.0
 40
0.1109282667870231
 40
0.224380289428313
 40
0.3432230346468798
 40
0.4651453263128063
 40
0.5921228794825504
 40
0.7226342829728966
 40
0.8593405828394338
 40
0.9999999999999999
 40
0.9999999999999999
 40
0.9999999999999999
 40
0.9999999999999999
 10
178.9762215909091
 20
176.140965909091
 30
0.0
 10
178.9659328319397
 20
176.1105321265362
 30
0.0
 10
178.9451212319547
 20
176.0489721550717
 30
0.0
 10
178.9197752732616
 20
175.9528169722894
 30
0.0
 10
178.8977759061451
 20
175.8526160505028
 30
0.0
 10
178.8802002020528
 20
175.747565132138
 30
0.0
 10
178.8659377666246
 20
175.6386168561271
 30
0.0
 10
178.8560046307715
 20
175.5248810004561
 30
0.0
 10
178.8504789585033
 20
175.4068835395548
 30
0.0
 10
178.8495579676608
 20
175.3265775451042
 30
0.0
 10
178.8490909090909
 20
175.2858522727273
 30
0.0
  0
SPLINE
  5
21F
330
1F
100
AcDbEntity
  8
0
  6
Continuous
 62
     7
370
    25
100
AcDbSpline
210
0.0
220
0.0
230
1.0
 70
     8
 71
     3
 72
    11
 73
     7
 74
     0
 42
0.000000001
 43
0.00000001
 40
0.0
 40
0.0
 40
0.0
 40
0.0
 40
0.2669168647866181
 40
0.5215207175380618
 40
0.7647891370300748
 40
1.0
 40
1.0
 40
1.0
 40
1.0
 10
186.6672727272727
 20
175.3028977272728
 30
0.0
 10
186.6687881512597
 20
175.2310731122121
 30
0.0
 10
186.6717490919469
 20
175.0907371884659
 30
0.0
 10
186.6983528423639
 20
174.8864796530855
 30
0.0
 10
186.7385855872364
 20
174.6930065065546
 30
0.0
 10
186.7812452637622
 20
174.5714562332163
 30
0.0
 10
186.8022159090909
 20
174.5117045454546
 30
0.0
  0
SPLINE
  5
220
330
1F
100
AcDbEntity
  8
0
  6
Continuous
 62
     7
370
    25
100
AcDbSpline
210
0.0
220
0.0
230
1.0
 70
     8
 71
     3
 72
    23
 73
    19
 74
     0
 42
0.000000001
 43
0.00000001
 40
0.0
 40
0.0
 40
0.0
 40
0.0
 40
0.051070050450914
 40
0.1005660900124702
 40
0.1488296696138368
 40
0.1976155264965223
 40
0.2465699945136572
 40
0.2971331471789168
 40
0.349761712548973
 40
0.4053241194824213
 40
0.4637501237503583
 40
0.5256608702399896
 40
0.5916042736391893
 40
0.6623011091677755
 40
0.7382031055661142
 40
0.8196269972046516
 40
0.906566137671779
 40
1.0
 40
1.0
 40
1.0
 40
1.0
 10
187.5721022727272
 20
173.9236363636364
 30
0.0
 10
187.6046088779095
 20
173.9247380526895
 30
0.0
 10
187.6686202143757
 20
173.9269074760501
 30
0.0
 10
187.7620968891156
 20
173.9437573506113
 30
0.0
 10
187.8516372982685
 20
173.970620386948
 30
0.0
 10
187.9359389148778
 20
174.0102642890073
 30
0.0
 10
188.016615972108
 20
174.0595829776476
 30
0.0
 10
188.0920105094104
 20
174.1206814068248
 30
0.0
 10
188.1634448774703
 20
174.1922992658561
 30
0.0
 10
188.2303205782309
 20
174.2747960668223
 30
0.0
 10
188.2909903962728
 20
174.3691006253105
 30
0.0
 10
188.3435709144149
 20
174.4755787574358
 30
0.0
 10
188.3872668056551
 20
174.5942952637386
 30
0.0
 10
188.42323308924
 20
174.7247640878831
 30
0.0
 10
188.4515966671615
 20
174.8671628230384
 30
0.0
 10
188.4707952828115
 20
175.0214580215826
 30
0.0
 10
188.4831115381328
 20
175.1876412989536
 30
0.0
 10
188.4846550175704
 20
175.3024007722001
 30
0.0
 10
188.4854545454545
 20
175.3618465909091
 30
0.0
  0
SPLINE
  5
221
330
1F
100
AcDbEntity
  8
0
  6
Continuous
 62
     7
370
    25
100
AcDbSpline
210
0.0
220
0.0
230
1.0
 70
     8
 71
     3
 72
    15
 73
    11
 74
     0
 42
0.000000001
 43
0.00000001
 40
0.0
 40
0.0
 40
0.0
 40
0.0
 40
0.1358591900611207
 40
0.265838184499845
 40
0.393680432860755
 40
0.5207812248526654
 40
0.6453735379026119
 40
0.7646193444758975
 40
0.881609760003851
 40
1.0
 40
1.0
 40
1.0
 40
1.0
 10
186.8022159090909
 20
174.5117045454546
 30
0.0
 10
186.820386007385
 20
174.4686899443594
 30
0.0
 10
186.8559397740496
 20
174.3845224805538
 30
0.0
 10
186.9297311367119
 20
174.2707260737036
 30
0.0
 10
187.0139572137965
 20
174.1685034120874
 30
0.0
 10
187.1123092296162
 20
174.0824466985064
 30
0.0
 10
187.2185857612246
 20
174.0114571166543
 30
0.0
 10
187.3324095346995
 20
173.9616806540583
 30
0.0
 10
187.4504932697346
 20
173.9289604012657
 30
0.0
 10
187.5314055415029
 20
173.9254180650162
 30
0.0
 10
187.5721022727272
 20
173.9236363636364
 30
0.0
  0
SPLINE
  5
222
330
1F
100
AcDbEntity
  8
0
  6
Continuous
 62
     7
370
    25
100
AcDbSpline
210
0.0
220
0.0
230
1.0
 70
     8
 71
     3
 72
    23
 73
    19
 74
     0
 42
0.000000001
 43
0.00000001
 40
0.0
 40
0.0
 40
0.0
 40
0.0
 40
0.0857830521953997
 40
0.1670694454186707
 40
0.2438012276375975
 40
0.3163671090895906
 40
0.3854844221054511
 40
0.451750488781741
 40
0.5153949770372919
 40
0.5768805476262288
 40
0.6363810632650598
 40
0.6922654913508518
 40
0.7457104086400067
 40
0.7972333055607407
 40
0.8477955892414308
 40
0.8979127368709203
 40
0.9481372635049261
 40
1.0
 40
1.0
 40
1.0
 40
1.0
 10
188.4854545454545
 20
175.3618465909091
 30
0.0
 10
188.4846147171998
 20
175.4132432185727
 30
0.0
 10
188.4829790836197
 20
175.5133423157763
 30
0.0
 10
188.4709506622763
 20
175.6590244153485
 30
0.0
 10
188.4507146702599
 20
175.795796777171
 30
0.0
 10
188.4214315932807
 20
175.9234586625865
 30
0.0
 10
188.3847906192929
 20
176.042667411947
 30
0.0
 10
188.3394751659253
 20
176.1531681978772
 30
0.0
 10
188.2853584440526
 20
176.2544846145888
 30
0.0
 10
188.2234116469432
 20
176.3463725412282
 30
0.0
 10
188.1556026958121
 20
176.4279519059889
 30
0.0
 10
188.0845586168022
 20
176.5002550756694
 30
0.0
 10
188.0085005085704
 20
176.5597428890954
 30
0.0
 10
187.9302131685908
 20
176.6106098939825
 30
0.0
 10
187.847201892219
 20
176.6491600910581
 30
0.0
 10
187.760684651563
 20
176.6760017555261
 30
0.0
 10
187.6707846446827
 20
176.6931267204405
 30
0.0
 10
187.6095851197151
 20
176.6952731828528
 30
0.0
 10
187.5784943181818
 20
176.6963636363637
 30
0.0
  0
SPLINE
  5
223
330
1F
100
AcDbEntity
  8
0
  6
Continuous
 62
     7
370
    25
100
AcDbSpline
210
0.0
220
0.0
230
1.0
 70
     8
 71
     3
 72
    23
 73
    19
 74
     0
 42
0.000000001
 43
0.00000001
 40
0.0
 40
0.0
 40
0.0
 40
0.0
 40
0.050918001982086
 40
0.1006167904141333
 40
0.1499276525903497
 40
0.1991718333808554
 40
0.2495259930923006
 40
0.3014493889625801
 40
0.3560342047157336
 40
0.4136288738645701
 40
0.4738344013366625
 40
0.5365596415325559
 40
0.6027689603453927
 40
0.6729018153132597
 40
0.7471021992056426
 40
0.8262232336927775
 40
0.9105471764055559
 40
1.0
 40
1.0
 40
1.0
 40
1.0
 10
187.5784943181818
 20
176.6963636363637
 30
0.0
 10
187.5469403012343
 20
176.6952354743932
 30
0.0
 10
187.4845878171158
 20
176.6930061638917
 30
0.0
 10
187.3928515709896
 20
176.6763173196641
 30
0.0
 10
187.3051750108693
 20
176.6483597432853
 30
0.0
 10
187.2209221194436
 20
176.6100215537274
 30
0.0
 10
187.142163014828
 20
176.558490343673
 30
0.0
 10
187.0660476446835
 20
176.4978364729989
 30
0.0
 10
186.994276732371
 20
176.4255300367946
 30
0.0
 10
186.926834826107
 20
176.3425051634211
 30
0.0
 10
186.8657624849747
 20
176.2485579018762
 30
0.0
 10
186.8123736009034
 20
176.1440417316918
 30
0.0
 10
186.7669003521873
 20
176.0292143003267
 30
0.0
 10
186.7302578591609
 20
175.9038595146897
 30
0.0
 10
186.7021734904112
 20
175.7681904822
 30
0.0
 10
186.6816540742256
 20
175.6223136189761
 30
0.0
 10
186.6697526112911
 20
175.465974931722
 30
0.0
 10
186.6681154616618
 20
175.3583159513688
 30
0.0
 10
186.6672727272727
 20
175.3028977272728
 30
0.0
  0
LINE
  5
224
330
1F
100
AcDbEntity
  8
0
  6
Continuous
 62
     7
370
    25
100
AcDbLine
 10
165.94
 20
247.06
 30
0.0
 11
208.94
 21
247.06
 31
0.0
  0
LINE
  5
225
330
1F
100
AcDbEntity
  8
0
  6
Continuous
 62
     7
370
    25
100
AcDbLine
 10
165.94
 20
246.56
 30
0.0
 11
165.94
 21
247.06
 31
0.0
  0
LINE
  5
226
330
1F
100
AcDbEntity
  8
0
  6
Continuous
 62
     7
370
    25
100
AcDbLine
 10
208.94
 20
247.06
 30
0.0
 11
208.94
 21
246.56
 31
0.0
  0
SPLINE
  5
227
330
1F
100
AcDbEntity
  8
0
  6
Continuous
 62
     7
370
    25
100
AcDbSpline
210
0.0
220
0.0
230
1.0
 70
     8
 71
     3
 72
    23
 73
    19
 74
     0
 42
0.000000001
 43
0.00000001
 40
0.0
 40
0.0
 40
0.0
 40
0.0
 40
0.051070050450914
 40
0.1005660900124702
 40
0.1488296696138368
 40
0.1976155264965223
 40
0.2465699945136572
 40
0.2971331471789168
 40
0.349761712548973
 40
0.4053241194824213
 40
0.4637501237503583
 40
0.5256608702399896
 40
0.5916042736391893
 40
0.6623011091677755
 40
0.7382031055661142
 40
0.8196269972046516
 40
0.906566137671779
 40
1.0
 40
1.0
 40
1.0
 40
1.0
 10
182.3448295454545
 20
173.9236363636364
 30
0.0
 10
182.3773361506368
 20
173.9247380526895
 30
0.0
 10
182.4413474871029
 20
173.9269074760501
 30
0.0
 10
182.5348241618428
 20
173.9437573506113
 30
0.0
 10
182.6243645709958
 20
173.970620386948
 30
0.0
 10
182.708666187605
 20
174.0102642890073
 30
0.0
 10
182.7893432448352
 20
174.0595829776476
 30
0.0
 10
182.8647377821377
 20
174.1206814068248
 30
0.0
 10
182.9361721501976
 20
174.1922992658561
 30
0.0
 10
183.0030478509582
 20
174.2747960668223
 30
0.0
 10
183.0637176690001
 20
174.3691006253105
 30
0.0
 10
183.1162981871421
 20
174.4755787574358
 30
0.0
 10
183.1599940783824
 20
174.5942952637386
 30
0.0
 10
183.1959603619672
 20
174.7247640878831
 30
0.0
 10
183.2243239398888
 20
174.8671628230384
 30
0.0
 10
183.2435225555387
 20
175.0214580215826
 30
0.0
 10
183.25583881086
 20
175.1876412989536
 30
0.0
 10
183.2573822902976
 20
175.3024007722001
 30
0.0
 10
183.2581818181818
 20
175.3618465909091
 30
0.0
  0
SPLINE
  5
228
330
1F
100
AcDbEntity
  8
0
  6
Continuous
 62
     7
370
    25
100
AcDbSpline
210
0.0
220
0.0
230
1.0
 70
     8
 71
     3
 72
    15
 73
    11
 74
     0
 42
0.000000001
 43
0.00000001
 40
0.0
 40
0.0
 40
0.0
 40
0.0
 40
0.1358591900611207
 40
0.265838184499845
 40
0.393680432860755
 40
0.5207812248526654
 40
0.6453735379026119
 40
0.7646193444758975
 40
0.881609760003851
 40
1.0
 40
1.0
 40
1.0
 40
1.0
 10
181.5749431818182
 20
174.5117045454546
 30
0.0
 10
181.5931132801122
 20
174.4686899443594
 30
0.0
 10
181.6286670467769
 20
174.3845224805538
 30
0.0
 10
181.7024584094392
 20
174.2707260737036
 30
0.0
 10
181.7866844865238
 20
174.1685034120874
 30
0.0
 10
181.8850365023435
 20
174.0824466985064
 30
0.0
 10
181.9913130339518
 20
174.0114571166543
 30
0.0
 10
182.1051368074268
 20
173.9616806540583
 30
0.0
 10
182.2232205424619
 20
173.9289604012657
 30
0.0
 10
182.3041328142302
 20
173.9254180650162
 30
0.0
 10
182.3448295454545
 20
173.9236363636364
 30
0.0
  0
SPLINE
  5
229
330
1F
100
AcDbEntity
  8
0
  6
Continuous
 62
     7
370
    25
100
AcDbSpline
210
0.0
220
0.0
230
1.0
 70
     8
 71
     3
 72
    11
 73
     7
 74
     0
 42
0.000000001
 43
0.00000001
 40
0.0
 40
0.0
 40
0.0
 40
0.0
 40
0.2669168647866181
 40
0.5215207175380618
 40
0.7647891370300748
 40
1.0
 40
1.0
 40
1.0
 40
1.0
 10
181.44
 20
175.3028977272728
 30
0.0
 10
181.4415154239869
 20
175.2310731122121
 30
0.0
 10
181.4444763646742
 20
175.0907371884659
 30
0.0
 10
181.4710801150912
 20
174.8864796530855
 30
0.0
 10
181.5113128599636
 20
174.6930065065546
 30
0.0
 10
181.5539725364894
 20
174.5714562332163
 30
0.0
 10
181.5749431818182
 20
174.5117045454546
 30
0.0
  0
SPLINE
  5
22A
330
1F
100
AcDbEntity
  8
0
  6
Continuous
 62
     7
370
    25
100
AcDbSpline
210
0.0
220
0.0
230
1.0
 70
     8
 71
     3
 72
    23
 73
    19
 74
     0
 42
0.000000001
 43
0.00000001
 40
0.0
 40
0.0
 40
0.0
 40
0.0
 40
0.050918001982086
 40
0.1006167904141333
 40
0.1499276525903497
 40
0.1991718333808554
 40
0.2495259930923006
 40
0.3014493889625801
 40
0.3560342047157336
 40
0.4136288738645701
 40
0.4738344013366625
 40
0.5365596415325559
 40
0.6027689603453927
 40
0.6729018153132597
 40
0.7471021992056426
 40
0.8262232336927775
 40
0.9105471764055559
 40
1.0
 40
1.0
 40
1.0
 40
1.0
 10
182.3512215909091
 20
176.6963636363637
 30
0.0
 10
182.3196675739616
 20
176.6952354743932
 30
0.0
 10
182.257315089843
 20
176.6930061638917
 30
0.0
 10
182.1655788437169
 20
176.6763173196641
 30
0.0
 10
182.0779022835966
 20
176.6483597432853
 30
0.0
 10
181.9936493921709
 20
176.6100215537274
 30
0.0
 10
181.9148902875552
 20
176.558490343673
 30
0.0
 10
181.8387749174108
 20
176.4978364729989
 30
0.0
 10
181.7670040050983
 20
176.4255300367946
 30
0.0
 10
181.6995620988343
 20
176.3425051634211
 30
0.0
 10
181.638489757702
 20
176.2485579018762
 30
0.0
 10
181.5851008736307
 20
176.1440417316918
 30
0.0
 10
181.5396276249146
 20
176.0292143003267
 30
0.0
 10
181.5029851318882
 20
175.9038595146897
 30
0.0
 10
181.4749007631385
 20
175.7681904822
 30
0.0
 10
181.4543813469529
 20
175.6223136189761
 30
0.0
 10
181.4424798840184
 20
175.465974931722
 30
0.0
 10
181.440842734389
 20
175.3583159513688
 30
0.0
 10
181.44
 20
175.3028977272728
 30
0.0
  0
SPLINE
  5
22B
330
1F
100
AcDbEntity
  8
0
  6
Continuous
 62
     7
370
    25
100
AcDbSpline
210
0.0
220
0.0
230
1.0
 70
     8
 71
     3
 72
    23
 73
    19
 74
     0
 42
0.000000001
 43
0.00000001
 40
0.0
 40
0.0
 40
0.0
 40
0.0
 40
0.0857830521953997
 40
0.1670694454186707
 40
0.2438012276375975
 40
0.3163671090895906
 40
0.3854844221054511
 40
0.451750488781741
 40
0.5153949770372919
 40
0.5768805476262288
 40
0.6363810632650598
 40
0.6922654913508518
 40
0.7457104086400067
 40
0.7972333055607407
 40
0.8477955892414308
 40
0.8979127368709203
 40
0.9481372635049261
 40
1.0
 40
1.0
 40
1.0
 40
1.0
 10
183.2581818181818
 20
175.3618465909091
 30
0.0
 10
183.257341989927
 20
175.4132432185727
 30
0.0
 10
183.2557063563469
 20
175.5133423157763
 30
0.0
 10
183.2436779350035
 20
175.6590244153485
 30
0.0
 10
183.2234419429871
 20
175.795796777171
 30
0.0
 10
183.1941588660079
 20
175.9234586625865
 30
0.0
 10
183.1575178920202
 20
176.042667411947
 30
0.0
 10
183.1122024386526
 20
176.1531681978772
 30
0.0
 10
183.0580857167798
 20
176.2544846145888
 30
0.0
 10
182.9961389196704
 20
176.3463725412282
 30
0.0
 10
182.9283299685393
 20
176.4279519059889
 30
0.0
 10
182.8572858895294
 20
176.5002550756694
 30
0.0
 10
182.7812277812977
 20
176.5597428890954
 30
0.0
 10
182.7029404413181
 20
176.6106098939825
 30
0.0
 10
182.6199291649463
 20
176.6491600910581
 30
0.0
 10
182.5334119242902
 20
176.6760017555261
 30
0.0
 10
182.44351191741
 20
176.6931267204405
 30
0.0
 10
182.3823123924423
 20
176.6952731828528
 30
0.0
 10
182.3512215909091
 20
176.6963636363637
 30
0.0
  0
LINE
  5
22C
330
1F
100
AcDbEntity
  8
0
  6
Continuous
 62
     7
370
    25
100
AcDbLine
 10
208.94
 20
172.06
 30
0.0
 11
165.94
 21
172.06
 31
0.0
  0
LINE
  5
22D
330
1F
100
AcDbEntity
  8
0
  6
Continuous
 62
     7
370
    25
100
AcDbLine
 10
165.94
 20
172.06
 30
0.0
 11
165.94
 21
172.56
 31
0.0
  0
LINE
  5
22E
330
1F
100
AcDbEntity
  8
0
  6
Continuous
 62
     7
370
    25
100
AcDbLine
 10
208.94
 20
172.56
 30
0.0
 11
208.94
 21
172.06
 31
0.0
  0
LINE
  5
22F
330
1F
100
AcDbEntity
  8
0
  6
Continuous
 62
     7
370
    25
100
AcDbLine
 10
118.94
 20
246.56
 30
0.0
 11
81.94
 21
246.56
 31
0.0
  0
LINE
  5
230
330
1F
100
AcDbEntity
  8
0
  6
Continuous
 62
     7
370
    25
100
AcDbLine
 10
118.94
 20
246.56
 30
0.0
 11
118.94
 21
172.56
 31
0.0
  0
LINE
  5
231
330
1F
100
AcDbEntity
  8
0
  6
Continuous
 62
     7
370
    25
100
AcDbLine
 10
81.94
 20
172.56
 30
0.0
 11
118.94
 21
172.56
 31
0.0
  0
LINE
  5
232
330
1F
100
AcDbEntity
  8
0
  6
Continuous
 62
     7
370
    25
100
AcDbLine
 10
81.94
 20
246.56
 30
0.0
 11
81.94
 21
172.56
 31
0.0
  0
LINE
  5
233
330
1F
100
AcDbEntity
  8
0
  6
Continuous
 62
     7
370
    25
100
AcDbLine
 10
81.94
 20
246.56
 30
0.0
 11
81.94
 21
247.06
 31
0.0
  0
LINE
  5
234
330
1F
100
AcDbEntity
  8
0
  6
Continuous
 62
     7
370
    25
100
AcDbLine
 10
81.94
 20
247.06
 30
0.0
 11
118.94
 21
247.06
 31
0.0
  0
LINE
  5
235
330
1F
100
AcDbEntity
  8
0
  6
Continuous
 62
     7
370
    25
100
AcDbLine
 10
118.94
 20
247.06
 30
0.0
 11
118.94
 21
246.56
 31
0.0
  0
LINE
  5
236
330
1F
100
AcDbEntity
  8
0
  6
Continuous
 62
     7
370
    25
100
AcDbLine
 10
118.94
 20
172.06
 30
0.0
 11
81.94
 21
172.06
 31
0.0
  0
LINE
  5
237
330
1F
100
AcDbEntity
  8
0
  6
Continuous
 62
     7
370
    25
100
AcDbLine
 10
81.94
 20
172.06
 30
0.0
 11
81.94
 21
172.56
 31
0.0
  0
LINE
  5
238
330
1F
100
AcDbEntity
  8
0
  6
Continuous
 62
     7
370
    25
100
AcDbLine
 10
118.94
 20
172.56
 30
0.0
 11
118.94
 21
172.06
 31
0.0
  0
LINE
  5
239
330
1F
100
AcDbEntity
  8
0
  6
Continuous
 62
     7
370
    25
100
AcDbLine
 10
224.94
 20
246.56
 30
0.0
 11
224.94
 21
172.56
 31
0.0
  0
LINE
  5
23A
330
1F
100
AcDbEntity
  8
0
  6
Continuous
 62
     8
370
    25
100
AcDbLine
 10
66.24
 20
243.21
 30
0.0
 11
66.24
 21
228.21
 31
0.0
  0
LINE
  5
23B
330
1F
100
AcDbEntity
  8
0
  6
Continuous
 62
     8
370
    25
100
AcDbLine
 10
66.24
 20
190.91
 30
0.0
 11
66.24
 21
175.91
 31
0.0
  0
DIMENSION
  5
23C
330
1F
100
AcDbEntity
  8
0
  6
Continuous
 62
     7
370
    18
100
AcDbDimension
  2
_D
 10
231.94
 20
160.6300341254
 30
0.0
 11
228.44
 21
160.6300341254
 31
0.0
 70
   160
  1
<>
 71
     2
 42
-1.0
  3
SLDDIMSTYLE0
100
AcDbAlignedDimension
 13
224.94
 23
172.56
 33
0.0
 14
231.94
 24
200.56
 34
0.0
100
AcDbRotatedDimension
  0
DIMENSION
  5
249
330
1F
100
AcDbEntity
  8
0
  6
Continuous
 62
     7
370
    18
100
AcDbDimension
  2
_D_1
 10
208.94
 20
264.06
 30
0.0
 11
187.44
 21
264.06
 31
0.0
 70
   160
  1
<>
 71
     2
 42
-1.0
  3
SLDDIMSTYLE1
100
AcDbAlignedDimension
 13
165.94
 23
247.06
 33
0.0
 14
208.94
 24
247.06
 34
0.0
100
AcDbRotatedDimension
  0
DIMENSION
  5
254
330
1F
100
AcDbEntity
  8
0
  6
Continuous
 62
     7
370
    18
100
AcDbDimension
  2
_D_2
 10
81.94
 20
154.6300341254
 30
0.0
 11
156.94
 21
154.6300341254
 31
0.0
 70
   160
  1
<>
 71
     2
 42
-1.0
  3
SLDDIMSTYLE1
100
AcDbAlignedDimension
 13
231.94
 23
200.56
 33
0.0
 14
81.94
 24
172.06
 34
0.0
100
AcDbRotatedDimension
  0
DIMENSION
  5
25E
330
1F
100
AcDbEntity
  8
0
  6
Continuous
 62
     7
370
    18
100
AcDbDimension
  2
_D_3
 10
81.94
 20
160.6300341254
 30
0.0
 11
73.94
 21
160.6300341254
 31
0.0
 70
   160
  1
<>
 71
     2
 42
-1.0
  3
SLDDIMSTYLE0
100
AcDbAlignedDimension
 13
65.94
 23
176.21
 33
0.0
 14
81.94
 24
172.06
 34
0.0
100
AcDbRotatedDimension
  0
DIMENSION
  5
26A
330
1F
100
AcDbEntity
  8
0
  6
Continuous
 62
     7
370
    18
100
AcDbDimension
  2
_D_4
 10
208.94
 20
270.06
 30
0.0
 11
216.94
 21
270.06
 31
0.0
 70
   160
  1
<>
 71
     2
 42
-1.0
  3
SLDDIMSTYLE0
100
AcDbAlignedDimension
 13
224.94
 23
246.56
 33
0.0
 14
208.94
 24
247.06
 34
0.0
100
AcDbRotatedDimension
  0
DIMENSION
  5
276
330
1F
100
AcDbEntity
  8
0
  6
Continuous
 62
     7
370
    18
100
AcDbDimension
  2
_D_5
 10
243.94
 20
220.56
 30
0.0
 11
243.94
 21
209.56
 31
0.0
 70
   160
  1
%%c<>
 71
     2
 42
-1.0
  3
SLDDIMSTYLE0
100
AcDbAlignedDimension
 13
223.44
 23
198.56
 33
0.0
 14
223.44
 24
220.56
 34
0.0
 50
90.0
100
AcDbRotatedDimension
  0
DIMENSION
  5
283
330
1F
100
AcDbEntity
  8
0
  6
Continuous
 62
     7
370
    18
100
AcDbDimension
  2
_D_6
 10
249.94
 20
192.56
 30
0.0
 11
249.94
 21
209.56
 31
0.0
 70
   160
  1
%%c<> f9
 71
     2
 42
-1.0
  3
SLDDIMSTYLE2
100
AcDbAlignedDimension
 13
233.44
 23
226.56
 33
0.0
 14
233.44
 24
192.56
 34
0.0
 50
90.0
100
AcDbRotatedDimension
  0
DIMENSION
  5
290
330
1F
100
AcDbEntity
  8
0
  6
Continuous
 62
     7
370
    18
100
AcDbDimension
  2
_D_7
 10
224.94
 20
264.06
 30
0.0
 11
229.44
 21
264.06
 31
0.0
 70
   160
  1
<>
 71
     2
 42
-1.0
  3
SLDDIMSTYLE0
100
AcDbAlignedDimension
 13
233.94
 23
226.06
 33
0.0
 14
224.94
 24
246.56
 34
0.0
100
AcDbRotatedDimension
  0
LINE
  5
29C
330
1F
100
AcDbEntity
  8
0
  6
CENTERX2
 62
     7
370
    18
100
AcDbLine
 10
225.44
 20
209.56
 30
0.0
 11
143.94
 21
209.56
 31
0.0
  0
LINE
  5
29D
330
1F
100
AcDbEntity
  8
0
  6
CENTERX2
 62
     7
370
    18
100
AcDbLine
 10
221.94
 20
209.56
 30
0.0
 11
233.44
 21
209.56
 31
0.0
  0
LINE
  5
29E
330
1F
100
AcDbEntity
  8
0
  6
CENTERX2
 62
     7
370
    18
100
AcDbLine
 10
105.94
 20
209.56
 30
0.0
 11
167.94
 21
209.56
 31
0.0
  0
LINE
  5
29F
330
1F
100
AcDbEntity
  8
0
  6
CENTERX2
 62
     7
370
    18
100
AcDbLine
 10
85.44
 20
235.71
 30
0.0
 11
182.44
 21
235.71
 31
0.0
  0
LINE
  5
2A0
330
1F
100
AcDbEntity
  8
0
  6
CENTERX2
 62
     7
370
    18
100
AcDbLine
 10
85.44
 20
183.41
 30
0.0
 11
182.44
 21
183.41
 31
0.0
  0
LINE
  5
2A1
330
1F
100
AcDbEntity
  8
0
  6
CENTERX2
 62
     7
370
    18
100
AcDbLine
 10
105.94
 20
209.56
 30
0.0
 11
79.94
 21
209.56
 31
0.0
  0
LINE
  5
2A2
330
1F
100
AcDbEntity
  8
0
  6
Continuous
 62
     7
370
    25
100
AcDbLine
 10
136.94
 20
103.56
 30
0.0
 11
136.44
 21
104.06
 31
0.0
  0
LINE
  5
2A3
330
1F
100
AcDbEntity
  8
0
  6
Continuous
 62
     7
370
    25
100
AcDbLine
 10
123.44
 20
104.06
 30
0.0
 11
122.94
 21
103.56
 31
0.0
  0
LINE
  5
2A4
330
1F
100
AcDbEntity
  8
0
  6
Continuous
 62
     7
370
    25
100
AcDbLine
 10
143.7964064606
 20
99.3035935394
 30
0.0
 11
141.94
 21
101.16
 31
0.0
  0
LINE
  5
2A5
330
1F
100
AcDbEntity
  8
0
  6
Continuous
 62
     7
370
    25
100
AcDbLine
 10
142.14
 20
97.06
 30
0.0
 11
143.7964064606
 21
98.7164064606
 31
0.0
  0
LINE
  5
2A6
330
1F
100
AcDbEntity
  8
0
  6
Continuous
 62
     7
370
    25
100
AcDbLine
 10
116.0835935394
 20
98.7164064606
 30
0.0
 11
117.74
 21
97.06
 31
0.0
  0
LINE
  5
2A7
330
1F
100
AcDbEntity
  8
0
  6
Continuous
 62
     7
370
    25
100
AcDbLine
 10
117.94
 20
101.16
 30
0.0
 11
116.0835935394
 21
99.3035935394
 31
0.0
  0
LINE
  5
2A8
330
1F
100
AcDbEntity
  8
0
  6
Continuous
 62
     7
370
    25
100
AcDbLine
 10
139.7549545762
 20
102.2450454238
 30
0.0
 11
138.44
 21
103.56
 31
0.0
  0
LINE
  5
2A9
330
1F
100
AcDbEntity
  8
0
  6
Continuous
 62
     7
370
    25
100
AcDbLine
 10
121.44
 20
103.56
 30
0.0
 11
120.1250454238
 21
102.2450454238
 31
0.0
  0
SPLINE
  5
2AA
330
1F
100
AcDbEntity
  8
0
  6
Continuous
 62
     7
370
    25
100
AcDbSpline
210
0.0
220
0.0
230
1.0
 70
     8
 71
     3
 72
    10
 73
     6
 74
     0
 42
0.000000001
 43
0.00000001
 40
0.0
 40
0.0
 40
0.0
 40
0.0
 40
0.2999528966734473
 40
0.6483731547620931
 40
1.0
 40
1.0
 40
1.0
 40
1.0
 10
139.2821056358943
 20
97.05999999999999
 30
0.0
 10
139.0304662248828
 20
97.15784565642818
 30
0.0
 10
138.486526691078
 20
97.36934718764083
 30
0.0
 10
137.6799284519595
 20
97.94916936508288
 30
0.0
 10
137.1396032961331
 20
98.4598809853339
 30
0.0
 10
136.8682032302761
 20
98.71640646055101
 30
0.0
  0
LINE
  5
2AB
330
1F
100
AcDbEntity
  8
0
  6
Continuous
 62
     7
370
    25
100
AcDbLine
 10
136.8682032303
 20
99.3035935394
 30
0.0
 11
136.8682032303
 21
98.7164064606
 31
0.0
  0
SPLINE
  5
2AC
330
1F
100
AcDbEntity
  8
0
  6
Continuous
 62
     7
370
    25
100
AcDbSpline
210
0.0
220
0.0
230
1.0
 70
     8
 71
     3
 72
    11
 73
     7
 74
     0
 42
0.000000001
 43
0.00000001
 40
0.0
 40
0.0
 40
0.0
 40
0.0
 40
0.43204413047641
 40
0.6543472571074035
 40
0.8796505993152987
 40
1.0
 40
1.0
 40
1.0
 40
1.0
 10
136.8682032302761
 20
99.303593539449
 30
0.0
 10
137.3427315300334
 20
99.74007620563799
 30
0.0
 10
138.0614226762912
 20
100.4011457937858
 30
0.0
 10
139.0906000727997
 20
100.935501539674
 30
0.0
 10
139.7703510483023
 20
101.1355608130084
 30
0.0
 10
140.1871750351179
 20
101.1536883519782
 30
0.0
 10
140.3323048454138
 20
101.16
 30
0.0
  0
SPLINE
  5
2AD
330
1F
100
AcDbEntity
  8
0
  6
Continuous
 62
     7
370
    25
100
AcDbSpline
210
0.0
220
0.0
230
1.0
 70
     8
 71
     3
 72
    11
 73
     7
 74
     0
 42
0.000000001
 43
0.00000001
 40
0.0
 40
0.0
 40
0.0
 40
0.0
 40
0.2495768535213327
 40
0.5043619258214574
 40
0.7510458202383332
 40
1.0
 40
1.0
 40
1.0
 40
1.0
 10
140.3323048454138
 20
101.16
 30
0.0
 10
140.6335296633084
 20
101.1335287053158
 30
0.0
 10
141.2422653177369
 20
101.0800337077727
 30
0.0
 10
142.1283070173602
 20
100.666333049059
 30
0.0
 10
142.9850434423785
 20
100.0755810477458
 30
0.0
 10
143.5251274973213
 20
99.56170731366198
 30
0.0
 10
143.7964064605516
 20
99.30359353944898
 30
0.0
  0
LINE
  5
2AE
330
1F
100
AcDbEntity
  8
0
  6
Continuous
 62
     7
370
    25
100
AcDbLine
 10
143.7964064606
 20
99.3035935394
 30
0.0
 11
143.7964064606
 21
98.7164064606
 31
0.0
  0
SPLINE
  5
2AF
330
1F
100
AcDbEntity
  8
0
  6
Continuous
 62
     7
370
    25
100
AcDbSpline
210
0.0
220
0.0
230
1.0
 70
     8
 71
     3
 72
    10
 73
     6
 74
     0
 42
0.000000001
 43
0.00000001
 40
0.0
 40
0.0
 40
0.0
 40
0.0
 40
0.6090200620035252
 40
0.9223840320569905
 40
1.0
 40
1.0
 40
1.0
 40
1.0
 10
143.7964064605516
 20
98.71640646055101
 30
0.0
 10
143.321339725653
 20
98.28788809937275
 30
0.0
 10
142.6018330989086
 20
97.63888075387784
 30
0.0
 10
141.7749689649922
 20
97.16160005862142
 30
0.0
 10
141.4431471709549
 20
97.07682854415289
 30
0.0
 10
141.3772750705582
 20
97.05999999999999
 30
0.0
  0
SPLINE
  5
2B0
330
1F
100
AcDbEntity
  8
0
  6
Continuous
 62
     7
370
    25
100
AcDbSpline
210
0.0
220
0.0
230
1.0
 70
     8
 71
     3
 72
    10
 73
     6
 74
     0
 42
0.000000001
 43
0.00000001
 40
0.0
 40
0.0
 40
0.0
 40
0.0
 40
0.4433663523993253
 40
0.9021562553353577
 40
1.0
 40
1.0
 40
1.0
 40
1.0
 10
136.8682032302761
 20
98.71640646055101
 30
0.0
 10
136.1626059696484
 20
98.39379211296448
 30
0.0
 10
134.7268655735225
 20
97.73734051224855
 30
0.0
 10
133.0453424982118
 20
97.16015122952062
 30
0.0
 10
132.0722496476701
 20
97.07497251309957
 30
0.0
 10
131.9012016903399
 20
97.06
 30
0.0
  0
SPLINE
  5
2B1
330
1F
100
AcDbEntity
  8
0
  6
Continuous
 62
     7
370
    25
100
AcDbSpline
210
0.0
220
0.0
230
1.0
 70
     8
 71
     3
 72
    11
 73
     7
 74
     0
 42
0.000000001
 43
0.00000001
 40
0.0
 40
0.0
 40
0.0
 40
0.0
 40
0.0405778104788589
 40
0.3941906230675545
 40
0.7608637224128559
 40
1.0
 40
1.0
 40
1.0
 40
1.0
 10
129.9400000000006
 20
101.16
 30
0.0
 10
130.0378089608816
 20
101.1592405644339
 30
0.0
 10
130.9879680447828
 20
101.151863074731
 30
0.0
 10
132.8193259631079
 20
100.8993168498879
 30
0.0
 10
135.0281907678877
 20
100.1786557318981
 30
0.0
 10
136.3474434291979
 20
99.55125339099116
 30
0.0
 10
136.8682032302761
 20
99.30359353944901
 30
0.0
  0
LINE
  5
2B2
330
1F
100
AcDbEntity
  8
0
  6
Continuous
 62
     7
370
    25
100
AcDbLine
 10
129.94
 20
101.16
 30
0.0
 11
140.3323048454
 21
101.16
 31
0.0
  0
SPLINE
  5
2B3
330
1F
100
AcDbEntity
  8
0
  6
Continuous
 62
     7
370
    25
100
AcDbSpline
210
0.0
220
0.0
230
1.0
 70
     8
 71
     3
 72
    10
 73
     6
 74
     0
 42
0.000000001
 43
0.00000001
 40
0.0
 40
0.0
 40
0.0
 40
0.0
 40
0.1879994248618275
 40
0.6794721205531681
 40
1.0
 40
1.0
 40
1.0
 40
1.0
 10
128.1163070979581
 20
97.06
 30
0.0
 10
127.7795384965018
 20
97.0953806178412
 30
0.0
 10
126.562381178412
 20
97.22325411239426
 30
0.0
 10
124.8532789537979
 20
97.85329347371808
 30
0.0
 10
123.5329725310142
 20
98.47212846976628
 30
0.0
 10
123.011796769725
 20
98.71640646055101
 30
0.0
  0
LINE
  5
2B4
330
1F
100
AcDbEntity
  8
0
  6
Continuous
 62
     7
370
    25
100
AcDbLine
 10
123.0117967697
 20
99.3035935394
 30
0.0
 11
123.0117967697
 21
98.7164064606
 31
0.0
  0
SPLINE
  5
2B5
330
1F
100
AcDbEntity
  8
0
  6
Continuous
 62
     7
370
    25
100
AcDbSpline
210
0.0
220
0.0
230
1.0
 70
     8
 71
     3
 72
    10
 73
     6
 74
     0
 42
0.000000001
 43
0.00000001
 40
0.0
 40
0.0
 40
0.0
 40
0.0
 40
0.3224976220939159
 40
0.6562140891574935
 40
1.0
 40
1.0
 40
1.0
 40
1.0
 10
123.011796769725
 20
99.30359353944898
 30
0.0
 10
123.7165376357489
 20
99.63165790154233
 30
0.0
 10
125.150535450949
 20
100.2991991229576
 30
0.0
 10
127.4758304273292
 20
101.006452273709
 30
0.0
 10
129.1105116074045
 20
101.1083127873664
 30
0.0
 10
129.9400000000006
 20
101.16
 30
0.0
  0
SPLINE
  5
2B6
330
1F
100
AcDbEntity
  8
0
  6
Continuous
 62
     7
370
    25
100
AcDbSpline
210
0.0
220
0.0
230
1.0
 70
     8
 71
     3
 72
    10
 73
     6
 74
     0
 42
0.000000001
 43
0.00000001
 40
0.0
 40
0.0
 40
0.0
 40
0.0
 40
0.6090200620035272
 40
0.9223840320569908
 40
0.9999999999999999
 40
0.9999999999999999
 40
0.9999999999999999
 40
0.9999999999999999
 10
123.011796769725
 20
98.71640646055101
 30
0.0
 10
122.5367300348265
 20
98.28788809937275
 30
0.0
 10
121.8172234080821
 20
97.63888075387781
 30
0.0
 10
120.9903592741657
 20
97.16160005862143
 30
0.0
 10
120.6585374801284
 20
97.07682854415287
 30
0.0
 10
120.5926653797317
 20
97.05999999999999
 30
0.0
  0
SPLINE
  5
2B7
330
1F
100
AcDbEntity
  8
0
  6
Continuous
 62
     7
370
    25
100
AcDbSpline
210
0.0
220
0.0
230
1.0
 70
     8
 71
     3
 72
    11
 73
     7
 74
     0
 42
0.000000001
 43
0.00000001
 40
0.0
 40
0.0
 40
0.0
 40
0.0
 40
0.2495768535213327
 40
0.504361925821457
 40
0.7510458202383331
 40
0.9999999999999999
 40
0.9999999999999999
 40
0.9999999999999999
 40
0.9999999999999999
 10
119.5476951545873
 20
101.16
 30
0.0
 10
119.8489199724818
 20
101.1335287053158
 30
0.0
 10
120.4576556269104
 20
101.0800337077727
 30
0.0
 10
121.3436973265336
 20
100.666333049059
 30
0.0
 10
122.200433751552
 20
100.0755810477457
 30
0.0
 10
122.7405178064947
 20
99.56170731366198
 30
0.0
 10
123.011796769725
 20
99.30359353944898
 30
0.0
  0
LINE
  5
2B8
330
1F
100
AcDbEntity
  8
0
  6
Continuous
 62
     7
370
    25
100
AcDbLine
 10
119.5476951546
 20
101.16
 30
0.0
 11
129.94
 21
101.16
 31
0.0
  0
SPLINE
  5
2B9
330
1F
100
AcDbEntity
  8
0
  6
Continuous
 62
     7
370
    25
100
AcDbSpline
210
0.0
220
0.0
230
1.0
 70
     8
 71
     3
 72
    10
 73
     6
 74
     0
 42
0.000000001
 43
0.00000001
 40
0.0
 40
0.0
 40
0.0
 40
0.0
 40
0.2999528966734445
 40
0.6483731547620932
 40
1.0
 40
1.0
 40
1.0
 40
1.0
 10
118.4974959450677
 20
97.06
 30
0.0
 10
118.2458565340563
 20
97.15784565642818
 30
0.0
 10
117.7019170002515
 20
97.36934718764083
 30
0.0
 10
116.8953187611329
 20
97.94916936508288
 30
0.0
 10
116.3549936053066
 20
98.4598809853339
 30
0.0
 10
116.0835935394495
 20
98.71640646055101
 30
0.0
  0
LINE
  5
2BA
330
1F
100
AcDbEntity
  8
0
  6
Continuous
 62
     7
370
    25
100
AcDbLine
 10
116.0835935394
 20
99.3035935394
 30
0.0
 11
116.0835935394
 21
98.7164064606
 31
0.0
  0
SPLINE
  5
2BB
330
1F
100
AcDbEntity
  8
0
  6
Continuous
 62
     7
370
    25
100
AcDbSpline
210
0.0
220
0.0
230
1.0
 70
     8
 71
     3
 72
    11
 73
     7
 74
     0
 42
0.000000001
 43
0.00000001
 40
0.0
 40
0.0
 40
0.0
 40
0.0
 40
0.4320441304764102
 40
0.6543472571074034
 40
0.8796505993152971
 40
1.0
 40
1.0
 40
1.0
 40
1.0
 10
116.0835935394495
 20
99.303593539449
 30
0.0
 10
116.5581218392068
 20
99.74007620563799
 30
0.0
 10
117.2768129854646
 20
100.4011457937858
 30
0.0
 10
118.3059903819732
 20
100.935501539674
 30
0.0
 10
118.9857413574757
 20
101.1355608130084
 30
0.0
 10
119.4025653442914
 20
101.1536883519782
 30
0.0
 10
119.5476951545873
 20
101.16
 30
0.0
  0
SPLINE
  5
2BC
330
1F
100
AcDbEntity
  8
0
  6
Continuous
 62
     7
370
    25
100
AcDbSpline
210
0.0
220
0.0
230
1.0
 70
     8
 71
     3
 72
    10
 73
     6
 74
     0
 42
0.000000001
 43
0.00000001
 40
0.0
 40
0.0
 40
0.0
 40
0.0
 40
0.2497057580813447
 40
0.5046223899004515
 40
1.0
 40
1.0
 40
1.0
 40
1.0
 10
137.3012159321683
 20
103.56
 30
0.0
 10
137.5144629819428
 20
103.5407271020136
 30
0.0
 10
137.9454071328637
 20
103.5017791181269
 30
0.0
 10
138.7830525751453
 20
103.12240412957
 30
0.0
 10
139.3684495028653
 20
102.5939526084189
 30
0.0
 10
139.7549545762242
 20
102.2450454237764
 30
0.0
  0
LINE
  5
2BD
330
1F
100
AcDbEntity
  8
0
  6
Continuous
 62
     7
370
    25
100
AcDbLine
 10
139.7549545762
 20
102.2450454238
 30
0.0
 11
139.7549545762
 21
101.16
 31
0.0
  0
LINE
  5
2BE
330
1F
100
AcDbEntity
  8
0
  6
Continuous
 62
     7
370
    25
100
AcDbLine
 10
134.8474772881
 20
102.2450454238
 30
0.0
 11
134.8474772881
 21
101.16
 31
0.0
  0
SPLINE
  5
2BF
330
1F
100
AcDbEntity
  8
0
  6
Continuous
 62
     7
370
    25
100
AcDbSpline
210
0.0
220
0.0
230
1.0
 70
     8
 71
     3
 72
    11
 73
     7
 74
     0
 42
0.000000001
 43
0.00000001
 40
0.0
 40
0.0
 40
0.0
 40
0.0
 40
0.4320430193638694
 40
0.6543455292941824
 40
0.8796482225985358
 40
1.0
 40
1.0
 40
1.0
 40
1.0
 10
134.8474772881124
 20
102.2450454237764
 30
0.0
 10
135.1836006189462
 20
102.5542199059056
 30
0.0
 10
135.6926721441531
 20
103.0224763782611
 30
0.0
 10
136.4216706868937
 20
103.400978325532
 30
0.0
 10
136.9031618137194
 20
103.5426884352372
 30
0.0
 10
137.1984136181395
 20
103.5555290779957
 30
0.0
 10
137.3012159321683
 20
103.56
 30
0.0
  0
SPLINE
  5
2C0
330
1F
100
AcDbEntity
  8
0
  6
Continuous
 62
     7
370
    25
100
AcDbSpline
210
0.0
220
0.0
230
1.0
 70
     8
 71
     3
 72
    11
 73
     7
 74
     0
 42
0.000000001
 43
0.00000001
 40
0.0
 40
0.0
 40
0.0
 40
0.0
 40
0.0498563691383165
 40
0.3999064981623695
 40
0.7625185509028874
 40
1.0
 40
1.0
 40
1.0
 40
1.0
 10
129.9400000000006
 20
103.56
 30
0.0
 10
130.025127071078
 20
103.5591920310894
 30
0.0
 10
130.7079459261567
 20
103.5527111737139
 30
0.0
 10
132.006966353655
 20
103.3672605540237
 30
0.0
 10
133.5555429509482
 20
102.8597074610918
 30
0.0
 10
134.4811692482341
 20
102.4193233569497
 30
0.0
 10
134.8474772881124
 20
102.2450454237764
 30
0.0
  0
LINE
  5
2C1
330
1F
100
AcDbEntity
  8
0
  6
Continuous
 62
     7
370
    25
100
AcDbLine
 10
129.94
 20
103.56
 30
0.0
 11
137.3012159322
 21
103.56
 31
0.0
  0
LINE
  5
2C2
330
1F
100
AcDbEntity
  8
0
  6
Continuous
 62
     7
370
    25
100
AcDbLine
 10
125.0325227119
 20
102.2450454238
 30
0.0
 11
125.0325227119
 21
101.16
 31
0.0
  0
SPLINE
  5
2C3
330
1F
100
AcDbEntity
  8
0
  6
Continuous
 62
     7
370
    25
100
AcDbSpline
210
0.0
220
0.0
230
1.0
 70
     8
 71
     3
 72
    10
 73
     6
 74
     0
 42
0.000000001
 43
0.00000001
 40
0.0
 40
0.0
 40
0.0
 40
0.0
 40
0.3388723645390125
 40
0.6646901103026058
 40
1.0
 40
1.0
 40
1.0
 40
1.0
 10
125.0325227118887
 20
102.2450454237764
 30
0.0
 10
125.5574472199588
 20
102.4886609490005
 30
0.0
 10
126.587074199557
 20
102.9665070269859
 30
0.0
 10
128.2370621156037
 20
103.4565365413207
 30
0.0
 10
129.3669465974926
 20
103.5251836466998
 30
0.0
 10
129.9400000000006
 20
103.56
 30
0.0
  0
SPLINE
  5
2C4
330
1F
100
AcDbEntity
  8
0
  6
Continuous
 62
     7
370
    25
100
AcDbSpline
210
0.0
220
0.0
230
1.0
 70
     8
 71
     3
 72
    10
 73
     6
 74
     0
 42
0.000000001
 43
0.00000001
 40
0.0
 40
0.0
 40
0.0
 40
0.0
 40
0.2497057580813432
 40
0.5046223899004508
 40
1.0
 40
1.0
 40
1.0
 40
1.0
 10
122.5787840678328
 20
103.56
 30
0.0
 10
122.7920311176073
 20
103.5407271020136
 30
0.0
 10
123.2229752685283
 20
103.5017791181269
 30
0.0
 10
124.0606207108098
 20
103.12240412957
 30
0.0
 10
124.6460176385298
 20
102.5939526084189
 30
0.0
 10
125.0325227118887
 20
102.2450454237764
 30
0.0
  0
LINE
  5
2C5
330
1F
100
AcDbEntity
  8
0
  6
Continuous
 62
     7
370
    25
100
AcDbLine
 10
122.5787840678
 20
103.56
 30
0.0
 11
129.94
 21
103.56
 31
0.0
  0
LINE
  5
2C6
330
1F
100
AcDbEntity
  8
0
  6
Continuous
 62
     7
370
    25
100
AcDbLine
 10
120.1250454238
 20
102.2450454238
 30
0.0
 11
120.1250454238
 21
101.16
 31
0.0
  0
SPLINE
  5
2C7
330
1F
100
AcDbEntity
  8
0
  6
Continuous
 62
     7
370
    25
100
AcDbSpline
210
0.0
220
0.0
230
1.0
 70
     8
 71
     3
 72
    11
 73
     7
 74
     0
 42
0.000000001
 43
0.00000001
 40
0.0
 40
0.0
 40
0.0
 40
0.0
 40
0.4320430193638707
 40
0.654345529294184
 40
0.8796482225985364
 40
1.0
 40
1.0
 40
1.0
 40
1.0
 10
120.1250454237769
 20
102.2450454237764
 30
0.0
 10
120.4611687546107
 20
102.5542199059056
 30
0.0
 10
120.9702402798176
 20
103.0224763782611
 30
0.0
 10
121.6992388225583
 20
103.400978325532
 30
0.0
 10
122.1807299493839
 20
103.5426884352373
 30
0.0
 10
122.475981753804
 20
103.5555290779957
 30
0.0
 10
122.5787840678328
 20
103.56
 30
0.0
  0
LINE
  5
2C8
330
1F
100
AcDbEntity
  8
0
  6
Continuous
 62
     7
370
    25
100
AcDbLine
 10
130.44
 20
104.06
 30
0.0
 11
136.44
 21
104.06
 31
0.0
  0
LINE
  5
2C9
330
1F
100
AcDbEntity
  8
0
  6
Continuous
 62
     7
370
    25
100
AcDbLine
 10
130.44
 20
103.56
 30
0.0
 11
130.44
 21
104.06
 31
0.0
  0
LINE
  5
2CA
330
1F
100
AcDbEntity
  8
0
  6
Continuous
 62
     7
370
    25
100
AcDbLine
 10
123.44
 20
104.06
 30
0.0
 11
129.44
 21
104.06
 31
0.0
  0
LINE
  5
2CB
330
1F
100
AcDbEntity
  8
0
  6
Continuous
 62
     7
370
    25
100
AcDbLine
 10
129.44
 20
104.06
 30
0.0
 11
129.44
 21
103.56
 31
0.0
  0
LINE
  5
2CC
330
1F
100
AcDbEntity
  8
0
  6
Continuous
 62
     7
370
    25
100
AcDbLine
 10
140.3323048454
 20
101.16
 30
0.0
 11
141.94
 21
101.16
 31
0.0
  0
LINE
  5
2CD
330
1F
100
AcDbEntity
  8
0
  6
Continuous
 62
     7
370
    25
100
AcDbLine
 10
117.94
 20
101.16
 30
0.0
 11
119.5476951546
 21
101.16
 31
0.0
  0
LINE
  5
2CE
330
1F
100
AcDbEntity
  8
0
  6
Continuous
 62
     7
370
    25
100
AcDbLine
 10
137.3012159322
 20
103.56
 30
0.0
 11
138.44
 21
103.56
 31
0.0
  0
LINE
  5
2CF
330
1F
100
AcDbEntity
  8
0
  6
Continuous
 62
     7
370
    25
100
AcDbLine
 10
121.44
 20
103.56
 30
0.0
 11
122.5787840678
 21
103.56
 31
0.0
  0
CIRCLE
  5
2D0
330
1F
100
AcDbEntity
  8
0
  6
Continuous
 62
     7
370
    25
100
AcDbCircle
 10
129.94
 20
59.56
 30
0.0
 40
5.25
  0
CIRCLE
  5
2D1
330
1F
100
AcDbEntity
  8
0
  6
Continuous
 62
     7
370
    25
100
AcDbCircle
 10
129.94
 20
59.56
 30
0.0
 40
5.550000000000011
  0
ARC
  5
2D2
330
1F
100
AcDbEntity
  8
0
  6
Continuous
 62
     7
370
    25
100
AcDbCircle
 10
129.94
 20
59.56
 30
0.0
 40
10.5
100
AcDbArc
 50
31.0027191339
 51
58.9972808661
  0
ARC
  5
2D3
330
1F
100
AcDbEntity
  8
0
  6
Continuous
 62
     7
370
    25
100
AcDbCircle
 10
129.94
 20
59.56
 30
0.0
 40
10.0
100
AcDbArc
 50
25.8419327632
 51
64.1580672368
  0
LINE
  5
2D4
330
1F
100
AcDbEntity
  8
0
  6
Continuous
 62
     7
370
    25
100
AcDbLine
 10
134.2988989435
 20
68.56
 30
0.0
 11
135.3483269132
 21
68.56
 31
0.0
  0
LINE
  5
2D5
330
1F
100
AcDbEntity
  8
0
  6
Continuous
 62
     7
370
    25
100
AcDbLine
 10
138.94
 20
64.9683269132
 30
0.0
 11
138.94
 21
63.9188989435
 31
0.0
  0
ARC
  5
2D6
330
1F
100
AcDbEntity
  8
0
  6
Continuous
 62
     7
370
    25
100
AcDbCircle
 10
129.94
 20
59.56
 30
0.0
 40
10.5
100
AcDbArc
 50
301.0027191339
 51
328.9972808661
  0
ARC
  5
2D7
330
1F
100
AcDbEntity
  8
0
  6
Continuous
 62
     7
370
    25
100
AcDbCircle
 10
129.94
 20
59.56
 30
0.0
 40
10.0
100
AcDbArc
 50
295.8419327632
 51
334.1580672368
  0
LINE
  5
2D8
330
1F
100
AcDbEntity
  8
0
  6
Continuous
 62
     7
370
    25
100
AcDbLine
 10
135.3483269132
 20
50.56
 30
0.0
 11
134.2988989435
 21
50.56
 31
0.0
  0
LINE
  5
2D9
330
1F
100
AcDbEntity
  8
0
  6
Continuous
 62
     7
370
    25
100
AcDbLine
 10
138.94
 20
55.2011010565
 30
0.0
 11
138.94
 21
54.1516730868
 31
0.0
  0
ARC
  5
2DA
330
1F
100
AcDbEntity
  8
0
  6
Continuous
 62
     7
370
    25
100
AcDbCircle
 10
129.94
 20
59.56
 30
0.0
 40
10.00000000000001
100
AcDbArc
 50
205.8419327632
 51
244.1580672368
  0
LINE
  5
2DB
330
1F
100
AcDbEntity
  8
0
  6
Continuous
 62
     7
370
    25
100
AcDbLine
 10
120.94
 20
63.9188989435
 30
0.0
 11
120.94
 21
55.2011010565
 31
0.0
  0
ARC
  5
2DC
330
1F
100
AcDbEntity
  8
0
  6
Continuous
 62
     7
370
    25
100
AcDbCircle
 10
129.94
 20
59.56
 30
0.0
 40
10.0
100
AcDbArc
 50
115.8419327632
 51
154.1580672368
  0
LINE
  5
2DD
330
1F
100
AcDbEntity
  8
0
  6
Continuous
 62
     7
370
    25
100
AcDbLine
 10
125.5811010565
 20
50.56
 30
0.0
 11
134.2988989435
 21
50.56
 31
0.0
  0
LINE
  5
2DE
330
1F
100
AcDbEntity
  8
0
  6
Continuous
 62
     7
370
    25
100
AcDbLine
 10
134.2988989435
 20
68.56
 30
0.0
 11
125.5811010565
 21
68.56
 31
0.0
  0
LINE
  5
2DF
330
1F
100
AcDbEntity
  8
0
  6
Continuous
 62
     7
370
    25
100
AcDbLine
 10
138.94
 20
55.2011010565
 30
0.0
 11
138.94
 21
63.9188989435
 31
0.0
  0
ARC
  5
2E0
330
1F
100
AcDbEntity
  8
0
  6
Continuous
 62
     7
370
    25
100
AcDbCircle
 10
129.94
 20
59.56
 30
0.0
 40
10.50000000000001
100
AcDbArc
 50
211.0027191339
 51
238.9972808661
  0
LINE
  5
2E1
330
1F
100
AcDbEntity
  8
0
  6
Continuous
 62
     7
370
    25
100
AcDbLine
 10
120.94
 20
54.1516730868
 30
0.0
 11
120.94
 21
55.2011010565
 31
0.0
  0
LINE
  5
2E2
330
1F
100
AcDbEntity
  8
0
  6
Continuous
 62
     7
370
    25
100
AcDbLine
 10
125.5811010565
 20
50.56
 30
0.0
 11
124.5316730868
 21
50.56
 31
0.0
  0
ARC
  5
2E3
330
1F
100
AcDbEntity
  8
0
  6
Continuous
 62
     7
370
    25
100
AcDbCircle
 10
129.94
 20
59.56
 30
0.0
 40
10.50000000000001
100
AcDbArc
 50
121.0027191339
 51
148.9972808661
  0
LINE
  5
2E4
330
1F
100
AcDbEntity
  8
0
  6
Continuous
 62
     7
370
    25
100
AcDbLine
 10
120.94
 20
63.9188989435
 30
0.0
 11
120.94
 21
64.9683269132
 31
0.0
  0
LINE
  5
2E5
330
1F
100
AcDbEntity
  8
0
  6
Continuous
 62
     7
370
    25
100
AcDbLine
 10
124.5316730868
 20
68.56
 30
0.0
 11
125.5811010565
 21
68.56
 31
0.0
  0
ARC
  5
2E6
330
1F
100
AcDbEntity
  8
0
  6
Continuous
 62
     7
370
    25
100
AcDbCircle
 10
129.94
 20
59.56
 30
0.0
 40
10.5
100
AcDbArc
 50
238.9972808661
 51
301.0027191339
  0
ARC
  5
2E7
330
1F
100
AcDbEntity
  8
0
  6
Continuous
 62
     7
370
    25
100
AcDbCircle
 10
129.94
 20
59.56
 30
0.0
 40
10.5
100
AcDbArc
 50
328.9972808661
 51
31.0027191339
  0
ARC
  5
2E8
330
1F
100
AcDbEntity
  8
0
  6
Continuous
 62
     7
370
    25
100
AcDbCircle
 10
129.94
 20
59.56
 30
0.0
 40
10.50000000000001
100
AcDbArc
 50
58.9972808661
 51
121.0027191339
  0
ARC
  5
2E9
330
1F
100
AcDbEntity
  8
0
  6
Continuous
 62
     7
370
    25
100
AcDbCircle
 10
129.94
 20
59.56
 30
0.0
 40
10.50000000000001
100
AcDbArc
 50
148.9972808661
 51
211.0027191339
  0
LINE
  5
2EA
330
1F
100
AcDbEntity
  8
0
  6
Continuous
 62
     7
370
    25
100
AcDbLine
 10
156.09
 20
97.33
 30
0.0
 11
155.622346282
 21
97.06
 31
0.0
  0
LINE
  5
2EB
330
1F
100
AcDbEntity
  8
0
  6
Continuous
 62
     7
370
    25
100
AcDbLine
 10
156.557653718
 20
97.06
 30
0.0
 11
156.09
 21
97.33
 31
0.0
  0
LINE
  5
2EC
330
1F
100
AcDbEntity
  8
0
  6
Continuous
 62
     7
370
    25
100
AcDbLine
 10
155.622346282
 20
22.06
 30
0.0
 11
156.09
 21
21.79
 31
0.0
  0
LINE
  5
2ED
330
1F
100
AcDbEntity
  8
0
  6
Continuous
 62
     7
370
    25
100
AcDbLine
 10
156.09
 20
21.79
 30
0.0
 11
156.557653718
 21
22.06
 31
0.0
  0
LINE
  5
2EE
330
1F
100
AcDbEntity
  8
0
  6
Continuous
 62
     7
370
    25
100
AcDbLine
 10
103.79
 20
97.33
 30
0.0
 11
103.322346282
 21
97.06
 31
0.0
  0
LINE
  5
2EF
330
1F
100
AcDbEntity
  8
0
  6
Continuous
 62
     7
370
    25
100
AcDbLine
 10
104.257653718
 20
97.06
 30
0.0
 11
103.79
 21
97.33
 31
0.0
  0
LINE
  5
2F0
330
1F
100
AcDbEntity
  8
0
  6
Continuous
 62
     7
370
    25
100
AcDbLine
 10
103.322346282
 20
22.06
 30
0.0
 11
103.79
 21
21.79
 31
0.0
  0
LINE
  5
2F1
330
1F
100
AcDbEntity
  8
0
  6
Continuous
 62
     7
370
    25
100
AcDbLine
 10
103.79
 20
21.79
 30
0.0
 11
104.257653718
 21
22.06
 31
0.0
  0
CIRCLE
  5
2F2
330
1F
100
AcDbEntity
  8
0
  6
Continuous
 62
     7
370
    25
100
AcDbCircle
 10
129.94
 20
59.56
 30
0.0
 40
16.5
  0
CIRCLE
  5
2F3
330
1F
100
AcDbEntity
  8
0
  6
Continuous
 62
     7
370
    25
100
AcDbCircle
 10
129.94
 20
59.56
 30
0.0
 40
17.0
  0
CIRCLE
  5
2F4
330
1F
100
AcDbEntity
  8
0
  6
Continuous
 62
     7
370
    25
100
AcDbCircle
 10
129.94
 20
59.56
 30
0.0
 40
12.5
  0
CIRCLE
  5
2F5
330
1F
100
AcDbEntity
  8
0
  6
Continuous
 62
     7
370
    25
100
AcDbCircle
 10
129.94
 20
59.56
 30
0.0
 40
11.0
  0
CIRCLE
  5
2F6
330
1F
100
AcDbEntity
  8
0
  6
Continuous
 62
     7
370
    25
100
AcDbCircle
 10
129.94
 20
59.56
 30
0.0
 40
26.5
  0
CIRCLE
  5
2F7
330
1F
100
AcDbEntity
  8
0
  6
Continuous
 62
     7
370
    25
100
AcDbCircle
 10
129.94
 20
59.56
 30
0.0
 40
37.0
  0
LINE
  5
2F8
330
1F
100
AcDbEntity
  8
0
  6
Continuous
 62
     7
370
    25
100
AcDbLine
 10
65.94
 20
22.56
 30
0.0
 11
66.44
 21
22.06
 31
0.0
  0
LINE
  5
2F9
330
1F
100
AcDbEntity
  8
0
  6
Continuous
 62
     7
370
    25
100
AcDbLine
 10
65.94
 20
96.56
 30
0.0
 11
65.94
 21
22.56
 31
0.0
  0
LINE
  5
2FA
330
1F
100
AcDbEntity
  8
0
  6
Continuous
 62
     7
370
    25
100
AcDbLine
 10
66.44
 20
97.06
 30
0.0
 11
65.94
 21
96.56
 31
0.0
  0
LINE
  5
2FB
330
1F
100
AcDbEntity
  8
0
  6
Continuous
 62
     7
370
    25
100
AcDbLine
 10
66.44
 20
97.06
 30
0.0
 11
193.44
 21
97.06
 31
0.0
  0
LINE
  5
2FC
330
1F
100
AcDbEntity
  8
0
  6
Continuous
 62
     7
370
    25
100
AcDbLine
 10
193.94
 20
96.56
 30
0.0
 11
193.44
 21
97.06
 31
0.0
  0
LINE
  5
2FD
330
1F
100
AcDbEntity
  8
0
  6
Continuous
 62
     7
370
    25
100
AcDbLine
 10
193.44
 20
22.06
 30
0.0
 11
193.94
 21
22.56
 31
0.0
  0
LINE
  5
2FE
330
1F
100
AcDbEntity
  8
0
  6
Continuous
 62
     7
370
    25
100
AcDbLine
 10
66.44
 20
22.06
 30
0.0
 11
193.44
 21
22.06
 31
0.0
  0
CIRCLE
  5
2FF
330
1F
100
AcDbEntity
  8
0
  6
Continuous
 62
     7
370
    25
100
AcDbCircle
 10
77.44
 20
85.56
 30
0.0
 40
7.499999999999986
  0
CIRCLE
  5
300
330
1F
100
AcDbEntity
  8
0
  6
Continuous
 62
     7
370
    25
100
AcDbCircle
 10
182.44
 20
85.56
 30
0.0
 40
7.499999999999972
  0
CIRCLE
  5
301
330
1F
100
AcDbEntity
  8
0
  6
Continuous
 62
     7
370
    25
100
AcDbCircle
 10
182.44
 20
33.56
 30
0.0
 40
7.499999999999972
  0
CIRCLE
  5
302
330
1F
100
AcDbEntity
  8
0
  6
Continuous
 62
     7
370
    25
100
AcDbCircle
 10
77.44
 20
33.56
 30
0.0
 40
7.499999999999986
  0
LINE
  5
303
330
1F
100
AcDbEntity
  8
0
  6
Continuous
 62
     7
370
    25
100
AcDbLine
 10
193.94
 20
96.56
 30
0.0
 11
193.94
 21
22.56
 31
0.0
  0
CIRCLE
  5
304
330
1F
100
AcDbEntity
  8
0
  6
Continuous
 62
     7
370
    25
100
AcDbCircle
 10
182.44
 20
85.56
 30
0.0
 40
7.0
  0
CIRCLE
  5
305
330
1F
100
AcDbEntity
  8
0
  6
Continuous
 62
     7
370
    25
100
AcDbCircle
 10
182.44
 20
33.56
 30
0.0
 40
7.0
  0
CIRCLE
  5
306
330
1F
100
AcDbEntity
  8
0
  6
Continuous
 62
     7
370
    25
100
AcDbCircle
 10
77.44
 20
33.56
 30
0.0
 40
7.000000000000014
  0
CIRCLE
  5
307
330
1F
100
AcDbEntity
  8
0
  6
Continuous
 62
     7
370
    25
100
AcDbCircle
 10
77.44
 20
85.56
 30
0.0
 40
7.000000000000014
  0
DIMENSION
  5
308
330
1F
100
AcDbEntity
  8
0
  6
Continuous
 62
     7
370
    18
100
AcDbDimension
  2
_D_8
 10
125.5833059788
 20
62.9982724159
 30
0.0
 11
191.94001
 21
10.6300441254
 31
0.0
 70
   163
  1
M16x1.5
 71
     1
 42
-1.0
  3
SLDDIMSTYLE3
100
AcDbDiametricDimension
 15
134.2966940212
 25
56.1217275841
 35
0.0
 40
0.0
  0
DIMENSION
  5
314
330
1F
100
AcDbEntity
  8
0
  6
Continuous
 62
     7
370
    18
100
AcDbDimension
  2
_D_9
 10
158.984626808
 20
82.4818161057
 30
0.0
 11
67.94001
 21
10.6300441254
 31
0.0
 70
   163
  1
<>
 71
     1
 42
-1.0
  3
SLDDIMSTYLE4
100
AcDbDiametricDimension
 15
100.895373192
 25
36.6381838943
 35
0.0
 40
0.0
  0
DIMENSION
  5
31E
330
1F
100
AcDbEntity
  8
0
  6
Continuous
 62
     7
370
    18
100
AcDbDimension
  2
_D_10
 10
203.94
 20
33.56
 30
0.0
 11
203.94
 21
59.56
 31
0.0
 70
   160
  1
<>
 71
     2
 42
-1.0
  3
SLDDIMSTYLE1
100
AcDbAlignedDimension
 13
192.44
 23
85.56
 33
0.0
 14
191.94
 24
33.56
 34
0.0
 50
90.0
100
AcDbRotatedDimension
  0
DIMENSION
  5
328
330
1F
100
AcDbEntity
  8
0
  6
Continuous
 62
     7
370
    18
100
AcDbDimension
  2
_D_11
 10
209.94
 20
97.06
 30
0.0
 11
209.94
 21
59.56
 31
0.0
 70
   160
  1
<>
 71
     2
 42
-1.0
  3
SLDDIMSTYLE1
100
AcDbAlignedDimension
 13
193.44
 23
22.06
 33
0.0
 14
193.44
 24
97.06
 34
0.0
 50
90.0
100
AcDbRotatedDimension
  0
DIMENSION
  5
332
330
1F
100
AcDbEntity
  8
0
  6
Continuous
 62
     7
370
    18
100
AcDbDimension
  2
_D_12
 10
182.44
 20
114.06
 30
0.0
 11
129.94
 21
114.06
 31
0.0
 70
   160
  1
<>
 71
     2
 42
-1.0
  3
SLDDIMSTYLE1
100
AcDbAlignedDimension
 13
77.44
 23
95.56
 33
0.0
 14
182.44
 24
95.56
 34
0.0
100
AcDbRotatedDimension
  0
DIMENSION
  5
33C
330
1F
100
AcDbEntity
  8
0
  6
Continuous
 62
     7
370
    18
100
AcDbDimension
  2
_D_13
 10
193.94
 20
120.06
 30
0.0
 11
129.94
 21
120.06
 31
0.0
 70
   160
  1
<>
 71
     2
 42
-1.0
  3
SLDDIMSTYLE1
100
AcDbAlignedDimension
 13
65.94
 23
96.56
 33
0.0
 14
193.94
 24
96.56
 34
0.0
100
AcDbRotatedDimension
  0
DIMENSION
  5
346
330
1F
100
AcDbEntity
  8
0
  6
Continuous
 62
     7
370
    18
100
AcDbDimension
  2
_D_14
 10
82.9947236757
 20
90.5993496492
 30
0.0
 11
55.94001
 21
66.05480618
 31
0.0
 70
   163
  1
M12x1.75
 71
     1
 42
-1.0
  3
SLDDIMSTYLE3
100
AcDbDiametricDimension
 15
71.8852763243
 25
80.5206503508
 35
0.0
 40
0.0
  0
INSERT
  5
359
330
1F
100
AcDbEntity
  8
0
  6
Continuous
 62
     7
370
     0
100
AcDbBlockReference
  2
SW_CENTERMARKSYMBOL_0
 10
77.44
 20
85.56
 30
0.0
  0
INSERT
  5
365
330
1F
100
AcDbEntity
  8
0
  6
Continuous
 62
     7
370
     0
100
AcDbBlockReference
  2
SW_CENTERMARKSYMBOL_1
 10
182.44
 20
85.56
 30
0.0
  0
INSERT
  5
371
330
1F
100
AcDbEntity
  8
0
  6
Continuous
 62
     7
370
     0
100
AcDbBlockReference
  2
SW_CENTERMARKSYMBOL_2
 10
182.44
 20
33.56
 30
0.0
  0
INSERT
  5
37D
330
1F
100
AcDbEntity
  8
0
  6
Continuous
 62
     7
370
     0
100
AcDbBlockReference
  2
SW_CENTERMARKSYMBOL_3
 10
77.44
 20
33.56
 30
0.0
  0
ENDSEC
  0
SECTION
  2
OBJECTS
  0
DICTIONARY
  5
C
330
0
100
AcDbDictionary
281
     1
  3
ACAD_GROUP
350
D
  3
ACAD_LAYOUT
350
1A
  3
ACAD_MLINESTYLE
350
17
  3
ACAD_PLOTSETTINGS
350
19
  3
ACAD_PLOTSTYLENAME
350
E
  3
ACAD_SCALELIST
350
47
  0
DICTIONARY
  5
D
102
{ACAD_REACTORS
330
C
102
}
330
C
100
AcDbDictionary
281
     1
  0
DICTIONARY
  5
1A
102
{ACAD_REACTORS
330
C
102
}
330
C
100
AcDbDictionary
281
     1
  3
Layout1
350
1E
  3
Layout2
350
26
  3
Model
350
22
  0
DICTIONARY
  5
17
102
{ACAD_REACTORS
330
C
102
}
330
C
100
AcDbDictionary
281
     1
  3
Standard
350
18
  0
DICTIONARY
  5
19
102
{ACAD_REACTORS
330
C
102
}
330
C
100
AcDbDictionary
281
     1
  0
ACDBDICTIONARYWDFLT
  5
E
102
{ACAD_REACTORS
330
C
102
}
330
C
100
AcDbDictionary
281
     1
  3
Normal
350
F
100
AcDbDictionaryWithDefault
340
F
  0
DICTIONARY
  5
47
102
{ACAD_REACTORS
330
C
102
}
330
C
100
AcDbDictionary
281
     1
  3
A0
350
48
  3
A1
350
49
  3
A2
350
4A
  3
A3
350
4B
  3
A4
350
4C
  3
A5
350
4D
  3
A6
350
4E
  3
A7
350
4F
  3
A8
350
50
  3
A9
350
51
  3
B0
350
52
  3
B1
350
53
  3
B2
350
54
  3
B3
350
55
  3
B4
350
56
  3
B5
350
57
  3
B6
350
58
  3
B7
350
59
  3
B8
350
5A
  3
B9
350
5B
  3
C0
350
5C
  3
C1
350
5D
  3
C2
350
5E
  3
C3
350
5F
  3
C4
350
60
  3
C5
350
61
  3
C6
350
62
  3
C7
350
63
  3
C8
350
64
  3
C9
350
65
  3
D0
350
66
  3
D1
350
67
  3
D2
350
68
  0
LAYOUT
  5
1E
102
{ACAD_REACTORS
330
1A
102
}
330
1A
100
AcDbPlotSettings
  1

  2
none_device
  4

  6

 40
0.0
 41
0.0
 42
0.0
 43
0.0
 44
0.0
 45
0.0
 46
0.0
 47
0.0
 48
0.0
 49
0.0
140
0.0
141
0.0
142
1.0
143
1.0
 70
   688
 72
     1
 73
     0
 74
     5
  7

 75
    16
147
1.0
148
0.0
149
0.0
100
AcDbLayout
  1
Layout1
 70
     1
 71
     1
 10
0.0
 20
0.0
 11
420.0
 21
297.0
 12
0.0
 22
0.0
 32
0.0
 14
1.0000000000E+20
 24
1.0000000000E+20
 34
1.0000000000E+20
 15
-1.0000000000E+20
 25
-1.0000000000E+20
 35
-1.0000000000E+20
146
0.0
 13
0.0
 23
0.0
 33
0.0
 16
1.0
 26
0.0
 36
0.0
 17
0.0
 27
1.0
 37
0.0
 76
     0
330
1B
  0
LAYOUT
  5
26
102
{ACAD_REACTORS
330
1A
102
}
330
1A
100
AcDbPlotSettings
  1

  2
none_device
  4

  6

 40
0.0
 41
0.0
 42
0.0
 43
0.0
 44
0.0
 45
0.0
 46
0.0
 47
0.0
 48
0.0
 49
0.0
140
0.0
141
0.0
142
1.0
143
1.0
 70
   688
 72
     1
 73
     0
 74
     5
  7

 75
    16
147
1.0
148
0.0
149
0.0
100
AcDbLayout
  1
Layout2
 70
     1
 71
     2
 10
0.0
 20
0.0
 11
0.0
 21
0.0
 12
0.0
 22
0.0
 32
0.0
 14
0.0
 24
0.0
 34
0.0
 15
0.0
 25
0.0
 35
0.0
146
0.0
 13
0.0
 23
0.0
 33
0.0
 16
1.0
 26
0.0
 36
0.0
 17
0.0
 27
1.0
 37
0.0
 76
     0
330
23
  0
LAYOUT
  5
22
102
{ACAD_REACTORS
330
1A
102
}
330
1A
100
AcDbPlotSettings
  1

  2
none_device
  4
Letter_(8.50_x_11.00_Inches)
  6

 40
6.35
 41
6.35
 42
6.35000508
 43
6.35000508
 44
215.9
 45
279.4
 46
0.0
 47
0.0
 48
0.0
 49
0.0
140
0.0
141
0.0
142
1.0
143
1.0
 70
  1712
 72
     1
 73
     0
 74
     0
  7

 75
     0
147
1.0
148
0.0
149
0.0
100
AcDbLayout
  1
Model
 70
     1
 71
     0
 10
0.0
 20
0.0
 11
420.0
 21
297.0
 12
0.0
 22
0.0
 32
0.0
 14
0.0
 24
0.0
 34
0.0
 15
420.0
 25
297.0
 35
0.0
146
0.0
 13
0.0
 23
0.0
 33
0.0
 16
1.0
 26
0.0
 36
0.0
 17
0.0
 27
1.0
 37
0.0
 76
     0
330
1F
331
29
  0
MLINESTYLE
  5
18
102
{ACAD_REACTORS
330
17
102
}
330
17
100
AcDbMlineStyle
  2
Standard
 70
     0
  3

 62
   256
 51
90.0
 52
90.0
 71
     2
 49
0.5
 62
   256
  6
BYLAYER
 49
-0.5
 62
   256
  6
BYLAYER
  0
ACDBPLACEHOLDER
  5
F
102
{ACAD_REACTORS
330
E
102
}
330
E
  0
SCALE
  5
48
102
{ACAD_REACTORS
330
47
102
}
330
47
100
AcDbScale
 70
     0
300
1:1
140
1.0
141
1.0
290
     1
  0
SCALE
  5
49
102
{ACAD_REACTORS
330
47
102
}
330
47
100
AcDbScale
 70
     0
300
1:2
140
1.0
141
2.0
290
     0
  0
SCALE
  5
4A
102
{ACAD_REACTORS
330
47
102
}
330
47
100
AcDbScale
 70
     0
300
1:4
140
1.0
141
4.0
290
     0
  0
SCALE
  5
4B
102
{ACAD_REACTORS
330
47
102
}
330
47
100
AcDbScale
 70
     0
300
1:5
140
1.0
141
5.0
290
     0
  0
SCALE
  5
4C
102
{ACAD_REACTORS
330
47
102
}
330
47
100
AcDbScale
 70
     0
300
1:8
140
1.0
141
8.0
290
     0
  0
SCALE
  5
4D
102
{ACAD_REACTORS
330
47
102
}
330
47
100
AcDbScale
 70
     0
300
1:10
140
1.0
141
10.0
290
     0
  0
SCALE
  5
4E
102
{ACAD_REACTORS
330
47
102
}
330
47
100
AcDbScale
 70
     0
300
1:16
140
1.0
141
16.0
290
     0
  0
SCALE
  5
4F
102
{ACAD_REACTORS
330
47
102
}
330
47
100
AcDbScale
 70
     0
300
1:20
140
1.0
141
20.0
290
     0
  0
SCALE
  5
50
102
{ACAD_REACTORS
330
47
102
}
330
47
100
AcDbScale
 70
     0
300
1:30
140
1.0
141
30.0
290
     0
  0
SCALE
  5
51
102
{ACAD_REACTORS
330
47
102
}
330
47
100
AcDbScale
 70
     0
300
1:40
140
1.0
141
40.0
290
     0
  0
SCALE
  5
52
102
{ACAD_REACTORS
330
47
102
}
330
47
100
AcDbScale
 70
     0
300
1:50
140
1.0
141
50.0
290
     0
  0
SCALE
  5
53
102
{ACAD_REACTORS
330
47
102
}
330
47
100
AcDbScale
 70
     0
300
1:100
140
1.0
141
100.0
290
     0
  0
SCALE
  5
54
102
{ACAD_REACTORS
330
47
102
}
330
47
100
AcDbScale
 70
     0
300
2:1
140
2.0
141
1.0
290
     0
  0
SCALE
  5
55
102
{ACAD_REACTORS
330
47
102
}
330
47
100
AcDbScale
 70
     0
300
4:1
140
4.0
141
1.0
290
     0
  0
SCALE
  5
56
102
{ACAD_REACTORS
330
47
102
}
330
47
100
AcDbScale
 70
     0
300
8:1
140
8.0
141
1.0
290
     0
  0
SCALE
  5
57
102
{ACAD_REACTORS
330
47
102
}
330
47
100
AcDbScale
 70
     0
300
10:1
140
10.0
141
1.0
290
     0
  0
SCALE
  5
58
102
{ACAD_REACTORS
330
47
102
}
330
47
100
AcDbScale
 70
     0
300
100:1
140
100.0
141
1.0
290
     0
  0
SCALE
  5
59
102
{ACAD_REACTORS
330
47
102
}
330
47
100
AcDbScale
 70
     0
300
1/128" = 1'-0"
140
0.0078125
141
12.0
290
     0
  0
SCALE
  5
5A
102
{ACAD_REACTORS
330
47
102
}
330
47
100
AcDbScale
 70
     0
300
1/64" = 1'-0"
140
0.015625
141
12.0
290
     0
  0
SCALE
  5
5B
102
{ACAD_REACTORS
330
47
102
}
330
47
100
AcDbScale
 70
     0
300
1/32" = 1'-0"
140
0.03125
141
12.0
290
     0
  0
SCALE
  5
5C
102
{ACAD_REACTORS
330
47
102
}
330
47
100
AcDbScale
 70
     0
300
1/16" = 1'-0"
140
0.0625
141
12.0
290
     0
  0
SCALE
  5
5D
102
{ACAD_REACTORS
330
47
102
}
330
47
100
AcDbScale
 70
     0
300
3/32" = 1'-0"
140
0.09375
141
12.0
290
     0
  0
SCALE
  5
5E
102
{ACAD_REACTORS
330
47
102
}
330
47
100
AcDbScale
 70
     0
300
1/8" = 1'-0"
140
0.125
141
12.0
290
     0
  0
SCALE
  5
5F
102
{ACAD_REACTORS
330
47
102
}
330
47
100
AcDbScale
 70
     0
300
3/16" = 1'-0"
140
0.1875
141
12.0
290
     0
  0
SCALE
  5
60
102
{ACAD_REACTORS
330
47
102
}
330
47
100
AcDbScale
 70
     0
300
1/4" = 1'-0"
140
0.25
141
12.0
290
     0
  0
SCALE
  5
61
102
{ACAD_REACTORS
330
47
102
}
330
47
100
AcDbScale
 70
     0
300
3/8" = 1'-0"
140
0.375
141
12.0
290
     0
  0
SCALE
  5
62
102
{ACAD_REACTORS
330
47
102
}
330
47
100
AcDbScale
 70
     0
300
1/2" = 1'-0"
140
0.5
141
12.0
290
     0
  0
SCALE
  5
63
102
{ACAD_REACTORS
330
47
102
}
330
47
100
AcDbScale
 70
     0
300
3/4" = 1'-0"
140
0.75
141
12.0
290
     0
  0
SCALE
  5
64
102
{ACAD_REACTORS
330
47
102
}
330
47
100
AcDbScale
 70
     0
300
1" = 1'-0"
140
1.0
141
12.0
290
     0
  0
SCALE
  5
65
102
{ACAD_REACTORS
330
47
102
}
330
47
100
AcDbScale
 70
     0
300
1-1/2" = 1'-0"
140
1.5
141
12.0
290
     0
  0
SCALE
  5
66
102
{ACAD_REACTORS
330
47
102
}
330
47
100
AcDbScale
 70
     0
300
3" = 1'-0"
140
3.0
141
12.0
290
     0
  0
SCALE
  5
67
102
{ACAD_REACTORS
330
47
102
}
330
47
100
AcDbScale
 70
     0
300
6" = 1'-0"
140
6.0
141
12.0
290
     0
  0
SCALE
  5
68
102
{ACAD_REACTORS
330
47
102
}
330
47
100
AcDbScale
 70
     0
300
1'-0" = 1'-0"
140
12.0
141
12.0
290
     0
  0
ENDSEC
  0
EOF
