  0
SECTION
  2
HEADER
  9
$ACADVER
  1
AC1015
  9
$ACADMAINTVER
 70
     6
  9
$DWGCODEPAGE
  3
ANSI_1250
  9
$INSBASE
 10
0.0
 20
0.0
 30
0.0
  9
$EXTMIN
 10
0.0
 20
0.0
 30
0.0
  9
$EXTMAX
 10
420.0
 20
297.0
 30
0.0
  9
$LIMMIN
 10
0.0
 20
0.0
  9
$LIMMAX
 10
420.0
 20
297.0
  9
$ORTHOMODE
 70
     0
  9
$REGENMODE
 70
     1
  9
$FILLMODE
 70
     1
  9
$QTEXTMODE
 70
     0
  9
$MIRRTEXT
 70
     1
  9
$LTSCALE
 40
1.0
  9
$ATTMODE
 70
     1
  9
$TEXTSIZE
 40
3.5
  9
$TRACEWID
 40
1.0
  9
$TEXTSTYLE
  7
Standard
  9
$CLAYER
  8
0
  9
$CELTYPE
  6
ByLayer
  9
$CECOLOR
 62
   256
  9
$CELTSCALE
 40
1.0
  9
$DISPSILH
 70
     0
  9
$DIMSCALE
 40
1.0
  9
$DIMASZ
 40
3.302
  9
$DIMEXO
 40
1.0
  9
$DIMDLI
 40
3.75
  9
$DIMRND
 40
0.0
  9
$DIMDLE
 40
0.0
  9
$DIMEXE
 40
1.0
  9
$DIMTP
 40
0.0
  9
$DIMTM
 40
0.0
  9
$DIMTXT
 40
3.5
  9
$DIMCEN
 40
2.5
  9
$DIMTSZ
 40
0.0
  9
$DIMTOL
 70
     0
  9
$DIMLIM
 70
     0
  9
$DIMTIH
 70
     1
  9
$DIMTOH
 70
     1
  9
$DIMSE1
 70
     0
  9
$DIMSE2
 70
     0
  9
$DIMTAD
 70
     1
  9
$DIMZIN
 70
     1
  9
$DIMBLK
  1

  9
$DIMASO
 70
     1
  9
$DIMSHO
 70
     1
  9
$DIMPOST
  1

  9
$DIMAPOST
  1

  9
$DIMALT
 70
     0
  9
$DIMALTD
 70
     3
  9
$DIMALTF
 40
0.0393700787
  9
$DIMLFAC
 40
1.0
  9
$DIMTOFL
 70
     1
  9
$DIMTVP
 40
0.0
  9
$DIMTIX
 70
     0
  9
$DIMSOXD
 70
     0
  9
$DIMSAH
 70
     0
  9
$DIMBLK1
  1

  9
$DIMBLK2
  1

  9
$DIMSTYLE
  2
ISO-25
  9
$DIMCLRD
 70
     0
  9
$DIMCLRE
 70
     0
  9
$DIMCLRT
 70
     0
  9
$DIMTFAC
 40
1.0
  9
$DIMGAP
 40
1.524
  9
$DIMJUST
 70
     0
  9
$DIMSD1
 70
     0
  9
$DIMSD2
 70
     0
  9
$DIMTOLJ
 70
     0
  9
$DIMTZIN
 70
     1
  9
$DIMALTZ
 70
     0
  9
$DIMALTTZ
 70
     0
  9
$DIMUPT
 70
     0
  9
$DIMDEC
 70
     2
  9
$DIMTDEC
 70
     2
  9
$DIMALTU
 70
     2
  9
$DIMALTTD
 70
     3
  9
$DIMTXSTY
  7
Standard
  9
$DIMAUNIT
 70
     0
  9
$DIMADEC
 70
     2
  9
$DIMALTRND
 40
0.0
  9
$DIMAZIN
 70
     0
  9
$DIMDSEP
 70
    44
  9
$DIMATFIT
 70
     3
  9
$DIMFRAC
 70
     0
  9
$DIMLDRBLK
  1

  9
$DIMLUNIT
 70
     2
  9
$DIMLWD
 70
    -2
  9
$DIMLWE
 70
    -2
  9
$DIMTMOVE
 70
     0
  9
$LUNITS
 70
     2
  9
$LUPREC
 70
     2
  9
$SKETCHINC
 40
1.0
  9
$FILLETRAD
 40
10.0
  9
$AUNITS
 70
     0
  9
$AUPREC
 70
     2
  9
$MENU
  1
.
  9
$ELEVATION
 40
0.0
  9
$PELEVATION
 40
0.0
  9
$THICKNESS
 40
0.0
  9
$LIMCHECK
 70
     0
  9
$CHAMFERA
 40
0.0
  9
$CHAMFERB
 40
0.0
  9
$CHAMFERC
 40
0.0
  9
$CHAMFERD
 40
0.0
  9
$SKPOLY
 70
     0
  9
$TDCREATE
 40
2460225.553045463
  9
$TDUCREATE
 40
2460225.46971213
  9
$TDUPDATE
 40
2460225.553047998
  9
$TDUUPDATE
 40
2460225.469714664
  9
$TDINDWG
 40
0.0000000116
  9
$TDUSRTIMER
 40
0.0000000116
  9
$USRTIMER
 70
     1
  9
$ANGBASE
 50
0.0
  9
$ANGDIR
 70
     0
  9
$PDMODE
 70
     0
  9
$PDSIZE
 40
-1.0
  9
$PLINEWID
 40
0.0
  9
$SPLFRAME
 70
     0
  9
$SPLINETYPE
 70
     6
  9
$SPLINESEGS
 70
     8
  9
$HANDSEED
  5
383
  9
$SURFTAB1
 70
     6
  9
$SURFTAB2
 70
     6
  9
$SURFTYPE
 70
     6
  9
$SURFU
 70
     6
  9
$SURFV
 70
     6
  9
$UCSBASE
  2

  9
$UCSNAME
  2

  9
$UCSORG
 10
0.0
 20
0.0
 30
0.0
  9
$UCSXDIR
 10
1.0
 20
0.0
 30
0.0
  9
$UCSYDIR
 10
0.0
 20
1.0
 30
0.0
  9
$UCSORTHOREF
  2

  9
$UCSORTHOVIEW
 70
     0
  9
$UCSORGTOP
 10
0.0
 20
0.0
 30
0.0
  9
$UCSORGBOTTOM
 10
0.0
 20
0.0
 30
0.0
  9
$UCSORGLEFT
 10
0.0
 20
0.0
 30
0.0
  9
$UCSORGRIGHT
 10
0.0
 20
0.0
 30
0.0
  9
$UCSORGFRONT
 10
0.0
 20
0.0
 30
0.0
  9
$UCSORGBACK
 10
0.0
 20
0.0
 30
0.0
  9
$PUCSBASE
  2

  9
$PUCSNAME
  2

  9
$PUCSORG
 10
0.0
 20
0.0
 30
0.0
  9
$PUCSXDIR
 10
1.0
 20
0.0
 30
0.0
  9
$PUCSYDIR
 10
0.0
 20
1.0
 30
0.0
  9
$PUCSORTHOREF
  2

  9
$PUCSORTHOVIEW
 70
     0
  9
$PUCSORGTOP
 10
0.0
 20
0.0
 30
0.0
  9
$PUCSORGBOTTOM
 10
0.0
 20
0.0
 30
0.0
  9
$PUCSORGLEFT
 10
0.0
 20
0.0
 30
0.0
  9
$PUCSORGRIGHT
 10
0.0
 20
0.0
 30
0.0
  9
$PUCSORGFRONT
 10
0.0
 20
0.0
 30
0.0
  9
$PUCSORGBACK
 10
0.0
 20
0.0
 30
0.0
  9
$USERI1
 70
     0
  9
$USERI2
 70
     0
  9
$USERI3
 70
     0
  9
$USERI4
 70
     0
  9
$USERI5
 70
     0
  9
$USERR1
 40
0.0
  9
$USERR2
 40
0.0
  9
$USERR3
 40
0.0
  9
$USERR4
 40
0.0
  9
$USERR5
 40
0.0
  9
$WORLDVIEW
 70
     1
  9
$SHADEDGE
 70
     3
  9
$SHADEDIF
 70
    70
  9
$TILEMODE
 70
     1
  9
$MAXACTVP
 70
    64
  9
$PINSBASE
 10
0.0
 20
0.0
 30
0.0
  9
$PLIMCHECK
 70
     0
  9
$PEXTMIN
 10
1.0000000000E+20
 20
1.0000000000E+20
 30
1.0000000000E+20
  9
$PEXTMAX
 10
-1.0000000000E+20
 20
-1.0000000000E+20
 30
-1.0000000000E+20
  9
$PLIMMIN
 10
0.0
 20
0.0
  9
$PLIMMAX
 10
420.0
 20
297.0
  9
$UNITMODE
 70
     0
  9
$VISRETAIN
 70
     1
  9
$PLINEGEN
 70
     0
  9
$PSLTSCALE
 70
     1
  9
$TREEDEPTH
 70
  3020
  9
$CMLSTYLE
  2
Standard
  9
$CMLJUST
 70
     0
  9
$CMLSCALE
 40
20.0
  9
$PROXYGRAPHICS
 70
     1
  9
$MEASUREMENT
 70
     1
  9
$CELWEIGHT
370
    -1
  9
$ENDCAPS
280
     0
  9
$JOINSTYLE
280
     0
  9
$LWDISPLAY
290
     1
  9
$INSUNITS
 70
     4
  9
$HYPERLINKBASE
  1

  9
$STYLESHEET
  1

  9
$XEDIT
290
     1
  9
$CEPSNTYPE
380
     0
  9
$PSTYLEMODE
290
     1
  9
$FINGERPRINTGUID
  2
{2a5eceb1-c70b-4677-8ba7-0563abe80f47}
  9
$VERSIONGUID
  2
{FAEB1C32-E019-11D5-929B-00C0DF256EC4}
  9
$EXTNAMES
290
     1
  9
$PSVPSCALE
 40
0.0
  9
$OLESTARTUP
290
     0
  0
ENDSEC
  0
SECTION
  2
CLASSES
  0
CLASS
  1
ACDBDICTIONARYWDFLT
  2
AcDbDictionaryWithDefault
  3
ObjectDBX Classes
 90
        0
280
     0
281
     0
  0
CLASS
  1
VISUALSTYLE
  2
AcDbVisualStyle
  3
ObjectDBX Classes
 90
     4095
280
     0
281
     0
  0
CLASS
  1
MATERIAL
  2
AcDbMaterial
  3
ObjectDBX Classes
 90
     1153
280
     0
281
     0
  0
CLASS
  1
SCALE
  2
AcDbScale
  3
ObjectDBX Classes
 90
     1153
280
     0
281
     0
  0
CLASS
  1
TABLESTYLE
  2
AcDbTableStyle
  3
ObjectDBX Classes
 90
     4095
280
     0
281
     0
  0
CLASS
  1
MLEADERSTYLE
  2
AcDbMLeaderStyle
  3
ACDB_MLEADERSTYLE_CLASS
 90
     4095
280
     0
281
     0
  0
CLASS
  1
SUN
  2
AcDbSun
  3
SCENEOE
 90
     1153
280
     0
281
     0
  0
CLASS
  1
ACDBPLACEHOLDER
  2
AcDbPlaceHolder
  3
ObjectDBX Classes
 90
        0
280
     0
281
     0
  0
CLASS
  1
LAYOUT
  2
AcDbLayout
  3
ObjectDBX Classes
 90
        0
280
     0
281
     0
  0
ENDSEC
  0
SECTION
  2
TABLES
  0
TABLE
  2
VPORT
  5
8
330
0
100
AcDbSymbolTable
 70
     1
  0
VPORT
  5
29
330
8
100
AcDbSymbolTableRecord
100
AcDbViewportTableRecord
  2
*Active
 70
     0
 10
0.0
 20
0.0
 11
1.0
 21
1.0
 12
210.0
 22
148.5
 13
0.0
 23
0.0
 14
10.0
 24
10.0
 15
10.0
 25
10.0
 16
0.0
 26
0.0
 36
1.0
 17
0.0
 27
0.0
 37
0.0
 40
297.0
 41
1.4141414141
 42
50.0
 43
0.0
 44
0.0
 50
0.0
 51
0.0
 71
     0
 72
  2000
 73
     1
 74
     3
 75
     0
 76
     0
 77
     0
 78
     0
281
     0
 65
     1
110
0.0
120
0.0
130
0.0
111
1.0
121
0.0
131
0.0
112
0.0
122
1.0
132
0.0
 79
     0
146
0.0
  0
ENDTAB
  0
TABLE
  2
LTYPE
  5
5
330
0
100
AcDbSymbolTable
 70
     6
  0
LTYPE
  5
14
330
5
100
AcDbSymbolTableRecord
100
AcDbLinetypeTableRecord
  2
ByBlock
 70
     0
  3

 72
    65
 73
     0
 40
0.0
  0
LTYPE
  5
15
330
5
100
AcDbSymbolTableRecord
100
AcDbLinetypeTableRecord
  2
ByLayer
 70
     0
  3

 72
    65
 73
     0
 40
0.0
  0
LTYPE
  5
16
330
5
100
AcDbSymbolTableRecord
100
AcDbLinetypeTableRecord
  2
Continuous
 70
     0
  3
Solid line
 72
    65
 73
     0
 40
0.0
  0
LTYPE
  5
6E
330
5
100
AcDbSymbolTableRecord
100
AcDbLinetypeTableRecord
  2
HIDDEN
 70
     0
  3
Hidden __ __ __ __ __ __ __ __ __ __ __ __ __ __
 72
    65
 73
     2
 40
1.905
 49
1.27
 74
     0
 49
-0.635
 74
     0
  0
LTYPE
  5
6F
330
5
100
AcDbSymbolTableRecord
100
AcDbLinetypeTableRecord
  2
PHANTOM
 70
     0
  3
Phantom ______  __  __  ______  __  __  ______
 72
    65
 73
     6
 40
12.7
 49
6.35
 74
     0
 49
-1.27
 74
     0
 49
1.27
 74
     0
 49
-1.27
 74
     0
 49
1.27
 74
     0
 49
-1.27
 74
     0
  0
LTYPE
  5
70
330
5
100
AcDbSymbolTableRecord
100
AcDbLinetypeTableRecord
  2
CENTER
 70
     0
  3
Center ____ _ ____ _ ____ _ ____ _ ____ _ ____
 72
    65
 73
     4
 40
10.16
 49
6.35
 74
     0
 49
-1.27
 74
     0
 49
1.27
 74
     0
 49
-1.27
 74
     0
  0
LTYPE
  5
71
330
5
100
AcDbSymbolTableRecord
100
AcDbLinetypeTableRecord
  2
CENTERX2
 70
     0
  3
Center (2x) ________  __  ________  __  _____
 72
    65
 73
     4
 40
20.32
 49
12.7
 74
     0
 49
-2.54
 74
     0
 49
2.54
 74
     0
 49
-2.54
 74
     0
  0
LTYPE
  5
72
330
5
100
AcDbSymbolTableRecord
100
AcDbLinetypeTableRecord
  2
DOT2
 70
     0
  3
Dot (.5x) ........................................
 72
    65
 73
     2
 40
0.635
 49
0.0
 74
     0
 49
-0.635
 74
     0
  0
ENDTAB
  0
TABLE
  2
LAYER
  5
2
330
0
100
AcDbSymbolTable
 70
     2
  0
LAYER
  5
10
330
2
100
AcDbSymbolTableRecord
100
AcDbLayerTableRecord
  2
0
 70
     0
 62
     7
  6
Continuous
370
    -3
390
F
  0
LAYER
  5
73
330
2
100
AcDbSymbolTableRecord
100
AcDbLayerTableRecord
  2
FORMAT
 70
     0
 62
     7
  6
Continuous
370
    -3
390
F
  0
ENDTAB
  0
TABLE
  2
STYLE
  5
3
330
0
100
AcDbSymbolTable
 70
     4
  0
STYLE
  5
11
330
3
100
AcDbSymbolTableRecord
100
AcDbTextStyleTableRecord
  2
Standard
 70
     0
 40
0.0
 41
1.0
 50
0.0
 71
     0
 42
3.5
  3
txt
  4

  0
STYLE
  5
B1
330
3
100
AcDbSymbolTableRecord
100
AcDbTextStyleTableRecord
  2
SLDTEXTSTYLE0
 70
     0
 40
0.0
 41
0.75
 50
0.0
 71
     0
 42
3.5
  3
TXT
  4

  0
STYLE
  5
B5
330
3
100
AcDbSymbolTableRecord
100
AcDbTextStyleTableRecord
  2
SLDTEXTSTYLE1
 70
     0
 40
0.0
 41
0.6875
 50
0.0
 71
     0
 42
3.5
  3
TXT
  4
bigfont
  0
STYLE
  5
B7
330
3
100
AcDbSymbolTableRecord
100
AcDbTextStyleTableRecord
  2
SLDTEXTSTYLE2
 70
     0
 40
0.0
 41
0.75
 50
0.0
 71
     0
 42
3.5
  3
TXT
  4
bigfont
  0
ENDTAB
  0
TABLE
  2
VIEW
  5
6
330
0
100
AcDbSymbolTable
 70
     0
  0
ENDTAB
  0
TABLE
  2
UCS
  5
7
330
0
100
AcDbSymbolTable
 70
     0
  0
ENDTAB
  0
TABLE
  2
APPID
  5
9
330
0
100
AcDbSymbolTable
 70
     1
  0
APPID
  5
12
330
9
100
AcDbSymbolTableRecord
100
AcDbRegAppTableRecord
  2
ACAD
 70
     0
  0
ENDTAB
  0
TABLE
  2
DIMSTYLE
  5
A
330
0
100
AcDbSymbolTable
 70
     7
100
AcDbDimStyleTable
  0
DIMSTYLE
105
27
330
A
100
AcDbSymbolTableRecord
100
AcDbDimStyleTableRecord
  2
ISO-25
 70
     0
 41
2.5
 42
0.625
 43
3.75
 44
1.25
 73
     0
 74
     0
 77
     1
 78
     8
140
2.5
141
2.5
143
0.0393700787
147
0.625
171
     3
172
     1
178
     0
271
     2
272
     2
274
     3
278
    44
283
     0
284
     8
340
11
  0
DIMSTYLE
105
174
102
{ACAD_REACTORS
330
173
330
189
330
193
330
339
330
343
102
}
330
A
100
AcDbSymbolTableRecord
100
AcDbDimStyleTableRecord
  2
SLDDIMSTYLE0
 70
     0
 41
3.302
 44
0.0
 45
0.000000001
 73
     0
 74
     0
 77
     1
 78
    12
 79
     3
140
3.5
147
0.875
173
     1
178
     0
271
     0
272
     0
276
     2
284
    12
340
B1
  0
DIMSTYLE
105
17F
102
{ACAD_REACTORS
330
17E
102
}
330
A
100
AcDbSymbolTableRecord
100
AcDbDimStyleTableRecord
  2
SLDDIMSTYLE1
 70
     0
 41
3.302
 44
0.0
 45
0.000000001
 73
     0
 74
     0
 77
     1
 78
    12
 79
     3
140
3.5
147
0.875
173
     1
178
     0
271
     0
272
     2
276
     2
284
    12
340
B1
  0
DIMSTYLE
105
19E
102
{ACAD_REACTORS
330
19D
102
}
330
A
100
AcDbSymbolTableRecord
100
AcDbDimStyleTableRecord
  2
SLDDIMSTYLE2
 70
     0
  3
<>
 41
3.302
 44
0.0
 45
0.000000001
 73
     0
 74
     0
 77
     1
 78
    12
 79
     3
140
3.5
141
0.0
147
0.875
172
     1
173
     1
178
     0
271
     0
272
     0
276
     2
284
    12
340
B1
341
19F
343
19F
  0
DIMSTYLE
105
1AA
102
{ACAD_REACTORS
330
1A9
330
35B
102
}
330
A
100
AcDbSymbolTableRecord
100
AcDbDimStyleTableRecord
  2
SLDDIMSTYLE3
 70
     0
 41
3.302
 44
0.0
 45
0.000000001
 73
     0
 74
     0
 77
     1
 78
    12
 79
     3
140
3.5
147
0.875
172
     1
173
     1
178
     0
271
     0
272
     0
276
     2
284
    12
289
     0
340
B1
  0
DIMSTYLE
105
1B7
102
{ACAD_REACTORS
330
1B6
102
}
330
A
100
AcDbSymbolTableRecord
100
AcDbDimStyleTableRecord
  2
SLDDIMSTYLE4
 70
     0
 41
3.302
 44
0.0
 45
0.000000001
 73
     0
 74
     0
 77
     1
 78
    12
 79
     3
140
3.5
141
0.0
147
0.875
172
     1
173
     1
178
     0
271
     0
272
     0
276
     2
284
    12
340
B1
341
19F
343
19F
  0
DIMSTYLE
105
34E
102
{ACAD_REACTORS
330
34D
330
368
102
}
330
A
100
AcDbSymbolTableRecord
100
AcDbDimStyleTableRecord
  2
SLDDIMSTYLE5
 70
     0
 41
3.302
 44
0.0
 45
0.000000001
 73
     0
 74
     0
 77
     1
 78
    12
 79
     3
140
3.5
147
0.875
172
     1
173
     1
178
     0
271
     1
272
     1
276
     2
284
    12
289
     0
340
B1
  0
ENDTAB
  0
TABLE
  2
BLOCK_RECORD
  5
1
330
0
100
AcDbSymbolTable
 70
    24
  0
BLOCK_RECORD
  5
1F
330
1
100
AcDbSymbolTableRecord
100
AcDbBlockTableRecord
  2
*Model_Space
340
22
  0
BLOCK_RECORD
  5
1B
330
1
100
AcDbSymbolTableRecord
100
AcDbBlockTableRecord
  2
*Paper_Space
340
1E
  0
BLOCK_RECORD
  5
23
330
1
100
AcDbSymbolTableRecord
100
AcDbBlockTableRecord
  2
*Paper_Space0
340
26
  0
BLOCK_RECORD
  5
C1
330
1
100
AcDbSymbolTableRecord
100
AcDbBlockTableRecord
  2
SW_NOTE_0
340
0
102
{BLKREFS
331
C6
102
}
  0
BLOCK_RECORD
  5
C8
330
1
100
AcDbSymbolTableRecord
100
AcDbBlockTableRecord
  2
SW_NOTE_0_1
340
0
102
{BLKREFS
331
D1
102
}
  0
BLOCK_RECORD
  5
175
330
1
100
AcDbSymbolTableRecord
100
AcDbBlockTableRecord
  2
_D
340
0
  0
BLOCK_RECORD
  5
180
330
1
100
AcDbSymbolTableRecord
100
AcDbBlockTableRecord
  2
_D_1
340
0
  0
BLOCK_RECORD
  5
18A
330
1
100
AcDbSymbolTableRecord
100
AcDbBlockTableRecord
  2
_D_2
340
0
  0
BLOCK_RECORD
  5
194
330
1
100
AcDbSymbolTableRecord
100
AcDbBlockTableRecord
  2
_D_3
340
0
  0
BLOCK_RECORD
  5
19F
330
1
100
AcDbSymbolTableRecord
100
AcDbBlockTableRecord
  2
_None
340
0
  0
BLOCK_RECORD
  5
1A2
330
1
100
AcDbSymbolTableRecord
100
AcDbBlockTableRecord
  2
_D_4
340
0
  0
BLOCK_RECORD
  5
1AB
330
1
100
AcDbSymbolTableRecord
100
AcDbBlockTableRecord
  2
_D_5
340
0
  0
BLOCK_RECORD
  5
1B8
330
1
100
AcDbSymbolTableRecord
100
AcDbBlockTableRecord
  2
_D_6
340
0
  0
BLOCK_RECORD
  5
1C0
330
1
100
AcDbSymbolTableRecord
100
AcDbBlockTableRecord
  2
SW_CENTERMARKSYMBOL_0
340
0
102
{BLKREFS
331
1CB
102
}
  0
BLOCK_RECORD
  5
1CC
330
1
100
AcDbSymbolTableRecord
100
AcDbBlockTableRecord
  2
SW_CENTERMARKSYMBOL_1
340
0
102
{BLKREFS
331
1D7
102
}
  0
BLOCK_RECORD
  5
1D8
330
1
100
AcDbSymbolTableRecord
100
AcDbBlockTableRecord
  2
SW_CENTERMARKSYMBOL_2
340
0
102
{BLKREFS
331
1E3
102
}
  0
BLOCK_RECORD
  5
1E4
330
1
100
AcDbSymbolTableRecord
100
AcDbBlockTableRecord
  2
SW_CENTERMARKSYMBOL_3
340
0
102
{BLKREFS
331
1EF
102
}
  0
BLOCK_RECORD
  5
1F0
330
1
100
AcDbSymbolTableRecord
100
AcDbBlockTableRecord
  2
SW_CENTERMARKSYMBOL_4
340
0
102
{BLKREFS
331
1FB
102
}
  0
BLOCK_RECORD
  5
1FC
330
1
100
AcDbSymbolTableRecord
100
AcDbBlockTableRecord
  2
SW_CENTERMARKSYMBOL_5
340
0
102
{BLKREFS
331
207
102
}
  0
BLOCK_RECORD
  5
208
330
1
100
AcDbSymbolTableRecord
100
AcDbBlockTableRecord
  2
SW_CENTERMARKSYMBOL_6
340
0
102
{BLKREFS
331
213
102
}
  0
BLOCK_RECORD
  5
33A
330
1
100
AcDbSymbolTableRecord
100
AcDbBlockTableRecord
  2
_D_7
340
0
  0
BLOCK_RECORD
  5
344
330
1
100
AcDbSymbolTableRecord
100
AcDbBlockTableRecord
  2
_D_8
340
0
  0
BLOCK_RECORD
  5
34F
330
1
100
AcDbSymbolTableRecord
100
AcDbBlockTableRecord
  2
_D_9
340
0
  0
BLOCK_RECORD
  5
35C
330
1
100
AcDbSymbolTableRecord
100
AcDbBlockTableRecord
  2
_D_10
340
0
  0
BLOCK_RECORD
  5
369
330
1
100
AcDbSymbolTableRecord
100
AcDbBlockTableRecord
  2
_D_11
340
0
  0
BLOCK_RECORD
  5
372
330
1
100
AcDbSymbolTableRecord
100
AcDbBlockTableRecord
  2
SW_CENTERMARKSYMBOL_7
340
0
102
{BLKREFS
331
37D
102
}
  0
ENDTAB
  0
ENDSEC
  0
SECTION
  2
BLOCKS
  0
BLOCK
  5
20
330
1F
100
AcDbEntity
  8
0
100
AcDbBlockBegin
  2
*Model_Space
 70
     0
 10
0.0
 20
0.0
 30
0.0
  3
*Model_Space
  1

  0
ENDBLK
  5
21
330
1F
100
AcDbEntity
  8
0
100
AcDbBlockEnd
  0
BLOCK
  5
1C
330
1B
100
AcDbEntity
 67
     1
  8
0
100
AcDbBlockBegin
  2
*Paper_Space
 70
     0
 10
0.0
 20
0.0
 30
0.0
  3
*Paper_Space
  1

  0
ENDBLK
  5
1D
330
1B
100
AcDbEntity
 67
     1
  8
0
100
AcDbBlockEnd
  0
BLOCK
  5
24
330
23
100
AcDbEntity
  8
0
100
AcDbBlockBegin
  2
*Paper_Space0
 70
     0
 10
0.0
 20
0.0
 30
0.0
  3
*Paper_Space0
  1

  0
ENDBLK
  5
25
330
23
100
AcDbEntity
  8
0
100
AcDbBlockEnd
  0
BLOCK
  5
C2
330
C1
100
AcDbEntity
  8
0
100
AcDbBlockBegin
  2
SW_NOTE_0
 70
     0
 10
0.0
 20
0.0
 30
0.0
  3
SW_NOTE_0
  1

  0
MTEXT
  5
C4
330
C1
100
AcDbEntity
  8
0
  6
Continuous
 62
     0
370
     0
100
AcDbMText
 10
0.0
 20
1.9336016097
 30
0.0
 40
1.5
 41
0.0
 71
     1
 72
     1
  1
ODSTRANIT
  7
SLDTEXTSTYLE0
 73
     1
 44
1.0
  0
MTEXT
  5
C5
330
C1
100
AcDbEntity
  8
0
  6
Continuous
 62
     0
370
     0
100
AcDbMText
 10
0.0
 20
-0.5663983345
 30
0.0
 40
1.5
 41
0.0
 71
     1
 72
     1
  1
OSTRÉ HRANY
  7
SLDTEXTSTYLE0
 73
     1
 44
1.0
  0
ENDBLK
  5
C3
330
C1
100
AcDbEntity
  8
0
100
AcDbBlockEnd
  0
BLOCK
  5
C9
330
C8
100
AcDbEntity
  8
0
100
AcDbBlockBegin
  2
SW_NOTE_0_1
 70
     0
 10
0.0
 20
0.0
 30
0.0
  3
SW_NOTE_0_1
  1

  0
MTEXT
  5
CB
330
C8
100
AcDbEntity
  8
0
  6
Continuous
 62
     0
370
     0
100
AcDbMText
 10
0.0
 20
1.9336016097
 30
0.0
 40
1.5
 41
0.0
 71
     1
 72
     1
  1
POKUD NENÍ UVEDENO JINAK:
  7
SLDTEXTSTYLE0
 73
     1
 44
1.0
  0
MTEXT
  5
CC
330
C8
100
AcDbEntity
  8
0
  6
Continuous
 62
     0
370
     0
100
AcDbMText
 10
0.0
 20
-0.5663983345
 30
0.0
 40
1.5
 41
0.0
 71
     1
 72
     1
  1
JEDNOTKY JSOU V MILIMETRECH
  7
SLDTEXTSTYLE0
 73
     1
 44
1.0
  0
MTEXT
  5
CD
330
C8
100
AcDbEntity
  8
0
  6
Continuous
 62
     0
370
     0
100
AcDbMText
 10
0.0
 20
-3.0663982786
 30
0.0
 40
1.5
 41
0.0
 71
     1
 72
     1
  1
DRSNOST:
  7
SLDTEXTSTYLE0
 73
     1
 44
1.0
  0
MTEXT
  5
CE
330
C8
100
AcDbEntity
  8
0
  6
Continuous
 62
     0
370
     0
100
AcDbMText
 10
0.0
 20
-5.5663982227
 30
0.0
 40
1.5
 41
0.0
 71
     1
 72
     1
  1
TOLERANCE:
  7
SLDTEXTSTYLE0
 73
     1
 44
1.0
  0
MTEXT
  5
CF
330
C8
100
AcDbEntity
  8
0
  6
Continuous
 62
     0
370
     0
100
AcDbMText
 10
1.6875
 20
-8.0663981668
 30
0.0
 40
1.5
 41
0.0
 71
     1
 72
     1
  1
LINEÁRNÍ:
  7
SLDTEXTSTYLE0
 73
     1
 44
1.0
  0
MTEXT
  5
D0
330
C8
100
AcDbEntity
  8
0
  6
Continuous
 62
     0
370
     0
100
AcDbMText
 10
1.6875
 20
-10.5663981109
 30
0.0
 40
1.5
 41
0.0
 71
     1
 72
     1
  1
ÚHLOVÁ:
  7
SLDTEXTSTYLE0
 73
     1
 44
1.0
  0
ENDBLK
  5
CA
330
C8
100
AcDbEntity
  8
0
100
AcDbBlockEnd
  0
BLOCK
  5
176
330
175
100
AcDbEntity
  8
0
100
AcDbBlockBegin
  2
_D
 70
     0
 10
0.0
 20
0.0
 30
0.0
  3
_D
  1

  0
SOLID
  5
178
330
175
100
AcDbEntity
  8
0
  6
Continuous
 62
     7
370
    18
100
AcDbTrace
 10
93.44
 20
179.8125126266
 30
0.0
 11
96.742
 21
179.3045126266
 31
0.0
 12
96.742
 22
180.3205126266
 32
0.0
 13
96.742
 23
180.3205126266
 33
0.0
  0
SOLID
  5
179
330
175
100
AcDbEntity
  8
0
  6
Continuous
 62
     7
370
    18
100
AcDbTrace
 10
143.44
 20
179.8125126266
 30
0.0
 11
140.138
 21
180.3205126266
 31
0.0
 12
140.138
 22
179.3045126266
 32
0.0
 13
140.138
 23
179.3045126266
 33
0.0
  0
LINE
  5
17A
330
175
100
AcDbEntity
  8
0
  6
Continuous
 62
     7
370
     0
100
AcDbLine
 10
93.44
 20
189.5625126266
 30
0.0
 11
93.44
 21
178.8125126266
 31
0.0
  0
LINE
  5
17B
330
175
100
AcDbEntity
  8
0
  6
Continuous
 62
     7
370
     0
100
AcDbLine
 10
143.44
 20
189.5625126266
 30
0.0
 11
143.44
 21
178.8125126266
 31
0.0
  0
LINE
  5
17C
330
175
100
AcDbEntity
  8
0
  6
Continuous
 62
     7
370
     0
100
AcDbLine
 10
93.44
 20
179.8125126266
 30
0.0
 11
143.44
 21
179.8125126266
 31
0.0
  0
MTEXT
  5
17D
330
175
100
AcDbEntity
  8
0
  6
Continuous
 62
     7
370
    18
100
AcDbMText
 10
115.8538888065
 20
184.3242495412
 30
0.0
 40
3.5
 41
0.0
 71
     1
 72
     1
  1
50
  7
SLDTEXTSTYLE0
 73
     1
 44
1.0
  0
ENDBLK
  5
177
330
175
100
AcDbEntity
  8
0
100
AcDbBlockEnd
  0
BLOCK
  5
181
330
180
100
AcDbEntity
  8
0
100
AcDbBlockBegin
  2
_D_1
 70
     0
 10
0.0
 20
0.0
 30
0.0
  3
_D_1
  1

  0
SOLID
  5
183
330
180
100
AcDbEntity
  8
0
  6
Continuous
 62
     7
370
    18
100
AcDbTrace
 10
150.94
 20
173.8125126266
 30
0.0
 11
147.638
 21
174.3205126266
 31
0.0
 12
147.638
 22
173.3045126266
 32
0.0
 13
147.638
 23
173.3045126266
 33
0.0
  0
SOLID
  5
184
330
180
100
AcDbEntity
  8
0
  6
Continuous
 62
     7
370
    18
100
AcDbTrace
 10
85.94
 20
173.8125126266
 30
0.0
 11
89.242
 21
173.3045126266
 31
0.0
 12
89.242
 22
174.3205126266
 32
0.0
 13
89.242
 23
174.3205126266
 33
0.0
  0
LINE
  5
185
330
180
100
AcDbEntity
  8
0
  6
Continuous
 62
     7
370
     0
100
AcDbLine
 10
150.94
 20
191.8125126266
 30
0.0
 11
150.94
 21
172.8125126266
 31
0.0
  0
LINE
  5
186
330
180
100
AcDbEntity
  8
0
  6
Continuous
 62
     7
370
     0
100
AcDbLine
 10
85.94
 20
191.8125126266
 30
0.0
 11
85.94
 21
172.8125126266
 31
0.0
  0
LINE
  5
187
330
180
100
AcDbEntity
  8
0
  6
Continuous
 62
     7
370
     0
100
AcDbLine
 10
150.94
 20
173.8125126266
 30
0.0
 11
85.94
 21
173.8125126266
 31
0.0
  0
MTEXT
  5
188
330
180
100
AcDbEntity
  8
0
  6
Continuous
 62
     7
370
    18
100
AcDbMText
 10
115.8538888065
 20
178.3242495412
 30
0.0
 40
3.5
 41
0.0
 71
     1
 72
     1
  1
65
  7
SLDTEXTSTYLE0
 73
     1
 44
1.0
  0
ENDBLK
  5
182
330
180
100
AcDbEntity
  8
0
100
AcDbBlockEnd
  0
BLOCK
  5
18B
330
18A
100
AcDbEntity
  8
0
100
AcDbBlockBegin
  2
_D_2
 70
     0
 10
0.0
 20
0.0
 30
0.0
  3
_D_2
  1

  0
SOLID
  5
18D
330
18A
100
AcDbEntity
  8
0
  6
Continuous
 62
     7
370
    18
100
AcDbTrace
 10
160.94
 20
197.3125126266
 30
0.0
 11
161.448
 21
200.6145126266
 31
0.0
 12
160.432
 22
200.6145126266
 32
0.0
 13
160.432
 23
200.6145126266
 33
0.0
  0
SOLID
  5
18E
330
18A
100
AcDbEntity
  8
0
  6
Continuous
 62
     7
370
    18
100
AcDbTrace
 10
160.94
 20
227.3125126266
 30
0.0
 11
160.432
 21
224.0105126266
 31
0.0
 12
161.448
 22
224.0105126266
 32
0.0
 13
161.448
 23
224.0105126266
 33
0.0
  0
LINE
  5
18F
330
18A
100
AcDbEntity
  8
0
  6
Continuous
 62
     7
370
     0
100
AcDbLine
 10
151.19
 20
197.3125126266
 30
0.0
 11
161.94
 21
197.3125126266
 31
0.0
  0
LINE
  5
190
330
18A
100
AcDbEntity
  8
0
  6
Continuous
 62
     7
370
     0
100
AcDbLine
 10
151.19
 20
227.3125126266
 30
0.0
 11
161.94
 21
227.3125126266
 31
0.0
  0
LINE
  5
191
330
18A
100
AcDbEntity
  8
0
  6
Continuous
 62
     7
370
     0
100
AcDbLine
 10
160.94
 20
197.3125126266
 30
0.0
 11
160.94
 21
227.3125126266
 31
0.0
  0
MTEXT
  5
192
330
18A
100
AcDbEntity
  8
0
  6
Continuous
 62
     7
370
    18
100
AcDbMText
 10
156.4282630854
 20
209.7264014331
 30
0.0
 40
3.5
 41
0.0
 71
     1
 72
     1
  1
30
  7
SLDTEXTSTYLE0
 11
6.123233995736766E-17
 21
1.0
 31
0.0
 73
     1
 44
1.0
  0
ENDBLK
  5
18C
330
18A
100
AcDbEntity
  8
0
100
AcDbBlockEnd
  0
BLOCK
  5
195
330
194
100
AcDbEntity
  8
0
100
AcDbBlockBegin
  2
_D_3
 70
     0
 10
0.0
 20
0.0
 30
0.0
  3
_D_3
  1

  0
SOLID
  5
197
330
194
100
AcDbEntity
  8
0
  6
Continuous
 62
     7
370
    18
100
AcDbTrace
 10
166.94
 20
189.8125126266
 30
0.0
 11
167.448
 21
193.1145126266
 31
0.0
 12
166.432
 22
193.1145126266
 32
0.0
 13
166.432
 23
193.1145126266
 33
0.0
  0
SOLID
  5
198
330
194
100
AcDbEntity
  8
0
  6
Continuous
 62
     7
370
    18
100
AcDbTrace
 10
166.94
 20
234.8125126266
 30
0.0
 11
166.432
 21
231.5105126266
 31
0.0
 12
167.448
 22
231.5105126266
 32
0.0
 13
167.448
 23
231.5105126266
 33
0.0
  0
LINE
  5
199
330
194
100
AcDbEntity
  8
0
  6
Continuous
 62
     7
370
     0
100
AcDbLine
 10
148.94
 20
189.8125126266
 30
0.0
 11
167.94
 21
189.8125126266
 31
0.0
  0
LINE
  5
19A
330
194
100
AcDbEntity
  8
0
  6
Continuous
 62
     7
370
     0
100
AcDbLine
 10
148.94
 20
234.8125126266
 30
0.0
 11
167.94
 21
234.8125126266
 31
0.0
  0
LINE
  5
19B
330
194
100
AcDbEntity
  8
0
  6
Continuous
 62
     7
370
     0
100
AcDbLine
 10
166.94
 20
189.8125126266
 30
0.0
 11
166.94
 21
234.8125126266
 31
0.0
  0
MTEXT
  5
19C
330
194
100
AcDbEntity
  8
0
  6
Continuous
 62
     7
370
    18
100
AcDbMText
 10
162.4282630854
 20
209.7264014331
 30
0.0
 40
3.5
 41
0.0
 71
     1
 72
     1
  1
45
  7
SLDTEXTSTYLE0
 11
-3.828568698926949E-16
 21
1.0
 31
0.0
 73
     1
 44
1.0
  0
ENDBLK
  5
196
330
194
100
AcDbEntity
  8
0
100
AcDbBlockEnd
  0
BLOCK
  5
1A0
330
19F
100
AcDbEntity
  8
0
100
AcDbBlockBegin
  2
_None
 70
     0
 10
0.0
 20
0.0
 30
0.0
  3
_None
  1

  0
ENDBLK
  5
1A1
330
19F
100
AcDbEntity
  8
0
100
AcDbBlockEnd
  0
BLOCK
  5
1A3
330
1A2
100
AcDbEntity
  8
0
100
AcDbBlockBegin
  2
_D_4
 70
     0
 10
0.0
 20
0.0
 30
0.0
  3
_D_4
  1

  0
SOLID
  5
1A5
330
1A2
100
AcDbEntity
  8
0
  6
Continuous
 62
     7
370
    18
100
AcDbTrace
 10
121.6573358544
 20
209.0951767722
 30
0.0
 11
123.632992201
 21
206.4010999359
 31
0.0
 12
124.3514126907
 22
207.1195204256
 32
0.0
 13
124.3514126907
 23
207.1195204256
 33
0.0
  0
LINE
  5
1A6
330
1A2
100
AcDbEntity
  8
0
  6
Continuous
 62
     7
370
     0
100
AcDbLine
 10
121.6573358544
 20
209.0951767722
 30
0.0
 11
169.3193455219
 21
161.4331671047
 31
0.0
  0
LINE
  5
1A7
330
1A2
100
AcDbEntity
  8
0
  6
Continuous
 62
     7
370
     0
100
AcDbLine
 10
121.6573358544
 20
209.0951767722
 30
0.0
 11
115.2226641456
 21
215.529848481
 31
0.0
  0
MTEXT
  5
1A8
330
1A2
100
AcDbEntity
  8
0
  6
Continuous
 62
     7
370
    18
100
AcDbMText
 10
159.6624306366
 20
177.4668189483
 30
0.0
 40
3.5
 41
0.0
 71
     1
 72
     1
  1
M10x1.5
  7
SLDTEXTSTYLE0
 11
0.7071067811865575
 21
-0.7071067811865377
 31
0.0
 73
     1
 44
1.0
  0
ENDBLK
  5
1A4
330
1A2
100
AcDbEntity
  8
0
100
AcDbBlockEnd
  0
BLOCK
  5
1AC
330
1AB
100
AcDbEntity
  8
0
100
AcDbBlockBegin
  2
_D_5
 70
     0
 10
0.0
 20
0.0
 30
0.0
  3
_D_5
  1

  0
SOLID
  5
1AE
330
1AB
100
AcDbEntity
  8
0
  6
Continuous
 62
     7
370
    18
100
AcDbTrace
 10
160.94
 20
234.8125126266
 30
0.0
 11
160.432
 21
231.5105126266
 31
0.0
 12
161.448
 22
231.5105126266
 32
0.0
 13
161.448
 23
231.5105126266
 33
0.0
  0
SOLID
  5
1AF
330
1AB
100
AcDbEntity
  8
0
  6
Continuous
 62
     7
370
    18
100
AcDbTrace
 10
160.94
 20
242.8125126266
 30
0.0
 11
161.448
 21
246.1145126266
 31
0.0
 12
160.432
 22
246.1145126266
 32
0.0
 13
160.432
 23
246.1145126266
 33
0.0
  0
LINE
  5
1B0
330
1AB
100
AcDbEntity
  8
0
  6
Continuous
 62
     7
370
     0
100
AcDbLine
 10
148.94
 20
234.8125126266
 30
0.0
 11
161.94
 21
234.8125126266
 31
0.0
  0
LINE
  5
1B1
330
1AB
100
AcDbEntity
  8
0
  6
Continuous
 62
     7
370
     0
100
AcDbLine
 10
121.79
 20
242.8125126266
 30
0.0
 11
161.94
 21
242.8125126266
 31
0.0
  0
LINE
  5
1B2
330
1AB
100
AcDbEntity
  8
0
  6
Continuous
 62
     7
370
     0
100
AcDbLine
 10
160.94
 20
234.8125126266
 30
0.0
 11
160.94
 21
228.4625126266
 31
0.0
  0
LINE
  5
1B3
330
1AB
100
AcDbEntity
  8
0
  6
Continuous
 62
     7
370
     0
100
AcDbLine
 10
160.94
 20
234.8125126266
 30
0.0
 11
160.94
 21
242.8125126266
 31
0.0
  0
LINE
  5
1B4
330
1AB
100
AcDbEntity
  8
0
  6
Continuous
 62
     7
370
     0
100
AcDbLine
 10
160.94
 20
242.8125126266
 30
0.0
 11
160.94
 21
249.1625126266
 31
0.0
  0
MTEXT
  5
1B5
330
1AB
100
AcDbEntity
  8
0
  6
Continuous
 62
     7
370
    18
100
AcDbMText
 10
156.4282630854
 20
237.5194570299
 30
0.0
 40
3.5
 41
0.0
 71
     1
 72
     1
  1
8
  7
SLDTEXTSTYLE0
 11
-3.828568698926949E-16
 21
1.0
 31
0.0
 73
     1
 44
1.0
  0
ENDBLK
  5
1AD
330
1AB
100
AcDbEntity
  8
0
100
AcDbBlockEnd
  0
BLOCK
  5
1B9
330
1B8
100
AcDbEntity
  8
0
100
AcDbBlockBegin
  2
_D_6
 70
     0
 10
0.0
 20
0.0
 30
0.0
  3
_D_6
  1

  0
SOLID
  5
1BB
330
1B8
100
AcDbEntity
  8
0
  6
Continuous
 62
     7
370
    18
100
AcDbTrace
 10
126.2342286341
 20
207.8125126266
 30
0.0
 11
128.8398445174
 21
205.7215717215
 31
0.0
 12
129.3478445174
 22
206.6014535317
 32
0.0
 13
129.3478445174
 23
206.6014535317
 33
0.0
  0
LINE
  5
1BC
330
1B8
100
AcDbEntity
  8
0
  6
Continuous
 62
     7
370
     0
100
AcDbLine
 10
126.2342286341
 20
207.8125126266
 30
0.0
 11
165.396021364
 21
185.2024410521
 31
0.0
  0
LINE
  5
1BD
330
1B8
100
AcDbEntity
  8
0
  6
Continuous
 62
     7
370
     0
100
AcDbLine
 10
126.2342286341
 20
207.8125126266
 30
0.0
 11
110.645771366
 21
216.8125126266
 31
0.0
  0
MTEXT
  5
1BE
330
1B8
100
AcDbEntity
  8
0
  6
Continuous
 62
     7
370
    18
100
AcDbMText
 10
158.5990675981
 20
194.331092295
 30
0.0
 40
3.5
 41
0.0
 71
     1
 72
     1
  1
%%c
  7
SLDTEXTSTYLE0
 11
0.8660254037844459
 21
-0.4999999999999873
 31
0.0
 73
     1
 44
1.0
  0
MTEXT
  5
1BF
330
1B8
100
AcDbEntity
  8
0
  6
Continuous
 62
     7
370
    18
100
AcDbMText
 10
163.1970645657
 20
191.7381818592
 30
0.0
 40
3.5
 41
0.0
 71
     1
 72
     1
  1
18
  7
SLDTEXTSTYLE0
 11
0.8660254037844459
 21
-0.4999999999999873
 31
0.0
 73
     1
 44
1.0
  0
ENDBLK
  5
1BA
330
1B8
100
AcDbEntity
  8
0
100
AcDbBlockEnd
  0
BLOCK
  5
1C1
330
1C0
100
AcDbEntity
  8
0
100
AcDbBlockBegin
  2
SW_CENTERMARKSYMBOL_0
 70
     0
 10
0.0
 20
0.0
 30
0.0
  3
SW_CENTERMARKSYMBOL_0
  1

  0
LINE
  5
1C3
330
1C0
100
AcDbEntity
  8
0
  6
Continuous
 62
     0
370
    18
100
AcDbLine
 10
0.0
 20
0.0
 30
0.0
 11
0.0
 21
2.5
 31
0.0
  0
LINE
  5
1C4
330
1C0
100
AcDbEntity
  8
0
  6
Continuous
 62
     0
370
    18
100
AcDbLine
 10
0.0
 20
0.0
 30
0.0
 11
-2.5
 21
0.0
 31
0.0
  0
LINE
  5
1C5
330
1C0
100
AcDbEntity
  8
0
  6
Continuous
 62
     0
370
    18
100
AcDbLine
 10
0.0
 20
0.0
 30
0.0
 11
0.0
 21
-2.5
 31
0.0
  0
LINE
  5
1C6
330
1C0
100
AcDbEntity
  8
0
  6
Continuous
 62
     0
370
    18
100
AcDbLine
 10
0.0
 20
0.0
 30
0.0
 11
2.5
 21
0.0
 31
0.0
  0
LINE
  5
1C7
330
1C0
100
AcDbEntity
  8
0
  6
Continuous
 62
     0
370
    18
100
AcDbLine
 10
0.0
 20
5.0
 30
0.0
 11
0.0
 21
21.5
 31
0.0
  0
LINE
  5
1C8
330
1C0
100
AcDbEntity
  8
0
  6
Continuous
 62
     0
370
    18
100
AcDbLine
 10
-5.0
 20
0.0
 30
0.0
 11
-21.5
 21
0.0
 31
0.0
  0
LINE
  5
1C9
330
1C0
100
AcDbEntity
  8
0
  6
Continuous
 62
     0
370
    18
100
AcDbLine
 10
0.0
 20
-5.0
 30
0.0
 11
0.0
 21
-21.5
 31
0.0
  0
LINE
  5
1CA
330
1C0
100
AcDbEntity
  8
0
  6
Continuous
 62
     0
370
    18
100
AcDbLine
 10
5.0
 20
0.0
 30
0.0
 11
21.5
 21
0.0
 31
0.0
  0
ENDBLK
  5
1C2
330
1C0
100
AcDbEntity
  8
0
100
AcDbBlockEnd
  0
BLOCK
  5
1CD
330
1CC
100
AcDbEntity
  8
0
100
AcDbBlockBegin
  2
SW_CENTERMARKSYMBOL_1
 70
     0
 10
0.0
 20
0.0
 30
0.0
  3
SW_CENTERMARKSYMBOL_1
  1

  0
LINE
  5
1CF
330
1CC
100
AcDbEntity
  8
0
  6
Continuous
 62
     0
370
    18
100
AcDbLine
 10
0.0
 20
0.0
 30
0.0
 11
0.0
 21
2.5
 31
0.0
  0
LINE
  5
1D0
330
1CC
100
AcDbEntity
  8
0
  6
Continuous
 62
     0
370
    18
100
AcDbLine
 10
0.0
 20
0.0
 30
0.0
 11
-2.5
 21
0.0
 31
0.0
  0
LINE
  5
1D1
330
1CC
100
AcDbEntity
  8
0
  6
Continuous
 62
     0
370
    18
100
AcDbLine
 10
0.0
 20
0.0
 30
0.0
 11
0.0
 21
-2.5
 31
0.0
  0
LINE
  5
1D2
330
1CC
100
AcDbEntity
  8
0
  6
Continuous
 62
     0
370
    18
100
AcDbLine
 10
0.0
 20
0.0
 30
0.0
 11
2.5
 21
0.0
 31
0.0
  0
LINE
  5
1D3
330
1CC
100
AcDbEntity
  8
0
  6
Continuous
 62
     0
370
    18
100
AcDbLine
 10
0.0
 20
5.0
 30
0.0
 11
0.0
 21
6.75
 31
0.0
  0
LINE
  5
1D4
330
1CC
100
AcDbEntity
  8
0
  6
Continuous
 62
     0
370
    18
100
AcDbLine
 10
-5.0
 20
0.0
 30
0.0
 11
-6.75
 21
0.0
 31
0.0
  0
LINE
  5
1D5
330
1CC
100
AcDbEntity
  8
0
  6
Continuous
 62
     0
370
    18
100
AcDbLine
 10
0.0
 20
-5.0
 30
0.0
 11
0.0
 21
-6.75
 31
0.0
  0
LINE
  5
1D6
330
1CC
100
AcDbEntity
  8
0
  6
Continuous
 62
     0
370
    18
100
AcDbLine
 10
5.0
 20
0.0
 30
0.0
 11
6.75
 21
0.0
 31
0.0
  0
ENDBLK
  5
1CE
330
1CC
100
AcDbEntity
  8
0
100
AcDbBlockEnd
  0
BLOCK
  5
1D9
330
1D8
100
AcDbEntity
  8
0
100
AcDbBlockBegin
  2
SW_CENTERMARKSYMBOL_2
 70
     0
 10
0.0
 20
0.0
 30
0.0
  3
SW_CENTERMARKSYMBOL_2
  1

  0
LINE
  5
1DB
330
1D8
100
AcDbEntity
  8
0
  6
Continuous
 62
     0
370
    18
100
AcDbLine
 10
0.0
 20
0.0
 30
0.0
 11
0.0
 21
2.5
 31
0.0
  0
LINE
  5
1DC
330
1D8
100
AcDbEntity
  8
0
  6
Continuous
 62
     0
370
    18
100
AcDbLine
 10
0.0
 20
0.0
 30
0.0
 11
-2.5
 21
0.0
 31
0.0
  0
LINE
  5
1DD
330
1D8
100
AcDbEntity
  8
0
  6
Continuous
 62
     0
370
    18
100
AcDbLine
 10
0.0
 20
0.0
 30
0.0
 11
0.0
 21
-2.5
 31
0.0
  0
LINE
  5
1DE
330
1D8
100
AcDbEntity
  8
0
  6
Continuous
 62
     0
370
    18
100
AcDbLine
 10
0.0
 20
0.0
 30
0.0
 11
2.5
 21
0.0
 31
0.0
  0
LINE
  5
1DF
330
1D8
100
AcDbEntity
  8
0
  6
Continuous
 62
     0
370
    18
100
AcDbLine
 10
0.0
 20
5.0
 30
0.0
 11
0.0
 21
6.75
 31
0.0
  0
LINE
  5
1E0
330
1D8
100
AcDbEntity
  8
0
  6
Continuous
 62
     0
370
    18
100
AcDbLine
 10
-5.0
 20
0.0
 30
0.0
 11
-6.75
 21
0.0
 31
0.0
  0
LINE
  5
1E1
330
1D8
100
AcDbEntity
  8
0
  6
Continuous
 62
     0
370
    18
100
AcDbLine
 10
0.0
 20
-5.0
 30
0.0
 11
0.0
 21
-6.75
 31
0.0
  0
LINE
  5
1E2
330
1D8
100
AcDbEntity
  8
0
  6
Continuous
 62
     0
370
    18
100
AcDbLine
 10
5.0
 20
0.0
 30
0.0
 11
6.75
 21
0.0
 31
0.0
  0
ENDBLK
  5
1DA
330
1D8
100
AcDbEntity
  8
0
100
AcDbBlockEnd
  0
BLOCK
  5
1E5
330
1E4
100
AcDbEntity
  8
0
100
AcDbBlockBegin
  2
SW_CENTERMARKSYMBOL_3
 70
     0
 10
0.0
 20
0.0
 30
0.0
  3
SW_CENTERMARKSYMBOL_3
  1

  0
LINE
  5
1E7
330
1E4
100
AcDbEntity
  8
0
  6
Continuous
 62
     0
370
    18
100
AcDbLine
 10
0.0
 20
0.0
 30
0.0
 11
0.0
 21
2.5
 31
0.0
  0
LINE
  5
1E8
330
1E4
100
AcDbEntity
  8
0
  6
Continuous
 62
     0
370
    18
100
AcDbLine
 10
0.0
 20
0.0
 30
0.0
 11
-2.5
 21
0.0
 31
0.0
  0
LINE
  5
1E9
330
1E4
100
AcDbEntity
  8
0
  6
Continuous
 62
     0
370
    18
100
AcDbLine
 10
0.0
 20
0.0
 30
0.0
 11
0.0
 21
-2.5
 31
0.0
  0
LINE
  5
1EA
330
1E4
100
AcDbEntity
  8
0
  6
Continuous
 62
     0
370
    18
100
AcDbLine
 10
0.0
 20
0.0
 30
0.0
 11
2.5
 21
0.0
 31
0.0
  0
LINE
  5
1EB
330
1E4
100
AcDbEntity
  8
0
  6
Continuous
 62
     0
370
    18
100
AcDbLine
 10
0.0
 20
5.0
 30
0.0
 11
0.0
 21
6.75
 31
0.0
  0
LINE
  5
1EC
330
1E4
100
AcDbEntity
  8
0
  6
Continuous
 62
     0
370
    18
100
AcDbLine
 10
-5.0
 20
0.0
 30
0.0
 11
-6.75
 21
0.0
 31
0.0
  0
LINE
  5
1ED
330
1E4
100
AcDbEntity
  8
0
  6
Continuous
 62
     0
370
    18
100
AcDbLine
 10
0.0
 20
-5.0
 30
0.0
 11
0.0
 21
-6.75
 31
0.0
  0
LINE
  5
1EE
330
1E4
100
AcDbEntity
  8
0
  6
Continuous
 62
     0
370
    18
100
AcDbLine
 10
5.0
 20
0.0
 30
0.0
 11
6.75
 21
0.0
 31
0.0
  0
ENDBLK
  5
1E6
330
1E4
100
AcDbEntity
  8
0
100
AcDbBlockEnd
  0
BLOCK
  5
1F1
330
1F0
100
AcDbEntity
  8
0
100
AcDbBlockBegin
  2
SW_CENTERMARKSYMBOL_4
 70
     0
 10
0.0
 20
0.0
 30
0.0
  3
SW_CENTERMARKSYMBOL_4
  1

  0
LINE
  5
1F3
330
1F0
100
AcDbEntity
  8
0
  6
Continuous
 62
     0
370
    18
100
AcDbLine
 10
0.0
 20
0.0
 30
0.0
 11
0.0
 21
2.5
 31
0.0
  0
LINE
  5
1F4
330
1F0
100
AcDbEntity
  8
0
  6
Continuous
 62
     0
370
    18
100
AcDbLine
 10
0.0
 20
0.0
 30
0.0
 11
-2.5
 21
0.0
 31
0.0
  0
LINE
  5
1F5
330
1F0
100
AcDbEntity
  8
0
  6
Continuous
 62
     0
370
    18
100
AcDbLine
 10
0.0
 20
0.0
 30
0.0
 11
0.0
 21
-2.5
 31
0.0
  0
LINE
  5
1F6
330
1F0
100
AcDbEntity
  8
0
  6
Continuous
 62
     0
370
    18
100
AcDbLine
 10
0.0
 20
0.0
 30
0.0
 11
2.5
 21
0.0
 31
0.0
  0
LINE
  5
1F7
330
1F0
100
AcDbEntity
  8
0
  6
Continuous
 62
     0
370
    18
100
AcDbLine
 10
0.0
 20
5.0
 30
0.0
 11
0.0
 21
6.75
 31
0.0
  0
LINE
  5
1F8
330
1F0
100
AcDbEntity
  8
0
  6
Continuous
 62
     0
370
    18
100
AcDbLine
 10
-5.0
 20
0.0
 30
0.0
 11
-6.75
 21
0.0
 31
0.0
  0
LINE
  5
1F9
330
1F0
100
AcDbEntity
  8
0
  6
Continuous
 62
     0
370
    18
100
AcDbLine
 10
0.0
 20
-5.0
 30
0.0
 11
0.0
 21
-6.75
 31
0.0
  0
LINE
  5
1FA
330
1F0
100
AcDbEntity
  8
0
  6
Continuous
 62
     0
370
    18
100
AcDbLine
 10
5.0
 20
0.0
 30
0.0
 11
6.75
 21
0.0
 31
0.0
  0
ENDBLK
  5
1F2
330
1F0
100
AcDbEntity
  8
0
100
AcDbBlockEnd
  0
BLOCK
  5
1FD
330
1FC
100
AcDbEntity
  8
0
100
AcDbBlockBegin
  2
SW_CENTERMARKSYMBOL_5
 70
     0
 10
0.0
 20
0.0
 30
0.0
  3
SW_CENTERMARKSYMBOL_5
  1

  0
LINE
  5
1FF
330
1FC
100
AcDbEntity
  8
0
  6
Continuous
 62
     0
370
    18
100
AcDbLine
 10
0.0
 20
0.0
 30
0.0
 11
0.0
 21
2.5
 31
0.0
  0
LINE
  5
200
330
1FC
100
AcDbEntity
  8
0
  6
Continuous
 62
     0
370
    18
100
AcDbLine
 10
0.0
 20
0.0
 30
0.0
 11
-2.5
 21
0.0
 31
0.0
  0
LINE
  5
201
330
1FC
100
AcDbEntity
  8
0
  6
Continuous
 62
     0
370
    18
100
AcDbLine
 10
0.0
 20
0.0
 30
0.0
 11
0.0
 21
-2.5
 31
0.0
  0
LINE
  5
202
330
1FC
100
AcDbEntity
  8
0
  6
Continuous
 62
     0
370
    18
100
AcDbLine
 10
0.0
 20
0.0
 30
0.0
 11
2.5
 21
0.0
 31
0.0
  0
LINE
  5
203
330
1FC
100
AcDbEntity
  8
0
  6
Continuous
 62
     0
370
    18
100
AcDbLine
 10
0.0
 20
5.0
 30
0.0
 11
0.0
 21
7.5
 31
0.0
  0
LINE
  5
204
330
1FC
100
AcDbEntity
  8
0
  6
Continuous
 62
     0
370
    18
100
AcDbLine
 10
-5.0
 20
0.0
 30
0.0
 11
-7.5
 21
0.0
 31
0.0
  0
LINE
  5
205
330
1FC
100
AcDbEntity
  8
0
  6
Continuous
 62
     0
370
    18
100
AcDbLine
 10
0.0
 20
-5.0
 30
0.0
 11
0.0
 21
-7.5
 31
0.0
  0
LINE
  5
206
330
1FC
100
AcDbEntity
  8
0
  6
Continuous
 62
     0
370
    18
100
AcDbLine
 10
5.0
 20
0.0
 30
0.0
 11
7.5
 21
0.0
 31
0.0
  0
ENDBLK
  5
1FE
330
1FC
100
AcDbEntity
  8
0
100
AcDbBlockEnd
  0
BLOCK
  5
209
330
208
100
AcDbEntity
  8
0
100
AcDbBlockBegin
  2
SW_CENTERMARKSYMBOL_6
 70
     0
 10
0.0
 20
0.0
 30
0.0
  3
SW_CENTERMARKSYMBOL_6
  1

  0
LINE
  5
20B
330
208
100
AcDbEntity
  8
0
  6
Continuous
 62
     0
370
    18
100
AcDbLine
 10
0.0
 20
0.0
 30
0.0
 11
0.0
 21
2.5
 31
0.0
  0
LINE
  5
20C
330
208
100
AcDbEntity
  8
0
  6
Continuous
 62
     0
370
    18
100
AcDbLine
 10
0.0
 20
0.0
 30
0.0
 11
-2.5
 21
0.0
 31
0.0
  0
LINE
  5
20D
330
208
100
AcDbEntity
  8
0
  6
Continuous
 62
     0
370
    18
100
AcDbLine
 10
0.0
 20
0.0
 30
0.0
 11
0.0
 21
-2.5
 31
0.0
  0
LINE
  5
20E
330
208
100
AcDbEntity
  8
0
  6
Continuous
 62
     0
370
    18
100
AcDbLine
 10
0.0
 20
0.0
 30
0.0
 11
2.5
 21
0.0
 31
0.0
  0
LINE
  5
20F
330
208
100
AcDbEntity
  8
0
  6
Continuous
 62
     0
370
    18
100
AcDbLine
 10
0.0
 20
5.0
 30
0.0
 11
0.0
 21
7.5
 31
0.0
  0
LINE
  5
210
330
208
100
AcDbEntity
  8
0
  6
Continuous
 62
     0
370
    18
100
AcDbLine
 10
-5.0
 20
0.0
 30
0.0
 11
-7.5
 21
0.0
 31
0.0
  0
LINE
  5
211
330
208
100
AcDbEntity
  8
0
  6
Continuous
 62
     0
370
    18
100
AcDbLine
 10
0.0
 20
-5.0
 30
0.0
 11
0.0
 21
-7.5
 31
0.0
  0
LINE
  5
212
330
208
100
AcDbEntity
  8
0
  6
Continuous
 62
     0
370
    18
100
AcDbLine
 10
5.0
 20
0.0
 30
0.0
 11
7.5
 21
0.0
 31
0.0
  0
ENDBLK
  5
20A
330
208
100
AcDbEntity
  8
0
100
AcDbBlockEnd
  0
BLOCK
  5
33B
330
33A
100
AcDbEntity
  8
0
100
AcDbBlockBegin
  2
_D_7
 70
     0
 10
0.0
 20
0.0
 30
0.0
  3
_D_7
  1

  0
SOLID
  5
33D
330
33A
100
AcDbEntity
  8
0
  6
Continuous
 62
     7
370
    18
100
AcDbTrace
 10
326.94
 20
181.3634500818
 30
0.0
 11
330.242
 21
180.8554500818
 31
0.0
 12
330.242
 22
181.8714500818
 32
0.0
 13
330.242
 23
181.8714500818
 33
0.0
  0
SOLID
  5
33E
330
33A
100
AcDbEntity
  8
0
  6
Continuous
 62
     7
370
    18
100
AcDbTrace
 10
348.94
 20
181.3634500818
 30
0.0
 11
345.638
 21
181.8714500818
 31
0.0
 12
345.638
 22
180.8554500818
 32
0.0
 13
345.638
 23
180.8554500818
 33
0.0
  0
LINE
  5
33F
330
33A
100
AcDbEntity
  8
0
  6
Continuous
 62
     7
370
     0
100
AcDbLine
 10
326.94
 20
211.3125126266
 30
0.0
 11
326.94
 21
180.3634500818
 31
0.0
  0
LINE
  5
340
330
33A
100
AcDbEntity
  8
0
  6
Continuous
 62
     7
370
     0
100
AcDbLine
 10
348.94
 20
230.8125126266
 30
0.0
 11
348.94
 21
180.3634500818
 31
0.0
  0
LINE
  5
341
330
33A
100
AcDbEntity
  8
0
  6
Continuous
 62
     7
370
     0
100
AcDbLine
 10
326.94
 20
181.3634500818
 30
0.0
 11
348.94
 21
181.3634500818
 31
0.0
  0
MTEXT
  5
342
330
33A
100
AcDbEntity
  8
0
  6
Continuous
 62
     7
370
    18
100
AcDbMText
 10
336.4871584515
 20
185.8751869964
 30
0.0
 40
3.5
 41
0.0
 71
     1
 72
     1
  1
22
  7
SLDTEXTSTYLE0
 73
     1
 44
1.0
  0
ENDBLK
  5
33C
330
33A
100
AcDbEntity
  8
0
100
AcDbBlockEnd
  0
BLOCK
  5
345
330
344
100
AcDbEntity
  8
0
100
AcDbBlockBegin
  2
_D_8
 70
     0
 10
0.0
 20
0.0
 30
0.0
  3
_D_8
  1

  0
SOLID
  5
347
330
344
100
AcDbEntity
  8
0
  6
Continuous
 62
     7
370
    18
100
AcDbTrace
 10
271.94
 20
173.8125126266
 30
0.0
 11
275.242
 21
173.3045126266
 31
0.0
 12
275.242
 22
174.3205126266
 32
0.0
 13
275.242
 23
174.3205126266
 33
0.0
  0
SOLID
  5
348
330
344
100
AcDbEntity
  8
0
  6
Continuous
 62
     7
370
    18
100
AcDbTrace
 10
348.94
 20
173.8125126266
 30
0.0
 11
345.638
 21
174.3205126266
 31
0.0
 12
345.638
 22
173.3045126266
 32
0.0
 13
345.638
 23
173.3045126266
 33
0.0
  0
LINE
  5
349
330
344
100
AcDbEntity
  8
0
  6
Continuous
 62
     7
370
     0
100
AcDbLine
 10
271.94
 20
188.8125126266
 30
0.0
 11
271.94
 21
172.8125126266
 31
0.0
  0
LINE
  5
34A
330
344
100
AcDbEntity
  8
0
  6
Continuous
 62
     7
370
     0
100
AcDbLine
 10
348.94
 20
233.8125126266
 30
0.0
 11
348.94
 21
172.8125126266
 31
0.0
  0
LINE
  5
34B
330
344
100
AcDbEntity
  8
0
  6
Continuous
 62
     7
370
     0
100
AcDbLine
 10
271.94
 20
173.8125126266
 30
0.0
 11
348.94
 21
173.8125126266
 31
0.0
  0
MTEXT
  5
34C
330
344
100
AcDbEntity
  8
0
  6
Continuous
 62
     7
370
    18
100
AcDbMText
 10
313.1142409467
 20
178.3242495412
 30
0.0
 40
3.5
 41
0.0
 71
     1
 72
     1
  1
77
  7
SLDTEXTSTYLE0
 73
     1
 44
1.0
  0
ENDBLK
  5
346
330
344
100
AcDbEntity
  8
0
100
AcDbBlockEnd
  0
BLOCK
  5
350
330
34F
100
AcDbEntity
  8
0
100
AcDbBlockBegin
  2
_D_9
 70
     0
 10
0.0
 20
0.0
 30
0.0
  3
_D_9
  1

  0
SOLID
  5
352
330
34F
100
AcDbEntity
  8
0
  6
Continuous
 62
     7
370
    18
100
AcDbTrace
 10
355.44
 20
242.5328525337
 30
0.0
 11
358.742
 21
242.0248525337
 31
0.0
 12
358.742
 22
243.0408525337
 32
0.0
 13
358.742
 23
243.0408525337
 33
0.0
  0
SOLID
  5
353
330
34F
100
AcDbEntity
  8
0
  6
Continuous
 62
     7
370
    18
100
AcDbTrace
 10
348.94
 20
242.5328525337
 30
0.0
 11
345.638
 21
243.0408525337
 31
0.0
 12
345.638
 22
242.0248525337
 32
0.0
 13
345.638
 23
242.0248525337
 33
0.0
  0
LINE
  5
354
330
34F
100
AcDbEntity
  8
0
  6
Continuous
 62
     7
370
     0
100
AcDbLine
 10
355.44
 20
228.8125126266
 30
0.0
 11
355.44
 21
234.0505126266
 31
0.0
  0
LINE
  5
355
330
34F
100
AcDbEntity
  8
0
  6
Continuous
 62
     7
370
     0
100
AcDbLine
 10
355.44
 20
235.5745126266
 30
0.0
 11
355.44
 21
243.5328525337
 31
0.0
  0
LINE
  5
356
330
34F
100
AcDbEntity
  8
0
  6
Continuous
 62
     7
370
     0
100
AcDbLine
 10
348.94
 20
235.8125126266
 30
0.0
 11
348.94
 21
243.5328525337
 31
0.0
  0
LINE
  5
357
330
34F
100
AcDbEntity
  8
0
  6
Continuous
 62
     7
370
     0
100
AcDbLine
 10
355.44
 20
242.5328525337
 30
0.0
 11
361.79
 21
242.5328525337
 31
0.0
  0
LINE
  5
358
330
34F
100
AcDbEntity
  8
0
  6
Continuous
 62
     7
370
     0
100
AcDbLine
 10
355.44
 20
242.5328525337
 30
0.0
 11
348.94
 21
242.5328525337
 31
0.0
  0
LINE
  5
359
330
34F
100
AcDbEntity
  8
0
  6
Continuous
 62
     7
370
     0
100
AcDbLine
 10
348.94
 20
242.5328525337
 30
0.0
 11
342.59
 21
242.5328525337
 31
0.0
  0
MTEXT
  5
35A
330
34F
100
AcDbEntity
  8
0
  6
Continuous
 62
     7
370
    18
100
AcDbMText
 10
348.9245917788
 20
247.0445894483
 30
0.0
 40
3.5
 41
0.0
 71
     1
 72
     1
  1
6,5
  7
SLDTEXTSTYLE0
 73
     1
 44
1.0
  0
ENDBLK
  5
351
330
34F
100
AcDbEntity
  8
0
100
AcDbBlockEnd
  0
BLOCK
  5
35D
330
35C
100
AcDbEntity
  8
0
100
AcDbBlockBegin
  2
_D_10
 70
     0
 10
0.0
 20
0.0
 30
0.0
  3
_D_10
  1

  0
SOLID
  5
35F
330
35C
100
AcDbEntity
  8
0
  6
Continuous
 62
     7
370
    18
100
AcDbTrace
 10
317.4035969304
 20
219.3125126266
 30
0.0
 11
317.9115969304
 21
222.6145126266
 31
0.0
 12
316.8955969304
 22
222.6145126266
 32
0.0
 13
316.8955969304
 23
222.6145126266
 33
0.0
  0
SOLID
  5
360
330
35C
100
AcDbEntity
  8
0
  6
Continuous
 62
     7
370
    18
100
AcDbTrace
 10
317.4035969304
 20
205.3125126266
 30
0.0
 11
316.8955969304
 21
202.0105126266
 31
0.0
 12
317.9115969304
 22
202.0105126266
 32
0.0
 13
317.9115969304
 23
202.0105126266
 33
0.0
  0
LINE
  5
361
330
35C
100
AcDbEntity
  8
0
  6
Continuous
 62
     7
370
     0
100
AcDbLine
 10
325.94
 20
219.3125126266
 30
0.0
 11
316.4035969304
 21
219.3125126266
 31
0.0
  0
LINE
  5
362
330
35C
100
AcDbEntity
  8
0
  6
Continuous
 62
     7
370
     0
100
AcDbLine
 10
325.94
 20
205.3125126266
 30
0.0
 11
316.4035969304
 21
205.3125126266
 31
0.0
  0
LINE
  5
363
330
35C
100
AcDbEntity
  8
0
  6
Continuous
 62
     7
370
     0
100
AcDbLine
 10
317.4035969304
 20
219.3125126266
 30
0.0
 11
317.4035969304
 21
225.6625126266
 31
0.0
  0
LINE
  5
364
330
35C
100
AcDbEntity
  8
0
  6
Continuous
 62
     7
370
     0
100
AcDbLine
 10
317.4035969304
 20
219.3125126266
 30
0.0
 11
317.4035969304
 21
205.3125126266
 31
0.0
  0
LINE
  5
365
330
35C
100
AcDbEntity
  8
0
  6
Continuous
 62
     7
370
     0
100
AcDbLine
 10
317.4035969304
 20
205.3125126266
 30
0.0
 11
317.4035969304
 21
198.9625126266
 31
0.0
  0
MTEXT
  5
366
330
35C
100
AcDbEntity
  8
0
  6
Continuous
 62
     7
370
    18
100
AcDbMText
 10
312.8918598412
 20
206.659342241
 30
0.0
 40
3.5
 41
0.0
 71
     1
 72
     1
  1
%%c
  7
SLDTEXTSTYLE0
 11
-7.044195017643634E-15
 21
1.0
 31
0.0
 73
     1
 44
1.0
  0
MTEXT
  5
367
330
35C
100
AcDbEntity
  8
0
  6
Continuous
 62
     7
370
    18
100
AcDbMText
 10
312.8383876646
 20
211.9377796394
 30
0.0
 40
3.5
 41
0.0
 71
     1
 72
     1
  1
14
  7
SLDTEXTSTYLE0
 11
-7.044195017643634E-15
 21
1.0
 31
0.0
 73
     1
 44
1.0
  0
ENDBLK
  5
35E
330
35C
100
AcDbEntity
  8
0
100
AcDbBlockEnd
  0
BLOCK
  5
36A
330
369
100
AcDbEntity
  8
0
100
AcDbBlockBegin
  2
_D_11
 70
     0
 10
0.0
 20
0.0
 30
0.0
  3
_D_11
  1

  0
SOLID
  5
36C
330
369
100
AcDbEntity
  8
0
  6
Continuous
 62
     7
370
    18
100
AcDbTrace
 10
366.1781338199
 20
212.3125126266
 30
0.0
 11
366.6861338199
 21
215.6145126266
 31
0.0
 12
365.6701338199
 22
215.6145126266
 32
0.0
 13
365.6701338199
 23
215.6145126266
 33
0.0
  0
SOLID
  5
36D
330
369
100
AcDbEntity
  8
0
  6
Continuous
 62
     7
370
    18
100
AcDbTrace
 10
366.1781338199
 20
234.8125126266
 30
0.0
 11
365.6701338199
 21
231.5105126266
 31
0.0
 12
366.6861338199
 22
231.5105126266
 32
0.0
 13
366.6861338199
 23
231.5105126266
 33
0.0
  0
LINE
  5
36E
330
369
100
AcDbEntity
  8
0
  6
Continuous
 62
     7
370
     0
100
AcDbLine
 10
327.94
 20
212.3125126266
 30
0.0
 11
367.1781338199
 21
212.3125126266
 31
0.0
  0
LINE
  5
36F
330
369
100
AcDbEntity
  8
0
  6
Continuous
 62
     7
370
     0
100
AcDbLine
 10
349.94
 20
234.8125126266
 30
0.0
 11
367.1781338199
 21
234.8125126266
 31
0.0
  0
LINE
  5
370
330
369
100
AcDbEntity
  8
0
  6
Continuous
 62
     7
370
     0
100
AcDbLine
 10
366.1781338199
 20
212.3125126266
 30
0.0
 11
366.1781338199
 21
234.8125126266
 31
0.0
  0
MTEXT
  5
371
330
369
100
AcDbEntity
  8
0
  6
Continuous
 62
     7
370
    18
100
AcDbMText
 10
361.6663969053
 20
220.4037230231
 30
0.0
 40
3.5
 41
0.0
 71
     1
 72
     1
  1
22,5
  7
SLDTEXTSTYLE0
 11
6.123233995736766E-17
 21
1.0
 31
0.0
 73
     1
 44
1.0
  0
ENDBLK
  5
36B
330
369
100
AcDbEntity
  8
0
100
AcDbBlockEnd
  0
BLOCK
  5
373
330
372
100
AcDbEntity
  8
0
100
AcDbBlockBegin
  2
SW_CENTERMARKSYMBOL_7
 70
     0
 10
0.0
 20
0.0
 30
0.0
  3
SW_CENTERMARKSYMBOL_7
  1

  0
LINE
  5
375
330
372
100
AcDbEntity
  8
0
  6
Continuous
 62
     0
370
    18
100
AcDbLine
 10
0.0
 20
0.0
 30
0.0
 11
0.0
 21
2.5
 31
0.0
  0
LINE
  5
376
330
372
100
AcDbEntity
  8
0
  6
Continuous
 62
     0
370
    18
100
AcDbLine
 10
0.0
 20
0.0
 30
0.0
 11
-2.5
 21
0.0
 31
0.0
  0
LINE
  5
377
330
372
100
AcDbEntity
  8
0
  6
Continuous
 62
     0
370
    18
100
AcDbLine
 10
0.0
 20
0.0
 30
0.0
 11
0.0
 21
-2.5
 31
0.0
  0
LINE
  5
378
330
372
100
AcDbEntity
  8
0
  6
Continuous
 62
     0
370
    18
100
AcDbLine
 10
0.0
 20
0.0
 30
0.0
 11
2.5
 21
0.0
 31
0.0
  0
LINE
  5
379
330
372
100
AcDbEntity
  8
0
  6
Continuous
 62
     0
370
    18
100
AcDbLine
 10
0.0
 20
5.0
 30
0.0
 11
0.0
 21
9.5
 31
0.0
  0
LINE
  5
37A
330
372
100
AcDbEntity
  8
0
  6
Continuous
 62
     0
370
    18
100
AcDbLine
 10
-5.0
 20
0.0
 30
0.0
 11
-9.5
 21
0.0
 31
0.0
  0
LINE
  5
37B
330
372
100
AcDbEntity
  8
0
  6
Continuous
 62
     0
370
    18
100
AcDbLine
 10
0.0
 20
-5.0
 30
0.0
 11
0.0
 21
-9.5
 31
0.0
  0
LINE
  5
37C
330
372
100
AcDbEntity
  8
0
  6
Continuous
 62
     0
370
    18
100
AcDbLine
 10
5.0
 20
0.0
 30
0.0
 11
9.5
 21
0.0
 31
0.0
  0
ENDBLK
  5
374
330
372
100
AcDbEntity
  8
0
100
AcDbBlockEnd
  0
ENDSEC
  0
SECTION
  2
ENTITIES
  0
LINE
  5
74
330
1F
100
AcDbEntity
  8
0
  6
Continuous
 62
     7
370
    50
100
AcDbLine
 10
230.0
 20
14.25
 30
0.0
 11
410.0
 21
14.25
 31
0.0
  0
LINE
  5
75
330
1F
100
AcDbEntity
  8
0
  6
Continuous
 62
     7
370
    50
100
AcDbLine
 10
410.0
 20
48.25
 30
0.0
 11
230.0
 21
48.25
 31
0.0
  0
LINE
  5
76
330
1F
100
AcDbEntity
  8
0
  6
Continuous
 62
     7
370
    50
100
AcDbLine
 10
230.0
 20
65.25
 30
0.0
 11
410.0
 21
65.25
 31
0.0
  0
LINE
  5
77
330
1F
100
AcDbEntity
  8
0
  6
Continuous
 62
     7
370
    50
100
AcDbLine
 10
256.9909524338
 20
48.25
 30
0.0
 11
256.9909524338
 21
10.0
 31
0.0
  0
LINE
  5
78
330
1F
100
AcDbEntity
  8
0
  6
Continuous
 62
     7
370
    50
100
AcDbLine
 10
328.8
 20
31.25
 30
0.0
 11
230.0
 21
31.25
 31
0.0
  0
LINE
  5
79
330
1F
100
AcDbEntity
  8
0
  6
Continuous
 62
     7
370
    50
100
AcDbLine
 10
328.8
 20
35.5
 30
0.0
 11
230.0
 21
35.5
 31
0.0
  0
LINE
  5
7A
330
1F
100
AcDbEntity
  8
0
  6
Continuous
 62
     7
370
    50
100
AcDbLine
 10
328.8
 20
39.75
 30
0.0
 11
230.0
 21
39.75
 31
0.0
  0
LINE
  5
7B
330
1F
100
AcDbEntity
  8
0
  6
Continuous
 62
     7
370
    50
100
AcDbLine
 10
328.8
 20
44.0
 30
0.0
 11
230.0
 21
44.0
 31
0.0
  0
LINE
  5
7C
330
1F
100
AcDbEntity
  8
0
  6
Continuous
 62
     7
370
    50
100
AcDbLine
 10
284.6
 20
10.0
 30
0.0
 11
284.6
 21
48.25
 31
0.0
  0
LINE
  5
7D
330
1F
100
AcDbEntity
  8
0
  6
Continuous
 62
     7
370
    50
100
AcDbLine
 10
230.0
 20
65.25
 30
0.0
 11
230.0
 21
10.0
 31
0.0
  0
LINE
  5
7E
330
1F
100
AcDbEntity
  8
0
  6
Continuous
 62
     7
370
    50
100
AcDbLine
 10
242.0703737145
 20
48.25
 30
0.0
 11
242.0703737145
 21
10.0
 31
0.0
  0
LINE
  5
7F
330
1F
100
AcDbEntity
  8
0
  6
Continuous
 62
     7
370
    50
100
AcDbLine
 10
263.8
 20
48.25
 30
0.0
 11
263.8
 21
65.25
 31
0.0
  0
LINE
  5
80
330
1F
100
AcDbEntity
  8
0
  6
Continuous
 62
     7
370
    50
100
AcDbLine
 10
274.3989261635
 20
48.25
 30
0.0
 11
274.3989261635
 21
10.0
 31
0.0
  0
LINE
  5
81
330
1F
100
AcDbEntity
  8
0
  6
Continuous
 62
     7
370
    50
100
AcDbLine
 10
295.0
 20
31.25
 30
0.0
 11
295.0
 21
48.25
 31
0.0
  0
LINE
  5
82
330
1F
100
AcDbEntity
  8
0
  6
Continuous
 62
     7
370
    50
100
AcDbLine
 10
284.6
 20
18.5
 30
0.0
 11
230.0
 21
18.5
 31
0.0
  0
LINE
  5
83
330
1F
100
AcDbEntity
  8
0
  6
Continuous
 62
     7
370
    50
100
AcDbLine
 10
310.6
 20
65.25
 30
0.0
 11
310.6
 21
27.0
 31
0.0
  0
LINE
  5
84
330
1F
100
AcDbEntity
  8
0
  6
Continuous
 62
     7
370
    50
100
AcDbLine
 10
284.6
 20
22.749928
 30
0.0
 11
230.0
 21
22.749928
 31
0.0
  0
LINE
  5
85
330
1F
100
AcDbEntity
  8
0
  6
Continuous
 62
     7
370
    50
100
AcDbLine
 10
284.6
 20
27.0
 30
0.0
 11
230.0
 21
27.0
 31
0.0
  0
LINE
  5
86
330
1F
100
AcDbEntity
  8
0
  6
Continuous
 62
     7
370
    50
100
AcDbLine
 10
284.6
 20
27.0
 30
0.0
 11
410.0
 21
27.0
 31
0.0
  0
LINE
  5
87
330
1F
100
AcDbEntity
  8
0
  6
Continuous
 62
     7
370
    50
100
AcDbLine
 10
328.8
 20
65.25
 30
0.0
 11
328.8
 21
10.0
 31
0.0
  0
LINE
  5
88
330
1F
100
AcDbEntity
  8
0
  6
Continuous
 62
     7
370
    50
100
AcDbLine
 10
373.0
 20
10.0
 30
0.0
 11
373.0
 21
14.25
 31
0.0
  0
LINE
  5
89
330
1F
100
AcDbEntity
  8
0
  6
Continuous
 62
     7
370
    50
100
AcDbLine
 10
380.8
 20
58.875
 30
0.0
 11
380.8
 21
65.25
 31
0.0
  0
LINE
  5
8A
330
1F
100
AcDbEntity
  8
0
  6
Continuous
 62
     7
370
    50
100
AcDbLine
 10
397.0
 20
14.25
 30
0.0
 11
397.0
 21
27.0
 31
0.0
  0
LINE
  5
8B
330
1F
100
AcDbEntity
  8
0
  6
Continuous
 62
     7
370
    50
100
AcDbLine
 10
410.0
 20
58.875
 30
0.0
 11
328.8
 21
58.875
 31
0.0
  0
LINE
  5
8C
330
1F
100
AcDbEntity
  8
0
  6
Continuous
 62
     7
370
    50
100
AcDbLine
 10
410.0
 20
18.5
 30
0.0
 11
397.0
 21
18.5
 31
0.0
  0
LINE
  5
8D
330
1F
100
AcDbEntity
  8
0
  6
Continuous
 62
     7
370
    35
100
AcDbLine
 10
20.0
 20
48.5
 30
0.0
 11
15.0
 21
48.5
 31
0.0
  0
LINE
  5
8E
330
1F
100
AcDbEntity
  8
0
  6
Continuous
 62
     7
370
    35
100
AcDbLine
 10
410.0
 20
48.5
 30
0.0
 11
415.0
 21
48.5
 31
0.0
  0
LINE
  5
8F
330
1F
100
AcDbEntity
  8
0
  6
Continuous
 62
     7
370
    35
100
AcDbLine
 10
20.0
 20
98.5
 30
0.0
 11
15.0
 21
98.5
 31
0.0
  0
LINE
  5
90
330
1F
100
AcDbEntity
  8
0
  6
Continuous
 62
     7
370
    35
100
AcDbLine
 10
410.0
 20
98.5
 30
0.0
 11
415.0
 21
98.5
 31
0.0
  0
LINE
  5
91
330
1F
100
AcDbEntity
  8
0
  6
Continuous
 62
     7
370
    35
100
AcDbLine
 10
20.0
 20
148.5
 30
0.0
 11
15.0
 21
148.5
 31
0.0
  0
LINE
  5
92
330
1F
100
AcDbEntity
  8
0
  6
Continuous
 62
     7
370
    35
100
AcDbLine
 10
410.0
 20
148.5
 30
0.0
 11
415.0
 21
148.5
 31
0.0
  0
LINE
  5
93
330
1F
100
AcDbEntity
  8
0
  6
Continuous
 62
     7
370
    35
100
AcDbLine
 10
20.0
 20
198.5
 30
0.0
 11
15.0
 21
198.5
 31
0.0
  0
LINE
  5
94
330
1F
100
AcDbEntity
  8
0
  6
Continuous
 62
     7
370
    35
100
AcDbLine
 10
410.0
 20
198.5
 30
0.0
 11
415.0
 21
198.5
 31
0.0
  0
LINE
  5
95
330
1F
100
AcDbEntity
  8
0
  6
Continuous
 62
     7
370
    35
100
AcDbLine
 10
20.0
 20
248.5
 30
0.0
 11
15.0
 21
248.5
 31
0.0
  0
LINE
  5
96
330
1F
100
AcDbEntity
  8
0
  6
Continuous
 62
     7
370
    35
100
AcDbLine
 10
410.0
 20
248.5
 30
0.0
 11
415.0
 21
248.5
 31
0.0
  0
LINE
  5
97
330
1F
100
AcDbEntity
  8
0
  6
Continuous
 62
     7
370
    35
100
AcDbLine
 10
65.0
 20
287.0
 30
0.0
 11
65.0
 21
292.0
 31
0.0
  0
LINE
  5
98
330
1F
100
AcDbEntity
  8
0
  6
Continuous
 62
     7
370
    35
100
AcDbLine
 10
65.0
 20
10.0
 30
0.0
 11
65.0
 21
5.0
 31
0.0
  0
LINE
  5
99
330
1F
100
AcDbEntity
  8
0
  6
Continuous
 62
     7
370
    35
100
AcDbLine
 10
115.0
 20
287.0
 30
0.0
 11
115.0
 21
292.0
 31
0.0
  0
LINE
  5
9A
330
1F
100
AcDbEntity
  8
0
  6
Continuous
 62
     7
370
    35
100
AcDbLine
 10
115.0
 20
10.0
 30
0.0
 11
115.0
 21
5.0
 31
0.0
  0
LINE
  5
9B
330
1F
100
AcDbEntity
  8
0
  6
Continuous
 62
     7
370
    35
100
AcDbLine
 10
165.0
 20
287.0
 30
0.0
 11
165.0
 21
292.0
 31
0.0
  0
LINE
  5
9C
330
1F
100
AcDbEntity
  8
0
  6
Continuous
 62
     7
370
    35
100
AcDbLine
 10
165.0
 20
10.0
 30
0.0
 11
165.0
 21
5.0
 31
0.0
  0
LINE
  5
9D
330
1F
100
AcDbEntity
  8
0
  6
Continuous
 62
     7
370
    35
100
AcDbLine
 10
215.0
 20
287.0
 30
0.0
 11
215.0
 21
292.0
 31
0.0
  0
LINE
  5
9E
330
1F
100
AcDbEntity
  8
0
  6
Continuous
 62
     7
370
    35
100
AcDbLine
 10
215.0
 20
10.0
 30
0.0
 11
215.0
 21
5.0
 31
0.0
  0
LINE
  5
9F
330
1F
100
AcDbEntity
  8
0
  6
Continuous
 62
     7
370
    35
100
AcDbLine
 10
265.0
 20
287.0
 30
0.0
 11
265.0
 21
292.0
 31
0.0
  0
LINE
  5
A0
330
1F
100
AcDbEntity
  8
0
  6
Continuous
 62
     7
370
    35
100
AcDbLine
 10
265.0
 20
10.0
 30
0.0
 11
265.0
 21
5.0
 31
0.0
  0
LINE
  5
A1
330
1F
100
AcDbEntity
  8
0
  6
Continuous
 62
     7
370
    35
100
AcDbLine
 10
315.0
 20
287.0
 30
0.0
 11
315.0
 21
292.0
 31
0.0
  0
LINE
  5
A2
330
1F
100
AcDbEntity
  8
0
  6
Continuous
 62
     7
370
    35
100
AcDbLine
 10
315.0
 20
10.0
 30
0.0
 11
315.0
 21
5.0
 31
0.0
  0
LINE
  5
A3
330
1F
100
AcDbEntity
  8
0
  6
Continuous
 62
     7
370
    35
100
AcDbLine
 10
365.0
 20
287.0
 30
0.0
 11
365.0
 21
292.0
 31
0.0
  0
LINE
  5
A4
330
1F
100
AcDbEntity
  8
0
  6
Continuous
 62
     7
370
    35
100
AcDbLine
 10
365.0
 20
10.0
 30
0.0
 11
365.0
 21
5.0
 31
0.0
  0
LINE
  5
A5
330
1F
100
AcDbEntity
  8
0
  6
Continuous
 62
     7
370
    70
100
AcDbLine
 10
20.0
 20
10.0
 30
0.0
 11
20.0
 21
287.0
 31
0.0
  0
LINE
  5
A6
330
1F
100
AcDbEntity
  8
0
  6
Continuous
 62
     7
370
    70
100
AcDbLine
 10
20.0
 20
287.0
 30
0.0
 11
410.0
 21
287.0
 31
0.0
  0
LINE
  5
A7
330
1F
100
AcDbEntity
  8
0
  6
Continuous
 62
     7
370
    70
100
AcDbLine
 10
410.0
 20
287.0
 30
0.0
 11
410.0
 21
10.0
 31
0.0
  0
LINE
  5
A8
330
1F
100
AcDbEntity
  8
0
  6
Continuous
 62
     7
370
    70
100
AcDbLine
 10
410.0
 20
10.0
 30
0.0
 11
20.0
 21
10.0
 31
0.0
  0
LINE
  5
A9
330
1F
100
AcDbEntity
  8
0
  6
Continuous
 62
     7
370
    70
100
AcDbLine
 10
15.0
 20
5.0
 30
0.0
 11
15.0
 21
292.0
 31
0.0
  0
LINE
  5
AA
330
1F
100
AcDbEntity
  8
0
  6
Continuous
 62
     7
370
    70
100
AcDbLine
 10
15.0
 20
292.0
 30
0.0
 11
415.0
 21
292.0
 31
0.0
  0
LINE
  5
AB
330
1F
100
AcDbEntity
  8
0
  6
Continuous
 62
     7
370
    70
100
AcDbLine
 10
415.0
 20
292.0
 30
0.0
 11
415.0
 21
5.0
 31
0.0
  0
LINE
  5
AC
330
1F
100
AcDbEntity
  8
0
  6
Continuous
 62
     7
370
    70
100
AcDbLine
 10
415.0
 20
5.0
 30
0.0
 11
15.0
 21
5.0
 31
0.0
  0
LINE
  5
AD
330
1F
100
AcDbEntity
  8
0
  6
Continuous
 62
     7
370
    35
100
AcDbLine
 10
14.999
 20
148.5
 30
0.0
 11
25.001
 21
148.5
 31
0.0
  0
LINE
  5
AE
330
1F
100
AcDbEntity
  8
0
  6
Continuous
 62
     7
370
    35
100
AcDbLine
 10
215.0
 20
292.001
 30
0.0
 11
215.0
 21
281.999
 31
0.0
  0
LINE
  5
AF
330
1F
100
AcDbEntity
  8
0
  6
Continuous
 62
     7
370
    35
100
AcDbLine
 10
415.001
 20
148.5
 30
0.0
 11
404.999
 21
148.5
 31
0.0
  0
LINE
  5
B0
330
1F
100
AcDbEntity
  8
0
  6
Continuous
 62
     7
370
    35
100
AcDbLine
 10
215.0
 20
4.999
 30
0.0
 11
215.0
 21
15.001
 31
0.0
  0
MTEXT
  5
B2
330
1F
100
AcDbEntity
  8
0
  6
Continuous
 62
     7
370
     0
100
AcDbMText
 10
364.8780277713
 20
23.6069112001
 30
0.0
 40
6.35
 41
0.0
 71
     2
 72
     1
  1
CE025COFGM_#_##Svoboda
  7
SLDTEXTSTYLE0
 73
     1
 44
1.0
  0
MTEXT
  5
B3
330
1F
100
AcDbEntity
  8
0
  6
Continuous
 62
     7
370
     0
100
AcDbMText
 10
285.6178111281
 20
12.9493119036
 30
0.0
 40
1.4986
 41
0.0
 71
     1
 72
     1
  1
HMOTNOST:
  7
SLDTEXTSTYLE0
 73
     1
 44
1.0
  0
MTEXT
  5
B4
330
1F
100
AcDbEntity
  8
0
  6
Continuous
 62
     7
370
     0
100
AcDbMText
 10
400.8711564346
 20
24.406388569
 30
0.0
 40
2.9104166667
 41
0.0
 71
     1
 72
     1
  1
A3
  7
SLDTEXTSTYLE0
 73
     1
 44
1.0
  0
MTEXT
  5
B6
330
1F
100
AcDbEntity
  8
0
  6
Continuous
 62
     7
370
     0
100
AcDbMText
 10
374.4782944278
 20
12.9000872745
 30
0.0
 40
1.5
 41
0.0
 71
     1
 72
     1
  1
LIST 1 Z 1 LISTŮ
  7
SLDTEXTSTYLE1
 73
     1
 44
1.0
  0
MTEXT
  5
B8
330
1F
100
AcDbEntity
  8
0
  6
Continuous
 62
     7
370
     0
100
AcDbMText
 10
330.0739661175
 20
12.9000872745
 30
0.0
 40
1.5
 41
0.0
 71
     1
 72
     1
  1
MĚŘÍTKO:1:1
  7
SLDTEXTSTYLE2
 73
     1
 44
1.0
  0
MTEXT
  5
B9
330
1F
100
AcDbEntity
  8
0
  6
Continuous
 62
     7
370
     0
100
AcDbMText
 10
330.2786531243
 20
25.9860562892
 30
0.0
 40
1.5
 41
0.0
 71
     1
 72
     1
  1
Č. VÝKRESU
  7
SLDTEXTSTYLE2
 73
     1
 44
1.0
  0
MTEXT
  5
BA
330
1F
100
AcDbEntity
  8
0
  6
Continuous
 62
     7
370
     0
100
AcDbMText
 10
329.9561869366
 20
46.5761792212
 30
0.0
 40
1.5
 41
0.0
 71
     1
 72
     1
  1
NÁZEV:
  7
SLDTEXTSTYLE0
 73
     1
 44
1.0
  0
MTEXT
  5
BB
330
1F
100
AcDbEntity
  8
0
  6
Continuous
 62
     7
370
     0
100
AcDbMText
 10
383.3275816993
 20
62.3349086805
 30
0.0
 40
1.5
 41
0.0
 71
     1
 72
     1
  1
ZMĚNA
  7
SLDTEXTSTYLE2
 73
     1
 44
1.0
  0
MTEXT
  5
BC
330
1F
100
AcDbEntity
  8
0
  6
Continuous
 62
     7
370
     0
100
AcDbMText
 10
342.6146405229
 20
62.5329935751
 30
0.0
 40
1.5
 41
0.0
 71
     1
 72
     1
  1
NEUPRAVOVAT MĚŘÍTKO VÝKRESU
  7
SLDTEXTSTYLE2
 73
     1
 44
1.0
  0
MTEXT
  5
BD
330
1F
100
AcDbEntity
  8
0
  6
Continuous
 62
     7
370
     0
100
AcDbMText
 10
285.6458623088
 20
25.9860562892
 30
0.0
 40
1.5
 41
0.0
 71
     1
 72
     1
  1
MATERIÁL:
  7
SLDTEXTSTYLE0
 73
     1
 44
1.0
  0
MTEXT
  5
BE
330
1F
100
AcDbEntity
  8
0
  6
Continuous
 62
     7
370
     0
100
AcDbMText
 10
277.2147019657
 20
46.5761792212
 30
0.0
 40
1.5
 41
0.0
 71
     1
 72
     1
  1
DATUM
  7
SLDTEXTSTYLE0
 73
     1
 44
1.0
  0
MTEXT
  5
BF
330
1F
100
AcDbEntity
  8
0
  6
Continuous
 62
     7
370
     0
100
AcDbMText
 10
260.0335875632
 20
46.5617563795
 30
0.0
 40
1.5
 41
0.0
 71
     1
 72
     1
  1
PODPIS
  7
SLDTEXTSTYLE0
 73
     1
 44
1.0
  0
MTEXT
  5
C0
330
1F
100
AcDbEntity
  8
0
  6
Continuous
 62
     7
370
     0
100
AcDbMText
 10
244.3222392177
 20
46.5014826335
 30
0.0
 40
1.5
 41
0.0
 71
     1
 72
     1
  1
JMÉNO
  7
SLDTEXTSTYLE0
 73
     1
 44
1.0
  0
INSERT
  5
C6
330
1F
100
AcDbEntity
  8
0
  6
Continuous
 62
     7
370
     0
100
AcDbBlockReference
  2
SW_NOTE_0
 10
311.3092156863
 20
62.069489643
 30
0.0
  0
MTEXT
  5
C7
330
1F
100
AcDbEntity
  8
0
  6
Continuous
 62
     7
370
     0
100
AcDbMText
 10
264.3712921668
 20
63.9192719951
 30
0.0
 40
1.5
 41
0.0
 71
     1
 72
     1
  1
OPRACOVÁNÍ:
  7
SLDTEXTSTYLE0
 73
     1
 44
1.0
  0
INSERT
  5
D1
330
1F
100
AcDbEntity
  8
0
  6
Continuous
 62
     7
370
     0
100
AcDbBlockReference
  2
SW_NOTE_0_1
 10
230.5936687456
 20
61.9873698743
 30
0.0
  0
MTEXT
  5
D2
330
1F
100
AcDbEntity
  8
0
  6
Continuous
 62
     7
370
     0
100
AcDbMText
 10
230.6690428622
 20
25.3496492073
 30
0.0
 40
1.5
 41
0.0
 71
     1
 72
     1
  1
Z. JAKOSTI
  7
SLDTEXTSTYLE0
 73
     1
 44
1.0
  0
MTEXT
  5
D3
330
1F
100
AcDbEntity
  8
0
  6
Continuous
 62
     7
370
     0
100
AcDbMText
 10
230.4551864991
 20
29.7337046506
 30
0.0
 40
1.5
 41
0.0
 71
     1
 72
     1
  1
VÝROBA
  7
SLDTEXTSTYLE0
 73
     1
 44
1.0
  0
MTEXT
  5
D4
330
1F
100
AcDbEntity
  8
0
  6
Continuous
 62
     7
370
     0
100
AcDbMText
 10
230.4017224083
 20
34.0642960031
 30
0.0
 40
1.5
 41
0.0
 71
     1
 72
     1
  1
SCHVÁLIL
  7
SLDTEXTSTYLE0
 73
     1
 44
1.0
  0
MTEXT
  5
D5
330
1F
100
AcDbEntity
  8
0
  6
Continuous
 62
     7
370
     0
100
AcDbMText
 10
230.4104688676
 20
38.15440716
 30
0.0
 40
1.5
 41
0.0
 71
     1
 72
     1
  1
PŘEZKOUŠEL
  7
SLDTEXTSTYLE2
 73
     1
 44
1.0
  0
MTEXT
  5
D6
330
1F
100
AcDbEntity
  8
0
  6
Continuous
 62
     7
370
     0
100
AcDbMText
 10
230.2121492441
 20
42.4297148859
 30
0.0
 40
1.5
 41
0.0
 71
     1
 72
     1
  1
NAVRHL
  7
SLDTEXTSTYLE0
 73
     1
 44
1.0
  0
MTEXT
  5
D7
330
1F
100
AcDbEntity
  8
0
  6
Continuous
 62
     7
370
     0
100
AcDbMText
 10
17.3396881428
 20
31.81015409
 30
0.0
 40
3.96875
 41
0.0
 71
     2
 72
     1
  1
A
  7
SLDTEXTSTYLE0
 73
     1
 44
1.0
  0
MTEXT
  5
D8
330
1F
100
AcDbEntity
  8
0
  6
Continuous
 62
     7
370
     0
100
AcDbMText
 10
412.3396881428
 20
31.81015409
 30
0.0
 40
3.96875
 41
0.0
 71
     2
 72
     1
  1
A
  7
SLDTEXTSTYLE0
 73
     1
 44
1.0
  0
MTEXT
  5
D9
330
1F
100
AcDbEntity
  8
0
  6
Continuous
 62
     7
370
     0
100
AcDbMText
 10
17.4706018241
 20
76.06015409
 30
0.0
 40
3.96875
 41
0.0
 71
     2
 72
     1
  1
B
  7
SLDTEXTSTYLE0
 73
     1
 44
1.0
  0
MTEXT
  5
DA
330
1F
100
AcDbEntity
  8
0
  6
Continuous
 62
     7
370
     0
100
AcDbMText
 10
412.4706018241
 20
76.06015409
 30
0.0
 40
3.96875
 41
0.0
 71
     2
 72
     1
  1
B
  7
SLDTEXTSTYLE0
 73
     1
 44
1.0
  0
MTEXT
  5
DB
330
1F
100
AcDbEntity
  8
0
  6
Continuous
 62
     7
370
     0
100
AcDbMText
 10
17.458658902
 20
126.06015409
 30
0.0
 40
3.96875
 41
0.0
 71
     2
 72
     1
  1
C
  7
SLDTEXTSTYLE0
 73
     1
 44
1.0
  0
MTEXT
  5
DC
330
1F
100
AcDbEntity
  8
0
  6
Continuous
 62
     7
370
     0
100
AcDbMText
 10
412.458658902
 20
126.06015409
 30
0.0
 40
3.96875
 41
0.0
 71
     2
 72
     1
  1
C
  7
SLDTEXTSTYLE0
 73
     1
 44
1.0
  0
MTEXT
  5
DD
330
1F
100
AcDbEntity
  8
0
  6
Continuous
 62
     7
370
     0
100
AcDbMText
 10
17.4526872821
 20
176.06015409
 30
0.0
 40
3.96875
 41
0.0
 71
     2
 72
     1
  1
D
  7
SLDTEXTSTYLE0
 73
     1
 44
1.0
  0
MTEXT
  5
DE
330
1F
100
AcDbEntity
  8
0
  6
Continuous
 62
     7
370
     0
100
AcDbMText
 10
412.4526872821
 20
176.06015409
 30
0.0
 40
3.96875
 41
0.0
 71
     2
 72
     1
  1
D
  7
SLDTEXTSTYLE0
 73
     1
 44
1.0
  0
MTEXT
  5
DF
330
1F
100
AcDbEntity
  8
0
  6
Continuous
 62
     7
370
     0
100
AcDbMText
 10
17.5078089051
 20
226.06015409
 30
0.0
 40
3.96875
 41
0.0
 71
     2
 72
     1
  1
E
  7
SLDTEXTSTYLE0
 73
     1
 44
1.0
  0
MTEXT
  5
E0
330
1F
100
AcDbEntity
  8
0
  6
Continuous
 62
     7
370
     0
100
AcDbMText
 10
412.5078089051
 20
226.06015409
 30
0.0
 40
3.96875
 41
0.0
 71
     2
 72
     1
  1
E
  7
SLDTEXTSTYLE0
 73
     1
 44
1.0
  0
MTEXT
  5
E1
330
1F
100
AcDbEntity
  8
0
  6
Continuous
 62
     7
370
     0
100
AcDbMText
 10
17.4577402091
 20
270.31015409
 30
0.0
 40
3.96875
 41
0.0
 71
     2
 72
     1
  1
F
  7
SLDTEXTSTYLE0
 73
     1
 44
1.0
  0
MTEXT
  5
E2
330
1F
100
AcDbEntity
  8
0
  6
Continuous
 62
     7
370
     0
100
AcDbMText
 10
412.4577402091
 20
270.31015409
 30
0.0
 40
3.96875
 41
0.0
 71
     2
 72
     1
  1
F
  7
SLDTEXTSTYLE0
 73
     1
 44
1.0
  0
MTEXT
  5
E3
330
1F
100
AcDbEntity
  8
0
  6
Continuous
 62
     7
370
     0
100
AcDbMText
 10
42.4600369465
 20
10.06015409
 30
0.0
 40
3.96875
 41
0.0
 71
     2
 72
     1
  1
8
  7
SLDTEXTSTYLE0
 73
     1
 44
1.0
  0
MTEXT
  5
E4
330
1F
100
AcDbEntity
  8
0
  6
Continuous
 62
     7
370
     0
100
AcDbMText
 10
42.4600369465
 20
292.06015409
 30
0.0
 40
3.96875
 41
0.0
 71
     2
 72
     1
  1
8
  7
SLDTEXTSTYLE0
 73
     1
 44
1.0
  0
MTEXT
  5
E5
330
1F
100
AcDbEntity
  8
0
  6
Continuous
 62
     7
370
     0
100
AcDbMText
 10
89.9600369465
 20
10.06015409
 30
0.0
 40
3.96875
 41
0.0
 71
     2
 72
     1
  1
7
  7
SLDTEXTSTYLE0
 73
     1
 44
1.0
  0
MTEXT
  5
E6
330
1F
100
AcDbEntity
  8
0
  6
Continuous
 62
     7
370
     0
100
AcDbMText
 10
89.9600369465
 20
292.06015409
 30
0.0
 40
3.96875
 41
0.0
 71
     2
 72
     1
  1
7
  7
SLDTEXTSTYLE0
 73
     1
 44
1.0
  0
MTEXT
  5
E7
330
1F
100
AcDbEntity
  8
0
  6
Continuous
 62
     7
370
     0
100
AcDbMText
 10
139.9600369465
 20
10.06015409
 30
0.0
 40
3.96875
 41
0.0
 71
     2
 72
     1
  1
6
  7
SLDTEXTSTYLE0
 73
     1
 44
1.0
  0
MTEXT
  5
E8
330
1F
100
AcDbEntity
  8
0
  6
Continuous
 62
     7
370
     0
100
AcDbMText
 10
139.9600369465
 20
292.06015409
 30
0.0
 40
3.96875
 41
0.0
 71
     2
 72
     1
  1
6
  7
SLDTEXTSTYLE0
 73
     1
 44
1.0
  0
MTEXT
  5
E9
330
1F
100
AcDbEntity
  8
0
  6
Continuous
 62
     7
370
     0
100
AcDbMText
 10
189.9600369465
 20
10.06015409
 30
0.0
 40
3.96875
 41
0.0
 71
     2
 72
     1
  1
5
  7
SLDTEXTSTYLE0
 73
     1
 44
1.0
  0
MTEXT
  5
EA
330
1F
100
AcDbEntity
  8
0
  6
Continuous
 62
     7
370
     0
100
AcDbMText
 10
189.9600369465
 20
292.06015409
 30
0.0
 40
3.96875
 41
0.0
 71
     2
 72
     1
  1
5
  7
SLDTEXTSTYLE0
 73
     1
 44
1.0
  0
MTEXT
  5
EB
330
1F
100
AcDbEntity
  8
0
  6
Continuous
 62
     7
370
     0
100
AcDbMText
 10
239.9600369465
 20
10.06015409
 30
0.0
 40
3.96875
 41
0.0
 71
     2
 72
     1
  1
4
  7
SLDTEXTSTYLE0
 73
     1
 44
1.0
  0
MTEXT
  5
EC
330
1F
100
AcDbEntity
  8
0
  6
Continuous
 62
     7
370
     0
100
AcDbMText
 10
239.9600369465
 20
292.06015409
 30
0.0
 40
3.96875
 41
0.0
 71
     2
 72
     1
  1
4
  7
SLDTEXTSTYLE0
 73
     1
 44
1.0
  0
MTEXT
  5
ED
330
1F
100
AcDbEntity
  8
0
  6
Continuous
 62
     7
370
     0
100
AcDbMText
 10
289.9600369465
 20
10.06015409
 30
0.0
 40
3.96875
 41
0.0
 71
     2
 72
     1
  1
3
  7
SLDTEXTSTYLE0
 73
     1
 44
1.0
  0
MTEXT
  5
EE
330
1F
100
AcDbEntity
  8
0
  6
Continuous
 62
     7
370
     0
100
AcDbMText
 10
289.9600369465
 20
292.06015409
 30
0.0
 40
3.96875
 41
0.0
 71
     2
 72
     1
  1
3
  7
SLDTEXTSTYLE0
 73
     1
 44
1.0
  0
MTEXT
  5
EF
330
1F
100
AcDbEntity
  8
0
  6
Continuous
 62
     7
370
     0
100
AcDbMText
 10
339.9600369465
 20
10.06015409
 30
0.0
 40
3.96875
 41
0.0
 71
     2
 72
     1
  1
2
  7
SLDTEXTSTYLE0
 73
     1
 44
1.0
  0
MTEXT
  5
F0
330
1F
100
AcDbEntity
  8
0
  6
Continuous
 62
     7
370
     0
100
AcDbMText
 10
339.9600369465
 20
292.06015409
 30
0.0
 40
3.96875
 41
0.0
 71
     2
 72
     1
  1
2
  7
SLDTEXTSTYLE0
 73
     1
 44
1.0
  0
MTEXT
  5
F1
330
1F
100
AcDbEntity
  8
0
  6
Continuous
 62
     7
370
     0
100
AcDbMText
 10
387.4600369465
 20
10.06015409
 30
0.0
 40
3.96875
 41
0.0
 71
     2
 72
     1
  1
1
  7
SLDTEXTSTYLE0
 73
     1
 44
1.0
  0
MTEXT
  5
F2
330
1F
100
AcDbEntity
  8
0
  6
Continuous
 62
     7
370
     0
100
AcDbMText
 10
387.4600369465
 20
292.06015409
 30
0.0
 40
3.96875
 41
0.0
 71
     2
 72
     1
  1
1
  7
SLDTEXTSTYLE0
 73
     1
 44
1.0
  0
ARC
  5
F3
330
1F
100
AcDbEntity
  8
0
  6
Continuous
 62
     7
370
    25
100
AcDbCircle
 10
139.14
 20
243.0125126266
 30
0.0
 40
0.8000000000000114
100
AcDbArc
 50
0.0
 51
90.0
  0
ARC
  5
F4
330
1F
100
AcDbEntity
  8
0
  6
Continuous
 62
     7
370
    25
100
AcDbCircle
 10
133.74
 20
243.0125126266
 30
0.0
 40
0.8000000000000114
100
AcDbArc
 50
90.0
 51
180.0
  0
LINE
  5
F5
330
1F
100
AcDbEntity
  8
0
  6
Continuous
 62
     7
370
    25
100
AcDbLine
 10
132.94
 20
243.0125126266
 30
0.0
 11
132.94
 21
240.1525126266
 31
0.0
  0
LINE
  5
F6
330
1F
100
AcDbEntity
  8
0
  6
Continuous
 62
     7
370
    25
100
AcDbLine
 10
139.94
 20
240.1525126266
 30
0.0
 11
139.94
 21
243.0125126266
 31
0.0
  0
LINE
  5
F7
330
1F
100
AcDbEntity
  8
0
  6
Continuous
 62
     7
370
    25
100
AcDbLine
 10
132.94
 20
240.1525126266
 30
0.0
 11
133.28
 21
239.8125126266
 31
0.0
  0
LINE
  5
F8
330
1F
100
AcDbEntity
  8
0
  6
Continuous
 62
     7
370
    25
100
AcDbLine
 10
139.6
 20
239.8125126266
 30
0.0
 11
139.94
 21
240.1525126266
 31
0.0
  0
LINE
  5
F9
330
1F
100
AcDbEntity
  8
0
  6
Continuous
 62
     7
370
    25
100
AcDbLine
 10
96.94
 20
240.1525126266
 30
0.0
 11
97.28
 21
239.8125126266
 31
0.0
  0
LINE
  5
FA
330
1F
100
AcDbEntity
  8
0
  6
Continuous
 62
     7
370
    25
100
AcDbLine
 10
103.6
 20
239.8125126266
 30
0.0
 11
103.94
 21
240.1525126266
 31
0.0
  0
ARC
  5
FB
330
1F
100
AcDbEntity
  8
0
  6
Continuous
 62
     7
370
    25
100
AcDbCircle
 10
103.14
 20
243.0125126266
 30
0.0
 40
0.8000000000000114
100
AcDbArc
 50
0.0
 51
90.0
  0
ARC
  5
FC
330
1F
100
AcDbEntity
  8
0
  6
Continuous
 62
     7
370
    25
100
AcDbCircle
 10
97.74
 20
243.0125126266
 30
0.0
 40
0.8000000000000114
100
AcDbArc
 50
90.0
 51
180.0
  0
LINE
  5
FD
330
1F
100
AcDbEntity
  8
0
  6
Continuous
 62
     7
370
    25
100
AcDbLine
 10
96.94
 20
243.0125126266
 30
0.0
 11
96.94
 21
240.1525126266
 31
0.0
  0
LINE
  5
FE
330
1F
100
AcDbEntity
  8
0
  6
Continuous
 62
     7
370
    25
100
AcDbLine
 10
103.94
 20
240.1525126266
 30
0.0
 11
103.94
 21
243.0125126266
 31
0.0
  0
LINE
  5
FF
330
1F
100
AcDbEntity
  8
0
  6
Continuous
 62
     7
370
    25
100
AcDbLine
 10
94.64
 20
239.8125126266
 30
0.0
 11
94.64
 21
234.8125126266
 31
0.0
  0
LINE
  5
100
330
1F
100
AcDbEntity
  8
0
  6
Continuous
 62
     7
370
    25
100
AcDbLine
 10
106.24
 20
237.3125126266
 30
0.0
 11
106.24
 21
239.8125126266
 31
0.0
  0
LINE
  5
101
330
1F
100
AcDbEntity
  8
0
  6
Continuous
 62
     7
370
    25
100
AcDbLine
 10
130.64
 20
239.8125126266
 30
0.0
 11
130.64
 21
237.3125126266
 31
0.0
  0
LINE
  5
102
330
1F
100
AcDbEntity
  8
0
  6
Continuous
 62
     7
370
    25
100
AcDbLine
 10
142.24
 20
234.8125126266
 30
0.0
 11
142.24
 21
239.8125126266
 31
0.0
  0
ARC
  5
103
330
1F
100
AcDbEntity
  8
0
  6
Continuous
 62
     7
370
    25
100
AcDbCircle
 10
123.44
 20
238.3125126266
 30
0.0
 40
3.400000000000006
100
AcDbArc
 50
333.821031296
 51
0.0
  0
ARC
  5
104
330
1F
100
AcDbEntity
  8
0
  6
Continuous
 62
     7
370
    25
100
AcDbCircle
 10
123.44
 20
238.3125126266
 30
0.0
 40
3.400000000000007
100
AcDbArc
 50
0.0
 51
206.178968704
  0
LINE
  5
105
330
1F
100
AcDbEntity
  8
0
  6
Continuous
 62
     7
370
    25
100
AcDbLine
 10
120.04
 20
239.8125126266
 30
0.0
 11
120.3887707395
 21
239.8125126266
 31
0.0
  0
LINE
  5
106
330
1F
100
AcDbEntity
  8
0
  6
Continuous
 62
     7
370
    25
100
AcDbLine
 10
126.4912292605
 20
239.8125126266
 30
0.0
 11
126.84
 21
239.8125126266
 31
0.0
  0
ARC
  5
107
330
1F
100
AcDbEntity
  8
0
  6
Continuous
 62
     7
370
    25
100
AcDbCircle
 10
113.44
 20
238.3125126266
 30
0.0
 40
3.400000000000007
100
AcDbArc
 50
333.821031296
 51
0.0
  0
ARC
  5
108
330
1F
100
AcDbEntity
  8
0
  6
Continuous
 62
     7
370
    25
100
AcDbCircle
 10
113.44
 20
238.3125126266
 30
0.0
 40
3.400000000000007
100
AcDbArc
 50
0.0
 51
206.178968704
  0
LINE
  5
109
330
1F
100
AcDbEntity
  8
0
  6
Continuous
 62
     7
370
    25
100
AcDbLine
 10
110.04
 20
239.8125126266
 30
0.0
 11
110.3887707395
 21
239.8125126266
 31
0.0
  0
LINE
  5
10A
330
1F
100
AcDbEntity
  8
0
  6
Continuous
 62
     7
370
    25
100
AcDbLine
 10
116.4912292605
 20
239.8125126266
 30
0.0
 11
116.84
 21
239.8125126266
 31
0.0
  0
ARC
  5
10B
330
1F
100
AcDbEntity
  8
0
  6
Continuous
 62
     7
370
    25
100
AcDbCircle
 10
118.44
 20
212.3125126266
 30
0.0
 40
8.500000000000032
100
AcDbArc
 50
28.0724869359
 51
61.9275130641
  0
ARC
  5
10C
330
1F
100
AcDbEntity
  8
0
  6
Continuous
 62
     7
370
    25
100
AcDbCircle
 10
118.44
 20
212.3125126266
 30
0.0
 40
8.000000000000025
100
AcDbArc
 50
20.3641348063
 51
69.6358651937
  0
SPLINE
  5
10D
330
1F
100
AcDbEntity
  8
0
  6
Continuous
 62
     7
370
    25
100
AcDbSpline
210
0.0
220
0.0
230
1.0
 70
    24
 71
     3
 72
    13
 73
     9
 74
     0
 42
0.000000001
 43
0.00000001
 40
0.0
 40
0.0
 40
0.0
 40
0.0
 40
0.4562536240148976
 40
0.6151465960656778
 40
0.824897800970147
 40
0.8989945491587304
 40
0.9737945380438768
 40
1.0
 40
1.0
 40
1.0
 40
1.0
 10
121.223882181428
 20
219.8125126266242
 30
0.0
 10
121.4402706190968
 20
219.8125126266242
 30
0.0
 10
121.7320175858136
 20
219.8125126266242
 30
0.0
 10
122.1042768472396
 20
219.8125126266242
 30
0.0
 10
122.294362021364
 20
219.8125126266242
 30
0.0
 10
122.4045981736652
 20
219.8125126266242
 30
0.0
 10
122.4370991738623
 20
219.8125126266242
 30
0.0
 10
122.4394024295086
 20
219.8125126266242
 30
0.0
 10
122.440000000013
 20
219.8125126266242
 30
0.0
  0
SPLINE
  5
10E
330
1F
100
AcDbEntity
  8
0
  6
Continuous
 62
     7
370
    25
100
AcDbSpline
210
0.0
220
0.0
230
1.0
 70
    24
 71
     3
 72
    13
 73
     9
 74
     0
 42
0.000000001
 43
0.00000001
 40
0.0
 40
0.0
 40
0.0
 40
0.0
 40
0.0600071289245176
 40
0.1333066582979345
 40
0.2464479258036567
 40
0.4598572101501736
 40
0.9339715721128006
 40
1.0
 40
1.0
 40
1.0
 40
1.0
 10
125.940000000013
 20
216.3125126266242
 30
0.0
 10
125.940000000013
 20
216.30938897675
 30
0.0
 10
125.940000000013
 20
216.3024497457973
 30
0.0
 10
125.940000000013
 20
216.2389862240987
 30
0.0
 10
125.940000000013
 20
216.0937832622211
 30
0.0
 10
125.940000000013
 20
215.739500156896
 30
0.0
 10
125.940000000013
 20
215.3816881649393
 30
0.0
 10
125.940000000013
 20
215.1274709648932
 30
0.0
 10
125.940000000013
 20
215.0963948080392
 30
0.0
  0
ARC
  5
10F
330
1F
100
AcDbEntity
  8
0
  6
Continuous
 62
     7
370
    25
100
AcDbCircle
 10
118.44
 20
212.3125126266
 30
0.0
 40
8.500000000000025
100
AcDbArc
 50
118.0724869359
 51
151.9275130641
  0
SPLINE
  5
110
330
1F
100
AcDbEntity
  8
0
  6
Continuous
 62
     7
370
    25
100
AcDbSpline
210
0.0
220
0.0
230
1.0
 70
    24
 71
     3
 72
    13
 73
     9
 74
     0
 42
0.000000001
 43
0.00000001
 40
0.0
 40
0.0
 40
0.0
 40
0.0
 40
0.0600071289245179
 40
0.1333066582979347
 40
0.2464479258036572
 40
0.4598572101501754
 40
0.9339715721127966
 40
1.0
 40
1.0
 40
1.0
 40
1.0
 10
114.440000000013
 20
219.8125126266242
 30
0.0
 10
114.4431236498872
 20
219.8125126266242
 30
0.0
 10
114.4500628808399
 20
219.8125126266242
 30
0.0
 10
114.5135264025385
 20
219.8125126266242
 30
0.0
 10
114.658729364416
 20
219.8125126266242
 30
0.0
 10
115.0130124697412
 20
219.8125126266242
 30
0.0
 10
115.3708244616979
 20
219.8125126266242
 30
0.0
 10
115.625041661744
 20
219.8125126266242
 30
0.0
 10
115.656117818598
 20
219.8125126266242
 30
0.0
  0
ARC
  5
111
330
1F
100
AcDbEntity
  8
0
  6
Continuous
 62
     7
370
    25
100
AcDbCircle
 10
118.44
 20
212.3125126266
 30
0.0
 40
8.000000000000025
100
AcDbArc
 50
110.3641348063
 51
159.6358651937
  0
SPLINE
  5
112
330
1F
100
AcDbEntity
  8
0
  6
Continuous
 62
     7
370
    25
100
AcDbSpline
210
0.0
220
0.0
230
1.0
 70
    24
 71
     3
 72
    13
 73
     9
 74
     0
 42
0.000000001
 43
0.00000001
 40
0.0
 40
0.0
 40
0.0
 40
0.0
 40
0.4562536240149148
 40
0.6151465960656927
 40
0.8248978009701463
 40
0.8989945491587304
 40
0.973794538043877
 40
1.0
 40
1.0
 40
1.0
 40
1.0
 10
110.940000000013
 20
215.0963948080392
 30
0.0
 10
110.940000000013
 20
215.3127832457079
 30
0.0
 10
110.940000000013
 20
215.6045302124247
 30
0.0
 10
110.940000000013
 20
215.9767894738507
 30
0.0
 10
110.940000000013
 20
216.1668746479751
 30
0.0
 10
110.940000000013
 20
216.2771108002763
 30
0.0
 10
110.940000000013
 20
216.3096118004734
 30
0.0
 10
110.940000000013
 20
216.3119150561197
 30
0.0
 10
110.940000000013
 20
216.3125126266242
 30
0.0
  0
ARC
  5
113
330
1F
100
AcDbEntity
  8
0
  6
Continuous
 62
     7
370
    25
100
AcDbCircle
 10
118.44
 20
212.3125126266
 30
0.0
 40
8.500000000000012
100
AcDbArc
 50
298.0724869359
 51
331.9275130641
  0
SPLINE
  5
114
330
1F
100
AcDbEntity
  8
0
  6
Continuous
 62
     7
370
    25
100
AcDbSpline
210
0.0
220
0.0
230
1.0
 70
    24
 71
     3
 72
    13
 73
     9
 74
     0
 42
0.000000001
 43
0.00000001
 40
0.0
 40
0.0
 40
0.0
 40
0.0
 40
0.0600071289245178
 40
0.1333066582979344
 40
0.2464479258036561
 40
0.4598572101501749
 40
0.9339715721127944
 40
1.0
 40
1.0
 40
1.0
 40
1.0
 10
122.440000000013
 20
204.8125126266242
 30
0.0
 10
122.4368763501389
 20
204.8125126266242
 30
0.0
 10
122.4299371191862
 20
204.8125126266242
 30
0.0
 10
122.3664735974875
 20
204.8125126266242
 30
0.0
 10
122.22127063561
 20
204.8125126266242
 30
0.0
 10
121.8669875302849
 20
204.8125126266242
 30
0.0
 10
121.5091755383282
 20
204.8125126266242
 30
0.0
 10
121.2549583382821
 20
204.8125126266242
 30
0.0
 10
121.223882181428
 20
204.8125126266242
 30
0.0
  0
ARC
  5
115
330
1F
100
AcDbEntity
  8
0
  6
Continuous
 62
     7
370
    25
100
AcDbCircle
 10
118.44
 20
212.3125126266
 30
0.0
 40
8.000000000000012
100
AcDbArc
 50
290.3641348063
 51
339.6358651937
  0
SPLINE
  5
116
330
1F
100
AcDbEntity
  8
0
  6
Continuous
 62
     7
370
    25
100
AcDbSpline
210
0.0
220
0.0
230
1.0
 70
    24
 71
     3
 72
    13
 73
     9
 74
     0
 42
0.000000001
 43
0.00000001
 40
0.0
 40
0.0
 40
0.0
 40
0.0
 40
0.4562536240149153
 40
0.6151465960656882
 40
0.8248978009701609
 40
0.8989945491587419
 40
0.9737945380438864
 40
0.9999999999999999
 40
0.9999999999999999
 40
0.9999999999999999
 40
0.9999999999999999
 10
125.940000000013
 20
209.5286304452092
 30
0.0
 10
125.940000000013
 20
209.3122420075404
 30
0.0
 10
125.940000000013
 20
209.0204950408236
 30
0.0
 10
125.940000000013
 20
208.6482357793977
 30
0.0
 10
125.940000000013
 20
208.4581506052732
 30
0.0
 10
125.940000000013
 20
208.347914452972
 30
0.0
 10
125.940000000013
 20
208.3154134527749
 30
0.0
 10
125.940000000013
 20
208.3131101971287
 30
0.0
 10
125.940000000013
 20
208.3125126266242
 30
0.0
  0
ARC
  5
117
330
1F
100
AcDbEntity
  8
0
  6
Continuous
 62
     7
370
    25
100
AcDbCircle
 10
118.44
 20
212.3125126266
 30
0.0
 40
8.5
100
AcDbArc
 50
208.0724869359
 51
241.9275130641
  0
ARC
  5
118
330
1F
100
AcDbEntity
  8
0
  6
Continuous
 62
     7
370
    25
100
AcDbCircle
 10
118.44
 20
212.3125126266
 30
0.0
 40
7.999999999999999
100
AcDbArc
 50
200.3641348063
 51
249.6358651937
  0
SPLINE
  5
119
330
1F
100
AcDbEntity
  8
0
  6
Continuous
 62
     7
370
    25
100
AcDbSpline
210
0.0
220
0.0
230
1.0
 70
    24
 71
     3
 72
    13
 73
     9
 74
     0
 42
0.000000001
 43
0.00000001
 40
0.0
 40
0.0
 40
0.0
 40
0.0
 40
0.4562536240148967
 40
0.6151465960656775
 40
0.8248978009701471
 40
0.8989945491587304
 40
0.9737945380438766
 40
1.0
 40
1.0
 40
1.0
 40
1.0
 10
115.656117818598
 20
204.8125126266242
 30
0.0
 10
115.4397293809293
 20
204.8125126266242
 30
0.0
 10
115.1479824142125
 20
204.8125126266242
 30
0.0
 10
114.7757231527865
 20
204.8125126266242
 30
0.0
 10
114.5856379786621
 20
204.8125126266242
 30
0.0
 10
114.4754018263609
 20
204.8125126266242
 30
0.0
 10
114.4429008261638
 20
204.8125126266242
 30
0.0
 10
114.4405975705175
 20
204.8125126266242
 30
0.0
 10
114.440000000013
 20
204.8125126266242
 30
0.0
  0
SPLINE
  5
11A
330
1F
100
AcDbEntity
  8
0
  6
Continuous
 62
     7
370
    25
100
AcDbSpline
210
0.0
220
0.0
230
1.0
 70
    24
 71
     3
 72
    13
 73
     9
 74
     0
 42
0.000000001
 43
0.00000001
 40
0.0
 40
0.0
 40
0.0
 40
0.0
 40
0.0600071289245169
 40
0.1333066582979337
 40
0.2464479258036562
 40
0.4598572101501728
 40
0.9339715721127863
 40
1.0
 40
1.0
 40
1.0
 40
1.0
 10
110.940000000013
 20
208.3125126266242
 30
0.0
 10
110.940000000013
 20
208.3156362764983
 30
0.0
 10
110.940000000013
 20
208.322575507451
 30
0.0
 10
110.940000000013
 20
208.3860390291497
 30
0.0
 10
110.940000000013
 20
208.5312419910272
 30
0.0
 10
110.940000000013
 20
208.8855250963523
 30
0.0
 10
110.940000000013
 20
209.243337088309
 30
0.0
 10
110.940000000013
 20
209.4975542883552
 30
0.0
 10
110.940000000013
 20
209.5286304452092
 30
0.0
  0
CIRCLE
  5
11B
330
1F
100
AcDbEntity
  8
0
  6
Continuous
 62
     7
370
    25
100
AcDbCircle
 10
118.44
 20
212.3125126266
 30
0.0
 40
4.25
  0
CIRCLE
  5
11C
330
1F
100
AcDbEntity
  8
0
  6
Continuous
 62
     7
370
    25
100
AcDbCircle
 10
118.44
 20
212.3125126266
 30
0.0
 40
4.549999999999997
  0
LINE
  5
11D
330
1F
100
AcDbEntity
  8
0
  6
Continuous
 62
     7
370
    25
100
AcDbLine
 10
115.6561178186
 20
204.8125126266
 30
0.0
 11
121.2238821814
 21
204.8125126266
 31
0.0
  0
LINE
  5
11E
330
1F
100
AcDbEntity
  8
0
  6
Continuous
 62
     7
370
    25
100
AcDbLine
 10
110.94
 20
215.096394808
 30
0.0
 11
110.94
 21
209.5286304452
 31
0.0
  0
LINE
  5
11F
330
1F
100
AcDbEntity
  8
0
  6
Continuous
 62
     7
370
    25
100
AcDbLine
 10
121.2238821814
 20
219.8125126266
 30
0.0
 11
115.6561178186
 21
219.8125126266
 31
0.0
  0
LINE
  5
120
330
1F
100
AcDbEntity
  8
0
  6
Continuous
 62
     7
370
    25
100
AcDbLine
 10
125.94
 20
209.5286304452
 30
0.0
 11
125.94
 21
215.096394808
 31
0.0
  0
ARC
  5
121
330
1F
100
AcDbEntity
  8
0
  6
Continuous
 62
     7
370
    25
100
AcDbCircle
 10
118.44
 20
212.3125126266
 30
0.0
 40
8.500000000000032
100
AcDbArc
 50
61.9275130641
 51
118.0724869359
  0
ARC
  5
122
330
1F
100
AcDbEntity
  8
0
  6
Continuous
 62
     7
370
    25
100
AcDbCircle
 10
118.44
 20
212.3125126266
 30
0.0
 40
8.5
100
AcDbArc
 50
151.9275130641
 51
208.0724869359
  0
CIRCLE
  5
123
330
1F
100
AcDbEntity
  8
0
  6
Continuous
 62
     7
370
    25
100
AcDbCircle
 10
118.44
 20
212.3125126266
 30
0.0
 40
9.000000000000014
  0
ARC
  5
124
330
1F
100
AcDbEntity
  8
0
  6
Continuous
 62
     7
370
    25
100
AcDbCircle
 10
118.44
 20
212.3125126266
 30
0.0
 40
8.500000000000007
100
AcDbArc
 50
241.9275130641
 51
298.0724869359
  0
ARC
  5
125
330
1F
100
AcDbEntity
  8
0
  6
Continuous
 62
     7
370
    25
100
AcDbCircle
 10
118.44
 20
212.3125126266
 30
0.0
 40
8.500000000000012
100
AcDbArc
 50
331.9275130641
 51
28.0724869359
  0
LINE
  5
126
330
1F
100
AcDbEntity
  8
0
  6
Continuous
 62
     7
370
    25
100
AcDbLine
 10
131.44
 20
221.6398916797
 30
0.0
 11
131.44
 21
220.7534841347
 31
0.0
  0
ARC
  5
127
330
1F
100
AcDbEntity
  8
0
  6
Continuous
 62
     7
370
    25
100
AcDbCircle
 10
118.44
 20
212.3125126266
 30
0.0
 40
15.50000000000006
100
AcDbArc
 50
32.9958854736
 51
147.0041145264
  0
LINE
  5
128
330
1F
100
AcDbEntity
  8
0
  6
Continuous
 62
     7
370
    25
100
AcDbLine
 10
105.44
 20
221.6398916797
 30
0.0
 11
105.44
 21
220.7534841347
 31
0.0
  0
ARC
  5
129
330
1F
100
AcDbEntity
  8
0
  6
Continuous
 62
     7
370
    25
100
AcDbCircle
 10
118.44
 20
212.3125126266
 30
0.0
 40
16.00000000000007
100
AcDbArc
 50
35.6590876961
 51
144.3409123039
  0
LINE
  5
12A
330
1F
100
AcDbEntity
  8
0
  6
Continuous
 62
     7
370
    25
100
AcDbLine
 10
131.44
 20
220.7534841347
 30
0.0
 11
131.44
 21
203.8715411186
 31
0.0
  0
ARC
  5
12B
330
1F
100
AcDbEntity
  8
0
  6
Continuous
 62
     7
370
    25
100
AcDbCircle
 10
118.44
 20
212.3125126266
 30
0.0
 40
15.50000000000004
100
AcDbArc
 50
212.9958854736
 51
327.0041145264
  0
LINE
  5
12C
330
1F
100
AcDbEntity
  8
0
  6
Continuous
 62
     7
370
    25
100
AcDbLine
 10
105.44
 20
220.7534841347
 30
0.0
 11
105.44
 21
203.8715411186
 31
0.0
  0
CIRCLE
  5
12D
330
1F
100
AcDbEntity
  8
0
  6
Continuous
 62
     7
370
    25
100
AcDbCircle
 10
118.44
 20
212.3125126266
 30
0.0
 40
9.500000000000014
  0
ARC
  5
12E
330
1F
100
AcDbEntity
  8
0
  6
Continuous
 62
     7
370
    25
100
AcDbCircle
 10
118.44
 20
212.3125126266
 30
0.0
 40
16.0
100
AcDbArc
 50
215.6590876961
 51
324.3409123039
  0
LINE
  5
12F
330
1F
100
AcDbEntity
  8
0
  6
Continuous
 62
     7
370
    25
100
AcDbLine
 10
105.44
 20
203.8715411186
 30
0.0
 11
105.44
 21
202.9851335735
 31
0.0
  0
LINE
  5
130
330
1F
100
AcDbEntity
  8
0
  6
Continuous
 62
     7
370
    25
100
AcDbLine
 10
131.44
 20
203.8715411186
 30
0.0
 11
131.44
 21
202.9851335735
 31
0.0
  0
ARC
  5
131
330
1F
100
AcDbEntity
  8
0
  6
Continuous
 62
     7
370
    25
100
AcDbCircle
 10
118.44
 20
212.3125126266
 30
0.0
 40
16.0
100
AcDbArc
 50
324.3409123039
 51
35.6590876961
  0
ARC
  5
132
330
1F
100
AcDbEntity
  8
0
  6
Continuous
 62
     7
370
    25
100
AcDbCircle
 10
118.44
 20
212.3125126266
 30
0.0
 40
15.99999999999998
100
AcDbArc
 50
144.3409123039
 51
215.6590876961
  0
CIRCLE
  5
133
330
1F
100
AcDbEntity
  8
0
  6
Continuous
 62
     7
370
    25
100
AcDbCircle
 10
118.44
 20
212.3125126266
 30
0.0
 40
16.5
  0
CIRCLE
  5
134
330
1F
100
AcDbEntity
  8
0
  6
Continuous
 62
     7
370
    25
100
AcDbCircle
 10
118.44
 20
212.3125126266
 30
0.0
 40
17.5
  0
LINE
  5
135
330
1F
100
AcDbEntity
  8
0
  6
Continuous
 62
     7
370
    25
100
AcDbLine
 10
133.74
 20
243.8125126266
 30
0.0
 11
139.14
 21
243.8125126266
 31
0.0
  0
LINE
  5
136
330
1F
100
AcDbEntity
  8
0
  6
Continuous
 62
     7
370
    25
100
AcDbLine
 10
132.94
 20
240.1525126266
 30
0.0
 11
139.94
 21
240.1525126266
 31
0.0
  0
LINE
  5
137
330
1F
100
AcDbEntity
  8
0
  6
Continuous
 62
     7
370
    25
100
AcDbLine
 10
96.94
 20
240.1525126266
 30
0.0
 11
103.94
 21
240.1525126266
 31
0.0
  0
LINE
  5
138
330
1F
100
AcDbEntity
  8
0
  6
Continuous
 62
     7
370
    25
100
AcDbLine
 10
97.74
 20
243.8125126266
 30
0.0
 11
103.14
 21
243.8125126266
 31
0.0
  0
CIRCLE
  5
139
330
1F
100
AcDbEntity
  8
0
  6
Continuous
 62
     7
370
    25
100
AcDbCircle
 10
143.94
 20
212.3125126266
 30
0.0
 40
5.000000000003354
  0
CIRCLE
  5
13A
330
1F
100
AcDbEntity
  8
0
  6
Continuous
 62
     7
370
    25
100
AcDbCircle
 10
92.94
 20
212.3125126266
 30
0.0
 40
5.000000000003325
  0
CIRCLE
  5
13B
330
1F
100
AcDbEntity
  8
0
  6
Continuous
 62
     7
370
    25
100
AcDbCircle
 10
118.44
 20
212.3125126266
 30
0.0
 40
19.00000000000001
  0
CIRCLE
  5
13C
330
1F
100
AcDbEntity
  8
0
  6
Continuous
 62
     7
370
    25
100
AcDbCircle
 10
143.44
 20
227.3125126266
 30
0.0
 40
4.249999999957311
  0
CIRCLE
  5
13D
330
1F
100
AcDbEntity
  8
0
  6
Continuous
 62
     7
370
    25
100
AcDbCircle
 10
93.44
 20
227.3125126266
 30
0.0
 40
4.250000000021373
  0
LINE
  5
13E
330
1F
100
AcDbEntity
  8
0
  6
Continuous
 62
     7
370
    25
100
AcDbLine
 10
150.94
 20
231.8125126266
 30
0.0
 11
147.94
 21
234.8125126266
 31
0.0
  0
LINE
  5
13F
330
1F
100
AcDbEntity
  8
0
  6
Continuous
 62
     7
370
    25
100
AcDbLine
 10
150.94
 20
192.8125126266
 30
0.0
 11
150.94
 21
231.8125126266
 31
0.0
  0
LINE
  5
140
330
1F
100
AcDbEntity
  8
0
  6
Continuous
 62
     7
370
    25
100
AcDbLine
 10
147.94
 20
189.8125126266
 30
0.0
 11
150.94
 21
192.8125126266
 31
0.0
  0
LINE
  5
141
330
1F
100
AcDbEntity
  8
0
  6
Continuous
 62
     7
370
    25
100
AcDbLine
 10
88.94
 20
189.8125126266
 30
0.0
 11
147.94
 21
189.8125126266
 31
0.0
  0
LINE
  5
142
330
1F
100
AcDbEntity
  8
0
  6
Continuous
 62
     7
370
    25
100
AcDbLine
 10
85.94
 20
192.8125126266
 30
0.0
 11
88.94
 21
189.8125126266
 31
0.0
  0
LINE
  5
143
330
1F
100
AcDbEntity
  8
0
  6
Continuous
 62
     7
370
    25
100
AcDbLine
 10
147.94
 20
234.8125126266
 30
0.0
 11
88.94
 21
234.8125126266
 31
0.0
  0
LINE
  5
144
330
1F
100
AcDbEntity
  8
0
  6
Continuous
 62
     7
370
    25
100
AcDbLine
 10
85.94
 20
231.8125126266
 30
0.0
 11
85.94
 21
192.8125126266
 31
0.0
  0
LINE
  5
145
330
1F
100
AcDbEntity
  8
0
  6
Continuous
 62
     7
370
    25
100
AcDbLine
 10
88.94
 20
234.8125126266
 30
0.0
 11
85.94
 21
231.8125126266
 31
0.0
  0
CIRCLE
  5
146
330
1F
100
AcDbEntity
  8
0
  6
Continuous
 62
     7
370
    25
100
AcDbCircle
 10
93.44
 20
197.3125126266
 30
0.0
 40
4.250000000040373
  0
CIRCLE
  5
147
330
1F
100
AcDbEntity
  8
0
  6
Continuous
 62
     7
370
    25
100
AcDbCircle
 10
143.44
 20
197.3125126266
 30
0.0
 40
4.249999999976296
  0
CIRCLE
  5
148
330
1F
100
AcDbEntity
  8
0
  6
Continuous
 62
     7
370
    25
100
AcDbCircle
 10
143.94
 20
212.3125126266
 30
0.0
 40
1.999999999996618
  0
CIRCLE
  5
149
330
1F
100
AcDbEntity
  8
0
  6
Continuous
 62
     7
370
    25
100
AcDbCircle
 10
92.94
 20
212.3125126266
 30
0.0
 40
2.000000000003325
  0
LINE
  5
14A
330
1F
100
AcDbEntity
  8
0
  6
Continuous
 62
     7
370
    25
100
AcDbLine
 10
100.44
 20
239.8125126266
 30
0.0
 11
106.24
 21
239.8125126266
 31
0.0
  0
LINE
  5
14B
330
1F
100
AcDbEntity
  8
0
  6
Continuous
 62
     7
370
    25
100
AcDbLine
 10
94.64
 20
239.8125126266
 30
0.0
 11
100.44
 21
239.8125126266
 31
0.0
  0
LINE
  5
14C
330
1F
100
AcDbEntity
  8
0
  6
Continuous
 62
     7
370
    25
100
AcDbLine
 10
136.44
 20
239.8125126266
 30
0.0
 11
130.64
 21
239.8125126266
 31
0.0
  0
LINE
  5
14D
330
1F
100
AcDbEntity
  8
0
  6
Continuous
 62
     7
370
    25
100
AcDbLine
 10
142.24
 20
239.8125126266
 30
0.0
 11
136.44
 21
239.8125126266
 31
0.0
  0
LINE
  5
14E
330
1F
100
AcDbEntity
  8
0
  6
Continuous
 62
     7
370
    25
100
AcDbLine
 10
106.24
 20
237.3125126266
 30
0.0
 11
103.94
 21
237.3125126266
 31
0.0
  0
ARC
  5
14F
330
1F
100
AcDbEntity
  8
0
  6
Continuous
 62
     7
370
    25
100
AcDbCircle
 10
106.24
 20
237.5125126266
 30
0.0
 40
0.2000000000000171
100
AcDbArc
 50
270.0
 51
0.0
  0
LINE
  5
150
330
1F
100
AcDbEntity
  8
0
  6
Continuous
 62
     7
370
    25
100
AcDbLine
 10
108.44
 20
242.8125126266
 30
0.0
 11
106.44
 21
240.8125126266
 31
0.0
  0
LINE
  5
151
330
1F
100
AcDbEntity
  8
0
  6
Continuous
 62
     7
370
    25
100
AcDbLine
 10
110.79
 20
242.8125126266
 30
0.0
 11
108.44
 21
242.8125126266
 31
0.0
  0
LINE
  5
152
330
1F
100
AcDbEntity
  8
0
  6
Continuous
 62
     7
370
    25
100
AcDbLine
 10
110.24
 20
240.4125126266
 30
0.0
 11
110.79
 21
240.4125126266
 31
0.0
  0
ARC
  5
153
330
1F
100
AcDbEntity
  8
0
  6
Continuous
 62
     7
370
    25
100
AcDbCircle
 10
110.24
 20
237.0125126266
 30
0.0
 40
0.2000000000000171
100
AcDbArc
 50
180.0
 51
270.0
  0
LINE
  5
154
330
1F
100
AcDbEntity
  8
0
  6
Continuous
 62
     7
370
    25
100
AcDbLine
 10
116.64
 20
236.8125126266
 30
0.0
 11
110.24
 21
236.8125126266
 31
0.0
  0
ARC
  5
155
330
1F
100
AcDbEntity
  8
0
  6
Continuous
 62
     7
370
    25
100
AcDbCircle
 10
116.64
 20
237.0125126266
 30
0.0
 40
0.2000000000000028
100
AcDbArc
 50
270.0
 51
0.0
  0
LINE
  5
156
330
1F
100
AcDbEntity
  8
0
  6
Continuous
 62
     7
370
    25
100
AcDbLine
 10
116.84
 20
240.2125126266
 30
0.0
 11
116.84
 21
237.0125126266
 31
0.0
  0
ARC
  5
157
330
1F
100
AcDbEntity
  8
0
  6
Continuous
 62
     7
370
    25
100
AcDbCircle
 10
116.64
 20
240.2125126266
 30
0.0
 40
0.2000000000000028
100
AcDbArc
 50
0.0
 51
90.0
  0
LINE
  5
158
330
1F
100
AcDbEntity
  8
0
  6
Continuous
 62
     7
370
    25
100
AcDbLine
 10
116.09
 20
240.4125126266
 30
0.0
 11
116.64
 21
240.4125126266
 31
0.0
  0
LINE
  5
159
330
1F
100
AcDbEntity
  8
0
  6
Continuous
 62
     7
370
    25
100
AcDbLine
 10
116.09
 20
242.8125126266
 30
0.0
 11
120.79
 21
242.8125126266
 31
0.0
  0
LINE
  5
15A
330
1F
100
AcDbEntity
  8
0
  6
Continuous
 62
     7
370
    25
100
AcDbLine
 10
120.79
 20
240.4125126266
 30
0.0
 11
120.79
 21
242.8125126266
 31
0.0
  0
LINE
  5
15B
330
1F
100
AcDbEntity
  8
0
  6
Continuous
 62
     7
370
    25
100
AcDbLine
 10
120.24
 20
240.4125126266
 30
0.0
 11
120.79
 21
240.4125126266
 31
0.0
  0
ARC
  5
15C
330
1F
100
AcDbEntity
  8
0
  6
Continuous
 62
     7
370
    25
100
AcDbCircle
 10
126.64
 20
237.0125126266
 30
0.0
 40
0.2000000000000313
100
AcDbArc
 50
270.0
 51
0.0
  0
LINE
  5
15D
330
1F
100
AcDbEntity
  8
0
  6
Continuous
 62
     7
370
    25
100
AcDbLine
 10
126.84
 20
240.2125126266
 30
0.0
 11
126.84
 21
237.0125126266
 31
0.0
  0
ARC
  5
15E
330
1F
100
AcDbEntity
  8
0
  6
Continuous
 62
     7
370
    25
100
AcDbCircle
 10
126.64
 20
240.2125126266
 30
0.0
 40
0.2000000000000313
100
AcDbArc
 50
0.0
 51
90.0
  0
LINE
  5
15F
330
1F
100
AcDbEntity
  8
0
  6
Continuous
 62
     7
370
    25
100
AcDbLine
 10
126.09
 20
240.4125126266
 30
0.0
 11
126.64
 21
240.4125126266
 31
0.0
  0
LINE
  5
160
330
1F
100
AcDbEntity
  8
0
  6
Continuous
 62
     7
370
    25
100
AcDbLine
 10
126.09
 20
242.8125126266
 30
0.0
 11
126.09
 21
240.4125126266
 31
0.0
  0
LINE
  5
161
330
1F
100
AcDbEntity
  8
0
  6
Continuous
 62
     7
370
    25
100
AcDbLine
 10
128.44
 20
242.8125126266
 30
0.0
 11
126.09
 21
242.8125126266
 31
0.0
  0
LINE
  5
162
330
1F
100
AcDbEntity
  8
0
  6
Continuous
 62
     7
370
    25
100
AcDbLine
 10
130.44
 20
240.8125126266
 30
0.0
 11
128.44
 21
242.8125126266
 31
0.0
  0
LINE
  5
163
330
1F
100
AcDbEntity
  8
0
  6
Continuous
 62
     7
370
    25
100
AcDbLine
 10
130.44
 20
237.5125126266
 30
0.0
 11
130.44
 21
240.8125126266
 31
0.0
  0
ARC
  5
164
330
1F
100
AcDbEntity
  8
0
  6
Continuous
 62
     7
370
    25
100
AcDbCircle
 10
130.64
 20
237.5125126266
 30
0.0
 40
0.1999999999999886
100
AcDbArc
 50
180.0
 51
270.0
  0
LINE
  5
165
330
1F
100
AcDbEntity
  8
0
  6
Continuous
 62
     7
370
    25
100
AcDbLine
 10
132.94
 20
237.3125126266
 30
0.0
 11
130.64
 21
237.3125126266
 31
0.0
  0
LINE
  5
166
330
1F
100
AcDbEntity
  8
0
  6
Continuous
 62
     7
370
    25
100
AcDbLine
 10
132.94
 20
234.8125126266
 30
0.0
 11
132.94
 21
237.3125126266
 31
0.0
  0
LINE
  5
167
330
1F
100
AcDbEntity
  8
0
  6
Continuous
 62
     7
370
    25
100
AcDbLine
 10
103.94
 20
237.3125126266
 30
0.0
 11
103.94
 21
234.8125126266
 31
0.0
  0
LINE
  5
168
330
1F
100
AcDbEntity
  8
0
  6
Continuous
 62
     7
370
    25
100
AcDbLine
 10
120.04
 20
237.0125126266
 30
0.0
 11
120.04
 21
240.2125126266
 31
0.0
  0
LINE
  5
169
330
1F
100
AcDbEntity
  8
0
  6
Continuous
 62
     7
370
    25
100
AcDbLine
 10
106.44
 20
240.8125126266
 30
0.0
 11
106.44
 21
237.5125126266
 31
0.0
  0
LINE
  5
16A
330
1F
100
AcDbEntity
  8
0
  6
Continuous
 62
     7
370
    25
100
AcDbLine
 10
116.09
 20
242.8125126266
 30
0.0
 11
116.09
 21
240.4125126266
 31
0.0
  0
LINE
  5
16B
330
1F
100
AcDbEntity
  8
0
  6
Continuous
 62
     7
370
    25
100
AcDbLine
 10
110.79
 20
240.4125126266
 30
0.0
 11
110.79
 21
242.8125126266
 31
0.0
  0
ARC
  5
16C
330
1F
100
AcDbEntity
  8
0
  6
Continuous
 62
     7
370
    25
100
AcDbCircle
 10
120.24
 20
240.2125126266
 30
0.0
 40
0.1999999999999886
100
AcDbArc
 50
90.0
 51
180.0
  0
ARC
  5
16D
330
1F
100
AcDbEntity
  8
0
  6
Continuous
 62
     7
370
    25
100
AcDbCircle
 10
120.24
 20
237.0125126266
 30
0.0
 40
0.1999999999999886
100
AcDbArc
 50
180.0
 51
270.0
  0
LINE
  5
16E
330
1F
100
AcDbEntity
  8
0
  6
Continuous
 62
     7
370
    25
100
AcDbLine
 10
110.04
 20
237.0125126266
 30
0.0
 11
110.04
 21
240.2125126266
 31
0.0
  0
LINE
  5
16F
330
1F
100
AcDbEntity
  8
0
  6
Continuous
 62
     7
370
    25
100
AcDbLine
 10
126.64
 20
236.8125126266
 30
0.0
 11
120.24
 21
236.8125126266
 31
0.0
  0
ARC
  5
170
330
1F
100
AcDbEntity
  8
0
  6
Continuous
 62
     7
370
    25
100
AcDbCircle
 10
110.24
 20
240.2125126266
 30
0.0
 40
0.2000000000000028
100
AcDbArc
 50
90.0
 51
180.0
  0
LINE
  5
171
330
1F
100
AcDbEntity
  8
0
  6
Continuous
 62
     8
370
    25
100
AcDbLine
 10
139.94
 20
243.0125126266
 30
0.0
 11
132.94
 21
243.0125126266
 31
0.0
  0
LINE
  5
172
330
1F
100
AcDbEntity
  8
0
  6
Continuous
 62
     8
370
    25
100
AcDbLine
 10
103.94
 20
243.0125126266
 30
0.0
 11
96.94
 21
243.0125126266
 31
0.0
  0
DIMENSION
  5
173
330
1F
100
AcDbEntity
  8
0
  6
Continuous
 62
     7
370
    18
100
AcDbDimension
  2
_D
 10
143.44
 20
179.8125126266
 30
0.0
 11
118.44
 21
179.8125126266
 31
0.0
 70
   160
  1
<>
 71
     2
 42
-1.0
  3
SLDDIMSTYLE0
100
AcDbAlignedDimension
 13
93.44
 23
190.5625126266
 33
0.0
 14
143.44
 24
190.5625126266
 34
0.0
100
AcDbRotatedDimension
  0
DIMENSION
  5
17E
330
1F
100
AcDbEntity
  8
0
  6
Continuous
 62
     7
370
    18
100
AcDbDimension
  2
_D_1
 10
85.94
 20
173.8125126266
 30
0.0
 11
118.44
 21
173.8125126266
 31
0.0
 70
   160
  1
<>
 71
     2
 42
-1.0
  3
SLDDIMSTYLE1
100
AcDbAlignedDimension
 13
150.94
 23
192.8125126266
 33
0.0
 14
85.94
 24
192.8125126266
 34
0.0
100
AcDbRotatedDimension
  0
DIMENSION
  5
189
330
1F
100
AcDbEntity
  8
0
  6
Continuous
 62
     7
370
    18
100
AcDbDimension
  2
_D_2
 10
160.94
 20
227.3125126266
 30
0.0
 11
160.94
 21
212.3125126266
 31
0.0
 70
   160
  1
<>
 71
     2
 42
-1.0
  3
SLDDIMSTYLE0
100
AcDbAlignedDimension
 13
150.19
 23
197.3125126266
 33
0.0
 14
150.19
 24
227.3125126266
 34
0.0
 50
90.0
100
AcDbRotatedDimension
  0
DIMENSION
  5
193
330
1F
100
AcDbEntity
  8
0
  6
Continuous
 62
     7
370
    18
100
AcDbDimension
  2
_D_3
 10
166.94
 20
234.8125126266
 30
0.0
 11
166.94
 21
212.3125126266
 31
0.0
 70
   160
  1
<>
 71
     2
 42
-1.0
  3
SLDDIMSTYLE0
100
AcDbAlignedDimension
 13
147.94
 23
189.8125126266
 33
0.0
 14
147.94
 24
234.8125126266
 34
0.0
 50
90.0
100
AcDbRotatedDimension
  0
DIMENSION
  5
19D
330
1F
100
AcDbEntity
  8
0
  6
Continuous
 62
     7
370
    18
100
AcDbDimension
  2
_D_4
 10
115.2226641456
 20
215.529848481
 30
0.0
 11
162.94001
 21
167.8125226266
 31
0.0
 70
   163
  1
M10x1.5
 71
     1
 42
-1.0
  3
SLDDIMSTYLE2
100
AcDbDiametricDimension
 15
121.6573358544
 25
209.0951767722
 35
0.0
 40
0.0
  0
DIMENSION
  5
1A9
330
1F
100
AcDbEntity
  8
0
  6
Continuous
 62
     7
370
    18
100
AcDbDimension
  2
_D_5
 10
160.94
 20
242.8125126266
 30
0.0
 11
160.94
 21
238.8125126266
 31
0.0
 70
   160
  1
<>
 71
     2
 42
-1.0
  3
SLDDIMSTYLE3
100
AcDbAlignedDimension
 13
147.94
 23
234.8125126266
 33
0.0
 14
120.79
 24
242.8125126266
 34
0.0
 50
90.0
100
AcDbRotatedDimension
  0
DIMENSION
  5
1B6
330
1F
100
AcDbEntity
  8
0
  6
Continuous
 62
     7
370
    18
100
AcDbDimension
  2
_D_6
 10
110.645771366
 20
216.8125126266
 30
0.0
 11
160.94001
 21
187.7751361861
 31
0.0
 70
   163
  1
<>
 71
     1
 42
-1.0
  3
SLDDIMSTYLE4
100
AcDbDiametricDimension
 15
126.2342286341
 25
207.8125126266
 35
0.0
 40
0.0
  0
INSERT
  5
1CB
330
1F
100
AcDbEntity
  8
0
  6
Continuous
 62
     7
370
     0
100
AcDbBlockReference
  2
SW_CENTERMARKSYMBOL_0
 10
118.44
 20
212.3125126266
 30
0.0
  0
INSERT
  5
1D7
330
1F
100
AcDbEntity
  8
0
  6
Continuous
 62
     7
370
     0
100
AcDbBlockReference
  2
SW_CENTERMARKSYMBOL_1
 10
143.44
 20
197.3125126266
 30
0.0
  0
INSERT
  5
1E3
330
1F
100
AcDbEntity
  8
0
  6
Continuous
 62
     7
370
     0
100
AcDbBlockReference
  2
SW_CENTERMARKSYMBOL_2
 10
143.44
 20
227.3125126266
 30
0.0
  0
INSERT
  5
1EF
330
1F
100
AcDbEntity
  8
0
  6
Continuous
 62
     7
370
     0
100
AcDbBlockReference
  2
SW_CENTERMARKSYMBOL_3
 10
93.44
 20
227.3125126266
 30
0.0
  0
INSERT
  5
1FB
330
1F
100
AcDbEntity
  8
0
  6
Continuous
 62
     7
370
     0
100
AcDbBlockReference
  2
SW_CENTERMARKSYMBOL_4
 10
93.44
 20
197.3125126266
 30
0.0
  0
INSERT
  5
207
330
1F
100
AcDbEntity
  8
0
  6
Continuous
 62
     7
370
     0
100
AcDbBlockReference
  2
SW_CENTERMARKSYMBOL_5
 10
92.94
 20
212.3125126266
 30
0.0
  0
INSERT
  5
213
330
1F
100
AcDbEntity
  8
0
  6
Continuous
 62
     7
370
     0
100
AcDbBlockReference
  2
SW_CENTERMARKSYMBOL_6
 10
143.94
 20
212.3125126266
 30
0.0
  0
LINE
  5
214
330
1F
100
AcDbEntity
  8
0
  6
CENTERX2
 62
     7
370
    18
100
AcDbLine
 10
100.44
 20
240.1525126266
 30
0.0
 11
100.44
 21
245.8125126266
 31
0.0
  0
LINE
  5
215
330
1F
100
AcDbEntity
  8
0
  6
CENTERX2
 62
     7
370
    18
100
AcDbLine
 10
100.44
 20
240.1525126266
 30
0.0
 11
100.44
 21
239.8125126266
 31
0.0
  0
LINE
  5
216
330
1F
100
AcDbEntity
  8
0
  6
CENTERX2
 62
     7
370
    18
100
AcDbLine
 10
136.44
 20
240.1525126266
 30
0.0
 11
136.44
 21
245.8125126266
 31
0.0
  0
LINE
  5
217
330
1F
100
AcDbEntity
  8
0
  6
CENTERX2
 62
     7
370
    18
100
AcDbLine
 10
136.44
 20
240.1525126266
 30
0.0
 11
136.44
 21
239.8125126266
 31
0.0
  0
LINE
  5
218
330
1F
100
AcDbEntity
  8
0
  6
CENTERX2
 62
     7
370
    18
100
AcDbLine
 10
100.44
 20
232.8125126266
 30
0.0
 11
100.44
 21
239.8125126266
 31
0.0
  0
LINE
  5
219
330
1F
100
AcDbEntity
  8
0
  6
CENTERX2
 62
     7
370
    18
100
AcDbLine
 10
136.44
 20
232.8125126266
 30
0.0
 11
136.44
 21
239.8125126266
 31
0.0
  0
LINE
  5
21A
330
1F
100
AcDbEntity
  8
0
  6
Continuous
 62
     7
370
    25
100
AcDbLine
 10
249.94
 20
241.5625126266
 30
0.0
 11
248.69
 21
240.3125126266
 31
0.0
  0
LINE
  5
21B
330
1F
100
AcDbEntity
  8
0
  6
Continuous
 62
     7
370
    25
100
AcDbLine
 10
248.69
 20
236.3125126266
 30
0.0
 11
249.94
 21
235.0625126266
 31
0.0
  0
LINE
  5
21C
330
1F
100
AcDbEntity
  8
0
  6
Continuous
 62
     7
370
    25
100
AcDbLine
 10
263.94
 20
241.5625126266
 30
0.0
 11
249.94
 21
241.5625126266
 31
0.0
  0
LINE
  5
21D
330
1F
100
AcDbEntity
  8
0
  6
Continuous
 62
     7
370
    25
100
AcDbLine
 10
249.94
 20
235.0625126266
 30
0.0
 11
263.94
 21
235.0625126266
 31
0.0
  0
LINE
  5
21E
330
1F
100
AcDbEntity
  8
0
  6
Continuous
 62
     7
370
    25
100
AcDbLine
 10
248.69
 20
240.3125126266
 30
0.0
 11
236.24
 21
240.3125126266
 31
0.0
  0
LINE
  5
21F
330
1F
100
AcDbEntity
  8
0
  6
Continuous
 62
     7
370
    25
100
AcDbLine
 10
236.24
 20
236.3125126266
 30
0.0
 11
248.69
 21
236.3125126266
 31
0.0
  0
ARC
  5
220
330
1F
100
AcDbEntity
  8
0
  6
Continuous
 62
     7
370
    25
100
AcDbCircle
 10
236.24
 20
236.6125126266
 30
0.0
 40
0.3000000000000398
100
AcDbArc
 50
180.0
 51
270.0
  0
ARC
  5
221
330
1F
100
AcDbEntity
  8
0
  6
Continuous
 62
     7
370
    25
100
AcDbCircle
 10
236.24
 20
240.0125126266
 30
0.0
 40
0.3000000000000398
100
AcDbArc
 50
90.0
 51
180.0
  0
LINE
  5
222
330
1F
100
AcDbEntity
  8
0
  6
Continuous
 62
     7
370
    25
100
AcDbLine
 10
355.44
 20
203.3125126266
 30
0.0
 11
381.44
 21
203.3125126266
 31
0.0
  0
LINE
  5
223
330
1F
100
AcDbEntity
  8
0
  6
Continuous
 62
     7
370
    25
100
AcDbLine
 10
381.44
 20
221.3125126266
 30
0.0
 11
355.44
 21
221.3125126266
 31
0.0
  0
LINE
  5
224
330
1F
100
AcDbEntity
  8
0
  6
Continuous
 62
     7
370
    25
100
AcDbLine
 10
381.44
 20
203.3125126266
 30
0.0
 11
381.94
 21
203.8125126266
 31
0.0
  0
LINE
  5
225
330
1F
100
AcDbEntity
  8
0
  6
Continuous
 62
     7
370
    25
100
AcDbLine
 10
381.94
 20
220.8125126266
 30
0.0
 11
381.44
 21
221.3125126266
 31
0.0
  0
ARC
  5
226
330
1F
100
AcDbEntity
  8
0
  6
Continuous
 62
     7
370
    25
100
AcDbCircle
 10
349.44
 20
195.8125126266
 30
0.0
 40
0.5
100
AcDbArc
 50
90.0
 51
180.0
  0
ARC
  5
227
330
1F
100
AcDbEntity
  8
0
  6
Continuous
 62
     7
370
    25
100
AcDbCircle
 10
349.44
 20
228.8125126266
 30
0.0
 40
0.5
100
AcDbArc
 50
180.0
 51
270.0
  0
LINE
  5
228
330
1F
100
AcDbEntity
  8
0
  6
Continuous
 62
     7
370
    25
100
AcDbLine
 10
354.94
 20
228.3125126266
 30
0.0
 11
349.44
 21
228.3125126266
 31
0.0
  0
LINE
  5
229
330
1F
100
AcDbEntity
  8
0
  6
Continuous
 62
     7
370
    25
100
AcDbLine
 10
355.44
 20
227.8125126266
 30
0.0
 11
354.94
 21
228.3125126266
 31
0.0
  0
LINE
  5
22A
330
1F
100
AcDbEntity
  8
0
  6
Continuous
 62
     7
370
    25
100
AcDbLine
 10
354.94
 20
196.3125126266
 30
0.0
 11
355.44
 21
196.8125126266
 31
0.0
  0
LINE
  5
22B
330
1F
100
AcDbEntity
  8
0
  6
Continuous
 62
     7
370
    25
100
AcDbLine
 10
349.44
 20
196.3125126266
 30
0.0
 11
354.94
 21
196.3125126266
 31
0.0
  0
ARC
  5
22C
330
1F
100
AcDbEntity
  8
0
  6
Continuous
 62
     7
370
    25
100
AcDbCircle
 10
287.64
 20
243.0125126266
 30
0.0
 40
0.8000000000000682
100
AcDbArc
 50
0.0
 51
90.0
  0
ARC
  5
22D
330
1F
100
AcDbEntity
  8
0
  6
Continuous
 62
     7
370
    25
100
AcDbCircle
 10
282.24
 20
243.0125126266
 30
0.0
 40
0.8000000000000114
100
AcDbArc
 50
90.0
 51
180.0
  0
LINE
  5
22E
330
1F
100
AcDbEntity
  8
0
  6
Continuous
 62
     7
370
    25
100
AcDbLine
 10
281.44
 20
243.0125126266
 30
0.0
 11
281.44
 21
240.1525126266
 31
0.0
  0
LINE
  5
22F
330
1F
100
AcDbEntity
  8
0
  6
Continuous
 62
     7
370
    25
100
AcDbLine
 10
288.44
 20
240.1525126266
 30
0.0
 11
288.44
 21
243.0125126266
 31
0.0
  0
LINE
  5
230
330
1F
100
AcDbEntity
  8
0
  6
Continuous
 62
     7
370
    25
100
AcDbLine
 10
281.44
 20
240.1525126266
 30
0.0
 11
281.78
 21
239.8125126266
 31
0.0
  0
LINE
  5
231
330
1F
100
AcDbEntity
  8
0
  6
Continuous
 62
     7
370
    25
100
AcDbLine
 10
288.1
 20
239.8125126266
 30
0.0
 11
288.44
 21
240.1525126266
 31
0.0
  0
LINE
  5
232
330
1F
100
AcDbEntity
  8
0
  6
Continuous
 62
     7
370
    25
100
AcDbLine
 10
295.04
 20
240.1525126266
 30
0.0
 11
295.38
 21
239.8125126266
 31
0.0
  0
LINE
  5
233
330
1F
100
AcDbEntity
  8
0
  6
Continuous
 62
     7
370
    25
100
AcDbLine
 10
301.7
 20
239.8125126266
 30
0.0
 11
302.04
 21
240.1525126266
 31
0.0
  0
LINE
  5
234
330
1F
100
AcDbEntity
  8
0
  6
Continuous
 62
     7
370
    25
100
AcDbLine
 10
295.04
 20
243.0125126266
 30
0.0
 11
295.04
 21
240.1525126266
 31
0.0
  0
LINE
  5
235
330
1F
100
AcDbEntity
  8
0
  6
Continuous
 62
     7
370
    25
100
AcDbLine
 10
302.04
 20
240.1525126266
 30
0.0
 11
302.04
 21
243.0125126266
 31
0.0
  0
ARC
  5
236
330
1F
100
AcDbEntity
  8
0
  6
Continuous
 62
     7
370
    25
100
AcDbCircle
 10
301.24
 20
243.0125126266
 30
0.0
 40
0.8000000000000114
100
AcDbArc
 50
0.0
 51
90.0
  0
ARC
  5
237
330
1F
100
AcDbEntity
  8
0
  6
Continuous
 62
     7
370
    25
100
AcDbCircle
 10
295.84
 20
243.0125126266
 30
0.0
 40
0.8000000000000114
100
AcDbArc
 50
90.0
 51
180.0
  0
LINE
  5
238
330
1F
100
AcDbEntity
  8
0
  6
Continuous
 62
     7
370
    25
100
AcDbLine
 10
279.14
 20
239.8125126266
 30
0.0
 11
279.14
 21
234.8125126266
 31
0.0
  0
LINE
  5
239
330
1F
100
AcDbEntity
  8
0
  6
Continuous
 62
     7
370
    25
100
AcDbLine
 10
290.74
 20
234.8125126266
 30
0.0
 11
290.74
 21
239.8125126266
 31
0.0
  0
LINE
  5
23A
330
1F
100
AcDbEntity
  8
0
  6
Continuous
 62
     7
370
    25
100
AcDbLine
 10
292.74
 20
239.8125126266
 30
0.0
 11
292.74
 21
234.8125126266
 31
0.0
  0
LINE
  5
23B
330
1F
100
AcDbEntity
  8
0
  6
Continuous
 62
     7
370
    25
100
AcDbLine
 10
304.34
 20
234.8125126266
 30
0.0
 11
304.34
 21
239.8125126266
 31
0.0
  0
LINE
  5
23C
330
1F
100
AcDbEntity
  8
0
  6
Continuous
 62
     7
370
    25
100
AcDbLine
 10
263.94
 20
236.8125126266
 30
0.0
 11
263.94
 21
239.8125126266
 31
0.0
  0
LINE
  5
23D
330
1F
100
AcDbEntity
  8
0
  6
Continuous
 62
     7
370
    25
100
AcDbLine
 10
263.94
 20
239.8125126266
 30
0.0
 11
271.94
 21
239.8125126266
 31
0.0
  0
LINE
  5
23E
330
1F
100
AcDbEntity
  8
0
  6
Continuous
 62
     7
370
    25
100
AcDbLine
 10
263.94
 20
236.8125126266
 30
0.0
 11
271.94
 21
236.8125126266
 31
0.0
  0
LINE
  5
23F
330
1F
100
AcDbEntity
  8
0
  6
Continuous
 62
     7
370
    25
100
AcDbLine
 10
248.69
 20
238.3125126266
 30
0.0
 11
248.69
 21
240.3125126266
 31
0.0
  0
LINE
  5
240
330
1F
100
AcDbEntity
  8
0
  6
Continuous
 62
     7
370
    25
100
AcDbLine
 10
248.69
 20
236.3125126266
 30
0.0
 11
248.69
 21
238.3125126266
 31
0.0
  0
LINE
  5
241
330
1F
100
AcDbEntity
  8
0
  6
Continuous
 62
     7
370
    25
100
AcDbLine
 10
249.94
 20
241.5625126266
 30
0.0
 11
249.94
 21
235.0625126266
 31
0.0
  0
LINE
  5
242
330
1F
100
AcDbEntity
  8
0
  6
Continuous
 62
     7
370
    25
100
AcDbLine
 10
263.94
 20
239.8125126266
 30
0.0
 11
263.94
 21
241.5625126266
 31
0.0
  0
LINE
  5
243
330
1F
100
AcDbEntity
  8
0
  6
Continuous
 62
     7
370
    25
100
AcDbLine
 10
263.94
 20
235.0625126266
 30
0.0
 11
263.94
 21
236.8125126266
 31
0.0
  0
LINE
  5
244
330
1F
100
AcDbEntity
  8
0
  6
Continuous
 62
     7
370
    25
100
AcDbLine
 10
235.94
 20
236.6125126266
 30
0.0
 11
235.94
 21
240.0125126266
 31
0.0
  0
LINE
  5
245
330
1F
100
AcDbEntity
  8
0
  6
Continuous
 62
     7
370
    25
100
AcDbLine
 10
381.44
 20
203.3125126266
 30
0.0
 11
381.44
 21
221.3125126266
 31
0.0
  0
LINE
  5
246
330
1F
100
AcDbEntity
  8
0
  6
Continuous
 62
     7
370
    25
100
AcDbLine
 10
381.94
 20
219.8125126266
 30
0.0
 11
381.94
 21
216.3125126266
 31
0.0
  0
LINE
  5
247
330
1F
100
AcDbEntity
  8
0
  6
Continuous
 62
     7
370
    25
100
AcDbLine
 10
381.94
 20
216.3125126266
 30
0.0
 11
381.94
 21
208.3125126266
 31
0.0
  0
LINE
  5
248
330
1F
100
AcDbEntity
  8
0
  6
Continuous
 62
     7
370
    25
100
AcDbLine
 10
381.94
 20
208.3125126266
 30
0.0
 11
381.94
 21
204.8125126266
 31
0.0
  0
LINE
  5
249
330
1F
100
AcDbEntity
  8
0
  6
Continuous
 62
     7
370
    25
100
AcDbLine
 10
381.94
 20
204.8125126266
 30
0.0
 11
381.94
 21
203.8125126266
 31
0.0
  0
LINE
  5
24A
330
1F
100
AcDbEntity
  8
0
  6
Continuous
 62
     7
370
    25
100
AcDbLine
 10
381.94
 20
220.8125126266
 30
0.0
 11
381.94
 21
219.8125126266
 31
0.0
  0
LINE
  5
24B
330
1F
100
AcDbEntity
  8
0
  6
Continuous
 62
     7
370
    25
100
AcDbLine
 10
381.94
 20
208.3125126266
 30
0.0
 11
387.44
 21
208.3125126266
 31
0.0
  0
LINE
  5
24C
330
1F
100
AcDbEntity
  8
0
  6
Continuous
 62
     7
370
    25
100
AcDbLine
 10
387.44
 20
204.8125126266
 30
0.0
 11
387.44
 21
208.3125126266
 31
0.0
  0
LINE
  5
24D
330
1F
100
AcDbEntity
  8
0
  6
Continuous
 62
     7
370
    25
100
AcDbLine
 10
381.94
 20
204.8125126266
 30
0.0
 11
387.44
 21
204.8125126266
 31
0.0
  0
SPLINE
  5
24E
330
1F
100
AcDbEntity
  8
0
  6
Continuous
 62
     7
370
    25
100
AcDbSpline
210
0.0
220
0.0
230
1.0
 70
     8
 71
     3
 72
    13
 73
     9
 74
     0
 42
0.000000001
 43
0.00000001
 40
0.0
 40
0.0
 40
0.0
 40
0.0
 40
0.0600071289245169
 40
0.1333066582979337
 40
0.2464479258036562
 40
0.4598572101501728
 40
0.9339715721127863
 40
1.0
 40
1.0
 40
1.0
 40
1.0
 10
387.44
 20
208.3125126266242
 30
0.0
 10
387.4683695012548
 20
208.3156362764983
 30
0.0
 10
387.5313927366208
 20
208.322575507451
 30
0.0
 10
387.6326790691211
 20
208.3860390291497
 30
0.0
 10
387.7556745915621
 20
208.5312419910272
 30
0.0
 10
387.9007259397555
 20
208.8855250963523
 30
0.0
 10
387.9378039236371
 20
209.243337088309
 30
0.0
 10
387.9397607879333
 20
209.4975542883552
 30
0.0
 10
387.94
 20
209.5286304452092
 30
0.0
  0
LINE
  5
24F
330
1F
100
AcDbEntity
  8
0
  6
Continuous
 62
     7
370
    25
100
AcDbLine
 10
387.94
 20
209.5286304452
 30
0.0
 11
387.94
 21
204.8125126266
 31
0.0
  0
SPLINE
  5
250
330
1F
100
AcDbEntity
  8
0
  6
Continuous
 62
     7
370
    25
100
AcDbSpline
210
0.0
220
0.0
230
1.0
 70
    24
 71
     3
 72
    13
 73
     9
 74
     0
 42
0.000000001
 43
0.00000001
 40
0.0
 40
0.0
 40
0.0
 40
0.0
 40
0.4562536240148967
 40
0.6151465960656775
 40
0.8248978009701471
 40
0.8989945491587304
 40
0.9737945380438766
 40
1.0
 40
1.0
 40
1.0
 40
1.0
 10
387.94
 20
204.8125126266242
 30
0.0
 10
387.9318596674123
 20
204.8125126266242
 30
0.0
 10
387.9208844167651
 20
204.8125126266242
 30
0.0
 10
387.809148276613
 20
204.8125126266242
 30
0.0
 10
387.7086119568507
 20
204.8125126266242
 30
0.0
 10
387.5788324017273
 20
204.8125126266242
 30
0.0
 10
387.4999523836046
 20
204.8125126266242
 30
0.0
 10
387.4523501975827
 20
204.8125126266242
 30
0.0
 10
387.44
 20
204.8125126266242
 30
0.0
  0
LINE
  5
251
330
1F
100
AcDbEntity
  8
0
  6
Continuous
 62
     7
370
    25
100
AcDbLine
 10
381.94
 20
216.3125126266
 30
0.0
 11
387.44
 21
216.3125126266
 31
0.0
  0
SPLINE
  5
252
330
1F
100
AcDbEntity
  8
0
  6
Continuous
 62
     7
370
    25
100
AcDbSpline
210
0.0
220
0.0
230
1.0
 70
     8
 71
     3
 72
    13
 73
     9
 74
     0
 42
0.000000001
 43
0.00000001
 40
0.0
 40
0.0
 40
0.0
 40
0.0
 40
0.4562536240149148
 40
0.6151465960656927
 40
0.8248978009701463
 40
0.8989945491587304
 40
0.973794538043877
 40
1.0
 40
1.0
 40
1.0
 40
1.0
 10
387.94
 20
215.0963948080392
 30
0.0
 10
387.9318596674123
 20
215.3127832457079
 30
0.0
 10
387.9208844167651
 20
215.6045302124247
 30
0.0
 10
387.809148276613
 20
215.9767894738507
 30
0.0
 10
387.7086119568506
 20
216.1668746479751
 30
0.0
 10
387.5788324017273
 20
216.2771108002763
 30
0.0
 10
387.4999523836046
 20
216.3096118004734
 30
0.0
 10
387.4523501975827
 20
216.3119150561197
 30
0.0
 10
387.44
 20
216.3125126266242
 30
0.0
  0
LINE
  5
253
330
1F
100
AcDbEntity
  8
0
  6
Continuous
 62
     7
370
    25
100
AcDbLine
 10
387.94
 20
215.096394808
 30
0.0
 11
387.94
 21
209.5286304452
 31
0.0
  0
LINE
  5
254
330
1F
100
AcDbEntity
  8
0
  6
Continuous
 62
     7
370
    25
100
AcDbLine
 10
381.94
 20
219.8125126266
 30
0.0
 11
387.44
 21
219.8125126266
 31
0.0
  0
LINE
  5
255
330
1F
100
AcDbEntity
  8
0
  6
Continuous
 62
     7
370
    25
100
AcDbLine
 10
387.44
 20
216.3125126266
 30
0.0
 11
387.44
 21
219.8125126266
 31
0.0
  0
SPLINE
  5
256
330
1F
100
AcDbEntity
  8
0
  6
Continuous
 62
     7
370
    25
100
AcDbSpline
210
0.0
220
0.0
230
1.0
 70
    24
 71
     3
 72
    13
 73
     9
 74
     0
 42
0.000000001
 43
0.00000001
 40
0.0
 40
0.0
 40
0.0
 40
0.0
 40
0.0600071289245179
 40
0.1333066582979347
 40
0.2464479258036572
 40
0.4598572101501754
 40
0.9339715721127966
 40
1.0
 40
1.0
 40
1.0
 40
1.0
 10
387.44
 20
219.8125126266242
 30
0.0
 10
387.4683695012548
 20
219.8125126266242
 30
0.0
 10
387.5313927366208
 20
219.8125126266242
 30
0.0
 10
387.6326790691211
 20
219.8125126266242
 30
0.0
 10
387.7556745915621
 20
219.8125126266242
 30
0.0
 10
387.9007259397555
 20
219.8125126266242
 30
0.0
 10
387.9378039236371
 20
219.8125126266242
 30
0.0
 10
387.9397607879333
 20
219.8125126266242
 30
0.0
 10
387.94
 20
219.8125126266242
 30
0.0
  0
LINE
  5
257
330
1F
100
AcDbEntity
  8
0
  6
Continuous
 62
     7
370
    25
100
AcDbLine
 10
387.94
 20
219.8125126266
 30
0.0
 11
387.94
 21
215.096394808
 31
0.0
  0
LINE
  5
258
330
1F
100
AcDbEntity
  8
0
  6
Continuous
 62
     7
370
    25
100
AcDbLine
 10
349.44
 20
221.6398916797
 30
0.0
 11
349.44
 21
202.9851335735
 31
0.0
  0
LINE
  5
259
330
1F
100
AcDbEntity
  8
0
  6
Continuous
 62
     7
370
    25
100
AcDbLine
 10
354.94
 20
221.6398916797
 30
0.0
 11
354.94
 21
228.3125126266
 31
0.0
  0
LINE
  5
25A
330
1F
100
AcDbEntity
  8
0
  6
Continuous
 62
     7
370
    25
100
AcDbLine
 10
354.94
 20
221.6398916797
 30
0.0
 11
349.44
 21
221.6398916797
 31
0.0
  0
LINE
  5
25B
330
1F
100
AcDbEntity
  8
0
  6
Continuous
 62
     7
370
    25
100
AcDbLine
 10
354.94
 20
221.6398916797
 30
0.0
 11
355.44
 21
220.7534841347
 31
0.0
  0
LINE
  5
25C
330
1F
100
AcDbEntity
  8
0
  6
Continuous
 62
     7
370
    25
100
AcDbLine
 10
355.44
 20
227.8125126266
 30
0.0
 11
355.44
 21
220.7534841347
 31
0.0
  0
LINE
  5
25D
330
1F
100
AcDbEntity
  8
0
  6
Continuous
 62
     7
370
    25
100
AcDbLine
 10
355.44
 20
203.8715411186
 30
0.0
 11
354.94
 21
202.9851335735
 31
0.0
  0
LINE
  5
25E
330
1F
100
AcDbEntity
  8
0
  6
Continuous
 62
     7
370
    25
100
AcDbLine
 10
349.44
 20
202.9851335735
 30
0.0
 11
354.94
 21
202.9851335735
 31
0.0
  0
LINE
  5
25F
330
1F
100
AcDbEntity
  8
0
  6
Continuous
 62
     7
370
    25
100
AcDbLine
 10
355.44
 20
220.7534841347
 30
0.0
 11
355.44
 21
203.8715411186
 31
0.0
  0
LINE
  5
260
330
1F
100
AcDbEntity
  8
0
  6
Continuous
 62
     7
370
    25
100
AcDbLine
 10
354.94
 20
196.3125126266
 30
0.0
 11
354.94
 21
202.9851335735
 31
0.0
  0
LINE
  5
261
330
1F
100
AcDbEntity
  8
0
  6
Continuous
 62
     7
370
    25
100
AcDbLine
 10
355.44
 20
203.8715411186
 30
0.0
 11
355.44
 21
196.8125126266
 31
0.0
  0
LINE
  5
262
330
1F
100
AcDbEntity
  8
0
  6
Continuous
 62
     7
370
    25
100
AcDbLine
 10
282.24
 20
243.8125126266
 30
0.0
 11
287.64
 21
243.8125126266
 31
0.0
  0
LINE
  5
263
330
1F
100
AcDbEntity
  8
0
  6
Continuous
 62
     7
370
    25
100
AcDbLine
 10
281.44
 20
240.1525126266
 30
0.0
 11
288.44
 21
240.1525126266
 31
0.0
  0
LINE
  5
264
330
1F
100
AcDbEntity
  8
0
  6
Continuous
 62
     7
370
    25
100
AcDbLine
 10
295.04
 20
240.1525126266
 30
0.0
 11
302.04
 21
240.1525126266
 31
0.0
  0
LINE
  5
265
330
1F
100
AcDbEntity
  8
0
  6
Continuous
 62
     7
370
    25
100
AcDbLine
 10
295.84
 20
243.8125126266
 30
0.0
 11
301.24
 21
243.8125126266
 31
0.0
  0
SPLINE
  5
266
330
1F
100
AcDbEntity
  8
0
  6
Continuous
 62
     7
370
    25
100
AcDbSpline
210
0.0
220
0.0
230
1.0
 70
     8
 71
     3
 72
    23
 73
    19
 74
     0
 42
0.000000001
 43
0.00000001
 40
0.0
 40
0.0
 40
0.0
 40
0.0
 40
0.0881782879354021
 40
0.1703962258015024
 40
0.2478554589180553
 40
0.3223119628233683
 40
0.3939861698943344
 40
0.4626934939826057
 40
0.5304592248215045
 40
0.5989497110176134
 40
0.634998049735926
 40
0.6748411946041468
 40
0.7189748316776008
 40
0.7666373843242444
 40
0.8184614652166474
 40
0.8745656704273169
 40
0.9350741581065669
 40
1.0
 40
1.0
 40
1.0
 40
1.0
 10
320.2581818181818
 20
195.8373705811701
 30
0.0
 10
320.2573761012493
 20
195.8698782168734
 30
0.0
 10
320.2558191292603
 20
195.9326961572447
 30
0.0
 10
320.239679452325
 20
196.0228654770833
 30
0.0
 10
320.2145647392074
 20
196.1056296629432
 30
0.0
 10
320.1779814372338
 20
196.179828608033
 30
0.0
 10
320.1330288516282
 20
196.2451668849869
 30
0.0
 10
320.0817581257691
 20
196.3026221898305
 30
0.0
 10
320.0217233073531
 20
196.3489293242275
 30
0.0
 10
319.9662969677427
 20
196.380435445958
 30
0.0
 10
319.9168078172211
 20
196.4000083121372
 30
0.0
 10
319.8747870066518
 20
196.4139414208333
 30
0.0
 10
319.8272407317626
 20
196.4237306134976
 30
0.0
 10
319.7752249144938
 20
196.4333270343992
 30
0.0
 10
319.7182986016385
 20
196.4402623085289
 30
0.0
 10
319.6564351903111
 20
196.4448716660253
 30
0.0
 10
319.5896721937835
 20
196.4489232708624
 30
0.0
 10
319.5434634703216
 20
196.4488922958894
 30
0.0
 10
319.5195454545454
 20
196.4488762629883
 30
0.0
  0
SPLINE
  5
267
330
1F
100
AcDbEntity
  8
0
  6
Continuous
 62
     7
370
    25
100
AcDbSpline
210
0.0
220
0.0
230
1.0
 70
     8
 71
     3
 72
    15
 73
    11
 74
     0
 42
0.000000001
 43
0.00000001
 40
0.0
 40
0.0
 40
0.0
 40
0.0
 40
0.1210409259551159
 40
0.2361565684961482
 40
0.3502598871584596
 40
0.4667719731857884
 40
0.5882478153244254
 40
0.7153606937404142
 40
0.8524502302519117
 40
1.0
 40
1.0
 40
1.0
 40
1.0
 10
319.9229545454546
 20
195.2656376266247
 30
0.0
 10
319.9492530789303
 20
195.2770349654944
 30
0.0
 10
320.0005627609501
 20
195.2992717124147
 30
0.0
 10
320.068303178086
 20
195.3477209343425
 30
0.0
 10
320.1269850412658
 20
195.4050133493162
 30
0.0
 10
320.1747902536494
 20
195.4736403979087
 30
0.0
 10
320.2123798972196
 20
195.5515963301228
 30
0.0
 10
320.2396579214854
 20
195.638859607052
 30
0.0
 10
320.2547941215921
 20
195.7352823202098
 30
0.0
 10
320.2570252552802
 20
195.8025175498584
 30
0.0
 10
320.2581818181818
 20
195.8373705811701
 30
0.0
  0
SPLINE
  5
268
330
1F
100
AcDbEntity
  8
0
  6
Continuous
 62
     7
370
    25
100
AcDbSpline
210
0.0
220
0.0
230
1.0
 70
     8
 71
     3
 72
    11
 73
     7
 74
     0
 42
0.000000001
 43
0.00000001
 40
0.0
 40
0.0
 40
0.0
 40
0.0
 40
0.3127941251982892
 40
0.5827301107661262
 40
0.8109483712724667
 40
1.0
 40
1.0
 40
1.0
 40
1.0
 10
319.5706818181818
 20
195.2216035357156
 30
0.0
 10
319.6078814778436
 20
195.2220145699418
 30
0.0
 10
319.6771838081908
 20
195.2227803196821
 30
0.0
 10
319.7731768247647
 20
195.2316116046836
 30
0.0
 10
319.8543022910308
 20
195.2433295943881
 30
0.0
 10
319.9015487069182
 20
195.2586819608548
 30
0.0
 10
319.9229545454546
 20
195.2656376266247
 30
0.0
  0
LINE
  5
269
330
1F
100
AcDbEntity
  8
0
  6
Continuous
 62
     7
370
    25
100
AcDbLine
 10
319.5195454545
 20
196.448876263
 30
0.0
 11
318.8490909091
 21
196.448876263
 31
0.0
  0
LINE
  5
26A
330
1F
100
AcDbEntity
  8
0
  6
Continuous
 62
     7
370
    25
100
AcDbLine
 10
318.8490909091
 20
196.448876263
 30
0.0
 11
318.8490909091
 21
195.2216035357
 31
0.0
  0
LINE
  5
26B
330
1F
100
AcDbEntity
  8
0
  6
Continuous
 62
     7
370
    25
100
AcDbLine
 10
318.8490909091
 20
195.2216035357
 30
0.0
 11
319.5706818182
 21
195.2216035357
 31
0.0
  0
SPLINE
  5
26C
330
1F
100
AcDbEntity
  8
0
  6
Continuous
 62
     7
370
    25
100
AcDbSpline
210
0.0
220
0.0
230
1.0
 70
     8
 71
     3
 72
    23
 73
    19
 74
     0
 42
0.000000001
 43
0.00000001
 40
0.0
 40
0.0
 40
0.0
 40
0.0
 40
0.0859477677671273
 40
0.1646612895918322
 40
0.2391822142960209
 40
0.3092369848563652
 40
0.376694351716064
 40
0.4407479895346254
 40
0.5032957377886659
 40
0.5666613310136045
 40
0.6011212985389532
 40
0.6409394331421697
 40
0.686627326985871
 40
0.7373982524124165
 40
0.7941894459313101
 40
0.8569408067006914
 40
0.9257597107636947
 40
1.0
 40
1.0
 40
1.0
 40
1.0
 10
320.1672727272727
 20
197.3750126266247
 30
0.0
 10
320.1662575196111
 20
197.4048863519239
 30
0.0
 10
320.1643125545804
 20
197.4621193233026
 30
0.0
 10
320.1512190147604
 20
197.5445476404269
 30
0.0
 10
320.126941930892
 20
197.6185976760788
 30
0.0
 10
320.0939677299465
 20
197.684785859293
 30
0.0
 10
320.0537250922737
 20
197.7424826265647
 30
0.0
 10
320.0063451556197
 20
197.7909820028375
 30
0.0
 10
319.9520695590324
 20
197.829238175299
 30
0.0
 10
319.9013994472507
 20
197.8530383690651
 30
0.0
 10
319.8560256303977
 20
197.8684631996981
 30
0.0
 10
319.8151412813125
 20
197.8769347596314
 30
0.0
 10
319.7686172454522
 20
197.8859174291992
 30
0.0
 10
319.7156126672793
 20
197.891581640624
 30
0.0
 10
319.65673453675
 20
197.897796404771
 30
0.0
 10
319.5913030167029
 20
197.9008351523267
 30
0.0
 10
319.5197990187104
 20
197.9030794785771
 30
0.0
 10
319.4700687760402
 20
197.9033047917186
 30
0.0
 10
319.4442613636364
 20
197.9034217175338
 30
0.0
  0
SPLINE
  5
26D
330
1F
100
AcDbEntity
  8
0
  6
Continuous
 62
     7
370
    25
100
AcDbSpline
210
0.0
220
0.0
230
1.0
 70
     8
 71
     3
 72
    15
 73
    11
 74
     0
 42
0.000000001
 43
0.00000001
 40
0.0
 40
0.0
 40
0.0
 40
0.0
 40
0.1232115076675098
 40
0.2406990252533389
 40
0.354261293216721
 40
0.4669536443969423
 40
0.5842822876469569
 40
0.7105515410306925
 40
0.8478091896452408
 40
1.0
 40
1.0
 40
1.0
 40
1.0
 10
319.8490909090909
 20
196.8913478538974
 30
0.0
 10
319.8733747696944
 20
196.8999981910331
 30
0.0
 10
319.9208143448387
 20
196.9168969998869
 30
0.0
 10
319.9843528036281
 20
196.9555754481962
 30
0.0
 10
320.0401200443824
 20
197.0011318535649
 30
0.0
 10
320.0865811459561
 20
197.0563502652542
 30
0.0
 10
320.1232861388067
 20
197.1215204045263
 30
0.0
 10
320.1492629470829
 20
197.1970216724579
 30
0.0
 10
320.1649930361524
 20
197.2827446184791
 30
0.0
 10
320.1664871358114
 20
197.3432166702755
 30
0.0
 10
320.1672727272727
 20
197.3750126266247
 30
0.0
  0
SPLINE
  5
26E
330
1F
100
AcDbEntity
  8
0
  6
Continuous
 62
     7
370
    25
100
AcDbSpline
210
0.0
220
0.0
230
1.0
 70
     8
 71
     3
 72
    11
 73
     7
 74
     0
 42
0.000000001
 43
0.00000001
 40
0.0
 40
0.0
 40
0.0
 40
0.0
 40
0.3231090798450185
 40
0.5974912675160299
 40
0.821785922781881
 40
1.0
 40
1.0
 40
1.0
 40
1.0
 10
319.4911363636364
 20
196.8579671720792
 30
0.0
 10
319.5299837563811
 20
196.8582481440541
 30
0.0
 10
319.601820109423
 20
196.8587677156535
 30
0.0
 10
319.7003181380715
 20
196.8655389307897
 30
0.0
 10
319.7815105715656
 20
196.8735296275016
 30
0.0
 10
319.8283516384976
 20
196.8858797394687
 30
0.0
 10
319.8490909090909
 20
196.8913478538974
 30
0.0
  0
LINE
  5
26F
330
1F
100
AcDbEntity
  8
0
  6
Continuous
 62
     7
370
    25
100
AcDbLine
 10
318.8490909091
 20
196.8579671721
 30
0.0
 11
319.4911363636
 21
196.8579671721
 31
0.0
  0
LINE
  5
270
330
1F
100
AcDbEntity
  8
0
  6
Continuous
 62
     7
370
    25
100
AcDbLine
 10
319.4442613636
 20
197.9034217175
 30
0.0
 11
318.8490909091
 21
197.9034217175
 31
0.0
  0
LINE
  5
271
330
1F
100
AcDbEntity
  8
0
  6
Continuous
 62
     7
370
    25
100
AcDbLine
 10
318.8490909091
 20
197.9034217175
 30
0.0
 11
318.8490909091
 21
196.8579671721
 31
0.0
  0
SPLINE
  5
272
330
1F
100
AcDbEntity
  8
0
  6
Continuous
 62
     7
370
    25
100
AcDbSpline
210
0.0
220
0.0
230
1.0
 70
     8
 71
     3
 72
    15
 73
    11
 74
     0
 42
0.000000001
 43
0.00000001
 40
0.0
 40
0.0
 40
0.0
 40
0.0
 40
0.1348306128719203
 40
0.2655522766928024
 40
0.3942179015238061
 40
0.5192745831226624
 40
0.64223036071071
 40
0.7628424106338255
 40
0.88215140595486
 40
1.0
 40
1.0
 40
1.0
 40
1.0
 10
323.4854545454545
 20
196.569614899352
 30
0.0
 10
323.4851074761702
 20
196.6060843019173
 30
0.0
 10
323.4844239145024
 20
196.677911705758
 30
0.0
 10
323.4771354173507
 20
196.7843497605586
 30
0.0
 10
323.4649167161551
 20
196.887617108452
 30
0.0
 10
323.4491676192137
 20
196.9883390104983
 30
0.0
 10
323.4263469852491
 20
197.0854355009466
 30
0.0
 10
323.4015060268336
 20
197.1804175223852
 30
0.0
 10
323.3699957020605
 20
197.2720079576913
 30
0.0
 10
323.3455924154545
 20
197.3313298067287
 30
0.0
 10
323.3334659090909
 20
197.3608080811701
 30
0.0
  0
SPLINE
  5
273
330
1F
100
AcDbEntity
  8
0
  6
Continuous
 62
     7
370
    25
100
AcDbSpline
210
0.0
220
0.0
230
1.0
 70
     8
 71
     3
 72
    23
 73
    19
 74
     0
 42
0.000000001
 43
0.00000001
 40
0.0
 40
0.0
 40
0.0
 40
0.0
 40
0.0549231502919699
 40
0.1086030052064189
 40
0.161036855651976
 40
0.2129852978324796
 40
0.2656874514313827
 40
0.3191576965915245
 40
0.3745727672960877
 40
0.4325440293275162
 40
0.4924378488244341
 40
0.5542084725852
 40
0.6185456342266049
 40
0.6863015999283236
 40
0.7577792075712924
 40
0.8336420180410764
 40
0.9144133612381077
 40
1.0
 40
1.0
 40
1.0
 40
1.0
 10
322.4598863636364
 20
195.176148990261
 30
0.0
 10
322.4954585138188
 20
195.1772811226407
 30
0.0
 10
322.5657975674043
 20
195.179519759319
 30
0.0
 10
322.669039255304
 20
195.1960894174092
 30
0.0
 10
322.7678437646987
 20
195.2236941600097
 30
0.0
 10
322.8616689707505
 20
195.2635688169427
 30
0.0
 10
322.9514270644918
 20
195.3132102205761
 30
0.0
 10
323.036680528225
 20
195.3742813017278
 30
0.0
 10
323.1171252297169
 20
195.4466619512714
 30
0.0
 10
323.1931366777874
 20
195.5294587291841
 30
0.0
 10
323.2619622835268
 20
195.623495645213
 30
0.0
 10
323.3228753312446
 20
195.7276718012665
 30
0.0
 10
323.3731433878136
 20
195.8429856244747
 30
0.0
 10
323.4138504814533
 20
195.9684901699553
 30
0.0
 10
323.4469767399248
 20
196.1039461833884
 30
0.0
 10
323.4686870570066
 20
196.2501675316665
 30
0.0
 10
323.4836233227968
 20
196.4064256300949
 30
0.0
 10
323.4848324714779
 20
196.5141788237661
 30
0.0
 10
323.4854545454545
 20
196.569614899352
 30
0.0
  0
SPLINE
  5
274
330
1F
100
AcDbEntity
  8
0
  6
Continuous
 62
     7
370
    25
100
AcDbSpline
210
0.0
220
0.0
230
1.0
 70
     8
 71
     3
 72
    23
 73
    19
 74
     0
 42
0.000000001
 43
0.00000001
 40
0.0
 40
0.0
 40
0.0
 40
0.0
 40
0.0820167094769213
 40
0.1594134130609958
 40
0.2330069745226141
 40
0.3031891773589418
 40
0.3699716694339434
 40
0.4341909870753238
 40
0.4967089549976744
 40
0.5582085812881047
 40
0.6180809696446111
 40
0.675082792460814
 40
0.7301076280391966
 40
0.7838984160543084
 40
0.8370755298410727
 40
0.8904187639022303
 40
0.9443870054531993
 40
0.9999999999999999
 40
0.9999999999999999
 40
0.9999999999999999
 40
0.9999999999999999
 10
321.44
 20
196.5106660357156
 30
0.0
 10
321.441032454504
 20
196.4592656651681
 30
0.0
 10
321.443039205291
 20
196.359360309859
 30
0.0
 10
321.4563216867336
 20
196.2137850779759
 30
0.0
 10
321.4796747015902
 20
196.0770049433014
 30
0.0
 10
321.5123511621057
 20
195.9490330077548
 30
0.0
 10
321.5530557956107
 20
195.8294944512109
 30
0.0
 10
321.6046734782498
 20
195.7194913902776
 30
0.0
 10
321.6651563568883
 20
195.6179784241841
 30
0.0
 10
321.7346820662962
 20
195.5257609542178
 30
0.0
 10
321.8111530894589
 20
195.4440149644233
 30
0.0
 10
321.8915502402577
 20
195.3719910933532
 30
0.0
 10
321.976880257475
 20
195.3123440803469
 30
0.0
 10
322.0651148877537
 20
195.2617734572913
 30
0.0
 10
322.158190082915
 20
195.2231367620851
 30
0.0
 10
322.2553363148723
 20
195.1964143932787
 30
0.0
 10
322.3563098119031
 20
195.1794096605688
 30
0.0
 10
322.4250170937821
 20
195.1772467019628
 30
0.0
 10
322.4598863636364
 20
195.176148990261
 30
0.0
  0
SPLINE
  5
275
330
1F
100
AcDbEntity
  8
0
  6
Continuous
 62
     7
370
    25
100
AcDbSpline
210
0.0
220
0.0
230
1.0
 70
     8
 71
     3
 72
    23
 73
    19
 74
     0
 42
0.000000001
 43
0.00000001
 40
0.0
 40
0.0
 40
0.0
 40
0.0
 40
0.0549693010255954
 40
0.1083590609100886
 40
0.1601640429853773
 40
0.2113322971038449
 40
0.2628532052336241
 40
0.3149821664487523
 40
0.3690071678834773
 40
0.4247807921276356
 40
0.482961821362359
 40
0.5435867127152625
 40
0.6079447966355048
 40
0.6759283484733841
 40
0.7490032351523546
 40
0.827141000277197
 40
0.9105022622530009
 40
1.0
 40
1.0
 40
1.0
 40
1.0
 10
322.4676988636364
 20
197.9488762629883
 30
0.0
 10
322.4311830448186
 20
197.9477449956691
 30
0.0
 10
322.3592006880917
 20
197.9455149679617
 30
0.0
 10
322.2537950868027
 20
197.9290771739318
 30
0.0
 10
322.1535344455967
 20
197.9011693612946
 30
0.0
 10
322.0583384445802
 20
197.8623597722079
 30
0.0
 10
321.9675724896072
 20
197.8135087142416
 30
0.0
 10
321.8824605508751
 20
197.7520692876496
 30
0.0
 10
321.8021265835091
 20
197.6802750101081
 30
0.0
 10
321.7273368609483
 20
197.5972653460891
 30
0.0
 10
321.6583320873668
 20
197.5036955721639
 30
0.0
 10
321.6006740071071
 20
197.3962569890927
 30
0.0
 10
321.5497933938805
 20
197.2784301125055
 30
0.0
 10
321.5099170825272
 20
197.1477394660402
 30
0.0
 10
321.4776532964669
 20
197.0056200661565
 30
0.0
 10
321.4569719772799
 20
196.8510904143172
 30
0.0
 10
321.4417036823311
 20
196.6849754394037
 30
0.0
 10
321.4405811770491
 20
196.5701281918949
 30
0.0
 10
321.44
 20
196.5106660357156
 30
0.0
  0
SPLINE
  5
276
330
1F
100
AcDbEntity
  8
0
  6
Continuous
 62
     7
370
    25
100
AcDbSpline
210
0.0
220
0.0
230
1.0
 70
     8
 71
     3
 72
    15
 73
    11
 74
     0
 42
0.000000001
 43
0.00000001
 40
0.0
 40
0.0
 40
0.0
 40
0.0
 40
0.1290893592394812
 40
0.255100016180435
 40
0.3798655055392191
 40
0.5068907155239881
 40
0.6325188027370876
 40
0.7548417051891566
 40
0.8765222138546881
 40
1.0
 40
1.0
 40
1.0
 40
1.0
 10
323.3334659090909
 20
197.3608080811701
 30
0.0
 10
323.3129748147792
 20
197.4039220672565
 30
0.0
 10
323.2724813262276
 20
197.4891217972189
 30
0.0
 10
323.1896923457808
 20
197.603132542278
 30
0.0
 10
323.0938572451827
 20
197.7050012451383
 30
0.0
 10
322.983212260543
 20
197.7904377405441
 30
0.0
 10
322.8638332062241
 20
197.8612936624779
 30
0.0
 10
322.7367703488698
 20
197.9123198220892
 30
0.0
 10
322.6038849073506
 20
197.9432437922214
 30
0.0
 10
322.5133155356075
 20
197.9469896190683
 30
0.0
 10
322.4676988636364
 20
197.9488762629883
 30
0.0
  0
SPLINE
  5
277
330
1F
100
AcDbEntity
  8
0
  6
Continuous
 62
     7
370
    25
100
AcDbSpline
210
0.0
220
0.0
230
1.0
 70
     8
 71
     3
 72
    23
 73
    19
 74
     0
 42
0.000000001
 43
0.00000001
 40
0.0
 40
0.0
 40
0.0
 40
0.0
 40
0.0962668487102102
 40
0.1851887142498576
 40
0.2670522646414191
 40
0.3425535158095234
 40
0.4116298860129102
 40
0.4751854140306059
 40
0.5336270929387997
 40
0.5873801801951998
 40
0.6383796135347338
 40
0.6880940834234889
 40
0.7375708011894995
 40
0.7869390713018619
 40
0.8371140147138916
 40
0.8890450561406117
 40
0.9429881641617253
 40
1.0
 40
1.0
 40
1.0
 40
1.0
 10
302.5763636363636
 20
195.936802399352
 30
0.0
 10
302.5755922062543
 20
195.8851816861156
 30
0.0
 10
302.5741082047315
 20
195.7858788249441
 30
0.0
 10
302.5653677529158
 20
195.6428526020534
 30
0.0
 10
302.5490233850699
 20
195.5117182646428
 30
0.0
 10
302.5267814334495
 20
195.3922388475054
 30
0.0
 10
302.4977158715351
 20
195.2843639088732
 30
0.0
 10
302.4628154158334
 20
195.1878291989988
 30
0.0
 10
302.4201242456458
 20
195.1035300296737
 30
0.0
 10
302.3713019818028
 20
195.0306368901803
 30
0.0
 10
302.3166854223766
 20
194.9680566003488
 30
0.0
 10
302.2564212973615
 20
194.9143424286738
 30
0.0
 10
302.1909389540098
 20
194.8685939367889
 30
0.0
 10
302.1198913663973
 20
194.8316121358592
 30
0.0
 10
302.0440330495643
 20
194.8020446546446
 30
0.0
 10
301.9626615682013
 20
194.7817262125292
 30
0.0
 10
301.8759776139908
 20
194.7695028393904
 30
0.0
 10
301.816461678345
 20
194.767887889032
 30
0.0
 10
301.7858806818182
 20
194.7670580811701
 30
0.0
  0
LINE
  5
278
330
1F
100
AcDbEntity
  8
0
  6
Continuous
 62
     7
370
    25
100
AcDbLine
 10
302.5763636364
 20
198.3125126266
 30
0.0
 11
302.5763636364
 21
195.9368023994
 31
0.0
  0
LINE
  5
279
330
1F
100
AcDbEntity
  8
0
  6
Continuous
 62
     7
370
    25
100
AcDbLine
 10
302.2127272727
 20
198.3125126266
 30
0.0
 11
302.5763636364
 21
198.3125126266
 31
0.0
  0
LINE
  5
27A
330
1F
100
AcDbEntity
  8
0
  6
Continuous
 62
     7
370
    25
100
AcDbLine
 10
302.2127272727
 20
195.9091035357
 30
0.0
 11
302.2127272727
 21
198.3125126266
 31
0.0
  0
SPLINE
  5
27B
330
1F
100
AcDbEntity
  8
0
  6
Continuous
 62
     7
370
    25
100
AcDbSpline
210
0.0
220
0.0
230
1.0
 70
     8
 71
     3
 72
    11
 73
     7
 74
     0
 42
0.000000001
 43
0.00000001
 40
0.0
 40
0.0
 40
0.0
 40
0.0
 40
0.1899378633492042
 40
0.4190751882676111
 40
0.6888208399565361
 40
0.9999999999999999
 40
0.9999999999999999
 40
0.9999999999999999
 40
0.9999999999999999
 10
302.1651420454545
 20
195.4403535357156
 30
0.0
 10
302.1725798299436
 20
195.4693594888994
 30
0.0
 10
302.1889904122262
 20
195.5333576569161
 30
0.0
 10
302.2022271821181
 20
195.6412707466512
 30
0.0
 10
302.2116867813178
 20
195.7685389524112
 30
0.0
 10
302.2123643338176
 20
195.8600725142782
 30
0.0
 10
302.2127272727272
 20
195.9091035357156
 30
0.0
  0
SPLINE
  5
27C
330
1F
100
AcDbEntity
  8
0
  6
Continuous
 62
     7
370
    25
100
AcDbSpline
210
0.0
220
0.0
230
1.0
 70
     8
 71
     3
 72
    15
 73
    11
 74
     0
 42
0.000000001
 43
0.00000001
 40
0.0
 40
0.0
 40
0.0
 40
0.0
 40
0.1318753426358343
 40
0.2576529831924869
 40
0.3827609181757876
 40
0.5089715295156519
 40
0.6345929352780179
 40
0.7573414601716918
 40
0.8779288610425218
 40
1.0
 40
1.0
 40
1.0
 40
1.0
 10
301.8022159090909
 20
195.176148990261
 30
0.0
 10
301.8233556537713
 20
195.1771760933009
 30
0.0
 10
301.8646576756048
 20
195.1791828078009
 30
0.0
 10
301.924829408492
 20
195.1928831113156
 30
0.0
 10
301.9807635264258
 20
195.2165938654965
 30
0.0
 10
302.0316676852303
 20
195.249542045392
 30
0.0
 10
302.0772896535844
 20
195.2889716804668
 30
0.0
 10
302.1148175487663
 20
195.334902532855
 30
0.0
 10
302.145896027503
 20
195.3849859611266
 30
0.0
 10
302.1587006082248
 20
195.4218225981898
 30
0.0
 10
302.1651420454545
 20
195.4403535357156
 30
0.0
  0
SPLINE
  5
27D
330
1F
100
AcDbEntity
  8
0
  6
Continuous
 62
     7
370
    25
100
AcDbSpline
210
0.0
220
0.0
230
1.0
 70
     8
 71
     3
 72
    23
 73
    19
 74
     0
 42
0.000000001
 43
0.00000001
 40
0.0
 40
0.0
 40
0.0
 40
0.0
 40
0.1073559733815323
 40
0.2065681780405376
 40
0.2976862275996194
 40
0.3795789659120611
 40
0.4539091456714813
 40
0.5210059557000669
 40
0.5803213152528152
 40
0.6331440915541412
 40
0.6819673272515994
 40
0.7282238973232185
 40
0.773116414329368
 40
0.8172095941165214
 40
0.8611451100622665
 40
0.9056495000405613
 40
0.952037153024125
 40
0.9999999999999999
 40
0.9999999999999999
 40
0.9999999999999999
 40
0.9999999999999999
 10
301.3945454545455
 20
195.9034217175338
 30
0.0
 10
301.3959291095131
 20
195.8700230805259
 30
0.0
 10
301.3985914586744
 20
195.8057593476524
 30
0.0
 10
301.406806576409
 20
195.7134360213452
 30
0.0
 10
301.4158960321453
 20
195.6291381930699
 30
0.0
 10
301.4296627824259
 20
195.553327031692
 30
0.0
 10
301.4456473495993
 20
195.4856063641389
 30
0.0
 10
301.4648316440761
 20
195.4260914365016
 30
0.0
 10
301.4854991783599
 20
195.3741299213707
 30
0.0
 10
301.5109207747249
 20
195.3307200309775
 30
0.0
 10
301.5390791580602
 20
195.2942097921355
 30
0.0
 10
301.5689337596483
 20
195.2622841092617
 30
0.0
 10
301.6020825417003
 20
195.2361830075567
 30
0.0
 10
301.6367962861946
 20
195.213403155455
 30
0.0
 10
301.6750434438387
 20
195.1974414335051
 30
0.0
 10
301.7152249738389
 20
195.1852562062655
 30
0.0
 10
301.7578444094911
 20
195.1769493016641
 30
0.0
 10
301.7872617007104
 20
195.1764187134752
 30
0.0
 10
301.8022159090909
 20
195.176148990261
 30
0.0
  0
LINE
  5
27E
330
1F
100
AcDbEntity
  8
0
  6
Continuous
 62
     7
370
    25
100
AcDbLine
 10
301.0309090909
 20
195.8579671721
 30
0.0
 11
301.3945454545
 21
195.9034217175
 31
0.0
  0
SPLINE
  5
27F
330
1F
100
AcDbEntity
  8
0
  6
Continuous
 62
     7
370
    25
100
AcDbSpline
210
0.0
220
0.0
230
1.0
 70
     8
 71
     3
 72
    15
 73
    11
 74
     0
 42
0.000000001
 43
0.00000001
 40
0.0
 40
0.0
 40
0.0
 40
0.0
 40
0.1010490053577533
 40
0.2071533109936865
 40
0.3194648646185316
 40
0.4391077011200589
 40
0.5656092495404482
 40
0.7011883501996641
 40
0.8455298974050567
 40
1.0
 40
1.0
 40
1.0
 40
1.0
 10
301.2390056818182
 20
195.0142171720792
 30
0.0
 10
301.2220047308964
 20
195.0386786791357
 30
0.0
 10
301.1871523020079
 20
195.0888254585198
 30
0.0
 10
301.1463479884456
 20
195.1738684200296
 30
0.0
 10
301.1094372318528
 20
195.2663654119238
 30
0.0
 10
301.0810918460984
 20
195.3681868026785
 30
0.0
 10
301.0582678484986
 20
195.4782673293786
 30
0.0
 10
301.0420728536397
 20
195.5969036951729
 30
0.0
 10
301.0331721335975
 20
195.7245440024254
 30
0.0
 10
301.031680294326
 20
195.8124990044416
 30
0.0
 10
301.0309090909091
 20
195.8579671720792
 30
0.0
  0
SPLINE
  5
280
330
1F
100
AcDbEntity
  8
0
  6
Continuous
 62
     7
370
    25
100
AcDbSpline
210
0.0
220
0.0
230
1.0
 70
     8
 71
     3
 72
    15
 73
    11
 74
     0
 42
0.000000001
 43
0.00000001
 40
0.0
 40
0.0
 40
0.0
 40
0.0
 40
0.1422756403703536
 40
0.2767365039298886
 40
0.4044482731598682
 40
0.5261123324890591
 40
0.644658697951457
 40
0.7620593432335027
 40
0.8795701101468201
 40
1.0
 40
1.0
 40
1.0
 40
1.0
 10
301.7858806818182
 20
194.7670580811701
 30
0.0
 10
301.7562362742316
 20
194.7675559786786
 30
0.0
 10
301.6985757379992
 20
194.7685244256695
 30
0.0
 10
301.6151613151829
 20
194.7813159801408
 30
0.0
 10
301.5373132117377
 20
194.7998768267611
 30
0.0
 10
301.4655294942609
 20
194.8271746311706
 30
0.0
 10
301.3995121092583
 20
194.8620752868713
 30
0.0
 10
301.3397606701211
 20
194.9052460097613
 30
0.0
 10
301.2844686301694
 20
194.9548851983454
 30
0.0
 10
301.2542834380791
 20
194.9942787504401
 30
0.0
 10
301.2390056818182
 20
195.0142171720792
 30
0.0
  0
LINE
  5
281
330
1F
100
AcDbEntity
  8
0
  6
Continuous
 62
     7
370
    25
100
AcDbLine
 10
304.8469602273
 20
195.8579671721
 30
0.0
 11
303.6239488636
 21
195.8579671721
 31
0.0
  0
LINE
  5
282
330
1F
100
AcDbEntity
  8
0
  6
Continuous
 62
     7
370
    25
100
AcDbLine
 10
305.1530681818
 20
194.8125126266
 30
0.0
 11
304.8469602273
 21
195.8579671721
 31
0.0
  0
LINE
  5
283
330
1F
100
AcDbEntity
  8
0
  6
Continuous
 62
     7
370
    25
100
AcDbLine
 10
305.5309090909
 20
194.8125126266
 30
0.0
 11
305.1530681818
 21
194.8125126266
 31
0.0
  0
LINE
  5
284
330
1F
100
AcDbEntity
  8
0
  6
Continuous
 62
     7
370
    25
100
AcDbLine
 10
304.4123011364
 20
198.3125126266
 30
0.0
 11
305.5309090909
 21
194.8125126266
 31
0.0
  0
LINE
  5
285
330
1F
100
AcDbEntity
  8
0
  6
Continuous
 62
     7
370
    25
100
AcDbLine
 10
304.0578977273
 20
198.3125126266
 30
0.0
 11
304.4123011364
 21
198.3125126266
 31
0.0
  0
LINE
  5
286
330
1F
100
AcDbEntity
  8
0
  6
Continuous
 62
     7
370
    25
100
AcDbLine
 10
302.94
 20
194.8125126266
 30
0.0
 11
304.0578977273
 21
198.3125126266
 31
0.0
  0
LINE
  5
287
330
1F
100
AcDbEntity
  8
0
  6
Continuous
 62
     7
370
    25
100
AcDbLine
 10
303.3185511364
 20
194.8125126266
 30
0.0
 11
302.94
 21
194.8125126266
 31
0.0
  0
LINE
  5
288
330
1F
100
AcDbEntity
  8
0
  6
Continuous
 62
     7
370
    25
100
AcDbLine
 10
303.6239488636
 20
195.8579671721
 30
0.0
 11
303.3185511364
 21
194.8125126266
 31
0.0
  0
SPLINE
  5
289
330
1F
100
AcDbEntity
  8
0
  6
Continuous
 62
     7
370
    25
100
AcDbSpline
210
0.0
220
0.0
230
1.0
 70
     8
 71
     3
 72
    15
 73
    11
 74
     0
 42
0.000000001
 43
0.00000001
 40
0.0
 40
0.0
 40
0.0
 40
0.0
 40
0.1134955418346445
 40
0.2259989297760188
 40
0.339269098522387
 40
0.4584033987388578
 40
0.5828288938708704
 40
0.7128865688815812
 40
0.8512114562531197
 40
1.0
 40
1.0
 40
1.0
 40
1.0
 10
320.1402840909091
 20
196.6988762629883
 30
0.0
 10
320.1762548351085
 20
196.6821040978291
 30
0.0
 10
320.2478818749103
 20
196.648706386212
 30
0.0
 10
320.3429773949283
 20
196.576779355279
 30
0.0
 10
320.4261532818444
 20
196.4891653321434
 30
0.0
 10
320.496078800082
 20
196.3855571230857
 30
0.0
 10
320.5533608329183
 20
196.2679226144927
 30
0.0
 10
320.5934247495617
 20
196.13638541423
 30
0.0
 10
320.6179459129983
 20
195.9924083061021
 30
0.0
 10
320.6204964414455
 20
195.8921615705489
 30
0.0
 10
320.6218181818182
 20
195.840211490261
 30
0.0
  0
SPLINE
  5
28A
330
1F
100
AcDbEntity
  8
0
  6
Continuous
 62
     7
370
    25
100
AcDbSpline
210
0.0
220
0.0
230
1.0
 70
     8
 71
     3
 72
    23
 73
    19
 74
     0
 42
0.000000001
 43
0.00000001
 40
0.0
 40
0.0
 40
0.0
 40
0.0
 40
0.0544199008451914
 40
0.1060523162565181
 40
0.1549730787461435
 40
0.2012838652153515
 40
0.2452075788106312
 40
0.2863483776398005
 40
0.3259675705682552
 40
0.3636675859428593
 40
0.4367582574700975
 40
0.5112362885366329
 40
0.5876989460161555
 40
0.6682289134090649
 40
0.7504893743805793
 40
0.8322579304600501
 40
0.9146071290589902
 40
0.9999999999999999
 40
0.9999999999999999
 40
0.9999999999999999
 40
0.9999999999999999
 10
319.5706818181818
 20
198.3125126266247
 30
0.0
 10
319.597442826255
 20
198.3123210463869
 30
0.0
 10
319.6495940953209
 20
198.3119476989966
 30
0.0
 10
319.7256504298407
 20
198.3067087652487
 30
0.0
 10
319.797453323445
 20
198.2989935442793
 30
0.0
 10
319.8651297374769
 20
198.2886469186169
 30
0.0
 10
319.9281696018424
 20
198.2743752398514
 30
0.0
 10
319.9871278481704
 20
198.2574067021201
 30
0.0
 10
320.0416615056585
 20
198.2367918917184
 30
0.0
 10
320.108886147159
 20
198.2058025535842
 30
0.0
 10
320.1863518768965
 20
198.1571810312652
 30
0.0
 10
320.2710297915957
 20
198.0860549071275
 30
0.0
 10
320.3449481919083
 20
197.9989913770428
 30
0.0
 10
320.4106827755135
 20
197.9011703192711
 30
0.0
 10
320.4645685597415
 20
197.7932173613583
 30
0.0
 10
320.5029695036181
 20
197.6779862687898
 30
0.0
 10
320.5264880552478
 20
197.5570740877257
 30
0.0
 10
320.5294176929735
 20
197.4745511778871
 30
0.0
 10
320.5309090909091
 20
197.4325410357156
 30
0.0
  0
LINE
  5
28B
330
1F
100
AcDbEntity
  8
0
  6
Continuous
 62
     7
370
    25
100
AcDbLine
 10
318.4854545455
 20
198.3125126266
 30
0.0
 11
319.5706818182
 21
198.3125126266
 31
0.0
  0
LINE
  5
28C
330
1F
100
AcDbEntity
  8
0
  6
Continuous
 62
     7
370
    25
100
AcDbLine
 10
318.4854545455
 20
194.8125126266
 30
0.0
 11
318.4854545455
 21
198.3125126266
 31
0.0
  0
LINE
  5
28D
330
1F
100
AcDbEntity
  8
0
  6
Continuous
 62
     7
370
    25
100
AcDbLine
 10
319.5628693182
 20
194.8125126266
 30
0.0
 11
318.4854545455
 21
194.8125126266
 31
0.0
  0
SPLINE
  5
28E
330
1F
100
AcDbEntity
  8
0
  6
Continuous
 62
     7
370
    25
100
AcDbSpline
210
0.0
220
0.0
230
1.0
 70
     8
 71
     3
 72
    23
 73
    19
 74
     0
 42
0.000000001
 43
0.00000001
 40
0.0
 40
0.0
 40
0.0
 40
0.0
 40
0.0927167590882806
 40
0.1801828503269483
 40
0.2644844746646971
 40
0.3464547069403137
 40
0.4250710312591282
 40
0.499228385582297
 40
0.5714123754260498
 40
0.6423085886576492
 40
0.6788506151926694
 40
0.7174739186893365
 40
0.7581199166694998
 40
0.8008069053587523
 40
0.84682533884393
 40
0.8950746429128078
 40
0.9461164316244263
 40
1.0
 40
1.0
 40
1.0
 40
1.0
 10
320.6218181818182
 20
195.840211490261
 30
0.0
 10
320.6204743463868
 20
195.7880279829767
 30
0.0
 10
320.6178627786316
 20
195.6866161867166
 30
0.0
 10
320.5930687734494
 20
195.5394231424442
 30
0.0
 10
320.5526801380662
 20
195.4022151144343
 30
0.0
 10
320.4968896593149
 20
195.2757904228541
 30
0.0
 10
320.4273728744486
 20
195.1631409313428
 30
0.0
 10
320.3474774661273
 20
195.0643823093802
 30
0.0
 10
320.2549624392912
 20
194.9837412865588
 30
0.0
 10
320.1690259931622
 20
194.9296156120772
 30
0.0
 10
320.0939867742783
 20
194.8960125801816
 30
0.0
 10
320.0330121521346
 20
194.8728779486794
 30
0.0
 10
319.9666824285887
 20
194.8551284857778
 30
0.0
 10
319.8957197940443
 20
194.838984078014
 30
0.0
 10
319.8195120751789
 20
194.827301794157
 30
0.0
 10
319.7381921555769
 20
194.8190824117639
 30
0.0
 10
319.652215788828
 20
194.8128649700198
 30
0.0
 10
319.5931844068719
 20
194.812632176073
 30
0.0
 10
319.5628693181818
 20
194.8125126266247
 30
0.0
  0
SPLINE
  5
28F
330
1F
100
AcDbEntity
  8
0
  6
Continuous
 62
     7
370
    25
100
AcDbSpline
210
0.0
220
0.0
230
1.0
 70
     8
 71
     3
 72
    19
 73
    15
 74
     0
 42
0.000000001
 43
0.00000001
 40
0.0
 40
0.0
 40
0.0
 40
0.0
 40
0.0661297850621442
 40
0.1323063145957533
 40
0.2001432470913932
 40
0.2709948764223982
 40
0.3452317459811035
 40
0.4227459821809252
 40
0.5042032756070172
 40
0.5908175642441984
 40
0.6830127059796938
 40
0.7812662377116577
 40
0.8868843908001325
 40
1.0
 40
1.0
 40
1.0
 40
1.0
 10
325.8469602272727
 20
198.2478819448065
 30
0.0
 10
325.8877687150483
 20
198.232282797841
 30
0.0
 10
325.9694145364695
 20
198.2010734775037
 30
0.0
 10
326.0827082747326
 20
198.1318899005226
 30
0.0
 10
326.1870543299758
 20
198.0455289274346
 30
0.0
 10
326.2832436914218
 20
197.9426611648362
 30
0.0
 10
326.3694847657359
 20
197.8234575410192
 30
0.0
 10
326.4464864502715
 20
197.6899934978982
 30
0.0
 10
326.5123469059121
 20
197.5417375162293
 30
0.0
 10
326.5684855284392
 20
197.3793185894121
 30
0.0
 10
326.6131789102348
 20
197.201885130685
 30
0.0
 10
326.6446369606178
 20
197.0089867333346
 30
0.0
 10
326.663925889764
 20
196.80059614754
 30
0.0
 10
326.6661319097928
 20
196.6563064790047
 30
0.0
 10
326.6672727272727
 20
196.5816887629883
 30
0.0
  0
SPLINE
  5
290
330
1F
100
AcDbEntity
  8
0
  6
Continuous
 62
     7
370
    25
100
AcDbSpline
210
0.0
220
0.0
230
1.0
 70
     8
 71
     3
 72
    15
 73
    11
 74
     0
 42
0.000000001
 43
0.00000001
 40
0.0
 40
0.0
 40
0.0
 40
0.0
 40
0.157768981263723
 40
0.3068317722095679
 40
0.4446853154065932
 40
0.5740378871988587
 40
0.6938055486786892
 40
0.8052293349315871
 40
0.9065525990511042
 40
1.0
 40
1.0
 40
1.0
 40
1.0
 10
325.2901420454546
 20
198.3125126266247
 30
0.0
 10
325.3197402674725
 20
198.3125216614941
 30
0.0
 10
325.377303388203
 20
198.3125392326605
 30
0.0
 10
325.4606393840036
 20
198.3085229161971
 30
0.0
 10
325.5385813572518
 20
198.3038472539866
 30
0.0
 10
325.6108692903335
 20
198.2969318887178
 30
0.0
 10
325.6778198461704
 20
198.2873581633296
 30
0.0
 10
325.7394441337408
 20
198.2774988889622
 30
0.0
 10
325.7952477736634
 20
198.26365389538
 30
0.0
 10
325.8301937752135
 20
198.2529955999266
 30
0.0
 10
325.8469602272727
 20
198.2478819448065
 30
0.0
  0
LINE
  5
291
330
1F
100
AcDbEntity
  8
0
  6
Continuous
 62
     7
370
    25
100
AcDbLine
 10
324.3036363636
 20
198.3125126266
 30
0.0
 11
325.2901420455
 21
198.3125126266
 31
0.0
  0
LINE
  5
292
330
1F
100
AcDbEntity
  8
0
  6
Continuous
 62
     7
370
    25
100
AcDbLine
 10
324.3036363636
 20
194.8125126266
 30
0.0
 11
324.3036363636
 21
198.3125126266
 31
0.0
  0
LINE
  5
293
330
1F
100
AcDbEntity
  8
0
  6
Continuous
 62
     7
370
    25
100
AcDbLine
 10
325.3355965909
 20
194.8125126266
 30
0.0
 11
324.3036363636
 21
194.8125126266
 31
0.0
  0
SPLINE
  5
294
330
1F
100
AcDbEntity
  8
0
  6
Continuous
 62
     7
370
    25
100
AcDbSpline
210
0.0
220
0.0
230
1.0
 70
     8
 71
     3
 72
    31
 73
    27
 74
     0
 42
0.000000001
 43
0.00000001
 40
0.0
 40
0.0
 40
0.0
 40
0.0
 40
0.0577553347540333
 40
0.1136139226023749
 40
0.1671197257755566
 40
0.2189464986391538
 40
0.2686643663353139
 40
0.3168966216208767
 40
0.3635773347188843
 40
0.4087770573903811
 40
0.4520210878651962
 40
0.4933464890352591
 40
0.5327655511252253
 40
0.569964342274778
 40
0.6057775680813444
 40
0.6402404808462637
 40
0.6733902473124882
 40
0.7057429754128417
 40
0.737921108410789
 40
0.7710708748770121
 40
0.8052923530984054
 40
0.8409668427136457
 40
0.8780909052648262
 40
0.9167713881419295
 40
0.9574514408635615
 40
1.0
 40
1.0
 40
1.0
 40
1.0
 10
326.6672727272727
 20
196.5816887629883
 30
0.0
 10
326.6666748914354
 20
196.5331474639533
 30
0.0
 10
326.6654988533285
 20
196.4376590140107
 30
0.0
 10
326.6578070176972
 20
196.2973562752739
 30
0.0
 10
326.6442895372389
 20
196.1625174470475
 30
0.0
 10
326.6254469073416
 20
196.033507431245
 30
0.0
 10
326.6002139371089
 20
195.9101317882518
 30
0.0
 10
326.5708460955104
 20
195.7921154876517
 30
0.0
 10
326.5351375629801
 20
195.6798229964579
 30
0.0
 10
326.4949451570946
 20
195.5735442471102
 30
0.0
 10
326.4501863273795
 20
195.4740042604122
 30
0.0
 10
326.4018038217659
 20
195.3816538368125
 30
0.0
 10
326.3511370441405
 20
195.2963740542637
 30
0.0
 10
326.2967825715121
 20
195.2189522139542
 30
0.0
 10
326.2391585143045
 20
195.149278778576
 30
0.0
 10
326.1788924453797
 20
195.086519842793
 30
0.0
 10
326.1154563782218
 20
195.031194902384
 30
0.0
 10
326.0479684917172
 20
194.9842323909932
 30
0.0
 10
325.976845944603
 20
194.9429873663813
 30
0.0
 10
325.9004586764211
 20
194.9085986943727
 30
0.0
 10
325.8192182826496
 20
194.8783395676113
 30
0.0
 10
325.7323392589457
 20
194.8546930231687
 30
0.0
 10
325.6406150440516
 20
194.8353104521682
 30
0.0
 10
325.5435478423406
 20
194.8219725628184
 30
0.0
 10
325.4413107898209
 20
194.8142504101163
 30
0.0
 10
325.3713581429332
 20
194.8131004931117
 30
0.0
 10
325.3355965909091
 20
194.8125126266247
 30
0.0
  0
SPLINE
  5
295
330
1F
100
AcDbEntity
  8
0
  6
Continuous
 62
     7
370
    25
100
AcDbSpline
210
0.0
220
0.0
230
1.0
 70
     8
 71
     3
 72
    23
 73
    19
 74
     0
 42
0.000000001
 43
0.00000001
 40
0.0
 40
0.0
 40
0.0
 40
0.0
 40
0.0888020249989599
 40
0.1690438221939707
 40
0.2412984384705505
 40
0.3055987735467961
 40
0.3614602812014786
 40
0.4094933830719599
 40
0.4495464594938949
 40
0.4818678640812722
 40
0.5389057168513094
 40
0.5962116047656744
 40
0.655284474422711
 40
0.7171583883965916
 40
0.7819971740158735
 40
0.8500813053860578
 40
0.9224248055745138
 40
1.0
 40
1.0
 40
1.0
 40
1.0
 10
331.7354545454546
 20
196.3714614902611
 30
0.0
 10
331.770533570455
 20
196.3609410019731
 30
0.0
 10
331.8373101159785
 20
196.3409141664188
 30
0.0
 10
331.9319905479321
 20
196.3102646004829
 30
0.0
 10
332.0165633833014
 20
196.2812454448227
 30
0.0
 10
332.0910168949077
 20
196.2537857601716
 30
0.0
 10
332.1553018935139
 20
196.2276409359746
 30
0.0
 10
332.2091012800653
 20
196.2025853489536
 30
0.0
 10
332.2537960552469
 20
196.1807564866471
 30
0.0
 10
332.2982434643996
 20
196.1510181731019
 30
0.0
 10
332.3445687868321
 20
196.1118546703732
 30
0.0
 10
332.3927913828545
 20
196.0587325699837
 30
0.0
 10
332.4341105602629
 20
195.9976694103497
 30
0.0
 10
332.4689738137563
 20
195.9292156417787
 30
0.0
 10
332.4963159034905
 20
195.8535219737729
 30
0.0
 10
332.5175154768137
 20
195.7713781699985
 30
0.0
 10
332.5281990444668
 20
195.6818736189005
 30
0.0
 10
332.5299849677137
 20
195.6200640653896
 30
0.0
 10
332.5309090909091
 20
195.5880808084429
 30
0.0
  0
SPLINE
  5
296
330
1F
100
AcDbEntity
  8
0
  6
Continuous
 62
     7
370
    25
100
AcDbSpline
210
0.0
220
0.0
230
1.0
 70
     8
 71
     3
 72
    15
 73
    11
 74
     0
 42
0.000000001
 43
0.00000001
 40
0.0
 40
0.0
 40
0.0
 40
0.0
 40
0.0564719285384476
 40
0.1326570773564946
 40
0.2281521911408201
 40
0.3431668580366659
 40
0.4767998177852612
 40
0.6316582076712588
 40
0.8051723455879789
 40
1.0
 40
1.0
 40
1.0
 40
1.0
 10
331.3277840909091
 20
196.5170580811701
 30
0.0
 10
331.3348340017758
 20
196.5129354711692
 30
0.0
 10
331.3513948063279
 20
196.5032511305072
 30
0.0
 10
331.3813679685512
 20
196.4893852698325
 30
0.0
 10
331.4197894072462
 20
196.473834293251
 30
0.0
 10
331.4666980508872
 20
196.4572453694959
 30
0.0
 10
331.5216031213872
 20
196.4375399225861
 30
0.0
 10
331.5853657267973
 20
196.4176391865024
 30
0.0
 10
331.6573209680756
 20
196.3943410553176
 30
0.0
 10
331.708424347528
 20
196.3793766426539
 30
0.0
 10
331.7354545454546
 20
196.3714614902611
 30
0.0
  0
SPLINE
  5
297
330
1F
100
AcDbEntity
  8
0
  6
Continuous
 62
     7
370
    25
100
AcDbSpline
210
0.0
220
0.0
230
1.0
 70
     8
 71
     3
 72
    11
 73
     7
 74
     0
 42
0.000000001
 43
0.00000001
 40
0.0
 40
0.0
 40
0.0
 40
0.0
 40
0.2533345299835125
 40
0.4960226624459858
 40
0.7370566853077676
 40
1.0
 40
1.0
 40
1.0
 40
1.0
 10
331.2127272727272
 20
196.7287058084429
 30
0.0
 10
331.2139314829416
 20
196.7074094958143
 30
0.0
 10
331.2162892963699
 20
196.6657118492637
 30
0.0
 10
331.2396718495208
 20
196.6076182440822
 30
0.0
 10
331.2763736531596
 20
196.5560618683034
 30
0.0
 10
331.3101577160396
 20
196.530430761961
 30
0.0
 10
331.3277840909091
 20
196.5170580811701
 30
0.0
  0
SPLINE
  5
298
330
1F
100
AcDbEntity
  8
0
  6
Continuous
 62
     7
370
    25
100
AcDbSpline
210
0.0
220
0.0
230
1.0
 70
     8
 71
     3
 72
    15
 73
    11
 74
     0
 42
0.000000001
 43
0.00000001
 40
0.0
 40
0.0
 40
0.0
 40
0.0
 40
0.1744475096522795
 40
0.3268824124617938
 40
0.4613472122667958
 40
0.5816380267185493
 40
0.6910705666047824
 40
0.7927892955004686
 40
0.8939382396375781
 40
1.0
 40
1.0
 40
1.0
 40
1.0
 10
331.6686931818182
 20
197.0397853538974
 30
0.0
 10
331.6326308537975
 20
197.038813090947
 30
0.0
 10
331.5650567118341
 20
197.0369912497558
 30
0.0
 10
331.4708374470826
 20
197.0207178051968
 30
0.0
 10
331.3903499895213
 20
196.9947126877265
 30
0.0
 10
331.3251121553768
 20
196.9559171894087
 30
0.0
 10
331.27508593676
 20
196.9083333008367
 30
0.0
 10
331.2390490938322
 20
196.8542826933591
 30
0.0
 10
331.2164424238775
 20
196.7936165319313
 30
0.0
 10
331.2139850770836
 20
196.7506820316089
 30
0.0
 10
331.2127272727272
 20
196.7287058084429
 30
0.0
  0
LINE
  5
299
330
1F
100
AcDbEntity
  8
0
  6
Continuous
 62
     7
370
    25
100
AcDbLine
 10
332.4854545455
 20
196.6761489903
 30
0.0
 11
332.1218181818
 21
196.6306944448
 31
0.0
  0
SPLINE
  5
29A
330
1F
100
AcDbEntity
  8
0
  6
Continuous
 62
     7
370
    25
100
AcDbSpline
210
0.0
220
0.0
230
1.0
 70
     8
 71
     3
 72
    19
 73
    15
 74
     0
 42
0.000000001
 43
0.00000001
 40
0.0
 40
0.0
 40
0.0
 40
0.0
 40
0.0940979807465284
 40
0.1832242239908924
 40
0.2679816082040672
 40
0.3505333049061091
 40
0.4292230974138174
 40
0.5039604698815182
 40
0.5757366039802707
 40
0.6459794083478002
 40
0.7197924729759911
 40
0.8026697393828564
 40
0.8958213810445659
 40
0.9999999999999999
 40
0.9999999999999999
 40
0.9999999999999999
 40
0.9999999999999999
 10
331.6559090909091
 20
197.4034217175338
 30
0.0
 10
331.6945457115036
 20
197.4022513628788
 30
0.0
 10
331.7697775578186
 20
197.3999724901362
 30
0.0
 10
331.8790188133652
 20
197.3846018924521
 30
0.0
 10
331.9809776059156
 20
197.3573397154484
 30
0.0
 10
332.074997500803
 20
197.3198491020246
 30
0.0
 10
332.1606088578914
 20
197.273967644637
 30
0.0
 10
332.23582640146
 20
197.2196922490217
 30
0.0
 10
332.3004851487244
 20
197.1581487681919
 30
0.0
 10
332.3555416122565
 20
197.0882358572052
 30
0.0
 10
332.4002526586133
 20
197.0060373136053
 30
0.0
 10
332.4366109119679
 20
196.9098993758338
 30
0.0
 10
332.4665605518112
 20
196.7985724996999
 30
0.0
 10
332.4789262131311
 20
196.7184492772678
 30
0.0
 10
332.4854545454545
 20
196.676148990261
 30
0.0
  0
SPLINE
  5
29B
330
1F
100
AcDbEntity
  8
0
  6
Continuous
 62
     7
370
    25
100
AcDbSpline
210
0.0
220
0.0
230
1.0
 70
     8
 71
     3
 72
    23
 73
    19
 74
     0
 42
0.000000001
 43
0.00000001
 40
0.0
 40
0.0
 40
0.0
 40
0.0
 40
0.0644363268042908
 40
0.1258667377151224
 40
0.1859381026629076
 40
0.2442596602086012
 40
0.3015808136688487
 40
0.3585695142859087
 40
0.4164511649581951
 40
0.475923306330246
 40
0.5359946712780324
 40
0.5958276290276497
 40
0.6573018210832177
 40
0.7202998620236516
 40
0.7854602006447301
 40
0.8533603183878387
 40
0.9245747987912779
 40
1.0
 40
1.0
 40
1.0
 40
1.0
 10
330.8490909090909
 20
196.6775694448065
 30
0.0
 10
330.8497782891741
 20
196.7038832276931
 30
0.0
 10
330.8511209834731
 20
196.7552832713197
 30
0.0
 10
330.8614973814131
 20
196.8306164191296
 30
0.0
 10
330.8773918145832
 20
196.9023807656199
 30
0.0
 10
330.900843968539
 20
196.9703860162342
 30
0.0
 10
330.9319869255772
 20
197.0337347045651
 30
0.0
 10
330.9681474293171
 20
197.0941459948588
 30
0.0
 10
331.0119090620095
 20
197.1505001773195
 30
0.0
 10
331.0622450899909
 20
197.2027190969455
 30
0.0
 10
331.1179498657193
 20
197.2505071879756
 30
0.0
 10
331.1800221301343
 20
197.2911848593197
 30
0.0
 10
331.2468203319346
 20
197.3260774788335
 30
0.0
 10
331.3189855214339
 20
197.3544679389839
 30
0.0
 10
331.3960556369155
 20
197.3765483383496
 30
0.0
 10
331.4781291846083
 20
197.3916981771489
 30
0.0
 10
331.5651961938253
 20
197.4023350474212
 30
0.0
 10
331.6250981025715
 20
197.4030526258033
 30
0.0
 10
331.6559090909091
 20
197.4034217175338
 30
0.0
  0
SPLINE
  5
29C
330
1F
100
AcDbEntity
  8
0
  6
Continuous
 62
     7
370
    25
100
AcDbSpline
210
0.0
220
0.0
230
1.0
 70
     8
 71
     3
 72
    23
 73
    19
 74
     0
 42
0.000000001
 43
0.00000001
 40
0.0
 40
0.0
 40
0.0
 40
0.0
 40
0.0803479529685884
 40
0.1540857697659217
 40
0.2217463782410224
 40
0.2830078046298348
 40
0.3384292434626339
 40
0.3876370850929206
 40
0.4310890015474597
 40
0.4683951320205009
 40
0.5353469519551292
 40
0.601101244154175
 40
0.6656147996428069
 40
0.7304355421121372
 40
0.7957028268409425
 40
0.8616285479192456
 40
0.9296396743680707
 40
1.0
 40
1.0
 40
1.0
 40
1.0
 10
331.7411363636363
 20
195.8970296720792
 30
0.0
 10
331.7079631512179
 20
195.9071159451363
 30
0.0
 10
331.6443458494417
 20
195.9264587048539
 30
0.0
 10
331.553258343374
 20
195.9557820405875
 30
0.0
 10
331.4701874510289
 20
195.9831246853063
 30
0.0
 10
331.3953225152882
 20
196.0100704291726
 30
0.0
 10
331.3288500241783
 20
196.0366511844604
 30
0.0
 10
331.2695309822825
 20
196.0604180596995
 30
0.0
 10
331.2184112348733
 20
196.0835677883006
 30
0.0
 10
331.1621097294665
 20
196.1135261854645
 30
0.0
 10
331.1005577054372
 20
196.1537862227237
 30
0.0
 10
331.0355630279308
 20
196.2091455864741
 30
0.0
 10
330.9797158329931
 20
196.2724665227097
 30
0.0
 10
330.9324101753724
 20
196.3421804330432
 30
0.0
 10
330.8956816016455
 20
196.4186627445318
 30
0.0
 10
330.8680570987855
 20
196.5003217812339
 30
0.0
 10
330.8526418056472
 20
196.5875042729964
 30
0.0
 10
330.8502878626201
 20
196.6472098374381
 30
0.0
 10
330.8490909090909
 20
196.6775694448065
 30
0.0
  0
SPLINE
  5
29D
330
1F
100
AcDbEntity
  8
0
  6
Continuous
 62
     7
370
    25
100
AcDbSpline
210
0.0
220
0.0
230
1.0
 70
     8
 71
     3
 72
    15
 73
    11
 74
     0
 42
0.000000001
 43
0.00000001
 40
0.0
 40
0.0
 40
0.0
 40
0.0
 40
0.0610041680348465
 40
0.1413951950876469
 40
0.2376911451785598
 40
0.3520340277813426
 40
0.4865134538123948
 40
0.638400655607832
 40
0.810735948977014
 40
1.0
 40
1.0
 40
1.0
 40
1.0
 10
332.0841761363636
 20
195.7564046720792
 30
0.0
 10
332.0783711603779
 20
195.7612971570443
 30
0.0
 10
332.0649164123102
 20
195.7726369373968
 30
0.0
 10
332.0392211297179
 20
195.7874288008033
 30
0.0
 10
332.0070576683651
 20
195.8039105244619
 30
0.0
 10
331.9676614782657
 20
195.8209542927341
 30
0.0
 10
331.9209236279173
 20
195.8381128837531
 30
0.0
 10
331.8674254072308
 20
195.8577773111631
 30
0.0
 10
331.806651774109
 20
195.8772357566126
 30
0.0
 10
331.7636459587441
 20
195.8902289358931
 30
0.0
 10
331.7411363636363
 20
195.8970296720792
 30
0.0
  0
SPLINE
  5
29E
330
1F
100
AcDbEntity
  8
0
  6
Continuous
 62
     7
370
    25
100
AcDbSpline
210
0.0
220
0.0
230
1.0
 70
     8
 71
     3
 72
    11
 73
     7
 74
     0
 42
0.000000001
 43
0.00000001
 40
0.0
 40
0.0
 40
0.0
 40
0.0
 40
0.2800024894960485
 40
0.533178543664111
 40
0.7691212689052842
 40
1.0
 40
1.0
 40
1.0
 40
1.0
 10
332.1672727272727
 20
195.5255808084429
 30
0.0
 10
332.1664925328025
 20
195.5491238513351
 30
0.0
 10
332.1650068926136
 20
195.5939543288974
 30
0.0
 10
332.1491023250168
 20
195.6569671079716
 30
0.0
 10
332.1228416768476
 20
195.7121317567635
 30
0.0
 10
332.0969711034352
 20
195.7417541464034
 30
0.0
 10
332.0841761363636
 20
195.7564046720792
 30
0.0
  0
SPLINE
  5
29F
330
1F
100
AcDbEntity
  8
0
  6
Continuous
 62
     7
370
    25
100
AcDbSpline
210
0.0
220
0.0
230
1.0
 70
     8
 71
     3
 72
    15
 73
    11
 74
     0
 42
0.000000001
 43
0.00000001
 40
0.0
 40
0.0
 40
0.0
 40
0.0
 40
0.1542702648641901
 40
0.2919558213672656
 40
0.419290313497259
 40
0.5397792421130223
 40
0.6560244828035149
 40
0.7677850657837908
 40
0.8804278840528513
 40
1.0
 40
1.0
 40
1.0
 40
1.0
 10
331.6956818181818
 20
195.1306944448065
 30
0.0
 10
331.7313098256789
 20
195.1319347194033
 30
0.0
 10
331.7987356786238
 20
195.1342819338126
 30
0.0
 10
331.8937689368932
 20
195.1550457033823
 30
0.0
 10
331.9765142209372
 20
195.189415430866
 30
0.0
 10
332.0448530087633
 20
195.239506215227
 30
0.0
 10
332.0991505789003
 20
195.2994451903966
 30
0.0
 10
332.139702004347
 20
195.3674765678984
 30
0.0
 10
332.1629501402102
 20
195.4443310648367
 30
0.0
 10
332.165803483646
 20
195.4979640904351
 30
0.0
 10
332.1672727272727
 20
195.5255808084429
 30
0.0
  0
SPLINE
  5
2A0
330
1F
100
AcDbEntity
  8
0
  6
Continuous
 62
     7
370
    25
100
AcDbSpline
210
0.0
220
0.0
230
1.0
 70
     8
 71
     3
 72
    15
 73
    11
 74
     0
 42
0.000000001
 43
0.00000001
 40
0.0
 40
0.0
 40
0.0
 40
0.0
 40
0.1486602329898506
 40
0.2817900771618579
 40
0.4040342802842953
 40
0.5181502331779344
 40
0.6308884781878117
 40
0.746060154752101
 40
0.8674901524067969
 40
1.0
 40
1.0
 40
1.0
 40
1.0
 10
331.1672727272727
 20
195.6306944448065
 30
0.0
 10
331.1734261229698
 20
195.5908983064694
 30
0.0
 10
331.1850900751475
 20
195.5154634933576
 30
0.0
 10
331.2201380260894
 20
195.411324809183
 30
0.0
 10
331.2682069150628
 20
195.3229826303819
 30
0.0
 10
331.3308614253406
 20
195.2512593165696
 30
0.0
 10
331.4062913113966
 20
195.1964058492453
 30
0.0
 10
331.4931997863784
 20
195.1578589489052
 30
0.0
 10
331.5910445304355
 20
195.134806318992
 30
0.0
 10
331.6598027081484
 20
195.1321043665421
 30
0.0
 10
331.6956818181818
 20
195.1306944448065
 30
0.0
  0
LINE
  5
2A1
330
1F
100
AcDbEntity
  8
0
  6
Continuous
 62
     7
370
    25
100
AcDbLine
 10
330.8036363636
 20
195.5852398994
 30
0.0
 11
331.1672727273
 21
195.6306944448
 31
0.0
  0
SPLINE
  5
2A2
330
1F
100
AcDbEntity
  8
0
  6
Continuous
 62
     7
370
    25
100
AcDbSpline
210
0.0
220
0.0
230
1.0
 70
     8
 71
     3
 72
    23
 73
    19
 74
     0
 42
0.000000001
 43
0.00000001
 40
0.0
 40
0.0
 40
0.0
 40
0.0
 40
0.0685982000108931
 40
0.1337684207341331
 40
0.1965722569929141
 40
0.2562287272301801
 40
0.3146023216973862
 40
0.3708951153036785
 40
0.4271879089099697
 40
0.4830691009199767
 40
0.5398892390028422
 40
0.597518718014747
 40
0.6574054859212541
 40
0.719194267109141
 40
0.7843292749589591
 40
0.8522468537509189
 40
0.9244620033624396
 40
1.0
 40
1.0
 40
1.0
 40
1.0
 10
331.6708238636364
 20
194.7670580811701
 30
0.0
 10
331.6405025021684
 20
194.7678422565513
 30
0.0
 10
331.5813749939038
 20
194.7693714206155
 30
0.0
 10
331.4947946131848
 20
194.778316263373
 30
0.0
 10
331.4134243223899
 20
194.7948723540333
 30
0.0
 10
331.3363587772063
 20
194.8165965545831
 30
0.0
 10
331.2649284312006
 20
194.8458855737725
 30
0.0
 10
331.1977417246519
 20
194.8808145398319
 30
0.0
 10
331.1362091232536
 20
194.9230174200201
 30
0.0
 10
331.0785168972054
 20
194.9707230560474
 30
0.0
 10
331.0269911309171
 20
195.0258480884984
 30
0.0
 10
330.9793969038139
 20
195.0866257079599
 30
0.0
 10
330.937933007437
 20
195.154348117736
 30
0.0
 10
330.9005448452431
 20
195.2280882324323
 30
0.0
 10
330.868955714921
 20
195.3083535902919
 30
0.0
 10
330.8420549506561
 20
195.39506250434
 30
0.0
 10
330.8189729673347
 20
195.4876819759886
 30
0.0
 10
330.8088246407154
 20
195.5522366642405
 30
0.0
 10
330.8036363636364
 20
195.585239899352
 30
0.0
  0
SPLINE
  5
2A3
330
1F
100
AcDbEntity
  8
0
  6
Continuous
 62
     7
370
    25
100
AcDbSpline
210
0.0
220
0.0
230
1.0
 70
     8
 71
     3
 72
    23
 73
    19
 74
     0
 42
0.000000001
 43
0.00000001
 40
0.0
 40
0.0
 40
0.0
 40
0.0
 40
0.0667365676275932
 40
0.1307394576781663
 40
0.1926219323102793
 40
0.2527062673934878
 40
0.3114422337405043
 40
0.3702615929787219
 40
0.4289021079482177
 40
0.4884620470024314
 40
0.5484554105456722
 40
0.6080717555211879
 40
0.6677538400275177
 40
0.7291865847145691
 40
0.7928053990892737
 40
0.8587142205001844
 40
0.9274460170065547
 40
1.0
 40
1.0
 40
1.0
 40
1.0
 10
332.5309090909091
 20
195.5880808084429
 30
0.0
 10
332.5302331919862
 20
195.5582241115681
 30
0.0
 10
332.5289090804569
 20
195.4997337142307
 30
0.0
 10
332.5183441313762
 20
195.4140188237938
 30
0.0
 10
332.4994384294533
 20
195.3329194116926
 30
0.0
 10
332.4752150151902
 20
195.2556346947778
 30
0.0
 10
332.4417342724437
 20
195.1833810527478
 30
0.0
 10
332.4022830768753
 20
195.1149958856939
 30
0.0
 10
332.3548012037405
 20
195.051418603954
 30
0.0
 10
332.3009692021574
 20
194.9924461290333
 30
0.0
 10
332.2407140236199
 20
194.9393763089203
 30
0.0
 10
332.1752261909563
 20
194.8927582685768
 30
0.0
 10
332.1039032074477
 20
194.8543403492093
 30
0.0
 10
332.027661644783
 20
194.8221319296776
 30
0.0
 10
331.945713838912
 20
194.7974634722616
 30
0.0
 10
331.8587016289499
 20
194.779840419888
 30
0.0
 10
331.7665075760542
 20
194.7689450138774
 30
0.0
 10
331.7032885201744
 20
194.7676983011272
 30
0.0
 10
331.6708238636364
 20
194.7670580811701
 30
0.0
  0
LINE
  5
2A4
330
1F
100
AcDbEntity
  8
0
  6
Continuous
 62
     7
370
    25
100
AcDbLine
 10
333.0763636364
 20
195.3125126266
 30
0.0
 11
333.44
 21
195.3125126266
 31
0.0
  0
LINE
  5
2A5
330
1F
100
AcDbEntity
  8
0
  6
Continuous
 62
     7
370
    25
100
AcDbLine
 10
333.0763636364
 20
194.8125126266
 30
0.0
 11
333.0763636364
 21
195.3125126266
 31
0.0
  0
LINE
  5
2A6
330
1F
100
AcDbEntity
  8
0
  6
Continuous
 62
     7
370
    25
100
AcDbLine
 10
333.44
 20
194.8125126266
 30
0.0
 11
333.0763636364
 21
194.8125126266
 31
0.0
  0
LINE
  5
2A7
330
1F
100
AcDbEntity
  8
0
  6
Continuous
 62
     7
370
    25
100
AcDbLine
 10
333.44
 20
195.3125126266
 30
0.0
 11
333.44
 21
194.8125126266
 31
0.0
  0
SPLINE
  5
2A8
330
1F
100
AcDbEntity
  8
0
  6
Continuous
 62
     7
370
    25
100
AcDbSpline
210
0.0
220
0.0
230
1.0
 70
     8
 71
     3
 72
    11
 73
     7
 74
     0
 42
0.000000001
 43
0.00000001
 40
0.0
 40
0.0
 40
0.0
 40
0.0
 40
0.2427338836200175
 40
0.4890531082323479
 40
0.7416065579580067
 40
1.0
 40
1.0
 40
1.0
 40
1.0
 10
334.5500852272727
 20
196.6520012629883
 30
0.0
 10
334.5399774373192
 20
196.6107007847919
 30
0.0
 10
334.519612558628
 20
196.527489792852
 30
0.0
 10
334.5005144807501
 20
196.3989171061873
 30
0.0
 10
334.4879540632193
 20
196.2668365388078
 30
0.0
 10
334.4862940425799
 20
196.1773629990637
 30
0.0
 10
334.4854545454546
 20
196.132114899352
 30
0.0
  0
SPLINE
  5
2A9
330
1F
100
AcDbEntity
  8
0
  6
Continuous
 62
     7
370
    25
100
AcDbSpline
210
0.0
220
0.0
230
1.0
 70
     8
 71
     3
 72
    15
 73
    11
 74
     0
 42
0.000000001
 43
0.00000001
 40
0.0
 40
0.0
 40
0.0
 40
0.0
 40
0.1128482450535508
 40
0.2237707476587509
 40
0.3390101317530223
 40
0.4609584624010872
 40
0.5859784711844869
 40
0.7164536607227071
 40
0.8531371885918307
 40
0.9999999999999999
 40
0.9999999999999999
 40
0.9999999999999999
 40
0.9999999999999999
 10
334.8753693181819
 20
196.9488762629883
 30
0.0
 10
334.8574892879462
 20
196.9479807672394
 30
0.0
 10
334.8220343481543
 20
196.9462050572745
 30
0.0
 10
334.7705427428326
 20
196.9299025529095
 30
0.0
 10
334.720725705627
 20
196.9059942353358
 30
0.0
 10
334.6752610835128
 20
196.8706840003727
 30
0.0
 10
334.63326866007
 20
196.8279812842481
 30
0.0
 10
334.598848615211
 20
196.7761040840915
 30
0.0
 10
334.5697746792877
 20
196.7172163616197
 30
0.0
 10
334.5568035980913
 20
196.6742537469702
 30
0.0
 10
334.5500852272727
 20
196.6520012629883
 30
0.0
  0
SPLINE
  5
2AA
330
1F
100
AcDbEntity
  8
0
  6
Continuous
 62
     7
370
    25
100
AcDbSpline
210
0.0
220
0.0
230
1.0
 70
     8
 71
     3
 72
    11
 73
     7
 74
     0
 42
0.000000001
 43
0.00000001
 40
0.0
 40
0.0
 40
0.0
 40
0.0
 40
0.2631914158914981
 40
0.5150108514500544
 40
0.7599583482797367
 40
1.0
 40
1.0
 40
1.0
 40
1.0
 10
335.1218181818182
 20
196.9034217175338
 30
0.0
 10
335.1008506956409
 20
196.910407577228
 30
0.0
 10
335.059821686878
 20
196.9240774514413
 30
0.0
 10
334.9975396668901
 20
196.9381963727878
 30
0.0
 10
334.9362411695253
 20
196.9472016800241
 30
0.0
 10
334.895522640957
 20
196.9483218456304
 30
0.0
 10
334.8753693181819
 20
196.9488762629883
 30
0.0
  0
LINE
  5
2AB
330
1F
100
AcDbEntity
  8
0
  6
Continuous
 62
     7
370
    25
100
AcDbLine
 10
335.2581818182
 20
197.2670580812
 30
0.0
 11
335.1218181818
 21
196.9034217175
 31
0.0
  0
SPLINE
  5
2AC
330
1F
100
AcDbEntity
  8
0
  6
Continuous
 62
     7
370
    25
100
AcDbSpline
210
0.0
220
0.0
230
1.0
 70
     8
 71
     3
 72
    11
 73
     7
 74
     0
 42
0.000000001
 43
0.00000001
 40
0.0
 40
0.0
 40
0.0
 40
0.0
 40
0.2261087100499863
 40
0.4629556926786628
 40
0.7199783096476559
 40
1.0
 40
1.0
 40
1.0
 40
1.0
 10
334.9151420454545
 20
197.4034217175338
 30
0.0
 10
334.9435080379948
 20
197.4017301065976
 30
0.0
 10
335.0015871704709
 20
197.3982665473542
 30
0.0
 10
335.0881230604633
 20
197.3704010338448
 30
0.0
 10
335.1756082643478
 20
197.3278369195371
 30
0.0
 10
335.2298825300107
 20
197.2878879689707
 30
0.0
 10
335.2581818181819
 20
197.2670580811701
 30
0.0
  0
SPLINE
  5
2AD
330
1F
100
AcDbEntity
  8
0
  6
Continuous
 62
     7
370
    25
100
AcDbSpline
210
0.0
220
0.0
230
1.0
 70
     8
 71
     3
 72
    19
 73
    15
 74
     0
 42
0.000000001
 43
0.00000001
 40
0.0
 40
0.0
 40
0.0
 40
0.0
 40
0.1074641575763819
 40
0.2071278442969117
 40
0.2981499594408161
 40
0.3815951115316691
 40
0.4571065637987443
 40
0.5239784429531148
 40
0.5848779813153256
 40
0.6371486459391844
 40
0.7325112188499237
 40
0.8235648458920004
 40
0.9106767658710344
 40
1.0
 40
1.0
 40
1.0
 40
1.0
 10
334.4854545454546
 20
196.9517171720792
 30
0.0
 10
334.4947327864327
 20
196.9735847452547
 30
0.0
 10
334.5126157912969
 20
197.015732596166
 30
0.0
 10
334.5414288625792
 20
197.0750022604687
 30
0.0
 10
334.5679667822714
 20
197.1294815797211
 30
0.0
 10
334.595120133165
 20
197.1776189510435
 30
0.0
 10
334.6210322956844
 20
197.2202973982814
 30
0.0
 10
334.6469198815675
 20
197.2570570564538
 30
0.0
 10
334.6719885614831
 20
197.2880095497997
 30
0.0
 10
334.7040451430665
 20
197.3212010200345
 30
0.0
 10
334.7457881644997
 20
197.3539152061683
 30
0.0
 10
334.7991566845993
 20
197.3829369981643
 30
0.0
 10
334.8563460854815
 20
197.4001057917067
 30
0.0
 10
334.8953803162638
 20
197.4023072119072
 30
0.0
 10
334.9151420454545
 20
197.4034217175338
 30
0.0
  0
LINE
  5
2AE
330
1F
100
AcDbEntity
  8
0
  6
Continuous
 62
     7
370
    25
100
AcDbLine
 10
334.4854545455
 20
197.3579671721
 30
0.0
 11
334.4854545455
 21
196.9517171721
 31
0.0
  0
LINE
  5
2AF
330
1F
100
AcDbEntity
  8
0
  6
Continuous
 62
     7
370
    25
100
AcDbLine
 10
334.1218181818
 20
197.3579671721
 30
0.0
 11
334.4854545455
 21
197.3579671721
 31
0.0
  0
LINE
  5
2B0
330
1F
100
AcDbEntity
  8
0
  6
Continuous
 62
     7
370
    25
100
AcDbLine
 10
334.1218181818
 20
194.8125126266
 30
0.0
 11
334.1218181818
 21
197.3579671721
 31
0.0
  0
LINE
  5
2B1
330
1F
100
AcDbEntity
  8
0
  6
Continuous
 62
     7
370
    25
100
AcDbLine
 10
334.4854545455
 20
194.8125126266
 30
0.0
 11
334.1218181818
 21
194.8125126266
 31
0.0
  0
LINE
  5
2B2
330
1F
100
AcDbEntity
  8
0
  6
Continuous
 62
     7
370
    25
100
AcDbLine
 10
334.4854545455
 20
196.1321148994
 30
0.0
 11
334.4854545455
 21
194.8125126266
 31
0.0
  0
LINE
  5
2B3
330
1F
100
AcDbEntity
  8
0
  6
Continuous
 62
     7
370
    25
100
AcDbLine
 10
335.5309090909
 20
195.3125126266
 30
0.0
 11
335.8945454545
 21
195.3125126266
 31
0.0
  0
LINE
  5
2B4
330
1F
100
AcDbEntity
  8
0
  6
Continuous
 62
     7
370
    25
100
AcDbLine
 10
335.5309090909
 20
194.8125126266
 30
0.0
 11
335.5309090909
 21
195.3125126266
 31
0.0
  0
LINE
  5
2B5
330
1F
100
AcDbEntity
  8
0
  6
Continuous
 62
     7
370
    25
100
AcDbLine
 10
335.8945454545
 20
194.8125126266
 30
0.0
 11
335.5309090909
 21
194.8125126266
 31
0.0
  0
LINE
  5
2B6
330
1F
100
AcDbEntity
  8
0
  6
Continuous
 62
     7
370
    25
100
AcDbLine
 10
335.8945454545
 20
195.3125126266
 30
0.0
 11
335.8945454545
 21
194.8125126266
 31
0.0
  0
SPLINE
  5
2B7
330
1F
100
AcDbEntity
  8
0
  6
Continuous
 62
     7
370
    25
100
AcDbSpline
210
0.0
220
0.0
230
1.0
 70
     8
 71
     3
 72
    23
 73
    19
 74
     0
 42
0.000000001
 43
0.00000001
 40
0.0
 40
0.0
 40
0.0
 40
0.0
 40
0.0562994607896006
 40
0.1104843795282414
 40
0.1640180816267187
 40
0.2170997971745965
 40
0.2702389387310961
 40
0.3246247121116271
 40
0.3805013890915533
 40
0.4390826992767441
 40
0.499299389674247
 40
0.561252369694765
 40
0.6252109899383523
 40
0.6923896064580334
 40
0.7627611560156048
 40
0.8371679241845501
 40
0.9163985854960467
 40
0.9999999999999999
 40
0.9999999999999999
 40
0.9999999999999999
 40
0.9999999999999999
 10
337.4172727272727
 20
197.4034217175338
 30
0.0
 10
337.4514257940174
 20
197.402563898165
 30
0.0
 10
337.5184491781732
 20
197.4008804781219
 30
0.0
 10
337.616881725683
 20
197.3846707511729
 30
0.0
 10
337.7108702701091
 20
197.3582703170877
 30
0.0
 10
337.8010509111127
 20
197.3222389519573
 30
0.0
 10
337.8860620099001
 20
197.2743495990604
 30
0.0
 10
337.9675755950343
 20
197.2177173878172
 30
0.0
 10
338.0438502129257
 20
197.1491146328435
 30
0.0
 10
338.1159334535028
 20
197.07139862147
 30
0.0
 10
338.1826847345987
 20
196.984153436225
 30
0.0
 10
338.238963076426
 20
196.8860718261616
 30
0.0
 10
338.2879612020785
 20
196.779555307414
 30
0.0
 10
338.3263461469109
 20
196.6633613108717
 30
0.0
 10
338.356998862076
 20
196.5384483691485
 30
0.0
 10
338.3786373252021
 20
196.4042659073775
 30
0.0
 10
338.392458079338
 20
196.2609566160816
 30
0.0
 10
338.3938373222226
 20
196.162214558711
 30
0.0
 10
338.3945454545454
 20
196.1115183084429
 30
0.0
  0
SPLINE
  5
2B8
330
1F
100
AcDbEntity
  8
0
  6
Continuous
 62
     7
370
    25
100
AcDbSpline
210
0.0
220
0.0
230
1.0
 70
     8
 71
     3
 72
    23
 73
    19
 74
     0
 42
0.000000001
 43
0.00000001
 40
0.0
 40
0.0
 40
0.0
 40
0.0
 40
0.0857884597734095
 40
0.1664595412497267
 40
0.2420111369601069
 40
0.3134663157291132
 40
0.3807163806375298
 40
0.4449486700082225
 40
0.506098935293161
 40
0.5652478392428205
 40
0.6226765458477631
 40
0.6777025803252646
 40
0.7312604080786559
 40
0.7839272137527556
 40
0.8362008360891703
 40
0.8892899562354006
 40
0.9437893878328157
 40
1.0
 40
1.0
 40
1.0
 40
1.0
 10
336.44
 20
196.085239899352
 30
0.0
 10
336.4407973245227
 20
196.1380555081189
 30
0.0
 10
336.4423444122619
 20
196.2405362150741
 30
0.0
 10
336.4548262879198
 20
196.3891681526925
 30
0.0
 10
336.4772546371306
 20
196.5276078184511
 30
0.0
 10
336.5061100321878
 20
196.6564715857675
 30
0.0
 10
336.5456560345975
 20
196.7751786863608
 30
0.0
 10
336.592772949882
 20
196.884201657764
 30
0.0
 10
336.6491969451648
 20
196.9830869376798
 30
0.0
 10
336.7140544851661
 20
197.0715094968796
 30
0.0
 10
336.7858041714243
 20
197.1492803117219
 30
0.0
 10
336.8620235899037
 20
197.2176744646586
 30
0.0
 10
336.9436205638928
 20
197.2745804206643
 30
0.0
 10
337.0291081925011
 20
197.3220350916083
 30
0.0
 10
337.1195959321357
 20
197.3584222411685
 30
0.0
 10
337.2145758026271
 20
197.3848279473227
 30
0.0
 10
337.3144573906273
 20
197.4008175246632
 30
0.0
 10
337.3826496125914
 20
197.4025447543165
 30
0.0
 10
337.4172727272727
 20
197.4034217175338
 30
0.0
  0
SPLINE
  5
2B9
330
1F
100
AcDbEntity
  8
0
  6
Continuous
 62
     7
370
    25
100
AcDbSpline
210
0.0
220
0.0
230
1.0
 70
     8
 71
     3
 72
    23
 73
    19
 74
     0
 42
0.000000001
 43
0.00000001
 40
0.0
 40
0.0
 40
0.0
 40
0.0
 40
0.0555165611084294
 40
0.1097085344297011
 40
0.1624977974568805
 40
0.2149870510369026
 40
0.267724322230557
 40
0.3210390591854521
 40
0.376682347756316
 40
0.4341878910631724
 40
0.4936445727982243
 40
0.555402323043014
 40
0.6193680003177868
 40
0.6871951297332708
 40
0.7584593421547615
 40
0.8340522164131875
 40
0.914481696642712
 40
1.0
 40
1.0
 40
1.0
 40
1.0
 10
337.4172727272727
 20
194.7670580811701
 30
0.0
 10
337.3831217512974
 20
194.7679420243356
 30
0.0
 10
337.3156346186508
 20
194.7696888203775
 30
0.0
 10
337.2167165210129
 20
194.7856940829648
 30
0.0
 10
337.1220565340797
 20
194.8119880644937
 30
0.0
 10
337.0321400627462
 20
194.8493579659993
 30
0.0
 10
336.9465179096547
 20
194.8963320508962
 30
0.0
 10
336.8652515359983
 20
194.9539759146893
 30
0.0
 10
336.7888308815612
 20
195.0223313600313
 30
0.0
 10
336.7169483863162
 20
195.1006094924426
 30
0.0
 10
336.6511060128818
 20
195.1888684298789
 30
0.0
 10
336.5944695281785
 20
195.2879435800845
 30
0.0
 10
336.5468555141287
 20
195.3971905559873
 30
0.0
 10
336.5071686829372
 20
195.5157159317107
 30
0.0
 10
336.4766448669762
 20
195.6443220897893
 30
0.0
 10
336.4561739660882
 20
195.7826404348016
 30
0.0
 10
336.4419777863134
 20
195.9305903685856
 30
0.0
 10
336.4406726033398
 20
196.0326468612733
 30
0.0
 10
336.44
 20
196.085239899352
 30
0.0
  0
SPLINE
  5
2BA
330
1F
100
AcDbEntity
  8
0
  6
Continuous
 62
     7
370
    25
100
AcDbSpline
210
0.0
220
0.0
230
1.0
 70
     8
 71
     3
 72
    23
 73
    19
 74
     0
 42
0.000000001
 43
0.00000001
 40
0.0
 40
0.0
 40
0.0
 40
0.0
 40
0.0880029041958866
 40
0.1701931607871305
 40
0.2473127300446648
 40
0.3196189682101209
 40
0.3873720857078116
 40
0.4512539639810209
 40
0.512210248583317
 40
0.5708398966999927
 40
0.6272114454665151
 40
0.6814696201629239
 40
0.7342800761988156
 40
0.7862119439065545
 40
0.8381078045548316
 40
0.8904560935552059
 40
0.9441950138416841
 40
1.0
 40
1.0
 40
1.0
 40
1.0
 10
338.3945454545454
 20
196.1115183084429
 30
0.0
 10
338.3937598621389
 20
196.0565720470906
 30
0.0
 10
338.392240566202
 20
195.9503087597773
 30
0.0
 10
338.3796815237855
 20
195.7962534396062
 30
0.0
 10
338.3574101142308
 20
195.653295890368
 30
0.0
 10
338.3285368357965
 20
195.520644926143
 30
0.0
 10
338.2889772039882
 20
195.3994373362657
 30
0.0
 10
338.2425875778378
 20
195.2883073777187
 30
0.0
 10
338.1862334875961
 20
195.1882532053096
 30
0.0
 10
338.121364843771
 20
195.0993083717217
 30
0.0
 10
338.050159538911
 20
195.0209835354916
 30
0.0
 10
337.9739147181735
 20
194.9528274486922
 30
0.0
 10
337.8923441858392
 20
194.8959145283198
 30
0.0
 10
337.8066961949515
 20
194.8482573109622
 30
0.0
 10
337.7158327165972
 20
194.8122145844444
 30
0.0
 10
337.6206906468805
 20
194.7856249533027
 30
0.0
 10
337.5205610240931
 20
194.7696314572018
 30
0.0
 10
337.4521323618529
 20
194.7679265914551
 30
0.0
 10
337.4172727272727
 20
194.7670580811701
 30
0.0
  0
CIRCLE
  5
2BB
330
1F
100
AcDbEntity
  8
0
  6
Continuous
 62
     7
370
    25
100
AcDbCircle
 10
326.94
 20
212.3125126266
 30
0.0
 40
7.0
  0
LINE
  5
2BC
330
1F
100
AcDbEntity
  8
0
  6
Continuous
 62
     7
370
    25
100
AcDbLine
 10
271.94
 20
192.8125126266
 30
0.0
 11
348.94
 21
192.8125126266
 31
0.0
  0
LINE
  5
2BD
330
1F
100
AcDbEntity
  8
0
  6
Continuous
 62
     7
370
    25
100
AcDbLine
 10
271.94
 20
231.8125126266
 30
0.0
 11
271.94
 21
192.8125126266
 31
0.0
  0
LINE
  5
2BE
330
1F
100
AcDbEntity
  8
0
  6
Continuous
 62
     7
370
    25
100
AcDbLine
 10
271.94
 20
231.8125126266
 30
0.0
 11
348.94
 21
231.8125126266
 31
0.0
  0
LINE
  5
2BF
330
1F
100
AcDbEntity
  8
0
  6
Continuous
 62
     7
370
    25
100
AcDbLine
 10
348.94
 20
231.8125126266
 30
0.0
 11
348.94
 21
192.8125126266
 31
0.0
  0
LINE
  5
2C0
330
1F
100
AcDbEntity
  8
0
  6
Continuous
 62
     7
370
    25
100
AcDbLine
 10
338.8945454545
 20
195.3125126266
 30
0.0
 11
339.2581818182
 21
195.3125126266
 31
0.0
  0
LINE
  5
2C1
330
1F
100
AcDbEntity
  8
0
  6
Continuous
 62
     7
370
    25
100
AcDbLine
 10
338.8945454545
 20
194.8125126266
 30
0.0
 11
338.8945454545
 21
195.3125126266
 31
0.0
  0
LINE
  5
2C2
330
1F
100
AcDbEntity
  8
0
  6
Continuous
 62
     7
370
    25
100
AcDbLine
 10
339.2581818182
 20
194.8125126266
 30
0.0
 11
338.8945454545
 21
194.8125126266
 31
0.0
  0
LINE
  5
2C3
330
1F
100
AcDbEntity
  8
0
  6
Continuous
 62
     7
370
    25
100
AcDbLine
 10
339.2581818182
 20
195.3125126266
 30
0.0
 11
339.2581818182
 21
194.8125126266
 31
0.0
  0
LINE
  5
2C4
330
1F
100
AcDbEntity
  8
0
  6
Continuous
 62
     7
370
    25
100
AcDbLine
 10
328.8015056818
 20
195.8579671721
 30
0.0
 11
327.5784943182
 21
195.8579671721
 31
0.0
  0
LINE
  5
2C5
330
1F
100
AcDbEntity
  8
0
  6
Continuous
 62
     7
370
    25
100
AcDbLine
 10
329.1076136364
 20
194.8125126266
 30
0.0
 11
328.8015056818
 21
195.8579671721
 31
0.0
  0
LINE
  5
2C6
330
1F
100
AcDbEntity
  8
0
  6
Continuous
 62
     7
370
    25
100
AcDbLine
 10
329.4854545455
 20
194.8125126266
 30
0.0
 11
329.1076136364
 21
194.8125126266
 31
0.0
  0
LINE
  5
2C7
330
1F
100
AcDbEntity
  8
0
  6
Continuous
 62
     7
370
    25
100
AcDbLine
 10
328.3668465909
 20
198.3125126266
 30
0.0
 11
329.4854545455
 21
194.8125126266
 31
0.0
  0
LINE
  5
2C8
330
1F
100
AcDbEntity
  8
0
  6
Continuous
 62
     7
370
    25
100
AcDbLine
 10
328.0124431818
 20
198.3125126266
 30
0.0
 11
328.3668465909
 21
198.3125126266
 31
0.0
  0
LINE
  5
2C9
330
1F
100
AcDbEntity
  8
0
  6
Continuous
 62
     7
370
    25
100
AcDbLine
 10
326.8945454545
 20
194.8125126266
 30
0.0
 11
328.0124431818
 21
198.3125126266
 31
0.0
  0
LINE
  5
2CA
330
1F
100
AcDbEntity
  8
0
  6
Continuous
 62
     7
370
    25
100
AcDbLine
 10
327.2730965909
 20
194.8125126266
 30
0.0
 11
326.8945454545
 21
194.8125126266
 31
0.0
  0
LINE
  5
2CB
330
1F
100
AcDbEntity
  8
0
  6
Continuous
 62
     7
370
    25
100
AcDbLine
 10
327.5784943182
 20
195.8579671721
 30
0.0
 11
327.2730965909
 21
194.8125126266
 31
0.0
  0
SPLINE
  5
2CC
330
1F
100
AcDbEntity
  8
0
  6
Continuous
 62
     7
370
    25
100
AcDbSpline
210
0.0
220
0.0
230
1.0
 70
     8
 71
     3
 72
    15
 73
    11
 74
     0
 42
0.000000001
 43
0.00000001
 40
0.0
 40
0.0
 40
0.0
 40
0.0
 40
0.1337649070426882
 40
0.2614594112704884
 40
0.3854851197582153
 40
0.5058365689440522
 40
0.6259462731828805
 40
0.7469128434188625
 40
0.8709845759429885
 40
1.0
 40
1.0
 40
1.0
 40
1.0
 10
323.4925568181818
 20
195.3018592175338
 30
0.0
 10
323.459336292551
 20
195.2594459674724
 30
0.0
 10
323.394402826326
 20
195.1765442286213
 30
0.0
 10
323.2839593696101
 20
195.0669334345853
 30
0.0
 10
323.1658761940573
 20
194.9743716660853
 30
0.0
 10
323.0403635447123
 20
194.8976363282694
 30
0.0
 10
322.9065518068521
 20
194.839517795118
 30
0.0
 10
322.7655051312212
 20
194.7971944182335
 30
0.0
 10
322.6165695489033
 20
194.7719062880018
 30
0.0
 10
322.5146715083972
 20
194.7686950590185
 30
0.0
 10
322.4627272727273
 20
194.7670580811701
 30
0.0
  0
SPLINE
  5
2CD
330
1F
100
AcDbEntity
  8
0
  6
Continuous
 62
     7
370
    25
100
AcDbSpline
210
0.0
220
0.0
230
1.0
 70
     8
 71
     3
 72
    15
 73
    11
 74
     0
 42
0.000000001
 43
0.00000001
 40
0.0
 40
0.0
 40
0.0
 40
0.0
 40
0.1416907485135356
 40
0.2774612942222734
 40
0.4074958162297563
 40
0.5327187817376448
 40
0.6537263486818012
 40
0.7710596611015741
 40
0.8863102006438552
 40
1.0
 40
1.0
 40
1.0
 40
1.0
 10
323.8490909090909
 20
196.558961490261
 30
0.0
 10
323.8479481272679
 20
196.4961957024438
 30
0.0
 10
323.8457103119769
 20
196.3732866423721
 30
0.0
 10
323.8297327543877
 20
196.1932659667212
 30
0.0
 10
323.8006769654478
 20
196.0223912490635
 30
0.0
 10
323.7633195173235
 20
195.8597886072994
 30
0.0
 10
323.7124455926594
 20
195.706730823753
 30
0.0
 10
323.6511968410622
 20
195.5624442922002
 30
0.0
 10
323.5793445575866
 20
195.4265155054697
 30
0.0
 10
323.5213542868743
 20
195.3432220364502
 30
0.0
 10
323.4925568181818
 20
195.3018592175338
 30
0.0
  0
SPLINE
  5
2CE
330
1F
100
AcDbEntity
  8
0
  6
Continuous
 62
     7
370
    25
100
AcDbSpline
210
0.0
220
0.0
230
1.0
 70
     8
 71
     3
 72
    31
 73
    27
 74
     0
 42
0.000000001
 43
0.00000001
 40
0.0
 40
0.0
 40
0.0
 40
0.0
 40
0.0374926737782896
 40
0.0740510373152984
 40
0.1104132093353027
 40
0.1462905595615537
 40
0.182366737986501
 40
0.2186772744483299
 40
0.2550749034222164
 40
0.2922408739317046
 40
0.329654228970467
 40
0.3675327509850833
 40
0.4056909293123593
 40
0.4445404480785448
 40
0.4840761393264901
 40
0.5247146563554201
 40
0.5664015424377792
 40
0.6096675591076345
 40
0.653909139995328
 40
0.6991821398204042
 40
0.7455791418302294
 40
0.7934048941475284
 40
0.8424054055292817
 40
0.8933527573913604
 40
0.9457457808148028
 40
0.9999999999999999
 40
0.9999999999999999
 40
0.9999999999999999
 40
0.9999999999999999
 10
322.4648579545454
 20
198.3579671720792
 30
0.0
 10
322.4966104320794
 20
198.3572640873243
 30
0.0
 10
322.5593241214958
 20
198.3558754385517
 30
0.0
 10
322.6523269634596
 20
198.3454182435655
 30
0.0
 10
322.743172194359
 20
198.3296124634048
 30
0.0
 10
322.8317804340801
 20
198.3055656323787
 30
0.0
 10
322.9186364268805
 20
198.2760251219873
 30
0.0
 10
323.003093622313
 20
198.238970315498
 30
0.0
 10
323.0852097410101
 20
198.1951141910035
 30
0.0
 10
323.1653192308863
 20
198.1458511457364
 30
0.0
 10
323.2421938025044
 20
198.0894826586496
 30
0.0
 10
323.3152341802469
 20
198.0269734510849
 30
0.0
 10
323.3845454145921
 20
197.9585799601153
 30
0.0
 10
323.4490223630803
 20
197.8837615872454
 30
0.0
 10
323.5097393728429
 20
197.8032294035632
 30
0.0
 10
323.5656846112587
 20
197.7164275899154
 30
0.0
 10
323.617623052583
 20
197.6235728959304
 30
0.0
 10
323.6657865141828
 20
197.5252879624897
 30
0.0
 10
323.7091356207114
 20
197.4214859497241
 30
0.0
 10
323.7470226420819
 20
197.3127211503857
 30
0.0
 10
323.7777259137316
 20
197.1986062822333
 30
0.0
 10
323.8044619789452
 20
197.0802598984223
 30
0.0
 10
323.823811741666
 20
196.9565766618151
 30
0.0
 10
323.8390394903024
 20
196.8284561922993
 30
0.0
 10
323.8474657766327
 20
196.6952024081351
 30
0.0
 10
323.848542932139
 20
196.604900442822
 30
0.0
 10
323.8490909090909
 20
196.558961490261
 30
0.0
  0
SPLINE
  5
2CF
330
1F
100
AcDbEntity
  8
0
  6
Continuous
 62
     7
370
    25
100
AcDbSpline
210
0.0
220
0.0
230
1.0
 70
     8
 71
     3
 72
    23
 73
    19
 74
     0
 42
0.000000001
 43
0.00000001
 40
0.0
 40
0.0
 40
0.0
 40
0.0
 40
0.0831919280333215
 40
0.1620053758937692
 40
0.2362691051123553
 40
0.3066253171786716
 40
0.3736257302631201
 40
0.4377442844797712
 40
0.4997342717197023
 40
0.5601671328288018
 40
0.6188356570355564
 40
0.6750154308347256
 40
0.7296971697697449
 40
0.7830091722210554
 40
0.8359127345022762
 40
0.8894446742174573
 40
0.9439470604285818
 40
1.0
 40
1.0
 40
1.0
 40
1.0
 10
321.0763636363636
 20
196.5163478538974
 30
0.0
 10
321.0775998935567
 20
196.5881186579814
 30
0.0
 10
321.0800073424041
 20
196.7278828919486
 30
0.0
 10
321.0983585464667
 20
196.9310874573677
 30
0.0
 10
321.1295316911432
 20
197.1214424012989
 30
0.0
 10
321.1723455731913
 20
197.2991304528657
 30
0.0
 10
321.2285985154331
 20
197.4638321085453
 30
0.0
 10
321.2966181480763
 20
197.6161867979976
 30
0.0
 10
321.37787315243
 20
197.755485005773
 30
0.0
 10
321.4711756313287
 20
197.8811160113528
 30
0.0
 10
321.5729526378142
 20
197.993309879874
 30
0.0
 10
321.6825107356773
 20
198.0905515213763
 30
0.0
 10
321.7975430635354
 20
198.1737091205983
 30
0.0
 10
321.9194755429308
 20
198.2405904580697
 30
0.0
 10
322.0467382387306
 20
198.2943897655316
 30
0.0
 10
322.1811104422483
 20
198.3303982966594
 30
0.0
 10
322.3210001635654
 20
198.3544701105978
 30
0.0
 10
322.4164590828115
 20
198.3567906363565
 30
0.0
 10
322.4648579545454
 20
198.3579671720792
 30
0.0
  0
SPLINE
  5
2D0
330
1F
100
AcDbEntity
  8
0
  6
Continuous
 62
     7
370
    25
100
AcDbSpline
210
0.0
220
0.0
230
1.0
 70
     8
 71
     3
 72
    15
 73
    11
 74
     0
 42
0.000000001
 43
0.00000001
 40
0.0
 40
0.0
 40
0.0
 40
0.0
 40
0.1198666267285368
 40
0.2390237457231748
 40
0.3595530360203463
 40
0.4815592024525973
 40
0.6054681757402863
 40
0.7329681629362587
 40
0.8642495927208782
 40
1.0
 40
1.0
 40
1.0
 40
1.0
 10
321.4307670454546
 20
195.3160637629883
 30
0.0
 10
321.4023002359798
 20
195.3582049810946
 30
0.0
 10
321.3455351161533
 20
195.4422379774005
 30
0.0
 10
321.2739261321234
 20
195.5771224202065
 30
0.0
 10
321.2125034433573
 20
195.7178146861802
 30
0.0
 10
321.1631439434967
 20
195.8653242094607
 30
0.0
 10
321.1235906173393
 20
196.0187932974333
 30
0.0
 10
321.0962680258896
 20
196.1788997944812
 30
0.0
 10
321.0796729443888
 20
196.3455411786632
 30
0.0
 10
321.07747897826
 20
196.4587805801293
 30
0.0
 10
321.0763636363636
 20
196.5163478538974
 30
0.0
  0
SPLINE
  5
2D1
330
1F
100
AcDbEntity
  8
0
  6
Continuous
 62
     7
370
    25
100
AcDbSpline
210
0.0
220
0.0
230
1.0
 70
     8
 71
     3
 72
    15
 73
    11
 74
     0
 42
0.000000001
 43
0.00000001
 40
0.0
 40
0.0
 40
0.0
 40
0.0
 40
0.1284641182900635
 40
0.2521184410080549
 40
0.3734764128786709
 40
0.4930039365319287
 40
0.6137088487223161
 40
0.7372765388034525
 40
0.8655035905742501
 40
1.0
 40
1.0
 40
1.0
 40
1.0
 10
322.4627272727273
 20
194.7670580811701
 30
0.0
 10
322.410539125461
 20
194.768637900028
 30
0.0
 10
322.3081167953737
 20
194.7717383881085
 30
0.0
 10
322.1581872584837
 20
194.7979172734208
 30
0.0
 10
322.016368624021
 20
194.8414071363263
 30
0.0
 10
321.8818955949245
 20
194.9013846962239
 30
0.0
 10
321.7561351101491
 20
194.9797291619486
 30
0.0
 10
321.6384046646795
 20
195.0751483918083
 30
0.0
 10
321.5279553505375
 20
195.1871726294981
 30
0.0
 10
321.4636744577936
 20
195.2724219516305
 30
0.0
 10
321.4307670454546
 20
195.3160637629883
 30
0.0
  0
SPLINE
  5
2D2
330
1F
100
AcDbEntity
  8
0
  6
Continuous
 62
     7
370
    25
100
AcDbSpline
210
0.0
220
0.0
230
1.0
 70
     8
 71
     3
 72
    15
 73
    11
 74
     0
 42
0.000000001
 43
0.00000001
 40
0.0
 40
0.0
 40
0.0
 40
0.0
 40
0.1337649070426901
 40
0.2614594112704904
 40
0.3854851197582174
 40
0.5058365689440544
 40
0.625946273182883
 40
0.7469128434188623
 40
0.8709845759429884
 40
1.0
 40
1.0
 40
1.0
 40
1.0
 10
317.674375
 20
195.3018592175338
 30
0.0
 10
317.6411544743692
 20
195.2594459674724
 30
0.0
 10
317.5762210081442
 20
195.1765442286213
 30
0.0
 10
317.4657775514282
 20
195.0669334345853
 30
0.0
 10
317.3476943758754
 20
194.9743716660853
 30
0.0
 10
317.2221817265305
 20
194.8976363282694
 30
0.0
 10
317.0883699886704
 20
194.839517795118
 30
0.0
 10
316.9473233130394
 20
194.7971944182335
 30
0.0
 10
316.7983877307215
 20
194.7719062880018
 30
0.0
 10
316.6964896902153
 20
194.7686950590185
 30
0.0
 10
316.6445454545454
 20
194.7670580811701
 30
0.0
  0
SPLINE
  5
2D3
330
1F
100
AcDbEntity
  8
0
  6
Continuous
 62
     7
370
    25
100
AcDbSpline
210
0.0
220
0.0
230
1.0
 70
     8
 71
     3
 72
    15
 73
    11
 74
     0
 42
0.000000001
 43
0.00000001
 40
0.0
 40
0.0
 40
0.0
 40
0.0
 40
0.1416907485135358
 40
0.2774612942222738
 40
0.4074958162297569
 40
0.5327187817376455
 40
0.6537263486818022
 40
0.7710596611015752
 40
0.8863102006438566
 40
1.0
 40
1.0
 40
1.0
 40
1.0
 10
318.0309090909091
 20
196.558961490261
 30
0.0
 10
318.0297663090861
 20
196.4961957024438
 30
0.0
 10
318.0275284937951
 20
196.3732866423721
 30
0.0
 10
318.0115509362059
 20
196.1932659667212
 30
0.0
 10
317.982495147266
 20
196.0223912490635
 30
0.0
 10
317.9451376991416
 20
195.8597886072994
 30
0.0
 10
317.8942637744776
 20
195.706730823753
 30
0.0
 10
317.8330150228804
 20
195.5624442922002
 30
0.0
 10
317.7611627394048
 20
195.4265155054697
 30
0.0
 10
317.7031724686925
 20
195.3432220364502
 30
0.0
 10
317.674375
 20
195.3018592175338
 30
0.0
  0
SPLINE
  5
2D4
330
1F
100
AcDbEntity
  8
0
  6
Continuous
 62
     7
370
    25
100
AcDbSpline
210
0.0
220
0.0
230
1.0
 70
     8
 71
     3
 72
    31
 73
    27
 74
     0
 42
0.000000001
 43
0.00000001
 40
0.0
 40
0.0
 40
0.0
 40
0.0
 40
0.0374926737782909
 40
0.0740510373152984
 40
0.110413209335304
 40
0.1462905595615524
 40
0.1823667379865009
 40
0.218677274448331
 40
0.2550749034222164
 40
0.2922408739317057
 40
0.3296542289704659
 40
0.3675327509850843
 40
0.4056909293123593
 40
0.4445404480785448
 40
0.4840761393264901
 40
0.5247146563554208
 40
0.5664015424377792
 40
0.6096675591076345
 40
0.6539091399953285
 40
0.6991821398204043
 40
0.7455791418302294
 40
0.7934048941475285
 40
0.8424054055292818
 40
0.8933527573913606
 40
0.9457457808148028
 40
1.0
 40
1.0
 40
1.0
 40
1.0
 10
316.6466761363637
 20
198.3579671720792
 30
0.0
 10
316.6784286138976
 20
198.3572640873243
 30
0.0
 10
316.7411423033139
 20
198.3558754385517
 30
0.0
 10
316.8341451452778
 20
198.3454182435655
 30
0.0
 10
316.9249903761772
 20
198.3296124634048
 30
0.0
 10
317.0135986158983
 20
198.3055656323787
 30
0.0
 10
317.1004546086987
 20
198.2760251219873
 30
0.0
 10
317.1849118041313
 20
198.238970315498
 30
0.0
 10
317.2670279228282
 20
198.1951141910035
 30
0.0
 10
317.3471374127045
 20
198.1458511457364
 30
0.0
 10
317.4240119843226
 20
198.0894826586495
 30
0.0
 10
317.4970523620651
 20
198.0269734510849
 30
0.0
 10
317.5663635964103
 20
197.9585799601153
 30
0.0
 10
317.6308405448985
 20
197.8837615872454
 30
0.0
 10
317.6915575546611
 20
197.8032294035632
 30
0.0
 10
317.7475027930768
 20
197.7164275899154
 30
0.0
 10
317.7994412344012
 20
197.6235728959304
 30
0.0
 10
317.847604696001
 20
197.5252879624897
 30
0.0
 10
317.8909538025296
 20
197.4214859497241
 30
0.0
 10
317.9288408239
 20
197.3127211503857
 30
0.0
 10
317.9595440955497
 20
197.1986062822333
 30
0.0
 10
317.9862801607634
 20
197.0802598984223
 30
0.0
 10
318.0056299234842
 20
196.9565766618151
 30
0.0
 10
318.0208576721205
 20
196.8284561922993
 30
0.0
 10
318.0292839584509
 20
196.6952024081351
 30
0.0
 10
318.0303611139572
 20
196.604900442822
 30
0.0
 10
318.0309090909091
 20
196.558961490261
 30
0.0
  0
SPLINE
  5
2D5
330
1F
100
AcDbEntity
  8
0
  6
Continuous
 62
     7
370
    25
100
AcDbSpline
210
0.0
220
0.0
230
1.0
 70
     8
 71
     3
 72
    23
 73
    19
 74
     0
 42
0.000000001
 43
0.00000001
 40
0.0
 40
0.0
 40
0.0
 40
0.0
 40
0.0831919280333215
 40
0.1620053758937691
 40
0.2362691051123555
 40
0.3066253171786715
 40
0.3736257302631204
 40
0.4377442844797709
 40
0.499734271719702
 40
0.5601671328288016
 40
0.6188356570355571
 40
0.6750154308347251
 40
0.7296971697697445
 40
0.7830091722210551
 40
0.8359127345022748
 40
0.8894446742174585
 40
0.9439470604285806
 40
1.0
 40
1.0
 40
1.0
 40
1.0
 10
315.2581818181818
 20
196.5163478538974
 30
0.0
 10
315.2594180753749
 20
196.5881186579814
 30
0.0
 10
315.2618255242223
 20
196.7278828919486
 30
0.0
 10
315.2801767282849
 20
196.9310874573677
 30
0.0
 10
315.3113498729614
 20
197.1214424012989
 30
0.0
 10
315.3541637550094
 20
197.2991304528657
 30
0.0
 10
315.4104166972513
 20
197.4638321085453
 30
0.0
 10
315.4784363298944
 20
197.6161867979976
 30
0.0
 10
315.5596913342482
 20
197.755485005773
 30
0.0
 10
315.6529938131469
 20
197.8811160113528
 30
0.0
 10
315.7547708196324
 20
197.993309879874
 30
0.0
 10
315.8643289174954
 20
198.0905515213763
 30
0.0
 10
315.9793612453536
 20
198.1737091205983
 30
0.0
 10
316.101293724749
 20
198.2405904580697
 30
0.0
 10
316.2285564205488
 20
198.2943897655316
 30
0.0
 10
316.3629286240665
 20
198.3303982966594
 30
0.0
 10
316.5028183453836
 20
198.3544701105978
 30
0.0
 10
316.5982772646297
 20
198.3567906363565
 30
0.0
 10
316.6466761363637
 20
198.3579671720792
 30
0.0
  0
SPLINE
  5
2D6
330
1F
100
AcDbEntity
  8
0
  6
Continuous
 62
     7
370
    25
100
AcDbSpline
210
0.0
220
0.0
230
1.0
 70
     8
 71
     3
 72
    15
 73
    11
 74
     0
 42
0.000000001
 43
0.00000001
 40
0.0
 40
0.0
 40
0.0
 40
0.0
 40
0.1284641182900691
 40
0.2521184410080602
 40
0.3734764128786762
 40
0.4930039365319313
 40
0.6137088487223186
 40
0.7372765388034525
 40
0.865503590574252
 40
0.9999999999999999
 40
0.9999999999999999
 40
0.9999999999999999
 40
0.9999999999999999
 10
316.6445454545454
 20
194.7670580811701
 30
0.0
 10
316.5923573072791
 20
194.768637900028
 30
0.0
 10
316.4899349771919
 20
194.7717383881085
 30
0.0
 10
316.3400054403019
 20
194.7979172734208
 30
0.0
 10
316.1981868058392
 20
194.8414071363263
 30
0.0
 10
316.0637137767427
 20
194.9013846962239
 30
0.0
 10
315.9379532919673
 20
194.9797291619486
 30
0.0
 10
315.8202228464977
 20
195.0751483918083
 30
0.0
 10
315.7097735323557
 20
195.1871726294981
 30
0.0
 10
315.6454926396118
 20
195.2724219516305
 30
0.0
 10
315.6125852272727
 20
195.3160637629883
 30
0.0
  0
LINE
  5
2D7
330
1F
100
AcDbEntity
  8
0
  6
Continuous
 62
     7
370
    25
100
AcDbLine
 10
314.6218181818
 20
198.3125126266
 30
0.0
 11
314.9996590909
 21
198.3125126266
 31
0.0
  0
LINE
  5
2D8
330
1F
100
AcDbEntity
  8
0
  6
Continuous
 62
     7
370
    25
100
AcDbLine
 10
313.8434090909
 20
195.7734501266
 30
0.0
 11
314.6218181818
 21
198.3125126266
 31
0.0
  0
SPLINE
  5
2D9
330
1F
100
AcDbEntity
  8
0
  6
Continuous
 62
     7
370
    25
100
AcDbSpline
210
0.0
220
0.0
230
1.0
 70
     8
 71
     3
 72
     9
 73
     5
 74
     0
 42
0.000000001
 43
0.00000001
 40
0.0
 40
0.0
 40
0.0
 40
0.0
 40
0.4899113765140223
 40
0.9999999999999999
 40
0.9999999999999999
 40
0.9999999999999999
 40
0.9999999999999999
 10
313.6899999999999
 20
195.2216035357156
 30
0.0
 10
313.7133629069862
 20
195.3121913553189
 30
0.0
 10
313.7610509340585
 20
195.4970978995349
 30
0.0
 10
313.8155895588582
 20
195.6801018787662
 30
0.0
 10
313.8434090909091
 20
195.7734501266247
 30
0.0
  0
SPLINE
  5
2DA
330
1F
100
AcDbEntity
  8
0
  6
Continuous
 62
     7
370
    25
100
AcDbSpline
210
0.0
220
0.0
230
1.0
 70
     8
 71
     3
 72
    11
 73
     7
 74
     0
 42
0.000000001
 43
0.00000001
 40
0.0
 40
0.0
 40
0.0
 40
0.0
 40
0.2646946039773326
 40
0.5196779431309865
 40
0.7652786362812265
 40
1.0
 40
1.0
 40
1.0
 40
1.0
 10
313.5493749999999
 20
195.7734501266247
 30
0.0
 10
313.5625169825946
 20
195.724949801667
 30
0.0
 10
313.5883187873192
 20
195.6297285590106
 30
0.0
 10
313.6242515386488
 20
195.4889628494213
 30
0.0
 10
313.6585901139782
 20
195.3536625058059
 30
0.0
 10
313.6796893376415
 20
195.2649534367963
 30
0.0
 10
313.6899999999999
 20
195.2216035357156
 30
0.0
  0
LINE
  5
2DB
330
1F
100
AcDbEntity
  8
0
  6
Continuous
 62
     7
370
    25
100
AcDbLine
 10
312.8490909091
 20
198.3125126266
 30
0.0
 11
313.549375
 21
195.7734501266
 31
0.0
  0
LINE
  5
2DC
330
1F
100
AcDbEntity
  8
0
  6
Continuous
 62
     7
370
    25
100
AcDbLine
 10
312.4748011364
 20
198.3125126266
 30
0.0
 11
312.8490909091
 21
198.3125126266
 31
0.0
  0
LINE
  5
2DD
330
1F
100
AcDbEntity
  8
0
  6
Continuous
 62
     7
370
    25
100
AcDbLine
 10
313.5216761364
 20
194.8125126266
 30
0.0
 11
312.4748011364
 21
198.3125126266
 31
0.0
  0
LINE
  5
2DE
330
1F
100
AcDbEntity
  8
0
  6
Continuous
 62
     7
370
    25
100
AcDbLine
 10
313.8973863636
 20
194.8125126266
 30
0.0
 11
313.5216761364
 21
194.8125126266
 31
0.0
  0
LINE
  5
2DF
330
1F
100
AcDbEntity
  8
0
  6
Continuous
 62
     7
370
    25
100
AcDbLine
 10
314.9996590909
 20
198.3125126266
 30
0.0
 11
313.8973863636
 21
194.8125126266
 31
0.0
  0
SPLINE
  5
2E0
330
1F
100
AcDbEntity
  8
0
  6
Continuous
 62
     7
370
    25
100
AcDbSpline
210
0.0
220
0.0
230
1.0
 70
     8
 71
     3
 72
    15
 73
    11
 74
     0
 42
0.000000001
 43
0.00000001
 40
0.0
 40
0.0
 40
0.0
 40
0.0
 40
0.1337850715093826
 40
0.2593853989987146
 40
0.3808217004101822
 40
0.4995309368699217
 40
0.6183575741441208
 40
0.7398956903217165
 40
0.8662956414442508
 40
1.0
 40
1.0
 40
1.0
 40
1.0
 10
311.6275
 20
196.6221717175338
 30
0.0
 10
311.6700771097312
 20
196.6015779000159
 30
0.0
 10
311.7526265337532
 20
196.5616501598466
 30
0.0
 10
311.8626688270066
 20
196.4833852177523
 30
0.0
 10
311.9569167718541
 20
196.3944545678268
 30
0.0
 10
312.033608132437
 20
196.2928861389524
 30
0.0
 10
312.0941367551071
 20
196.1809174291548
 30
0.0
 10
312.1365350070284
 20
196.0581056334231
 30
0.0
 10
312.1627734767218
 20
195.9253658348821
 30
0.0
 10
312.1657451595541
 20
195.8334716329411
 30
0.0
 10
312.1672727272727
 20
195.7862342175338
 30
0.0
  0
SPLINE
  5
2E1
330
1F
100
AcDbEntity
  8
0
  6
Continuous
 62
     7
370
    25
100
AcDbSpline
210
0.0
220
0.0
230
1.0
 70
     8
 71
     3
 72
    15
 73
    11
 74
     0
 42
0.000000001
 43
0.00000001
 40
0.0
 40
0.0
 40
0.0
 40
0.0
 40
0.1693237986142586
 40
0.3253554330118976
 40
0.4689155231524372
 40
0.6003115468851047
 40
0.7188463901177571
 40
0.8249851745593386
 40
0.9187577878191818
 40
1.0
 40
1.0
 40
1.0
 40
1.0
 10
311.0195454545454
 20
196.8025694448065
 30
0.0
 10
311.0543766165092
 20
196.7941664614825
 30
0.0
 10
311.1213046436133
 20
196.7780201412348
 30
0.0
 10
311.2172847221605
 20
196.7528378301089
 30
0.0
 10
311.3054595543736
 20
196.729561056463
 30
0.0
 10
311.3856981736325
 20
196.7072684467279
 30
0.0
 10
311.4574434264635
 20
196.6842027328323
 30
0.0
 10
311.52132895291
 20
196.6628181911964
 30
0.0
 10
311.5777180445734
 20
196.6437217994684
 30
0.0
 10
311.6117174239463
 20
196.6290038277669
 30
0.0
 10
311.6275
 20
196.6221717175338
 30
0.0
  0
SPLINE
  5
2E2
330
1F
100
AcDbEntity
  8
0
  6
Continuous
 62
     7
370
    25
100
AcDbSpline
210
0.0
220
0.0
230
1.0
 70
     8
 71
     3
 72
    15
 73
    11
 74
     0
 42
0.000000001
 43
0.00000001
 40
0.0
 40
0.0
 40
0.0
 40
0.0
 40
0.0750156946076107
 40
0.1629301842777534
 40
0.2646744147797526
 40
0.3809699752964675
 40
0.5123091530377067
 40
0.6582210125869621
 40
0.8208323791787844
 40
1.0
 40
1.0
 40
1.0
 40
1.0
 10
310.4634375
 20
197.035523990261
 30
0.0
 10
310.4742562289327
 20
197.0247357443154
 30
0.0
 10
310.4977539450824
 20
197.001304235627
 30
0.0
 10
310.5430097425329
 20
196.9717830060196
 30
0.0
 10
310.5968796847157
 20
196.9407256981902
 30
0.0
 10
310.6621628129968
 20
196.9125577932431
 30
0.0
 10
310.7364798799346
 20
196.8830229539173
 30
0.0
 10
310.8217072722514
 20
196.8559451493306
 30
0.0
 10
310.9167640485439
 20
196.8279285772945
 30
0.0
 10
310.9841961506305
 20
196.8112911359782
 30
0.0
 10
311.0195454545454
 20
196.8025694448065
 30
0.0
  0
SPLINE
  5
2E3
330
1F
100
AcDbEntity
  8
0
  6
Continuous
 62
     7
370
    25
100
AcDbSpline
210
0.0
220
0.0
230
1.0
 70
     8
 71
     3
 72
    11
 73
     7
 74
     0
 42
0.000000001
 43
0.00000001
 40
0.0
 40
0.0
 40
0.0
 40
0.0
 40
0.2837744943495286
 40
0.5395840214497865
 40
0.7756449623277224
 40
1.0
 40
1.0
 40
1.0
 40
1.0
 10
310.3490909090909
 20
197.3906376266247
 30
0.0
 10
310.3502958145288
 20
197.354526066493
 30
0.0
 10
310.3525868862588
 20
197.2858616120593
 30
0.0
 10
310.3740060467071
 20
197.189133022508
 30
0.0
 10
310.4096582518102
 20
197.104349542134
 30
0.0
 10
310.4458175292831
 20
197.0580736585698
 30
0.0
 10
310.4634375
 20
197.035523990261
 30
0.0
  0
SPLINE
  5
2E4
330
1F
100
AcDbEntity
  8
0
  6
Continuous
 62
     7
370
    25
100
AcDbSpline
210
0.0
220
0.0
230
1.0
 70
     8
 71
     3
 72
    23
 73
    19
 74
     0
 42
0.000000001
 43
0.00000001
 40
0.0
 40
0.0
 40
0.0
 40
0.0
 40
0.0804235931284734
 40
0.1554478660209124
 40
0.2274865779056501
 40
0.2949489652405866
 40
0.3597986509905155
 40
0.4210200219417461
 40
0.4819019994984955
 40
0.5406082872412742
 40
0.5984821386513641
 40
0.6551515363375461
 40
0.7102010032718235
 40
0.765597189572355
 40
0.8217224591483806
 40
0.8791641554936599
 40
0.9383687171181117
 40
1.0
 40
1.0
 40
1.0
 40
1.0
 10
311.0131534090909
 20
197.9488762629883
 30
0.0
 10
310.9868471074134
 20
197.9486509455777
 30
0.0
 10
310.9360006045454
 20
197.9482154376714
 30
0.0
 10
310.8620479601474
 20
197.9396246479717
 30
0.0
 10
310.7927985642262
 20
197.9282790158075
 30
0.0
 10
310.7281584279239
 20
197.9110018144135
 30
0.0
 10
310.6686845885121
 20
197.8891975597818
 30
0.0
 10
310.6135496288485
 20
197.8625747308641
 30
0.0
 10
310.5635023409667
 20
197.8308887070264
 30
0.0
 10
310.5182717120006
 20
197.7943537945374
 30
0.0
 10
310.4786605741266
 20
197.7537286726599
 30
0.0
 10
310.4438137579244
 20
197.7105234693159
 30
0.0
 10
310.4140133078652
 20
197.6645711570037
 30
0.0
 10
310.3907868181922
 20
197.6151784174114
 30
0.0
 10
310.3722376525428
 20
197.5630797000071
 30
0.0
 10
310.3586051701405
 20
197.5081700163617
 30
0.0
 10
310.3508410519851
 20
197.4502818794404
 30
0.0
 10
310.3496820487298
 20
197.4107834571103
 30
0.0
 10
310.3490909090909
 20
197.3906376266247
 30
0.0
  0
SPLINE
  5
2E5
330
1F
100
AcDbEntity
  8
0
  6
Continuous
 62
     7
370
    25
100
AcDbSpline
210
0.0
220
0.0
230
1.0
 70
     8
 71
     3
 72
    23
 73
    19
 74
     0
 42
0.000000001
 43
0.00000001
 40
0.0
 40
0.0
 40
0.0
 40
0.0
 40
0.0765728135290738
 40
0.1493228985313964
 40
0.2172186749416055
 40
0.2820872493082827
 40
0.3432655771108257
 40
0.4022310899227217
 40
0.4584773865507825
 40
0.514151205804173
 40
0.5690726415643271
 40
0.6243527363272731
 40
0.6811913672928036
 40
0.739404158449123
 40
0.7998297883091653
 40
0.8628307336450728
 40
0.9296455439554808
 40
1.0
 40
1.0
 40
1.0
 40
1.0
 10
311.7127272727272
 20
197.2670580811701
 30
0.0
 10
311.7100597164479
 20
197.2950467695682
 30
0.0
 10
311.7048577757425
 20
197.3496268729376
 30
0.0
 10
311.6904847413202
 20
197.4281431188542
 30
0.0
 10
311.6721141905495
 20
197.5013493473918
 30
0.0
 10
311.6490822144357
 20
197.568845298244
 30
0.0
 10
311.6201411287409
 20
197.6303810018126
 30
0.0
 10
311.5879188172262
 20
197.6866563936228
 30
0.0
 10
311.5503869023222
 20
197.7370899776134
 30
0.0
 10
311.508512726454
 20
197.7819586084639
 30
0.0
 10
311.4618366515852
 20
197.8212506348634
 30
0.0
 10
311.4109834603017
 20
197.8556889198731
 30
0.0
 10
311.3555207876095
 20
197.8848591069967
 30
0.0
 10
311.2953500193465
 20
197.9081087248303
 30
0.0
 10
311.2312542678497
 20
197.9268160669123
 30
0.0
 10
311.1624535029247
 20
197.9392577554312
 30
0.0
 10
311.0893339979614
 20
197.9472063818039
 30
0.0
 10
311.0389800655771
 20
197.9483101417708
 30
0.0
 10
311.0131534090909
 20
197.9488762629883
 30
0.0
  0
LINE
  5
2E6
330
1F
100
AcDbEntity
  8
0
  6
Continuous
 62
     7
370
    25
100
AcDbLine
 10
312.0763636364
 20
197.3125126266
 30
0.0
 11
311.7127272727
 21
197.2670580812
 31
0.0
  0
SPLINE
  5
2E7
330
1F
100
AcDbEntity
  8
0
  6
Continuous
 62
     7
370
    25
100
AcDbSpline
210
0.0
220
0.0
230
1.0
 70
     8
 71
     3
 72
    19
 73
    15
 74
     0
 42
0.000000001
 43
0.00000001
 40
0.0
 40
0.0
 40
0.0
 40
0.0
 40
0.0919148450095061
 40
0.1793500136985491
 40
0.2627602509497613
 40
0.3438245629315465
 40
0.4230536694981489
 40
0.500153763856669
 40
0.5774020559630036
 40
0.6564709802344403
 40
0.7376500484536386
 40
0.8208783262149126
 40
0.9079232481193411
 40
1.0
 40
1.0
 40
1.0
 40
1.0
 10
311.0010795454545
 20
198.3579671720792
 30
0.0
 10
311.0527768170416
 20
198.3565239061953
 30
0.0
 10
311.1536517776245
 20
198.3537077152306
 30
0.0
 10
311.2999776386165
 20
198.3301547823879
 30
0.0
 10
311.4362451434017
 20
198.2902532012189
 30
0.0
 10
311.5619362614378
 20
198.2347294503281
 30
0.0
 10
311.6760696564492
 20
198.1646345366607
 30
0.0
 10
311.7766877354348
 20
198.0795433716108
 30
0.0
 10
311.8644677465896
 20
197.9813590065162
 30
0.0
 10
311.9374923192906
 20
197.8690250162174
 30
0.0
 10
311.9965956950098
 20
197.74510975937
 30
0.0
 10
312.0398745135102
 20
197.6101615755753
 30
0.0
 10
312.0680896661913
 20
197.4649050426923
 30
0.0
 10
312.0735544744123
 20
197.3642525976378
 30
0.0
 10
312.0763636363636
 20
197.3125126266247
 30
0.0
  0
SPLINE
  5
2E8
330
1F
100
AcDbEntity
  8
0
  6
Continuous
 62
     7
370
    25
100
AcDbSpline
210
0.0
220
0.0
230
1.0
 70
     8
 71
     3
 72
    23
 73
    19
 74
     0
 42
0.000000001
 43
0.00000001
 40
0.0
 40
0.0
 40
0.0
 40
0.0
 40
0.0655342124430472
 40
0.1288270559297151
 40
0.1899548512024726
 40
0.2496480368191137
 40
0.3082483091336504
 40
0.3667963607881981
 40
0.4255009350642032
 40
0.4858920521208362
 40
0.5466819835686079
 40
0.6066869295489951
 40
0.66752212965502
 40
0.7294256136805803
 40
0.7931375186351548
 40
0.8590270504025663
 40
0.9276974320877976
 40
1.0
 40
1.0
 40
1.0
 40
1.0
 10
309.9854545454546
 20
197.3991603538974
 30
0.0
 10
309.9862383907144
 20
197.4335309547948
 30
0.0
 10
309.9877792725433
 20
197.5010966301737
 30
0.0
 10
310.0009334656037
 20
197.5999877066023
 30
0.0
 10
310.0217838060325
 20
197.6944086974968
 30
0.0
 10
310.0528966518717
 20
197.7833511271061
 30
0.0
 10
310.0909617982705
 20
197.868081714636
 30
0.0
 10
310.1391675476908
 20
197.946899786985
 30
0.0
 10
310.1949095156143
 20
198.0216941537998
 30
0.0
 10
310.2594458678131
 20
198.0906870607609
 30
0.0
 10
310.3305274465918
 20
198.1539607885291
 30
0.0
 10
310.4089673986745
 20
198.20834486733
 30
0.0
 10
310.4931098940822
 20
198.2544299953158
 30
0.0
 10
310.5829725212305
 20
198.2933677693874
 30
0.0
 10
310.6793814441714
 20
198.322160006101
 30
0.0
 10
310.7814202256976
 20
198.342426713892
 30
0.0
 10
310.8892251138122
 20
198.3557446243655
 30
0.0
 10
310.9631597563736
 20
198.3572137058169
 30
0.0
 10
311.0010795454545
 20
198.3579671720792
 30
0.0
  0
SPLINE
  5
2E9
330
1F
100
AcDbEntity
  8
0
  6
Continuous
 62
     7
370
    25
100
AcDbSpline
210
0.0
220
0.0
230
1.0
 70
     8
 71
     3
 72
    23
 73
    19
 74
     0
 42
0.000000001
 43
0.00000001
 40
0.0
 40
0.0
 40
0.0
 40
0.0
 40
0.0696134502891531
 40
0.1341558467413847
 40
0.1941216639751317
 40
0.2492702399547626
 40
0.3003975238168696
 40
0.3464602541181251
 40
0.3882517207597329
 40
0.4259028191906364
 40
0.4961060560373053
 40
0.5655345875935786
 40
0.6348462500707484
 40
0.704758528907391
 40
0.7756659742820934
 40
0.847725381578479
 40
0.9224175839219327
 40
1.0
 40
1.0
 40
1.0
 40
1.0
 10
310.9293465909091
 20
196.4375126266247
 30
0.0
 10
310.8963883376328
 20
196.4468118033851
 30
0.0
 10
310.8328727044177
 20
196.4647327500859
 30
0.0
 10
310.7417895863331
 20
196.4934132377989
 30
0.0
 10
310.6578891350438
 20
196.5212528872602
 30
0.0
 10
310.5816885089716
 20
196.5509547204412
 30
0.0
 10
310.5122307152052
 20
196.57916280029
 30
0.0
 10
310.4508831324047
 20
196.6094342998246
 30
0.0
 10
310.396706273176
 20
196.6390750681749
 30
0.0
 10
310.33440040177
 20
196.6783972146648
 30
0.0
 10
310.2663472692989
 20
196.7333929399948
 30
0.0
 10
310.1942203813983
 20
196.8068801406517
 30
0.0
 10
310.1312128846976
 20
196.8882524477633
 30
0.0
 10
310.0786444274924
 20
196.977502751613
 30
0.0
 10
310.0360089545186
 20
197.073535173774
 30
0.0
 10
310.0077770487519
 20
197.1770511799284
 30
0.0
 10
309.9880863734883
 20
197.2859603514063
 30
0.0
 10
309.9863428523015
 20
197.3609525622045
 30
0.0
 10
309.9854545454546
 20
197.3991603538974
 30
0.0
  0
SPLINE
  5
2EA
330
1F
100
AcDbEntity
  8
0
  6
Continuous
 62
     7
370
    25
100
AcDbSpline
210
0.0
220
0.0
230
1.0
 70
     8
 71
     3
 72
    23
 73
    19
 74
     0
 42
0.000000001
 43
0.00000001
 40
0.0
 40
0.0
 40
0.0
 40
0.0
 40
0.0628274913813597
 40
0.1223726895779753
 40
0.1803837658619588
 40
0.2364891989894682
 40
0.2926289502320351
 40
0.3503980605968382
 40
0.4101926792197961
 40
0.4734229773823774
 40
0.510212485250965
 40
0.5552799601987776
 40
0.6084730122619797
 40
0.6698570376582513
 40
0.7400379641843857
 40
0.8179174674906489
 40
0.9048122599055279
 40
0.9999999999999999
 40
0.9999999999999999
 40
0.9999999999999999
 40
0.9999999999999999
 10
311.8036363636363
 20
195.7755808084429
 30
0.0
 10
311.8028546326004
 20
195.8007289873236
 30
0.0
 10
311.80133201046
 20
195.8497115301557
 30
0.0
 10
311.7883719811125
 20
195.9210171243571
 30
0.0
 10
311.7662744953764
 20
195.9870965797642
 30
0.0
 10
311.7361918922036
 20
196.0484557384356
 30
0.0
 10
311.697339534654
 20
196.1046018498747
 30
0.0
 10
311.6493581013716
 20
196.1552601768829
 30
0.0
 10
311.5923435915044
 20
196.2000395648989
 30
0.0
 10
311.5379407980766
 20
196.2339995387032
 30
0.0
 10
311.4853868068685
 20
196.2587346095046
 30
0.0
 10
311.4357348738578
 20
196.2800559335046
 30
0.0
 10
311.3759381568364
 20
196.3025463927411
 30
0.0
 10
311.3060935407516
 20
196.3267532487633
 30
0.0
 10
311.2261789100527
 20
196.3519715745206
 30
0.0
 10
311.1361502262876
 20
196.3789921780826
 30
0.0
 10
311.0363221693086
 20
196.4081693017775
 30
0.0
 10
310.9660716370437
 20
196.4274389726666
 30
0.0
 10
310.9293465909091
 20
196.4375126266247
 30
0.0
  0
SPLINE
  5
2EB
330
1F
100
AcDbEntity
  8
0
  6
Continuous
 62
     7
370
    25
100
AcDbSpline
210
0.0
220
0.0
230
1.0
 70
     8
 71
     3
 72
    23
 73
    19
 74
     0
 42
0.000000001
 43
0.00000001
 40
0.0
 40
0.0
 40
0.0
 40
0.0
 40
0.0781252968918887
 40
0.1518301493922335
 40
0.2221520613978998
 40
0.2890233266244052
 40
0.3525976224640656
 40
0.4148420026739694
 40
0.4749348900295443
 40
0.5348433958080103
 40
0.5934135167521026
 40
0.6507869454438927
 40
0.7072859995271761
 40
0.7634577572775806
 40
0.8197238077213155
 40
0.8778515259498442
 40
0.937478525171102
 40
1.0
 40
1.0
 40
1.0
 40
1.0
 10
311.09625
 20
195.176148990261
 30
0.0
 10
311.1234978846358
 20
195.1767027154944
 30
0.0
 10
311.1764519284535
 20
195.1777788353716
 30
0.0
 10
311.2535591438087
 20
195.1858727915229
 30
0.0
 10
311.3261861920129
 20
195.1980653867213
 30
0.0
 10
311.3936501127397
 20
195.2170335054517
 30
0.0
 10
311.4572050680935
 20
195.2392147456542
 30
0.0
 10
311.5150619019023
 20
195.2687866481188
 30
0.0
 10
311.5692034849894
 20
195.3022071736856
 30
0.0
 10
311.6180573946873
 20
195.3411175394356
 30
0.0
 10
311.6611358224173
 20
195.3848515165387
 30
0.0
 10
311.7001834379621
 20
195.4307502265403
 30
0.0
 10
311.7319321099304
 20
195.4809980218528
 30
0.0
 10
311.7587035285191
 20
195.5336136761084
 30
0.0
 10
311.7783360279201
 20
195.5898924936049
 30
0.0
 10
311.7935635377944
 20
195.6487138176155
 30
0.0
 10
311.8020528294921
 20
195.7111768067321
 30
0.0
 10
311.8031002456012
 20
195.7537763232179
 30
0.0
 10
311.8036363636363
 20
195.7755808084429
 30
0.0
  0
SPLINE
  5
2EC
330
1F
100
AcDbEntity
  8
0
  6
Continuous
 62
     7
370
    25
100
AcDbSpline
210
0.0
220
0.0
230
1.0
 70
     8
 71
     3
 72
    19
 73
    15
 74
     0
 42
0.000000001
 43
0.00000001
 40
0.0
 40
0.0
 40
0.0
 40
0.0
 40
0.106713384981201
 40
0.2023827530813248
 40
0.2879881362754664
 40
0.3651321209974009
 40
0.438155321852681
 40
0.5114419818683948
 40
0.587093492650868
 40
0.6659855935524697
 40
0.7468394073744405
 40
0.8288800136248057
 40
0.9125295864996439
 40
1.0
 40
1.0
 40
1.0
 40
1.0
 10
310.2581818181818
 20
195.9943308084429
 30
0.0
 10
310.2634765758427
 20
195.9480369583718
 30
0.0
 10
310.273518124356
 20
195.86024031665
 30
0.0
 10
310.301020241332
 20
195.7372886885589
 30
0.0
 10
310.3378044093797
 20
195.6304689956746
 30
0.0
 10
310.3832488463161
 20
195.5376292703305
 30
0.0
 10
310.4414853798908
 20
195.4589326081157
 30
0.0
 10
310.5080065128609
 20
195.3881581116383
 30
0.0
 10
310.5863588620391
 20
195.3264134134211
 30
0.0
 10
310.6740668498122
 20
195.272509915184
 30
0.0
 10
310.7706036343559
 20
195.2290054064635
 30
0.0
 10
310.8741764128563
 20
195.1989450219859
 30
0.0
 10
310.9833231401978
 20
195.1797054318505
 30
0.0
 10
311.058051524237
 20
195.1773519870334
 30
0.0
 10
311.0962499999999
 20
195.176148990261
 30
0.0
  0
LINE
  5
2ED
330
1F
100
AcDbEntity
  8
0
  6
Continuous
 62
     7
370
    25
100
AcDbLine
 10
309.8945454545
 20
195.948876263
 30
0.0
 11
310.2581818182
 21
195.9943308084
 31
0.0
  0
SPLINE
  5
2EE
330
1F
100
AcDbEntity
  8
0
  6
Continuous
 62
     7
370
    25
100
AcDbSpline
210
0.0
220
0.0
230
1.0
 70
     8
 71
     3
 72
    23
 73
    19
 74
     0
 42
0.000000001
 43
0.00000001
 40
0.0
 40
0.0
 40
0.0
 40
0.0
 40
0.0690622114285179
 40
0.1347658792836456
 40
0.1976107057024345
 40
0.2585282108425837
 40
0.318127425281013
 40
0.3770582660618971
 40
0.4356857915191251
 40
0.4947336263914066
 40
0.5540911070636493
 40
0.6133334186580068
 40
0.6729241889746481
 40
0.7340655047106267
 40
0.7962987887860594
 40
0.8612408916846029
 40
0.9289703310657822
 40
0.9999999999999999
 40
0.9999999999999999
 40
0.9999999999999999
 40
0.9999999999999999
 10
311.065
 20
194.7670580811701
 30
0.0
 10
311.0218678115767
 20
194.767962518926
 30
0.0
 10
310.9377009831758
 20
194.7697274109981
 30
0.0
 10
310.8150398821531
 20
194.7849244965053
 30
0.0
 10
310.6992070638632
 20
194.8096510083225
 30
0.0
 10
310.589944532401
 20
194.8444972659155
 30
0.0
 10
310.4870877252811
 20
194.8894144879236
 30
0.0
 10
310.390749308108
 20
194.9441988383153
 30
0.0
 10
310.3014074524178
 20
195.0092310876442
 30
0.0
 10
310.2197656328723
 20
195.0840555539975
 30
0.0
 10
310.1459337777589
 20
195.167074391381
 30
0.0
 10
310.0808762129583
 20
195.2575943924185
 30
0.0
 10
310.0258451052256
 20
195.3558332371611
 30
0.0
 10
309.9807790773945
 20
195.4609898434457
 30
0.0
 10
309.9441252424393
 20
195.5728757278656
 30
0.0
 10
309.9173222922587
 20
195.6917431393154
 30
0.0
 10
309.9001891345249
 20
195.8179637566608
 30
0.0
 10
309.8964562751611
 20
195.9045522905352
 30
0.0
 10
309.8945454545454
 20
195.9488762629883
 30
0.0
  0
SPLINE
  5
2EF
330
1F
100
AcDbEntity
  8
0
  6
Continuous
 62
     7
370
    25
100
AcDbSpline
210
0.0
220
0.0
230
1.0
 70
     8
 71
     3
 72
    19
 73
    15
 74
     0
 42
0.000000001
 43
0.00000001
 40
0.0
 40
0.0
 40
0.0
 40
0.0
 40
0.0842734715608933
 40
0.1665166244253432
 40
0.2473877598069593
 40
0.3288365457123069
 40
0.4090983268496176
 40
0.4877267016055324
 40
0.5657077880693232
 40
0.6449848608508585
 40
0.7265584459444162
 40
0.8120697979385845
 40
0.9027287756276013
 40
1.0
 40
1.0
 40
1.0
 40
1.0
 10
312.1672727272727
 20
195.7862342175338
 30
0.0
 10
312.1657280253012
 20
195.7387620345133
 30
0.0
 10
312.1626758363588
 20
195.6449613695559
 30
0.0
 10
312.1355859526006
 20
195.5077575726242
 30
0.0
 10
312.0913238594918
 20
195.3770065630684
 30
0.0
 10
312.0294131950877
 20
195.2548308449433
 30
0.0
 10
311.9536479840464
 20
195.1423466236213
 30
0.0
 10
311.8644887915439
 20
195.0425648137251
 30
0.0
 10
311.7615377978405
 20
194.9579258312061
 30
0.0
 10
311.6462401611901
 20
194.8880368876911
 30
0.0
 10
311.5185876704929
 20
194.8325835249996
 30
0.0
 10
311.3780314430827
 20
194.7952164501468
 30
0.0
 10
311.2256359358013
 20
194.7710245396688
 30
0.0
 10
311.1197867321317
 20
194.7684108874286
 30
0.0
 10
311.065
 20
194.7670580811701
 30
0.0
  0
LINE
  5
2F0
330
1F
100
AcDbEntity
  8
0
  6
Continuous
 62
     7
370
    25
100
AcDbLine
 10
307.7780681818
 20
194.8125126266
 30
0.0
 11
306.3036363636
 21
197.5987342175
 31
0.0
  0
LINE
  5
2F1
330
1F
100
AcDbEntity
  8
0
  6
Continuous
 62
     7
370
    25
100
AcDbLine
 10
308.1672727273
 20
194.8125126266
 30
0.0
 11
307.7780681818
 21
194.8125126266
 31
0.0
  0
LINE
  5
2F2
330
1F
100
AcDbEntity
  8
0
  6
Continuous
 62
     7
370
    25
100
AcDbLine
 10
308.1672727273
 20
198.3125126266
 30
0.0
 11
308.1672727273
 21
194.8125126266
 31
0.0
  0
LINE
  5
2F3
330
1F
100
AcDbEntity
  8
0
  6
Continuous
 62
     7
370
    25
100
AcDbLine
 10
307.8036363636
 20
198.3125126266
 30
0.0
 11
308.1672727273
 21
198.3125126266
 31
0.0
  0
LINE
  5
2F4
330
1F
100
AcDbEntity
  8
0
  6
Continuous
 62
     7
370
    25
100
AcDbLine
 10
307.8036363636
 20
195.5227398994
 30
0.0
 11
307.8036363636
 21
198.3125126266
 31
0.0
  0
LINE
  5
2F5
330
1F
100
AcDbEntity
  8
0
  6
Continuous
 62
     7
370
    25
100
AcDbLine
 10
306.3270738636
 20
198.3125126266
 30
0.0
 11
307.8036363636
 21
195.5227398994
 31
0.0
  0
LINE
  5
2F6
330
1F
100
AcDbEntity
  8
0
  6
Continuous
 62
     7
370
    25
100
AcDbLine
 10
305.94
 20
198.3125126266
 30
0.0
 11
306.3270738636
 21
198.3125126266
 31
0.0
  0
LINE
  5
2F7
330
1F
100
AcDbEntity
  8
0
  6
Continuous
 62
     7
370
    25
100
AcDbLine
 10
305.94
 20
194.8125126266
 30
0.0
 11
305.94
 21
198.3125126266
 31
0.0
  0
LINE
  5
2F8
330
1F
100
AcDbEntity
  8
0
  6
Continuous
 62
     7
370
    25
100
AcDbLine
 10
306.3036363636
 20
194.8125126266
 30
0.0
 11
305.94
 21
194.8125126266
 31
0.0
  0
LINE
  5
2F9
330
1F
100
AcDbEntity
  8
0
  6
Continuous
 62
     7
370
    25
100
AcDbLine
 10
306.3036363636
 20
197.5987342175
 30
0.0
 11
306.3036363636
 21
194.8125126266
 31
0.0
  0
SPLINE
  5
2FA
330
1F
100
AcDbEntity
  8
0
  6
Continuous
 62
     7
370
    25
100
AcDbSpline
210
0.0
220
0.0
230
1.0
 70
     8
 71
     3
 72
    15
 73
    11
 74
     0
 42
0.000000001
 43
0.00000001
 40
0.0
 40
0.0
 40
0.0
 40
0.0
 40
0.1333786706066402
 40
0.2619252341554815
 40
0.3867490650401643
 40
0.5114364515435105
 40
0.6336363288425926
 40
0.7543578055143839
 40
0.87576851040339
 40
1.0
 40
1.0
 40
1.0
 40
1.0
 10
320.5309090909091
 20
197.4325410357156
 30
0.0
 10
320.5297261580104
 20
197.3938712501194
 30
0.0
 10
320.5274031480786
 20
197.3179326266426
 30
0.0
 10
320.5077830202411
 20
197.2071842506222
 30
0.0
 10
320.4755420046919
 20
197.1022320501298
 30
0.0
 10
320.4310461931959
 20
197.0038121474688
 30
0.0
 10
320.3747119401946
 20
196.9130194013458
 30
0.0
 10
320.3072811989292
 20
196.831457135868
 30
0.0
 10
320.2294814915017
 20
196.7585569216333
 30
0.0
 10
320.1702433078544
 20
196.7189215309883
 30
0.0
 10
320.1402840909091
 20
196.6988762629883
 30
0.0
  0
SPLINE
  5
2FB
330
1F
100
AcDbEntity
  8
0
  6
Continuous
 62
     7
370
    25
100
AcDbSpline
210
0.0
220
0.0
230
1.0
 70
     8
 71
     3
 72
    15
 73
    11
 74
     0
 42
0.000000001
 43
0.00000001
 40
0.0
 40
0.0
 40
0.0
 40
0.0
 40
0.1198666267285365
 40
0.2390237457231743
 40
0.3595530360203468
 40
0.4815592024525983
 40
0.6054681757402873
 40
0.7329681629362593
 40
0.8642495927208786
 40
1.0
 40
1.0
 40
1.0
 40
1.0
 10
315.6125852272727
 20
195.3160637629883
 30
0.0
 10
315.584118417798
 20
195.3582049810946
 30
0.0
 10
315.5273532979715
 20
195.4422379774006
 30
0.0
 10
315.4557443139417
 20
195.5771224202065
 30
0.0
 10
315.3943216251755
 20
195.7178146861802
 30
0.0
 10
315.3449621253148
 20
195.8653242094607
 30
0.0
 10
315.3054087991575
 20
196.0187932974333
 30
0.0
 10
315.2780862077078
 20
196.1788997944812
 30
0.0
 10
315.2614911262069
 20
196.3455411786632
 30
0.0
 10
315.2592971600782
 20
196.4587805801293
 30
0.0
 10
315.2581818181818
 20
196.5163478538974
 30
0.0
  0
SPLINE
  5
2FC
330
1F
100
AcDbEntity
  8
0
  6
Continuous
 62
     7
370
    25
100
AcDbSpline
210
0.0
220
0.0
230
1.0
 70
     8
 71
     3
 72
    15
 73
    11
 74
     0
 42
0.000000001
 43
0.00000001
 40
0.0
 40
0.0
 40
0.0
 40
0.0
 40
0.1428901499986547
 40
0.2715775881364904
 40
0.3904693795008498
 40
0.5025712980780841
 40
0.6152081973574496
 40
0.7321896610795406
 40
0.8591868078244159
 40
0.9999999999999999
 40
0.9999999999999999
 40
0.9999999999999999
 40
0.9999999999999999
 10
332.1218181818182
 20
196.6306944448065
 30
0.0
 10
332.1168350182736
 20
196.6628467679541
 30
0.0
 10
332.1073639977957
 20
196.7239556013726
 30
0.0
 10
332.079172237426
 20
196.8088237233812
 30
0.0
 10
332.0380847999168
 20
196.8801113792363
 30
0.0
 10
331.9868208956376
 20
196.9399468432235
 30
0.0
 10
331.9226639778456
 20
196.9851430930027
 30
0.0
 10
331.8477373522193
 20
197.0173902053835
 30
0.0
 10
331.7617401306686
 20
197.0366303831661
 30
0.0
 10
331.7007575072736
 20
197.0386981392216
 30
0.0
 10
331.6686931818182
 20
197.0397853538974
 30
0.0
  0
SPLINE
  5
2FD
330
1F
100
AcDbEntity
  8
0
  6
Continuous
 62
     7
370
    25
100
AcDbSpline
210
0.0
220
0.0
230
1.0
 70
     8
 71
     3
 72
    15
 73
    11
 74
     0
 42
0.000000001
 43
0.00000001
 40
0.0
 40
0.0
 40
0.0
 40
0.0
 40
0.0894057494543693
 40
0.188125325222233
 40
0.2967013461921434
 40
0.41554149557404
 40
0.5447946592898609
 40
0.6850249410151804
 40
0.8376109392146742
 40
1.0
 40
1.0
 40
1.0
 40
1.0
 10
325.7766477272727
 20
197.8338194448065
 30
0.0
 10
325.7627667598597
 20
197.8395061544183
 30
0.0
 10
325.7335587779918
 20
197.8514719854941
 30
0.0
 10
325.6856743950893
 20
197.8652819476635
 30
0.0
 10
325.6323040877699
 20
197.8772433539354
 30
0.0
 10
325.5733061181159
 20
197.8873396941333
 30
0.0
 10
325.5084896053875
 20
197.8937707415579
 30
0.0
 10
325.4379768856509
 20
197.9000089381954
 30
0.0
 10
325.3616498612585
 20
197.9022227824546
 30
0.0
 10
325.3088439967576
 20
197.9030138654699
 30
0.0
 10
325.2816193181818
 20
197.9034217175338
 30
0.0
  0
SPLINE
  5
2FE
330
1F
100
AcDbEntity
  8
0
  6
Continuous
 62
     7
370
    25
100
AcDbSpline
210
0.0
220
0.0
230
1.0
 70
     8
 71
     3
 72
    23
 73
    19
 74
     0
 42
0.000000001
 43
0.00000001
 40
0.0
 40
0.0
 40
0.0
 40
0.0
 40
0.091057692584198
 40
0.177271661161427
 40
0.2587565480870237
 40
0.3352398500869443
 40
0.4078328982379348
 40
0.4759035837309332
 40
0.5405672899847732
 40
0.6013885147851543
 40
0.659248169657966
 40
0.7139410164568256
 40
0.765992717145338
 40
0.8161259581187268
 40
0.8639755313063072
 40
0.9102873125800778
 40
0.9552760909847243
 40
1.0
 40
1.0
 40
1.0
 40
1.0
 10
326.3036363636364
 20
196.5866603538974
 30
0.0
 10
326.3033260432433
 20
196.6299967831642
 30
0.0
 10
326.3027219096438
 20
196.7143644031524
 30
0.0
 10
326.2952029923167
 20
196.8373039897164
 30
0.0
 10
326.2844595684983
 20
196.9530458207514
 30
0.0
 10
326.2677344871561
 20
197.0615181487563
 30
0.0
 10
326.2478445825643
 20
197.1629847326408
 30
0.0
 10
326.2217896076174
 20
197.2572153581998
 30
0.0
 10
326.1926956782439
 20
197.3446930946949
 30
0.0
 10
326.1573901469239
 20
197.4246045402656
 30
0.0
 10
326.1189387030608
 20
197.4976304675023
 30
0.0
 10
326.0786715820246
 20
197.5649030020913
 30
0.0
 10
326.0349672712107
 20
197.6254972109545
 30
0.0
 10
325.9893056694391
 20
197.6805319640089
 30
0.0
 10
325.939622575281
 20
197.7280648993032
 30
0.0
 10
325.8887719671751
 20
197.7706075199297
 30
0.0
 10
325.8341689146899
 20
197.8057497467005
 30
0.0
 10
325.7957836799873
 20
197.8244813132451
 30
0.0
 10
325.7766477272727
 20
197.8338194448065
 30
0.0
  0
SPLINE
  5
2FF
330
1F
100
AcDbEntity
  8
0
  6
Continuous
 62
     7
370
    25
100
AcDbSpline
210
0.0
220
0.0
230
1.0
 70
     8
 71
     3
 72
    23
 73
    19
 74
     0
 42
0.000000001
 43
0.00000001
 40
0.0
 40
0.0
 40
0.0
 40
0.0
 40
0.0838757011713844
 40
0.1627002619072092
 40
0.2366373969403642
 40
0.3059982833359136
 40
0.3707988108096669
 40
0.4312335182308226
 40
0.48833577794168
 40
0.5424441322884362
 40
0.5952722887951952
 40
0.6483716879973133
 40
0.7021510655130977
 40
0.7579963679795555
 40
0.8148204673977174
 40
0.8740154473088951
 40
0.9356443925564378
 40
1.0
 40
1.0
 40
1.0
 40
1.0
 10
325.2915625
 20
195.2216035357156
 30
0.0
 10
325.3221133928546
 20
195.2220302752204
 30
0.0
 10
325.3813753507224
 20
195.2228580552358
 30
0.0
 10
325.4673856068505
 20
195.2287163151751
 30
0.0
 10
325.5478869148563
 20
195.2373757521361
 30
0.0
 10
325.6223759744744
 20
195.2514606308878
 30
0.0
 10
325.6917089672228
 20
195.2666612706532
 30
0.0
 10
325.7543709393973
 20
195.2889322201666
 30
0.0
 10
325.8123903727312
 20
195.3123613779504
 30
0.0
 10
325.8648563126111
 20
195.3412592751388
 30
0.0
 10
325.912827825507
 20
195.3744636902392
 30
0.0
 10
325.9580009028573
 20
195.4112685374542
 30
0.0
 10
325.9993202627032
 20
195.4539044648121
 30
0.0
 10
326.0380710637105
 20
195.5005741990893
 30
0.0
 10
326.074717074425
 20
195.5513893634736
 30
0.0
 10
326.1081996182871
 20
195.6068547486412
 30
0.0
 10
326.1377542878241
 20
195.6675571295236
 30
0.0
 10
326.1554119210143
 20
195.7099113001655
 30
0.0
 10
326.1644318181818
 20
195.7315467175338
 30
0.0
  0
LINE
  5
300
330
1F
100
AcDbEntity
  8
0
  6
Continuous
 62
     7
370
    25
100
AcDbLine
 10
324.6672727273
 20
195.2216035357
 30
0.0
 11
325.2915625
 21
195.2216035357
 31
0.0
  0
LINE
  5
301
330
1F
100
AcDbEntity
  8
0
  6
Continuous
 62
     7
370
    25
100
AcDbLine
 10
324.6672727273
 20
197.9034217175
 30
0.0
 11
324.6672727273
 21
195.2216035357
 31
0.0
  0
LINE
  5
302
330
1F
100
AcDbEntity
  8
0
  6
Continuous
 62
     7
370
    25
100
AcDbLine
 10
325.2816193182
 20
197.9034217175
 30
0.0
 11
324.6672727273
 21
197.9034217175
 31
0.0
  0
SPLINE
  5
303
330
1F
100
AcDbEntity
  8
0
  6
Continuous
 62
     7
370
    25
100
AcDbSpline
210
0.0
220
0.0
230
1.0
 70
     8
 71
     3
 72
    15
 73
    11
 74
     0
 42
0.000000001
 43
0.00000001
 40
0.0
 40
0.0
 40
0.0
 40
0.0
 40
0.1116456946495738
 40
0.2264258713479465
 40
0.3444741085554709
 40
0.4664619175398294
 40
0.5931634275125093
 40
0.7242447941216931
 40
0.8597655265817259
 40
1.0
 40
1.0
 40
1.0
 40
1.0
 10
326.1644318181818
 20
195.7315467175338
 30
0.0
 10
326.1756556784774
 20
195.7619715094715
 30
0.0
 10
326.1984185118791
 20
195.8236752773301
 30
0.0
 10
326.2267843434335
 20
195.9197070728342
 30
0.0
 10
326.2497069803085
 20
196.0201940992427
 30
0.0
 10
326.2702185078098
 20
196.1247546530106
 30
0.0
 10
326.2843529632917
 20
196.2341826375864
 30
0.0
 10
326.2962125069507
 20
196.3478040628511
 30
0.0
 10
326.3023885060899
 20
196.4658524009539
 30
0.0
 10
326.303215697801
 20
196.5459347289386
 30
0.0
 10
326.3036363636364
 20
196.5866603538974
 30
0.0
  0
SPLINE
  5
304
330
1F
100
AcDbEntity
  8
0
  6
Continuous
 62
     7
370
    25
100
AcDbSpline
210
0.0
220
0.0
230
1.0
 70
     8
 71
     3
 72
    15
 73
    11
 74
     0
 42
0.000000001
 43
0.00000001
 40
0.0
 40
0.0
 40
0.0
 40
0.0
 40
0.1348306128719199
 40
0.2655522766928016
 40
0.3942179015238056
 40
0.5192745831226615
 40
0.642230360710708
 40
0.7628424106338232
 40
0.8821514059548589
 40
1.0
 40
1.0
 40
1.0
 40
1.0
 10
317.6672727272727
 20
196.569614899352
 30
0.0
 10
317.6669256579884
 20
196.6060843019173
 30
0.0
 10
317.6662420963206
 20
196.677911705758
 30
0.0
 10
317.6589535991689
 20
196.7843497605586
 30
0.0
 10
317.6467348979733
 20
196.887617108452
 30
0.0
 10
317.6309858010319
 20
196.9883390104983
 30
0.0
 10
317.6081651670672
 20
197.0854355009466
 30
0.0
 10
317.5833242086518
 20
197.1804175223852
 30
0.0
 10
317.5518138838787
 20
197.2720079576913
 30
0.0
 10
317.5274105972726
 20
197.3313298067287
 30
0.0
 10
317.5152840909091
 20
197.3608080811701
 30
0.0
  0
SPLINE
  5
305
330
1F
100
AcDbEntity
  8
0
  6
Continuous
 62
     7
370
    25
100
AcDbSpline
210
0.0
220
0.0
230
1.0
 70
     8
 71
     3
 72
    23
 73
    19
 74
     0
 42
0.000000001
 43
0.00000001
 40
0.0
 40
0.0
 40
0.0
 40
0.0
 40
0.0549231502919699
 40
0.1086030052064171
 40
0.1610368556519759
 40
0.2129852978324795
 40
0.2656874514313826
 40
0.3191576965915259
 40
0.3745727672960877
 40
0.4325440293275161
 40
0.492437848824433
 40
0.5542084725851989
 40
0.6185456342266038
 40
0.6863015999283235
 40
0.7577792075712924
 40
0.8336420180410764
 40
0.9144133612381078
 40
1.0
 40
1.0
 40
1.0
 40
1.0
 10
316.6417045454546
 20
195.176148990261
 30
0.0
 10
316.677276695637
 20
195.1772811226407
 30
0.0
 10
316.7476157492225
 20
195.179519759319
 30
0.0
 10
316.8508574371222
 20
195.1960894174092
 30
0.0
 10
316.9496619465169
 20
195.2236941600097
 30
0.0
 10
317.0434871525686
 20
195.2635688169427
 30
0.0
 10
317.1332452463099
 20
195.3132102205761
 30
0.0
 10
317.2184987100432
 20
195.3742813017278
 30
0.0
 10
317.2989434115351
 20
195.4466619512714
 30
0.0
 10
317.3749548596056
 20
195.5294587291841
 30
0.0
 10
317.443780465345
 20
195.623495645213
 30
0.0
 10
317.5046935130628
 20
195.7276718012665
 30
0.0
 10
317.5549615696318
 20
195.8429856244747
 30
0.0
 10
317.5956686632715
 20
195.9684901699553
 30
0.0
 10
317.628794921743
 20
196.1039461833884
 30
0.0
 10
317.6505052388248
 20
196.2501675316665
 30
0.0
 10
317.6654415046149
 20
196.4064256300949
 30
0.0
 10
317.6666506532961
 20
196.5141788237661
 30
0.0
 10
317.6672727272727
 20
196.569614899352
 30
0.0
  0
SPLINE
  5
306
330
1F
100
AcDbEntity
  8
0
  6
Continuous
 62
     7
370
    25
100
AcDbSpline
210
0.0
220
0.0
230
1.0
 70
     8
 71
     3
 72
    15
 73
    11
 74
     0
 42
0.000000001
 43
0.00000001
 40
0.0
 40
0.0
 40
0.0
 40
0.0
 40
0.1290893592394788
 40
0.255100016180433
 40
0.3798655055392197
 40
0.5068907155239867
 40
0.6325188027370866
 40
0.754841705189159
 40
0.8765222138546879
 40
1.0
 40
1.0
 40
1.0
 40
1.0
 10
317.5152840909091
 20
197.3608080811701
 30
0.0
 10
317.4947929965973
 20
197.4039220672565
 30
0.0
 10
317.4542995080458
 20
197.4891217972189
 30
0.0
 10
317.371510527599
 20
197.603132542278
 30
0.0
 10
317.2756754270009
 20
197.7050012451383
 30
0.0
 10
317.1650304423612
 20
197.7904377405441
 30
0.0
 10
317.0456513880423
 20
197.8612936624779
 30
0.0
 10
316.9185885306879
 20
197.9123198220892
 30
0.0
 10
316.7857030891687
 20
197.9432437922214
 30
0.0
 10
316.6951337174257
 20
197.9469896190683
 30
0.0
 10
316.6495170454545
 20
197.9488762629883
 30
0.0
  0
SPLINE
  5
307
330
1F
100
AcDbEntity
  8
0
  6
Continuous
 62
     7
370
    25
100
AcDbSpline
210
0.0
220
0.0
230
1.0
 70
     8
 71
     3
 72
    23
 73
    19
 74
     0
 42
0.000000001
 43
0.00000001
 40
0.0
 40
0.0
 40
0.0
 40
0.0
 40
0.054969301025597
 40
0.1083590609100919
 40
0.1601640429853788
 40
0.2113322971038464
 40
0.2628532052336254
 40
0.3149821664487521
 40
0.3690071678834783
 40
0.4247807921276377
 40
0.4829618213623599
 40
0.5435867127152633
 40
0.6079447966355056
 40
0.6759283484733851
 40
0.749003235152355
 40
0.827141000277197
 40
0.9105022622530009
 40
1.0
 40
1.0
 40
1.0
 40
1.0
 10
316.6495170454545
 20
197.9488762629883
 30
0.0
 10
316.6130012266368
 20
197.9477449956691
 30
0.0
 10
316.5410188699099
 20
197.9455149679617
 30
0.0
 10
316.4356132686208
 20
197.9290771739318
 30
0.0
 10
316.3353526274149
 20
197.9011693612946
 30
0.0
 10
316.2401566263983
 20
197.8623597722079
 30
0.0
 10
316.1493906714254
 20
197.8135087142416
 30
0.0
 10
316.0642787326933
 20
197.7520692876497
 30
0.0
 10
315.9839447653272
 20
197.6802750101081
 30
0.0
 10
315.9091550427664
 20
197.5972653460891
 30
0.0
 10
315.840150269185
 20
197.5036955721639
 30
0.0
 10
315.7824921889253
 20
197.3962569890927
 30
0.0
 10
315.7316115756987
 20
197.2784301125055
 30
0.0
 10
315.6917352643454
 20
197.1477394660402
 30
0.0
 10
315.6594714782851
 20
197.0056200661565
 30
0.0
 10
315.638790159098
 20
196.8510904143172
 30
0.0
 10
315.6235218641493
 20
196.6849754394037
 30
0.0
 10
315.6223993588672
 20
196.5701281918949
 30
0.0
 10
315.6218181818182
 20
196.5106660357156
 30
0.0
  0
SPLINE
  5
308
330
1F
100
AcDbEntity
  8
0
  6
Continuous
 62
     7
370
    25
100
AcDbSpline
210
0.0
220
0.0
230
1.0
 70
     8
 71
     3
 72
    23
 73
    19
 74
     0
 42
0.000000001
 43
0.00000001
 40
0.0
 40
0.0
 40
0.0
 40
0.0
 40
0.0820167094769213
 40
0.1594134130609959
 40
0.2330069745226142
 40
0.303189177358941
 40
0.3699716694339439
 40
0.4341909870753243
 40
0.496708954997673
 40
0.5582085812881032
 40
0.618080969644611
 40
0.6750827924608154
 40
0.7301076280391964
 40
0.7838984160543082
 40
0.8370755298410726
 40
0.8904187639022285
 40
0.9443870054531992
 40
0.9999999999999999
 40
0.9999999999999999
 40
0.9999999999999999
 40
0.9999999999999999
 10
315.6218181818182
 20
196.5106660357156
 30
0.0
 10
315.6228506363221
 20
196.4592656651681
 30
0.0
 10
315.6248573871093
 20
196.359360309859
 30
0.0
 10
315.6381398685518
 20
196.2137850779759
 30
0.0
 10
315.6614928834084
 20
196.0770049433014
 30
0.0
 10
315.6941693439239
 20
195.9490330077548
 30
0.0
 10
315.7348739774289
 20
195.8294944512109
 30
0.0
 10
315.786491660068
 20
195.7194913902776
 30
0.0
 10
315.8469745387065
 20
195.6179784241841
 30
0.0
 10
315.9165002481143
 20
195.5257609542178
 30
0.0
 10
315.9929712712771
 20
195.4440149644233
 30
0.0
 10
316.0733684220759
 20
195.3719910933532
 30
0.0
 10
316.1586984392932
 20
195.3123440803469
 30
0.0
 10
316.2469330695719
 20
195.2617734572913
 30
0.0
 10
316.3400082647332
 20
195.2231367620851
 30
0.0
 10
316.4371544966905
 20
195.1964143932787
 30
0.0
 10
316.5381279937213
 20
195.1794096605688
 30
0.0
 10
316.6068352756003
 20
195.1772467019628
 30
0.0
 10
316.6417045454546
 20
195.176148990261
 30
0.0
  0
SPLINE
  5
309
330
1F
100
AcDbEntity
  8
0
  6
Continuous
 62
     7
370
    25
100
AcDbSpline
210
0.0
220
0.0
230
1.0
 70
     8
 71
     3
 72
    23
 73
    19
 74
     0
 42
0.000000001
 43
0.00000001
 40
0.0
 40
0.0
 40
0.0
 40
0.0
 40
0.04858613413488
 40
0.0962602058660294
 40
0.1431674606468378
 40
0.1913492648606341
 40
0.2403169073324709
 40
0.2916690293142803
 40
0.3455098677312233
 40
0.4028526006308539
 40
0.4630768848996512
 40
0.5263885353005525
 40
0.5935261726947687
 40
0.6645681194727823
 40
0.7401213189636109
 40
0.8214824859429299
 40
0.9080398943911004
 40
1.0
 40
1.0
 40
1.0
 40
1.0
 10
337.4265056818182
 20
195.1306944448065
 30
0.0
 10
337.4469222597302
 20
195.1312998828431
 30
0.0
 10
337.4873721540854
 20
195.1324993935898
 30
0.0
 10
337.5465395730885
 20
195.1444113682469
 30
0.0
 10
337.6036245981363
 20
195.163027039069
 30
0.0
 10
337.6582826791983
 20
195.189371074612
 30
0.0
 10
337.7105569289832
 20
195.2235265199262
 30
0.0
 10
337.7613311555613
 20
195.2638603756033
 30
0.0
 10
337.8089688677446
 20
195.3129205185196
 30
0.0
 10
337.8542433872899
 20
195.3689261988178
 30
0.0
 10
337.8965855422969
 20
195.432138845468
 30
0.0
 10
337.9326650983892
 20
195.5037812601785
 30
0.0
 10
337.9630926074561
 20
195.5828313581325
 30
0.0
 10
337.9875311103807
 20
195.6692339802967
 30
0.0
 10
338.0079644608109
 20
195.7628166080355
 30
0.0
 10
338.0204674585642
 20
195.8643333170505
 30
0.0
 10
338.0294939966961
 20
195.9730984719953
 30
0.0
 10
338.0304279708319
 20
196.0480502734561
 30
0.0
 10
338.0309090909091
 20
196.0866603538974
 30
0.0
  0
SPLINE
  5
30A
330
1F
100
AcDbEntity
  8
0
  6
Continuous
 62
     7
370
    25
100
AcDbSpline
210
0.0
220
0.0
230
1.0
 70
     8
 71
     3
 72
    23
 73
    19
 74
     0
 42
0.000000001
 43
0.00000001
 40
0.0
 40
0.0
 40
0.0
 40
0.0
 40
0.0918285138918167
 40
0.17776968204482
 40
0.2580302212286025
 40
0.333105534868574
 40
0.4031864489552399
 40
0.4696188742250254
 40
0.5315789437437183
 40
0.5909885331931855
 40
0.6474788880247825
 40
0.7009891280720509
 40
0.7520816197681415
 40
0.801798457018857
 40
0.8506073055732984
 40
0.8995301788482177
 40
0.9492936912810971
 40
1.0
 40
1.0
 40
1.0
 40
1.0
 10
336.8036363636364
 20
196.0866603538974
 30
0.0
 10
336.8041158359702
 20
196.0475771604651
 30
0.0
 10
336.8050440405193
 20
195.9719164906436
 30
0.0
 10
336.8140204212793
 20
195.8624337774172
 30
0.0
 10
336.8266595377162
 20
195.7604633049108
 30
0.0
 10
336.8469646419802
 20
195.6666279694791
 30
0.0
 10
336.8712889151603
 20
195.5798372737419
 30
0.0
 10
336.9025475808482
 20
195.5012239916904
 30
0.0
 10
336.9388822987178
 20
195.4298976217597
 30
0.0
 10
336.9807972025985
 20
195.3666834339583
 30
0.0
 10
337.0269985435334
 20
195.3111676591578
 30
0.0
 10
337.0763020873076
 20
195.2633811447518
 30
0.0
 10
337.1277158207434
 20
195.2223563669522
 30
0.0
 10
337.1818753629552
 20
195.1885519191275
 30
0.0
 10
337.2393265848128
 20
195.1628579073067
 30
0.0
 10
337.2994205637325
 20
195.1444007456162
 30
0.0
 10
337.3621166860843
 20
195.1325020424804
 30
0.0
 10
337.4049088311872
 20
195.1313007350044
 30
0.0
 10
337.4265056818182
 20
195.1306944448065
 30
0.0
  0
SPLINE
  5
30B
330
1F
100
AcDbEntity
  8
0
  6
Continuous
 62
     7
370
    25
100
AcDbSpline
210
0.0
220
0.0
230
1.0
 70
     8
 71
     3
 72
    23
 73
    19
 74
     0
 42
0.000000001
 43
0.00000001
 40
0.0
 40
0.0
 40
0.0
 40
0.0
 40
0.0492081114433093
 40
0.0969393295480919
 40
0.1444395158836682
 40
0.1924372048271326
 40
0.2419392722209244
 40
0.293272261514355
 40
0.347177638338805
 40
0.404151451913319
 40
0.4641377667933039
 40
0.5270227956702984
 40
0.5937146723299063
 40
0.6648417762905727
 40
0.7403695305280299
 40
0.8212684990064687
 40
0.9079296628467064
 40
1.0
 40
1.0
 40
1.0
 40
1.0
 10
337.4080397727272
 20
197.0397853538974
 30
0.0
 10
337.3873843181788
 20
197.0391972724936
 30
0.0
 10
337.3466933455584
 20
197.0380387598962
 30
0.0
 10
337.2870849620221
 20
197.0259799446659
 30
0.0
 10
337.2298411522988
 20
197.0074959457609
 30
0.0
 10
337.1746081772818
 20
196.9816920090593
 30
0.0
 10
337.1217841878998
 20
196.9481309006844
 30
0.0
 10
337.071986809678
 20
196.906310074821
 30
0.0
 10
337.0243721970275
 20
196.8576586068149
 30
0.0
 10
336.97855077056
 20
196.8024233446589
 30
0.0
 10
336.9376069879871
 20
196.7389213387771
 30
0.0
 10
336.9010716690183
 20
196.66819718111
 30
0.0
 10
336.8706938535039
 20
196.5895629468384
 30
0.0
 10
336.8460924486597
 20
196.503470482977
 30
0.0
 10
336.8269146866324
 20
196.40991623345
 30
0.0
 10
336.8139399681039
 20
196.3087752143674
 30
0.0
 10
336.8050841800197
 20
196.2002162213444
 30
0.0
 10
336.8041286089751
 20
196.1252683894747
 30
0.0
 10
336.8036363636364
 20
196.0866603538974
 30
0.0
  0
SPLINE
  5
30C
330
1F
100
AcDbEntity
  8
0
  6
Continuous
 62
     7
370
    25
100
AcDbSpline
210
0.0
220
0.0
230
1.0
 70
     8
 71
     3
 72
    23
 73
    19
 74
     0
 42
0.000000001
 43
0.00000001
 40
0.0
 40
0.0
 40
0.0
 40
0.0
 40
0.0914820109348281
 40
0.1770646809617236
 40
0.2569568658574884
 40
0.3322046711927941
 40
0.4019110831417151
 40
0.4679780540384924
 40
0.5305767406473119
 40
0.5896588361577446
 40
0.6462789822163432
 40
0.7003021260507273
 40
0.7515120069402041
 40
0.801343072705305
 40
0.8502640635955725
 40
0.8992993411874725
 40
0.949177189374798
 40
1.0
 40
1.0
 40
1.0
 40
1.0
 10
338.0309090909091
 20
196.0866603538974
 30
0.0
 10
338.0304282874315
 20
196.1255066647076
 30
0.0
 10
338.0294976857373
 20
196.2006942295616
 30
0.0
 10
338.0205442314593
 20
196.3094714647831
 30
0.0
 10
338.0078029625865
 20
196.410952029701
 30
0.0
 10
337.9876714999293
 20
196.5043446045623
 30
0.0
 10
337.9633185170467
 20
196.5906894681567
 30
0.0
 10
337.9316024874343
 20
196.6688282413106
 30
0.0
 10
337.8960996679664
 20
196.7403610611249
 30
0.0
 10
337.8535276257252
 20
196.8031941018205
 30
0.0
 10
337.8073325285386
 20
196.8586057308949
 30
0.0
 10
337.7584836404383
 20
196.9071113891601
 30
0.0
 10
337.7068015095991
 20
196.948093905764
 30
0.0
 10
337.6526773878134
 20
196.9819355394626
 30
0.0
 10
337.595216926771
 20
197.0076198515931
 30
0.0
 10
337.5351254190799
 20
197.0260796076848
 30
0.0
 10
337.4724286325164
 20
197.0379776135028
 30
0.0
 10
337.4296365777607
 20
197.0391790158293
 30
0.0
 10
337.4080397727272
 20
197.0397853538974
 30
0.0
  0
SPLINE
  5
30D
330
1F
100
AcDbEntity
  8
0
  6
Continuous
 62
     7
370
    25
100
AcDbSpline
210
0.0
220
0.0
230
1.0
 70
     8
 71
     3
 72
    15
 73
    11
 74
     0
 42
0.000000001
 43
0.00000001
 40
0.0
 40
0.0
 40
0.0
 40
0.0
 40
0.1510739700527839
 40
0.2949499051911129
 40
0.4307193228074199
 40
0.5599595334307873
 40
0.681357379842828
 40
0.7944179911337563
 40
0.9012434198188539
 40
1.0
 40
1.0
 40
1.0
 40
1.0
 10
304.4343181818182
 20
197.2287058084429
 30
0.0
 10
304.4233714323839
 20
197.2646738599759
 30
0.0
 10
304.4019994997693
 20
197.3348962377016
 30
0.0
 10
304.371734894314
 20
197.4377234110737
 30
0.0
 10
304.34268775007
 20
197.5352530629692
 30
0.0
 10
304.3178758920334
 20
197.6281655148492
 30
0.0
 10
304.2932034591187
 20
197.7152518845995
 30
0.0
 10
304.2719251647972
 20
197.797481300595
 30
0.0
 10
304.2528243498238
 20
197.8744456658132
 30
0.0
 10
304.2410909732348
 20
197.9242440886367
 30
0.0
 10
304.2354545454546
 20
197.9481660357156
 30
0.0
  0
LINE
  5
30E
330
1F
100
AcDbEntity
  8
0
  6
Continuous
 62
     7
370
    25
100
AcDbLine
 10
304.7269318182
 20
196.2670580812
 30
0.0
 11
304.4343181818
 21
197.2287058084
 31
0.0
  0
LINE
  5
30F
330
1F
100
AcDbEntity
  8
0
  6
Continuous
 62
     7
370
    25
100
AcDbLine
 10
303.7432670455
 20
196.2670580812
 30
0.0
 11
304.7269318182
 21
196.2670580812
 31
0.0
  0
LINE
  5
310
330
1F
100
AcDbEntity
  8
0
  6
Continuous
 62
     7
370
    25
100
AcDbLine
 10
304.0728125
 20
197.2855239903
 30
0.0
 11
303.7432670455
 21
196.2670580812
 31
0.0
  0
SPLINE
  5
311
330
1F
100
AcDbEntity
  8
0
  6
Continuous
 62
     7
370
    25
100
AcDbSpline
210
0.0
220
0.0
230
1.0
 70
     8
 71
     3
 72
    11
 73
     7
 74
     0
 42
0.000000001
 43
0.00000001
 40
0.0
 40
0.0
 40
0.0
 40
0.0
 40
0.2488751571872396
 40
0.4974197103002305
 40
0.7479413436558426
 40
1.0
 40
1.0
 40
1.0
 40
1.0
 10
304.2354545454546
 20
197.9481660357156
 30
0.0
 10
304.2252219963891
 20
197.8924453075951
 30
0.0
 10
304.2047704911073
 20
197.7810778703921
 30
0.0
 10
304.1664349503754
 20
197.6151754300355
 30
0.0
 10
304.1237854982281
 20
197.4495723666041
 30
0.0
 10
304.0898381061002
 20
197.3403181584301
 30
0.0
 10
304.0728125
 20
197.2855239902611
 30
0.0
  0
LINE
  5
312
330
1F
100
AcDbEntity
  8
0
  6
Continuous
 62
     7
370
    25
100
AcDbLine
 10
328.6814772727
 20
196.2670580812
 30
0.0
 11
328.3888636364
 21
197.2287058084
 31
0.0
  0
LINE
  5
313
330
1F
100
AcDbEntity
  8
0
  6
Continuous
 62
     7
370
    25
100
AcDbLine
 10
327.6978125
 20
196.2670580812
 30
0.0
 11
328.6814772727
 21
196.2670580812
 31
0.0
  0
LINE
  5
314
330
1F
100
AcDbEntity
  8
0
  6
Continuous
 62
     7
370
    25
100
AcDbLine
 10
328.0273579545
 20
197.2855239903
 30
0.0
 11
327.6978125
 21
196.2670580812
 31
0.0
  0
SPLINE
  5
315
330
1F
100
AcDbEntity
  8
0
  6
Continuous
 62
     7
370
    25
100
AcDbSpline
210
0.0
220
0.0
230
1.0
 70
     8
 71
     3
 72
    11
 73
     7
 74
     0
 42
0.000000001
 43
0.00000001
 40
0.0
 40
0.0
 40
0.0
 40
0.0
 40
0.2488751571872399
 40
0.4974197103002299
 40
0.7479413436558436
 40
1.0
 40
1.0
 40
1.0
 40
1.0
 10
328.19
 20
197.9481660357156
 30
0.0
 10
328.1797674509346
 20
197.8924453075951
 30
0.0
 10
328.1593159456527
 20
197.7810778703921
 30
0.0
 10
328.1209804049209
 20
197.6151754300355
 30
0.0
 10
328.0783309527736
 20
197.4495723666041
 30
0.0
 10
328.0443835606457
 20
197.3403181584301
 30
0.0
 10
328.0273579545454
 20
197.2855239902611
 30
0.0
  0
SPLINE
  5
316
330
1F
100
AcDbEntity
  8
0
  6
Continuous
 62
     7
370
    25
100
AcDbSpline
210
0.0
220
0.0
230
1.0
 70
     8
 71
     3
 72
    15
 73
    11
 74
     0
 42
0.000000001
 43
0.00000001
 40
0.0
 40
0.0
 40
0.0
 40
0.0
 40
0.1510739700527838
 40
0.2949499051911151
 40
0.4307193228074207
 40
0.559959533430788
 40
0.6813573798428272
 40
0.7944179911337578
 40
0.901243419818854
 40
1.0
 40
1.0
 40
1.0
 40
1.0
 10
328.3888636363637
 20
197.2287058084429
 30
0.0
 10
328.3779168869294
 20
197.2646738599759
 30
0.0
 10
328.3565449543148
 20
197.3348962377016
 30
0.0
 10
328.3262803488595
 20
197.4377234110737
 30
0.0
 10
328.2972332046154
 20
197.5352530629692
 30
0.0
 10
328.272421346579
 20
197.6281655148492
 30
0.0
 10
328.2477489136641
 20
197.7152518845994
 30
0.0
 10
328.2264706193427
 20
197.797481300595
 30
0.0
 10
328.2073698043693
 20
197.8744456658132
 30
0.0
 10
328.1956364277803
 20
197.9242440886367
 30
0.0
 10
328.19
 20
197.9481660357156
 30
0.0
  0
LINE
  5
317
330
1F
100
AcDbEntity
  8
0
  6
Continuous
 62
     7
370
    25
100
AcDbLine
 10
271.94
 20
189.8125126266
 30
0.0
 11
348.94
 21
189.8125126266
 31
0.0
  0
LINE
  5
318
330
1F
100
AcDbEntity
  8
0
  6
Continuous
 62
     7
370
    25
100
AcDbLine
 10
271.94
 20
192.8125126266
 30
0.0
 11
271.94
 21
189.8125126266
 31
0.0
  0
LINE
  5
319
330
1F
100
AcDbEntity
  8
0
  6
Continuous
 62
     7
370
    25
100
AcDbLine
 10
348.94
 20
192.8125126266
 30
0.0
 11
348.94
 21
189.8125126266
 31
0.0
  0
LINE
  5
31A
330
1F
100
AcDbEntity
  8
0
  6
Continuous
 62
     7
370
    25
100
AcDbLine
 10
271.94
 20
234.8125126266
 30
0.0
 11
271.94
 21
231.8125126266
 31
0.0
  0
LINE
  5
31B
330
1F
100
AcDbEntity
  8
0
  6
Continuous
 62
     7
370
    25
100
AcDbLine
 10
271.94
 20
234.8125126266
 30
0.0
 11
348.94
 21
234.8125126266
 31
0.0
  0
LINE
  5
31C
330
1F
100
AcDbEntity
  8
0
  6
Continuous
 62
     7
370
    25
100
AcDbLine
 10
348.94
 20
234.8125126266
 30
0.0
 11
348.94
 21
231.8125126266
 31
0.0
  0
CIRCLE
  5
31D
330
1F
100
AcDbEntity
  8
0
  6
Continuous
 62
     7
370
    25
100
AcDbCircle
 10
326.94
 20
212.3125126266
 30
0.0
 40
2.0
  0
LINE
  5
31E
330
1F
100
AcDbEntity
  8
0
  6
Continuous
 62
     7
370
    25
100
AcDbLine
 10
290.74
 20
239.8125126266
 30
0.0
 11
279.14
 21
239.8125126266
 31
0.0
  0
LINE
  5
31F
330
1F
100
AcDbEntity
  8
0
  6
Continuous
 62
     7
370
    25
100
AcDbLine
 10
292.74
 20
239.8125126266
 30
0.0
 11
304.34
 21
239.8125126266
 31
0.0
  0
LINE
  5
320
330
1F
100
AcDbEntity
  8
0
  6
Continuous
 62
     7
370
    25
100
AcDbLine
 10
271.94
 20
237.3125126266
 30
0.0
 11
271.94
 21
234.8125126266
 31
0.0
  0
LINE
  5
321
330
1F
100
AcDbEntity
  8
0
  6
Continuous
 62
     7
370
    25
100
AcDbLine
 10
271.94
 20
237.3125126266
 30
0.0
 11
279.14
 21
237.3125126266
 31
0.0
  0
LINE
  5
322
330
1F
100
AcDbEntity
  8
0
  6
Continuous
 62
     7
370
    25
100
AcDbLine
 10
290.74
 20
237.3125126266
 30
0.0
 11
292.74
 21
237.3125126266
 31
0.0
  0
LINE
  5
323
330
1F
100
AcDbEntity
  8
0
  6
Continuous
 62
     7
370
    25
100
AcDbLine
 10
304.34
 20
237.3125126266
 30
0.0
 11
315.94
 21
237.3125126266
 31
0.0
  0
LINE
  5
324
330
1F
100
AcDbEntity
  8
0
  6
Continuous
 62
     7
370
    25
100
AcDbLine
 10
315.94
 20
237.3125126266
 30
0.0
 11
315.94
 21
234.8125126266
 31
0.0
  0
LINE
  5
325
330
1F
100
AcDbEntity
  8
0
  6
Continuous
 62
     7
370
    25
100
AcDbLine
 10
271.94
 20
237.3125126266
 30
0.0
 11
271.94
 21
237.5125126266
 31
0.0
  0
LINE
  5
326
330
1F
100
AcDbEntity
  8
0
  6
Continuous
 62
     7
370
    25
100
AcDbLine
 10
315.94
 20
237.3125126266
 30
0.0
 11
315.94
 21
237.5125126266
 31
0.0
  0
LINE
  5
327
330
1F
100
AcDbEntity
  8
0
  6
Continuous
 62
     7
370
    25
100
AcDbLine
 10
271.94
 20
240.8125126266
 30
0.0
 11
281.44
 21
240.8125126266
 31
0.0
  0
LINE
  5
328
330
1F
100
AcDbEntity
  8
0
  6
Continuous
 62
     7
370
    25
100
AcDbLine
 10
288.44
 20
240.8125126266
 30
0.0
 11
295.04
 21
240.8125126266
 31
0.0
  0
LINE
  5
329
330
1F
100
AcDbEntity
  8
0
  6
Continuous
 62
     7
370
    25
100
AcDbLine
 10
302.04
 20
240.8125126266
 30
0.0
 11
315.94
 21
240.8125126266
 31
0.0
  0
LINE
  5
32A
330
1F
100
AcDbEntity
  8
0
  6
Continuous
 62
     7
370
    25
100
AcDbLine
 10
271.94
 20
240.8125126266
 30
0.0
 11
271.94
 21
237.5125126266
 31
0.0
  0
LINE
  5
32B
330
1F
100
AcDbEntity
  8
0
  6
Continuous
 62
     7
370
    25
100
AcDbLine
 10
315.94
 20
240.8125126266
 30
0.0
 11
315.94
 21
237.5125126266
 31
0.0
  0
LINE
  5
32C
330
1F
100
AcDbEntity
  8
0
  6
Continuous
 62
     7
370
    25
100
AcDbLine
 10
271.94
 20
242.8125126266
 30
0.0
 11
281.44
 21
242.8125126266
 31
0.0
  0
LINE
  5
32D
330
1F
100
AcDbEntity
  8
0
  6
Continuous
 62
     7
370
    25
100
AcDbLine
 10
288.44
 20
242.8125126266
 30
0.0
 11
295.04
 21
242.8125126266
 31
0.0
  0
LINE
  5
32E
330
1F
100
AcDbEntity
  8
0
  6
Continuous
 62
     7
370
    25
100
AcDbLine
 10
302.04
 20
242.8125126266
 30
0.0
 11
315.94
 21
242.8125126266
 31
0.0
  0
LINE
  5
32F
330
1F
100
AcDbEntity
  8
0
  6
Continuous
 62
     7
370
    25
100
AcDbLine
 10
271.94
 20
242.8125126266
 30
0.0
 11
271.94
 21
240.8125126266
 31
0.0
  0
LINE
  5
330
330
1F
100
AcDbEntity
  8
0
  6
Continuous
 62
     7
370
    25
100
AcDbLine
 10
315.94
 20
242.8125126266
 30
0.0
 11
315.94
 21
240.8125126266
 31
0.0
  0
LINE
  5
331
330
1F
100
AcDbEntity
  8
0
  6
Continuous
 62
     8
370
    25
100
AcDbLine
 10
236.24
 20
240.3125126266
 30
0.0
 11
236.24
 21
236.3125126266
 31
0.0
  0
LINE
  5
332
330
1F
100
AcDbEntity
  8
0
  6
Continuous
 62
     8
370
    25
100
AcDbLine
 10
349.44
 20
228.3125126266
 30
0.0
 11
349.44
 21
221.6398916797
 31
0.0
  0
LINE
  5
333
330
1F
100
AcDbEntity
  8
0
  6
Continuous
 62
     8
370
    25
100
AcDbLine
 10
349.44
 20
202.9851335735
 30
0.0
 11
349.44
 21
196.3125126266
 31
0.0
  0
LINE
  5
334
330
1F
100
AcDbEntity
  8
0
  6
Continuous
 62
     8
370
    25
100
AcDbLine
 10
288.44
 20
243.0125126266
 30
0.0
 11
281.44
 21
243.0125126266
 31
0.0
  0
LINE
  5
335
330
1F
100
AcDbEntity
  8
0
  6
Continuous
 62
     8
370
    25
100
AcDbLine
 10
302.04
 20
243.0125126266
 30
0.0
 11
295.04
 21
243.0125126266
 31
0.0
  0
LINE
  5
336
330
1F
100
AcDbEntity
  8
0
  6
Continuous
 62
     8
370
    25
100
AcDbLine
 10
271.94
 20
237.5125126266
 30
0.0
 11
279.14
 21
237.5125126266
 31
0.0
  0
LINE
  5
337
330
1F
100
AcDbEntity
  8
0
  6
Continuous
 62
     8
370
    25
100
AcDbLine
 10
290.74
 20
237.5125126266
 30
0.0
 11
292.74
 21
237.5125126266
 31
0.0
  0
LINE
  5
338
330
1F
100
AcDbEntity
  8
0
  6
Continuous
 62
     8
370
    25
100
AcDbLine
 10
304.34
 20
237.5125126266
 30
0.0
 11
315.94
 21
237.5125126266
 31
0.0
  0
DIMENSION
  5
339
330
1F
100
AcDbEntity
  8
0
  6
Continuous
 62
     7
370
    18
100
AcDbDimension
  2
_D_7
 10
348.94
 20
181.3634500818
 30
0.0
 11
339.073269645
 21
181.3634500818
 31
0.0
 70
   160
  1
<>
 71
     2
 42
-1.0
  3
SLDDIMSTYLE0
100
AcDbAlignedDimension
 13
326.94
 23
212.3125126266
 33
0.0
 14
348.94
 24
231.8125126266
 34
0.0
100
AcDbRotatedDimension
  0
DIMENSION
  5
343
330
1F
100
AcDbEntity
  8
0
  6
Continuous
 62
     7
370
    18
100
AcDbDimension
  2
_D_8
 10
348.94
 20
173.8125126266
 30
0.0
 11
315.7003521402
 21
173.8125126266
 31
0.0
 70
   160
  1
<>
 71
     2
 42
-1.0
  3
SLDDIMSTYLE0
100
AcDbAlignedDimension
 13
271.94
 23
189.8125126266
 33
0.0
 14
348.94
 24
234.8125126266
 34
0.0
100
AcDbRotatedDimension
  0
DIMENSION
  5
34D
330
1F
100
AcDbEntity
  8
0
  6
Continuous
 62
     7
370
    18
100
AcDbDimension
  2
_D_9
 10
348.94
 20
242.5328525337
 30
0.0
 11
352.1572305961
 21
242.5328525337
 31
0.0
 70
   160
  1
<>
 71
     2
 42
-1.0
  3
SLDDIMSTYLE5
100
AcDbAlignedDimension
 13
355.44
 23
227.8125126266
 33
0.0
 14
348.94
 24
234.8125126266
 34
0.0
100
AcDbRotatedDimension
  0
DIMENSION
  5
35B
330
1F
100
AcDbEntity
  8
0
  6
Continuous
 62
     7
370
    18
100
AcDbDimension
  2
_D_10
 10
317.4035969304
 20
205.3125126266
 30
0.0
 11
317.4035969304
 21
211.8846723665
 31
0.0
 70
   160
  1
%%c<>
 71
     2
 42
-1.0
  3
SLDDIMSTYLE3
100
AcDbAlignedDimension
 13
326.94
 23
219.3125126266
 33
0.0
 14
326.94
 24
205.3125126266
 34
0.0
 50
90.0
100
AcDbRotatedDimension
  0
DIMENSION
  5
368
330
1F
100
AcDbEntity
  8
0
  6
Continuous
 62
     7
370
    18
100
AcDbDimension
  2
_D_11
 10
366.1781338199
 20
234.8125126266
 30
0.0
 11
366.1781338199
 21
224.9294175536
 31
0.0
 70
   160
  1
<>
 71
     2
 42
-1.0
  3
SLDDIMSTYLE5
100
AcDbAlignedDimension
 13
326.94
 23
212.3125126266
 33
0.0
 14
348.94
 24
234.8125126266
 34
0.0
 50
90.0
100
AcDbRotatedDimension
  0
INSERT
  5
37D
330
1F
100
AcDbEntity
  8
0
  6
Continuous
 62
     7
370
     0
100
AcDbBlockReference
  2
SW_CENTERMARKSYMBOL_7
 10
326.94
 20
212.3125126266
 30
0.0
  0
LINE
  5
37E
330
1F
100
AcDbEntity
  8
0
  6
CENTERX2
 62
     7
370
    18
100
AcDbLine
 10
284.94
 20
232.8125126266
 30
0.0
 11
284.94
 21
241.8125126266
 31
0.0
  0
LINE
  5
37F
330
1F
100
AcDbEntity
  8
0
  6
CENTERX2
 62
     7
370
    18
100
AcDbLine
 10
298.54
 20
232.8125126266
 30
0.0
 11
298.54
 21
241.8125126266
 31
0.0
  0
LINE
  5
380
330
1F
100
AcDbEntity
  8
0
  6
CENTERX2
 62
     7
370
    18
100
AcDbLine
 10
269.94
 20
212.3125126266
 30
0.0
 11
350.94
 21
212.3125126266
 31
0.0
  0
LINE
  5
381
330
1F
100
AcDbEntity
  8
0
  6
CENTERX2
 62
     7
370
    18
100
AcDbLine
 10
356.94
 20
212.3125126266
 30
0.0
 11
347.44
 21
212.3125126266
 31
0.0
  0
LINE
  5
382
330
1F
100
AcDbEntity
  8
0
  6
CENTERX2
 62
     7
370
    18
100
AcDbLine
 10
379.94
 20
212.3125126266
 30
0.0
 11
389.44
 21
212.3125126266
 31
0.0
  0
ENDSEC
  0
SECTION
  2
OBJECTS
  0
DICTIONARY
  5
C
330
0
100
AcDbDictionary
281
     1
  3
ACAD_GROUP
350
D
  3
ACAD_LAYOUT
350
1A
  3
ACAD_MLINESTYLE
350
17
  3
ACAD_PLOTSETTINGS
350
19
  3
ACAD_PLOTSTYLENAME
350
E
  3
ACAD_SCALELIST
350
47
  0
DICTIONARY
  5
D
102
{ACAD_REACTORS
330
C
102
}
330
C
100
AcDbDictionary
281
     1
  0
DICTIONARY
  5
1A
102
{ACAD_REACTORS
330
C
102
}
330
C
100
AcDbDictionary
281
     1
  3
Layout1
350
1E
  3
Layout2
350
26
  3
Model
350
22
  0
DICTIONARY
  5
17
102
{ACAD_REACTORS
330
C
102
}
330
C
100
AcDbDictionary
281
     1
  3
Standard
350
18
  0
DICTIONARY
  5
19
102
{ACAD_REACTORS
330
C
102
}
330
C
100
AcDbDictionary
281
     1
  0
ACDBDICTIONARYWDFLT
  5
E
102
{ACAD_REACTORS
330
C
102
}
330
C
100
AcDbDictionary
281
     1
  3
Normal
350
F
100
AcDbDictionaryWithDefault
340
F
  0
DICTIONARY
  5
47
102
{ACAD_REACTORS
330
C
102
}
330
C
100
AcDbDictionary
281
     1
  3
A0
350
48
  3
A1
350
49
  3
A2
350
4A
  3
A3
350
4B
  3
A4
350
4C
  3
A5
350
4D
  3
A6
350
4E
  3
A7
350
4F
  3
A8
350
50
  3
A9
350
51
  3
B0
350
52
  3
B1
350
53
  3
B2
350
54
  3
B3
350
55
  3
B4
350
56
  3
B5
350
57
  3
B6
350
58
  3
B7
350
59
  3
B8
350
5A
  3
B9
350
5B
  3
C0
350
5C
  3
C1
350
5D
  3
C2
350
5E
  3
C3
350
5F
  3
C4
350
60
  3
C5
350
61
  3
C6
350
62
  3
C7
350
63
  3
C8
350
64
  3
C9
350
65
  3
D0
350
66
  3
D1
350
67
  3
D2
350
68
  0
LAYOUT
  5
1E
102
{ACAD_REACTORS
330
1A
102
}
330
1A
100
AcDbPlotSettings
  1

  2
none_device
  4

  6

 40
0.0
 41
0.0
 42
0.0
 43
0.0
 44
0.0
 45
0.0
 46
0.0
 47
0.0
 48
0.0
 49
0.0
140
0.0
141
0.0
142
1.0
143
1.0
 70
   688
 72
     1
 73
     0
 74
     5
  7

 75
    16
147
1.0
148
0.0
149
0.0
100
AcDbLayout
  1
Layout1
 70
     1
 71
     1
 10
0.0
 20
0.0
 11
420.0
 21
297.0
 12
0.0
 22
0.0
 32
0.0
 14
1.0000000000E+20
 24
1.0000000000E+20
 34
1.0000000000E+20
 15
-1.0000000000E+20
 25
-1.0000000000E+20
 35
-1.0000000000E+20
146
0.0
 13
0.0
 23
0.0
 33
0.0
 16
1.0
 26
0.0
 36
0.0
 17
0.0
 27
1.0
 37
0.0
 76
     0
330
1B
  0
LAYOUT
  5
26
102
{ACAD_REACTORS
330
1A
102
}
330
1A
100
AcDbPlotSettings
  1

  2
none_device
  4

  6

 40
0.0
 41
0.0
 42
0.0
 43
0.0
 44
0.0
 45
0.0
 46
0.0
 47
0.0
 48
0.0
 49
0.0
140
0.0
141
0.0
142
1.0
143
1.0
 70
   688
 72
     1
 73
     0
 74
     5
  7

 75
    16
147
1.0
148
0.0
149
0.0
100
AcDbLayout
  1
Layout2
 70
     1
 71
     2
 10
0.0
 20
0.0
 11
0.0
 21
0.0
 12
0.0
 22
0.0
 32
0.0
 14
0.0
 24
0.0
 34
0.0
 15
0.0
 25
0.0
 35
0.0
146
0.0
 13
0.0
 23
0.0
 33
0.0
 16
1.0
 26
0.0
 36
0.0
 17
0.0
 27
1.0
 37
0.0
 76
     0
330
23
  0
LAYOUT
  5
22
102
{ACAD_REACTORS
330
1A
102
}
330
1A
100
AcDbPlotSettings
  1

  2
none_device
  4
Letter_(8.50_x_11.00_Inches)
  6

 40
6.35
 41
6.35
 42
6.35000508
 43
6.35000508
 44
215.9
 45
279.4
 46
0.0
 47
0.0
 48
0.0
 49
0.0
140
0.0
141
0.0
142
1.0
143
1.0
 70
  1712
 72
     1
 73
     0
 74
     0
  7

 75
     0
147
1.0
148
0.0
149
0.0
100
AcDbLayout
  1
Model
 70
     1
 71
     0
 10
0.0
 20
0.0
 11
420.0
 21
297.0
 12
0.0
 22
0.0
 32
0.0
 14
0.0
 24
0.0
 34
0.0
 15
420.0
 25
297.0
 35
0.0
146
0.0
 13
0.0
 23
0.0
 33
0.0
 16
1.0
 26
0.0
 36
0.0
 17
0.0
 27
1.0
 37
0.0
 76
     0
330
1F
331
29
  0
MLINESTYLE
  5
18
102
{ACAD_REACTORS
330
17
102
}
330
17
100
AcDbMlineStyle
  2
Standard
 70
     0
  3

 62
   256
 51
90.0
 52
90.0
 71
     2
 49
0.5
 62
   256
  6
BYLAYER
 49
-0.5
 62
   256
  6
BYLAYER
  0
ACDBPLACEHOLDER
  5
F
102
{ACAD_REACTORS
330
E
102
}
330
E
  0
SCALE
  5
48
102
{ACAD_REACTORS
330
47
102
}
330
47
100
AcDbScale
 70
     0
300
1:1
140
1.0
141
1.0
290
     1
  0
SCALE
  5
49
102
{ACAD_REACTORS
330
47
102
}
330
47
100
AcDbScale
 70
     0
300
1:2
140
1.0
141
2.0
290
     0
  0
SCALE
  5
4A
102
{ACAD_REACTORS
330
47
102
}
330
47
100
AcDbScale
 70
     0
300
1:4
140
1.0
141
4.0
290
     0
  0
SCALE
  5
4B
102
{ACAD_REACTORS
330
47
102
}
330
47
100
AcDbScale
 70
     0
300
1:5
140
1.0
141
5.0
290
     0
  0
SCALE
  5
4C
102
{ACAD_REACTORS
330
47
102
}
330
47
100
AcDbScale
 70
     0
300
1:8
140
1.0
141
8.0
290
     0
  0
SCALE
  5
4D
102
{ACAD_REACTORS
330
47
102
}
330
47
100
AcDbScale
 70
     0
300
1:10
140
1.0
141
10.0
290
     0
  0
SCALE
  5
4E
102
{ACAD_REACTORS
330
47
102
}
330
47
100
AcDbScale
 70
     0
300
1:16
140
1.0
141
16.0
290
     0
  0
SCALE
  5
4F
102
{ACAD_REACTORS
330
47
102
}
330
47
100
AcDbScale
 70
     0
300
1:20
140
1.0
141
20.0
290
     0
  0
SCALE
  5
50
102
{ACAD_REACTORS
330
47
102
}
330
47
100
AcDbScale
 70
     0
300
1:30
140
1.0
141
30.0
290
     0
  0
SCALE
  5
51
102
{ACAD_REACTORS
330
47
102
}
330
47
100
AcDbScale
 70
     0
300
1:40
140
1.0
141
40.0
290
     0
  0
SCALE
  5
52
102
{ACAD_REACTORS
330
47
102
}
330
47
100
AcDbScale
 70
     0
300
1:50
140
1.0
141
50.0
290
     0
  0
SCALE
  5
53
102
{ACAD_REACTORS
330
47
102
}
330
47
100
AcDbScale
 70
     0
300
1:100
140
1.0
141
100.0
290
     0
  0
SCALE
  5
54
102
{ACAD_REACTORS
330
47
102
}
330
47
100
AcDbScale
 70
     0
300
2:1
140
2.0
141
1.0
290
     0
  0
SCALE
  5
55
102
{ACAD_REACTORS
330
47
102
}
330
47
100
AcDbScale
 70
     0
300
4:1
140
4.0
141
1.0
290
     0
  0
SCALE
  5
56
102
{ACAD_REACTORS
330
47
102
}
330
47
100
AcDbScale
 70
     0
300
8:1
140
8.0
141
1.0
290
     0
  0
SCALE
  5
57
102
{ACAD_REACTORS
330
47
102
}
330
47
100
AcDbScale
 70
     0
300
10:1
140
10.0
141
1.0
290
     0
  0
SCALE
  5
58
102
{ACAD_REACTORS
330
47
102
}
330
47
100
AcDbScale
 70
     0
300
100:1
140
100.0
141
1.0
290
     0
  0
SCALE
  5
59
102
{ACAD_REACTORS
330
47
102
}
330
47
100
AcDbScale
 70
     0
300
1/128" = 1'-0"
140
0.0078125
141
12.0
290
     0
  0
SCALE
  5
5A
102
{ACAD_REACTORS
330
47
102
}
330
47
100
AcDbScale
 70
     0
300
1/64" = 1'-0"
140
0.015625
141
12.0
290
     0
  0
SCALE
  5
5B
102
{ACAD_REACTORS
330
47
102
}
330
47
100
AcDbScale
 70
     0
300
1/32" = 1'-0"
140
0.03125
141
12.0
290
     0
  0
SCALE
  5
5C
102
{ACAD_REACTORS
330
47
102
}
330
47
100
AcDbScale
 70
     0
300
1/16" = 1'-0"
140
0.0625
141
12.0
290
     0
  0
SCALE
  5
5D
102
{ACAD_REACTORS
330
47
102
}
330
47
100
AcDbScale
 70
     0
300
3/32" = 1'-0"
140
0.09375
141
12.0
290
     0
  0
SCALE
  5
5E
102
{ACAD_REACTORS
330
47
102
}
330
47
100
AcDbScale
 70
     0
300
1/8" = 1'-0"
140
0.125
141
12.0
290
     0
  0
SCALE
  5
5F
102
{ACAD_REACTORS
330
47
102
}
330
47
100
AcDbScale
 70
     0
300
3/16" = 1'-0"
140
0.1875
141
12.0
290
     0
  0
SCALE
  5
60
102
{ACAD_REACTORS
330
47
102
}
330
47
100
AcDbScale
 70
     0
300
1/4" = 1'-0"
140
0.25
141
12.0
290
     0
  0
SCALE
  5
61
102
{ACAD_REACTORS
330
47
102
}
330
47
100
AcDbScale
 70
     0
300
3/8" = 1'-0"
140
0.375
141
12.0
290
     0
  0
SCALE
  5
62
102
{ACAD_REACTORS
330
47
102
}
330
47
100
AcDbScale
 70
     0
300
1/2" = 1'-0"
140
0.5
141
12.0
290
     0
  0
SCALE
  5
63
102
{ACAD_REACTORS
330
47
102
}
330
47
100
AcDbScale
 70
     0
300
3/4" = 1'-0"
140
0.75
141
12.0
290
     0
  0
SCALE
  5
64
102
{ACAD_REACTORS
330
47
102
}
330
47
100
AcDbScale
 70
     0
300
1" = 1'-0"
140
1.0
141
12.0
290
     0
  0
SCALE
  5
65
102
{ACAD_REACTORS
330
47
102
}
330
47
100
AcDbScale
 70
     0
300
1-1/2" = 1'-0"
140
1.5
141
12.0
290
     0
  0
SCALE
  5
66
102
{ACAD_REACTORS
330
47
102
}
330
47
100
AcDbScale
 70
     0
300
3" = 1'-0"
140
3.0
141
12.0
290
     0
  0
SCALE
  5
67
102
{ACAD_REACTORS
330
47
102
}
330
47
100
AcDbScale
 70
     0
300
6" = 1'-0"
140
6.0
141
12.0
290
     0
  0
SCALE
  5
68
102
{ACAD_REACTORS
330
47
102
}
330
47
100
AcDbScale
 70
     0
300
1'-0" = 1'-0"
140
12.0
141
12.0
290
     0
  0
ENDSEC
  0
EOF
