  0
SECTION
  2
HEADER
  9
$ACADVER
  1
AC1015
  9
$ACADMAINTVER
 70
     6
  9
$DWGCODEPAGE
  3
ANSI_1250
  9
$INSBASE
 10
0.0
 20
0.0
 30
0.0
  9
$EXTMIN
 10
0.0
 20
0.0
 30
0.0
  9
$EXTMAX
 10
420.0
 20
297.0
 30
0.0
  9
$LIMMIN
 10
0.0
 20
0.0
  9
$LIMMAX
 10
420.0
 20
297.0
  9
$ORTHOMODE
 70
     0
  9
$REGENMODE
 70
     1
  9
$FILLMODE
 70
     1
  9
$QTEXTMODE
 70
     0
  9
$MIRRTEXT
 70
     1
  9
$LTSCALE
 40
1.0
  9
$ATTMODE
 70
     1
  9
$TEXTSIZE
 40
3.5
  9
$TRACEWID
 40
1.0
  9
$TEXTSTYLE
  7
Standard
  9
$CLAYER
  8
0
  9
$CELTYPE
  6
ByLayer
  9
$CECOLOR
 62
   256
  9
$CELTSCALE
 40
1.0
  9
$DISPSILH
 70
     0
  9
$DIMSCALE
 40
1.0
  9
$DIMASZ
 40
3.302
  9
$DIMEXO
 40
1.0
  9
$DIMDLI
 40
3.75
  9
$DIMRND
 40
0.0
  9
$DIMDLE
 40
0.0
  9
$DIMEXE
 40
1.0
  9
$DIMTP
 40
0.0
  9
$DIMTM
 40
0.0
  9
$DIMTXT
 40
3.5
  9
$DIMCEN
 40
2.5
  9
$DIMTSZ
 40
0.0
  9
$DIMTOL
 70
     0
  9
$DIMLIM
 70
     0
  9
$DIMTIH
 70
     1
  9
$DIMTOH
 70
     1
  9
$DIMSE1
 70
     0
  9
$DIMSE2
 70
     0
  9
$DIMTAD
 70
     1
  9
$DIMZIN
 70
     1
  9
$DIMBLK
  1

  9
$DIMASO
 70
     1
  9
$DIMSHO
 70
     1
  9
$DIMPOST
  1

  9
$DIMAPOST
  1

  9
$DIMALT
 70
     0
  9
$DIMALTD
 70
     3
  9
$DIMALTF
 40
0.0393700787
  9
$DIMLFAC
 40
1.0
  9
$DIMTOFL
 70
     1
  9
$DIMTVP
 40
0.0
  9
$DIMTIX
 70
     0
  9
$DIMSOXD
 70
     0
  9
$DIMSAH
 70
     0
  9
$DIMBLK1
  1

  9
$DIMBLK2
  1

  9
$DIMSTYLE
  2
ISO-25
  9
$DIMCLRD
 70
     0
  9
$DIMCLRE
 70
     0
  9
$DIMCLRT
 70
     0
  9
$DIMTFAC
 40
1.0
  9
$DIMGAP
 40
1.524
  9
$DIMJUST
 70
     0
  9
$DIMSD1
 70
     0
  9
$DIMSD2
 70
     0
  9
$DIMTOLJ
 70
     0
  9
$DIMTZIN
 70
     1
  9
$DIMALTZ
 70
     0
  9
$DIMALTTZ
 70
     0
  9
$DIMUPT
 70
     0
  9
$DIMDEC
 70
     2
  9
$DIMTDEC
 70
     2
  9
$DIMALTU
 70
     2
  9
$DIMALTTD
 70
     3
  9
$DIMTXSTY
  7
Standard
  9
$DIMAUNIT
 70
     0
  9
$DIMADEC
 70
     2
  9
$DIMALTRND
 40
0.0
  9
$DIMAZIN
 70
     0
  9
$DIMDSEP
 70
    44
  9
$DIMATFIT
 70
     3
  9
$DIMFRAC
 70
     0
  9
$DIMLDRBLK
  1

  9
$DIMLUNIT
 70
     2
  9
$DIMLWD
 70
    -2
  9
$DIMLWE
 70
    -2
  9
$DIMTMOVE
 70
     0
  9
$LUNITS
 70
     2
  9
$LUPREC
 70
     2
  9
$SKETCHINC
 40
1.0
  9
$FILLETRAD
 40
10.0
  9
$AUNITS
 70
     0
  9
$AUPREC
 70
     2
  9
$MENU
  1
.
  9
$ELEVATION
 40
0.0
  9
$PELEVATION
 40
0.0
  9
$THICKNESS
 40
0.0
  9
$LIMCHECK
 70
     0
  9
$CHAMFERA
 40
0.0
  9
$CHAMFERB
 40
0.0
  9
$CHAMFERC
 40
0.0
  9
$CHAMFERD
 40
0.0
  9
$SKPOLY
 70
     0
  9
$TDCREATE
 40
2460214.817080255
  9
$TDUCREATE
 40
2460214.733746921
  9
$TDUPDATE
 40
2460214.817082234
  9
$TDUUPDATE
 40
2460214.7337489
  9
$TDINDWG
 40
0.0000000116
  9
$TDUSRTIMER
 40
0.0000000116
  9
$USRTIMER
 70
     1
  9
$ANGBASE
 50
0.0
  9
$ANGDIR
 70
     0
  9
$PDMODE
 70
     0
  9
$PDSIZE
 40
-1.0
  9
$PLINEWID
 40
0.0
  9
$SPLFRAME
 70
     0
  9
$SPLINETYPE
 70
     6
  9
$SPLINESEGS
 70
     8
  9
$HANDSEED
  5
171
  9
$SURFTAB1
 70
     6
  9
$SURFTAB2
 70
     6
  9
$SURFTYPE
 70
     6
  9
$SURFU
 70
     6
  9
$SURFV
 70
     6
  9
$UCSBASE
  2

  9
$UCSNAME
  2

  9
$UCSORG
 10
0.0
 20
0.0
 30
0.0
  9
$UCSXDIR
 10
1.0
 20
0.0
 30
0.0
  9
$UCSYDIR
 10
0.0
 20
1.0
 30
0.0
  9
$UCSORTHOREF
  2

  9
$UCSORTHOVIEW
 70
     0
  9
$UCSORGTOP
 10
0.0
 20
0.0
 30
0.0
  9
$UCSORGBOTTOM
 10
0.0
 20
0.0
 30
0.0
  9
$UCSORGLEFT
 10
0.0
 20
0.0
 30
0.0
  9
$UCSORGRIGHT
 10
0.0
 20
0.0
 30
0.0
  9
$UCSORGFRONT
 10
0.0
 20
0.0
 30
0.0
  9
$UCSORGBACK
 10
0.0
 20
0.0
 30
0.0
  9
$PUCSBASE
  2

  9
$PUCSNAME
  2

  9
$PUCSORG
 10
0.0
 20
0.0
 30
0.0
  9
$PUCSXDIR
 10
1.0
 20
0.0
 30
0.0
  9
$PUCSYDIR
 10
0.0
 20
1.0
 30
0.0
  9
$PUCSORTHOREF
  2

  9
$PUCSORTHOVIEW
 70
     0
  9
$PUCSORGTOP
 10
0.0
 20
0.0
 30
0.0
  9
$PUCSORGBOTTOM
 10
0.0
 20
0.0
 30
0.0
  9
$PUCSORGLEFT
 10
0.0
 20
0.0
 30
0.0
  9
$PUCSORGRIGHT
 10
0.0
 20
0.0
 30
0.0
  9
$PUCSORGFRONT
 10
0.0
 20
0.0
 30
0.0
  9
$PUCSORGBACK
 10
0.0
 20
0.0
 30
0.0
  9
$USERI1
 70
     0
  9
$USERI2
 70
     0
  9
$USERI3
 70
     0
  9
$USERI4
 70
     0
  9
$USERI5
 70
     0
  9
$USERR1
 40
0.0
  9
$USERR2
 40
0.0
  9
$USERR3
 40
0.0
  9
$USERR4
 40
0.0
  9
$USERR5
 40
0.0
  9
$WORLDVIEW
 70
     1
  9
$SHADEDGE
 70
     3
  9
$SHADEDIF
 70
    70
  9
$TILEMODE
 70
     1
  9
$MAXACTVP
 70
    64
  9
$PINSBASE
 10
0.0
 20
0.0
 30
0.0
  9
$PLIMCHECK
 70
     0
  9
$PEXTMIN
 10
1.0000000000E+20
 20
1.0000000000E+20
 30
1.0000000000E+20
  9
$PEXTMAX
 10
-1.0000000000E+20
 20
-1.0000000000E+20
 30
-1.0000000000E+20
  9
$PLIMMIN
 10
0.0
 20
0.0
  9
$PLIMMAX
 10
420.0
 20
297.0
  9
$UNITMODE
 70
     0
  9
$VISRETAIN
 70
     1
  9
$PLINEGEN
 70
     0
  9
$PSLTSCALE
 70
     1
  9
$TREEDEPTH
 70
  3020
  9
$CMLSTYLE
  2
Standard
  9
$CMLJUST
 70
     0
  9
$CMLSCALE
 40
20.0
  9
$PROXYGRAPHICS
 70
     1
  9
$MEASUREMENT
 70
     1
  9
$CELWEIGHT
370
    -1
  9
$ENDCAPS
280
     0
  9
$JOINSTYLE
280
     0
  9
$LWDISPLAY
290
     1
  9
$INSUNITS
 70
     4
  9
$HYPERLINKBASE
  1

  9
$STYLESHEET
  1

  9
$XEDIT
290
     1
  9
$CEPSNTYPE
380
     0
  9
$PSTYLEMODE
290
     1
  9
$FINGERPRINTGUID
  2
{fae1dc8a-c226-4fcb-8b28-67a13678c666}
  9
$VERSIONGUID
  2
{FAEB1C32-E019-11D5-929B-00C0DF256EC4}
  9
$EXTNAMES
290
     1
  9
$PSVPSCALE
 40
0.0
  9
$OLESTARTUP
290
     0
  0
ENDSEC
  0
SECTION
  2
CLASSES
  0
CLASS
  1
ACDBDICTIONARYWDFLT
  2
AcDbDictionaryWithDefault
  3
ObjectDBX Classes
 90
        0
280
     0
281
     0
  0
CLASS
  1
VISUALSTYLE
  2
AcDbVisualStyle
  3
ObjectDBX Classes
 90
     4095
280
     0
281
     0
  0
CLASS
  1
MATERIAL
  2
AcDbMaterial
  3
ObjectDBX Classes
 90
     1153
280
     0
281
     0
  0
CLASS
  1
SCALE
  2
AcDbScale
  3
ObjectDBX Classes
 90
     1153
280
     0
281
     0
  0
CLASS
  1
TABLESTYLE
  2
AcDbTableStyle
  3
ObjectDBX Classes
 90
     4095
280
     0
281
     0
  0
CLASS
  1
MLEADERSTYLE
  2
AcDbMLeaderStyle
  3
ACDB_MLEADERSTYLE_CLASS
 90
     4095
280
     0
281
     0
  0
CLASS
  1
SUN
  2
AcDbSun
  3
SCENEOE
 90
     1153
280
     0
281
     0
  0
CLASS
  1
ACDBPLACEHOLDER
  2
AcDbPlaceHolder
  3
ObjectDBX Classes
 90
        0
280
     0
281
     0
  0
CLASS
  1
LAYOUT
  2
AcDbLayout
  3
ObjectDBX Classes
 90
        0
280
     0
281
     0
  0
ENDSEC
  0
SECTION
  2
TABLES
  0
TABLE
  2
VPORT
  5
8
330
0
100
AcDbSymbolTable
 70
     1
  0
VPORT
  5
29
330
8
100
AcDbSymbolTableRecord
100
AcDbViewportTableRecord
  2
*Active
 70
     0
 10
0.0
 20
0.0
 11
1.0
 21
1.0
 12
210.0
 22
148.5
 13
0.0
 23
0.0
 14
10.0
 24
10.0
 15
10.0
 25
10.0
 16
0.0
 26
0.0
 36
1.0
 17
0.0
 27
0.0
 37
0.0
 40
297.0
 41
1.4141414141
 42
50.0
 43
0.0
 44
0.0
 50
0.0
 51
0.0
 71
     0
 72
  2000
 73
     1
 74
     3
 75
     0
 76
     0
 77
     0
 78
     0
281
     0
 65
     1
110
0.0
120
0.0
130
0.0
111
1.0
121
0.0
131
0.0
112
0.0
122
1.0
132
0.0
 79
     0
146
0.0
  0
ENDTAB
  0
TABLE
  2
LTYPE
  5
5
330
0
100
AcDbSymbolTable
 70
     6
  0
LTYPE
  5
14
330
5
100
AcDbSymbolTableRecord
100
AcDbLinetypeTableRecord
  2
ByBlock
 70
     0
  3

 72
    65
 73
     0
 40
0.0
  0
LTYPE
  5
15
330
5
100
AcDbSymbolTableRecord
100
AcDbLinetypeTableRecord
  2
ByLayer
 70
     0
  3

 72
    65
 73
     0
 40
0.0
  0
LTYPE
  5
16
330
5
100
AcDbSymbolTableRecord
100
AcDbLinetypeTableRecord
  2
Continuous
 70
     0
  3
Solid line
 72
    65
 73
     0
 40
0.0
  0
LTYPE
  5
6E
330
5
100
AcDbSymbolTableRecord
100
AcDbLinetypeTableRecord
  2
HIDDEN
 70
     0
  3
Hidden __ __ __ __ __ __ __ __ __ __ __ __ __ __
 72
    65
 73
     2
 40
1.905
 49
1.27
 74
     0
 49
-0.635
 74
     0
  0
LTYPE
  5
6F
330
5
100
AcDbSymbolTableRecord
100
AcDbLinetypeTableRecord
  2
PHANTOM
 70
     0
  3
Phantom ______  __  __  ______  __  __  ______
 72
    65
 73
     6
 40
12.7
 49
6.35
 74
     0
 49
-1.27
 74
     0
 49
1.27
 74
     0
 49
-1.27
 74
     0
 49
1.27
 74
     0
 49
-1.27
 74
     0
  0
LTYPE
  5
70
330
5
100
AcDbSymbolTableRecord
100
AcDbLinetypeTableRecord
  2
CENTER
 70
     0
  3
Center ____ _ ____ _ ____ _ ____ _ ____ _ ____
 72
    65
 73
     4
 40
10.16
 49
6.35
 74
     0
 49
-1.27
 74
     0
 49
1.27
 74
     0
 49
-1.27
 74
     0
  0
LTYPE
  5
71
330
5
100
AcDbSymbolTableRecord
100
AcDbLinetypeTableRecord
  2
CENTERX2
 70
     0
  3
Center (2x) ________  __  ________  __  _____
 72
    65
 73
     4
 40
20.32
 49
12.7
 74
     0
 49
-2.54
 74
     0
 49
2.54
 74
     0
 49
-2.54
 74
     0
  0
LTYPE
  5
72
330
5
100
AcDbSymbolTableRecord
100
AcDbLinetypeTableRecord
  2
DOT2
 70
     0
  3
Dot (.5x) ........................................
 72
    65
 73
     2
 40
0.635
 49
0.0
 74
     0
 49
-0.635
 74
     0
  0
ENDTAB
  0
TABLE
  2
LAYER
  5
2
330
0
100
AcDbSymbolTable
 70
     2
  0
LAYER
  5
10
330
2
100
AcDbSymbolTableRecord
100
AcDbLayerTableRecord
  2
0
 70
     0
 62
     7
  6
Continuous
370
    -3
390
F
  0
LAYER
  5
73
330
2
100
AcDbSymbolTableRecord
100
AcDbLayerTableRecord
  2
FORMAT
 70
     0
 62
     7
  6
Continuous
370
    -3
390
F
  0
ENDTAB
  0
TABLE
  2
STYLE
  5
3
330
0
100
AcDbSymbolTable
 70
     4
  0
STYLE
  5
11
330
3
100
AcDbSymbolTableRecord
100
AcDbTextStyleTableRecord
  2
Standard
 70
     0
 40
0.0
 41
1.0
 50
0.0
 71
     0
 42
3.5
  3
txt
  4

  0
STYLE
  5
B1
330
3
100
AcDbSymbolTableRecord
100
AcDbTextStyleTableRecord
  2
SLDTEXTSTYLE0
 70
     0
 40
0.0
 41
0.75
 50
0.0
 71
     0
 42
3.5
  3
TXT
  4

  0
STYLE
  5
D1
330
3
100
AcDbSymbolTableRecord
100
AcDbTextStyleTableRecord
  2
SLDTEXTSTYLE1
 70
     0
 40
0.0
 41
0.6875
 50
0.0
 71
     0
 42
3.5
  3
TXT
  4
bigfont
  0
STYLE
  5
D3
330
3
100
AcDbSymbolTableRecord
100
AcDbTextStyleTableRecord
  2
SLDTEXTSTYLE2
 70
     0
 40
0.0
 41
0.75
 50
0.0
 71
     0
 42
3.5
  3
TXT
  4
bigfont
  0
ENDTAB
  0
TABLE
  2
VIEW
  5
6
330
0
100
AcDbSymbolTable
 70
     0
  0
ENDTAB
  0
TABLE
  2
UCS
  5
7
330
0
100
AcDbSymbolTable
 70
     0
  0
ENDTAB
  0
TABLE
  2
APPID
  5
9
330
0
100
AcDbSymbolTable
 70
     1
  0
APPID
  5
12
330
9
100
AcDbSymbolTableRecord
100
AcDbRegAppTableRecord
  2
ACAD
 70
     0
  0
ENDTAB
  0
TABLE
  2
DIMSTYLE
  5
A
330
0
100
AcDbSymbolTable
 70
     5
100
AcDbDimStyleTable
  0
DIMSTYLE
105
27
330
A
100
AcDbSymbolTableRecord
100
AcDbDimStyleTableRecord
  2
ISO-25
 70
     0
 41
2.5
 42
0.625
 43
3.75
 44
1.25
 73
     0
 74
     0
 77
     1
 78
     8
140
2.5
141
2.5
143
0.0393700787
147
0.625
171
     3
172
     1
178
     0
271
     2
272
     2
274
     3
278
    44
283
     0
284
     8
340
11
  0
DIMSTYLE
105
115
102
{ACAD_REACTORS
330
114
102
}
330
A
100
AcDbSymbolTableRecord
100
AcDbDimStyleTableRecord
  2
SLDDIMSTYLE0
 70
     0
 41
3.302
 44
0.0
 45
0.000000001
 48
-0.2
 71
     1
 73
     0
 74
     0
 77
     1
 78
    12
 79
     3
140
3.5
147
0.875
173
     1
178
     0
271
     1
272
     1
276
     2
284
     8
340
B1
  0
DIMSTYLE
105
126
102
{ACAD_REACTORS
330
125
330
130
102
}
330
A
100
AcDbSymbolTableRecord
100
AcDbDimStyleTableRecord
  2
SLDDIMSTYLE1
 70
     0
 41
3.302
 44
0.0
 45
0.000000001
 73
     0
 74
     0
 77
     1
 78
    12
 79
     3
140
3.5
147
0.875
173
     1
178
     0
271
     2
272
     2
276
     2
284
    12
340
B1
  0
DIMSTYLE
105
13C
102
{ACAD_REACTORS
330
13B
330
165
102
}
330
A
100
AcDbSymbolTableRecord
100
AcDbDimStyleTableRecord
  2
SLDDIMSTYLE2
 70
     0
 41
3.302
 44
0.0
 45
0.000000001
 73
     0
 74
     0
 77
     1
 78
    12
 79
     3
140
3.5
147
0.875
172
     1
173
     1
178
     0
271
     2
272
     2
276
     2
284
    12
289
     0
340
B1
  0
DIMSTYLE
105
149
102
{ACAD_REACTORS
330
148
102
}
330
A
100
AcDbSymbolTableRecord
100
AcDbDimStyleTableRecord
  2
SLDDIMSTYLE3
 70
     0
 41
3.302
 44
0.0
 45
0.000000001
 47
-0.1
 48
0.2
 71
     1
 73
     0
 74
     0
 77
     1
 78
    12
 79
     3
140
3.5
147
0.875
173
     1
178
     0
271
     1
272
     1
276
     2
284
     8
340
B1
  0
ENDTAB
  0
TABLE
  2
BLOCK_RECORD
  5
1
330
0
100
AcDbSymbolTable
 70
     9
  0
BLOCK_RECORD
  5
1F
330
1
100
AcDbSymbolTableRecord
100
AcDbBlockTableRecord
  2
*Model_Space
340
22
  0
BLOCK_RECORD
  5
1B
330
1
100
AcDbSymbolTableRecord
100
AcDbBlockTableRecord
  2
*Paper_Space
340
1E
  0
BLOCK_RECORD
  5
23
330
1
100
AcDbSymbolTableRecord
100
AcDbBlockTableRecord
  2
*Paper_Space0
340
26
  0
BLOCK_RECORD
  5
DD
330
1
100
AcDbSymbolTableRecord
100
AcDbBlockTableRecord
  2
SW_NOTE_0
340
0
102
{BLKREFS
331
E2
102
}
  0
BLOCK_RECORD
  5
E4
330
1
100
AcDbSymbolTableRecord
100
AcDbBlockTableRecord
  2
SW_NOTE_0_1
340
0
102
{BLKREFS
331
ED
102
}
  0
BLOCK_RECORD
  5
116
330
1
100
AcDbSymbolTableRecord
100
AcDbBlockTableRecord
  2
_D
340
0
  0
BLOCK_RECORD
  5
127
330
1
100
AcDbSymbolTableRecord
100
AcDbBlockTableRecord
  2
_D_1
340
0
  0
BLOCK_RECORD
  5
131
330
1
100
AcDbSymbolTableRecord
100
AcDbBlockTableRecord
  2
_D_2
340
0
  0
BLOCK_RECORD
  5
13D
330
1
100
AcDbSymbolTableRecord
100
AcDbBlockTableRecord
  2
_D_3
340
0
  0
BLOCK_RECORD
  5
14A
330
1
100
AcDbSymbolTableRecord
100
AcDbBlockTableRecord
  2
_D_4
340
0
  0
BLOCK_RECORD
  5
166
330
1
100
AcDbSymbolTableRecord
100
AcDbBlockTableRecord
  2
_D_5
340
0
  0
ENDTAB
  0
ENDSEC
  0
SECTION
  2
BLOCKS
  0
BLOCK
  5
20
330
1F
100
AcDbEntity
  8
0
100
AcDbBlockBegin
  2
*Model_Space
 70
     0
 10
0.0
 20
0.0
 30
0.0
  3
*Model_Space
  1

  0
ENDBLK
  5
21
330
1F
100
AcDbEntity
  8
0
100
AcDbBlockEnd
  0
BLOCK
  5
1C
330
1B
100
AcDbEntity
 67
     1
  8
0
100
AcDbBlockBegin
  2
*Paper_Space
 70
     0
 10
0.0
 20
0.0
 30
0.0
  3
*Paper_Space
  1

  0
ENDBLK
  5
1D
330
1B
100
AcDbEntity
 67
     1
  8
0
100
AcDbBlockEnd
  0
BLOCK
  5
24
330
23
100
AcDbEntity
  8
0
100
AcDbBlockBegin
  2
*Paper_Space0
 70
     0
 10
0.0
 20
0.0
 30
0.0
  3
*Paper_Space0
  1

  0
ENDBLK
  5
25
330
23
100
AcDbEntity
  8
0
100
AcDbBlockEnd
  0
BLOCK
  5
DE
330
DD
100
AcDbEntity
  8
0
100
AcDbBlockBegin
  2
SW_NOTE_0
 70
     0
 10
0.0
 20
0.0
 30
0.0
  3
SW_NOTE_0
  1

  0
MTEXT
  5
E0
330
DD
100
AcDbEntity
  8
0
  6
Continuous
 62
     0
370
     0
100
AcDbMText
 10
0.0
 20
1.9336016097
 30
0.0
 40
1.5
 41
0.0
 71
     1
 72
     1
  1
ODSTRANIT
  7
SLDTEXTSTYLE0
 73
     1
 44
1.0
  0
MTEXT
  5
E1
330
DD
100
AcDbEntity
  8
0
  6
Continuous
 62
     0
370
     0
100
AcDbMText
 10
0.0
 20
-0.5663983345
 30
0.0
 40
1.5
 41
0.0
 71
     1
 72
     1
  1
OSTRÉ HRANY
  7
SLDTEXTSTYLE0
 73
     1
 44
1.0
  0
ENDBLK
  5
DF
330
DD
100
AcDbEntity
  8
0
100
AcDbBlockEnd
  0
BLOCK
  5
E5
330
E4
100
AcDbEntity
  8
0
100
AcDbBlockBegin
  2
SW_NOTE_0_1
 70
     0
 10
0.0
 20
0.0
 30
0.0
  3
SW_NOTE_0_1
  1

  0
MTEXT
  5
E7
330
E4
100
AcDbEntity
  8
0
  6
Continuous
 62
     0
370
     0
100
AcDbMText
 10
0.0
 20
1.9336016097
 30
0.0
 40
1.5
 41
0.0
 71
     1
 72
     1
  1
POKUD NENÍ UVEDENO JINAK:
  7
SLDTEXTSTYLE0
 73
     1
 44
1.0
  0
MTEXT
  5
E8
330
E4
100
AcDbEntity
  8
0
  6
Continuous
 62
     0
370
     0
100
AcDbMText
 10
0.0
 20
-0.5663983345
 30
0.0
 40
1.5
 41
0.0
 71
     1
 72
     1
  1
JEDNOTKY JSOU V MILIMETRECH
  7
SLDTEXTSTYLE0
 73
     1
 44
1.0
  0
MTEXT
  5
E9
330
E4
100
AcDbEntity
  8
0
  6
Continuous
 62
     0
370
     0
100
AcDbMText
 10
0.0
 20
-3.0663982786
 30
0.0
 40
1.5
 41
0.0
 71
     1
 72
     1
  1
DRSNOST:
  7
SLDTEXTSTYLE0
 73
     1
 44
1.0
  0
MTEXT
  5
EA
330
E4
100
AcDbEntity
  8
0
  6
Continuous
 62
     0
370
     0
100
AcDbMText
 10
0.0
 20
-5.5663982227
 30
0.0
 40
1.5
 41
0.0
 71
     1
 72
     1
  1
TOLERANCE:
  7
SLDTEXTSTYLE0
 73
     1
 44
1.0
  0
MTEXT
  5
EB
330
E4
100
AcDbEntity
  8
0
  6
Continuous
 62
     0
370
     0
100
AcDbMText
 10
1.6875
 20
-8.0663981668
 30
0.0
 40
1.5
 41
0.0
 71
     1
 72
     1
  1
LINEÁRNÍ:
  7
SLDTEXTSTYLE0
 73
     1
 44
1.0
  0
MTEXT
  5
EC
330
E4
100
AcDbEntity
  8
0
  6
Continuous
 62
     0
370
     0
100
AcDbMText
 10
1.6875
 20
-10.5663981109
 30
0.0
 40
1.5
 41
0.0
 71
     1
 72
     1
  1
ÚHLOVÁ:
  7
SLDTEXTSTYLE0
 73
     1
 44
1.0
  0
ENDBLK
  5
E6
330
E4
100
AcDbEntity
  8
0
100
AcDbBlockEnd
  0
BLOCK
  5
117
330
116
100
AcDbEntity
  8
0
100
AcDbBlockBegin
  2
_D
 70
     0
 10
0.0
 20
0.0
 30
0.0
  3
_D
  1

  0
SOLID
  5
119
330
116
100
AcDbEntity
  8
0
  6
Continuous
 62
     7
370
    18
100
AcDbTrace
 10
75.94
 20
181.46
 30
0.0
 11
76.448
 21
184.762
 31
0.0
 12
75.432
 22
184.762
 32
0.0
 13
75.432
 23
184.762
 33
0.0
  0
SOLID
  5
11A
330
116
100
AcDbEntity
  8
0
  6
Continuous
 62
     7
370
    18
100
AcDbTrace
 10
75.94
 20
194.06
 30
0.0
 11
75.432
 21
190.758
 31
0.0
 12
76.448
 22
190.758
 32
0.0
 13
76.448
 23
190.758
 33
0.0
  0
LINE
  5
11B
330
116
100
AcDbEntity
  8
0
  6
Continuous
 62
     7
370
     0
100
AcDbLine
 10
86.44
 20
181.46
 30
0.0
 11
74.94
 21
181.46
 31
0.0
  0
LINE
  5
11C
330
116
100
AcDbEntity
  8
0
  6
Continuous
 62
     7
370
     0
100
AcDbLine
 10
86.44
 20
194.06
 30
0.0
 11
74.94
 21
194.06
 31
0.0
  0
LINE
  5
11D
330
116
100
AcDbEntity
  8
0
  6
Continuous
 62
     7
370
     0
100
AcDbLine
 10
75.94
 20
181.46
 30
0.0
 11
75.94
 21
154.1780557489
 31
0.0
  0
LINE
  5
11E
330
116
100
AcDbEntity
  8
0
  6
Continuous
 62
     7
370
     0
100
AcDbLine
 10
75.94
 20
181.46
 30
0.0
 11
75.94
 21
194.06
 31
0.0
  0
MTEXT
  5
11F
330
116
100
AcDbEntity
  8
0
  6
Continuous
 62
     7
370
    18
100
AcDbMText
 10
71.3747907341
 20
154.1780557489
 30
0.0
 40
3.5
 41
0.0
 71
     1
 72
     1
  1
12,6
  7
SLDTEXTSTYLE0
 11
6.123233995736766E-17
 21
1.0
 31
0.0
 73
     1
 44
1.0
  0
MTEXT
  5
120
330
116
100
AcDbEntity
  8
0
  6
Continuous
 62
     7
370
    18
100
AcDbMText
 10
71.3747907341
 20
164.5419448099
 30
0.0
 40
3.5
 41
0.0
 71
     1
 72
     1
  1

  7
SLDTEXTSTYLE0
 11
6.123233995736766E-17
 21
1.0
 31
0.0
 73
     1
 44
1.0
  0
MTEXT
  5
121
330
116
100
AcDbEntity
  8
0
  6
Continuous
 62
     7
370
    18
100
AcDbMText
 10
66.9025683803
 20
166.6030560221
 30
0.0
 40
3.5
 41
0.0
 71
     1
 72
     1
  1

  7
SLDTEXTSTYLE0
 11
6.123233995736766E-17
 21
1.0
 31
0.0
 73
     1
 44
1.0
  0
MTEXT
  5
122
330
116
100
AcDbEntity
  8
0
  6
Continuous
 62
     7
370
    18
100
AcDbMText
 10
71.4282629108
 20
164.522500523
 30
0.0
 40
3.5
 41
0.0
 71
     1
 72
     1
  1
+
  7
SLDTEXTSTYLE0
 11
6.123233995736766E-17
 21
1.0
 31
0.0
 73
     1
 44
1.0
  0
MTEXT
  5
123
330
116
100
AcDbEntity
  8
0
  6
Continuous
 62
     7
370
    18
100
AcDbMText
 10
66.9025683803
 20
167.3516675836
 30
0.0
 40
3.5
 41
0.0
 71
     1
 72
     1
  1
0,0
  7
SLDTEXTSTYLE0
 11
6.123233995736766E-17
 21
1.0
 31
0.0
 73
     1
 44
1.0
  0
MTEXT
  5
124
330
116
100
AcDbEntity
  8
0
  6
Continuous
 62
     7
370
    18
100
AcDbMText
 10
71.4282629108
 20
167.3516675836
 30
0.0
 40
3.5
 41
0.0
 71
     1
 72
     1
  1
0,2
  7
SLDTEXTSTYLE0
 11
6.123233995736766E-17
 21
1.0
 31
0.0
 73
     1
 44
1.0
  0
ENDBLK
  5
118
330
116
100
AcDbEntity
  8
0
100
AcDbBlockEnd
  0
BLOCK
  5
128
330
127
100
AcDbEntity
  8
0
100
AcDbBlockBegin
  2
_D_1
 70
     0
 10
0.0
 20
0.0
 30
0.0
  3
_D_1
  1

  0
SOLID
  5
12A
330
127
100
AcDbEntity
  8
0
  6
Continuous
 62
     7
370
    18
100
AcDbTrace
 10
85.94
 20
135.46
 30
0.0
 11
89.242
 21
134.952
 31
0.0
 12
89.242
 22
135.968
 32
0.0
 13
89.242
 23
135.968
 33
0.0
  0
SOLID
  5
12B
330
127
100
AcDbEntity
  8
0
  6
Continuous
 62
     7
370
    18
100
AcDbTrace
 10
174.94
 20
135.46
 30
0.0
 11
171.638
 21
135.968
 31
0.0
 12
171.638
 22
134.952
 32
0.0
 13
171.638
 23
134.952
 33
0.0
  0
LINE
  5
12C
330
127
100
AcDbEntity
  8
0
  6
Continuous
 62
     7
370
     0
100
AcDbLine
 10
85.94
 20
180.76
 30
0.0
 11
85.94
 21
134.46
 31
0.0
  0
LINE
  5
12D
330
127
100
AcDbEntity
  8
0
  6
Continuous
 62
     7
370
     0
100
AcDbLine
 10
174.94
 20
180.76
 30
0.0
 11
174.94
 21
134.46
 31
0.0
  0
LINE
  5
12E
330
127
100
AcDbEntity
  8
0
  6
Continuous
 62
     7
370
     0
100
AcDbLine
 10
85.94
 20
135.46
 30
0.0
 11
174.94
 21
135.46
 31
0.0
  0
MTEXT
  5
12F
330
127
100
AcDbEntity
  8
0
  6
Continuous
 62
     7
370
    18
100
AcDbMText
 10
124.6212497564
 20
139.9717369146
 30
0.0
 40
3.5
 41
0.0
 71
     1
 72
     1
  1
89,00
  7
SLDTEXTSTYLE0
 73
     1
 44
1.0
  0
ENDBLK
  5
129
330
127
100
AcDbEntity
  8
0
100
AcDbBlockEnd
  0
BLOCK
  5
132
330
131
100
AcDbEntity
  8
0
100
AcDbBlockBegin
  2
_D_2
 70
     0
 10
0.0
 20
0.0
 30
0.0
  3
_D_2
  1

  0
SOLID
  5
134
330
131
100
AcDbEntity
  8
0
  6
Continuous
 62
     7
370
    18
100
AcDbTrace
 10
85.94
 20
141.46
 30
0.0
 11
89.242
 21
140.952
 31
0.0
 12
89.242
 22
141.968
 32
0.0
 13
89.242
 23
141.968
 33
0.0
  0
SOLID
  5
135
330
131
100
AcDbEntity
  8
0
  6
Continuous
 62
     7
370
    18
100
AcDbTrace
 10
99.94
 20
141.46
 30
0.0
 11
96.638
 21
141.968
 31
0.0
 12
96.638
 22
140.952
 32
0.0
 13
96.638
 23
140.952
 33
0.0
  0
LINE
  5
136
330
131
100
AcDbEntity
  8
0
  6
Continuous
 62
     7
370
     0
100
AcDbLine
 10
85.94
 20
180.76
 30
0.0
 11
85.94
 21
140.46
 31
0.0
  0
LINE
  5
137
330
131
100
AcDbEntity
  8
0
  6
Continuous
 62
     7
370
     0
100
AcDbLine
 10
99.94
 20
180.76
 30
0.0
 11
99.94
 21
140.46
 31
0.0
  0
LINE
  5
138
330
131
100
AcDbEntity
  8
0
  6
Continuous
 62
     7
370
     0
100
AcDbLine
 10
85.94
 20
141.46
 30
0.0
 11
66.6594437996
 21
141.46
 31
0.0
  0
LINE
  5
139
330
131
100
AcDbEntity
  8
0
  6
Continuous
 62
     7
370
     0
100
AcDbLine
 10
85.94
 20
141.46
 30
0.0
 11
99.94
 21
141.46
 31
0.0
  0
MTEXT
  5
13A
330
131
100
AcDbEntity
  8
0
  6
Continuous
 62
     7
370
    18
100
AcDbMText
 10
66.6594437996
 20
145.9717369146
 30
0.0
 40
3.5
 41
0.0
 71
     1
 72
     1
  1
14,00
  7
SLDTEXTSTYLE0
 73
     1
 44
1.0
  0
ENDBLK
  5
133
330
131
100
AcDbEntity
  8
0
100
AcDbBlockEnd
  0
BLOCK
  5
13E
330
13D
100
AcDbEntity
  8
0
100
AcDbBlockBegin
  2
_D_3
 70
     0
 10
0.0
 20
0.0
 30
0.0
  3
_D_3
  1

  0
SOLID
  5
140
330
13D
100
AcDbEntity
  8
0
  6
Continuous
 62
     7
370
    18
100
AcDbTrace
 10
88.94
 20
204.06
 30
0.0
 11
92.242
 21
203.552
 31
0.0
 12
92.242
 22
204.568
 32
0.0
 13
92.242
 23
204.568
 33
0.0
  0
SOLID
  5
141
330
13D
100
AcDbEntity
  8
0
  6
Continuous
 62
     7
370
    18
100
AcDbTrace
 10
85.94
 20
204.06
 30
0.0
 11
82.638
 21
204.568
 31
0.0
 12
82.638
 22
203.552
 32
0.0
 13
82.638
 23
203.552
 33
0.0
  0
LINE
  5
142
330
13D
100
AcDbEntity
  8
0
  6
Continuous
 62
     7
370
     0
100
AcDbLine
 10
88.94
 20
195.06
 30
0.0
 11
88.94
 21
205.06
 31
0.0
  0
LINE
  5
143
330
13D
100
AcDbEntity
  8
0
  6
Continuous
 62
     7
370
     0
100
AcDbLine
 10
85.94
 20
194.76
 30
0.0
 11
85.94
 21
205.06
 31
0.0
  0
LINE
  5
144
330
13D
100
AcDbEntity
  8
0
  6
Continuous
 62
     7
370
     0
100
AcDbLine
 10
88.94
 20
204.06
 30
0.0
 11
95.29
 21
204.06
 31
0.0
  0
LINE
  5
145
330
13D
100
AcDbEntity
  8
0
  6
Continuous
 62
     7
370
     0
100
AcDbLine
 10
88.94
 20
204.06
 30
0.0
 11
85.94
 21
204.06
 31
0.0
  0
LINE
  5
146
330
13D
100
AcDbEntity
  8
0
  6
Continuous
 62
     7
370
     0
100
AcDbLine
 10
85.94
 20
204.06
 30
0.0
 11
69.2455552259
 21
204.06
 31
0.0
  0
MTEXT
  5
147
330
13D
100
AcDbEntity
  8
0
  6
Continuous
 62
     7
370
    18
100
AcDbMText
 10
69.2455552259
 20
208.5717369146
 30
0.0
 40
3.5
 41
0.0
 71
     1
 72
     1
  1
3,00
  7
SLDTEXTSTYLE0
 73
     1
 44
1.0
  0
ENDBLK
  5
13F
330
13D
100
AcDbEntity
  8
0
100
AcDbBlockEnd
  0
BLOCK
  5
14B
330
14A
100
AcDbEntity
  8
0
100
AcDbBlockBegin
  2
_D_4
 70
     0
 10
0.0
 20
0.0
 30
0.0
  3
_D_4
  1

  0
SOLID
  5
14D
330
14A
100
AcDbEntity
  8
0
  6
Continuous
 62
     7
370
    18
100
AcDbTrace
 10
184.940025
 20
181.76
 30
0.0
 11
185.448025
 21
185.062
 31
0.0
 12
184.432025
 22
185.062
 32
0.0
 13
184.432025
 23
185.062
 33
0.0
  0
SOLID
  5
14E
330
14A
100
AcDbEntity
  8
0
  6
Continuous
 62
     7
370
    18
100
AcDbTrace
 10
184.940025
 20
193.76
 30
0.0
 11
184.432025
 21
190.458
 31
0.0
 12
185.448025
 22
190.458
 32
0.0
 13
185.448025
 23
190.458
 33
0.0
  0
LINE
  5
14F
330
14A
100
AcDbEntity
  8
0
  6
Continuous
 62
     7
370
     0
100
AcDbLine
 10
175.94
 20
181.76
 30
0.0
 11
185.940025
 21
181.76
 31
0.0
  0
LINE
  5
150
330
14A
100
AcDbEntity
  8
0
  6
Continuous
 62
     7
370
     0
100
AcDbLine
 10
175.94
 20
193.76
 30
0.0
 11
185.940025
 21
193.76
 31
0.0
  0
LINE
  5
151
330
14A
100
AcDbEntity
  8
0
  6
Continuous
 62
     7
370
     0
100
AcDbLine
 10
184.940025
 20
181.76
 30
0.0
 11
184.940025
 21
155.7565269506
 31
0.0
  0
LINE
  5
152
330
14A
100
AcDbEntity
  8
0
  6
Continuous
 62
     7
370
     0
100
AcDbLine
 10
184.940025
 20
181.76
 30
0.0
 11
184.940025
 21
193.76
 31
0.0
  0
MTEXT
  5
153
330
14A
100
AcDbEntity
  8
0
  6
Continuous
 62
     7
370
    18
100
AcDbMText
 10
180.3748157341
 20
155.7565269506
 30
0.0
 40
3.5
 41
0.0
 71
     1
 72
     1
  1
12,0
  7
SLDTEXTSTYLE0
 11
6.123233995736766E-17
 21
1.0
 31
0.0
 73
     1
 44
1.0
  0
MTEXT
  5
154
330
14A
100
AcDbEntity
  8
0
  6
Continuous
 62
     7
370
    18
100
AcDbMText
 10
180.3748157341
 20
166.1204160115
 30
0.0
 40
3.5
 41
0.0
 71
     1
 72
     1
  1

  7
SLDTEXTSTYLE0
 11
6.123233995736766E-17
 21
1.0
 31
0.0
 73
     1
 44
1.0
  0
MTEXT
  5
155
330
14A
100
AcDbEntity
  8
0
  6
Continuous
 62
     7
370
    18
100
AcDbMText
 10
175.9025933803
 20
166.1009717247
 30
0.0
 40
3.5
 41
0.0
 71
     1
 72
     1
  1
-
  7
SLDTEXTSTYLE0
 11
6.123233995736766E-17
 21
1.0
 31
0.0
 73
     1
 44
1.0
  0
MTEXT
  5
156
330
14A
100
AcDbEntity
  8
0
  6
Continuous
 62
     7
370
    18
100
AcDbMText
 10
180.4282879108
 20
166.1009717247
 30
0.0
 40
3.5
 41
0.0
 71
     1
 72
     1
  1
-
  7
SLDTEXTSTYLE0
 11
6.123233995736766E-17
 21
1.0
 31
0.0
 73
     1
 44
1.0
  0
MTEXT
  5
157
330
14A
100
AcDbEntity
  8
0
  6
Continuous
 62
     7
370
    18
100
AcDbMText
 10
175.9025933803
 20
167.6516657209
 30
0.0
 40
3.5
 41
0.0
 71
     1
 72
     1
  1
0,1
  7
SLDTEXTSTYLE0
 11
6.123233995736766E-17
 21
1.0
 31
0.0
 73
     1
 44
1.0
  0
MTEXT
  5
158
330
14A
100
AcDbEntity
  8
0
  6
Continuous
 62
     7
370
    18
100
AcDbMText
 10
180.4282879108
 20
167.6516657209
 30
0.0
 40
3.5
 41
0.0
 71
     1
 72
     1
  1
0,2
  7
SLDTEXTSTYLE0
 11
6.123233995736766E-17
 21
1.0
 31
0.0
 73
     1
 44
1.0
  0
ENDBLK
  5
14C
330
14A
100
AcDbEntity
  8
0
100
AcDbBlockEnd
  0
BLOCK
  5
167
330
166
100
AcDbEntity
  8
0
100
AcDbBlockBegin
  2
_D_5
 70
     0
 10
0.0
 20
0.0
 30
0.0
  3
_D_5
  1

  0
SOLID
  5
169
330
166
100
AcDbEntity
  8
0
  6
Continuous
 62
     7
370
    18
100
AcDbTrace
 10
51.4850680612
 20
204.06
 30
0.0
 11
48.1830680612
 21
204.568
 31
0.0
 12
48.1830680612
 22
203.552
 32
0.0
 13
48.1830680612
 23
203.552
 33
0.0
  0
SOLID
  5
16A
330
166
100
AcDbEntity
  8
0
  6
Continuous
 62
     7
370
    18
100
AcDbTrace
 10
52.4850680612
 20
204.06
 30
0.0
 11
55.7870680612
 21
203.552
 31
0.0
 12
55.7870680612
 22
204.568
 32
0.0
 13
55.7870680612
 23
204.568
 33
0.0
  0
LINE
  5
16B
330
166
100
AcDbEntity
  8
0
  6
Continuous
 62
     7
370
     0
100
AcDbLine
 10
51.4850680612
 20
194.76
 30
0.0
 11
51.4850680612
 21
205.06
 31
0.0
  0
LINE
  5
16C
330
166
100
AcDbEntity
  8
0
  6
Continuous
 62
     7
370
     0
100
AcDbLine
 10
52.4850680612
 20
194.76
 30
0.0
 11
52.4850680612
 21
205.06
 31
0.0
  0
LINE
  5
16D
330
166
100
AcDbEntity
  8
0
  6
Continuous
 62
     7
370
     0
100
AcDbLine
 10
51.4850680612
 20
204.06
 30
0.0
 11
45.1350680612
 21
204.06
 31
0.0
  0
LINE
  5
16E
330
166
100
AcDbEntity
  8
0
  6
Continuous
 62
     7
370
     0
100
AcDbLine
 10
51.4850680612
 20
204.06
 30
0.0
 11
52.4850680612
 21
204.06
 31
0.0
  0
LINE
  5
16F
330
166
100
AcDbEntity
  8
0
  6
Continuous
 62
     7
370
     0
100
AcDbLine
 10
52.4850680612
 20
204.06
 30
0.0
 11
69.1795128353
 21
204.06
 31
0.0
  0
MTEXT
  5
170
330
166
100
AcDbEntity
  8
0
  6
Continuous
 62
     7
370
    18
100
AcDbMText
 10
60.1281237744
 20
208.5717369146
 30
0.0
 40
3.5
 41
0.0
 71
     1
 72
     1
  1
1,00
  7
SLDTEXTSTYLE0
 73
     1
 44
1.0
  0
ENDBLK
  5
168
330
166
100
AcDbEntity
  8
0
100
AcDbBlockEnd
  0
ENDSEC
  0
SECTION
  2
ENTITIES
  0
LINE
  5
74
330
1F
100
AcDbEntity
  8
0
  6
Continuous
 62
     7
370
    50
100
AcDbLine
 10
230.0
 20
14.25
 30
0.0
 11
410.0
 21
14.25
 31
0.0
  0
LINE
  5
75
330
1F
100
AcDbEntity
  8
0
  6
Continuous
 62
     7
370
    50
100
AcDbLine
 10
410.0
 20
48.25
 30
0.0
 11
230.0
 21
48.25
 31
0.0
  0
LINE
  5
76
330
1F
100
AcDbEntity
  8
0
  6
Continuous
 62
     7
370
    50
100
AcDbLine
 10
230.0
 20
65.25
 30
0.0
 11
410.0
 21
65.25
 31
0.0
  0
LINE
  5
77
330
1F
100
AcDbEntity
  8
0
  6
Continuous
 62
     7
370
    50
100
AcDbLine
 10
256.9909524338
 20
48.25
 30
0.0
 11
256.9909524338
 21
10.0
 31
0.0
  0
LINE
  5
78
330
1F
100
AcDbEntity
  8
0
  6
Continuous
 62
     7
370
    50
100
AcDbLine
 10
328.8
 20
31.25
 30
0.0
 11
230.0
 21
31.25
 31
0.0
  0
LINE
  5
79
330
1F
100
AcDbEntity
  8
0
  6
Continuous
 62
     7
370
    50
100
AcDbLine
 10
328.8
 20
35.5
 30
0.0
 11
230.0
 21
35.5
 31
0.0
  0
LINE
  5
7A
330
1F
100
AcDbEntity
  8
0
  6
Continuous
 62
     7
370
    50
100
AcDbLine
 10
328.8
 20
39.75
 30
0.0
 11
230.0
 21
39.75
 31
0.0
  0
LINE
  5
7B
330
1F
100
AcDbEntity
  8
0
  6
Continuous
 62
     7
370
    50
100
AcDbLine
 10
328.8
 20
44.0
 30
0.0
 11
230.0
 21
44.0
 31
0.0
  0
LINE
  5
7C
330
1F
100
AcDbEntity
  8
0
  6
Continuous
 62
     7
370
    50
100
AcDbLine
 10
284.6
 20
10.0
 30
0.0
 11
284.6
 21
48.25
 31
0.0
  0
LINE
  5
7D
330
1F
100
AcDbEntity
  8
0
  6
Continuous
 62
     7
370
    50
100
AcDbLine
 10
230.0
 20
65.25
 30
0.0
 11
230.0
 21
10.0
 31
0.0
  0
LINE
  5
7E
330
1F
100
AcDbEntity
  8
0
  6
Continuous
 62
     7
370
    50
100
AcDbLine
 10
242.0703737145
 20
48.25
 30
0.0
 11
242.0703737145
 21
10.0
 31
0.0
  0
LINE
  5
7F
330
1F
100
AcDbEntity
  8
0
  6
Continuous
 62
     7
370
    50
100
AcDbLine
 10
263.8
 20
48.25
 30
0.0
 11
263.8
 21
65.25
 31
0.0
  0
LINE
  5
80
330
1F
100
AcDbEntity
  8
0
  6
Continuous
 62
     7
370
    50
100
AcDbLine
 10
274.3989261635
 20
48.25
 30
0.0
 11
274.3989261635
 21
10.0
 31
0.0
  0
LINE
  5
81
330
1F
100
AcDbEntity
  8
0
  6
Continuous
 62
     7
370
    50
100
AcDbLine
 10
295.0
 20
31.25
 30
0.0
 11
295.0
 21
48.25
 31
0.0
  0
LINE
  5
82
330
1F
100
AcDbEntity
  8
0
  6
Continuous
 62
     7
370
    50
100
AcDbLine
 10
284.6
 20
18.5
 30
0.0
 11
230.0
 21
18.5
 31
0.0
  0
LINE
  5
83
330
1F
100
AcDbEntity
  8
0
  6
Continuous
 62
     7
370
    50
100
AcDbLine
 10
310.6
 20
65.25
 30
0.0
 11
310.6
 21
27.0
 31
0.0
  0
LINE
  5
84
330
1F
100
AcDbEntity
  8
0
  6
Continuous
 62
     7
370
    50
100
AcDbLine
 10
284.6
 20
22.749928
 30
0.0
 11
230.0
 21
22.749928
 31
0.0
  0
LINE
  5
85
330
1F
100
AcDbEntity
  8
0
  6
Continuous
 62
     7
370
    50
100
AcDbLine
 10
284.6
 20
27.0
 30
0.0
 11
230.0
 21
27.0
 31
0.0
  0
LINE
  5
86
330
1F
100
AcDbEntity
  8
0
  6
Continuous
 62
     7
370
    50
100
AcDbLine
 10
284.6
 20
27.0
 30
0.0
 11
410.0
 21
27.0
 31
0.0
  0
LINE
  5
87
330
1F
100
AcDbEntity
  8
0
  6
Continuous
 62
     7
370
    50
100
AcDbLine
 10
328.8
 20
65.25
 30
0.0
 11
328.8
 21
10.0
 31
0.0
  0
LINE
  5
88
330
1F
100
AcDbEntity
  8
0
  6
Continuous
 62
     7
370
    50
100
AcDbLine
 10
373.0
 20
10.0
 30
0.0
 11
373.0
 21
14.25
 31
0.0
  0
LINE
  5
89
330
1F
100
AcDbEntity
  8
0
  6
Continuous
 62
     7
370
    50
100
AcDbLine
 10
380.8
 20
58.875
 30
0.0
 11
380.8
 21
65.25
 31
0.0
  0
LINE
  5
8A
330
1F
100
AcDbEntity
  8
0
  6
Continuous
 62
     7
370
    50
100
AcDbLine
 10
397.0
 20
14.25
 30
0.0
 11
397.0
 21
27.0
 31
0.0
  0
LINE
  5
8B
330
1F
100
AcDbEntity
  8
0
  6
Continuous
 62
     7
370
    50
100
AcDbLine
 10
410.0
 20
58.875
 30
0.0
 11
328.8
 21
58.875
 31
0.0
  0
LINE
  5
8C
330
1F
100
AcDbEntity
  8
0
  6
Continuous
 62
     7
370
    50
100
AcDbLine
 10
410.0
 20
18.5
 30
0.0
 11
397.0
 21
18.5
 31
0.0
  0
LINE
  5
8D
330
1F
100
AcDbEntity
  8
0
  6
Continuous
 62
     7
370
    70
100
AcDbLine
 10
20.0
 20
10.0
 30
0.0
 11
20.0
 21
287.0
 31
0.0
  0
LINE
  5
8E
330
1F
100
AcDbEntity
  8
0
  6
Continuous
 62
     7
370
    70
100
AcDbLine
 10
20.0
 20
287.0
 30
0.0
 11
410.0
 21
287.0
 31
0.0
  0
LINE
  5
8F
330
1F
100
AcDbEntity
  8
0
  6
Continuous
 62
     7
370
    70
100
AcDbLine
 10
410.0
 20
287.0
 30
0.0
 11
410.0
 21
10.0
 31
0.0
  0
LINE
  5
90
330
1F
100
AcDbEntity
  8
0
  6
Continuous
 62
     7
370
    70
100
AcDbLine
 10
410.0
 20
10.0
 30
0.0
 11
20.0
 21
10.0
 31
0.0
  0
LINE
  5
91
330
1F
100
AcDbEntity
  8
0
  6
Continuous
 62
     7
370
    70
100
AcDbLine
 10
15.0
 20
5.0
 30
0.0
 11
15.0
 21
292.0
 31
0.0
  0
LINE
  5
92
330
1F
100
AcDbEntity
  8
0
  6
Continuous
 62
     7
370
    70
100
AcDbLine
 10
15.0
 20
292.0
 30
0.0
 11
415.0
 21
292.0
 31
0.0
  0
LINE
  5
93
330
1F
100
AcDbEntity
  8
0
  6
Continuous
 62
     7
370
    70
100
AcDbLine
 10
415.0
 20
292.0
 30
0.0
 11
415.0
 21
5.0
 31
0.0
  0
LINE
  5
94
330
1F
100
AcDbEntity
  8
0
  6
Continuous
 62
     7
370
    70
100
AcDbLine
 10
415.0
 20
5.0
 30
0.0
 11
15.0
 21
5.0
 31
0.0
  0
LINE
  5
95
330
1F
100
AcDbEntity
  8
0
  6
Continuous
 62
     7
370
    35
100
AcDbLine
 10
15.0
 20
148.5
 30
0.0
 11
25.0
 21
148.5
 31
0.0
  0
LINE
  5
96
330
1F
100
AcDbEntity
  8
0
  6
Continuous
 62
     7
370
    35
100
AcDbLine
 10
215.0
 20
292.0
 30
0.0
 11
215.0
 21
282.0
 31
0.0
  0
LINE
  5
97
330
1F
100
AcDbEntity
  8
0
  6
Continuous
 62
     7
370
    35
100
AcDbLine
 10
415.0
 20
148.5
 30
0.0
 11
405.0
 21
148.5
 31
0.0
  0
LINE
  5
98
330
1F
100
AcDbEntity
  8
0
  6
Continuous
 62
     7
370
    35
100
AcDbLine
 10
215.0
 20
5.0
 30
0.0
 11
215.0
 21
15.0
 31
0.0
  0
LINE
  5
99
330
1F
100
AcDbEntity
  8
0
  6
Continuous
 62
     7
370
    35
100
AcDbLine
 10
20.0
 20
48.5
 30
0.0
 11
15.0
 21
48.5
 31
0.0
  0
LINE
  5
9A
330
1F
100
AcDbEntity
  8
0
  6
Continuous
 62
     7
370
    35
100
AcDbLine
 10
410.0
 20
48.5
 30
0.0
 11
415.0
 21
48.5
 31
0.0
  0
LINE
  5
9B
330
1F
100
AcDbEntity
  8
0
  6
Continuous
 62
     7
370
    35
100
AcDbLine
 10
20.0
 20
98.5
 30
0.0
 11
15.0
 21
98.5
 31
0.0
  0
LINE
  5
9C
330
1F
100
AcDbEntity
  8
0
  6
Continuous
 62
     7
370
    35
100
AcDbLine
 10
410.0
 20
98.5
 30
0.0
 11
415.0
 21
98.5
 31
0.0
  0
LINE
  5
9D
330
1F
100
AcDbEntity
  8
0
  6
Continuous
 62
     7
370
    35
100
AcDbLine
 10
20.0
 20
148.5
 30
0.0
 11
15.0
 21
148.5
 31
0.0
  0
LINE
  5
9E
330
1F
100
AcDbEntity
  8
0
  6
Continuous
 62
     7
370
    35
100
AcDbLine
 10
410.0
 20
148.5
 30
0.0
 11
415.0
 21
148.5
 31
0.0
  0
LINE
  5
9F
330
1F
100
AcDbEntity
  8
0
  6
Continuous
 62
     7
370
    35
100
AcDbLine
 10
20.0
 20
198.5
 30
0.0
 11
15.0
 21
198.5
 31
0.0
  0
LINE
  5
A0
330
1F
100
AcDbEntity
  8
0
  6
Continuous
 62
     7
370
    35
100
AcDbLine
 10
410.0
 20
198.5
 30
0.0
 11
415.0
 21
198.5
 31
0.0
  0
LINE
  5
A1
330
1F
100
AcDbEntity
  8
0
  6
Continuous
 62
     7
370
    35
100
AcDbLine
 10
20.0
 20
248.5
 30
0.0
 11
15.0
 21
248.5
 31
0.0
  0
LINE
  5
A2
330
1F
100
AcDbEntity
  8
0
  6
Continuous
 62
     7
370
    35
100
AcDbLine
 10
410.0
 20
248.5
 30
0.0
 11
415.0
 21
248.5
 31
0.0
  0
LINE
  5
A3
330
1F
100
AcDbEntity
  8
0
  6
Continuous
 62
     7
370
    35
100
AcDbLine
 10
65.0
 20
287.0
 30
0.0
 11
65.0
 21
292.0
 31
0.0
  0
LINE
  5
A4
330
1F
100
AcDbEntity
  8
0
  6
Continuous
 62
     7
370
    35
100
AcDbLine
 10
65.0
 20
10.0
 30
0.0
 11
65.0
 21
5.0
 31
0.0
  0
LINE
  5
A5
330
1F
100
AcDbEntity
  8
0
  6
Continuous
 62
     7
370
    35
100
AcDbLine
 10
115.0
 20
287.0
 30
0.0
 11
115.0
 21
292.0
 31
0.0
  0
LINE
  5
A6
330
1F
100
AcDbEntity
  8
0
  6
Continuous
 62
     7
370
    35
100
AcDbLine
 10
115.0
 20
10.0
 30
0.0
 11
115.0
 21
5.0
 31
0.0
  0
LINE
  5
A7
330
1F
100
AcDbEntity
  8
0
  6
Continuous
 62
     7
370
    35
100
AcDbLine
 10
165.0
 20
287.0
 30
0.0
 11
165.0
 21
292.0
 31
0.0
  0
LINE
  5
A8
330
1F
100
AcDbEntity
  8
0
  6
Continuous
 62
     7
370
    35
100
AcDbLine
 10
165.0
 20
10.0
 30
0.0
 11
165.0
 21
5.0
 31
0.0
  0
LINE
  5
A9
330
1F
100
AcDbEntity
  8
0
  6
Continuous
 62
     7
370
    35
100
AcDbLine
 10
215.0
 20
287.0
 30
0.0
 11
215.0
 21
292.0
 31
0.0
  0
LINE
  5
AA
330
1F
100
AcDbEntity
  8
0
  6
Continuous
 62
     7
370
    35
100
AcDbLine
 10
215.0
 20
10.0
 30
0.0
 11
215.0
 21
5.0
 31
0.0
  0
LINE
  5
AB
330
1F
100
AcDbEntity
  8
0
  6
Continuous
 62
     7
370
    35
100
AcDbLine
 10
265.0
 20
287.0
 30
0.0
 11
265.0
 21
292.0
 31
0.0
  0
LINE
  5
AC
330
1F
100
AcDbEntity
  8
0
  6
Continuous
 62
     7
370
    35
100
AcDbLine
 10
265.0
 20
10.0
 30
0.0
 11
265.0
 21
5.0
 31
0.0
  0
LINE
  5
AD
330
1F
100
AcDbEntity
  8
0
  6
Continuous
 62
     7
370
    35
100
AcDbLine
 10
315.0
 20
287.0
 30
0.0
 11
315.0
 21
292.0
 31
0.0
  0
LINE
  5
AE
330
1F
100
AcDbEntity
  8
0
  6
Continuous
 62
     7
370
    35
100
AcDbLine
 10
315.0
 20
10.0
 30
0.0
 11
315.0
 21
5.0
 31
0.0
  0
LINE
  5
AF
330
1F
100
AcDbEntity
  8
0
  6
Continuous
 62
     7
370
    35
100
AcDbLine
 10
365.0
 20
287.0
 30
0.0
 11
365.0
 21
292.0
 31
0.0
  0
LINE
  5
B0
330
1F
100
AcDbEntity
  8
0
  6
Continuous
 62
     7
370
    35
100
AcDbLine
 10
365.0
 20
10.0
 30
0.0
 11
365.0
 21
5.0
 31
0.0
  0
MTEXT
  5
B2
330
1F
100
AcDbEntity
  8
0
  6
Continuous
 62
     7
370
     0
100
AcDbMText
 10
17.3396881428
 20
31.167684388
 30
0.0
 40
3.96875
 41
0.0
 71
     2
 72
     1
  1
A
  7
SLDTEXTSTYLE0
 73
     1
 44
1.0
  0
MTEXT
  5
B3
330
1F
100
AcDbEntity
  8
0
  6
Continuous
 62
     7
370
     0
100
AcDbMText
 10
412.3396881428
 20
31.167684388
 30
0.0
 40
3.96875
 41
0.0
 71
     2
 72
     1
  1
A
  7
SLDTEXTSTYLE0
 73
     1
 44
1.0
  0
MTEXT
  5
B4
330
1F
100
AcDbEntity
  8
0
  6
Continuous
 62
     7
370
     0
100
AcDbMText
 10
17.4706018241
 20
75.4739273576
 30
0.0
 40
3.96875
 41
0.0
 71
     2
 72
     1
  1
B
  7
SLDTEXTSTYLE0
 73
     1
 44
1.0
  0
MTEXT
  5
B5
330
1F
100
AcDbEntity
  8
0
  6
Continuous
 62
     7
370
     0
100
AcDbMText
 10
412.4706018241
 20
75.4739273576
 30
0.0
 40
3.96875
 41
0.0
 71
     2
 72
     1
  1
B
  7
SLDTEXTSTYLE0
 73
     1
 44
1.0
  0
MTEXT
  5
B6
330
1F
100
AcDbEntity
  8
0
  6
Continuous
 62
     7
370
     0
100
AcDbMText
 10
17.458658902
 20
125.4739273576
 30
0.0
 40
3.96875
 41
0.0
 71
     2
 72
     1
  1
C
  7
SLDTEXTSTYLE0
 73
     1
 44
1.0
  0
MTEXT
  5
B7
330
1F
100
AcDbEntity
  8
0
  6
Continuous
 62
     7
370
     0
100
AcDbMText
 10
412.458658902
 20
125.4739273576
 30
0.0
 40
3.96875
 41
0.0
 71
     2
 72
     1
  1
C
  7
SLDTEXTSTYLE0
 73
     1
 44
1.0
  0
MTEXT
  5
B8
330
1F
100
AcDbEntity
  8
0
  6
Continuous
 62
     7
370
     0
100
AcDbMText
 10
17.4526872821
 20
175.4739273576
 30
0.0
 40
3.96875
 41
0.0
 71
     2
 72
     1
  1
D
  7
SLDTEXTSTYLE0
 73
     1
 44
1.0
  0
MTEXT
  5
B9
330
1F
100
AcDbEntity
  8
0
  6
Continuous
 62
     7
370
     0
100
AcDbMText
 10
412.4526872821
 20
175.4739273576
 30
0.0
 40
3.96875
 41
0.0
 71
     2
 72
     1
  1
D
  7
SLDTEXTSTYLE0
 73
     1
 44
1.0
  0
MTEXT
  5
BA
330
1F
100
AcDbEntity
  8
0
  6
Continuous
 62
     7
370
     0
100
AcDbMText
 10
17.5078089051
 20
225.4739273576
 30
0.0
 40
3.96875
 41
0.0
 71
     2
 72
     1
  1
E
  7
SLDTEXTSTYLE0
 73
     1
 44
1.0
  0
MTEXT
  5
BB
330
1F
100
AcDbEntity
  8
0
  6
Continuous
 62
     7
370
     0
100
AcDbMText
 10
412.5078089051
 20
225.4739273576
 30
0.0
 40
3.96875
 41
0.0
 71
     2
 72
     1
  1
E
  7
SLDTEXTSTYLE0
 73
     1
 44
1.0
  0
MTEXT
  5
BC
330
1F
100
AcDbEntity
  8
0
  6
Continuous
 62
     7
370
     0
100
AcDbMText
 10
17.4577402091
 20
269.7239273576
 30
0.0
 40
3.96875
 41
0.0
 71
     2
 72
     1
  1
F
  7
SLDTEXTSTYLE0
 73
     1
 44
1.0
  0
MTEXT
  5
BD
330
1F
100
AcDbEntity
  8
0
  6
Continuous
 62
     7
370
     0
100
AcDbMText
 10
412.4577402091
 20
269.7239273576
 30
0.0
 40
3.96875
 41
0.0
 71
     2
 72
     1
  1
F
  7
SLDTEXTSTYLE0
 73
     1
 44
1.0
  0
MTEXT
  5
BE
330
1F
100
AcDbEntity
  8
0
  6
Continuous
 62
     7
370
     0
100
AcDbMText
 10
42.4600369465
 20
9.4739273576
 30
0.0
 40
3.96875
 41
0.0
 71
     2
 72
     1
  1
8
  7
SLDTEXTSTYLE0
 73
     1
 44
1.0
  0
MTEXT
  5
BF
330
1F
100
AcDbEntity
  8
0
  6
Continuous
 62
     7
370
     0
100
AcDbMText
 10
42.4600369465
 20
291.4739273576
 30
0.0
 40
3.96875
 41
0.0
 71
     2
 72
     1
  1
8
  7
SLDTEXTSTYLE0
 73
     1
 44
1.0
  0
MTEXT
  5
C0
330
1F
100
AcDbEntity
  8
0
  6
Continuous
 62
     7
370
     0
100
AcDbMText
 10
89.9600369465
 20
9.4739273576
 30
0.0
 40
3.96875
 41
0.0
 71
     2
 72
     1
  1
7
  7
SLDTEXTSTYLE0
 73
     1
 44
1.0
  0
MTEXT
  5
C1
330
1F
100
AcDbEntity
  8
0
  6
Continuous
 62
     7
370
     0
100
AcDbMText
 10
89.9600369465
 20
291.4739273576
 30
0.0
 40
3.96875
 41
0.0
 71
     2
 72
     1
  1
7
  7
SLDTEXTSTYLE0
 73
     1
 44
1.0
  0
MTEXT
  5
C2
330
1F
100
AcDbEntity
  8
0
  6
Continuous
 62
     7
370
     0
100
AcDbMText
 10
139.9600369465
 20
9.4739273576
 30
0.0
 40
3.96875
 41
0.0
 71
     2
 72
     1
  1
6
  7
SLDTEXTSTYLE0
 73
     1
 44
1.0
  0
MTEXT
  5
C3
330
1F
100
AcDbEntity
  8
0
  6
Continuous
 62
     7
370
     0
100
AcDbMText
 10
139.9600369465
 20
291.4739273576
 30
0.0
 40
3.96875
 41
0.0
 71
     2
 72
     1
  1
6
  7
SLDTEXTSTYLE0
 73
     1
 44
1.0
  0
MTEXT
  5
C4
330
1F
100
AcDbEntity
  8
0
  6
Continuous
 62
     7
370
     0
100
AcDbMText
 10
189.9600369465
 20
9.4739273576
 30
0.0
 40
3.96875
 41
0.0
 71
     2
 72
     1
  1
5
  7
SLDTEXTSTYLE0
 73
     1
 44
1.0
  0
MTEXT
  5
C5
330
1F
100
AcDbEntity
  8
0
  6
Continuous
 62
     7
370
     0
100
AcDbMText
 10
189.9600369465
 20
291.4739273576
 30
0.0
 40
3.96875
 41
0.0
 71
     2
 72
     1
  1
5
  7
SLDTEXTSTYLE0
 73
     1
 44
1.0
  0
MTEXT
  5
C6
330
1F
100
AcDbEntity
  8
0
  6
Continuous
 62
     7
370
     0
100
AcDbMText
 10
239.9600369465
 20
9.4739273576
 30
0.0
 40
3.96875
 41
0.0
 71
     2
 72
     1
  1
4
  7
SLDTEXTSTYLE0
 73
     1
 44
1.0
  0
MTEXT
  5
C7
330
1F
100
AcDbEntity
  8
0
  6
Continuous
 62
     7
370
     0
100
AcDbMText
 10
239.9600369465
 20
291.4739273576
 30
0.0
 40
3.96875
 41
0.0
 71
     2
 72
     1
  1
4
  7
SLDTEXTSTYLE0
 73
     1
 44
1.0
  0
MTEXT
  5
C8
330
1F
100
AcDbEntity
  8
0
  6
Continuous
 62
     7
370
     0
100
AcDbMText
 10
289.9600369465
 20
9.4739273576
 30
0.0
 40
3.96875
 41
0.0
 71
     2
 72
     1
  1
3
  7
SLDTEXTSTYLE0
 73
     1
 44
1.0
  0
MTEXT
  5
C9
330
1F
100
AcDbEntity
  8
0
  6
Continuous
 62
     7
370
     0
100
AcDbMText
 10
289.9600369465
 20
291.4739273576
 30
0.0
 40
3.96875
 41
0.0
 71
     2
 72
     1
  1
3
  7
SLDTEXTSTYLE0
 73
     1
 44
1.0
  0
MTEXT
  5
CA
330
1F
100
AcDbEntity
  8
0
  6
Continuous
 62
     7
370
     0
100
AcDbMText
 10
339.9600369465
 20
9.4739273576
 30
0.0
 40
3.96875
 41
0.0
 71
     2
 72
     1
  1
2
  7
SLDTEXTSTYLE0
 73
     1
 44
1.0
  0
MTEXT
  5
CB
330
1F
100
AcDbEntity
  8
0
  6
Continuous
 62
     7
370
     0
100
AcDbMText
 10
339.9600369465
 20
291.4739273576
 30
0.0
 40
3.96875
 41
0.0
 71
     2
 72
     1
  1
2
  7
SLDTEXTSTYLE0
 73
     1
 44
1.0
  0
MTEXT
  5
CC
330
1F
100
AcDbEntity
  8
0
  6
Continuous
 62
     7
370
     0
100
AcDbMText
 10
387.4600369465
 20
9.4739273576
 30
0.0
 40
3.96875
 41
0.0
 71
     2
 72
     1
  1
1
  7
SLDTEXTSTYLE0
 73
     1
 44
1.0
  0
MTEXT
  5
CD
330
1F
100
AcDbEntity
  8
0
  6
Continuous
 62
     7
370
     0
100
AcDbMText
 10
387.4600369465
 20
291.4739273576
 30
0.0
 40
3.96875
 41
0.0
 71
     2
 72
     1
  1
1
  7
SLDTEXTSTYLE0
 73
     1
 44
1.0
  0
MTEXT
  5
CE
330
1F
100
AcDbEntity
  8
0
  6
Continuous
 62
     7
370
     0
100
AcDbMText
 10
364.1498693063
 20
23.6069112001
 30
0.0
 40
6.35
 41
0.0
 71
     2
 72
     1
  1
RLA_12SMx200
  7
SLDTEXTSTYLE0
 73
     1
 44
1.0
  0
MTEXT
  5
CF
330
1F
100
AcDbEntity
  8
0
  6
Continuous
 62
     7
370
     0
100
AcDbMText
 10
285.6178111281
 20
12.9493119036
 30
0.0
 40
1.4986
 41
0.0
 71
     1
 72
     1
  1
HMOTNOST:
  7
SLDTEXTSTYLE0
 73
     1
 44
1.0
  0
MTEXT
  5
D0
330
1F
100
AcDbEntity
  8
0
  6
Continuous
 62
     7
370
     0
100
AcDbMText
 10
400.8711564346
 20
24.406388569
 30
0.0
 40
2.9104166667
 41
0.0
 71
     1
 72
     1
  1
A3
  7
SLDTEXTSTYLE0
 73
     1
 44
1.0
  0
MTEXT
  5
D2
330
1F
100
AcDbEntity
  8
0
  6
Continuous
 62
     7
370
     0
100
AcDbMText
 10
374.4782944278
 20
12.9000872745
 30
0.0
 40
1.5
 41
0.0
 71
     1
 72
     1
  1
LIST 1 Z 1 LISTŮ
  7
SLDTEXTSTYLE1
 73
     1
 44
1.0
  0
MTEXT
  5
D4
330
1F
100
AcDbEntity
  8
0
  6
Continuous
 62
     7
370
     0
100
AcDbMText
 10
330.0739661175
 20
12.9000872745
 30
0.0
 40
1.5
 41
0.0
 71
     1
 72
     1
  1
MĚŘÍTKO:1:1
  7
SLDTEXTSTYLE2
 73
     1
 44
1.0
  0
MTEXT
  5
D5
330
1F
100
AcDbEntity
  8
0
  6
Continuous
 62
     7
370
     0
100
AcDbMText
 10
330.2786531243
 20
25.9860562892
 30
0.0
 40
1.5
 41
0.0
 71
     1
 72
     1
  1
Č. VÝKRESU
  7
SLDTEXTSTYLE2
 73
     1
 44
1.0
  0
MTEXT
  5
D6
330
1F
100
AcDbEntity
  8
0
  6
Continuous
 62
     7
370
     0
100
AcDbMText
 10
329.9561869366
 20
46.5761792212
 30
0.0
 40
1.5
 41
0.0
 71
     1
 72
     1
  1
NÁZEV:
  7
SLDTEXTSTYLE0
 73
     1
 44
1.0
  0
MTEXT
  5
D7
330
1F
100
AcDbEntity
  8
0
  6
Continuous
 62
     7
370
     0
100
AcDbMText
 10
383.3275816993
 20
62.3349086805
 30
0.0
 40
1.5
 41
0.0
 71
     1
 72
     1
  1
ZMĚNA
  7
SLDTEXTSTYLE2
 73
     1
 44
1.0
  0
MTEXT
  5
D8
330
1F
100
AcDbEntity
  8
0
  6
Continuous
 62
     7
370
     0
100
AcDbMText
 10
342.6146405229
 20
62.5329935751
 30
0.0
 40
1.5
 41
0.0
 71
     1
 72
     1
  1
NEUPRAVOVAT MĚŘÍTKO VÝKRESU
  7
SLDTEXTSTYLE2
 73
     1
 44
1.0
  0
MTEXT
  5
D9
330
1F
100
AcDbEntity
  8
0
  6
Continuous
 62
     7
370
     0
100
AcDbMText
 10
285.6458623088
 20
25.9860562892
 30
0.0
 40
1.5
 41
0.0
 71
     1
 72
     1
  1
MATERIÁL:
  7
SLDTEXTSTYLE0
 73
     1
 44
1.0
  0
MTEXT
  5
DA
330
1F
100
AcDbEntity
  8
0
  6
Continuous
 62
     7
370
     0
100
AcDbMText
 10
277.2147019657
 20
46.5761792212
 30
0.0
 40
1.5
 41
0.0
 71
     1
 72
     1
  1
DATUM
  7
SLDTEXTSTYLE0
 73
     1
 44
1.0
  0
MTEXT
  5
DB
330
1F
100
AcDbEntity
  8
0
  6
Continuous
 62
     7
370
     0
100
AcDbMText
 10
260.0335875632
 20
46.5617563795
 30
0.0
 40
1.5
 41
0.0
 71
     1
 72
     1
  1
PODPIS
  7
SLDTEXTSTYLE0
 73
     1
 44
1.0
  0
MTEXT
  5
DC
330
1F
100
AcDbEntity
  8
0
  6
Continuous
 62
     7
370
     0
100
AcDbMText
 10
244.3222392177
 20
46.5014826335
 30
0.0
 40
1.5
 41
0.0
 71
     1
 72
     1
  1
JMÉNO
  7
SLDTEXTSTYLE0
 73
     1
 44
1.0
  0
INSERT
  5
E2
330
1F
100
AcDbEntity
  8
0
  6
Continuous
 62
     7
370
     0
100
AcDbBlockReference
  2
SW_NOTE_0
 10
311.3092156863
 20
62.069489643
 30
0.0
  0
MTEXT
  5
E3
330
1F
100
AcDbEntity
  8
0
  6
Continuous
 62
     7
370
     0
100
AcDbMText
 10
264.3712921668
 20
63.9192719951
 30
0.0
 40
1.5
 41
0.0
 71
     1
 72
     1
  1
OPRACOVÁNÍ:
  7
SLDTEXTSTYLE0
 73
     1
 44
1.0
  0
INSERT
  5
ED
330
1F
100
AcDbEntity
  8
0
  6
Continuous
 62
     7
370
     0
100
AcDbBlockReference
  2
SW_NOTE_0_1
 10
230.5936687456
 20
61.9873698743
 30
0.0
  0
MTEXT
  5
EE
330
1F
100
AcDbEntity
  8
0
  6
Continuous
 62
     7
370
     0
100
AcDbMText
 10
230.6690428622
 20
25.3496492073
 30
0.0
 40
1.5
 41
0.0
 71
     1
 72
     1
  1
Z. JAKOSTI
  7
SLDTEXTSTYLE0
 73
     1
 44
1.0
  0
MTEXT
  5
EF
330
1F
100
AcDbEntity
  8
0
  6
Continuous
 62
     7
370
     0
100
AcDbMText
 10
230.4551864991
 20
29.7337046506
 30
0.0
 40
1.5
 41
0.0
 71
     1
 72
     1
  1
VÝROBA
  7
SLDTEXTSTYLE0
 73
     1
 44
1.0
  0
MTEXT
  5
F0
330
1F
100
AcDbEntity
  8
0
  6
Continuous
 62
     7
370
     0
100
AcDbMText
 10
230.4017224083
 20
34.0642960031
 30
0.0
 40
1.5
 41
0.0
 71
     1
 72
     1
  1
SCHVÁLIL
  7
SLDTEXTSTYLE0
 73
     1
 44
1.0
  0
MTEXT
  5
F1
330
1F
100
AcDbEntity
  8
0
  6
Continuous
 62
     7
370
     0
100
AcDbMText
 10
230.4104688676
 20
38.15440716
 30
0.0
 40
1.5
 41
0.0
 71
     1
 72
     1
  1
PŘEZKOUŠEL
  7
SLDTEXTSTYLE2
 73
     1
 44
1.0
  0
MTEXT
  5
F2
330
1F
100
AcDbEntity
  8
0
  6
Continuous
 62
     7
370
     0
100
AcDbMText
 10
230.2121492441
 20
42.4297148859
 30
0.0
 40
1.5
 41
0.0
 71
     1
 72
     1
  1
NAVRHL
  7
SLDTEXTSTYLE0
 73
     1
 44
1.0
  0
LWPOLYLINE
  5
F3
330
1F
100
AcDbEntity
  8
0
  6
Continuous
 62
     7
370
    25
100
AcDbPolyline
 90
        2
 70
   128
 43
0.0
 10
158.2733333333
 20
187.26
 10
158.2733333333
 20
187.26
  0
LWPOLYLINE
  5
F4
330
1F
100
AcDbEntity
  8
0
  6
Continuous
 62
     7
370
    25
100
AcDbPolyline
 90
        2
 70
   128
 43
0.0
 10
111.6066666667
 20
187.26
 10
111.6066666667
 20
187.26
  0
LWPOLYLINE
  5
F5
330
1F
100
AcDbEntity
  8
0
  6
Continuous
 62
     7
370
    25
100
AcDbPolyline
 90
        2
 70
   128
 43
0.0
 10
111.6066666667
 20
188.26
 10
111.6066666667
 20
188.26
  0
LWPOLYLINE
  5
F6
330
1F
100
AcDbEntity
  8
0
  6
Continuous
 62
     7
370
    25
100
AcDbPolyline
 90
        2
 70
   128
 43
0.0
 10
146.6066666667
 20
181.76
 10
146.6066666667
 20
181.76
  0
LWPOLYLINE
  5
F7
330
1F
100
AcDbEntity
  8
0
  6
Continuous
 62
     7
370
    25
100
AcDbPolyline
 90
        2
 70
   128
 43
0.0
 10
123.2733333333
 20
193.76
 10
123.2733333333
 20
193.76
  0
LWPOLYLINE
  5
F8
330
1F
100
AcDbEntity
  8
0
  6
Continuous
 62
     7
370
    25
100
AcDbPolyline
 90
        2
 70
   128
 43
0.0
 10
146.6066666667
 20
181.76
 10
146.6066666667
 20
181.76
  0
LWPOLYLINE
  5
F9
330
1F
100
AcDbEntity
  8
0
  6
Continuous
 62
     7
370
    25
100
AcDbPolyline
 90
        2
 70
   128
 43
0.0
 10
146.6066666667
 20
193.76
 10
146.6066666667
 20
193.76
  0
LWPOLYLINE
  5
FA
330
1F
100
AcDbEntity
  8
0
  6
Continuous
 62
     7
370
    25
100
AcDbPolyline
 90
        2
 70
   128
 43
0.0
 10
123.2733333333
 20
181.76
 10
123.2733333333
 20
181.76
  0
LWPOLYLINE
  5
FB
330
1F
100
AcDbEntity
  8
0
  6
Continuous
 62
     7
370
    25
100
AcDbPolyline
 90
        2
 70
   128
 43
0.0
 10
146.6066666667
 20
193.76
 10
146.6066666667
 20
193.76
  0
SPLINE
  5
FC
330
1F
100
AcDbEntity
  8
0
  6
Continuous
 62
     7
370
    25
100
AcDbSpline
210
0.0
220
0.0
230
1.0
 70
     8
 71
     3
 72
    70
 73
    66
 74
     0
 42
0.000000001
 43
0.00000001
 40
0.0
 40
0.0
 40
0.0
 40
0.0
 40
0.03125
 40
0.03125
 40
0.0625
 40
0.0625
 40
0.09375
 40
0.09375
 40
0.125
 40
0.125
 40
0.15625
 40
0.15625
 40
0.1875
 40
0.1875
 40
0.21875
 40
0.21875
 40
0.25
 40
0.25
 40
0.28125
 40
0.28125
 40
0.3125
 40
0.3125
 40
0.34375
 40
0.34375
 40
0.3749999999999999
 40
0.3749999999999999
 40
0.4062499999999999
 40
0.4062499999999999
 40
0.4374999999999999
 40
0.4374999999999999
 40
0.4687499999999999
 40
0.4687499999999999
 40
0.5
 40
0.5
 40
0.53125
 40
0.53125
 40
0.5625
 40
0.5625
 40
0.59375
 40
0.59375
 40
0.625
 40
0.625
 40
0.65625
 40
0.65625
 40
0.6875
 40
0.6875
 40
0.71875
 40
0.71875
 40
0.7499999999999999
 40
0.7499999999999999
 40
0.7812499999999999
 40
0.7812499999999999
 40
0.8124999999999999
 40
0.8124999999999999
 40
0.8437499999999999
 40
0.8437499999999999
 40
0.8749999999999999
 40
0.8749999999999999
 40
0.9062499999999999
 40
0.9062499999999999
 40
0.9374999999999999
 40
0.9374999999999999
 40
0.9687499999999999
 40
0.9687499999999999
 40
1.0
 40
1.0
 40
1.0
 40
1.0
 10
99.94
 20
181.76
 30
0.0
 10
100.3019251103483
 20
181.7355159868231
 30
0.0
 10
100.6687086377837
 20
181.7326210790643
 30
0.0
 10
101.4001589677994
 20
181.7705539904478
 30
0.0
 10
101.7615899444975
 20
181.8111477332646
 30
0.0
 10
102.4908877232434
 20
181.9351406515647
 30
0.0
 10
102.8582828715938
 20
182.0186865139236
 30
0.0
 10
103.5866669715922
 20
182.2261191707644
 30
0.0
 10
103.9487414276762
 20
182.3499611292901
 30
0.0
 10
104.6804505377637
 20
182.6367275839463
 30
0.0
 10
105.0455847891556
 20
182.7991474154274
 30
0.0
 10
105.7708547851958
 20
183.1577059562177
 30
0.0
 10
106.137900296561
 20
183.3550232659911
 30
0.0
 10
106.8689508937134
 20
183.7796055624433
 30
0.0
 10
107.2300140239689
 20
184.0061620203088
 30
0.0
 10
107.9600859095872
 20
184.4863501413656
 30
0.0
 10
108.3274095110364
 20
184.7397189653439
 30
0.0
 10
109.0547409450559
 20
185.2647167691799
 30
0.0
 10
109.417734101636
 20
185.5370035438336
 30
0.0
 10
110.1495608726549
 20
186.0971506584154
 30
0.0
 10
110.5133191138929
 20
186.3837132940219
 30
0.0
 10
111.2398718839597
 20
186.964415499056
 30
0.0
 10
111.607108060325
 20
187.2597529387263
 30
0.0
 10
112.3376182286376
 20
187.8508644800334
 30
0.0
 10
112.6985893809201
 20
188.1460040157188
 30
0.0
 10
113.4292953054995
 20
188.7337270769298
 30
0.0
 10
113.7964758598182
 20
189.0255964226919
 30
0.0
 10
114.5226163130951
 20
189.5959534919794
 30
0.0
 10
114.886802803694
 20
189.875827751947
 30
0.0
 10
115.6186060408449
 20
190.4191131457465
 30
0.0
 10
115.9812624164651
 20
190.6813062592129
 30
0.0
 10
116.7089601424573
 20
191.1833549442862
 30
0.0
 10
117.0763155406081
 20
191.4236678322177
 30
0.0
 10
117.806144931039
 20
191.8750139782881
 30
0.0
 10
118.1673000327218
 20
192.0858926230076
 30
0.0
 10
118.8984995215887
 20
192.4765952876431
 30
0.0
 10
119.265465621828
 20
192.6557240028364
 30
0.0
 10
119.9902775389892
 20
192.9760435072091
 30
0.0
 10
120.3559312345755
 20
193.1184120991214
 30
0.0
 10
121.0875697581934
 20
193.3633386786171
 30
0.0
 10
121.4493991170653
 20
193.4655437761776
 30
0.0
 10
122.1781032503582
 20
193.6286031435037
 30
0.0
 10
122.5455063493249
 20
193.6893373799203
 30
0.0
 10
123.2745150494193
 20
193.7672301868773
 30
0.0
 10
123.6361299100774
 20
193.7845592239046
 30
0.0
 10
124.3676821716173
 20
193.7756794532142
 30
0.0
 10
124.7338856388717
 20
193.7493335680814
 30
0.0
 10
125.4582242864482
 20
193.6540386879449
 30
0.0
 10
125.8251030566038
 20
193.5846885999664
 30
0.0
 10
126.5564357929295
 20
193.4044226540928
 30
0.0
 10
126.9177135130013
 20
193.2939452667859
 30
0.0
 10
127.6472848616832
 20
193.0331987815125
 30
0.0
 10
128.0146641093775
 20
192.8828760548351
 30
0.0
 10
128.7427127323326
 20
192.5472779546647
 30
0.0
 10
129.1050628671988
 20
192.3618674642033
 30
0.0
 10
129.8368268831051
 20
191.9579035727729
 30
0.0
 10
130.2014720546043
 20
191.7401799074901
 30
0.0
 10
130.9271849064538
 20
191.2784164983976
 30
0.0
 10
131.2943019042379
 20
191.0330533581714
 30
0.0
 10
132.0251879760477
 20
190.5211321264075
 30
0.0
 10
132.3861897883818
 20
190.2553236779355
 30
0.0
 10
133.1164886053515
 20
189.7056154927979
 30
0.0
 10
133.4837724652454
 20
189.4221556518985
 30
0.0
 10
134.2107222382697
 20
188.8472618406096
 30
0.0
 10
134.5740826920858
 20
188.5548831732938
 30
0.0
 10
134.94
 20
188.26
 30
0.0
  0
SPLINE
  5
FD
330
1F
100
AcDbEntity
  8
0
  6
Continuous
 62
     7
370
    25
100
AcDbSpline
210
0.0
220
0.0
230
1.0
 70
     8
 71
     3
 72
    54
 73
    50
 74
     0
 42
0.000000001
 43
0.00000001
 40
0.0
 40
0.0
 40
0.0
 40
0.0
 40
0.0624999999999991
 40
0.0624999999999991
 40
0.0937499999999981
 40
0.0937499999999981
 40
0.1249999999999971
 40
0.1249999999999971
 40
0.1874999999999962
 40
0.1874999999999962
 40
0.2187499999999957
 40
0.2187499999999957
 40
0.2499999999999953
 40
0.2499999999999953
 40
0.3124999999999954
 40
0.3124999999999954
 40
0.3749999999999956
 40
0.3749999999999956
 40
0.4062499999999963
 40
0.4062499999999963
 40
0.4374999999999969
 40
0.4374999999999969
 40
0.4687499999999976
 40
0.4687499999999976
 40
0.4999999999999982
 40
0.4999999999999982
 40
0.5312499999999989
 40
0.5312499999999989
 40
0.5624999999999996
 40
0.5624999999999996
 40
0.5937500000000001
 40
0.5937500000000001
 40
0.6250000000000008
 40
0.6250000000000008
 40
0.6875000000000011
 40
0.6875000000000011
 40
0.7500000000000013
 40
0.7500000000000013
 40
0.7812500000000009
 40
0.7812500000000009
 40
0.8125000000000004
 40
0.8125000000000004
 40
0.8750000000000008
 40
0.8750000000000008
 40
0.9062500000000003
 40
0.9062500000000003
 40
0.9374999999999998
 40
0.9374999999999998
 40
1.0
 40
1.0
 40
1.0
 40
1.0
 10
146.6066666666667
 20
181.76
 30
0.0
 10
147.0892334804644
 20
181.7273546490975
 30
0.0
 10
147.58044606076
 20
181.7332530438686
 30
0.0
 10
148.309150194053
 20
181.8000453842111
 30
0.0
 10
148.5498062409555
 20
181.8318132196481
 30
0.0
 10
149.0360047601194
 20
181.9144751651814
 30
0.0
 10
149.280325179325
 20
181.965355724346
 30
0.0
 10
150.0116579156507
 20
182.1456216702196
 30
0.0
 10
150.4934565759952
 20
182.3021667201808
 30
0.0
 10
151.2251656860828
 20
182.5889331748371
 30
0.0
 10
151.4693388798703
 20
182.6930569618601
 30
0.0
 10
151.954704628507
 20
182.9167890286404
 30
0.0
 10
152.1954933006998
 20
183.0362909311026
 30
0.0
 10
152.9253226911306
 20
183.4181921346206
 30
0.0
 10
153.4138532459631
 20
183.702859524328
 30
0.0
 10
154.3814703817623
 20
184.3185440697847
 30
0.0
 10
154.8728542720334
 20
184.6522193313714
 30
0.0
 10
155.6001857060529
 20
185.1772171352074
 30
0.0
 10
155.8412395912103
 20
185.3562943529209
 30
0.0
 10
156.3281054691901
 20
185.722766476346
 30
0.0
 10
156.572489015264
 20
185.9098195180838
 30
0.0
 10
157.0596262983169
 20
186.288860323985
 30
0.0
 10
157.3010779089043
 20
186.4804969948611
 30
0.0
 10
157.7854464222821
 20
186.8676317982171
 30
0.0
 10
158.0293884613907
 20
187.0634112178043
 30
0.0
 10
158.5172782052764
 20
187.456588782196
 30
0.0
 10
158.7612202443849
 20
187.6539823611868
 30
0.0
 10
159.2455887577628
 20
188.0475273517581
 30
0.0
 10
159.4870403683502
 20
188.2439578592541
 30
0.0
 10
159.9741776514031
 20
188.6357732333948
 30
0.0
 10
160.218561197477
 20
188.8308022082473
 30
0.0
 10
160.7054270754568
 20
189.2162865183891
 30
0.0
 10
160.9464809606141
 20
189.4063735348705
 30
0.0
 10
161.6738123946337
 20
189.9689053421098
 30
0.0
 10
162.1651962849048
 20
190.3336968365226
 30
0.0
 10
163.132813420704
 20
191.0219938376141
 30
0.0
 10
163.6213439755365
 20
191.3484434745394
 30
0.0
 10
164.3511733659673
 20
191.7997896206097
 30
0.0
 10
164.5919620381601
 20
191.9434937720325
 30
0.0
 10
165.0773277867968
 20
192.2177912353807
 30
0.0
 10
165.3215009805843
 20
192.3482699489007
 30
0.0
 10
166.0532100906718
 20
192.7167615197991
 30
0.0
 10
166.5350087510163
 20
192.9311362784953
 30
0.0
 10
167.266341487342
 20
193.2021923406181
 30
0.0
 10
167.5106619065477
 20
193.2839760573429
 30
0.0
 10
167.9968604257116
 20
193.4292744764426
 30
0.0
 10
168.2375164726141
 20
193.4927203373987
 30
0.0
 10
168.966220605907
 20
193.6557797047248
 30
0.0
 10
169.4574331862023
 20
193.7273546490975
 30
0.0
 10
169.94
 20
193.76
 30
0.0
  0
LINE
  5
FE
330
1F
100
AcDbEntity
  8
0
  6
Continuous
 62
     7
370
    25
100
AcDbLine
 10
169.94
 20
193.76
 30
0.0
 11
169.94
 21
181.76
 31
0.0
  0
SPLINE
  5
FF
330
1F
100
AcDbEntity
  8
0
  6
Continuous
 62
     7
370
    25
100
AcDbSpline
210
0.0
220
0.0
230
1.0
 70
     8
 71
     3
 72
    70
 73
    66
 74
     0
 42
0.000000001
 43
0.00000001
 40
0.0
 40
0.0
 40
0.0
 40
0.0
 40
0.0312500000000001
 40
0.0312500000000001
 40
0.0625000000000002
 40
0.0625000000000002
 40
0.0937500000000004
 40
0.0937500000000004
 40
0.1250000000000005
 40
0.1250000000000005
 40
0.1562500000000006
 40
0.1562500000000006
 40
0.1875000000000005
 40
0.1875000000000005
 40
0.2187500000000005
 40
0.2187500000000005
 40
0.2500000000000004
 40
0.2500000000000004
 40
0.2812500000000004
 40
0.2812500000000004
 40
0.3125000000000003
 40
0.3125000000000003
 40
0.3437500000000003
 40
0.3437500000000003
 40
0.3750000000000002
 40
0.3750000000000002
 40
0.4062500000000002
 40
0.4062500000000002
 40
0.4375000000000002
 40
0.4375000000000002
 40
0.4687500000000001
 40
0.4687500000000001
 40
0.5
 40
0.5
 40
0.53125
 40
0.53125
 40
0.5625
 40
0.5625
 40
0.59375
 40
0.59375
 40
0.625
 40
0.625
 40
0.65625
 40
0.65625
 40
0.6875
 40
0.6875
 40
0.71875
 40
0.71875
 40
0.75
 40
0.75
 40
0.7812500000000001
 40
0.7812500000000001
 40
0.8125000000000001
 40
0.8125000000000001
 40
0.8437500000000001
 40
0.8437500000000001
 40
0.8750000000000001
 40
0.8750000000000001
 40
0.9062500000000001
 40
0.9062500000000001
 40
0.9375000000000001
 40
0.9375000000000001
 40
0.9687500000000001
 40
0.9687500000000001
 40
1.0
 40
1.0
 40
1.0
 40
1.0
 10
111.6066666666667
 20
187.26
 30
0.0
 10
111.9725839745809
 20
186.9651168267062
 30
0.0
 10
112.335944428397
 20
186.6727381593904
 30
0.0
 10
113.0628942014213
 20
186.0978443481015
 30
0.0
 10
113.4301780613152
 20
185.8143845072021
 30
0.0
 10
114.1604768782849
 20
185.2646763220645
 30
0.0
 10
114.521478690619
 20
184.9988678735925
 30
0.0
 10
115.2523647624288
 20
184.4869466418286
 30
0.0
 10
115.619481760213
 20
184.2415835016024
 30
0.0
 10
116.3451946120624
 20
183.7798200925099
 30
0.0
 10
116.7098397835616
 20
183.5620964272271
 30
0.0
 10
117.4416037994679
 20
183.1581325357967
 30
0.0
 10
117.8039539343342
 20
182.9727220453353
 30
0.0
 10
118.5320025572893
 20
182.6371239451649
 30
0.0
 10
118.8993818049835
 20
182.4868012184874
 30
0.0
 10
119.6289531536654
 20
182.2260547332141
 30
0.0
 10
119.9902308737373
 20
182.1155773459072
 30
0.0
 10
120.721563610063
 20
181.9353114000336
 30
0.0
 10
121.0884423802186
 20
181.8659613120551
 30
0.0
 10
121.8127810277951
 20
181.7706664319187
 30
0.0
 10
122.1789844950495
 20
181.7443205467858
 30
0.0
 10
122.9105367565894
 20
181.7354407760954
 30
0.0
 10
123.2721516172475
 20
181.7527698131227
 30
0.0
 10
124.0011603173419
 20
181.8306626200797
 30
0.0
 10
124.3685634163086
 20
181.8913968564963
 30
0.0
 10
125.0972675496016
 20
182.0544562238224
 30
0.0
 10
125.4590969084735
 20
182.156661321383
 30
0.0
 10
126.1907354320913
 20
182.4015879008787
 30
0.0
 10
126.5563891276776
 20
182.543956492791
 30
0.0
 10
127.2812010448389
 20
182.8642759971637
 30
0.0
 10
127.6481671450781
 20
183.043404712357
 30
0.0
 10
128.379366633945
 20
183.4341073769925
 30
0.0
 10
128.7405217356279
 20
183.6449860217121
 30
0.0
 10
129.4703511260587
 20
184.0963321677824
 30
0.0
 10
129.8377065242096
 20
184.336645055714
 30
0.0
 10
130.5654042502018
 20
184.8386937407872
 30
0.0
 10
130.928060625822
 20
185.1008868542537
 30
0.0
 10
131.6598638629729
 20
185.6441722480533
 30
0.0
 10
132.0240503535718
 20
185.9240465080208
 30
0.0
 10
132.7501908068487
 20
186.4944035773083
 30
0.0
 10
133.1173713611675
 20
186.7862729230704
 30
0.0
 10
133.8480772857469
 20
187.3739959842815
 30
0.0
 10
134.2090484380294
 20
187.6691355199668
 30
0.0
 10
134.9395586063419
 20
188.260247061274
 30
0.0
 10
135.3067947827072
 20
188.5555845009443
 30
0.0
 10
136.033347552774
 20
189.1362867059783
 30
0.0
 10
136.3971057940121
 20
189.4228493415849
 30
0.0
 10
137.1289325650309
 20
189.9829964561666
 30
0.0
 10
137.491925721611
 20
190.2552832308203
 30
0.0
 10
138.2192571556306
 20
190.7802810346564
 30
0.0
 10
138.5865807570798
 20
191.0336498586346
 30
0.0
 10
139.3166526426982
 20
191.5138379796914
 30
0.0
 10
139.6777157729536
 20
191.7403944375569
 30
0.0
 10
140.408766370106
 20
192.1649767340091
 30
0.0
 10
140.7758118814713
 20
192.3622940437825
 30
0.0
 10
141.5010818775115
 20
192.7208525845728
 30
0.0
 10
141.8662161289033
 20
192.8832724160538
 30
0.0
 10
142.5979252389909
 20
193.17003887071
 30
0.0
 10
142.9599996950749
 20
193.2938808292357
 30
0.0
 10
143.6883837950732
 20
193.5013134860765
 30
0.0
 10
144.0557789434237
 20
193.5848593484354
 30
0.0
 10
144.7850767221695
 20
193.7088522667354
 30
0.0
 10
145.1465076988676
 20
193.7494460095522
 30
0.0
 10
145.8779580288834
 20
193.7873789209357
 30
0.0
 10
146.2447415563183
 20
193.7844840131769
 30
0.0
 10
146.6066666666667
 20
193.76
 30
0.0
  0
SPLINE
  5
100
330
1F
100
AcDbEntity
  8
0
  6
Continuous
 62
     7
370
    25
100
AcDbSpline
210
0.0
220
0.0
230
1.0
 70
     8
 71
     3
 72
    30
 73
    26
 74
     0
 42
0.000000001
 43
0.00000001
 40
0.0
 40
0.0
 40
0.0
 40
0.0
 40
0.0625000000000012
 40
0.0625000000000012
 40
0.1250000000000025
 40
0.1250000000000025
 40
0.1875000000000037
 40
0.1875000000000037
 40
0.2500000000000049
 40
0.2500000000000049
 40
0.3750000000000053
 40
0.3750000000000053
 40
0.5000000000000057
 40
0.5000000000000057
 40
0.5625000000000047
 40
0.5625000000000047
 40
0.6250000000000037
 40
0.6250000000000037
 40
0.7500000000000039
 40
0.7500000000000039
 40
0.812500000000003
 40
0.812500000000003
 40
0.875000000000002
 40
0.875000000000002
 40
1.0
 40
1.0
 40
1.0
 40
1.0
 10
158.2733333333333
 20
187.26
 30
0.0
 10
158.5172782052761
 20
187.0634112178041
 30
0.0
 10
158.7612202443847
 20
186.867631798217
 30
0.0
 10
159.2455887577626
 20
186.4804969948609
 30
0.0
 10
159.48704036835
 20
186.2888603239849
 30
0.0
 10
159.9741776514029
 20
185.9098195180836
 30
0.0
 10
160.2185611974768
 20
185.7227664763458
 30
0.0
 10
160.7054270754566
 20
185.3562943529208
 30
0.0
 10
160.946480960614
 20
185.1772171352072
 30
0.0
 10
161.6738123946336
 20
184.6522193313712
 30
0.0
 10
162.1651962849047
 20
184.3185440697845
 30
0.0
 10
163.1328134207039
 20
183.7028595243279
 30
0.0
 10
163.6213439755363
 20
183.4181921346205
 30
0.0
 10
164.3511733659672
 20
183.0362909311025
 30
0.0
 10
164.5919620381599
 20
182.9167890286403
 30
0.0
 10
165.0773277867967
 20
182.69305696186
 30
0.0
 10
165.3215009805842
 20
182.5889331748369
 30
0.0
 10
166.0532100906718
 20
182.3021667201807
 30
0.0
 10
166.5350087510163
 20
182.1456216702195
 30
0.0
 10
167.2663414873419
 20
181.9653557243459
 30
0.0
 10
167.5106619065476
 20
181.9144751651813
 30
0.0
 10
167.9968604257115
 20
181.831813219648
 30
0.0
 10
168.2375164726141
 20
181.800045384211
 30
0.0
 10
168.966220605907
 20
181.7332530438686
 30
0.0
 10
169.4574331862023
 20
181.7273546490975
 30
0.0
 10
169.94
 20
181.76
 30
0.0
  0
SPLINE
  5
101
330
1F
100
AcDbEntity
  8
0
  6
Continuous
 62
     7
370
    25
100
AcDbSpline
210
0.0
220
0.0
230
1.0
 70
     8
 71
     3
 72
    30
 73
    26
 74
     0
 42
0.000000001
 43
0.00000001
 40
0.0
 40
0.0
 40
0.0
 40
0.0
 40
0.1250000000000007
 40
0.1250000000000007
 40
0.1875000000000007
 40
0.1875000000000007
 40
0.2500000000000008
 40
0.2500000000000008
 40
0.3750000000000009
 40
0.3750000000000009
 40
0.4375000000000009
 40
0.4375000000000009
 40
0.500000000000001
 40
0.500000000000001
 40
0.625000000000001
 40
0.625000000000001
 40
0.750000000000001
 40
0.750000000000001
 40
0.8125000000000008
 40
0.8125000000000008
 40
0.8750000000000006
 40
0.8750000000000006
 40
0.9375000000000003
 40
0.9375000000000003
 40
1.0
 40
1.0
 40
1.0
 40
1.0
 10
99.94
 20
193.76
 30
0.0
 10
100.4225668137977
 20
193.7926453509025
 30
0.0
 10
100.913779394093
 20
193.7867469561315
 30
0.0
 10
101.6424835273859
 20
193.719954615789
 30
0.0
 10
101.8831395742885
 20
193.688186780352
 30
0.0
 10
102.3693380934524
 20
193.6055248348187
 30
0.0
 10
102.6136585126581
 20
193.5546442756541
 30
0.0
 10
103.3449912489837
 20
193.3743783297805
 30
0.0
 10
103.8267899093282
 20
193.2178332798193
 30
0.0
 10
104.5584990194158
 20
192.9310668251631
 30
0.0
 10
104.8026722132033
 20
192.8269430381401
 30
0.0
 10
105.28803796184
 20
192.6032109713598
 30
0.0
 10
105.5288266340328
 20
192.4837090688975
 30
0.0
 10
106.2586560244637
 20
192.1018078653796
 30
0.0
 10
106.7471865792961
 20
191.8171404756722
 30
0.0
 10
107.7148037150953
 20
191.2014559302155
 30
0.0
 10
108.2061876053664
 20
190.8677806686288
 30
0.0
 10
108.933519039386
 20
190.3427828647928
 30
0.0
 10
109.1745729245434
 20
190.1637056470792
 30
0.0
 10
109.6614388025232
 20
189.7972335236542
 30
0.0
 10
109.9058223485971
 20
189.6101804819164
 30
0.0
 10
110.39295963165
 20
189.2311396760151
 30
0.0
 10
110.6344112422374
 20
189.0395030051391
 30
0.0
 10
111.1187797556153
 20
188.652368201783
 30
0.0
 10
111.3627217947239
 20
188.4565887821959
 30
0.0
 10
111.6066666666667
 20
188.26
 30
0.0
  0
SPLINE
  5
102
330
1F
100
AcDbEntity
  8
0
  6
Continuous
 62
     7
370
    25
100
AcDbSpline
210
0.0
220
0.0
230
1.0
 70
     8
 71
     3
 72
    70
 73
    66
 74
     0
 42
0.000000001
 43
0.00000001
 40
0.0
 40
0.0
 40
0.0
 40
0.0
 40
0.0312499999999997
 40
0.0312499999999997
 40
0.0624999999999994
 40
0.0624999999999994
 40
0.0937499999999991
 40
0.0937499999999991
 40
0.1249999999999989
 40
0.1249999999999989
 40
0.1562499999999986
 40
0.1562499999999986
 40
0.1874999999999983
 40
0.1874999999999983
 40
0.218749999999998
 40
0.218749999999998
 40
0.2499999999999977
 40
0.2499999999999977
 40
0.2812499999999974
 40
0.2812499999999974
 40
0.3124999999999972
 40
0.3124999999999972
 40
0.3437499999999969
 40
0.3437499999999969
 40
0.3749999999999966
 40
0.3749999999999966
 40
0.4062499999999963
 40
0.4062499999999963
 40
0.437499999999996
 40
0.437499999999996
 40
0.4687499999999957
 40
0.4687499999999957
 40
0.4999999999999954
 40
0.4999999999999954
 40
0.5312499999999951
 40
0.5312499999999951
 40
0.5624999999999949
 40
0.5624999999999949
 40
0.5937499999999946
 40
0.5937499999999946
 40
0.6249999999999943
 40
0.6249999999999943
 40
0.656249999999994
 40
0.656249999999994
 40
0.6874999999999938
 40
0.6874999999999938
 40
0.7187499999999934
 40
0.7187499999999934
 40
0.7499999999999934
 40
0.7499999999999934
 40
0.7812499999999943
 40
0.7812499999999943
 40
0.8124999999999951
 40
0.8124999999999951
 40
0.843749999999996
 40
0.843749999999996
 40
0.8749999999999968
 40
0.8749999999999968
 40
0.9062499999999977
 40
0.9062499999999977
 40
0.9374999999999984
 40
0.9374999999999984
 40
0.9687499999999993
 40
0.9687499999999993
 40
1.0
 40
1.0
 40
1.0
 40
1.0
 10
123.2733333333333
 20
181.76
 30
0.0
 10
123.6352584436816
 20
181.7355159868231
 30
0.0
 10
124.0020419711172
 20
181.7326210790644
 30
0.0
 10
124.733492301133
 20
181.7705539904479
 30
0.0
 10
125.094923277831
 20
181.8111477332647
 30
0.0
 10
125.8242210565769
 20
181.9351406515647
 30
0.0
 10
126.1916162049273
 20
182.0186865139237
 30
0.0
 10
126.9200003049257
 20
182.2261191707645
 30
0.0
 10
127.2820747610097
 20
182.3499611292902
 30
0.0
 10
128.0137838710973
 20
182.6367275839464
 30
0.0
 10
128.3789181224891
 20
182.7991474154275
 30
0.0
 10
129.1041881185292
 20
183.1577059562177
 30
0.0
 10
129.4712336298946
 20
183.3550232659912
 30
0.0
 10
130.2022842270469
 20
183.7796055624434
 30
0.0
 10
130.5633473573024
 20
184.0061620203089
 30
0.0
 10
131.2934192429207
 20
184.4863501413657
 30
0.0
 10
131.6607428443698
 20
184.739718965344
 30
0.0
 10
132.3880742783894
 20
185.26471676918
 30
0.0
 10
132.7510674349695
 20
185.5370035438337
 30
0.0
 10
133.4828942059883
 20
186.0971506584155
 30
0.0
 10
133.8466524472264
 20
186.383713294022
 30
0.0
 10
134.5732052172932
 20
186.9644154990561
 30
0.0
 10
134.9404413936585
 20
187.2597529387264
 30
0.0
 10
135.670951561971
 20
187.8508644800335
 30
0.0
 10
136.0319227142535
 20
188.1460040157189
 30
0.0
 10
136.7626286388329
 20
188.7337270769299
 30
0.0
 10
137.1298091931517
 20
189.025596422692
 30
0.0
 10
137.8559496464285
 20
189.5959534919795
 30
0.0
 10
138.2201361370275
 20
189.875827751947
 30
0.0
 10
138.9519393741784
 20
190.4191131457466
 30
0.0
 10
139.3145957497985
 20
190.681306259213
 30
0.0
 10
140.0422934757907
 20
191.1833549442862
 30
0.0
 10
140.4096488739416
 20
191.4236678322177
 30
0.0
 10
141.1394782643724
 20
191.8750139782881
 30
0.0
 10
141.5006333660553
 20
192.0858926230077
 30
0.0
 10
142.2318328549221
 20
192.4765952876432
 30
0.0
 10
142.5987989551614
 20
192.6557240028364
 30
0.0
 10
143.3236108723227
 20
192.9760435072091
 30
0.0
 10
143.6892645679089
 20
193.1184120991215
 30
0.0
 10
144.4209030915268
 20
193.3633386786171
 30
0.0
 10
144.7827324503987
 20
193.4655437761776
 30
0.0
 10
145.5114365836916
 20
193.6286031435037
 30
0.0
 10
145.8788396826583
 20
193.6893373799203
 30
0.0
 10
146.6078483827527
 20
193.7672301868773
 30
0.0
 10
146.9694632434109
 20
193.7845592239046
 30
0.0
 10
147.7010155049507
 20
193.7756794532142
 30
0.0
 10
148.0672189722051
 20
193.7493335680814
 30
0.0
 10
148.7915576197816
 20
193.6540386879449
 30
0.0
 10
149.1584363899372
 20
193.5846885999664
 30
0.0
 10
149.8897691262628
 20
193.4044226540928
 30
0.0
 10
150.2510468463347
 20
193.2939452667859
 30
0.0
 10
150.9806181950166
 20
193.0331987815125
 30
0.0
 10
151.3479974427108
 20
192.8828760548351
 30
0.0
 10
152.076046065666
 20
192.5472779546647
 30
0.0
 10
152.4383962005322
 20
192.3618674642033
 30
0.0
 10
153.1701602164385
 20
191.9579035727729
 30
0.0
 10
153.5348053879377
 20
191.7401799074901
 30
0.0
 10
154.2605182397872
 20
191.2784164983975
 30
0.0
 10
154.6276352375713
 20
191.0330533581714
 30
0.0
 10
155.3585213093811
 20
190.5211321264075
 30
0.0
 10
155.7195231217152
 20
190.2553236779355
 30
0.0
 10
156.4498219386848
 20
189.7056154927979
 30
0.0
 10
156.8171057985787
 20
189.4221556518985
 30
0.0
 10
157.544055571603
 20
188.8472618406096
 30
0.0
 10
157.9074160254192
 20
188.5548831732938
 30
0.0
 10
158.2733333333333
 20
188.26
 30
0.0
  0
SPLINE
  5
103
330
1F
100
AcDbEntity
  8
0
  6
Continuous
 62
     7
370
    25
100
AcDbSpline
210
0.0
220
0.0
230
1.0
 70
     8
 71
     3
 72
    54
 73
    50
 74
     0
 42
0.000000001
 43
0.00000001
 40
0.0
 40
0.0
 40
0.0
 40
0.0
 40
0.0625000000000001
 40
0.0625000000000001
 40
0.0937500000000002
 40
0.0937500000000002
 40
0.1250000000000004
 40
0.1250000000000004
 40
0.1875000000000003
 40
0.1875000000000003
 40
0.2187500000000002
 40
0.2187500000000002
 40
0.25
 40
0.25
 40
0.3124999999999999
 40
0.3124999999999999
 40
0.3749999999999999
 40
0.3749999999999999
 40
0.4062499999999999
 40
0.4062499999999999
 40
0.4374999999999999
 40
0.4374999999999999
 40
0.4687499999999999
 40
0.4687499999999999
 40
0.4999999999999999
 40
0.4999999999999999
 40
0.5312499999999999
 40
0.5312499999999999
 40
0.5624999999999998
 40
0.5624999999999998
 40
0.5937499999999998
 40
0.5937499999999998
 40
0.6249999999999997
 40
0.6249999999999997
 40
0.6874999999999997
 40
0.6874999999999997
 40
0.7499999999999997
 40
0.7499999999999997
 40
0.7812499999999998
 40
0.7812499999999998
 40
0.8124999999999999
 40
0.8124999999999999
 40
0.8750000000000001
 40
0.8750000000000001
 40
0.9062500000000002
 40
0.9062500000000002
 40
0.9375000000000004
 40
0.9375000000000004
 40
1.0
 40
1.0
 40
1.0
 40
1.0
 10
99.94
 20
181.76
 30
0.0
 10
100.4225668137977
 20
181.7926453509025
 30
0.0
 10
100.913779394093
 20
181.8642202952753
 30
0.0
 10
101.6424835273859
 20
182.0272796626014
 30
0.0
 10
101.8831395742885
 20
182.0907255235574
 30
0.0
 10
102.3693380934524
 20
182.2360239426571
 30
0.0
 10
102.6136585126581
 20
182.3178076593819
 30
0.0
 10
103.3449912489837
 20
182.5888637215048
 30
0.0
 10
103.8267899093283
 20
182.803238480201
 30
0.0
 10
104.5584990194159
 20
183.1717300510994
 30
0.0
 10
104.8026722132034
 20
183.3022087646194
 30
0.0
 10
105.2880379618401
 20
183.5765062279677
 30
0.0
 10
105.5288266340329
 20
183.7202103793904
 30
0.0
 10
106.2586560244637
 20
184.1715565254607
 30
0.0
 10
106.7471865792962
 20
184.4980061623861
 30
0.0
 10
107.7148037150954
 20
185.1863031634776
 30
0.0
 10
108.2061876053665
 20
185.5510946578904
 30
0.0
 10
108.9335190393861
 20
186.1136264651298
 30
0.0
 10
109.1745729245435
 20
186.3037134816111
 30
0.0
 10
109.6614388025233
 20
186.6891977917529
 30
0.0
 10
109.9058223485972
 20
186.8842267666055
 30
0.0
 10
110.3929596316501
 20
187.2760421407462
 30
0.0
 10
110.6344112422375
 20
187.4724726482421
 30
0.0
 10
111.1187797556153
 20
187.8660176388134
 30
0.0
 10
111.362721794724
 20
188.0634112178042
 30
0.0
 10
111.8506115386096
 20
188.4565887821959
 30
0.0
 10
112.0945535777182
 20
188.6523682017831
 30
0.0
 10
112.578922091096
 20
189.0395030051392
 30
0.0
 10
112.8203737016834
 20
189.2311396760152
 30
0.0
 10
113.3075109847364
 20
189.6101804819165
 30
0.0
 10
113.5518945308102
 20
189.7972335236543
 30
0.0
 10
114.03876040879
 20
190.1637056470793
 30
0.0
 10
114.2798142939475
 20
190.3427828647929
 30
0.0
 10
115.007145727967
 20
190.8677806686289
 30
0.0
 10
115.4985296182382
 20
191.2014559302156
 30
0.0
 10
116.4661467540374
 20
191.8171404756723
 30
0.0
 10
116.9546773088698
 20
192.1018078653796
 30
0.0
 10
117.6845066993007
 20
192.4837090688976
 30
0.0
 10
117.9252953714934
 20
192.6032109713599
 30
0.0
 10
118.4106611201302
 20
192.8269430381401
 30
0.0
 10
118.6548343139177
 20
192.9310668251632
 30
0.0
 10
119.3865434240053
 20
193.2178332798193
 30
0.0
 10
119.8683420843498
 20
193.3743783297806
 30
0.0
 10
120.5996748206754
 20
193.5546442756542
 30
0.0
 10
120.8439952398811
 20
193.6055248348187
 30
0.0
 10
121.330193759045
 20
193.6881867803521
 30
0.0
 10
121.5708498059476
 20
193.719954615789
 30
0.0
 10
122.2995539392406
 20
193.7867469561315
 30
0.0
 10
122.7907665195356
 20
193.7926453509025
 30
0.0
 10
123.2733333333333
 20
193.76
 30
0.0
  0
SPLINE
  5
104
330
1F
100
AcDbEntity
  8
0
  6
Continuous
 62
     7
370
    25
100
AcDbSpline
210
0.0
220
0.0
230
1.0
 70
     8
 71
     3
 72
    70
 73
    66
 74
     0
 42
0.000000001
 43
0.00000001
 40
0.0
 40
0.0
 40
0.0
 40
0.0
 40
0.03125
 40
0.03125
 40
0.0625
 40
0.0625
 40
0.09375
 40
0.09375
 40
0.125
 40
0.125
 40
0.15625
 40
0.15625
 40
0.1875
 40
0.1875
 40
0.2187500000000001
 40
0.2187500000000001
 40
0.2500000000000001
 40
0.2500000000000001
 40
0.2812500000000001
 40
0.2812500000000001
 40
0.3125000000000001
 40
0.3125000000000001
 40
0.3437500000000001
 40
0.3437500000000001
 40
0.375
 40
0.375
 40
0.40625
 40
0.40625
 40
0.4375
 40
0.4375
 40
0.46875
 40
0.46875
 40
0.5
 40
0.5
 40
0.53125
 40
0.53125
 40
0.5625
 40
0.5625
 40
0.59375
 40
0.59375
 40
0.625
 40
0.625
 40
0.65625
 40
0.65625
 40
0.6875
 40
0.6875
 40
0.71875
 40
0.71875
 40
0.7499999999999999
 40
0.7499999999999999
 40
0.7812499999999999
 40
0.7812499999999999
 40
0.8124999999999999
 40
0.8124999999999999
 40
0.8437499999999999
 40
0.8437499999999999
 40
0.8749999999999999
 40
0.8749999999999999
 40
0.9062499999999999
 40
0.9062499999999999
 40
0.9374999999999999
 40
0.9374999999999999
 40
0.9687499999999999
 40
0.9687499999999999
 40
1.0
 40
1.0
 40
1.0
 40
1.0
 10
134.94
 20
187.26
 30
0.0
 10
135.3059173079142
 20
186.9651168267062
 30
0.0
 10
135.6692777617303
 20
186.6727381593904
 30
0.0
 10
136.3962275347546
 20
186.0978443481015
 30
0.0
 10
136.7635113946485
 20
185.8143845072021
 30
0.0
 10
137.4938102116182
 20
185.2646763220645
 30
0.0
 10
137.8548120239523
 20
184.9988678735926
 30
0.0
 10
138.5856980957621
 20
184.4869466418286
 30
0.0
 10
138.9528150935463
 20
184.2415835016024
 30
0.0
 10
139.6785279453957
 20
183.7798200925099
 30
0.0
 10
140.0431731168949
 20
183.5620964272271
 30
0.0
 10
140.7749371328012
 20
183.1581325357967
 30
0.0
 10
141.1372872676674
 20
182.9727220453353
 30
0.0
 10
141.8653358906226
 20
182.6371239451649
 30
0.0
 10
142.2327151383168
 20
182.4868012184875
 30
0.0
 10
142.9622864869987
 20
182.2260547332141
 30
0.0
 10
143.3235642070705
 20
182.1155773459072
 30
0.0
 10
144.0548969433962
 20
181.9353114000336
 30
0.0
 10
144.4217757135519
 20
181.8659613120551
 30
0.0
 10
145.1461143611283
 20
181.7706664319187
 30
0.0
 10
145.5123178283827
 20
181.7443205467858
 30
0.0
 10
146.2438700899226
 20
181.7354407760954
 30
0.0
 10
146.6054849505807
 20
181.7527698131227
 30
0.0
 10
147.3344936506751
 20
181.8306626200797
 30
0.0
 10
147.7018967496418
 20
181.8913968564963
 30
0.0
 10
148.4306008829348
 20
182.0544562238224
 30
0.0
 10
148.7924302418067
 20
182.156661321383
 30
0.0
 10
149.5240687654245
 20
182.4015879008786
 30
0.0
 10
149.8897224610107
 20
182.5439564927909
 30
0.0
 10
150.614534378172
 20
182.8642759971636
 30
0.0
 10
150.9815004784113
 20
183.0434047123569
 30
0.0
 10
151.7126999672781
 20
183.4341073769924
 30
0.0
 10
152.073855068961
 20
183.644986021712
 30
0.0
 10
152.8036844593919
 20
184.0963321677823
 30
0.0
 10
153.1710398575427
 20
184.3366450557138
 30
0.0
 10
153.8987375835349
 20
184.8386937407871
 30
0.0
 10
154.2613939591551
 20
185.1008868542535
 30
0.0
 10
154.993197196306
 20
185.6441722480531
 30
0.0
 10
155.3573836869049
 20
185.9240465080206
 30
0.0
 10
156.0835241401818
 20
186.4944035773081
 30
0.0
 10
156.4507046945005
 20
186.7862729230702
 30
0.0
 10
157.1814106190799
 20
187.3739959842813
 30
0.0
 10
157.5423817713624
 20
187.6691355199666
 30
0.0
 10
158.272891939675
 20
188.2602470612737
 30
0.0
 10
158.6401281160403
 20
188.555584500944
 30
0.0
 10
159.366680886107
 20
189.1362867059781
 30
0.0
 10
159.7304391273452
 20
189.4228493415846
 30
0.0
 10
160.4622658983641
 20
189.9829964561664
 30
0.0
 10
160.8252590549441
 20
190.2552832308201
 30
0.0
 10
161.5525904889636
 20
190.7802810346561
 30
0.0
 10
161.9199140904128
 20
191.0336498586344
 30
0.0
 10
162.6499859760311
 20
191.5138379796912
 30
0.0
 10
163.0110491062866
 20
191.7403944375567
 30
0.0
 10
163.742099703439
 20
192.1649767340089
 30
0.0
 10
164.1091452148043
 20
192.3622940437824
 30
0.0
 10
164.8344152108445
 20
192.7208525845726
 30
0.0
 10
165.1995494622363
 20
192.8832724160537
 30
0.0
 10
165.9312585723239
 20
193.1700388707099
 30
0.0
 10
166.2933330284079
 20
193.2938808292356
 30
0.0
 10
167.0217171284062
 20
193.5013134860764
 30
0.0
 10
167.3891122767566
 20
193.5848593484353
 30
0.0
 10
168.1184100555026
 20
193.7088522667354
 30
0.0
 10
168.4798410322005
 20
193.7494460095522
 30
0.0
 10
169.2112913622163
 20
193.7873789209357
 30
0.0
 10
169.5780748896517
 20
193.7844840131769
 30
0.0
 10
169.94
 20
193.76
 30
0.0
  0
LINE
  5
105
330
1F
100
AcDbEntity
  8
0
  6
Continuous
 62
     7
370
    25
100
AcDbLine
 10
99.94
 20
193.76
 30
0.0
 11
99.94
 21
181.76
 31
0.0
  0
LINE
  5
106
330
1F
100
AcDbEntity
  8
0
  6
Continuous
 62
     7
370
    25
100
AcDbLine
 10
174.94
 20
193.76
 30
0.0
 11
174.94
 21
181.76
 31
0.0
  0
LINE
  5
107
330
1F
100
AcDbEntity
  8
0
  6
Continuous
 62
     7
370
    25
100
AcDbLine
 10
174.94
 20
181.76
 30
0.0
 11
169.94
 21
181.76
 31
0.0
  0
LINE
  5
108
330
1F
100
AcDbEntity
  8
0
  6
Continuous
 62
     7
370
    25
100
AcDbLine
 10
174.94
 20
193.76
 30
0.0
 11
169.94
 21
193.76
 31
0.0
  0
LINE
  5
109
330
1F
100
AcDbEntity
  8
0
  6
Continuous
 62
     7
370
    25
100
AcDbLine
 10
85.94
 20
193.76
 30
0.0
 11
87.44
 21
193.76
 31
0.0
  0
LINE
  5
10A
330
1F
100
AcDbEntity
  8
0
  6
Continuous
 62
     7
370
    25
100
AcDbLine
 10
87.44
 20
193.76
 30
0.0
 11
87.44
 21
194.06
 31
0.0
  0
LINE
  5
10B
330
1F
100
AcDbEntity
  8
0
  6
Continuous
 62
     7
370
    25
100
AcDbLine
 10
87.44
 20
194.06
 30
0.0
 11
88.94
 21
194.06
 31
0.0
  0
LINE
  5
10C
330
1F
100
AcDbEntity
  8
0
  6
Continuous
 62
     7
370
    25
100
AcDbLine
 10
88.94
 20
181.76
 30
0.0
 11
99.94
 21
181.76
 31
0.0
  0
LINE
  5
10D
330
1F
100
AcDbEntity
  8
0
  6
Continuous
 62
     7
370
    25
100
AcDbLine
 10
88.94
 20
181.46
 30
0.0
 11
88.94
 21
181.76
 31
0.0
  0
LINE
  5
10E
330
1F
100
AcDbEntity
  8
0
  6
Continuous
 62
     7
370
    25
100
AcDbLine
 10
87.44
 20
181.46
 30
0.0
 11
88.94
 21
181.46
 31
0.0
  0
LINE
  5
10F
330
1F
100
AcDbEntity
  8
0
  6
Continuous
 62
     7
370
    25
100
AcDbLine
 10
87.44
 20
181.76
 30
0.0
 11
87.44
 21
181.46
 31
0.0
  0
LINE
  5
110
330
1F
100
AcDbEntity
  8
0
  6
Continuous
 62
     7
370
    25
100
AcDbLine
 10
88.94
 20
194.06
 30
0.0
 11
88.94
 21
193.76
 31
0.0
  0
LINE
  5
111
330
1F
100
AcDbEntity
  8
0
  6
Continuous
 62
     7
370
    25
100
AcDbLine
 10
85.94
 20
181.76
 30
0.0
 11
87.44
 21
181.76
 31
0.0
  0
LINE
  5
112
330
1F
100
AcDbEntity
  8
0
  6
Continuous
 62
     7
370
    25
100
AcDbLine
 10
85.94
 20
181.76
 30
0.0
 11
85.94
 21
193.76
 31
0.0
  0
LINE
  5
113
330
1F
100
AcDbEntity
  8
0
  6
Continuous
 62
     7
370
    25
100
AcDbLine
 10
88.94
 20
193.76
 30
0.0
 11
99.94
 21
193.76
 31
0.0
  0
DIMENSION
  5
114
330
1F
100
AcDbEntity
  8
0
  6
Continuous
 62
     7
370
    18
100
AcDbDimension
  2
_D
 10
75.94
 20
194.06
 30
0.0
 11
75.94
 21
163.9975000179
 31
0.0
 70
   160
  1
<>
 71
     2
 42
-1.0
  3
SLDDIMSTYLE0
100
AcDbAlignedDimension
 13
87.44
 23
181.46
 33
0.0
 14
87.44
 24
194.06
 34
0.0
 50
90.0
100
AcDbRotatedDimension
  0
DIMENSION
  5
125
330
1F
100
AcDbEntity
  8
0
  6
Continuous
 62
     7
370
    18
100
AcDbDimension
  2
_D_1
 10
174.94
 20
135.46
 30
0.0
 11
130.44
 21
135.46
 31
0.0
 70
   160
  1
<>
 71
     2
 42
-1.0
  3
SLDDIMSTYLE1
100
AcDbAlignedDimension
 13
85.94
 23
181.76
 33
0.0
 14
174.94
 24
181.76
 34
0.0
100
AcDbRotatedDimension
  0
DIMENSION
  5
130
330
1F
100
AcDbEntity
  8
0
  6
Continuous
 62
     7
370
    18
100
AcDbDimension
  2
_D_2
 10
99.94
 20
141.46
 30
0.0
 11
72.4781940432
 21
141.46
 31
0.0
 70
   160
  1
<>
 71
     2
 42
-1.0
  3
SLDDIMSTYLE1
100
AcDbAlignedDimension
 13
85.94
 23
181.76
 33
0.0
 14
99.94
 24
181.76
 34
0.0
100
AcDbRotatedDimension
  0
DIMENSION
  5
13B
330
1F
100
AcDbEntity
  8
0
  6
Continuous
 62
     7
370
    18
100
AcDbDimension
  2
_D_3
 10
85.94
 20
204.06
 30
0.0
 11
73.7712497564
 21
204.06
 31
0.0
 70
   160
  1
<>
 71
     2
 42
-1.0
  3
SLDDIMSTYLE2
100
AcDbAlignedDimension
 13
88.94
 23
194.06
 33
0.0
 14
85.94
 24
193.76
 34
0.0
100
AcDbRotatedDimension
  0
DIMENSION
  5
148
330
1F
100
AcDbEntity
  8
0
  6
Continuous
 62
     7
370
    18
100
AcDbDimension
  2
_D_4
 10
184.940025
 20
193.76
 30
0.0
 11
184.940025
 21
164.9367356187
 31
0.0
 70
   160
  1
<>
 71
     2
 42
-1.0
  3
SLDDIMSTYLE3
100
AcDbAlignedDimension
 13
174.94
 23
181.76
 33
0.0
 14
174.94
 24
193.76
 34
0.0
 50
90.0
100
AcDbRotatedDimension
  0
LINE
  5
159
330
1F
100
AcDbEntity
  8
0
  6
Continuous
 62
     7
370
    25
100
AcDbLine
 10
51.4850680612
 20
181.76
 30
0.0
 11
51.4850680612
 21
193.76
 31
0.0
  0
LINE
  5
15A
330
1F
100
AcDbEntity
  8
0
  6
Continuous
 62
     7
370
    25
100
AcDbLine
 10
51.4850680612
 20
193.76
 30
0.0
 11
52.4850680612
 21
193.76
 31
0.0
  0
LINE
  5
15B
330
1F
100
AcDbEntity
  8
0
  6
Continuous
 62
     7
370
    25
100
AcDbLine
 10
52.4850680612
 20
181.76
 30
0.0
 11
52.4850680612
 21
193.76
 31
0.0
  0
LINE
  5
15C
330
1F
100
AcDbEntity
  8
0
  6
Continuous
 62
     7
370
    25
100
AcDbLine
 10
51.4850680612
 20
181.76
 30
0.0
 11
52.4850680612
 21
181.76
 31
0.0
  0
LINE
  5
15D
330
1F
100
AcDbEntity
  8
0
  6
Continuous
 62
     7
370
    25
100
AcDbLine
 10
51.4850680612
 20
181.46
 30
0.0
 11
52.4850680612
 21
181.46
 31
0.0
  0
LINE
  5
15E
330
1F
100
AcDbEntity
  8
0
  6
Continuous
 62
     7
370
    25
100
AcDbLine
 10
52.4850680612
 20
181.76
 30
0.0
 11
52.4850680612
 21
181.46
 31
0.0
  0
LINE
  5
15F
330
1F
100
AcDbEntity
  8
0
  6
Continuous
 62
     7
370
    25
100
AcDbLine
 10
51.4850680612
 20
181.76
 30
0.0
 11
51.4850680612
 21
181.46
 31
0.0
  0
LINE
  5
160
330
1F
100
AcDbEntity
  8
0
  6
Continuous
 62
     7
370
    25
100
AcDbLine
 10
51.4850680612
 20
194.06
 30
0.0
 11
52.4850680612
 21
194.06
 31
0.0
  0
LINE
  5
161
330
1F
100
AcDbEntity
  8
0
  6
Continuous
 62
     7
370
    25
100
AcDbLine
 10
52.4850680612
 20
193.76
 30
0.0
 11
52.4850680612
 21
194.06
 31
0.0
  0
LINE
  5
162
330
1F
100
AcDbEntity
  8
0
  6
Continuous
 62
     7
370
    25
100
AcDbLine
 10
51.4850680612
 20
193.76
 30
0.0
 11
51.4850680612
 21
194.06
 31
0.0
  0
SPLINE
  5
163
330
1F
100
AcDbEntity
  8
0
  6
Continuous
 62
     7
370
    25
100
AcDbSpline
210
0.0
220
0.0
230
1.0
 70
     8
 71
     3
 72
    23
 73
    19
 74
     0
 42
0.000000001
 43
0.00000001
 40
0.0
 40
0.0
 40
0.0
 40
0.0
 40
0.0660100981117779
 40
0.1319626797837663
 40
0.1978921721412768
 40
0.2638332150810906
 40
0.3298203420006114
 40
0.3958470167320992
 40
0.4618149649730366
 40
0.5277483088422678
 40
0.5936816527114985
 40
0.659649600952436
 40
0.7256762756839239
 40
0.7916634026034445
 40
0.8576044455432585
 40
0.9235339379007691
 40
0.9894865195727572
 40
1.0
 40
1.0
 40
1.0
 40
1.0
 10
52.4850680611944
 20
181.76
 30
0.0
 10
52.87597198129098
 20
181.8150593419727
 30
0.0
 10
53.65743921599455
 20
181.9251300511775
 30
0.0
 10
54.76069306322582
 20
182.3763594055342
 30
0.0
 10
55.75842642926932
 20
183.0178503871331
 30
0.0
 10
56.61089494358644
 20
183.8460545540855
 30
0.0
 10
57.28570838167124
 20
184.823601252357
 30
0.0
 10
57.75658745953825
 20
185.9138183440574
 30
0.0
 10
58.00589730437987
 20
187.0754969858425
 30
0.0
 10
58.0237288423798
 20
188.2632177772259
 30
0.0
 10
57.80955511191768
 20
189.431628527626
 30
0.0
 10
57.37140162703134
 20
190.5359473059259
 30
0.0
 10
56.72658580644402
 20
191.5334512849732
 30
0.0
 10
55.89921150985515
 20
192.3848417457262
 30
0.0
 10
54.92167199486783
 20
193.0641764993055
 30
0.0
 10
53.83057904451084
 20
193.5180493090855
 30
0.0
 10
52.99646420816641
 20
193.7434796883533
 30
0.0
 10
52.54026025901848
 20
193.7448608653256
 30
0.0
 10
52.47753581423181
 20
193.7450507662655
 30
0.0
  0
SPLINE
  5
164
330
1F
100
AcDbEntity
  8
0
  6
Continuous
 62
     7
370
    25
100
AcDbSpline
210
0.0
220
0.0
230
1.0
 70
     8
 71
     3
 72
    23
 73
    19
 74
     0
 42
0.000000001
 43
0.00000001
 40
0.0
 40
0.0
 40
0.0
 40
0.0
 40
0.066010098111777
 40
0.1319626797837646
 40
0.1978921721412741
 40
0.2638332150810871
 40
0.329820342000607
 40
0.3958470167320939
 40
0.4618149649730305
 40
0.5277483088422608
 40
0.5936816527114906
 40
0.6596496009524273
 40
0.7256762756839144
 40
0.791663402603434
 40
0.8576044455432472
 40
0.9235339379007569
 40
0.9894865195727441
 40
1.0
 40
1.0
 40
1.0
 40
1.0
 10
51.4850680611944
 20
193.76
 30
0.0
 10
51.09416414109784
 20
193.7049406580273
 30
0.0
 10
50.31269690639427
 20
193.5948699488225
 30
0.0
 10
49.209443059163
 20
193.1436405944658
 30
0.0
 10
48.2117096931195
 20
192.5021496128669
 30
0.0
 10
47.35924117880238
 20
191.6739454459145
 30
0.0
 10
46.68442774071758
 20
190.6963987476431
 30
0.0
 10
46.21354866285056
 20
189.6061816559426
 30
0.0
 10
45.96423881800895
 20
188.4445030141575
 30
0.0
 10
45.94640728000902
 20
187.2567822227742
 30
0.0
 10
46.16058101047113
 20
186.0883714723741
 30
0.0
 10
46.59873449535748
 20
184.9840526940741
 30
0.0
 10
47.24355031594479
 20
183.9865487150269
 30
0.0
 10
48.07092461253367
 20
183.1351582542738
 30
0.0
 10
49.04846412752099
 20
182.4558235006945
 30
0.0
 10
50.13955707787797
 20
182.0019506909146
 30
0.0
 10
50.97367191422248
 20
181.7765203116467
 30
0.0
 10
51.4298758633705
 20
181.7751391346744
 30
0.0
 10
51.49260030815726
 20
181.7749492337345
 30
0.0
  0
DIMENSION
  5
165
330
1F
100
AcDbEntity
  8
0
  6
Continuous
 62
     7
370
    18
100
AcDbDimension
  2
_D_5
 10
52.4850680612
 20
204.06
 30
0.0
 11
64.6538183048
 21
204.06
 31
0.0
 70
   160
  1
<>
 71
     2
 42
-1.0
  3
SLDDIMSTYLE2
100
AcDbAlignedDimension
 13
51.4850680612
 23
193.76
 33
0.0
 14
52.4850680612
 24
193.76
 34
0.0
100
AcDbRotatedDimension
  0
ENDSEC
  0
SECTION
  2
OBJECTS
  0
DICTIONARY
  5
C
330
0
100
AcDbDictionary
281
     1
  3
ACAD_GROUP
350
D
  3
ACAD_LAYOUT
350
1A
  3
ACAD_MLINESTYLE
350
17
  3
ACAD_PLOTSETTINGS
350
19
  3
ACAD_PLOTSTYLENAME
350
E
  3
ACAD_SCALELIST
350
47
  0
DICTIONARY
  5
D
102
{ACAD_REACTORS
330
C
102
}
330
C
100
AcDbDictionary
281
     1
  0
DICTIONARY
  5
1A
102
{ACAD_REACTORS
330
C
102
}
330
C
100
AcDbDictionary
281
     1
  3
Layout1
350
1E
  3
Layout2
350
26
  3
Model
350
22
  0
DICTIONARY
  5
17
102
{ACAD_REACTORS
330
C
102
}
330
C
100
AcDbDictionary
281
     1
  3
Standard
350
18
  0
DICTIONARY
  5
19
102
{ACAD_REACTORS
330
C
102
}
330
C
100
AcDbDictionary
281
     1
  0
ACDBDICTIONARYWDFLT
  5
E
102
{ACAD_REACTORS
330
C
102
}
330
C
100
AcDbDictionary
281
     1
  3
Normal
350
F
100
AcDbDictionaryWithDefault
340
F
  0
DICTIONARY
  5
47
102
{ACAD_REACTORS
330
C
102
}
330
C
100
AcDbDictionary
281
     1
  3
A0
350
48
  3
A1
350
49
  3
A2
350
4A
  3
A3
350
4B
  3
A4
350
4C
  3
A5
350
4D
  3
A6
350
4E
  3
A7
350
4F
  3
A8
350
50
  3
A9
350
51
  3
B0
350
52
  3
B1
350
53
  3
B2
350
54
  3
B3
350
55
  3
B4
350
56
  3
B5
350
57
  3
B6
350
58
  3
B7
350
59
  3
B8
350
5A
  3
B9
350
5B
  3
C0
350
5C
  3
C1
350
5D
  3
C2
350
5E
  3
C3
350
5F
  3
C4
350
60
  3
C5
350
61
  3
C6
350
62
  3
C7
350
63
  3
C8
350
64
  3
C9
350
65
  3
D0
350
66
  3
D1
350
67
  3
D2
350
68
  0
LAYOUT
  5
1E
102
{ACAD_REACTORS
330
1A
102
}
330
1A
100
AcDbPlotSettings
  1

  2
none_device
  4

  6

 40
0.0
 41
0.0
 42
0.0
 43
0.0
 44
0.0
 45
0.0
 46
0.0
 47
0.0
 48
0.0
 49
0.0
140
0.0
141
0.0
142
1.0
143
1.0
 70
   688
 72
     1
 73
     0
 74
     5
  7

 75
    16
147
1.0
148
0.0
149
0.0
100
AcDbLayout
  1
Layout1
 70
     1
 71
     1
 10
0.0
 20
0.0
 11
420.0
 21
297.0
 12
0.0
 22
0.0
 32
0.0
 14
1.0000000000E+20
 24
1.0000000000E+20
 34
1.0000000000E+20
 15
-1.0000000000E+20
 25
-1.0000000000E+20
 35
-1.0000000000E+20
146
0.0
 13
0.0
 23
0.0
 33
0.0
 16
1.0
 26
0.0
 36
0.0
 17
0.0
 27
1.0
 37
0.0
 76
     0
330
1B
  0
LAYOUT
  5
26
102
{ACAD_REACTORS
330
1A
102
}
330
1A
100
AcDbPlotSettings
  1

  2
none_device
  4

  6

 40
0.0
 41
0.0
 42
0.0
 43
0.0
 44
0.0
 45
0.0
 46
0.0
 47
0.0
 48
0.0
 49
0.0
140
0.0
141
0.0
142
1.0
143
1.0
 70
   688
 72
     1
 73
     0
 74
     5
  7

 75
    16
147
1.0
148
0.0
149
0.0
100
AcDbLayout
  1
Layout2
 70
     1
 71
     2
 10
0.0
 20
0.0
 11
0.0
 21
0.0
 12
0.0
 22
0.0
 32
0.0
 14
0.0
 24
0.0
 34
0.0
 15
0.0
 25
0.0
 35
0.0
146
0.0
 13
0.0
 23
0.0
 33
0.0
 16
1.0
 26
0.0
 36
0.0
 17
0.0
 27
1.0
 37
0.0
 76
     0
330
23
  0
LAYOUT
  5
22
102
{ACAD_REACTORS
330
1A
102
}
330
1A
100
AcDbPlotSettings
  1

  2
none_device
  4
Letter_(8.50_x_11.00_Inches)
  6

 40
6.35
 41
6.35
 42
6.35000508
 43
6.35000508
 44
215.9
 45
279.4
 46
0.0
 47
0.0
 48
0.0
 49
0.0
140
0.0
141
0.0
142
1.0
143
1.0
 70
  1712
 72
     1
 73
     0
 74
     0
  7

 75
     0
147
1.0
148
0.0
149
0.0
100
AcDbLayout
  1
Model
 70
     1
 71
     0
 10
0.0
 20
0.0
 11
420.0
 21
297.0
 12
0.0
 22
0.0
 32
0.0
 14
0.0
 24
0.0
 34
0.0
 15
420.0
 25
297.0
 35
0.0
146
0.0
 13
0.0
 23
0.0
 33
0.0
 16
1.0
 26
0.0
 36
0.0
 17
0.0
 27
1.0
 37
0.0
 76
     0
330
1F
331
29
  0
MLINESTYLE
  5
18
102
{ACAD_REACTORS
330
17
102
}
330
17
100
AcDbMlineStyle
  2
Standard
 70
     0
  3

 62
   256
 51
90.0
 52
90.0
 71
     2
 49
0.5
 62
   256
  6
BYLAYER
 49
-0.5
 62
   256
  6
BYLAYER
  0
ACDBPLACEHOLDER
  5
F
102
{ACAD_REACTORS
330
E
102
}
330
E
  0
SCALE
  5
48
102
{ACAD_REACTORS
330
47
102
}
330
47
100
AcDbScale
 70
     0
300
1:1
140
1.0
141
1.0
290
     1
  0
SCALE
  5
49
102
{ACAD_REACTORS
330
47
102
}
330
47
100
AcDbScale
 70
     0
300
1:2
140
1.0
141
2.0
290
     0
  0
SCALE
  5
4A
102
{ACAD_REACTORS
330
47
102
}
330
47
100
AcDbScale
 70
     0
300
1:4
140
1.0
141
4.0
290
     0
  0
SCALE
  5
4B
102
{ACAD_REACTORS
330
47
102
}
330
47
100
AcDbScale
 70
     0
300
1:5
140
1.0
141
5.0
290
     0
  0
SCALE
  5
4C
102
{ACAD_REACTORS
330
47
102
}
330
47
100
AcDbScale
 70
     0
300
1:8
140
1.0
141
8.0
290
     0
  0
SCALE
  5
4D
102
{ACAD_REACTORS
330
47
102
}
330
47
100
AcDbScale
 70
     0
300
1:10
140
1.0
141
10.0
290
     0
  0
SCALE
  5
4E
102
{ACAD_REACTORS
330
47
102
}
330
47
100
AcDbScale
 70
     0
300
1:16
140
1.0
141
16.0
290
     0
  0
SCALE
  5
4F
102
{ACAD_REACTORS
330
47
102
}
330
47
100
AcDbScale
 70
     0
300
1:20
140
1.0
141
20.0
290
     0
  0
SCALE
  5
50
102
{ACAD_REACTORS
330
47
102
}
330
47
100
AcDbScale
 70
     0
300
1:30
140
1.0
141
30.0
290
     0
  0
SCALE
  5
51
102
{ACAD_REACTORS
330
47
102
}
330
47
100
AcDbScale
 70
     0
300
1:40
140
1.0
141
40.0
290
     0
  0
SCALE
  5
52
102
{ACAD_REACTORS
330
47
102
}
330
47
100
AcDbScale
 70
     0
300
1:50
140
1.0
141
50.0
290
     0
  0
SCALE
  5
53
102
{ACAD_REACTORS
330
47
102
}
330
47
100
AcDbScale
 70
     0
300
1:100
140
1.0
141
100.0
290
     0
  0
SCALE
  5
54
102
{ACAD_REACTORS
330
47
102
}
330
47
100
AcDbScale
 70
     0
300
2:1
140
2.0
141
1.0
290
     0
  0
SCALE
  5
55
102
{ACAD_REACTORS
330
47
102
}
330
47
100
AcDbScale
 70
     0
300
4:1
140
4.0
141
1.0
290
     0
  0
SCALE
  5
56
102
{ACAD_REACTORS
330
47
102
}
330
47
100
AcDbScale
 70
     0
300
8:1
140
8.0
141
1.0
290
     0
  0
SCALE
  5
57
102
{ACAD_REACTORS
330
47
102
}
330
47
100
AcDbScale
 70
     0
300
10:1
140
10.0
141
1.0
290
     0
  0
SCALE
  5
58
102
{ACAD_REACTORS
330
47
102
}
330
47
100
AcDbScale
 70
     0
300
100:1
140
100.0
141
1.0
290
     0
  0
SCALE
  5
59
102
{ACAD_REACTORS
330
47
102
}
330
47
100
AcDbScale
 70
     0
300
1/128" = 1'-0"
140
0.0078125
141
12.0
290
     0
  0
SCALE
  5
5A
102
{ACAD_REACTORS
330
47
102
}
330
47
100
AcDbScale
 70
     0
300
1/64" = 1'-0"
140
0.015625
141
12.0
290
     0
  0
SCALE
  5
5B
102
{ACAD_REACTORS
330
47
102
}
330
47
100
AcDbScale
 70
     0
300
1/32" = 1'-0"
140
0.03125
141
12.0
290
     0
  0
SCALE
  5
5C
102
{ACAD_REACTORS
330
47
102
}
330
47
100
AcDbScale
 70
     0
300
1/16" = 1'-0"
140
0.0625
141
12.0
290
     0
  0
SCALE
  5
5D
102
{ACAD_REACTORS
330
47
102
}
330
47
100
AcDbScale
 70
     0
300
3/32" = 1'-0"
140
0.09375
141
12.0
290
     0
  0
SCALE
  5
5E
102
{ACAD_REACTORS
330
47
102
}
330
47
100
AcDbScale
 70
     0
300
1/8" = 1'-0"
140
0.125
141
12.0
290
     0
  0
SCALE
  5
5F
102
{ACAD_REACTORS
330
47
102
}
330
47
100
AcDbScale
 70
     0
300
3/16" = 1'-0"
140
0.1875
141
12.0
290
     0
  0
SCALE
  5
60
102
{ACAD_REACTORS
330
47
102
}
330
47
100
AcDbScale
 70
     0
300
1/4" = 1'-0"
140
0.25
141
12.0
290
     0
  0
SCALE
  5
61
102
{ACAD_REACTORS
330
47
102
}
330
47
100
AcDbScale
 70
     0
300
3/8" = 1'-0"
140
0.375
141
12.0
290
     0
  0
SCALE
  5
62
102
{ACAD_REACTORS
330
47
102
}
330
47
100
AcDbScale
 70
     0
300
1/2" = 1'-0"
140
0.5
141
12.0
290
     0
  0
SCALE
  5
63
102
{ACAD_REACTORS
330
47
102
}
330
47
100
AcDbScale
 70
     0
300
3/4" = 1'-0"
140
0.75
141
12.0
290
     0
  0
SCALE
  5
64
102
{ACAD_REACTORS
330
47
102
}
330
47
100
AcDbScale
 70
     0
300
1" = 1'-0"
140
1.0
141
12.0
290
     0
  0
SCALE
  5
65
102
{ACAD_REACTORS
330
47
102
}
330
47
100
AcDbScale
 70
     0
300
1-1/2" = 1'-0"
140
1.5
141
12.0
290
     0
  0
SCALE
  5
66
102
{ACAD_REACTORS
330
47
102
}
330
47
100
AcDbScale
 70
     0
300
3" = 1'-0"
140
3.0
141
12.0
290
     0
  0
SCALE
  5
67
102
{ACAD_REACTORS
330
47
102
}
330
47
100
AcDbScale
 70
     0
300
6" = 1'-0"
140
6.0
141
12.0
290
     0
  0
SCALE
  5
68
102
{ACAD_REACTORS
330
47
102
}
330
47
100
AcDbScale
 70
     0
300
1'-0" = 1'-0"
140
12.0
141
12.0
290
     0
  0
ENDSEC
  0
EOF
