  0
SECTION
  2
HEADER
  9
$ACADVER
  1
AC1015
  9
$ACADMAINTVER
 70
     6
  9
$DWGCODEPAGE
  3
ANSI_1250
  9
$INSBASE
 10
0.0
 20
0.0
 30
0.0
  9
$EXTMIN
 10
0.0
 20
0.0
 30
0.0
  9
$EXTMAX
 10
594.0
 20
420.0
 30
0.0
  9
$LIMMIN
 10
0.0
 20
0.0
  9
$LIMMAX
 10
594.0
 20
420.0
  9
$ORTHOMODE
 70
     0
  9
$REGENMODE
 70
     1
  9
$FILLMODE
 70
     1
  9
$QTEXTMODE
 70
     0
  9
$MIRRTEXT
 70
     1
  9
$LTSCALE
 40
1.0
  9
$ATTMODE
 70
     1
  9
$TEXTSIZE
 40
3.5
  9
$TRACEWID
 40
1.0
  9
$TEXTSTYLE
  7
Standard
  9
$CLAYER
  8
0
  9
$CELTYPE
  6
ByLayer
  9
$CECOLOR
 62
   256
  9
$CELTSCALE
 40
1.0
  9
$DISPSILH
 70
     0
  9
$DIMSCALE
 40
1.0
  9
$DIMASZ
 40
3.302
  9
$DIMEXO
 40
1.0
  9
$DIMDLI
 40
3.75
  9
$DIMRND
 40
0.0
  9
$DIMDLE
 40
0.0
  9
$DIMEXE
 40
1.0
  9
$DIMTP
 40
0.0
  9
$DIMTM
 40
0.0
  9
$DIMTXT
 40
3.5
  9
$DIMCEN
 40
2.5
  9
$DIMTSZ
 40
0.0
  9
$DIMTOL
 70
     0
  9
$DIMLIM
 70
     0
  9
$DIMTIH
 70
     1
  9
$DIMTOH
 70
     1
  9
$DIMSE1
 70
     0
  9
$DIMSE2
 70
     0
  9
$DIMTAD
 70
     1
  9
$DIMZIN
 70
     1
  9
$DIMBLK
  1

  9
$DIMASO
 70
     1
  9
$DIMSHO
 70
     1
  9
$DIMPOST
  1

  9
$DIMAPOST
  1

  9
$DIMALT
 70
     0
  9
$DIMALTD
 70
     3
  9
$DIMALTF
 40
0.0393700787
  9
$DIMLFAC
 40
1.0
  9
$DIMTOFL
 70
     1
  9
$DIMTVP
 40
0.0
  9
$DIMTIX
 70
     0
  9
$DIMSOXD
 70
     0
  9
$DIMSAH
 70
     0
  9
$DIMBLK1
  1

  9
$DIMBLK2
  1

  9
$DIMSTYLE
  2
ISO-25
  9
$DIMCLRD
 70
     0
  9
$DIMCLRE
 70
     0
  9
$DIMCLRT
 70
     0
  9
$DIMTFAC
 40
1.0
  9
$DIMGAP
 40
1.524
  9
$DIMJUST
 70
     0
  9
$DIMSD1
 70
     0
  9
$DIMSD2
 70
     0
  9
$DIMTOLJ
 70
     0
  9
$DIMTZIN
 70
     1
  9
$DIMALTZ
 70
     0
  9
$DIMALTTZ
 70
     0
  9
$DIMUPT
 70
     0
  9
$DIMDEC
 70
     2
  9
$DIMTDEC
 70
     2
  9
$DIMALTU
 70
     2
  9
$DIMALTTD
 70
     3
  9
$DIMTXSTY
  7
Standard
  9
$DIMAUNIT
 70
     0
  9
$DIMADEC
 70
     2
  9
$DIMALTRND
 40
0.0
  9
$DIMAZIN
 70
     0
  9
$DIMDSEP
 70
    44
  9
$DIMATFIT
 70
     3
  9
$DIMFRAC
 70
     0
  9
$DIMLDRBLK
  1

  9
$DIMLUNIT
 70
     2
  9
$DIMLWD
 70
    -2
  9
$DIMLWE
 70
    -2
  9
$DIMTMOVE
 70
     0
  9
$LUNITS
 70
     2
  9
$LUPREC
 70
     2
  9
$SKETCHINC
 40
1.0
  9
$FILLETRAD
 40
10.0
  9
$AUNITS
 70
     0
  9
$AUPREC
 70
     2
  9
$MENU
  1
.
  9
$ELEVATION
 40
0.0
  9
$PELEVATION
 40
0.0
  9
$THICKNESS
 40
0.0
  9
$LIMCHECK
 70
     0
  9
$CHAMFERA
 40
0.0
  9
$CHAMFERB
 40
0.0
  9
$CHAMFERC
 40
0.0
  9
$CHAMFERD
 40
0.0
  9
$SKPOLY
 70
     0
  9
$TDCREATE
 40
2460689.391856574
  9
$TDUCREATE
 40
2460689.350189907
  9
$TDUPDATE
 40
2460689.391860011
  9
$TDUUPDATE
 40
2460689.350193345
  9
$TDINDWG
 40
0.0000000116
  9
$TDUSRTIMER
 40
0.0000000116
  9
$USRTIMER
 70
     1
  9
$ANGBASE
 50
0.0
  9
$ANGDIR
 70
     0
  9
$PDMODE
 70
     0
  9
$PDSIZE
 40
-1.0
  9
$PLINEWID
 40
0.0
  9
$SPLFRAME
 70
     0
  9
$SPLINETYPE
 70
     6
  9
$SPLINESEGS
 70
     8
  9
$HANDSEED
  5
4B1
  9
$SURFTAB1
 70
     6
  9
$SURFTAB2
 70
     6
  9
$SURFTYPE
 70
     6
  9
$SURFU
 70
     6
  9
$SURFV
 70
     6
  9
$UCSBASE
  2

  9
$UCSNAME
  2

  9
$UCSORG
 10
0.0
 20
0.0
 30
0.0
  9
$UCSXDIR
 10
1.0
 20
0.0
 30
0.0
  9
$UCSYDIR
 10
0.0
 20
1.0
 30
0.0
  9
$UCSORTHOREF
  2

  9
$UCSORTHOVIEW
 70
     0
  9
$UCSORGTOP
 10
0.0
 20
0.0
 30
0.0
  9
$UCSORGBOTTOM
 10
0.0
 20
0.0
 30
0.0
  9
$UCSORGLEFT
 10
0.0
 20
0.0
 30
0.0
  9
$UCSORGRIGHT
 10
0.0
 20
0.0
 30
0.0
  9
$UCSORGFRONT
 10
0.0
 20
0.0
 30
0.0
  9
$UCSORGBACK
 10
0.0
 20
0.0
 30
0.0
  9
$PUCSBASE
  2

  9
$PUCSNAME
  2

  9
$PUCSORG
 10
0.0
 20
0.0
 30
0.0
  9
$PUCSXDIR
 10
1.0
 20
0.0
 30
0.0
  9
$PUCSYDIR
 10
0.0
 20
1.0
 30
0.0
  9
$PUCSORTHOREF
  2

  9
$PUCSORTHOVIEW
 70
     0
  9
$PUCSORGTOP
 10
0.0
 20
0.0
 30
0.0
  9
$PUCSORGBOTTOM
 10
0.0
 20
0.0
 30
0.0
  9
$PUCSORGLEFT
 10
0.0
 20
0.0
 30
0.0
  9
$PUCSORGRIGHT
 10
0.0
 20
0.0
 30
0.0
  9
$PUCSORGFRONT
 10
0.0
 20
0.0
 30
0.0
  9
$PUCSORGBACK
 10
0.0
 20
0.0
 30
0.0
  9
$USERI1
 70
     0
  9
$USERI2
 70
     0
  9
$USERI3
 70
     0
  9
$USERI4
 70
     0
  9
$USERI5
 70
     0
  9
$USERR1
 40
0.0
  9
$USERR2
 40
0.0
  9
$USERR3
 40
0.0
  9
$USERR4
 40
0.0
  9
$USERR5
 40
0.0
  9
$WORLDVIEW
 70
     1
  9
$SHADEDGE
 70
     3
  9
$SHADEDIF
 70
    70
  9
$TILEMODE
 70
     1
  9
$MAXACTVP
 70
    64
  9
$PINSBASE
 10
0.0
 20
0.0
 30
0.0
  9
$PLIMCHECK
 70
     0
  9
$PEXTMIN
 10
1.0000000000E+20
 20
1.0000000000E+20
 30
1.0000000000E+20
  9
$PEXTMAX
 10
-1.0000000000E+20
 20
-1.0000000000E+20
 30
-1.0000000000E+20
  9
$PLIMMIN
 10
0.0
 20
0.0
  9
$PLIMMAX
 10
420.0
 20
297.0
  9
$UNITMODE
 70
     0
  9
$VISRETAIN
 70
     1
  9
$PLINEGEN
 70
     0
  9
$PSLTSCALE
 70
     1
  9
$TREEDEPTH
 70
  3020
  9
$CMLSTYLE
  2
Standard
  9
$CMLJUST
 70
     0
  9
$CMLSCALE
 40
20.0
  9
$PROXYGRAPHICS
 70
     1
  9
$MEASUREMENT
 70
     1
  9
$CELWEIGHT
370
    -1
  9
$ENDCAPS
280
     0
  9
$JOINSTYLE
280
     0
  9
$LWDISPLAY
290
     1
  9
$INSUNITS
 70
     4
  9
$HYPERLINKBASE
  1

  9
$STYLESHEET
  1

  9
$XEDIT
290
     1
  9
$CEPSNTYPE
380
     0
  9
$PSTYLEMODE
290
     1
  9
$FINGERPRINTGUID
  2
{8d99485c-9016-4bb6-a1c1-09ac59f9344d}
  9
$VERSIONGUID
  2
{FAEB1C32-E019-11D5-929B-00C0DF256EC4}
  9
$EXTNAMES
290
     1
  9
$PSVPSCALE
 40
0.0
  9
$OLESTARTUP
290
     0
  0
ENDSEC
  0
SECTION
  2
CLASSES
  0
CLASS
  1
ACDBDICTIONARYWDFLT
  2
AcDbDictionaryWithDefault
  3
ObjectDBX Classes
 90
        0
280
     0
281
     0
  0
CLASS
  1
VISUALSTYLE
  2
AcDbVisualStyle
  3
ObjectDBX Classes
 90
     4095
280
     0
281
     0
  0
CLASS
  1
MATERIAL
  2
AcDbMaterial
  3
ObjectDBX Classes
 90
     1153
280
     0
281
     0
  0
CLASS
  1
SCALE
  2
AcDbScale
  3
ObjectDBX Classes
 90
     1153
280
     0
281
     0
  0
CLASS
  1
TABLESTYLE
  2
AcDbTableStyle
  3
ObjectDBX Classes
 90
     4095
280
     0
281
     0
  0
CLASS
  1
MLEADERSTYLE
  2
AcDbMLeaderStyle
  3
ACDB_MLEADERSTYLE_CLASS
 90
     4095
280
     0
281
     0
  0
CLASS
  1
SUN
  2
AcDbSun
  3
SCENEOE
 90
     1153
280
     0
281
     0
  0
CLASS
  1
ACDBPLACEHOLDER
  2
AcDbPlaceHolder
  3
ObjectDBX Classes
 90
        0
280
     0
281
     0
  0
CLASS
  1
LAYOUT
  2
AcDbLayout
  3
ObjectDBX Classes
 90
        0
280
     0
281
     0
  0
ENDSEC
  0
SECTION
  2
TABLES
  0
TABLE
  2
VPORT
  5
8
330
0
100
AcDbSymbolTable
 70
     1
  0
VPORT
  5
29
330
8
100
AcDbSymbolTableRecord
100
AcDbViewportTableRecord
  2
*Active
 70
     0
 10
0.0
 20
0.0
 11
1.0
 21
1.0
 12
297.0
 22
210.0
 13
0.0
 23
0.0
 14
10.0
 24
10.0
 15
10.0
 25
10.0
 16
0.0
 26
0.0
 36
1.0
 17
0.0
 27
0.0
 37
0.0
 40
420.0
 41
1.4142857143
 42
50.0
 43
0.0
 44
0.0
 50
0.0
 51
0.0
 71
     0
 72
  2000
 73
     1
 74
     3
 75
     0
 76
     0
 77
     0
 78
     0
281
     0
 65
     1
110
0.0
120
0.0
130
0.0
111
1.0
121
0.0
131
0.0
112
0.0
122
1.0
132
0.0
 79
     0
146
0.0
  0
ENDTAB
  0
TABLE
  2
LTYPE
  5
5
330
0
100
AcDbSymbolTable
 70
     6
  0
LTYPE
  5
14
330
5
100
AcDbSymbolTableRecord
100
AcDbLinetypeTableRecord
  2
ByBlock
 70
     0
  3

 72
    65
 73
     0
 40
0.0
  0
LTYPE
  5
15
330
5
100
AcDbSymbolTableRecord
100
AcDbLinetypeTableRecord
  2
ByLayer
 70
     0
  3

 72
    65
 73
     0
 40
0.0
  0
LTYPE
  5
16
330
5
100
AcDbSymbolTableRecord
100
AcDbLinetypeTableRecord
  2
Continuous
 70
     0
  3
Solid line
 72
    65
 73
     0
 40
0.0
  0
LTYPE
  5
6E
330
5
100
AcDbSymbolTableRecord
100
AcDbLinetypeTableRecord
  2
HIDDEN
 70
     0
  3
Hidden __ __ __ __ __ __ __ __ __ __ __ __ __ __
 72
    65
 73
     2
 40
1.905
 49
1.27
 74
     0
 49
-0.635
 74
     0
  0
LTYPE
  5
6F
330
5
100
AcDbSymbolTableRecord
100
AcDbLinetypeTableRecord
  2
PHANTOM
 70
     0
  3
Phantom ______  __  __  ______  __  __  ______
 72
    65
 73
     6
 40
12.7
 49
6.35
 74
     0
 49
-1.27
 74
     0
 49
1.27
 74
     0
 49
-1.27
 74
     0
 49
1.27
 74
     0
 49
-1.27
 74
     0
  0
LTYPE
  5
70
330
5
100
AcDbSymbolTableRecord
100
AcDbLinetypeTableRecord
  2
CENTER
 70
     0
  3
Center ____ _ ____ _ ____ _ ____ _ ____ _ ____
 72
    65
 73
     4
 40
10.16
 49
6.35
 74
     0
 49
-1.27
 74
     0
 49
1.27
 74
     0
 49
-1.27
 74
     0
  0
LTYPE
  5
71
330
5
100
AcDbSymbolTableRecord
100
AcDbLinetypeTableRecord
  2
CENTERX2
 70
     0
  3
Center (2x) ________  __  ________  __  _____
 72
    65
 73
     4
 40
20.32
 49
12.7
 74
     0
 49
-2.54
 74
     0
 49
2.54
 74
     0
 49
-2.54
 74
     0
  0
LTYPE
  5
72
330
5
100
AcDbSymbolTableRecord
100
AcDbLinetypeTableRecord
  2
DOT2
 70
     0
  3
Dot (.5x) ........................................
 72
    65
 73
     2
 40
0.635
 49
0.0
 74
     0
 49
-0.635
 74
     0
  0
ENDTAB
  0
TABLE
  2
LAYER
  5
2
330
0
100
AcDbSymbolTable
 70
     2
  0
LAYER
  5
10
330
2
100
AcDbSymbolTableRecord
100
AcDbLayerTableRecord
  2
0
 70
     0
 62
     7
  6
Continuous
370
    -3
390
F
  0
LAYER
  5
73
330
2
100
AcDbSymbolTableRecord
100
AcDbLayerTableRecord
  2
FORMAT
 70
     0
 62
     7
  6
Continuous
370
    -3
390
F
  0
ENDTAB
  0
TABLE
  2
STYLE
  5
3
330
0
100
AcDbSymbolTable
 70
     4
  0
STYLE
  5
11
330
3
100
AcDbSymbolTableRecord
100
AcDbTextStyleTableRecord
  2
Standard
 70
     0
 40
0.0
 41
1.0
 50
0.0
 71
     0
 42
3.5
  3
txt
  4

  0
STYLE
  5
BD
330
3
100
AcDbSymbolTableRecord
100
AcDbTextStyleTableRecord
  2
SLDTEXTSTYLE0
 70
     0
 40
0.0
 41
0.75
 50
0.0
 71
     0
 42
3.5
  3
TXT
  4

  0
STYLE
  5
E9
330
3
100
AcDbSymbolTableRecord
100
AcDbTextStyleTableRecord
  2
SLDTEXTSTYLE1
 70
     0
 40
0.0
 41
0.6875
 50
0.0
 71
     0
 42
3.5
  3
TXT
  4
bigfont
  0
STYLE
  5
EB
330
3
100
AcDbSymbolTableRecord
100
AcDbTextStyleTableRecord
  2
SLDTEXTSTYLE2
 70
     0
 40
0.0
 41
0.75
 50
0.0
 71
     0
 42
3.5
  3
TXT
  4
bigfont
  0
ENDTAB
  0
TABLE
  2
VIEW
  5
6
330
0
100
AcDbSymbolTable
 70
     0
  0
ENDTAB
  0
TABLE
  2
UCS
  5
7
330
0
100
AcDbSymbolTable
 70
     0
  0
ENDTAB
  0
TABLE
  2
APPID
  5
9
330
0
100
AcDbSymbolTable
 70
     1
  0
APPID
  5
12
330
9
100
AcDbSymbolTableRecord
100
AcDbRegAppTableRecord
  2
ACAD
 70
     0
  0
ENDTAB
  0
TABLE
  2
DIMSTYLE
  5
A
330
0
100
AcDbSymbolTable
 70
    11
100
AcDbDimStyleTable
  0
DIMSTYLE
105
27
330
A
100
AcDbSymbolTableRecord
100
AcDbDimStyleTableRecord
  2
ISO-25
 70
     0
 41
2.5
 42
0.625
 43
3.75
 44
1.25
 73
     0
 74
     0
 77
     1
 78
     8
140
2.5
141
2.5
143
0.0393700787
147
0.625
171
     3
172
     1
178
     0
271
     2
272
     2
274
     3
278
    44
283
     0
284
     8
340
11
  0
DIMSTYLE
105
159
102
{ACAD_REACTORS
330
158
330
163
330
16D
330
177
330
30E
330
318
102
}
330
A
100
AcDbSymbolTableRecord
100
AcDbDimStyleTableRecord
  2
SLDDIMSTYLE0
 70
     0
 41
3.302
 44
0.0
 45
0.000000001
 73
     0
 74
     0
 77
     1
 78
    12
 79
     3
140
3.5
147
0.875
173
     1
178
     0
271
     0
272
     0
276
     2
284
    12
340
BD
  0
DIMSTYLE
105
182
102
{ACAD_REACTORS
330
181
330
18E
102
}
330
A
100
AcDbSymbolTableRecord
100
AcDbDimStyleTableRecord
  2
SLDDIMSTYLE1
 70
     0
 41
3.302
 44
0.0
 45
0.000000001
 73
     0
 74
     0
 77
     1
 78
    12
 79
     3
140
3.5
141
0.0
147
0.875
172
     1
173
     1
178
     0
271
     1
272
     1
276
     2
284
    12
340
BD
341
183
343
183
  0
DIMSTYLE
105
198
102
{ACAD_REACTORS
330
197
102
}
330
A
100
AcDbSymbolTableRecord
100
AcDbDimStyleTableRecord
  2
SLDDIMSTYLE2
 70
     0
  3
<>
 41
3.302
 44
0.0
 45
0.000000001
 73
     0
 74
     0
 77
     1
 78
    12
 79
     3
140
3.5
141
0.0
147
0.875
172
     1
173
     1
178
     0
271
     2
272
     2
276
     2
284
    12
340
BD
341
183
343
183
  0
DIMSTYLE
105
1A2
102
{ACAD_REACTORS
330
1A1
102
}
330
A
100
AcDbSymbolTableRecord
100
AcDbDimStyleTableRecord
  2
SLDDIMSTYLE3
 70
     0
 41
3.302
 44
0.0
 45
0.000000001
 73
     0
 74
     0
 77
     1
 78
    12
 79
     3
140
3.5
141
0.0
147
0.875
172
     1
173
     1
178
     0
271
     0
272
     0
276
     2
284
    12
340
BD
341
183
343
183
  0
DIMSTYLE
105
2E9
102
{ACAD_REACTORS
330
2E8
330
2F5
330
322
102
}
330
A
100
AcDbSymbolTableRecord
100
AcDbDimStyleTableRecord
  2
SLDDIMSTYLE4
 70
     0
 41
3.302
 44
0.0
 45
0.000000001
 73
     0
 74
     0
 77
     1
 78
    12
 79
     3
140
3.5
147
0.875
172
     1
173
     1
178
     0
271
     0
272
     0
276
     2
284
    12
289
     0
340
BD
  0
DIMSTYLE
105
302
102
{ACAD_REACTORS
330
301
102
}
330
A
100
AcDbSymbolTableRecord
100
AcDbDimStyleTableRecord
  2
SLDDIMSTYLE5
 70
     0
 41
3.302
 44
0.0
 45
0.000000001
 73
     0
 74
     0
 77
     1
 78
    12
 79
     3
140
3.5
147
0.875
172
     1
173
     1
178
     0
271
     1
272
     1
276
     2
284
    12
289
     0
340
BD
  0
DIMSTYLE
105
330
102
{ACAD_REACTORS
330
32F
102
}
330
A
100
AcDbSymbolTableRecord
100
AcDbDimStyleTableRecord
  2
SLDDIMSTYLE6
 70
     0
 41
3.302
 44
0.0
 45
0.000000001
 73
     0
 74
     0
 77
     1
 78
    12
 79
     3
140
3.5
147
0.875
173
     1
178
     0
271
     1
272
     1
276
     2
284
    12
340
BD
  0
DIMSTYLE
105
42B
102
{ACAD_REACTORS
330
42A
330
441
102
}
330
A
100
AcDbSymbolTableRecord
100
AcDbDimStyleTableRecord
  2
SLDDIMSTYLE7
 70
     0
 41
3.302
 44
0.0
 45
0.000000001
 73
     0
 74
     0
 77
     1
 78
    12
 79
     3
140
3.5
144
2.1113268062
147
0.875
172
     1
173
     1
178
     0
271
     0
272
     0
276
     2
284
    12
289
     0
340
BD
  0
DIMSTYLE
105
437
102
{ACAD_REACTORS
330
436
102
}
330
A
100
AcDbSymbolTableRecord
100
AcDbDimStyleTableRecord
  2
SLDDIMSTYLE8
 70
     0
 41
3.302
 44
0.0
 45
0.000000001
 73
     0
 74
     0
 77
     1
 78
    12
 79
     3
140
3.5
141
0.0
144
2.1113268062
147
0.875
172
     1
173
     1
178
     0
271
     1
272
     1
276
     2
284
    12
340
BD
341
183
343
183
  0
DIMSTYLE
105
44E
102
{ACAD_REACTORS
330
44D
102
}
330
A
100
AcDbSymbolTableRecord
100
AcDbDimStyleTableRecord
  2
SLDDIMSTYLE9
 70
     0
 41
3.302
 44
0.0
 45
0.000000001
 73
     0
 74
     0
 77
     1
 78
    12
 79
     3
140
3.5
144
2.1113268062
147
0.875
172
     1
173
     1
178
     0
271
     2
272
     2
276
     2
284
    12
289
     0
340
BD
  0
ENDTAB
  0
TABLE
  2
BLOCK_RECORD
  5
1
330
0
100
AcDbSymbolTable
 70
    35
  0
BLOCK_RECORD
  5
1F
330
1
100
AcDbSymbolTableRecord
100
AcDbBlockTableRecord
  2
*Model_Space
340
22
  0
BLOCK_RECORD
  5
1B
330
1
100
AcDbSymbolTableRecord
100
AcDbBlockTableRecord
  2
*Paper_Space
340
1E
  0
BLOCK_RECORD
  5
23
330
1
100
AcDbSymbolTableRecord
100
AcDbBlockTableRecord
  2
*Paper_Space0
340
26
  0
BLOCK_RECORD
  5
F5
330
1
100
AcDbSymbolTableRecord
100
AcDbBlockTableRecord
  2
SW_NOTE_0
340
0
102
{BLKREFS
331
FA
102
}
  0
BLOCK_RECORD
  5
FC
330
1
100
AcDbSymbolTableRecord
100
AcDbBlockTableRecord
  2
SW_NOTE_0_1
340
0
102
{BLKREFS
331
105
102
}
  0
BLOCK_RECORD
  5
15A
330
1
100
AcDbSymbolTableRecord
100
AcDbBlockTableRecord
  2
_D
340
0
  0
BLOCK_RECORD
  5
164
330
1
100
AcDbSymbolTableRecord
100
AcDbBlockTableRecord
  2
_D_1
340
0
  0
BLOCK_RECORD
  5
16E
330
1
100
AcDbSymbolTableRecord
100
AcDbBlockTableRecord
  2
_D_2
340
0
  0
BLOCK_RECORD
  5
178
330
1
100
AcDbSymbolTableRecord
100
AcDbBlockTableRecord
  2
_D_3
340
0
  0
BLOCK_RECORD
  5
183
330
1
100
AcDbSymbolTableRecord
100
AcDbBlockTableRecord
  2
_None
340
0
  0
BLOCK_RECORD
  5
186
330
1
100
AcDbSymbolTableRecord
100
AcDbBlockTableRecord
  2
_D_4
340
0
  0
BLOCK_RECORD
  5
18F
330
1
100
AcDbSymbolTableRecord
100
AcDbBlockTableRecord
  2
_D_5
340
0
  0
BLOCK_RECORD
  5
199
330
1
100
AcDbSymbolTableRecord
100
AcDbBlockTableRecord
  2
_D_6
340
0
  0
BLOCK_RECORD
  5
1A3
330
1
100
AcDbSymbolTableRecord
100
AcDbBlockTableRecord
  2
_D_7
340
0
  0
BLOCK_RECORD
  5
1AB
330
1
100
AcDbSymbolTableRecord
100
AcDbBlockTableRecord
  2
SW_CENTERMARKSYMBOL_0
340
0
102
{BLKREFS
331
1B6
102
}
  0
BLOCK_RECORD
  5
1B7
330
1
100
AcDbSymbolTableRecord
100
AcDbBlockTableRecord
  2
SW_CENTERMARKSYMBOL_1
340
0
102
{BLKREFS
331
1C2
102
}
  0
BLOCK_RECORD
  5
1C3
330
1
100
AcDbSymbolTableRecord
100
AcDbBlockTableRecord
  2
SW_CENTERMARKSYMBOL_2
340
0
102
{BLKREFS
331
1CE
102
}
  0
BLOCK_RECORD
  5
1CF
330
1
100
AcDbSymbolTableRecord
100
AcDbBlockTableRecord
  2
SW_CENTERMARKSYMBOL_3
340
0
102
{BLKREFS
331
1DA
102
}
  0
BLOCK_RECORD
  5
1DB
330
1
100
AcDbSymbolTableRecord
100
AcDbBlockTableRecord
  2
SW_CENTERMARKSYMBOL_4
340
0
102
{BLKREFS
331
1E6
102
}
  0
BLOCK_RECORD
  5
2EA
330
1
100
AcDbSymbolTableRecord
100
AcDbBlockTableRecord
  2
_D_8
340
0
  0
BLOCK_RECORD
  5
2F6
330
1
100
AcDbSymbolTableRecord
100
AcDbBlockTableRecord
  2
_D_9
340
0
  0
BLOCK_RECORD
  5
303
330
1
100
AcDbSymbolTableRecord
100
AcDbBlockTableRecord
  2
_D_10
340
0
  0
BLOCK_RECORD
  5
30F
330
1
100
AcDbSymbolTableRecord
100
AcDbBlockTableRecord
  2
_D_11
340
0
  0
BLOCK_RECORD
  5
319
330
1
100
AcDbSymbolTableRecord
100
AcDbBlockTableRecord
  2
_D_12
340
0
  0
BLOCK_RECORD
  5
323
330
1
100
AcDbSymbolTableRecord
100
AcDbBlockTableRecord
  2
_D_13
340
0
  0
BLOCK_RECORD
  5
331
330
1
100
AcDbSymbolTableRecord
100
AcDbBlockTableRecord
  2
_D_14
340
0
  0
BLOCK_RECORD
  5
42C
330
1
100
AcDbSymbolTableRecord
100
AcDbBlockTableRecord
  2
_D_15
340
0
  0
BLOCK_RECORD
  5
438
330
1
100
AcDbSymbolTableRecord
100
AcDbBlockTableRecord
  2
_D_16
340
0
  0
BLOCK_RECORD
  5
442
330
1
100
AcDbSymbolTableRecord
100
AcDbBlockTableRecord
  2
_D_17
340
0
  0
BLOCK_RECORD
  5
44F
330
1
100
AcDbSymbolTableRecord
100
AcDbBlockTableRecord
  2
_D_18
340
0
  0
BLOCK_RECORD
  5
45A
330
1
100
AcDbSymbolTableRecord
100
AcDbBlockTableRecord
  2
SW_CENTERMARKSYMBOL_5
340
0
102
{BLKREFS
331
465
102
}
  0
BLOCK_RECORD
  5
466
330
1
100
AcDbSymbolTableRecord
100
AcDbBlockTableRecord
  2
SW_CENTERMARKSYMBOL_6
340
0
102
{BLKREFS
331
471
102
}
  0
BLOCK_RECORD
  5
472
330
1
100
AcDbSymbolTableRecord
100
AcDbBlockTableRecord
  2
SW_CENTERMARKSYMBOL_7
340
0
102
{BLKREFS
331
47D
102
}
  0
BLOCK_RECORD
  5
47E
330
1
100
AcDbSymbolTableRecord
100
AcDbBlockTableRecord
  2
SW_CENTERMARKSYMBOL_8
340
0
102
{BLKREFS
331
489
102
}
  0
BLOCK_RECORD
  5
48A
330
1
100
AcDbSymbolTableRecord
100
AcDbBlockTableRecord
  2
SW_CENTERMARKSYMBOL_9
340
0
102
{BLKREFS
331
495
102
}
  0
BLOCK_RECORD
  5
496
330
1
100
AcDbSymbolTableRecord
100
AcDbBlockTableRecord
  2
SW_CENTERMARKSYMBOL_10
340
0
102
{BLKREFS
331
4A1
102
}
  0
BLOCK_RECORD
  5
4A2
330
1
100
AcDbSymbolTableRecord
100
AcDbBlockTableRecord
  2
SW_CENTERMARKSYMBOL_11
340
0
102
{BLKREFS
331
4AD
102
}
  0
ENDTAB
  0
ENDSEC
  0
SECTION
  2
BLOCKS
  0
BLOCK
  5
20
330
1F
100
AcDbEntity
  8
0
100
AcDbBlockBegin
  2
*Model_Space
 70
     0
 10
0.0
 20
0.0
 30
0.0
  3
*Model_Space
  1

  0
ENDBLK
  5
21
330
1F
100
AcDbEntity
  8
0
100
AcDbBlockEnd
  0
BLOCK
  5
1C
330
1B
100
AcDbEntity
 67
     1
  8
0
100
AcDbBlockBegin
  2
*Paper_Space
 70
     0
 10
0.0
 20
0.0
 30
0.0
  3
*Paper_Space
  1

  0
ENDBLK
  5
1D
330
1B
100
AcDbEntity
 67
     1
  8
0
100
AcDbBlockEnd
  0
BLOCK
  5
24
330
23
100
AcDbEntity
  8
0
100
AcDbBlockBegin
  2
*Paper_Space0
 70
     0
 10
0.0
 20
0.0
 30
0.0
  3
*Paper_Space0
  1

  0
ENDBLK
  5
25
330
23
100
AcDbEntity
  8
0
100
AcDbBlockEnd
  0
BLOCK
  5
F6
330
F5
100
AcDbEntity
  8
0
100
AcDbBlockBegin
  2
SW_NOTE_0
 70
     0
 10
0.0
 20
0.0
 30
0.0
  3
SW_NOTE_0
  1

  0
MTEXT
  5
F8
330
F5
100
AcDbEntity
  8
0
  6
Continuous
 62
     0
370
     0
100
AcDbMText
 10
0.0
 20
1.9336016097
 30
0.0
 40
1.5
 41
0.0
 71
     1
 72
     1
  1
ODSTRANIT
  7
SLDTEXTSTYLE0
 73
     1
 44
1.0
  0
MTEXT
  5
F9
330
F5
100
AcDbEntity
  8
0
  6
Continuous
 62
     0
370
     0
100
AcDbMText
 10
0.0
 20
-0.5663983345
 30
0.0
 40
1.5
 41
0.0
 71
     1
 72
     1
  1
OSTRÉ HRANY
  7
SLDTEXTSTYLE0
 73
     1
 44
1.0
  0
ENDBLK
  5
F7
330
F5
100
AcDbEntity
  8
0
100
AcDbBlockEnd
  0
BLOCK
  5
FD
330
FC
100
AcDbEntity
  8
0
100
AcDbBlockBegin
  2
SW_NOTE_0_1
 70
     0
 10
0.0
 20
0.0
 30
0.0
  3
SW_NOTE_0_1
  1

  0
MTEXT
  5
FF
330
FC
100
AcDbEntity
  8
0
  6
Continuous
 62
     0
370
     0
100
AcDbMText
 10
0.0
 20
1.9336016097
 30
0.0
 40
1.5
 41
0.0
 71
     1
 72
     1
  1
POKUD NENÍ UVEDENO JINAK:
  7
SLDTEXTSTYLE0
 73
     1
 44
1.0
  0
MTEXT
  5
100
330
FC
100
AcDbEntity
  8
0
  6
Continuous
 62
     0
370
     0
100
AcDbMText
 10
0.0
 20
-0.5663983345
 30
0.0
 40
1.5
 41
0.0
 71
     1
 72
     1
  1
JEDNOTKY JSOU V MILIMETRECH
  7
SLDTEXTSTYLE0
 73
     1
 44
1.0
  0
MTEXT
  5
101
330
FC
100
AcDbEntity
  8
0
  6
Continuous
 62
     0
370
     0
100
AcDbMText
 10
0.0
 20
-3.0663982786
 30
0.0
 40
1.5
 41
0.0
 71
     1
 72
     1
  1
DRSNOST:
  7
SLDTEXTSTYLE0
 73
     1
 44
1.0
  0
MTEXT
  5
102
330
FC
100
AcDbEntity
  8
0
  6
Continuous
 62
     0
370
     0
100
AcDbMText
 10
0.0
 20
-5.5663982227
 30
0.0
 40
1.5
 41
0.0
 71
     1
 72
     1
  1
TOLERANCE:
  7
SLDTEXTSTYLE0
 73
     1
 44
1.0
  0
MTEXT
  5
103
330
FC
100
AcDbEntity
  8
0
  6
Continuous
 62
     0
370
     0
100
AcDbMText
 10
1.6875
 20
-8.0663981668
 30
0.0
 40
1.5
 41
0.0
 71
     1
 72
     1
  1
LINEÁRNÍ:
  7
SLDTEXTSTYLE0
 73
     1
 44
1.0
  0
MTEXT
  5
104
330
FC
100
AcDbEntity
  8
0
  6
Continuous
 62
     0
370
     0
100
AcDbMText
 10
1.6875
 20
-10.5663981109
 30
0.0
 40
1.5
 41
0.0
 71
     1
 72
     1
  1
ÚHLOVÁ:
  7
SLDTEXTSTYLE0
 73
     1
 44
1.0
  0
ENDBLK
  5
FE
330
FC
100
AcDbEntity
  8
0
100
AcDbBlockEnd
  0
BLOCK
  5
15B
330
15A
100
AcDbEntity
  8
0
100
AcDbBlockBegin
  2
_D
 70
     0
 10
0.0
 20
0.0
 30
0.0
  3
_D
  1

  0
SOLID
  5
15D
330
15A
100
AcDbEntity
  8
0
  6
Continuous
 62
     7
370
    18
100
AcDbTrace
 10
95.9
 20
279.7
 30
0.0
 11
99.202
 21
279.192
 31
0.0
 12
99.202
 22
280.208
 32
0.0
 13
99.202
 23
280.208
 33
0.0
  0
SOLID
  5
15E
330
15A
100
AcDbEntity
  8
0
  6
Continuous
 62
     7
370
    18
100
AcDbTrace
 10
145.9
 20
279.7
 30
0.0
 11
142.598
 21
280.208
 31
0.0
 12
142.598
 22
279.192
 32
0.0
 13
142.598
 23
279.192
 33
0.0
  0
LINE
  5
15F
330
15A
100
AcDbEntity
  8
0
  6
Continuous
 62
     7
370
     0
100
AcDbLine
 10
95.9
 20
286.95
 30
0.0
 11
95.9
 21
278.7
 31
0.0
  0
LINE
  5
160
330
15A
100
AcDbEntity
  8
0
  6
Continuous
 62
     7
370
     0
100
AcDbLine
 10
145.9
 20
286.95
 30
0.0
 11
145.9
 21
278.7
 31
0.0
  0
LINE
  5
161
330
15A
100
AcDbEntity
  8
0
  6
Continuous
 62
     7
370
     0
100
AcDbLine
 10
95.9
 20
279.7
 30
0.0
 11
145.9
 21
279.7
 31
0.0
  0
MTEXT
  5
162
330
15A
100
AcDbEntity
  8
0
  6
Continuous
 62
     7
370
    18
100
AcDbMText
 10
118.3138888065
 20
284.2117369146
 30
0.0
 40
3.5
 41
0.0
 71
     1
 72
     1
  1
50
  7
SLDTEXTSTYLE0
 73
     1
 44
1.0
  0
ENDBLK
  5
15C
330
15A
100
AcDbEntity
  8
0
100
AcDbBlockEnd
  0
BLOCK
  5
165
330
164
100
AcDbEntity
  8
0
100
AcDbBlockBegin
  2
_D_1
 70
     0
 10
0.0
 20
0.0
 30
0.0
  3
_D_1
  1

  0
SOLID
  5
167
330
164
100
AcDbEntity
  8
0
  6
Continuous
 62
     7
370
    18
100
AcDbTrace
 10
78.4
 20
297.2
 30
0.0
 11
78.908
 21
300.502
 31
0.0
 12
77.892
 22
300.502
 32
0.0
 13
77.892
 23
300.502
 33
0.0
  0
SOLID
  5
168
330
164
100
AcDbEntity
  8
0
  6
Continuous
 62
     7
370
    18
100
AcDbTrace
 10
78.4
 20
327.2
 30
0.0
 11
77.892
 21
323.898
 31
0.0
 12
78.908
 22
323.898
 32
0.0
 13
78.908
 23
323.898
 33
0.0
  0
LINE
  5
169
330
164
100
AcDbEntity
  8
0
  6
Continuous
 62
     7
370
     0
100
AcDbLine
 10
85.65
 20
297.2
 30
0.0
 11
77.4
 21
297.2
 31
0.0
  0
LINE
  5
16A
330
164
100
AcDbEntity
  8
0
  6
Continuous
 62
     7
370
     0
100
AcDbLine
 10
85.65
 20
327.2
 30
0.0
 11
77.4
 21
327.2
 31
0.0
  0
LINE
  5
16B
330
164
100
AcDbEntity
  8
0
  6
Continuous
 62
     7
370
     0
100
AcDbLine
 10
78.4
 20
297.2
 30
0.0
 11
78.4
 21
327.2
 31
0.0
  0
MTEXT
  5
16C
330
164
100
AcDbEntity
  8
0
  6
Continuous
 62
     7
370
    18
100
AcDbMText
 10
73.8882630854
 20
309.6138888065
 30
0.0
 40
3.5
 41
0.0
 71
     1
 72
     1
  1
30
  7
SLDTEXTSTYLE0
 11
6.123233995736766E-17
 21
1.0
 31
0.0
 73
     1
 44
1.0
  0
ENDBLK
  5
166
330
164
100
AcDbEntity
  8
0
100
AcDbBlockEnd
  0
BLOCK
  5
16F
330
16E
100
AcDbEntity
  8
0
100
AcDbBlockBegin
  2
_D_2
 70
     0
 10
0.0
 20
0.0
 30
0.0
  3
_D_2
  1

  0
SOLID
  5
171
330
16E
100
AcDbEntity
  8
0
  6
Continuous
 62
     7
370
    18
100
AcDbTrace
 10
153.4
 20
273.7
 30
0.0
 11
150.098
 21
274.208
 31
0.0
 12
150.098
 22
273.192
 32
0.0
 13
150.098
 23
273.192
 33
0.0
  0
SOLID
  5
172
330
16E
100
AcDbEntity
  8
0
  6
Continuous
 62
     7
370
    18
100
AcDbTrace
 10
88.4
 20
273.7
 30
0.0
 11
91.702
 21
273.192
 31
0.0
 12
91.702
 22
274.208
 32
0.0
 13
91.702
 23
274.208
 33
0.0
  0
LINE
  5
173
330
16E
100
AcDbEntity
  8
0
  6
Continuous
 62
     7
370
     0
100
AcDbLine
 10
153.4
 20
291.7
 30
0.0
 11
153.4
 21
272.7
 31
0.0
  0
LINE
  5
174
330
16E
100
AcDbEntity
  8
0
  6
Continuous
 62
     7
370
     0
100
AcDbLine
 10
88.4
 20
291.7
 30
0.0
 11
88.4
 21
272.7
 31
0.0
  0
LINE
  5
175
330
16E
100
AcDbEntity
  8
0
  6
Continuous
 62
     7
370
     0
100
AcDbLine
 10
153.4
 20
273.7
 30
0.0
 11
88.4
 21
273.7
 31
0.0
  0
MTEXT
  5
176
330
16E
100
AcDbEntity
  8
0
  6
Continuous
 62
     7
370
    18
100
AcDbMText
 10
118.3138888065
 20
278.2117369146
 30
0.0
 40
3.5
 41
0.0
 71
     1
 72
     1
  1
65
  7
SLDTEXTSTYLE0
 73
     1
 44
1.0
  0
ENDBLK
  5
170
330
16E
100
AcDbEntity
  8
0
100
AcDbBlockEnd
  0
BLOCK
  5
179
330
178
100
AcDbEntity
  8
0
100
AcDbBlockBegin
  2
_D_3
 70
     0
 10
0.0
 20
0.0
 30
0.0
  3
_D_3
  1

  0
SOLID
  5
17B
330
178
100
AcDbEntity
  8
0
  6
Continuous
 62
     7
370
    18
100
AcDbTrace
 10
72.4
 20
289.7
 30
0.0
 11
72.908
 21
293.002
 31
0.0
 12
71.892
 22
293.002
 32
0.0
 13
71.892
 23
293.002
 33
0.0
  0
SOLID
  5
17C
330
178
100
AcDbEntity
  8
0
  6
Continuous
 62
     7
370
    18
100
AcDbTrace
 10
72.4
 20
334.7
 30
0.0
 11
71.892
 21
331.398
 31
0.0
 12
72.908
 22
331.398
 32
0.0
 13
72.908
 23
331.398
 33
0.0
  0
LINE
  5
17D
330
178
100
AcDbEntity
  8
0
  6
Continuous
 62
     7
370
     0
100
AcDbLine
 10
90.4
 20
289.7
 30
0.0
 11
71.4
 21
289.7
 31
0.0
  0
LINE
  5
17E
330
178
100
AcDbEntity
  8
0
  6
Continuous
 62
     7
370
     0
100
AcDbLine
 10
90.4
 20
334.7
 30
0.0
 11
71.4
 21
334.7
 31
0.0
  0
LINE
  5
17F
330
178
100
AcDbEntity
  8
0
  6
Continuous
 62
     7
370
     0
100
AcDbLine
 10
72.4
 20
289.7
 30
0.0
 11
72.4
 21
334.7
 31
0.0
  0
MTEXT
  5
180
330
178
100
AcDbEntity
  8
0
  6
Continuous
 62
     7
370
    18
100
AcDbMText
 10
67.8882630854
 20
309.6138888065
 30
0.0
 40
3.5
 41
0.0
 71
     1
 72
     1
  1
45
  7
SLDTEXTSTYLE0
 11
-1.608122649676637E-16
 21
1.0
 31
0.0
 73
     1
 44
1.0
  0
ENDBLK
  5
17A
330
178
100
AcDbEntity
  8
0
100
AcDbBlockEnd
  0
BLOCK
  5
184
330
183
100
AcDbEntity
  8
0
100
AcDbBlockBegin
  2
_None
 70
     0
 10
0.0
 20
0.0
 30
0.0
  3
_None
  1

  0
ENDBLK
  5
185
330
183
100
AcDbEntity
  8
0
100
AcDbBlockEnd
  0
BLOCK
  5
187
330
186
100
AcDbEntity
  8
0
100
AcDbBlockBegin
  2
_D_4
 70
     0
 10
0.0
 20
0.0
 30
0.0
  3
_D_4
  1

  0
SOLID
  5
189
330
186
100
AcDbEntity
  8
0
  6
Continuous
 62
     7
370
    18
100
AcDbTrace
 10
150.672970773
 20
331.972970773
 30
0.0
 11
153.3670476093
 21
333.9486271196
 31
0.0
 12
152.6486271196
 22
334.6670476093
 32
0.0
 13
152.6486271196
 23
334.6670476093
 33
0.0
  0
LINE
  5
18A
330
186
100
AcDbEntity
  8
0
  6
Continuous
 62
     7
370
     0
100
AcDbLine
 10
150.672970773
 20
331.972970773
 30
0.0
 11
168.3550410555
 21
349.6550410555
 31
0.0
  0
LINE
  5
18B
330
186
100
AcDbEntity
  8
0
  6
Continuous
 62
     7
370
     0
100
AcDbLine
 10
150.672970773
 20
331.972970773
 30
0.0
 11
141.127029227
 21
322.427029227
 31
0.0
  0
MTEXT
  5
18C
330
186
100
AcDbEntity
  8
0
  6
Continuous
 62
     7
370
    18
100
AcDbMText
 10
155.0446591035
 20
342.6999867653
 30
0.0
 40
3.5
 41
0.0
 71
     1
 72
     1
  1
%%c
  7
SLDTEXTSTYLE0
 11
0.7071067811865478
 21
0.7071067811865472
 31
0.0
 73
     1
 44
1.0
  0
MTEXT
  5
18D
330
186
100
AcDbEntity
  8
0
  6
Continuous
 62
     7
370
    18
100
AcDbMText
 10
158.7392674432
 20
346.4702161825
 30
0.0
 40
3.5
 41
0.0
 71
     1
 72
     1
  1
13,5
  7
SLDTEXTSTYLE0
 11
0.7071067811865478
 21
0.7071067811865472
 31
0.0
 73
     1
 44
1.0
  0
ENDBLK
  5
188
330
186
100
AcDbEntity
  8
0
100
AcDbBlockEnd
  0
BLOCK
  5
190
330
18F
100
AcDbEntity
  8
0
100
AcDbBlockBegin
  2
_D_5
 70
     0
 10
0.0
 20
0.0
 30
0.0
  3
_D_5
  1

  0
SOLID
  5
192
330
18F
100
AcDbEntity
  8
0
  6
Continuous
 62
     7
370
    18
100
AcDbTrace
 10
148.025
 20
330.880607966
 30
0.0
 11
150.1159409051
 21
333.4862238493
 31
0.0
 12
149.2360590949
 22
333.9942238493
 32
0.0
 13
149.2360590949
 23
333.9942238493
 33
0.0
  0
LINE
  5
193
330
18F
100
AcDbEntity
  8
0
  6
Continuous
 62
     7
370
     0
100
AcDbLine
 10
148.025
 20
330.880607966
 30
0.0
 11
166.3316141596
 21
362.588593805
 31
0.0
  0
LINE
  5
194
330
18F
100
AcDbEntity
  8
0
  6
Continuous
 62
     7
370
     0
100
AcDbLine
 10
148.025
 20
330.880607966
 30
0.0
 11
143.775
 21
323.519392034
 31
0.0
  0
MTEXT
  5
195
330
18F
100
AcDbEntity
  8
0
  6
Continuous
 62
     7
370
    18
100
AcDbMText
 10
156.5601947191
 20
354.6696503029
 30
0.0
 40
3.5
 41
0.0
 71
     1
 72
     1
  1
%%c
  7
SLDTEXTSTYLE0
 11
0.4999999999999993
 21
0.866025403784439
 31
0.0
 73
     1
 44
1.0
  0
MTEXT
  5
196
330
18F
100
AcDbEntity
  8
0
  6
Continuous
 62
     7
370
    18
100
AcDbMText
 10
159.1531051549
 20
359.2676472705
 30
0.0
 40
3.5
 41
0.0
 71
     1
 72
     1
  1
8,5
  7
SLDTEXTSTYLE0
 11
0.4999999999999993
 21
0.866025403784439
 31
0.0
 73
     1
 44
1.0
  0
ENDBLK
  5
191
330
18F
100
AcDbEntity
  8
0
100
AcDbBlockEnd
  0
BLOCK
  5
19A
330
199
100
AcDbEntity
  8
0
100
AcDbBlockBegin
  2
_D_6
 70
     0
 10
0.0
 20
0.0
 30
0.0
  3
_D_6
  1

  0
SOLID
  5
19C
330
199
100
AcDbEntity
  8
0
  6
Continuous
 62
     7
370
    18
100
AcDbTrace
 10
124.1173358544
 20
308.9826641456
 30
0.0
 11
126.092992201
 21
306.2885873093
 31
0.0
 12
126.8114126907
 22
307.007007799
 32
0.0
 13
126.8114126907
 23
307.007007799
 33
0.0
  0
LINE
  5
19D
330
199
100
AcDbEntity
  8
0
  6
Continuous
 62
     7
370
     0
100
AcDbLine
 10
124.1173358544
 20
308.9826641456
 30
0.0
 11
152.8611846327
 21
280.2388153673
 31
0.0
  0
LINE
  5
19E
330
199
100
AcDbEntity
  8
0
  6
Continuous
 62
     7
370
     0
100
AcDbLine
 10
153.9388153673
 20
279.1611846327
 30
0.0
 11
171.7793455219
 21
261.3206544781
 31
0.0
  0
LINE
  5
19F
330
199
100
AcDbEntity
  8
0
  6
Continuous
 62
     7
370
     0
100
AcDbLine
 10
124.1173358544
 20
308.9826641456
 30
0.0
 11
117.6826641456
 21
315.4173358544
 31
0.0
  0
MTEXT
  5
1A0
330
199
100
AcDbEntity
  8
0
  6
Continuous
 62
     7
370
    18
100
AcDbMText
 10
162.1224306366
 20
277.3543063216
 30
0.0
 40
3.5
 41
0.0
 71
     1
 72
     1
  1
M10x1.5
  7
SLDTEXTSTYLE0
 11
0.7071067811865575
 21
-0.7071067811865377
 31
0.0
 73
     1
 44
1.0
  0
ENDBLK
  5
19B
330
199
100
AcDbEntity
  8
0
100
AcDbBlockEnd
  0
BLOCK
  5
1A4
330
1A3
100
AcDbEntity
  8
0
100
AcDbBlockBegin
  2
_D_7
 70
     0
 10
0.0
 20
0.0
 30
0.0
  3
_D_7
  1

  0
SOLID
  5
1A6
330
1A3
100
AcDbEntity
  8
0
  6
Continuous
 62
     7
370
    18
100
AcDbTrace
 10
128.6942286341
 20
307.7
 30
0.0
 11
131.2998445174
 21
305.6090590949
 31
0.0
 12
131.8078445174
 22
306.4889409051
 32
0.0
 13
131.8078445174
 23
306.4889409051
 33
0.0
  0
LINE
  5
1A7
330
1A3
100
AcDbEntity
  8
0
  6
Continuous
 62
     7
370
     0
100
AcDbLine
 10
128.6942286341
 20
307.7
 30
0.0
 11
167.856021364
 21
285.0899284254
 31
0.0
  0
LINE
  5
1A8
330
1A3
100
AcDbEntity
  8
0
  6
Continuous
 62
     7
370
     0
100
AcDbLine
 10
128.6942286341
 20
307.7
 30
0.0
 11
113.105771366
 21
316.7
 31
0.0
  0
MTEXT
  5
1A9
330
1A3
100
AcDbEntity
  8
0
  6
Continuous
 62
     7
370
    18
100
AcDbMText
 10
161.0590675981
 20
294.2185796684
 30
0.0
 40
3.5
 41
0.0
 71
     1
 72
     1
  1
%%c
  7
SLDTEXTSTYLE0
 11
0.8660254037844459
 21
-0.4999999999999873
 31
0.0
 73
     1
 44
1.0
  0
MTEXT
  5
1AA
330
1A3
100
AcDbEntity
  8
0
  6
Continuous
 62
     7
370
    18
100
AcDbMText
 10
165.6570645657
 20
291.6256692326
 30
0.0
 40
3.5
 41
0.0
 71
     1
 72
     1
  1
18
  7
SLDTEXTSTYLE0
 11
0.8660254037844459
 21
-0.4999999999999873
 31
0.0
 73
     1
 44
1.0
  0
ENDBLK
  5
1A5
330
1A3
100
AcDbEntity
  8
0
100
AcDbBlockEnd
  0
BLOCK
  5
1AC
330
1AB
100
AcDbEntity
  8
0
100
AcDbBlockBegin
  2
SW_CENTERMARKSYMBOL_0
 70
     0
 10
0.0
 20
0.0
 30
0.0
  3
SW_CENTERMARKSYMBOL_0
  1

  0
LINE
  5
1AE
330
1AB
100
AcDbEntity
  8
0
  6
Continuous
 62
     0
370
    18
100
AcDbLine
 10
0.0
 20
0.0
 30
0.0
 11
0.0
 21
2.5
 31
0.0
  0
LINE
  5
1AF
330
1AB
100
AcDbEntity
  8
0
  6
Continuous
 62
     0
370
    18
100
AcDbLine
 10
0.0
 20
0.0
 30
0.0
 11
-2.5
 21
0.0
 31
0.0
  0
LINE
  5
1B0
330
1AB
100
AcDbEntity
  8
0
  6
Continuous
 62
     0
370
    18
100
AcDbLine
 10
0.0
 20
0.0
 30
0.0
 11
0.0
 21
-2.5
 31
0.0
  0
LINE
  5
1B1
330
1AB
100
AcDbEntity
  8
0
  6
Continuous
 62
     0
370
    18
100
AcDbLine
 10
0.0
 20
0.0
 30
0.0
 11
2.5
 21
0.0
 31
0.0
  0
LINE
  5
1B2
330
1AB
100
AcDbEntity
  8
0
  6
Continuous
 62
     0
370
    18
100
AcDbLine
 10
0.0
 20
5.0
 30
0.0
 11
0.0
 21
9.25
 31
0.0
  0
LINE
  5
1B3
330
1AB
100
AcDbEntity
  8
0
  6
Continuous
 62
     0
370
    18
100
AcDbLine
 10
-5.0
 20
0.0
 30
0.0
 11
-9.25
 21
0.0
 31
0.0
  0
LINE
  5
1B4
330
1AB
100
AcDbEntity
  8
0
  6
Continuous
 62
     0
370
    18
100
AcDbLine
 10
0.0
 20
-5.0
 30
0.0
 11
0.0
 21
-9.25
 31
0.0
  0
LINE
  5
1B5
330
1AB
100
AcDbEntity
  8
0
  6
Continuous
 62
     0
370
    18
100
AcDbLine
 10
5.0
 20
0.0
 30
0.0
 11
9.25
 21
0.0
 31
0.0
  0
ENDBLK
  5
1AD
330
1AB
100
AcDbEntity
  8
0
100
AcDbBlockEnd
  0
BLOCK
  5
1B8
330
1B7
100
AcDbEntity
  8
0
100
AcDbBlockBegin
  2
SW_CENTERMARKSYMBOL_1
 70
     0
 10
0.0
 20
0.0
 30
0.0
  3
SW_CENTERMARKSYMBOL_1
  1

  0
LINE
  5
1BA
330
1B7
100
AcDbEntity
  8
0
  6
Continuous
 62
     0
370
    18
100
AcDbLine
 10
0.0
 20
0.0
 30
0.0
 11
0.0
 21
2.5
 31
0.0
  0
LINE
  5
1BB
330
1B7
100
AcDbEntity
  8
0
  6
Continuous
 62
     0
370
    18
100
AcDbLine
 10
0.0
 20
0.0
 30
0.0
 11
-2.5
 21
0.0
 31
0.0
  0
LINE
  5
1BC
330
1B7
100
AcDbEntity
  8
0
  6
Continuous
 62
     0
370
    18
100
AcDbLine
 10
0.0
 20
0.0
 30
0.0
 11
0.0
 21
-2.5
 31
0.0
  0
LINE
  5
1BD
330
1B7
100
AcDbEntity
  8
0
  6
Continuous
 62
     0
370
    18
100
AcDbLine
 10
0.0
 20
0.0
 30
0.0
 11
2.5
 21
0.0
 31
0.0
  0
LINE
  5
1BE
330
1B7
100
AcDbEntity
  8
0
  6
Continuous
 62
     0
370
    18
100
AcDbLine
 10
0.0
 20
5.0
 30
0.0
 11
0.0
 21
9.25
 31
0.0
  0
LINE
  5
1BF
330
1B7
100
AcDbEntity
  8
0
  6
Continuous
 62
     0
370
    18
100
AcDbLine
 10
-5.0
 20
0.0
 30
0.0
 11
-9.25
 21
0.0
 31
0.0
  0
LINE
  5
1C0
330
1B7
100
AcDbEntity
  8
0
  6
Continuous
 62
     0
370
    18
100
AcDbLine
 10
0.0
 20
-5.0
 30
0.0
 11
0.0
 21
-9.25
 31
0.0
  0
LINE
  5
1C1
330
1B7
100
AcDbEntity
  8
0
  6
Continuous
 62
     0
370
    18
100
AcDbLine
 10
5.0
 20
0.0
 30
0.0
 11
9.25
 21
0.0
 31
0.0
  0
ENDBLK
  5
1B9
330
1B7
100
AcDbEntity
  8
0
100
AcDbBlockEnd
  0
BLOCK
  5
1C4
330
1C3
100
AcDbEntity
  8
0
100
AcDbBlockBegin
  2
SW_CENTERMARKSYMBOL_2
 70
     0
 10
0.0
 20
0.0
 30
0.0
  3
SW_CENTERMARKSYMBOL_2
  1

  0
LINE
  5
1C6
330
1C3
100
AcDbEntity
  8
0
  6
Continuous
 62
     0
370
    18
100
AcDbLine
 10
0.0
 20
0.0
 30
0.0
 11
0.0
 21
2.5
 31
0.0
  0
LINE
  5
1C7
330
1C3
100
AcDbEntity
  8
0
  6
Continuous
 62
     0
370
    18
100
AcDbLine
 10
0.0
 20
0.0
 30
0.0
 11
-2.5
 21
0.0
 31
0.0
  0
LINE
  5
1C8
330
1C3
100
AcDbEntity
  8
0
  6
Continuous
 62
     0
370
    18
100
AcDbLine
 10
0.0
 20
0.0
 30
0.0
 11
0.0
 21
-2.5
 31
0.0
  0
LINE
  5
1C9
330
1C3
100
AcDbEntity
  8
0
  6
Continuous
 62
     0
370
    18
100
AcDbLine
 10
0.0
 20
0.0
 30
0.0
 11
2.5
 21
0.0
 31
0.0
  0
LINE
  5
1CA
330
1C3
100
AcDbEntity
  8
0
  6
Continuous
 62
     0
370
    18
100
AcDbLine
 10
0.0
 20
5.0
 30
0.0
 11
0.0
 21
9.25
 31
0.0
  0
LINE
  5
1CB
330
1C3
100
AcDbEntity
  8
0
  6
Continuous
 62
     0
370
    18
100
AcDbLine
 10
-5.0
 20
0.0
 30
0.0
 11
-9.25
 21
0.0
 31
0.0
  0
LINE
  5
1CC
330
1C3
100
AcDbEntity
  8
0
  6
Continuous
 62
     0
370
    18
100
AcDbLine
 10
0.0
 20
-5.0
 30
0.0
 11
0.0
 21
-9.25
 31
0.0
  0
LINE
  5
1CD
330
1C3
100
AcDbEntity
  8
0
  6
Continuous
 62
     0
370
    18
100
AcDbLine
 10
5.0
 20
0.0
 30
0.0
 11
9.25
 21
0.0
 31
0.0
  0
ENDBLK
  5
1C5
330
1C3
100
AcDbEntity
  8
0
100
AcDbBlockEnd
  0
BLOCK
  5
1D0
330
1CF
100
AcDbEntity
  8
0
100
AcDbBlockBegin
  2
SW_CENTERMARKSYMBOL_3
 70
     0
 10
0.0
 20
0.0
 30
0.0
  3
SW_CENTERMARKSYMBOL_3
  1

  0
LINE
  5
1D2
330
1CF
100
AcDbEntity
  8
0
  6
Continuous
 62
     0
370
    18
100
AcDbLine
 10
0.0
 20
0.0
 30
0.0
 11
0.0
 21
2.5
 31
0.0
  0
LINE
  5
1D3
330
1CF
100
AcDbEntity
  8
0
  6
Continuous
 62
     0
370
    18
100
AcDbLine
 10
0.0
 20
0.0
 30
0.0
 11
-2.5
 21
0.0
 31
0.0
  0
LINE
  5
1D4
330
1CF
100
AcDbEntity
  8
0
  6
Continuous
 62
     0
370
    18
100
AcDbLine
 10
0.0
 20
0.0
 30
0.0
 11
0.0
 21
-2.5
 31
0.0
  0
LINE
  5
1D5
330
1CF
100
AcDbEntity
  8
0
  6
Continuous
 62
     0
370
    18
100
AcDbLine
 10
0.0
 20
0.0
 30
0.0
 11
2.5
 21
0.0
 31
0.0
  0
LINE
  5
1D6
330
1CF
100
AcDbEntity
  8
0
  6
Continuous
 62
     0
370
    18
100
AcDbLine
 10
0.0
 20
5.0
 30
0.0
 11
0.0
 21
9.25
 31
0.0
  0
LINE
  5
1D7
330
1CF
100
AcDbEntity
  8
0
  6
Continuous
 62
     0
370
    18
100
AcDbLine
 10
-5.0
 20
0.0
 30
0.0
 11
-9.25
 21
0.0
 31
0.0
  0
LINE
  5
1D8
330
1CF
100
AcDbEntity
  8
0
  6
Continuous
 62
     0
370
    18
100
AcDbLine
 10
0.0
 20
-5.0
 30
0.0
 11
0.0
 21
-9.25
 31
0.0
  0
LINE
  5
1D9
330
1CF
100
AcDbEntity
  8
0
  6
Continuous
 62
     0
370
    18
100
AcDbLine
 10
5.0
 20
0.0
 30
0.0
 11
9.25
 21
0.0
 31
0.0
  0
ENDBLK
  5
1D1
330
1CF
100
AcDbEntity
  8
0
100
AcDbBlockEnd
  0
BLOCK
  5
1DC
330
1DB
100
AcDbEntity
  8
0
100
AcDbBlockBegin
  2
SW_CENTERMARKSYMBOL_4
 70
     0
 10
0.0
 20
0.0
 30
0.0
  3
SW_CENTERMARKSYMBOL_4
  1

  0
LINE
  5
1DE
330
1DB
100
AcDbEntity
  8
0
  6
Continuous
 62
     0
370
    18
100
AcDbLine
 10
0.0
 20
0.0
 30
0.0
 11
0.0
 21
2.5
 31
0.0
  0
LINE
  5
1DF
330
1DB
100
AcDbEntity
  8
0
  6
Continuous
 62
     0
370
    18
100
AcDbLine
 10
0.0
 20
0.0
 30
0.0
 11
-2.5
 21
0.0
 31
0.0
  0
LINE
  5
1E0
330
1DB
100
AcDbEntity
  8
0
  6
Continuous
 62
     0
370
    18
100
AcDbLine
 10
0.0
 20
0.0
 30
0.0
 11
0.0
 21
-2.5
 31
0.0
  0
LINE
  5
1E1
330
1DB
100
AcDbEntity
  8
0
  6
Continuous
 62
     0
370
    18
100
AcDbLine
 10
0.0
 20
0.0
 30
0.0
 11
2.5
 21
0.0
 31
0.0
  0
LINE
  5
1E2
330
1DB
100
AcDbEntity
  8
0
  6
Continuous
 62
     0
370
    18
100
AcDbLine
 10
0.0
 20
5.0
 30
0.0
 11
0.0
 21
11.5
 31
0.0
  0
LINE
  5
1E3
330
1DB
100
AcDbEntity
  8
0
  6
Continuous
 62
     0
370
    18
100
AcDbLine
 10
-5.0
 20
0.0
 30
0.0
 11
-11.5
 21
0.0
 31
0.0
  0
LINE
  5
1E4
330
1DB
100
AcDbEntity
  8
0
  6
Continuous
 62
     0
370
    18
100
AcDbLine
 10
0.0
 20
-5.0
 30
0.0
 11
0.0
 21
-11.5
 31
0.0
  0
LINE
  5
1E5
330
1DB
100
AcDbEntity
  8
0
  6
Continuous
 62
     0
370
    18
100
AcDbLine
 10
5.0
 20
0.0
 30
0.0
 11
11.5
 21
0.0
 31
0.0
  0
ENDBLK
  5
1DD
330
1DB
100
AcDbEntity
  8
0
100
AcDbBlockEnd
  0
BLOCK
  5
2EB
330
2EA
100
AcDbEntity
  8
0
100
AcDbBlockBegin
  2
_D_8
 70
     0
 10
0.0
 20
0.0
 30
0.0
  3
_D_8
  1

  0
SOLID
  5
2ED
330
2EA
100
AcDbEntity
  8
0
  6
Continuous
 62
     7
370
    18
100
AcDbTrace
 10
409.4
 20
279.7
 30
0.0
 11
406.098
 21
280.208
 31
0.0
 12
406.098
 22
279.192
 32
0.0
 13
406.098
 23
279.192
 33
0.0
  0
SOLID
  5
2EE
330
2EA
100
AcDbEntity
  8
0
  6
Continuous
 62
     7
370
    18
100
AcDbTrace
 10
419.4
 20
279.7
 30
0.0
 11
422.702
 21
279.192
 31
0.0
 12
422.702
 22
280.208
 32
0.0
 13
422.702
 23
280.208
 33
0.0
  0
LINE
  5
2EF
330
2EA
100
AcDbEntity
  8
0
  6
Continuous
 62
     7
370
     0
100
AcDbLine
 10
409.4
 20
288.7
 30
0.0
 11
409.4
 21
278.7
 31
0.0
  0
LINE
  5
2F0
330
2EA
100
AcDbEntity
  8
0
  6
Continuous
 62
     7
370
     0
100
AcDbLine
 10
419.4
 20
288.7
 30
0.0
 11
419.4
 21
278.7
 31
0.0
  0
LINE
  5
2F1
330
2EA
100
AcDbEntity
  8
0
  6
Continuous
 62
     7
370
     0
100
AcDbLine
 10
409.4
 20
279.7
 30
0.0
 11
403.05
 21
279.7
 31
0.0
  0
LINE
  5
2F2
330
2EA
100
AcDbEntity
  8
0
  6
Continuous
 62
     7
370
     0
100
AcDbLine
 10
409.4
 20
279.7
 30
0.0
 11
419.4
 21
279.7
 31
0.0
  0
LINE
  5
2F3
330
2EA
100
AcDbEntity
  8
0
  6
Continuous
 62
     7
370
     0
100
AcDbLine
 10
419.4
 20
279.7
 30
0.0
 11
435.4479171503
 21
279.7
 31
0.0
  0
MTEXT
  5
2F4
330
2EA
100
AcDbEntity
  8
0
  6
Continuous
 62
     7
370
    18
100
AcDbMText
 10
430.2756947633
 20
284.2117369146
 30
0.0
 40
3.5
 41
0.0
 71
     1
 72
     1
  1
10
  7
SLDTEXTSTYLE0
 73
     1
 44
1.0
  0
ENDBLK
  5
2EC
330
2EA
100
AcDbEntity
  8
0
100
AcDbBlockEnd
  0
BLOCK
  5
2F7
330
2F6
100
AcDbEntity
  8
0
100
AcDbBlockBegin
  2
_D_9
 70
     0
 10
0.0
 20
0.0
 30
0.0
  3
_D_9
  1

  0
SOLID
  5
2F9
330
2F6
100
AcDbEntity
  8
0
  6
Continuous
 62
     7
370
    18
100
AcDbTrace
 10
401.380177208
 20
291.7
 30
0.0
 11
401.888177208
 21
295.002
 31
0.0
 12
400.872177208
 22
295.002
 32
0.0
 13
400.872177208
 23
295.002
 33
0.0
  0
SOLID
  5
2FA
330
2F6
100
AcDbEntity
  8
0
  6
Continuous
 62
     7
370
    18
100
AcDbTrace
 10
401.380177208
 20
289.7
 30
0.0
 11
400.872177208
 21
286.398
 31
0.0
 12
401.888177208
 22
286.398
 32
0.0
 13
401.888177208
 23
286.398
 33
0.0
  0
LINE
  5
2FB
330
2F6
100
AcDbEntity
  8
0
  6
Continuous
 62
     7
370
     0
100
AcDbLine
 10
408.4
 20
291.7
 30
0.0
 11
400.380177208
 21
291.7
 31
0.0
  0
LINE
  5
2FC
330
2F6
100
AcDbEntity
  8
0
  6
Continuous
 62
     7
370
     0
100
AcDbLine
 10
408.4
 20
289.7
 30
0.0
 11
400.380177208
 21
289.7
 31
0.0
  0
LINE
  5
2FD
330
2F6
100
AcDbEntity
  8
0
  6
Continuous
 62
     7
370
     0
100
AcDbLine
 10
401.380177208
 20
291.7
 30
0.0
 11
401.380177208
 21
298.05
 31
0.0
  0
LINE
  5
2FE
330
2F6
100
AcDbEntity
  8
0
  6
Continuous
 62
     7
370
     0
100
AcDbLine
 10
401.380177208
 20
291.7
 30
0.0
 11
401.380177208
 21
289.7
 31
0.0
  0
LINE
  5
2FF
330
2F6
100
AcDbEntity
  8
0
  6
Continuous
 62
     7
370
     0
100
AcDbLine
 10
401.380177208
 20
289.7
 30
0.0
 11
401.380177208
 21
285.6880702892
 31
0.0
  0
MTEXT
  5
300
330
2F6
100
AcDbEntity
  8
0
  6
Continuous
 62
     7
370
    18
100
AcDbMText
 10
396.8684402934
 20
285.6880702892
 30
0.0
 40
3.5
 41
0.0
 71
     1
 72
     1
  1
2
  7
SLDTEXTSTYLE0
 11
-3.491481338843133E-15
 21
1.0
 31
0.0
 73
     1
 44
1.0
  0
ENDBLK
  5
2F8
330
2F6
100
AcDbEntity
  8
0
100
AcDbBlockEnd
  0
BLOCK
  5
304
330
303
100
AcDbEntity
  8
0
100
AcDbBlockBegin
  2
_D_10
 70
     0
 10
0.0
 20
0.0
 30
0.0
  3
_D_10
  1

  0
SOLID
  5
306
330
303
100
AcDbEntity
  8
0
  6
Continuous
 62
     7
370
    18
100
AcDbTrace
 10
451.4
 20
283.1788722431
 30
0.0
 11
448.098
 21
283.6868722431
 31
0.0
 12
448.098
 22
282.6708722431
 32
0.0
 13
448.098
 23
282.6708722431
 33
0.0
  0
SOLID
  5
307
330
303
100
AcDbEntity
  8
0
  6
Continuous
 62
     7
370
    18
100
AcDbTrace
 10
457.9
 20
283.1788722431
 30
0.0
 11
461.202
 21
282.6708722431
 31
0.0
 12
461.202
 22
283.6868722431
 32
0.0
 13
461.202
 23
283.6868722431
 33
0.0
  0
LINE
  5
308
330
303
100
AcDbEntity
  8
0
  6
Continuous
 62
     7
370
     0
100
AcDbLine
 10
451.4
 20
293.7
 30
0.0
 11
451.4
 21
282.1788722431
 31
0.0
  0
LINE
  5
309
330
303
100
AcDbEntity
  8
0
  6
Continuous
 62
     7
370
     0
100
AcDbLine
 10
457.9
 20
295.7
 30
0.0
 11
457.9
 21
282.1788722431
 31
0.0
  0
LINE
  5
30A
330
303
100
AcDbEntity
  8
0
  6
Continuous
 62
     7
370
     0
100
AcDbLine
 10
451.4
 20
283.1788722431
 30
0.0
 11
445.05
 21
283.1788722431
 31
0.0
  0
LINE
  5
30B
330
303
100
AcDbEntity
  8
0
  6
Continuous
 62
     7
370
     0
100
AcDbLine
 10
451.4
 20
283.1788722431
 30
0.0
 11
457.9
 21
283.1788722431
 31
0.0
  0
LINE
  5
30C
330
303
100
AcDbEntity
  8
0
  6
Continuous
 62
     7
370
     0
100
AcDbLine
 10
457.9
 20
283.1788722431
 30
0.0
 11
472.4807535732
 21
283.1788722431
 31
0.0
  0
MTEXT
  5
30D
330
303
100
AcDbEntity
  8
0
  6
Continuous
 62
     7
370
    18
100
AcDbMText
 10
466.0154759386
 20
287.6906091577
 30
0.0
 40
3.5
 41
0.0
 71
     1
 72
     1
  1
6,5
  7
SLDTEXTSTYLE0
 73
     1
 44
1.0
  0
ENDBLK
  5
305
330
303
100
AcDbEntity
  8
0
100
AcDbBlockEnd
  0
BLOCK
  5
310
330
30F
100
AcDbEntity
  8
0
100
AcDbBlockBegin
  2
_D_11
 70
     0
 10
0.0
 20
0.0
 30
0.0
  3
_D_11
  1

  0
SOLID
  5
312
330
30F
100
AcDbEntity
  8
0
  6
Continuous
 62
     7
370
    18
100
AcDbTrace
 10
451.4
 20
351.6
 30
0.0
 11
454.702
 21
351.092
 31
0.0
 12
454.702
 22
352.108
 32
0.0
 13
454.702
 23
352.108
 33
0.0
  0
SOLID
  5
313
330
30F
100
AcDbEntity
  8
0
  6
Continuous
 62
     7
370
    18
100
AcDbTrace
 10
490.4
 20
351.6
 30
0.0
 11
487.098
 21
352.108
 31
0.0
 12
487.098
 22
351.092
 32
0.0
 13
487.098
 23
351.092
 33
0.0
  0
LINE
  5
314
330
30F
100
AcDbEntity
  8
0
  6
Continuous
 62
     7
370
     0
100
AcDbLine
 10
451.4
 20
335.7
 30
0.0
 11
451.4
 21
352.6
 31
0.0
  0
LINE
  5
315
330
30F
100
AcDbEntity
  8
0
  6
Continuous
 62
     7
370
     0
100
AcDbLine
 10
490.4
 20
320.7
 30
0.0
 11
490.4
 21
352.6
 31
0.0
  0
LINE
  5
316
330
30F
100
AcDbEntity
  8
0
  6
Continuous
 62
     7
370
     0
100
AcDbLine
 10
451.4
 20
351.6
 30
0.0
 11
490.4
 21
351.6
 31
0.0
  0
MTEXT
  5
317
330
30F
100
AcDbEntity
  8
0
  6
Continuous
 62
     7
370
    18
100
AcDbMText
 10
469.1005803698
 20
356.1117369146
 30
0.0
 40
3.5
 41
0.0
 71
     1
 72
     1
  1
39
  7
SLDTEXTSTYLE0
 73
     1
 44
1.0
  0
ENDBLK
  5
311
330
30F
100
AcDbEntity
  8
0
100
AcDbBlockEnd
  0
BLOCK
  5
31A
330
319
100
AcDbEntity
  8
0
100
AcDbBlockBegin
  2
_D_12
 70
     0
 10
0.0
 20
0.0
 30
0.0
  3
_D_12
  1

  0
SOLID
  5
31C
330
319
100
AcDbEntity
  8
0
  6
Continuous
 62
     7
370
    18
100
AcDbTrace
 10
500.5061444939
 20
296.2
 30
0.0
 11
501.0141444939
 21
299.502
 31
0.0
 12
499.9981444939
 22
299.502
 32
0.0
 13
499.9981444939
 23
299.502
 33
0.0
  0
SOLID
  5
31D
330
319
100
AcDbEntity
  8
0
  6
Continuous
 62
     7
370
    18
100
AcDbTrace
 10
500.5061444939
 20
328.2
 30
0.0
 11
499.9981444939
 21
324.898
 31
0.0
 12
501.0141444939
 22
324.898
 32
0.0
 13
501.0141444939
 23
324.898
 33
0.0
  0
LINE
  5
31E
330
319
100
AcDbEntity
  8
0
  6
Continuous
 62
     7
370
     0
100
AcDbLine
 10
458.4
 20
296.2
 30
0.0
 11
501.5061444939
 21
296.2
 31
0.0
  0
LINE
  5
31F
330
319
100
AcDbEntity
  8
0
  6
Continuous
 62
     7
370
     0
100
AcDbLine
 10
458.4
 20
328.2
 30
0.0
 11
501.5061444939
 21
328.2
 31
0.0
  0
LINE
  5
320
330
319
100
AcDbEntity
  8
0
  6
Continuous
 62
     7
370
     0
100
AcDbLine
 10
500.5061444939
 20
296.2
 30
0.0
 11
500.5061444939
 21
328.2
 31
0.0
  0
MTEXT
  5
321
330
319
100
AcDbEntity
  8
0
  6
Continuous
 62
     7
370
    18
100
AcDbMText
 10
495.9944075793
 20
309.6138888065
 30
0.0
 40
3.5
 41
0.0
 71
     1
 72
     1
  1
32
  7
SLDTEXTSTYLE0
 11
6.123233995736766E-17
 21
1.0
 31
0.0
 73
     1
 44
1.0
  0
ENDBLK
  5
31B
330
319
100
AcDbEntity
  8
0
100
AcDbBlockEnd
  0
BLOCK
  5
324
330
323
100
AcDbEntity
  8
0
100
AcDbBlockBegin
  2
_D_13
 70
     0
 10
0.0
 20
0.0
 30
0.0
  3
_D_13
  1

  0
SOLID
  5
326
330
323
100
AcDbEntity
  8
0
  6
Continuous
 62
     7
370
    18
100
AcDbTrace
 10
506.5061444939
 20
321.2
 30
0.0
 11
507.0141444939
 21
324.502
 31
0.0
 12
505.9981444939
 22
324.502
 32
0.0
 13
505.9981444939
 23
324.502
 33
0.0
  0
SOLID
  5
327
330
323
100
AcDbEntity
  8
0
  6
Continuous
 62
     7
370
    18
100
AcDbTrace
 10
506.5061444939
 20
303.2
 30
0.0
 11
505.9981444939
 21
299.898
 31
0.0
 12
507.0141444939
 22
299.898
 32
0.0
 13
507.0141444939
 23
299.898
 33
0.0
  0
LINE
  5
328
330
323
100
AcDbEntity
  8
0
  6
Continuous
 62
     7
370
     0
100
AcDbLine
 10
484.9
 20
321.2
 30
0.0
 11
507.5061444939
 21
321.2
 31
0.0
  0
LINE
  5
329
330
323
100
AcDbEntity
  8
0
  6
Continuous
 62
     7
370
     0
100
AcDbLine
 10
484.9
 20
303.2
 30
0.0
 11
507.5061444939
 21
303.2
 31
0.0
  0
LINE
  5
32A
330
323
100
AcDbEntity
  8
0
  6
Continuous
 62
     7
370
     0
100
AcDbLine
 10
506.5061444939
 20
321.2
 30
0.0
 11
506.5061444939
 21
327.55
 31
0.0
  0
LINE
  5
32B
330
323
100
AcDbEntity
  8
0
  6
Continuous
 62
     7
370
     0
100
AcDbLine
 10
506.5061444939
 20
321.2
 30
0.0
 11
506.5061444939
 21
303.2
 31
0.0
  0
LINE
  5
32C
330
323
100
AcDbEntity
  8
0
  6
Continuous
 62
     7
370
     0
100
AcDbLine
 10
506.5061444939
 20
303.2
 30
0.0
 11
506.5061444939
 21
296.85
 31
0.0
  0
MTEXT
  5
32D
330
323
100
AcDbEntity
  8
0
  6
Continuous
 62
     7
370
    18
100
AcDbMText
 10
501.9944074047
 20
305.9487625433
 30
0.0
 40
3.5
 41
0.0
 71
     1
 72
     1
  1
%%c
  7
SLDTEXTSTYLE0
 11
-7.044195017643634E-15
 21
1.0
 31
0.0
 73
     1
 44
1.0
  0
MTEXT
  5
32E
330
323
100
AcDbEntity
  8
0
  6
Continuous
 62
     7
370
    18
100
AcDbMText
 10
501.940935228
 20
311.2271999416
 30
0.0
 40
3.5
 41
0.0
 71
     1
 72
     1
  1
18
  7
SLDTEXTSTYLE0
 11
-7.044195017643634E-15
 21
1.0
 31
0.0
 73
     1
 44
1.0
  0
ENDBLK
  5
325
330
323
100
AcDbEntity
  8
0
100
AcDbBlockEnd
  0
BLOCK
  5
332
330
331
100
AcDbEntity
  8
0
100
AcDbBlockBegin
  2
_D_14
 70
     0
 10
0.0
 20
0.0
 30
0.0
  3
_D_14
  1

  0
SOLID
  5
334
330
331
100
AcDbEntity
  8
0
  6
Continuous
 62
     7
370
    18
100
AcDbTrace
 10
374.4
 20
351.6
 30
0.0
 11
377.702
 21
351.092
 31
0.0
 12
377.702
 22
352.108
 32
0.0
 13
377.702
 23
352.108
 33
0.0
  0
SOLID
  5
335
330
331
100
AcDbEntity
  8
0
  6
Continuous
 62
     7
370
    18
100
AcDbTrace
 10
451.4
 20
351.6
 30
0.0
 11
448.098
 21
352.108
 31
0.0
 12
448.098
 22
351.092
 32
0.0
 13
448.098
 23
351.092
 33
0.0
  0
LINE
  5
336
330
331
100
AcDbEntity
  8
0
  6
Continuous
 62
     7
370
     0
100
AcDbLine
 10
374.4
 20
335.7
 30
0.0
 11
374.4
 21
352.6
 31
0.0
  0
LINE
  5
337
330
331
100
AcDbEntity
  8
0
  6
Continuous
 62
     7
370
     0
100
AcDbLine
 10
451.4
 20
335.7
 30
0.0
 11
451.4
 21
352.6
 31
0.0
  0
LINE
  5
338
330
331
100
AcDbEntity
  8
0
  6
Continuous
 62
     7
370
     0
100
AcDbLine
 10
374.4
 20
351.6
 30
0.0
 11
451.4
 21
351.6
 31
0.0
  0
MTEXT
  5
339
330
331
100
AcDbEntity
  8
0
  6
Continuous
 62
     7
370
    18
100
AcDbMText
 10
408.3743054695
 20
356.1117369146
 30
0.0
 40
3.5
 41
0.0
 71
     1
 72
     1
  1
77,0
  7
SLDTEXTSTYLE0
 73
     1
 44
1.0
  0
ENDBLK
  5
333
330
331
100
AcDbEntity
  8
0
100
AcDbBlockEnd
  0
BLOCK
  5
42D
330
42C
100
AcDbEntity
  8
0
100
AcDbBlockBegin
  2
_D_15
 70
     0
 10
0.0
 20
0.0
 30
0.0
  3
_D_15
  1

  0
SOLID
  5
42F
330
42C
100
AcDbEntity
  8
0
  6
Continuous
 62
     7
370
    18
100
AcDbTrace
 10
113.4096886254
 20
92.6579412362
 30
0.0
 11
112.9016886254
 21
89.3559412362
 31
0.0
 12
113.9176886254
 22
89.3559412362
 32
0.0
 13
113.9176886254
 23
89.3559412362
 33
0.0
  0
SOLID
  5
430
330
42C
100
AcDbEntity
  8
0
  6
Continuous
 62
     7
370
    18
100
AcDbTrace
 10
113.4096886254
 20
103.0779292436
 30
0.0
 11
113.9176886254
 21
106.3799292436
 31
0.0
 12
112.9016886254
 22
106.3799292436
 32
0.0
 13
112.9016886254
 23
106.3799292436
 33
0.0
  0
LINE
  5
431
330
42C
100
AcDbEntity
  8
0
  6
Continuous
 62
     7
370
     0
100
AcDbLine
 10
115.0581391165
 20
92.6579412362
 30
0.0
 11
112.4096886254
 21
92.6579412362
 31
0.0
  0
LINE
  5
432
330
42C
100
AcDbEntity
  8
0
  6
Continuous
 62
     7
370
     0
100
AcDbLine
 10
113.4096886254
 20
92.6579412362
 30
0.0
 11
113.4096886254
 21
86.3079412362
 31
0.0
  0
LINE
  5
433
330
42C
100
AcDbEntity
  8
0
  6
Continuous
 62
     7
370
     0
100
AcDbLine
 10
113.4096886254
 20
92.6579412362
 30
0.0
 11
113.4096886254
 21
103.0779292436
 31
0.0
  0
LINE
  5
434
330
42C
100
AcDbEntity
  8
0
  6
Continuous
 62
     7
370
     0
100
AcDbLine
 10
113.4096886254
 20
103.0779292436
 30
0.0
 11
113.4096886254
 21
109.4279292436
 31
0.0
  0
MTEXT
  5
435
330
42C
100
AcDbEntity
  8
0
  6
Continuous
 62
     7
370
    18
100
AcDbMText
 10
108.8979517108
 20
94.109106459
 30
0.0
 40
3.5
 41
0.0
 71
     1
 72
     1
  1
22
  7
SLDTEXTSTYLE0
 11
6.123233995736766E-17
 21
1.0
 31
0.0
 73
     1
 44
1.0
  0
ENDBLK
  5
42E
330
42C
100
AcDbEntity
  8
0
100
AcDbBlockEnd
  0
BLOCK
  5
439
330
438
100
AcDbEntity
  8
0
100
AcDbBlockBegin
  2
_D_16
 70
     0
 10
0.0
 20
0.0
 30
0.0
  3
_D_16
  1

  0
SOLID
  5
43B
330
438
100
AcDbEntity
  8
0
  6
Continuous
 62
     7
370
    18
100
AcDbTrace
 10
133.3956657631
 20
86.0743943321
 30
0.0
 11
136.7166329164
 21
86.4383244993
 31
0.0
 12
136.4536727666
 22
87.4197051388
 32
0.0
 13
136.4536727666
 23
87.4197051388
 33
0.0
  0
LINE
  5
43C
330
438
100
AcDbEntity
  8
0
  6
Continuous
 62
     7
370
     0
100
AcDbLine
 10
133.3956657631
 20
86.0743943321
 30
0.0
 11
152.6930400968
 21
91.2451102008
 31
0.0
  0
LINE
  5
43D
330
438
100
AcDbEntity
  8
0
  6
Continuous
 62
     7
370
     0
100
AcDbLine
 10
133.3956657631
 20
86.0743943321
 30
0.0
 11
129.5069406735
 21
85.0324135848
 31
0.0
  0
MTEXT
  5
43E
330
438
100
AcDbEntity
  8
0
  6
Continuous
 62
     7
370
    18
100
AcDbMText
 10
135.5195008887
 20
91.312980002
 30
0.0
 40
3.5
 41
0.0
 71
     1
 72
     1
  1
2x
  7
SLDTEXTSTYLE0
 11
0.9659258262890683
 21
0.2588190451025207
 31
0.0
 73
     1
 44
1.0
  0
MTEXT
  5
43F
330
438
100
AcDbEntity
  8
0
  6
Continuous
 62
     7
370
    18
100
AcDbMText
 10
140.1959447272
 20
92.5106708811
 30
0.0
 40
3.5
 41
0.0
 71
     1
 72
     1
  1
%%c
  7
SLDTEXTSTYLE0
 11
0.9659258262890683
 21
0.2588190451025207
 31
0.0
 73
     1
 44
1.0
  0
MTEXT
  5
440
330
438
100
AcDbEntity
  8
0
  6
Continuous
 62
     7
370
    18
100
AcDbMText
 10
145.2806841151
 20
93.9284811646
 30
0.0
 40
3.5
 41
0.0
 71
     1
 72
     1
  1
8,5
  7
SLDTEXTSTYLE0
 11
0.9659258262890683
 21
0.2588190451025207
 31
0.0
 73
     1
 44
1.0
  0
ENDBLK
  5
43A
330
438
100
AcDbEntity
  8
0
100
AcDbBlockEnd
  0
BLOCK
  5
443
330
442
100
AcDbEntity
  8
0
100
AcDbBlockBegin
  2
_D_17
 70
     0
 10
0.0
 20
0.0
 30
0.0
  3
_D_17
  1

  0
SOLID
  5
445
330
442
100
AcDbEntity
  8
0
  6
Continuous
 62
     7
370
    18
100
AcDbTrace
 10
97.1600699577
 20
103.0779292436
 30
0.0
 11
97.6680699577
 21
106.3799292436
 31
0.0
 12
96.6520699577
 22
106.3799292436
 32
0.0
 13
96.6520699577
 23
106.3799292436
 33
0.0
  0
SOLID
  5
446
330
442
100
AcDbEntity
  8
0
  6
Continuous
 62
     7
370
    18
100
AcDbTrace
 10
97.1600699577
 20
85.5534039584
 30
0.0
 11
96.6520699577
 21
82.2514039584
 31
0.0
 12
97.6680699577
 22
82.2514039584
 32
0.0
 13
97.6680699577
 23
82.2514039584
 33
0.0
  0
LINE
  5
447
330
442
100
AcDbEntity
  8
0
  6
Continuous
 62
     7
370
     0
100
AcDbLine
 10
103.2172436536
 20
103.0779292436
 30
0.0
 11
96.1600699577
 21
103.0779292436
 31
0.0
  0
LINE
  5
448
330
442
100
AcDbEntity
  8
0
  6
Continuous
 62
     7
370
     0
100
AcDbLine
 10
103.5724705175
 20
85.5534039584
 30
0.0
 11
96.1600699577
 21
85.5534039584
 31
0.0
  0
LINE
  5
449
330
442
100
AcDbEntity
  8
0
  6
Continuous
 62
     7
370
     0
100
AcDbLine
 10
97.1600699577
 20
103.0779292436
 30
0.0
 11
97.1600699577
 21
109.4279292436
 31
0.0
  0
LINE
  5
44A
330
442
100
AcDbEntity
  8
0
  6
Continuous
 62
     7
370
     0
100
AcDbLine
 10
97.1600699577
 20
103.0779292436
 30
0.0
 11
97.1600699577
 21
85.5534039584
 31
0.0
  0
LINE
  5
44B
330
442
100
AcDbEntity
  8
0
  6
Continuous
 62
     7
370
     0
100
AcDbLine
 10
97.1600699577
 20
85.5534039584
 30
0.0
 11
97.1600699577
 21
79.2034039584
 31
0.0
  0
MTEXT
  5
44C
330
442
100
AcDbEntity
  8
0
  6
Continuous
 62
     7
370
    18
100
AcDbMText
 10
92.6483330431
 20
91.4297410583
 30
0.0
 40
3.5
 41
0.0
 71
     1
 72
     1
  1
37
  7
SLDTEXTSTYLE0
 11
-7.044195017643634E-15
 21
1.0
 31
0.0
 73
     1
 44
1.0
  0
ENDBLK
  5
444
330
442
100
AcDbEntity
  8
0
100
AcDbBlockEnd
  0
BLOCK
  5
450
330
44F
100
AcDbEntity
  8
0
100
AcDbBlockBegin
  2
_D_18
 70
     0
 10
0.0
 20
0.0
 30
0.0
  3
_D_18
  1

  0
SOLID
  5
452
330
44F
100
AcDbEntity
  8
0
  6
Continuous
 62
     7
370
    18
100
AcDbTrace
 10
139.7399300424
 20
66.6079712177
 30
0.0
 11
139.2319300424
 21
63.3059712177
 31
0.0
 12
140.2479300424
 22
63.3059712177
 32
0.0
 13
140.2479300424
 23
63.3059712177
 33
0.0
  0
SOLID
  5
453
330
44F
100
AcDbEntity
  8
0
  6
Continuous
 62
     7
370
    18
100
AcDbTrace
 10
139.7399300424
 20
85.5534039584
 30
0.0
 11
140.2479300424
 21
88.8554039584
 31
0.0
 12
139.2319300424
 22
88.8554039584
 32
0.0
 13
139.2319300424
 23
88.8554039584
 33
0.0
  0
LINE
  5
454
330
44F
100
AcDbEntity
  8
0
  6
Continuous
 62
     7
370
     0
100
AcDbLine
 10
135.6483449933
 20
66.6079712177
 30
0.0
 11
140.7399300424
 21
66.6079712177
 31
0.0
  0
LINE
  5
455
330
44F
100
AcDbEntity
  8
0
  6
Continuous
 62
     7
370
     0
100
AcDbLine
 10
135.6483449933
 20
85.5534039584
 30
0.0
 11
140.7399300424
 21
85.5534039584
 31
0.0
  0
LINE
  5
456
330
44F
100
AcDbEntity
  8
0
  6
Continuous
 62
     7
370
     0
100
AcDbLine
 10
139.7399300424
 20
66.6079712177
 30
0.0
 11
139.7399300424
 21
60.2579712177
 31
0.0
  0
LINE
  5
457
330
44F
100
AcDbEntity
  8
0
  6
Continuous
 62
     7
370
     0
100
AcDbLine
 10
139.7399300424
 20
66.6079712177
 30
0.0
 11
139.7399300424
 21
85.5534039584
 31
0.0
  0
LINE
  5
458
330
44F
100
AcDbEntity
  8
0
  6
Continuous
 62
     7
370
     0
100
AcDbLine
 10
139.7399300424
 20
85.5534039584
 30
0.0
 11
139.7399300424
 21
91.9034039584
 31
0.0
  0
MTEXT
  5
459
330
44F
100
AcDbEntity
  8
0
  6
Continuous
 62
     7
370
    18
100
AcDbMText
 10
135.2281931278
 20
70.2619373444
 30
0.0
 40
3.5
 41
0.0
 71
     1
 72
     1
  1
40,00
  7
SLDTEXTSTYLE0
 11
6.123233995736766E-17
 21
1.0
 31
0.0
 73
     1
 44
1.0
  0
ENDBLK
  5
451
330
44F
100
AcDbEntity
  8
0
100
AcDbBlockEnd
  0
BLOCK
  5
45B
330
45A
100
AcDbEntity
  8
0
100
AcDbBlockBegin
  2
SW_CENTERMARKSYMBOL_5
 70
     0
 10
0.0
 20
0.0
 30
0.0
  3
SW_CENTERMARKSYMBOL_5
  1

  0
LINE
  5
45D
330
45A
100
AcDbEntity
  8
0
  6
Continuous
 62
     0
370
    18
100
AcDbLine
 10
0.0
 20
0.0
 30
0.0
 11
0.0
 21
1.1840895463
 31
0.0
  0
LINE
  5
45E
330
45A
100
AcDbEntity
  8
0
  6
Continuous
 62
     0
370
    18
100
AcDbLine
 10
0.0
 20
0.0
 30
0.0
 11
-1.1840895463
 21
0.0
 31
0.0
  0
LINE
  5
45F
330
45A
100
AcDbEntity
  8
0
  6
Continuous
 62
     0
370
    18
100
AcDbLine
 10
0.0
 20
0.0
 30
0.0
 11
0.0
 21
-1.1840895463
 31
0.0
  0
LINE
  5
460
330
45A
100
AcDbEntity
  8
0
  6
Continuous
 62
     0
370
    18
100
AcDbLine
 10
0.0
 20
0.0
 30
0.0
 11
1.1840895463
 21
0.0
 31
0.0
  0
LINE
  5
461
330
45A
100
AcDbEntity
  8
0
  6
Continuous
 62
     0
370
    18
100
AcDbLine
 10
0.0
 20
2.3681790926
 30
0.0
 11
0.0
 21
3.5522686389
 31
0.0
  0
LINE
  5
462
330
45A
100
AcDbEntity
  8
0
  6
Continuous
 62
     0
370
    18
100
AcDbLine
 10
-2.3681790926
 20
0.0
 30
0.0
 11
-3.5522686389
 21
0.0
 31
0.0
  0
LINE
  5
463
330
45A
100
AcDbEntity
  8
0
  6
Continuous
 62
     0
370
    18
100
AcDbLine
 10
0.0
 20
-2.3681790926
 30
0.0
 11
0.0
 21
-3.5522686389
 31
0.0
  0
LINE
  5
464
330
45A
100
AcDbEntity
  8
0
  6
Continuous
 62
     0
370
    18
100
AcDbLine
 10
2.3681790926
 20
0.0
 30
0.0
 11
3.5522686389
 21
0.0
 31
0.0
  0
ENDBLK
  5
45C
330
45A
100
AcDbEntity
  8
0
100
AcDbBlockEnd
  0
BLOCK
  5
467
330
466
100
AcDbEntity
  8
0
100
AcDbBlockBegin
  2
SW_CENTERMARKSYMBOL_6
 70
     0
 10
0.0
 20
0.0
 30
0.0
  3
SW_CENTERMARKSYMBOL_6
  1

  0
LINE
  5
469
330
466
100
AcDbEntity
  8
0
  6
Continuous
 62
     0
370
    18
100
AcDbLine
 10
0.0
 20
0.0
 30
0.0
 11
0.0
 21
1.1840895463
 31
0.0
  0
LINE
  5
46A
330
466
100
AcDbEntity
  8
0
  6
Continuous
 62
     0
370
    18
100
AcDbLine
 10
0.0
 20
0.0
 30
0.0
 11
-1.1840895463
 21
0.0
 31
0.0
  0
LINE
  5
46B
330
466
100
AcDbEntity
  8
0
  6
Continuous
 62
     0
370
    18
100
AcDbLine
 10
0.0
 20
0.0
 30
0.0
 11
0.0
 21
-1.1840895463
 31
0.0
  0
LINE
  5
46C
330
466
100
AcDbEntity
  8
0
  6
Continuous
 62
     0
370
    18
100
AcDbLine
 10
0.0
 20
0.0
 30
0.0
 11
1.1840895463
 21
0.0
 31
0.0
  0
LINE
  5
46D
330
466
100
AcDbEntity
  8
0
  6
Continuous
 62
     0
370
    18
100
AcDbLine
 10
0.0
 20
2.3681790926
 30
0.0
 11
0.0
 21
3.197041775
 31
0.0
  0
LINE
  5
46E
330
466
100
AcDbEntity
  8
0
  6
Continuous
 62
     0
370
    18
100
AcDbLine
 10
-2.3681790926
 20
0.0
 30
0.0
 11
-3.197041775
 21
0.0
 31
0.0
  0
LINE
  5
46F
330
466
100
AcDbEntity
  8
0
  6
Continuous
 62
     0
370
    18
100
AcDbLine
 10
0.0
 20
-2.3681790926
 30
0.0
 11
0.0
 21
-3.197041775
 31
0.0
  0
LINE
  5
470
330
466
100
AcDbEntity
  8
0
  6
Continuous
 62
     0
370
    18
100
AcDbLine
 10
2.3681790926
 20
0.0
 30
0.0
 11
3.197041775
 21
0.0
 31
0.0
  0
ENDBLK
  5
468
330
466
100
AcDbEntity
  8
0
100
AcDbBlockEnd
  0
BLOCK
  5
473
330
472
100
AcDbEntity
  8
0
100
AcDbBlockBegin
  2
SW_CENTERMARKSYMBOL_7
 70
     0
 10
0.0
 20
0.0
 30
0.0
  3
SW_CENTERMARKSYMBOL_7
  1

  0
LINE
  5
475
330
472
100
AcDbEntity
  8
0
  6
Continuous
 62
     0
370
    18
100
AcDbLine
 10
0.0
 20
0.0
 30
0.0
 11
0.0
 21
1.1840895463
 31
0.0
  0
LINE
  5
476
330
472
100
AcDbEntity
  8
0
  6
Continuous
 62
     0
370
    18
100
AcDbLine
 10
0.0
 20
0.0
 30
0.0
 11
-1.1840895463
 21
0.0
 31
0.0
  0
LINE
  5
477
330
472
100
AcDbEntity
  8
0
  6
Continuous
 62
     0
370
    18
100
AcDbLine
 10
0.0
 20
0.0
 30
0.0
 11
0.0
 21
-1.1840895463
 31
0.0
  0
LINE
  5
478
330
472
100
AcDbEntity
  8
0
  6
Continuous
 62
     0
370
    18
100
AcDbLine
 10
0.0
 20
0.0
 30
0.0
 11
1.1840895463
 21
0.0
 31
0.0
  0
LINE
  5
479
330
472
100
AcDbEntity
  8
0
  6
Continuous
 62
     0
370
    18
100
AcDbLine
 10
0.0
 20
2.3681790926
 30
0.0
 11
0.0
 21
3.197041775
 31
0.0
  0
LINE
  5
47A
330
472
100
AcDbEntity
  8
0
  6
Continuous
 62
     0
370
    18
100
AcDbLine
 10
-2.3681790926
 20
0.0
 30
0.0
 11
-3.197041775
 21
0.0
 31
0.0
  0
LINE
  5
47B
330
472
100
AcDbEntity
  8
0
  6
Continuous
 62
     0
370
    18
100
AcDbLine
 10
0.0
 20
-2.3681790926
 30
0.0
 11
0.0
 21
-3.197041775
 31
0.0
  0
LINE
  5
47C
330
472
100
AcDbEntity
  8
0
  6
Continuous
 62
     0
370
    18
100
AcDbLine
 10
2.3681790926
 20
0.0
 30
0.0
 11
3.197041775
 21
0.0
 31
0.0
  0
ENDBLK
  5
474
330
472
100
AcDbEntity
  8
0
100
AcDbBlockEnd
  0
BLOCK
  5
47F
330
47E
100
AcDbEntity
  8
0
100
AcDbBlockBegin
  2
SW_CENTERMARKSYMBOL_8
 70
     0
 10
0.0
 20
0.0
 30
0.0
  3
SW_CENTERMARKSYMBOL_8
  1

  0
LINE
  5
481
330
47E
100
AcDbEntity
  8
0
  6
Continuous
 62
     0
370
    18
100
AcDbLine
 10
0.0
 20
0.0
 30
0.0
 11
0.0
 21
1.1840895463
 31
0.0
  0
LINE
  5
482
330
47E
100
AcDbEntity
  8
0
  6
Continuous
 62
     0
370
    18
100
AcDbLine
 10
0.0
 20
0.0
 30
0.0
 11
-1.1840895463
 21
0.0
 31
0.0
  0
LINE
  5
483
330
47E
100
AcDbEntity
  8
0
  6
Continuous
 62
     0
370
    18
100
AcDbLine
 10
0.0
 20
0.0
 30
0.0
 11
0.0
 21
-1.1840895463
 31
0.0
  0
LINE
  5
484
330
47E
100
AcDbEntity
  8
0
  6
Continuous
 62
     0
370
    18
100
AcDbLine
 10
0.0
 20
0.0
 30
0.0
 11
1.1840895463
 21
0.0
 31
0.0
  0
LINE
  5
485
330
47E
100
AcDbEntity
  8
0
  6
Continuous
 62
     0
370
    18
100
AcDbLine
 10
0.0
 20
2.3681790926
 30
0.0
 11
0.0
 21
3.5522686389
 31
0.0
  0
LINE
  5
486
330
47E
100
AcDbEntity
  8
0
  6
Continuous
 62
     0
370
    18
100
AcDbLine
 10
-2.3681790926
 20
0.0
 30
0.0
 11
-3.5522686389
 21
0.0
 31
0.0
  0
LINE
  5
487
330
47E
100
AcDbEntity
  8
0
  6
Continuous
 62
     0
370
    18
100
AcDbLine
 10
0.0
 20
-2.3681790926
 30
0.0
 11
0.0
 21
-3.5522686389
 31
0.0
  0
LINE
  5
488
330
47E
100
AcDbEntity
  8
0
  6
Continuous
 62
     0
370
    18
100
AcDbLine
 10
2.3681790926
 20
0.0
 30
0.0
 11
3.5522686389
 21
0.0
 31
0.0
  0
ENDBLK
  5
480
330
47E
100
AcDbEntity
  8
0
100
AcDbBlockEnd
  0
BLOCK
  5
48B
330
48A
100
AcDbEntity
  8
0
100
AcDbBlockBegin
  2
SW_CENTERMARKSYMBOL_9
 70
     0
 10
0.0
 20
0.0
 30
0.0
  3
SW_CENTERMARKSYMBOL_9
  1

  0
LINE
  5
48D
330
48A
100
AcDbEntity
  8
0
  6
Continuous
 62
     0
370
    18
100
AcDbLine
 10
0.0
 20
0.0
 30
0.0
 11
0.0
 21
1.1840895463
 31
0.0
  0
LINE
  5
48E
330
48A
100
AcDbEntity
  8
0
  6
Continuous
 62
     0
370
    18
100
AcDbLine
 10
0.0
 20
0.0
 30
0.0
 11
-1.1840895463
 21
0.0
 31
0.0
  0
LINE
  5
48F
330
48A
100
AcDbEntity
  8
0
  6
Continuous
 62
     0
370
    18
100
AcDbLine
 10
0.0
 20
0.0
 30
0.0
 11
0.0
 21
-1.1840895463
 31
0.0
  0
LINE
  5
490
330
48A
100
AcDbEntity
  8
0
  6
Continuous
 62
     0
370
    18
100
AcDbLine
 10
0.0
 20
0.0
 30
0.0
 11
1.1840895463
 21
0.0
 31
0.0
  0
LINE
  5
491
330
48A
100
AcDbEntity
  8
0
  6
Continuous
 62
     0
370
    18
100
AcDbLine
 10
0.0
 20
1.1840895463
 30
0.0
 11
0.0
 21
1.4801119329
 31
0.0
  0
LINE
  5
492
330
48A
100
AcDbEntity
  8
0
  6
Continuous
 62
     0
370
    18
100
AcDbLine
 10
-1.1840895463
 20
0.0
 30
0.0
 11
-1.4801119329
 21
0.0
 31
0.0
  0
LINE
  5
493
330
48A
100
AcDbEntity
  8
0
  6
Continuous
 62
     0
370
    18
100
AcDbLine
 10
0.0
 20
-1.1840895463
 30
0.0
 11
0.0
 21
-1.4801119329
 31
0.0
  0
LINE
  5
494
330
48A
100
AcDbEntity
  8
0
  6
Continuous
 62
     0
370
    18
100
AcDbLine
 10
1.1840895463
 20
0.0
 30
0.0
 11
1.4801119329
 21
0.0
 31
0.0
  0
ENDBLK
  5
48C
330
48A
100
AcDbEntity
  8
0
100
AcDbBlockEnd
  0
BLOCK
  5
497
330
496
100
AcDbEntity
  8
0
100
AcDbBlockBegin
  2
SW_CENTERMARKSYMBOL_10
 70
     0
 10
0.0
 20
0.0
 30
0.0
  3
SW_CENTERMARKSYMBOL_10
  1

  0
LINE
  5
499
330
496
100
AcDbEntity
  8
0
  6
Continuous
 62
     0
370
    18
100
AcDbLine
 10
0.0
 20
0.0
 30
0.0
 11
0.0
 21
1.1840895463
 31
0.0
  0
LINE
  5
49A
330
496
100
AcDbEntity
  8
0
  6
Continuous
 62
     0
370
    18
100
AcDbLine
 10
0.0
 20
0.0
 30
0.0
 11
-1.1840895463
 21
0.0
 31
0.0
  0
LINE
  5
49B
330
496
100
AcDbEntity
  8
0
  6
Continuous
 62
     0
370
    18
100
AcDbLine
 10
0.0
 20
0.0
 30
0.0
 11
0.0
 21
-1.1840895463
 31
0.0
  0
LINE
  5
49C
330
496
100
AcDbEntity
  8
0
  6
Continuous
 62
     0
370
    18
100
AcDbLine
 10
0.0
 20
0.0
 30
0.0
 11
1.1840895463
 21
0.0
 31
0.0
  0
LINE
  5
49D
330
496
100
AcDbEntity
  8
0
  6
Continuous
 62
     0
370
    18
100
AcDbLine
 10
0.0
 20
2.3681790926
 30
0.0
 11
0.0
 21
3.197041775
 31
0.0
  0
LINE
  5
49E
330
496
100
AcDbEntity
  8
0
  6
Continuous
 62
     0
370
    18
100
AcDbLine
 10
-2.3681790926
 20
0.0
 30
0.0
 11
-3.197041775
 21
0.0
 31
0.0
  0
LINE
  5
49F
330
496
100
AcDbEntity
  8
0
  6
Continuous
 62
     0
370
    18
100
AcDbLine
 10
0.0
 20
-2.3681790926
 30
0.0
 11
0.0
 21
-3.197041775
 31
0.0
  0
LINE
  5
4A0
330
496
100
AcDbEntity
  8
0
  6
Continuous
 62
     0
370
    18
100
AcDbLine
 10
2.3681790926
 20
0.0
 30
0.0
 11
3.197041775
 21
0.0
 31
0.0
  0
ENDBLK
  5
498
330
496
100
AcDbEntity
  8
0
100
AcDbBlockEnd
  0
BLOCK
  5
4A3
330
4A2
100
AcDbEntity
  8
0
100
AcDbBlockBegin
  2
SW_CENTERMARKSYMBOL_11
 70
     0
 10
0.0
 20
0.0
 30
0.0
  3
SW_CENTERMARKSYMBOL_11
  1

  0
LINE
  5
4A5
330
4A2
100
AcDbEntity
  8
0
  6
Continuous
 62
     0
370
    18
100
AcDbLine
 10
0.0
 20
0.0
 30
0.0
 11
0.0
 21
1.1840895463
 31
0.0
  0
LINE
  5
4A6
330
4A2
100
AcDbEntity
  8
0
  6
Continuous
 62
     0
370
    18
100
AcDbLine
 10
0.0
 20
0.0
 30
0.0
 11
-1.1840895463
 21
0.0
 31
0.0
  0
LINE
  5
4A7
330
4A2
100
AcDbEntity
  8
0
  6
Continuous
 62
     0
370
    18
100
AcDbLine
 10
0.0
 20
0.0
 30
0.0
 11
0.0
 21
-1.1840895463
 31
0.0
  0
LINE
  5
4A8
330
4A2
100
AcDbEntity
  8
0
  6
Continuous
 62
     0
370
    18
100
AcDbLine
 10
0.0
 20
0.0
 30
0.0
 11
1.1840895463
 21
0.0
 31
0.0
  0
LINE
  5
4A9
330
4A2
100
AcDbEntity
  8
0
  6
Continuous
 62
     0
370
    18
100
AcDbLine
 10
0.0
 20
2.3681790926
 30
0.0
 11
0.0
 21
3.197041775
 31
0.0
  0
LINE
  5
4AA
330
4A2
100
AcDbEntity
  8
0
  6
Continuous
 62
     0
370
    18
100
AcDbLine
 10
-2.3681790926
 20
0.0
 30
0.0
 11
-3.197041775
 21
0.0
 31
0.0
  0
LINE
  5
4AB
330
4A2
100
AcDbEntity
  8
0
  6
Continuous
 62
     0
370
    18
100
AcDbLine
 10
0.0
 20
-2.3681790926
 30
0.0
 11
0.0
 21
-3.197041775
 31
0.0
  0
LINE
  5
4AC
330
4A2
100
AcDbEntity
  8
0
  6
Continuous
 62
     0
370
    18
100
AcDbLine
 10
2.3681790926
 20
0.0
 30
0.0
 11
3.197041775
 21
0.0
 31
0.0
  0
ENDBLK
  5
4A4
330
4A2
100
AcDbEntity
  8
0
100
AcDbBlockEnd
  0
ENDSEC
  0
SECTION
  2
ENTITIES
  0
LINE
  5
74
330
1F
100
AcDbEntity
  8
0
  6
Continuous
 62
     7
370
    50
100
AcDbLine
 10
404.0
 20
14.25
 30
0.0
 11
584.0
 21
14.25
 31
0.0
  0
LINE
  5
75
330
1F
100
AcDbEntity
  8
0
  6
Continuous
 62
     7
370
    50
100
AcDbLine
 10
584.0
 20
48.25
 30
0.0
 11
404.0
 21
48.25
 31
0.0
  0
LINE
  5
76
330
1F
100
AcDbEntity
  8
0
  6
Continuous
 62
     7
370
    50
100
AcDbLine
 10
404.0
 20
65.25
 30
0.0
 11
584.0
 21
65.25
 31
0.0
  0
LINE
  5
77
330
1F
100
AcDbEntity
  8
0
  6
Continuous
 62
     7
370
    50
100
AcDbLine
 10
430.9909524338
 20
48.25
 30
0.0
 11
430.9909524338
 21
10.0
 31
0.0
  0
LINE
  5
78
330
1F
100
AcDbEntity
  8
0
  6
Continuous
 62
     7
370
    50
100
AcDbLine
 10
502.8
 20
31.25
 30
0.0
 11
404.0
 21
31.25
 31
0.0
  0
LINE
  5
79
330
1F
100
AcDbEntity
  8
0
  6
Continuous
 62
     7
370
    50
100
AcDbLine
 10
502.8
 20
35.5
 30
0.0
 11
404.0
 21
35.5
 31
0.0
  0
LINE
  5
7A
330
1F
100
AcDbEntity
  8
0
  6
Continuous
 62
     7
370
    50
100
AcDbLine
 10
502.8
 20
39.75
 30
0.0
 11
404.0
 21
39.75
 31
0.0
  0
LINE
  5
7B
330
1F
100
AcDbEntity
  8
0
  6
Continuous
 62
     7
370
    50
100
AcDbLine
 10
502.8
 20
44.0
 30
0.0
 11
404.0
 21
44.0
 31
0.0
  0
LINE
  5
7C
330
1F
100
AcDbEntity
  8
0
  6
Continuous
 62
     7
370
    50
100
AcDbLine
 10
458.6
 20
10.0
 30
0.0
 11
458.6
 21
48.25
 31
0.0
  0
LINE
  5
7D
330
1F
100
AcDbEntity
  8
0
  6
Continuous
 62
     7
370
    50
100
AcDbLine
 10
404.0
 20
65.25
 30
0.0
 11
404.0
 21
10.0
 31
0.0
  0
LINE
  5
7E
330
1F
100
AcDbEntity
  8
0
  6
Continuous
 62
     7
370
    50
100
AcDbLine
 10
416.0703737145
 20
48.25
 30
0.0
 11
416.0703737145
 21
10.0
 31
0.0
  0
LINE
  5
7F
330
1F
100
AcDbEntity
  8
0
  6
Continuous
 62
     7
370
    50
100
AcDbLine
 10
437.8
 20
48.25
 30
0.0
 11
437.8
 21
65.25
 31
0.0
  0
LINE
  5
80
330
1F
100
AcDbEntity
  8
0
  6
Continuous
 62
     7
370
    50
100
AcDbLine
 10
448.3989261635
 20
48.25
 30
0.0
 11
448.3989261635
 21
10.0
 31
0.0
  0
LINE
  5
81
330
1F
100
AcDbEntity
  8
0
  6
Continuous
 62
     7
370
    50
100
AcDbLine
 10
469.0
 20
31.25
 30
0.0
 11
469.0
 21
48.25
 31
0.0
  0
LINE
  5
82
330
1F
100
AcDbEntity
  8
0
  6
Continuous
 62
     7
370
    50
100
AcDbLine
 10
458.6
 20
18.5
 30
0.0
 11
404.0
 21
18.5
 31
0.0
  0
LINE
  5
83
330
1F
100
AcDbEntity
  8
0
  6
Continuous
 62
     7
370
    50
100
AcDbLine
 10
484.6
 20
65.25
 30
0.0
 11
484.6
 21
27.0
 31
0.0
  0
LINE
  5
84
330
1F
100
AcDbEntity
  8
0
  6
Continuous
 62
     7
370
    50
100
AcDbLine
 10
458.6
 20
22.749928
 30
0.0
 11
404.0
 21
22.749928
 31
0.0
  0
LINE
  5
85
330
1F
100
AcDbEntity
  8
0
  6
Continuous
 62
     7
370
    50
100
AcDbLine
 10
458.6
 20
27.0
 30
0.0
 11
404.0
 21
27.0
 31
0.0
  0
LINE
  5
86
330
1F
100
AcDbEntity
  8
0
  6
Continuous
 62
     7
370
    50
100
AcDbLine
 10
458.6
 20
27.0
 30
0.0
 11
584.0
 21
27.0
 31
0.0
  0
LINE
  5
87
330
1F
100
AcDbEntity
  8
0
  6
Continuous
 62
     7
370
    50
100
AcDbLine
 10
502.8
 20
65.25
 30
0.0
 11
502.8
 21
10.0
 31
0.0
  0
LINE
  5
88
330
1F
100
AcDbEntity
  8
0
  6
Continuous
 62
     7
370
    50
100
AcDbLine
 10
547.0
 20
10.0
 30
0.0
 11
547.0
 21
14.25
 31
0.0
  0
LINE
  5
89
330
1F
100
AcDbEntity
  8
0
  6
Continuous
 62
     7
370
    50
100
AcDbLine
 10
554.8
 20
58.875
 30
0.0
 11
554.8
 21
65.25
 31
0.0
  0
LINE
  5
8A
330
1F
100
AcDbEntity
  8
0
  6
Continuous
 62
     7
370
    50
100
AcDbLine
 10
571.0
 20
14.25
 30
0.0
 11
571.0
 21
27.0
 31
0.0
  0
LINE
  5
8B
330
1F
100
AcDbEntity
  8
0
  6
Continuous
 62
     7
370
    50
100
AcDbLine
 10
584.0
 20
58.875
 30
0.0
 11
502.8
 21
58.875
 31
0.0
  0
LINE
  5
8C
330
1F
100
AcDbEntity
  8
0
  6
Continuous
 62
     7
370
    50
100
AcDbLine
 10
584.0
 20
18.5
 30
0.0
 11
571.0
 21
18.5
 31
0.0
  0
LINE
  5
8D
330
1F
100
AcDbEntity
  8
0
  6
Continuous
 62
     7
370
    70
100
AcDbLine
 10
20.0
 20
10.0
 30
0.0
 11
20.0
 21
410.0
 31
0.0
  0
LINE
  5
8E
330
1F
100
AcDbEntity
  8
0
  6
Continuous
 62
     7
370
    70
100
AcDbLine
 10
20.0
 20
410.0
 30
0.0
 11
584.0
 21
410.0
 31
0.0
  0
LINE
  5
8F
330
1F
100
AcDbEntity
  8
0
  6
Continuous
 62
     7
370
    70
100
AcDbLine
 10
584.0
 20
410.0
 30
0.0
 11
584.0
 21
10.0
 31
0.0
  0
LINE
  5
90
330
1F
100
AcDbEntity
  8
0
  6
Continuous
 62
     7
370
    70
100
AcDbLine
 10
584.0
 20
10.0
 30
0.0
 11
20.0
 21
10.0
 31
0.0
  0
LINE
  5
91
330
1F
100
AcDbEntity
  8
0
  6
Continuous
 62
     7
370
    70
100
AcDbLine
 10
15.0
 20
5.0
 30
0.0
 11
15.0
 21
415.0
 31
0.0
  0
LINE
  5
92
330
1F
100
AcDbEntity
  8
0
  6
Continuous
 62
     7
370
    70
100
AcDbLine
 10
15.0
 20
415.0
 30
0.0
 11
589.0
 21
415.0
 31
0.0
  0
LINE
  5
93
330
1F
100
AcDbEntity
  8
0
  6
Continuous
 62
     7
370
    70
100
AcDbLine
 10
589.0
 20
415.0
 30
0.0
 11
589.0
 21
5.0
 31
0.0
  0
LINE
  5
94
330
1F
100
AcDbEntity
  8
0
  6
Continuous
 62
     7
370
    70
100
AcDbLine
 10
589.0
 20
5.0
 30
0.0
 11
15.0
 21
5.0
 31
0.0
  0
LINE
  5
95
330
1F
100
AcDbEntity
  8
0
  6
Continuous
 62
     7
370
    35
100
AcDbLine
 10
15.0
 20
210.0
 30
0.0
 11
25.0
 21
210.0
 31
0.0
  0
LINE
  5
96
330
1F
100
AcDbEntity
  8
0
  6
Continuous
 62
     7
370
    35
100
AcDbLine
 10
302.0
 20
415.0
 30
0.0
 11
302.0
 21
405.0
 31
0.0
  0
LINE
  5
97
330
1F
100
AcDbEntity
  8
0
  6
Continuous
 62
     7
370
    35
100
AcDbLine
 10
589.0
 20
210.0
 30
0.0
 11
579.0
 21
210.0
 31
0.0
  0
LINE
  5
98
330
1F
100
AcDbEntity
  8
0
  6
Continuous
 62
     7
370
    35
100
AcDbLine
 10
302.0
 20
5.0
 30
0.0
 11
302.0
 21
15.0
 31
0.0
  0
LINE
  5
99
330
1F
100
AcDbEntity
  8
0
  6
Continuous
 62
     7
370
    35
100
AcDbLine
 10
20.0
 20
60.0
 30
0.0
 11
15.0
 21
60.0
 31
0.0
  0
LINE
  5
9A
330
1F
100
AcDbEntity
  8
0
  6
Continuous
 62
     7
370
    35
100
AcDbLine
 10
584.0
 20
60.0
 30
0.0
 11
589.0
 21
60.0
 31
0.0
  0
LINE
  5
9B
330
1F
100
AcDbEntity
  8
0
  6
Continuous
 62
     7
370
    35
100
AcDbLine
 10
20.0
 20
110.0
 30
0.0
 11
15.0
 21
110.0
 31
0.0
  0
LINE
  5
9C
330
1F
100
AcDbEntity
  8
0
  6
Continuous
 62
     7
370
    35
100
AcDbLine
 10
584.0
 20
110.0
 30
0.0
 11
589.0
 21
110.0
 31
0.0
  0
LINE
  5
9D
330
1F
100
AcDbEntity
  8
0
  6
Continuous
 62
     7
370
    35
100
AcDbLine
 10
20.0
 20
160.0
 30
0.0
 11
15.0
 21
160.0
 31
0.0
  0
LINE
  5
9E
330
1F
100
AcDbEntity
  8
0
  6
Continuous
 62
     7
370
    35
100
AcDbLine
 10
584.0
 20
160.0
 30
0.0
 11
589.0
 21
160.0
 31
0.0
  0
LINE
  5
9F
330
1F
100
AcDbEntity
  8
0
  6
Continuous
 62
     7
370
    35
100
AcDbLine
 10
20.0
 20
210.0
 30
0.0
 11
15.0
 21
210.0
 31
0.0
  0
LINE
  5
A0
330
1F
100
AcDbEntity
  8
0
  6
Continuous
 62
     7
370
    35
100
AcDbLine
 10
584.0
 20
210.0
 30
0.0
 11
589.0
 21
210.0
 31
0.0
  0
LINE
  5
A1
330
1F
100
AcDbEntity
  8
0
  6
Continuous
 62
     7
370
    35
100
AcDbLine
 10
20.0
 20
260.0
 30
0.0
 11
15.0
 21
260.0
 31
0.0
  0
LINE
  5
A2
330
1F
100
AcDbEntity
  8
0
  6
Continuous
 62
     7
370
    35
100
AcDbLine
 10
584.0
 20
260.0
 30
0.0
 11
589.0
 21
260.0
 31
0.0
  0
LINE
  5
A3
330
1F
100
AcDbEntity
  8
0
  6
Continuous
 62
     7
370
    35
100
AcDbLine
 10
20.0
 20
310.0
 30
0.0
 11
15.0
 21
310.0
 31
0.0
  0
LINE
  5
A4
330
1F
100
AcDbEntity
  8
0
  6
Continuous
 62
     7
370
    35
100
AcDbLine
 10
584.0
 20
310.0
 30
0.0
 11
589.0
 21
310.0
 31
0.0
  0
LINE
  5
A5
330
1F
100
AcDbEntity
  8
0
  6
Continuous
 62
     7
370
    35
100
AcDbLine
 10
20.0
 20
360.0
 30
0.0
 11
15.0
 21
360.0
 31
0.0
  0
LINE
  5
A6
330
1F
100
AcDbEntity
  8
0
  6
Continuous
 62
     7
370
    35
100
AcDbLine
 10
584.0
 20
360.0
 30
0.0
 11
589.0
 21
360.0
 31
0.0
  0
LINE
  5
A7
330
1F
100
AcDbEntity
  8
0
  6
Continuous
 62
     7
370
    35
100
AcDbLine
 10
52.0
 20
410.0
 30
0.0
 11
52.0
 21
415.0
 31
0.0
  0
LINE
  5
A8
330
1F
100
AcDbEntity
  8
0
  6
Continuous
 62
     7
370
    35
100
AcDbLine
 10
52.0
 20
10.0
 30
0.0
 11
52.0
 21
5.0
 31
0.0
  0
LINE
  5
A9
330
1F
100
AcDbEntity
  8
0
  6
Continuous
 62
     7
370
    35
100
AcDbLine
 10
102.0
 20
410.0
 30
0.0
 11
102.0
 21
415.0
 31
0.0
  0
LINE
  5
AA
330
1F
100
AcDbEntity
  8
0
  6
Continuous
 62
     7
370
    35
100
AcDbLine
 10
102.0
 20
10.0
 30
0.0
 11
102.0
 21
5.0
 31
0.0
  0
LINE
  5
AB
330
1F
100
AcDbEntity
  8
0
  6
Continuous
 62
     7
370
    35
100
AcDbLine
 10
152.0
 20
410.0
 30
0.0
 11
152.0
 21
415.0
 31
0.0
  0
LINE
  5
AC
330
1F
100
AcDbEntity
  8
0
  6
Continuous
 62
     7
370
    35
100
AcDbLine
 10
152.0
 20
10.0
 30
0.0
 11
152.0
 21
5.0
 31
0.0
  0
LINE
  5
AD
330
1F
100
AcDbEntity
  8
0
  6
Continuous
 62
     7
370
    35
100
AcDbLine
 10
202.0
 20
410.0
 30
0.0
 11
202.0
 21
415.0
 31
0.0
  0
LINE
  5
AE
330
1F
100
AcDbEntity
  8
0
  6
Continuous
 62
     7
370
    35
100
AcDbLine
 10
202.0
 20
10.0
 30
0.0
 11
202.0
 21
5.0
 31
0.0
  0
LINE
  5
AF
330
1F
100
AcDbEntity
  8
0
  6
Continuous
 62
     7
370
    35
100
AcDbLine
 10
252.0
 20
410.0
 30
0.0
 11
252.0
 21
415.0
 31
0.0
  0
LINE
  5
B0
330
1F
100
AcDbEntity
  8
0
  6
Continuous
 62
     7
370
    35
100
AcDbLine
 10
252.0
 20
10.0
 30
0.0
 11
252.0
 21
5.0
 31
0.0
  0
LINE
  5
B1
330
1F
100
AcDbEntity
  8
0
  6
Continuous
 62
     7
370
    35
100
AcDbLine
 10
302.0
 20
410.0
 30
0.0
 11
302.0
 21
415.0
 31
0.0
  0
LINE
  5
B2
330
1F
100
AcDbEntity
  8
0
  6
Continuous
 62
     7
370
    35
100
AcDbLine
 10
302.0
 20
10.0
 30
0.0
 11
302.0
 21
5.0
 31
0.0
  0
LINE
  5
B3
330
1F
100
AcDbEntity
  8
0
  6
Continuous
 62
     7
370
    35
100
AcDbLine
 10
352.0
 20
410.0
 30
0.0
 11
352.0
 21
415.0
 31
0.0
  0
LINE
  5
B4
330
1F
100
AcDbEntity
  8
0
  6
Continuous
 62
     7
370
    35
100
AcDbLine
 10
352.0
 20
10.0
 30
0.0
 11
352.0
 21
5.0
 31
0.0
  0
LINE
  5
B5
330
1F
100
AcDbEntity
  8
0
  6
Continuous
 62
     7
370
    35
100
AcDbLine
 10
402.0
 20
410.0
 30
0.0
 11
402.0
 21
415.0
 31
0.0
  0
LINE
  5
B6
330
1F
100
AcDbEntity
  8
0
  6
Continuous
 62
     7
370
    35
100
AcDbLine
 10
402.0
 20
10.0
 30
0.0
 11
402.0
 21
5.0
 31
0.0
  0
LINE
  5
B7
330
1F
100
AcDbEntity
  8
0
  6
Continuous
 62
     7
370
    35
100
AcDbLine
 10
452.0
 20
410.0
 30
0.0
 11
452.0
 21
415.0
 31
0.0
  0
LINE
  5
B8
330
1F
100
AcDbEntity
  8
0
  6
Continuous
 62
     7
370
    35
100
AcDbLine
 10
452.0
 20
10.0
 30
0.0
 11
452.0
 21
5.0
 31
0.0
  0
LINE
  5
B9
330
1F
100
AcDbEntity
  8
0
  6
Continuous
 62
     7
370
    35
100
AcDbLine
 10
502.0
 20
410.0
 30
0.0
 11
502.0
 21
415.0
 31
0.0
  0
LINE
  5
BA
330
1F
100
AcDbEntity
  8
0
  6
Continuous
 62
     7
370
    35
100
AcDbLine
 10
502.0
 20
10.0
 30
0.0
 11
502.0
 21
5.0
 31
0.0
  0
LINE
  5
BB
330
1F
100
AcDbEntity
  8
0
  6
Continuous
 62
     7
370
    35
100
AcDbLine
 10
552.0
 20
410.0
 30
0.0
 11
552.0
 21
415.0
 31
0.0
  0
LINE
  5
BC
330
1F
100
AcDbEntity
  8
0
  6
Continuous
 62
     7
370
    35
100
AcDbLine
 10
552.0
 20
10.0
 30
0.0
 11
552.0
 21
5.0
 31
0.0
  0
MTEXT
  5
BE
330
1F
100
AcDbEntity
  8
0
  6
Continuous
 62
     7
370
     0
100
AcDbMText
 10
17.3396881428
 20
36.9462239326
 30
0.0
 40
3.96875
 41
0.0
 71
     2
 72
     1
  1
A
  7
SLDTEXTSTYLE0
 73
     1
 44
1.0
  0
MTEXT
  5
BF
330
1F
100
AcDbEntity
  8
0
  6
Continuous
 62
     7
370
     0
100
AcDbMText
 10
586.3396881428
 20
36.9462239326
 30
0.0
 40
3.96875
 41
0.0
 71
     2
 72
     1
  1
A
  7
SLDTEXTSTYLE0
 73
     1
 44
1.0
  0
MTEXT
  5
C0
330
1F
100
AcDbEntity
  8
0
  6
Continuous
 62
     7
370
     0
100
AcDbMText
 10
17.4706018241
 20
86.9957779464
 30
0.0
 40
3.96875
 41
0.0
 71
     2
 72
     1
  1
B
  7
SLDTEXTSTYLE0
 73
     1
 44
1.0
  0
MTEXT
  5
C1
330
1F
100
AcDbEntity
  8
0
  6
Continuous
 62
     7
370
     0
100
AcDbMText
 10
586.4706018241
 20
86.9957779464
 30
0.0
 40
3.96875
 41
0.0
 71
     2
 72
     1
  1
B
  7
SLDTEXTSTYLE0
 73
     1
 44
1.0
  0
MTEXT
  5
C2
330
1F
100
AcDbEntity
  8
0
  6
Continuous
 62
     7
370
     0
100
AcDbMText
 10
17.458658902
 20
136.9462239326
 30
0.0
 40
3.96875
 41
0.0
 71
     2
 72
     1
  1
C
  7
SLDTEXTSTYLE0
 73
     1
 44
1.0
  0
MTEXT
  5
C3
330
1F
100
AcDbEntity
  8
0
  6
Continuous
 62
     7
370
     0
100
AcDbMText
 10
586.458658902
 20
136.9462239326
 30
0.0
 40
3.96875
 41
0.0
 71
     2
 72
     1
  1
C
  7
SLDTEXTSTYLE0
 73
     1
 44
1.0
  0
MTEXT
  5
C4
330
1F
100
AcDbEntity
  8
0
  6
Continuous
 62
     7
370
     0
100
AcDbMText
 10
17.4526872821
 20
186.9957779464
 30
0.0
 40
3.96875
 41
0.0
 71
     2
 72
     1
  1
D
  7
SLDTEXTSTYLE0
 73
     1
 44
1.0
  0
MTEXT
  5
C5
330
1F
100
AcDbEntity
  8
0
  6
Continuous
 62
     7
370
     0
100
AcDbMText
 10
586.4526872821
 20
186.9957779464
 30
0.0
 40
3.96875
 41
0.0
 71
     2
 72
     1
  1
D
  7
SLDTEXTSTYLE0
 73
     1
 44
1.0
  0
MTEXT
  5
C6
330
1F
100
AcDbEntity
  8
0
  6
Continuous
 62
     7
370
     0
100
AcDbMText
 10
17.5078089051
 20
236.9462239326
 30
0.0
 40
3.96875
 41
0.0
 71
     2
 72
     1
  1
E
  7
SLDTEXTSTYLE0
 73
     1
 44
1.0
  0
MTEXT
  5
C7
330
1F
100
AcDbEntity
  8
0
  6
Continuous
 62
     7
370
     0
100
AcDbMText
 10
586.5078089051
 20
236.9462239326
 30
0.0
 40
3.96875
 41
0.0
 71
     2
 72
     1
  1
E
  7
SLDTEXTSTYLE0
 73
     1
 44
1.0
  0
MTEXT
  5
C8
330
1F
100
AcDbEntity
  8
0
  6
Continuous
 62
     7
370
     0
100
AcDbMText
 10
17.4577402091
 20
286.9957779464
 30
0.0
 40
3.96875
 41
0.0
 71
     2
 72
     1
  1
F
  7
SLDTEXTSTYLE0
 73
     1
 44
1.0
  0
MTEXT
  5
C9
330
1F
100
AcDbEntity
  8
0
  6
Continuous
 62
     7
370
     0
100
AcDbMText
 10
586.4577402091
 20
286.9957779464
 30
0.0
 40
3.96875
 41
0.0
 71
     2
 72
     1
  1
F
  7
SLDTEXTSTYLE0
 73
     1
 44
1.0
  0
MTEXT
  5
CA
330
1F
100
AcDbEntity
  8
0
  6
Continuous
 62
     7
370
     0
100
AcDbMText
 10
17.4866788853
 20
336.9462239326
 30
0.0
 40
3.96875
 41
0.0
 71
     2
 72
     1
  1
G
  7
SLDTEXTSTYLE0
 73
     1
 44
1.0
  0
MTEXT
  5
CB
330
1F
100
AcDbEntity
  8
0
  6
Continuous
 62
     7
370
     0
100
AcDbMText
 10
586.4866788853
 20
336.9462239326
 30
0.0
 40
3.96875
 41
0.0
 71
     2
 72
     1
  1
G
  7
SLDTEXTSTYLE0
 73
     1
 44
1.0
  0
MTEXT
  5
CC
330
1F
100
AcDbEntity
  8
0
  6
Continuous
 62
     7
370
     0
100
AcDbMText
 10
17.4903537836
 20
386.9957779464
 30
0.0
 40
3.96875
 41
0.0
 71
     2
 72
     1
  1
H
  7
SLDTEXTSTYLE0
 73
     1
 44
1.0
  0
MTEXT
  5
CD
330
1F
100
AcDbEntity
  8
0
  6
Continuous
 62
     7
370
     0
100
AcDbMText
 10
586.4903537836
 20
386.9957779464
 30
0.0
 40
3.96875
 41
0.0
 71
     2
 72
     1
  1
H
  7
SLDTEXTSTYLE0
 73
     1
 44
1.0
  0
MTEXT
  5
CE
330
1F
100
AcDbEntity
  8
0
  6
Continuous
 62
     7
370
     0
100
AcDbMText
 10
35.9200738929
 20
9.4957779464
 30
0.0
 40
3.96875
 41
0.0
 71
     2
 72
     1
  1
12
  7
SLDTEXTSTYLE0
 73
     1
 44
1.0
  0
MTEXT
  5
CF
330
1F
100
AcDbEntity
  8
0
  6
Continuous
 62
     7
370
     0
100
AcDbMText
 10
35.9200738929
 20
414.4462239326
 30
0.0
 40
3.96875
 41
0.0
 71
     2
 72
     1
  1
12
  7
SLDTEXTSTYLE0
 73
     1
 44
1.0
  0
MTEXT
  5
D0
330
1F
100
AcDbEntity
  8
0
  6
Continuous
 62
     7
370
     0
100
AcDbMText
 10
76.9200738929
 20
9.4957779464
 30
0.0
 40
3.96875
 41
0.0
 71
     2
 72
     1
  1
11
  7
SLDTEXTSTYLE0
 73
     1
 44
1.0
  0
MTEXT
  5
D1
330
1F
100
AcDbEntity
  8
0
  6
Continuous
 62
     7
370
     0
100
AcDbMText
 10
76.9200738929
 20
414.4462239326
 30
0.0
 40
3.96875
 41
0.0
 71
     2
 72
     1
  1
11
  7
SLDTEXTSTYLE0
 73
     1
 44
1.0
  0
MTEXT
  5
D2
330
1F
100
AcDbEntity
  8
0
  6
Continuous
 62
     7
370
     0
100
AcDbMText
 10
126.9200738929
 20
9.4957779464
 30
0.0
 40
3.96875
 41
0.0
 71
     2
 72
     1
  1
10
  7
SLDTEXTSTYLE0
 73
     1
 44
1.0
  0
MTEXT
  5
D3
330
1F
100
AcDbEntity
  8
0
  6
Continuous
 62
     7
370
     0
100
AcDbMText
 10
126.9200738929
 20
414.4462239326
 30
0.0
 40
3.96875
 41
0.0
 71
     2
 72
     1
  1
10
  7
SLDTEXTSTYLE0
 73
     1
 44
1.0
  0
MTEXT
  5
D4
330
1F
100
AcDbEntity
  8
0
  6
Continuous
 62
     7
370
     0
100
AcDbMText
 10
176.9600369465
 20
9.4957779464
 30
0.0
 40
3.96875
 41
0.0
 71
     2
 72
     1
  1
9
  7
SLDTEXTSTYLE0
 73
     1
 44
1.0
  0
MTEXT
  5
D5
330
1F
100
AcDbEntity
  8
0
  6
Continuous
 62
     7
370
     0
100
AcDbMText
 10
176.9600369465
 20
414.4462239326
 30
0.0
 40
3.96875
 41
0.0
 71
     2
 72
     1
  1
9
  7
SLDTEXTSTYLE0
 73
     1
 44
1.0
  0
MTEXT
  5
D6
330
1F
100
AcDbEntity
  8
0
  6
Continuous
 62
     7
370
     0
100
AcDbMText
 10
226.9600369465
 20
9.4957779464
 30
0.0
 40
3.96875
 41
0.0
 71
     2
 72
     1
  1
8
  7
SLDTEXTSTYLE0
 73
     1
 44
1.0
  0
MTEXT
  5
D7
330
1F
100
AcDbEntity
  8
0
  6
Continuous
 62
     7
370
     0
100
AcDbMText
 10
226.9600369465
 20
414.4462239326
 30
0.0
 40
3.96875
 41
0.0
 71
     2
 72
     1
  1
8
  7
SLDTEXTSTYLE0
 73
     1
 44
1.0
  0
MTEXT
  5
D8
330
1F
100
AcDbEntity
  8
0
  6
Continuous
 62
     7
370
     0
100
AcDbMText
 10
276.9600369465
 20
9.4957779464
 30
0.0
 40
3.96875
 41
0.0
 71
     2
 72
     1
  1
7
  7
SLDTEXTSTYLE0
 73
     1
 44
1.0
  0
MTEXT
  5
D9
330
1F
100
AcDbEntity
  8
0
  6
Continuous
 62
     7
370
     0
100
AcDbMText
 10
276.9600369465
 20
414.4462239326
 30
0.0
 40
3.96875
 41
0.0
 71
     2
 72
     1
  1
7
  7
SLDTEXTSTYLE0
 73
     1
 44
1.0
  0
MTEXT
  5
DA
330
1F
100
AcDbEntity
  8
0
  6
Continuous
 62
     7
370
     0
100
AcDbMText
 10
326.9600369465
 20
9.4957779464
 30
0.0
 40
3.96875
 41
0.0
 71
     2
 72
     1
  1
6
  7
SLDTEXTSTYLE0
 73
     1
 44
1.0
  0
MTEXT
  5
DB
330
1F
100
AcDbEntity
  8
0
  6
Continuous
 62
     7
370
     0
100
AcDbMText
 10
326.9600369465
 20
414.4462239326
 30
0.0
 40
3.96875
 41
0.0
 71
     2
 72
     1
  1
6
  7
SLDTEXTSTYLE0
 73
     1
 44
1.0
  0
MTEXT
  5
DC
330
1F
100
AcDbEntity
  8
0
  6
Continuous
 62
     7
370
     0
100
AcDbMText
 10
376.9600369465
 20
9.4957779464
 30
0.0
 40
3.96875
 41
0.0
 71
     2
 72
     1
  1
5
  7
SLDTEXTSTYLE0
 73
     1
 44
1.0
  0
MTEXT
  5
DD
330
1F
100
AcDbEntity
  8
0
  6
Continuous
 62
     7
370
     0
100
AcDbMText
 10
376.9600369465
 20
414.4462239326
 30
0.0
 40
3.96875
 41
0.0
 71
     2
 72
     1
  1
5
  7
SLDTEXTSTYLE0
 73
     1
 44
1.0
  0
MTEXT
  5
DE
330
1F
100
AcDbEntity
  8
0
  6
Continuous
 62
     7
370
     0
100
AcDbMText
 10
426.9600369465
 20
9.4957779464
 30
0.0
 40
3.96875
 41
0.0
 71
     2
 72
     1
  1
4
  7
SLDTEXTSTYLE0
 73
     1
 44
1.0
  0
MTEXT
  5
DF
330
1F
100
AcDbEntity
  8
0
  6
Continuous
 62
     7
370
     0
100
AcDbMText
 10
426.9600369465
 20
414.4462239326
 30
0.0
 40
3.96875
 41
0.0
 71
     2
 72
     1
  1
4
  7
SLDTEXTSTYLE0
 73
     1
 44
1.0
  0
MTEXT
  5
E0
330
1F
100
AcDbEntity
  8
0
  6
Continuous
 62
     7
370
     0
100
AcDbMText
 10
476.9600369465
 20
9.4957779464
 30
0.0
 40
3.96875
 41
0.0
 71
     2
 72
     1
  1
3
  7
SLDTEXTSTYLE0
 73
     1
 44
1.0
  0
MTEXT
  5
E1
330
1F
100
AcDbEntity
  8
0
  6
Continuous
 62
     7
370
     0
100
AcDbMText
 10
476.9600369465
 20
414.4462239326
 30
0.0
 40
3.96875
 41
0.0
 71
     2
 72
     1
  1
3
  7
SLDTEXTSTYLE0
 73
     1
 44
1.0
  0
MTEXT
  5
E2
330
1F
100
AcDbEntity
  8
0
  6
Continuous
 62
     7
370
     0
100
AcDbMText
 10
526.9600369465
 20
9.4957779464
 30
0.0
 40
3.96875
 41
0.0
 71
     2
 72
     1
  1
2
  7
SLDTEXTSTYLE0
 73
     1
 44
1.0
  0
MTEXT
  5
E3
330
1F
100
AcDbEntity
  8
0
  6
Continuous
 62
     7
370
     0
100
AcDbMText
 10
526.9600369465
 20
414.4462239326
 30
0.0
 40
3.96875
 41
0.0
 71
     2
 72
     1
  1
2
  7
SLDTEXTSTYLE0
 73
     1
 44
1.0
  0
MTEXT
  5
E4
330
1F
100
AcDbEntity
  8
0
  6
Continuous
 62
     7
370
     0
100
AcDbMText
 10
567.9600369465
 20
9.4957779464
 30
0.0
 40
3.96875
 41
0.0
 71
     2
 72
     1
  1
1
  7
SLDTEXTSTYLE0
 73
     1
 44
1.0
  0
MTEXT
  5
E5
330
1F
100
AcDbEntity
  8
0
  6
Continuous
 62
     7
370
     0
100
AcDbMText
 10
567.9600369465
 20
414.4462239326
 30
0.0
 40
3.96875
 41
0.0
 71
     2
 72
     1
  1
1
  7
SLDTEXTSTYLE0
 73
     1
 44
1.0
  0
MTEXT
  5
E6
330
1F
100
AcDbEntity
  8
0
  6
Continuous
 62
     7
370
     0
100
AcDbMText
 10
539.1205685421
 20
23.6069112001
 30
0.0
 40
6.35
 41
0.0
 71
     2
 72
     1
  1
CE025EEGGHHGM020_#_##Svoboda
  7
SLDTEXTSTYLE0
 73
     1
 44
1.0
  0
MTEXT
  5
E7
330
1F
100
AcDbEntity
  8
0
  6
Continuous
 62
     7
370
     0
100
AcDbMText
 10
459.6178111281
 20
12.9493119036
 30
0.0
 40
1.4986
 41
0.0
 71
     1
 72
     1
  1
HMOTNOST:
  7
SLDTEXTSTYLE0
 73
     1
 44
1.0
  0
MTEXT
  5
E8
330
1F
100
AcDbEntity
  8
0
  6
Continuous
 62
     7
370
     0
100
AcDbMText
 10
574.8711564346
 20
24.406388569
 30
0.0
 40
2.9104166667
 41
0.0
 71
     1
 72
     1
  1
A2
  7
SLDTEXTSTYLE0
 73
     1
 44
1.0
  0
MTEXT
  5
EA
330
1F
100
AcDbEntity
  8
0
  6
Continuous
 62
     7
370
     0
100
AcDbMText
 10
548.4782944278
 20
12.9000872745
 30
0.0
 40
1.5
 41
0.0
 71
     1
 72
     1
  1
LIST 1 Z 1 LISTŮ
  7
SLDTEXTSTYLE1
 73
     1
 44
1.0
  0
MTEXT
  5
EC
330
1F
100
AcDbEntity
  8
0
  6
Continuous
 62
     7
370
     0
100
AcDbMText
 10
504.0739661175
 20
12.9000872745
 30
0.0
 40
1.5
 41
0.0
 71
     1
 72
     1
  1
MĚŘÍTKO:1:1
  7
SLDTEXTSTYLE2
 73
     1
 44
1.0
  0
MTEXT
  5
ED
330
1F
100
AcDbEntity
  8
0
  6
Continuous
 62
     7
370
     0
100
AcDbMText
 10
504.2786531243
 20
25.9860562892
 30
0.0
 40
1.5
 41
0.0
 71
     1
 72
     1
  1
Č. VÝKRESU
  7
SLDTEXTSTYLE2
 73
     1
 44
1.0
  0
MTEXT
  5
EE
330
1F
100
AcDbEntity
  8
0
  6
Continuous
 62
     7
370
     0
100
AcDbMText
 10
503.9561869366
 20
46.5761792212
 30
0.0
 40
1.5
 41
0.0
 71
     1
 72
     1
  1
NÁZEV:
  7
SLDTEXTSTYLE0
 73
     1
 44
1.0
  0
MTEXT
  5
EF
330
1F
100
AcDbEntity
  8
0
  6
Continuous
 62
     7
370
     0
100
AcDbMText
 10
557.3275816993
 20
62.3349086805
 30
0.0
 40
1.5
 41
0.0
 71
     1
 72
     1
  1
ZMĚNA
  7
SLDTEXTSTYLE2
 73
     1
 44
1.0
  0
MTEXT
  5
F0
330
1F
100
AcDbEntity
  8
0
  6
Continuous
 62
     7
370
     0
100
AcDbMText
 10
516.6146405229
 20
62.5329935751
 30
0.0
 40
1.5
 41
0.0
 71
     1
 72
     1
  1
NEUPRAVOVAT MĚŘÍTKO VÝKRESU
  7
SLDTEXTSTYLE2
 73
     1
 44
1.0
  0
MTEXT
  5
F1
330
1F
100
AcDbEntity
  8
0
  6
Continuous
 62
     7
370
     0
100
AcDbMText
 10
459.6458623088
 20
25.9860562892
 30
0.0
 40
1.5
 41
0.0
 71
     1
 72
     1
  1
MATERIÁL:
  7
SLDTEXTSTYLE0
 73
     1
 44
1.0
  0
MTEXT
  5
F2
330
1F
100
AcDbEntity
  8
0
  6
Continuous
 62
     7
370
     0
100
AcDbMText
 10
451.2147019657
 20
46.5761792212
 30
0.0
 40
1.5
 41
0.0
 71
     1
 72
     1
  1
DATUM
  7
SLDTEXTSTYLE0
 73
     1
 44
1.0
  0
MTEXT
  5
F3
330
1F
100
AcDbEntity
  8
0
  6
Continuous
 62
     7
370
     0
100
AcDbMText
 10
434.0335875632
 20
46.5617563795
 30
0.0
 40
1.5
 41
0.0
 71
     1
 72
     1
  1
PODPIS
  7
SLDTEXTSTYLE0
 73
     1
 44
1.0
  0
MTEXT
  5
F4
330
1F
100
AcDbEntity
  8
0
  6
Continuous
 62
     7
370
     0
100
AcDbMText
 10
418.3222392177
 20
46.5014826335
 30
0.0
 40
1.5
 41
0.0
 71
     1
 72
     1
  1
JMÉNO
  7
SLDTEXTSTYLE0
 73
     1
 44
1.0
  0
INSERT
  5
FA
330
1F
100
AcDbEntity
  8
0
  6
Continuous
 62
     7
370
     0
100
AcDbBlockReference
  2
SW_NOTE_0
 10
485.3092156863
 20
62.069489643
 30
0.0
  0
MTEXT
  5
FB
330
1F
100
AcDbEntity
  8
0
  6
Continuous
 62
     7
370
     0
100
AcDbMText
 10
438.3712921668
 20
63.9192719951
 30
0.0
 40
1.5
 41
0.0
 71
     1
 72
     1
  1
OPRACOVÁNÍ:
  7
SLDTEXTSTYLE0
 73
     1
 44
1.0
  0
INSERT
  5
105
330
1F
100
AcDbEntity
  8
0
  6
Continuous
 62
     7
370
     0
100
AcDbBlockReference
  2
SW_NOTE_0_1
 10
404.5936687456
 20
61.9873698743
 30
0.0
  0
MTEXT
  5
106
330
1F
100
AcDbEntity
  8
0
  6
Continuous
 62
     7
370
     0
100
AcDbMText
 10
404.6690428622
 20
25.3496492073
 30
0.0
 40
1.5
 41
0.0
 71
     1
 72
     1
  1
Z. JAKOSTI
  7
SLDTEXTSTYLE0
 73
     1
 44
1.0
  0
MTEXT
  5
107
330
1F
100
AcDbEntity
  8
0
  6
Continuous
 62
     7
370
     0
100
AcDbMText
 10
404.4551864991
 20
29.7337046506
 30
0.0
 40
1.5
 41
0.0
 71
     1
 72
     1
  1
VÝROBA
  7
SLDTEXTSTYLE0
 73
     1
 44
1.0
  0
MTEXT
  5
108
330
1F
100
AcDbEntity
  8
0
  6
Continuous
 62
     7
370
     0
100
AcDbMText
 10
404.4017224083
 20
34.0642960031
 30
0.0
 40
1.5
 41
0.0
 71
     1
 72
     1
  1
SCHVÁLIL
  7
SLDTEXTSTYLE0
 73
     1
 44
1.0
  0
MTEXT
  5
109
330
1F
100
AcDbEntity
  8
0
  6
Continuous
 62
     7
370
     0
100
AcDbMText
 10
404.4104688676
 20
38.15440716
 30
0.0
 40
1.5
 41
0.0
 71
     1
 72
     1
  1
PŘEZKOUŠEL
  7
SLDTEXTSTYLE2
 73
     1
 44
1.0
  0
MTEXT
  5
10A
330
1F
100
AcDbEntity
  8
0
  6
Continuous
 62
     7
370
     0
100
AcDbMText
 10
404.2121492441
 20
42.4297148859
 30
0.0
 40
1.5
 41
0.0
 71
     1
 72
     1
  1
NAVRHL
  7
SLDTEXTSTYLE0
 73
     1
 44
1.0
  0
CIRCLE
  5
10B
330
1F
100
AcDbEntity
  8
0
  6
Continuous
 62
     7
370
    25
100
AcDbCircle
 10
115.9
 20
338.2
 30
0.0
 40
3.400000000000006
  0
LINE
  5
10C
330
1F
100
AcDbEntity
  8
0
  6
Continuous
 62
     7
370
    25
100
AcDbLine
 10
112.5
 20
339.7
 30
0.0
 11
112.8487707395
 21
339.7
 31
0.0
  0
LINE
  5
10D
330
1F
100
AcDbEntity
  8
0
  6
Continuous
 62
     7
370
    25
100
AcDbLine
 10
112.5
 20
338.2
 30
0.0
 11
112.5
 21
339.7
 31
0.0
  0
LINE
  5
10E
330
1F
100
AcDbEntity
  8
0
  6
Continuous
 62
     7
370
    25
100
AcDbLine
 10
119.3
 20
336.7
 30
0.0
 11
118.9512292605
 21
336.7
 31
0.0
  0
LINE
  5
10F
330
1F
100
AcDbEntity
  8
0
  6
Continuous
 62
     7
370
    25
100
AcDbLine
 10
119.3
 20
338.2
 30
0.0
 11
119.3
 21
336.7
 31
0.0
  0
LINE
  5
110
330
1F
100
AcDbEntity
  8
0
  6
Continuous
 62
     7
370
    25
100
AcDbLine
 10
119.3
 20
339.7
 30
0.0
 11
119.3
 21
338.2
 31
0.0
  0
LINE
  5
111
330
1F
100
AcDbEntity
  8
0
  6
Continuous
 62
     7
370
    25
100
AcDbLine
 10
118.9512292605
 20
339.7
 30
0.0
 11
119.3
 21
339.7
 31
0.0
  0
LINE
  5
112
330
1F
100
AcDbEntity
  8
0
  6
Continuous
 62
     7
370
    25
100
AcDbLine
 10
112.8487707395
 20
336.7
 30
0.0
 11
112.5
 21
336.7
 31
0.0
  0
LINE
  5
113
330
1F
100
AcDbEntity
  8
0
  6
Continuous
 62
     7
370
    25
100
AcDbLine
 10
112.5
 20
336.7
 30
0.0
 11
112.5
 21
338.2
 31
0.0
  0
CIRCLE
  5
114
330
1F
100
AcDbEntity
  8
0
  6
Continuous
 62
     7
370
    25
100
AcDbCircle
 10
125.9
 20
338.2
 30
0.0
 40
3.399999999999991
  0
LINE
  5
115
330
1F
100
AcDbEntity
  8
0
  6
Continuous
 62
     7
370
    25
100
AcDbLine
 10
122.5
 20
336.7
 30
0.0
 11
122.5
 21
338.2
 31
0.0
  0
LINE
  5
116
330
1F
100
AcDbEntity
  8
0
  6
Continuous
 62
     7
370
    25
100
AcDbLine
 10
122.8487707395
 20
336.7
 30
0.0
 11
122.5
 21
336.7
 31
0.0
  0
LINE
  5
117
330
1F
100
AcDbEntity
  8
0
  6
Continuous
 62
     7
370
    25
100
AcDbLine
 10
129.3
 20
339.7
 30
0.0
 11
129.3
 21
338.2
 31
0.0
  0
LINE
  5
118
330
1F
100
AcDbEntity
  8
0
  6
Continuous
 62
     7
370
    25
100
AcDbLine
 10
128.9512292605
 20
339.7
 30
0.0
 11
129.3
 21
339.7
 31
0.0
  0
LINE
  5
119
330
1F
100
AcDbEntity
  8
0
  6
Continuous
 62
     7
370
    25
100
AcDbLine
 10
129.3
 20
336.7
 30
0.0
 11
128.9512292605
 21
336.7
 31
0.0
  0
LINE
  5
11A
330
1F
100
AcDbEntity
  8
0
  6
Continuous
 62
     7
370
    25
100
AcDbLine
 10
129.3
 20
338.2
 30
0.0
 11
129.3
 21
336.7
 31
0.0
  0
LINE
  5
11B
330
1F
100
AcDbEntity
  8
0
  6
Continuous
 62
     7
370
    25
100
AcDbLine
 10
122.5
 20
338.2
 30
0.0
 11
122.5
 21
339.7
 31
0.0
  0
LINE
  5
11C
330
1F
100
AcDbEntity
  8
0
  6
Continuous
 62
     7
370
    25
100
AcDbLine
 10
122.5
 20
339.7
 30
0.0
 11
122.8487707395
 21
339.7
 31
0.0
  0
ARC
  5
11D
330
1F
100
AcDbEntity
  8
0
  6
Continuous
 62
     7
370
    25
100
AcDbCircle
 10
120.9
 20
312.2
 30
0.0
 40
8.5
100
AcDbArc
 50
28.0724869359
 51
61.9275130641
  0
SPLINE
  5
11E
330
1F
100
AcDbEntity
  8
0
  6
Continuous
 62
     7
370
    25
100
AcDbSpline
210
0.0
220
0.0
230
1.0
 70
    24
 71
     3
 72
    13
 73
     9
 74
     0
 42
0.000000001
 43
0.00000001
 40
0.0
 40
0.0
 40
0.0
 40
0.0
 40
0.0600071289245176
 40
0.1333066582979345
 40
0.2464479258036567
 40
0.4598572101501736
 40
0.9339715721128006
 40
1.0
 40
1.0
 40
1.0
 40
1.0
 10
128.400000000013
 20
316.2000000000004
 30
0.0
 10
128.400000000013
 20
316.1968763501263
 30
0.0
 10
128.400000000013
 20
316.1899371191736
 30
0.0
 10
128.400000000013
 20
316.1264735974749
 30
0.0
 10
128.400000000013
 20
315.9812706355975
 30
0.0
 10
128.400000000013
 20
315.6269875302723
 30
0.0
 10
128.400000000013
 20
315.2691755383156
 30
0.0
 10
128.400000000013
 20
315.0149583382694
 30
0.0
 10
128.400000000013
 20
314.9838821814154
 30
0.0
  0
ARC
  5
11F
330
1F
100
AcDbEntity
  8
0
  6
Continuous
 62
     7
370
    25
100
AcDbCircle
 10
120.9
 20
312.2
 30
0.0
 40
7.999999999999999
100
AcDbArc
 50
20.3641348063
 51
69.6358651937
  0
SPLINE
  5
120
330
1F
100
AcDbEntity
  8
0
  6
Continuous
 62
     7
370
    25
100
AcDbSpline
210
0.0
220
0.0
230
1.0
 70
    24
 71
     3
 72
    13
 73
     9
 74
     0
 42
0.000000001
 43
0.00000001
 40
0.0
 40
0.0
 40
0.0
 40
0.0
 40
0.4562536240148974
 40
0.6151465960656777
 40
0.824897800970147
 40
0.8989945491587306
 40
0.9737945380438768
 40
1.0
 40
1.0
 40
1.0
 40
1.0
 10
123.683882181428
 20
319.7000000000004
 30
0.0
 10
123.9002706190968
 20
319.7000000000004
 30
0.0
 10
124.1920175858135
 20
319.7000000000004
 30
0.0
 10
124.5642768472396
 20
319.7000000000004
 30
0.0
 10
124.754362021364
 20
319.7000000000004
 30
0.0
 10
124.8645981736652
 20
319.7000000000004
 30
0.0
 10
124.8970991738623
 20
319.7000000000004
 30
0.0
 10
124.8994024295085
 20
319.7000000000004
 30
0.0
 10
124.900000000013
 20
319.7000000000004
 30
0.0
  0
ARC
  5
121
330
1F
100
AcDbEntity
  8
0
  6
Continuous
 62
     7
370
    25
100
AcDbCircle
 10
120.9
 20
312.2
 30
0.0
 40
8.50000000000005
100
AcDbArc
 50
298.0724869359
 51
331.9275130641
  0
ARC
  5
122
330
1F
100
AcDbEntity
  8
0
  6
Continuous
 62
     7
370
    25
100
AcDbCircle
 10
120.9
 20
312.2
 30
0.0
 40
8.000000000000052
100
AcDbArc
 50
290.3641348063
 51
339.6358651937
  0
SPLINE
  5
123
330
1F
100
AcDbEntity
  8
0
  6
Continuous
 62
     7
370
    25
100
AcDbSpline
210
0.0
220
0.0
230
1.0
 70
    24
 71
     3
 72
    13
 73
     9
 74
     0
 42
0.000000001
 43
0.00000001
 40
0.0
 40
0.0
 40
0.0
 40
0.0
 40
0.0600071289245178
 40
0.1333066582979344
 40
0.2464479258036561
 40
0.4598572101501749
 40
0.9339715721127944
 40
1.0
 40
1.0
 40
1.0
 40
1.0
 10
124.900000000013
 20
304.7000000000004
 30
0.0
 10
124.8968763501389
 20
304.7000000000004
 30
0.0
 10
124.8899371191862
 20
304.7000000000004
 30
0.0
 10
124.8264735974875
 20
304.7000000000004
 30
0.0
 10
124.68127063561
 20
304.7000000000004
 30
0.0
 10
124.3269875302849
 20
304.7000000000004
 30
0.0
 10
123.9691755383282
 20
304.7000000000004
 30
0.0
 10
123.714958338282
 20
304.7000000000004
 30
0.0
 10
123.683882181428
 20
304.7000000000004
 30
0.0
  0
SPLINE
  5
124
330
1F
100
AcDbEntity
  8
0
  6
Continuous
 62
     7
370
    25
100
AcDbSpline
210
0.0
220
0.0
230
1.0
 70
    24
 71
     3
 72
    13
 73
     9
 74
     0
 42
0.000000001
 43
0.00000001
 40
0.0
 40
0.0
 40
0.0
 40
0.0
 40
0.456253624014915
 40
0.6151465960656886
 40
0.8248978009701609
 40
0.8989945491587418
 40
0.9737945380438864
 40
0.9999999999999999
 40
0.9999999999999999
 40
0.9999999999999999
 40
0.9999999999999999
 10
128.400000000013
 20
309.4161178185854
 30
0.0
 10
128.400000000013
 20
309.1997293809167
 30
0.0
 10
128.400000000013
 20
308.9079824141999
 30
0.0
 10
128.400000000013
 20
308.5357231527739
 30
0.0
 10
128.400000000013
 20
308.3456379786495
 30
0.0
 10
128.400000000013
 20
308.2354018263483
 30
0.0
 10
128.400000000013
 20
308.2029008261512
 30
0.0
 10
128.400000000013
 20
308.2005975705049
 30
0.0
 10
128.400000000013
 20
308.2000000000004
 30
0.0
  0
ARC
  5
125
330
1F
100
AcDbEntity
  8
0
  6
Continuous
 62
     7
370
    25
100
AcDbCircle
 10
120.9
 20
312.2
 30
0.0
 40
8.5
100
AcDbArc
 50
118.0724869359
 51
151.9275130641
  0
SPLINE
  5
126
330
1F
100
AcDbEntity
  8
0
  6
Continuous
 62
     7
370
    25
100
AcDbSpline
210
0.0
220
0.0
230
1.0
 70
    24
 71
     3
 72
    13
 73
     9
 74
     0
 42
0.000000001
 43
0.00000001
 40
0.0
 40
0.0
 40
0.0
 40
0.0
 40
0.0600071289245179
 40
0.1333066582979347
 40
0.2464479258036572
 40
0.4598572101501754
 40
0.9339715721127966
 40
1.0
 40
1.0
 40
1.0
 40
1.0
 10
116.900000000013
 20
319.7000000000004
 30
0.0
 10
116.9031236498872
 20
319.7000000000004
 30
0.0
 10
116.9100628808399
 20
319.7000000000004
 30
0.0
 10
116.9735264025385
 20
319.7000000000004
 30
0.0
 10
117.118729364416
 20
319.7000000000004
 30
0.0
 10
117.4730124697412
 20
319.7000000000004
 30
0.0
 10
117.8308244616979
 20
319.7000000000004
 30
0.0
 10
118.085041661744
 20
319.7000000000004
 30
0.0
 10
118.116117818598
 20
319.7000000000004
 30
0.0
  0
ARC
  5
127
330
1F
100
AcDbEntity
  8
0
  6
Continuous
 62
     7
370
    25
100
AcDbCircle
 10
120.9
 20
312.2
 30
0.0
 40
7.999999999999999
100
AcDbArc
 50
110.3641348063
 51
159.6358651937
  0
SPLINE
  5
128
330
1F
100
AcDbEntity
  8
0
  6
Continuous
 62
     7
370
    25
100
AcDbSpline
210
0.0
220
0.0
230
1.0
 70
    24
 71
     3
 72
    13
 73
     9
 74
     0
 42
0.000000001
 43
0.00000001
 40
0.0
 40
0.0
 40
0.0
 40
0.0
 40
0.4562536240149148
 40
0.6151465960656927
 40
0.8248978009701463
 40
0.8989945491587304
 40
0.973794538043877
 40
1.0
 40
1.0
 40
1.0
 40
1.0
 10
113.400000000013
 20
314.9838821814154
 30
0.0
 10
113.400000000013
 20
315.2002706190842
 30
0.0
 10
113.400000000013
 20
315.492017585801
 30
0.0
 10
113.400000000013
 20
315.864276847227
 30
0.0
 10
113.400000000013
 20
316.0543620213514
 30
0.0
 10
113.400000000013
 20
316.1645981736526
 30
0.0
 10
113.400000000013
 20
316.1970991738497
 30
0.0
 10
113.400000000013
 20
316.1994024294959
 30
0.0
 10
113.400000000013
 20
316.2000000000004
 30
0.0
  0
ARC
  5
129
330
1F
100
AcDbEntity
  8
0
  6
Continuous
 62
     7
370
    25
100
AcDbCircle
 10
120.9
 20
312.2
 30
0.0
 40
8.50000000000005
100
AcDbArc
 50
208.0724869359
 51
241.9275130641
  0
ARC
  5
12A
330
1F
100
AcDbEntity
  8
0
  6
Continuous
 62
     7
370
    25
100
AcDbCircle
 10
120.9
 20
312.2
 30
0.0
 40
8.000000000000052
100
AcDbArc
 50
200.3641348063
 51
249.6358651937
  0
SPLINE
  5
12B
330
1F
100
AcDbEntity
  8
0
  6
Continuous
 62
     7
370
    25
100
AcDbSpline
210
0.0
220
0.0
230
1.0
 70
    24
 71
     3
 72
    13
 73
     9
 74
     0
 42
0.000000001
 43
0.00000001
 40
0.0
 40
0.0
 40
0.0
 40
0.0
 40
0.060007128924517
 40
0.1333066582979337
 40
0.2464479258036562
 40
0.459857210150173
 40
0.9339715721127861
 40
1.0
 40
1.0
 40
1.0
 40
1.0
 10
113.400000000013
 20
308.2000000000004
 30
0.0
 10
113.400000000013
 20
308.2031236498746
 30
0.0
 10
113.400000000013
 20
308.2100628808273
 30
0.0
 10
113.400000000013
 20
308.2735264025259
 30
0.0
 10
113.400000000013
 20
308.4187293644035
 30
0.0
 10
113.400000000013
 20
308.7730124697285
 30
0.0
 10
113.400000000013
 20
309.1308244616853
 30
0.0
 10
113.400000000013
 20
309.3850416617314
 30
0.0
 10
113.400000000013
 20
309.4161178185854
 30
0.0
  0
SPLINE
  5
12C
330
1F
100
AcDbEntity
  8
0
  6
Continuous
 62
     7
370
    25
100
AcDbSpline
210
0.0
220
0.0
230
1.0
 70
    24
 71
     3
 72
    13
 73
     9
 74
     0
 42
0.000000001
 43
0.00000001
 40
0.0
 40
0.0
 40
0.0
 40
0.0
 40
0.4562536240148967
 40
0.6151465960656775
 40
0.8248978009701471
 40
0.8989945491587304
 40
0.9737945380438766
 40
1.0
 40
1.0
 40
1.0
 40
1.0
 10
118.116117818598
 20
304.7000000000004
 30
0.0
 10
117.8997293809293
 20
304.7000000000004
 30
0.0
 10
117.6079824142125
 20
304.7000000000004
 30
0.0
 10
117.2357231527865
 20
304.7000000000004
 30
0.0
 10
117.0456379786621
 20
304.7000000000004
 30
0.0
 10
116.9354018263609
 20
304.7000000000004
 30
0.0
 10
116.9029008261638
 20
304.7000000000004
 30
0.0
 10
116.9005975705175
 20
304.7000000000004
 30
0.0
 10
116.900000000013
 20
304.7000000000004
 30
0.0
  0
CIRCLE
  5
12D
330
1F
100
AcDbEntity
  8
0
  6
Continuous
 62
     7
370
    25
100
AcDbCircle
 10
120.9
 20
312.2
 30
0.0
 40
4.549999999999997
  0
LINE
  5
12E
330
1F
100
AcDbEntity
  8
0
  6
Continuous
 62
     7
370
    25
100
AcDbLine
 10
123.6838821814
 20
319.7
 30
0.0
 11
118.1161178186
 21
319.7
 31
0.0
  0
LINE
  5
12F
330
1F
100
AcDbEntity
  8
0
  6
Continuous
 62
     7
370
    25
100
AcDbLine
 10
113.4
 20
314.9838821814
 30
0.0
 11
113.4
 21
309.4161178186
 31
0.0
  0
LINE
  5
130
330
1F
100
AcDbEntity
  8
0
  6
Continuous
 62
     7
370
    25
100
AcDbLine
 10
118.1161178186
 20
304.7
 30
0.0
 11
123.6838821814
 21
304.7
 31
0.0
  0
LINE
  5
131
330
1F
100
AcDbEntity
  8
0
  6
Continuous
 62
     7
370
    25
100
AcDbLine
 10
128.4
 20
309.4161178186
 30
0.0
 11
128.4
 21
314.9838821814
 31
0.0
  0
CIRCLE
  5
132
330
1F
100
AcDbEntity
  8
0
  6
Continuous
 62
     7
370
    25
100
AcDbCircle
 10
120.9
 20
312.2
 30
0.0
 40
4.25
  0
ARC
  5
133
330
1F
100
AcDbEntity
  8
0
  6
Continuous
 62
     7
370
    25
100
AcDbCircle
 10
120.9
 20
312.2
 30
0.0
 40
8.5
100
AcDbArc
 50
61.9275130641
 51
118.0724869359
  0
ARC
  5
134
330
1F
100
AcDbEntity
  8
0
  6
Continuous
 62
     7
370
    25
100
AcDbCircle
 10
120.9
 20
312.2
 30
0.0
 40
8.50000000000005
100
AcDbArc
 50
241.9275130641
 51
298.0724869359
  0
ARC
  5
135
330
1F
100
AcDbEntity
  8
0
  6
Continuous
 62
     7
370
    25
100
AcDbCircle
 10
120.9
 20
312.2
 30
0.0
 40
8.5
100
AcDbArc
 50
151.9275130641
 51
208.0724869359
  0
ARC
  5
136
330
1F
100
AcDbEntity
  8
0
  6
Continuous
 62
     7
370
    25
100
AcDbCircle
 10
120.9
 20
312.2
 30
0.0
 40
8.5
100
AcDbArc
 50
331.9275130641
 51
28.0724869359
  0
CIRCLE
  5
137
330
1F
100
AcDbEntity
  8
0
  6
Continuous
 62
     7
370
    25
100
AcDbCircle
 10
120.9
 20
312.2
 30
0.0
 40
9.0
  0
ARC
  5
138
330
1F
100
AcDbEntity
  8
0
  6
Continuous
 62
     7
370
    25
100
AcDbCircle
 10
120.9
 20
312.2
 30
0.0
 40
15.50000000000005
100
AcDbArc
 50
32.9958854736
 51
147.0041145264
  0
LINE
  5
139
330
1F
100
AcDbEntity
  8
0
  6
Continuous
 62
     7
370
    25
100
AcDbLine
 10
107.9
 20
321.5273790531
 30
0.0
 11
107.9
 21
320.6409715081
 31
0.0
  0
ARC
  5
13A
330
1F
100
AcDbEntity
  8
0
  6
Continuous
 62
     7
370
    25
100
AcDbCircle
 10
120.9
 20
312.2
 30
0.0
 40
16.00000000000006
100
AcDbArc
 50
35.6590876961
 51
144.3409123039
  0
LINE
  5
13B
330
1F
100
AcDbEntity
  8
0
  6
Continuous
 62
     7
370
    25
100
AcDbLine
 10
133.9
 20
321.5273790531
 30
0.0
 11
133.9
 21
320.6409715081
 31
0.0
  0
ARC
  5
13C
330
1F
100
AcDbEntity
  8
0
  6
Continuous
 62
     7
370
    25
100
AcDbCircle
 10
120.9
 20
312.2
 30
0.0
 40
15.99999999999999
100
AcDbArc
 50
215.6590876961
 51
324.3409123039
  0
LINE
  5
13D
330
1F
100
AcDbEntity
  8
0
  6
Continuous
 62
     7
370
    25
100
AcDbLine
 10
107.9
 20
303.7590284919
 30
0.0
 11
107.9
 21
302.8726209469
 31
0.0
  0
ARC
  5
13E
330
1F
100
AcDbEntity
  8
0
  6
Continuous
 62
     7
370
    25
100
AcDbCircle
 10
120.9
 20
312.2
 30
0.0
 40
15.50000000000005
100
AcDbArc
 50
212.9958854736
 51
327.0041145264
  0
LINE
  5
13F
330
1F
100
AcDbEntity
  8
0
  6
Continuous
 62
     7
370
    25
100
AcDbLine
 10
133.9
 20
303.7590284919
 30
0.0
 11
133.9
 21
302.8726209469
 31
0.0
  0
CIRCLE
  5
140
330
1F
100
AcDbEntity
  8
0
  6
Continuous
 62
     7
370
    25
100
AcDbCircle
 10
120.9
 20
312.2
 30
0.0
 40
9.5
  0
LINE
  5
141
330
1F
100
AcDbEntity
  8
0
  6
Continuous
 62
     7
370
    25
100
AcDbLine
 10
107.9
 20
320.6409715081
 30
0.0
 11
107.9
 21
303.7590284919
 31
0.0
  0
LINE
  5
142
330
1F
100
AcDbEntity
  8
0
  6
Continuous
 62
     7
370
    25
100
AcDbLine
 10
133.9
 20
320.6409715081
 30
0.0
 11
133.9
 21
303.7590284919
 31
0.0
  0
ARC
  5
143
330
1F
100
AcDbEntity
  8
0
  6
Continuous
 62
     7
370
    25
100
AcDbCircle
 10
120.9
 20
312.2
 30
0.0
 40
15.99999999999999
100
AcDbArc
 50
324.3409123039
 51
35.6590876961
  0
ARC
  5
144
330
1F
100
AcDbEntity
  8
0
  6
Continuous
 62
     7
370
    25
100
AcDbCircle
 10
120.9
 20
312.2
 30
0.0
 40
15.99999999999999
100
AcDbArc
 50
144.3409123039
 51
215.6590876961
  0
CIRCLE
  5
145
330
1F
100
AcDbEntity
  8
0
  6
Continuous
 62
     7
370
    25
100
AcDbCircle
 10
120.9
 20
312.2
 30
0.0
 40
16.5
  0
CIRCLE
  5
146
330
1F
100
AcDbEntity
  8
0
  6
Continuous
 62
     7
370
    25
100
AcDbCircle
 10
120.9
 20
312.2
 30
0.0
 40
17.5
  0
LINE
  5
147
330
1F
100
AcDbEntity
  8
0
  6
Continuous
 62
     7
370
    25
100
AcDbLine
 10
153.4
 20
331.7
 30
0.0
 11
150.4
 21
334.7
 31
0.0
  0
LINE
  5
148
330
1F
100
AcDbEntity
  8
0
  6
Continuous
 62
     7
370
    25
100
AcDbLine
 10
153.4
 20
292.7
 30
0.0
 11
153.4
 21
331.7
 31
0.0
  0
LINE
  5
149
330
1F
100
AcDbEntity
  8
0
  6
Continuous
 62
     7
370
    25
100
AcDbLine
 10
150.4
 20
289.7
 30
0.0
 11
153.4
 21
292.7
 31
0.0
  0
LINE
  5
14A
330
1F
100
AcDbEntity
  8
0
  6
Continuous
 62
     7
370
    25
100
AcDbLine
 10
91.4
 20
289.7
 30
0.0
 11
150.4
 21
289.7
 31
0.0
  0
LINE
  5
14B
330
1F
100
AcDbEntity
  8
0
  6
Continuous
 62
     7
370
    25
100
AcDbLine
 10
88.4
 20
292.7
 30
0.0
 11
91.4
 21
289.7
 31
0.0
  0
LINE
  5
14C
330
1F
100
AcDbEntity
  8
0
  6
Continuous
 62
     7
370
    25
100
AcDbLine
 10
88.4
 20
331.7
 30
0.0
 11
88.4
 21
292.7
 31
0.0
  0
LINE
  5
14D
330
1F
100
AcDbEntity
  8
0
  6
Continuous
 62
     7
370
    25
100
AcDbLine
 10
150.4
 20
334.7
 30
0.0
 11
91.4
 21
334.7
 31
0.0
  0
CIRCLE
  5
14E
330
1F
100
AcDbEntity
  8
0
  6
Continuous
 62
     7
370
    25
100
AcDbCircle
 10
95.9
 20
327.2
 30
0.0
 40
6.750000000022524
  0
CIRCLE
  5
14F
330
1F
100
AcDbEntity
  8
0
  6
Continuous
 62
     7
370
    25
100
AcDbCircle
 10
145.9
 20
327.2
 30
0.0
 40
6.749999999958447
  0
CIRCLE
  5
150
330
1F
100
AcDbEntity
  8
0
  6
Continuous
 62
     7
370
    25
100
AcDbCircle
 10
145.9
 20
297.2
 30
0.0
 40
6.749999999977462
  0
CIRCLE
  5
151
330
1F
100
AcDbEntity
  8
0
  6
Continuous
 62
     7
370
    25
100
AcDbCircle
 10
95.9
 20
297.2
 30
0.0
 40
6.750000000041538
  0
LINE
  5
152
330
1F
100
AcDbEntity
  8
0
  6
Continuous
 62
     7
370
    25
100
AcDbLine
 10
91.4
 20
334.7
 30
0.0
 11
88.4
 21
331.7
 31
0.0
  0
CIRCLE
  5
153
330
1F
100
AcDbEntity
  8
0
  6
Continuous
 62
     7
370
    25
100
AcDbCircle
 10
120.9
 20
312.2
 30
0.0
 40
19.0
  0
CIRCLE
  5
154
330
1F
100
AcDbEntity
  8
0
  6
Continuous
 62
     7
370
    25
100
AcDbCircle
 10
145.9
 20
327.2
 30
0.0
 40
4.249999999958447
  0
CIRCLE
  5
155
330
1F
100
AcDbEntity
  8
0
  6
Continuous
 62
     7
370
    25
100
AcDbCircle
 10
95.9
 20
297.2
 30
0.0
 40
4.250000000041538
  0
CIRCLE
  5
156
330
1F
100
AcDbEntity
  8
0
  6
Continuous
 62
     7
370
    25
100
AcDbCircle
 10
145.9
 20
297.2
 30
0.0
 40
4.249999999977462
  0
CIRCLE
  5
157
330
1F
100
AcDbEntity
  8
0
  6
Continuous
 62
     7
370
    25
100
AcDbCircle
 10
95.9
 20
327.2
 30
0.0
 40
4.250000000022538
  0
DIMENSION
  5
158
330
1F
100
AcDbEntity
  8
0
  6
Continuous
 62
     7
370
    18
100
AcDbDimension
  2
_D
 10
145.9
 20
279.7
 30
0.0
 11
120.9
 21
279.7
 31
0.0
 70
   160
  1
<>
 71
     2
 42
-1.0
  3
SLDDIMSTYLE0
100
AcDbAlignedDimension
 13
95.9
 23
287.95
 33
0.0
 14
145.9
 24
287.95
 34
0.0
100
AcDbRotatedDimension
  0
DIMENSION
  5
163
330
1F
100
AcDbEntity
  8
0
  6
Continuous
 62
     7
370
    18
100
AcDbDimension
  2
_D_1
 10
78.4
 20
327.2
 30
0.0
 11
78.4
 21
312.2
 31
0.0
 70
   160
  1
<>
 71
     2
 42
-1.0
  3
SLDDIMSTYLE0
100
AcDbAlignedDimension
 13
86.65
 23
297.2
 33
0.0
 14
86.65
 24
327.2
 34
0.0
 50
90.0
100
AcDbRotatedDimension
  0
DIMENSION
  5
16D
330
1F
100
AcDbEntity
  8
0
  6
Continuous
 62
     7
370
    18
100
AcDbDimension
  2
_D_2
 10
88.4
 20
273.7
 30
0.0
 11
120.9
 21
273.7
 31
0.0
 70
   160
  1
<>
 71
     2
 42
-1.0
  3
SLDDIMSTYLE0
100
AcDbAlignedDimension
 13
153.4
 23
292.7
 33
0.0
 14
88.4
 24
292.7
 34
0.0
100
AcDbRotatedDimension
  0
DIMENSION
  5
177
330
1F
100
AcDbEntity
  8
0
  6
Continuous
 62
     7
370
    18
100
AcDbDimension
  2
_D_3
 10
72.4
 20
334.7
 30
0.0
 11
72.4
 21
312.2
 31
0.0
 70
   160
  1
<>
 71
     2
 42
-1.0
  3
SLDDIMSTYLE0
100
AcDbAlignedDimension
 13
91.4
 23
289.7
 33
0.0
 14
91.4
 24
334.7
 34
0.0
 50
90.0
100
AcDbRotatedDimension
  0
DIMENSION
  5
181
330
1F
100
AcDbEntity
  8
0
  6
Continuous
 62
     7
370
    18
100
AcDbDimension
  2
_D_4
 10
141.127029227
 20
322.427029227
 30
0.0
 11
163.40001
 21
344.70001
 31
0.0
 70
   163
  1
<>
 71
     1
 42
-1.0
  3
SLDDIMSTYLE1
100
AcDbDiametricDimension
 15
150.672970773
 25
331.972970773
 35
0.0
 40
0.0
  0
DIMENSION
  5
18E
330
1F
100
AcDbEntity
  8
0
  6
Continuous
 62
     7
370
    18
100
AcDbDimension
  2
_D_5
 10
143.775
 20
323.519392034
 30
0.0
 11
163.4514581834
 21
357.60001
 31
0.0
 70
   163
  1
<>
 71
     1
 42
-1.0
  3
SLDDIMSTYLE1
100
AcDbDiametricDimension
 15
148.025
 25
330.880607966
 35
0.0
 40
0.0
  0
DIMENSION
  5
197
330
1F
100
AcDbEntity
  8
0
  6
Continuous
 62
     7
370
    18
100
AcDbDimension
  2
_D_6
 10
117.6826641456
 20
315.4173358544
 30
0.0
 11
165.40001
 21
267.70001
 31
0.0
 70
   163
  1
M10x1.5
 71
     1
 42
-1.0
  3
SLDDIMSTYLE2
100
AcDbDiametricDimension
 15
124.1173358544
 25
308.9826641456
 35
0.0
 40
0.0
  0
DIMENSION
  5
1A1
330
1F
100
AcDbEntity
  8
0
  6
Continuous
 62
     7
370
    18
100
AcDbDimension
  2
_D_7
 10
113.105771366
 20
316.7
 30
0.0
 11
163.40001
 21
287.6626235594
 31
0.0
 70
   163
  1
<>
 71
     1
 42
-1.0
  3
SLDDIMSTYLE3
100
AcDbDiametricDimension
 15
128.6942286341
 25
307.7
 35
0.0
 40
0.0
  0
INSERT
  5
1B6
330
1F
100
AcDbEntity
  8
0
  6
Continuous
 62
     7
370
     0
100
AcDbBlockReference
  2
SW_CENTERMARKSYMBOL_0
 10
95.9
 20
327.2
 30
0.0
  0
INSERT
  5
1C2
330
1F
100
AcDbEntity
  8
0
  6
Continuous
 62
     7
370
     0
100
AcDbBlockReference
  2
SW_CENTERMARKSYMBOL_1
 10
145.9
 20
327.2
 30
0.0
  0
INSERT
  5
1CE
330
1F
100
AcDbEntity
  8
0
  6
Continuous
 62
     7
370
     0
100
AcDbBlockReference
  2
SW_CENTERMARKSYMBOL_2
 10
145.9
 20
297.2
 30
0.0
  0
INSERT
  5
1DA
330
1F
100
AcDbEntity
  8
0
  6
Continuous
 62
     7
370
     0
100
AcDbBlockReference
  2
SW_CENTERMARKSYMBOL_3
 10
95.9
 20
297.2
 30
0.0
  0
INSERT
  5
1E6
330
1F
100
AcDbEntity
  8
0
  6
Continuous
 62
     7
370
     0
100
AcDbBlockReference
  2
SW_CENTERMARKSYMBOL_4
 10
120.9
 20
312.2
 30
0.0
  0
LINE
  5
1E7
330
1F
100
AcDbEntity
  8
0
  6
Continuous
 62
     7
370
    25
100
AcDbLine
 10
406.4
 20
341.6
 30
0.0
 11
386.4
 21
341.6
 31
0.0
  0
LINE
  5
1E8
330
1F
100
AcDbEntity
  8
0
  6
Continuous
 62
     7
370
    25
100
AcDbLine
 10
386.4
 20
334.8
 30
0.0
 11
406.4
 21
334.8
 31
0.0
  0
LINE
  5
1E9
330
1F
100
AcDbEntity
  8
0
  6
Continuous
 62
     7
370
    25
100
AcDbLine
 10
352.4
 20
341.45
 30
0.0
 11
351.15
 21
340.2
 31
0.0
  0
LINE
  5
1EA
330
1F
100
AcDbEntity
  8
0
  6
Continuous
 62
     7
370
    25
100
AcDbLine
 10
351.15
 20
336.2
 30
0.0
 11
352.4
 21
334.95
 31
0.0
  0
LINE
  5
1EB
330
1F
100
AcDbEntity
  8
0
  6
Continuous
 62
     7
370
    25
100
AcDbLine
 10
366.4
 20
341.45
 30
0.0
 11
352.4
 21
341.45
 31
0.0
  0
LINE
  5
1EC
330
1F
100
AcDbEntity
  8
0
  6
Continuous
 62
     7
370
    25
100
AcDbLine
 10
352.4
 20
334.95
 30
0.0
 11
366.4
 21
334.95
 31
0.0
  0
ARC
  5
1ED
330
1F
100
AcDbEntity
  8
0
  6
Continuous
 62
     7
370
    25
100
AcDbCircle
 10
338.7
 20
336.5
 30
0.0
 40
0.3000000000000114
100
AcDbArc
 50
180.0
 51
270.0
  0
ARC
  5
1EE
330
1F
100
AcDbEntity
  8
0
  6
Continuous
 62
     7
370
    25
100
AcDbCircle
 10
338.7
 20
339.9
 30
0.0
 40
0.3000000000000114
100
AcDbArc
 50
90.0
 51
180.0
  0
LINE
  5
1EF
330
1F
100
AcDbEntity
  8
0
  6
Continuous
 62
     7
370
    25
100
AcDbLine
 10
351.15
 20
340.2
 30
0.0
 11
338.7
 21
340.2
 31
0.0
  0
LINE
  5
1F0
330
1F
100
AcDbEntity
  8
0
  6
Continuous
 62
     7
370
    25
100
AcDbLine
 10
338.7
 20
336.2
 30
0.0
 11
351.15
 21
336.2
 31
0.0
  0
LINE
  5
1F1
330
1F
100
AcDbEntity
  8
0
  6
Continuous
 62
     7
370
    25
100
AcDbLine
 10
457.9
 20
303.2
 30
0.0
 11
483.9
 21
303.2
 31
0.0
  0
LINE
  5
1F2
330
1F
100
AcDbEntity
  8
0
  6
Continuous
 62
     7
370
    25
100
AcDbLine
 10
483.9
 20
321.2
 30
0.0
 11
457.9
 21
321.2
 31
0.0
  0
LINE
  5
1F3
330
1F
100
AcDbEntity
  8
0
  6
Continuous
 62
     7
370
    25
100
AcDbLine
 10
483.9
 20
303.2
 30
0.0
 11
484.4
 21
303.7
 31
0.0
  0
LINE
  5
1F4
330
1F
100
AcDbEntity
  8
0
  6
Continuous
 62
     7
370
    25
100
AcDbLine
 10
484.4
 20
320.7
 30
0.0
 11
483.9
 21
321.2
 31
0.0
  0
ARC
  5
1F5
330
1F
100
AcDbEntity
  8
0
  6
Continuous
 62
     7
370
    25
100
AcDbCircle
 10
451.9
 20
295.7
 30
0.0
 40
0.5000000000000568
100
AcDbArc
 50
90.0
 51
180.0
  0
ARC
  5
1F6
330
1F
100
AcDbEntity
  8
0
  6
Continuous
 62
     7
370
    25
100
AcDbCircle
 10
451.9
 20
328.7
 30
0.0
 40
0.5
100
AcDbArc
 50
180.0
 51
270.0
  0
LINE
  5
1F7
330
1F
100
AcDbEntity
  8
0
  6
Continuous
 62
     7
370
    25
100
AcDbLine
 10
451.9
 20
296.2
 30
0.0
 11
457.4
 21
296.2
 31
0.0
  0
LINE
  5
1F8
330
1F
100
AcDbEntity
  8
0
  6
Continuous
 62
     7
370
    25
100
AcDbLine
 10
457.4
 20
328.2
 30
0.0
 11
451.9
 21
328.2
 31
0.0
  0
LINE
  5
1F9
330
1F
100
AcDbEntity
  8
0
  6
Continuous
 62
     7
370
    25
100
AcDbLine
 10
457.4
 20
296.2
 30
0.0
 11
457.9
 21
296.7
 31
0.0
  0
LINE
  5
1FA
330
1F
100
AcDbEntity
  8
0
  6
Continuous
 62
     7
370
    25
100
AcDbLine
 10
457.9
 20
327.7
 30
0.0
 11
457.4
 21
328.2
 31
0.0
  0
LINE
  5
1FB
330
1F
100
AcDbEntity
  8
0
  6
Continuous
 62
     7
370
    25
100
AcDbLine
 10
386.4
 20
338.2
 30
0.0
 11
386.4
 21
339.7
 31
0.0
  0
LINE
  5
1FC
330
1F
100
AcDbEntity
  8
0
  6
Continuous
 62
     7
370
    25
100
AcDbLine
 10
386.4
 20
336.7
 30
0.0
 11
386.4
 21
338.2
 31
0.0
  0
LINE
  5
1FD
330
1F
100
AcDbEntity
  8
0
  6
Continuous
 62
     7
370
    25
100
AcDbLine
 10
366.4
 20
336.7
 30
0.0
 11
386.4
 21
336.7
 31
0.0
  0
LINE
  5
1FE
330
1F
100
AcDbEntity
  8
0
  6
Continuous
 62
     7
370
    25
100
AcDbLine
 10
366.4
 20
336.7
 30
0.0
 11
366.4
 21
339.7
 31
0.0
  0
LINE
  5
1FF
330
1F
100
AcDbEntity
  8
0
  6
Continuous
 62
     7
370
    25
100
AcDbLine
 10
366.4
 20
339.7
 30
0.0
 11
386.4
 21
339.7
 31
0.0
  0
LINE
  5
200
330
1F
100
AcDbEntity
  8
0
  6
Continuous
 62
     7
370
    25
100
AcDbLine
 10
406.4
 20
338.2
 30
0.0
 11
406.4
 21
341.6
 31
0.0
  0
LINE
  5
201
330
1F
100
AcDbEntity
  8
0
  6
Continuous
 62
     7
370
    25
100
AcDbLine
 10
406.4
 20
334.8
 30
0.0
 11
406.4
 21
338.2
 31
0.0
  0
LINE
  5
202
330
1F
100
AcDbEntity
  8
0
  6
Continuous
 62
     7
370
    25
100
AcDbLine
 10
386.4
 20
339.7
 30
0.0
 11
386.4
 21
341.6
 31
0.0
  0
LINE
  5
203
330
1F
100
AcDbEntity
  8
0
  6
Continuous
 62
     7
370
    25
100
AcDbLine
 10
386.4
 20
334.8
 30
0.0
 11
386.4
 21
336.7
 31
0.0
  0
LINE
  5
204
330
1F
100
AcDbEntity
  8
0
  6
Continuous
 62
     7
370
    25
100
AcDbLine
 10
351.15
 20
336.2
 30
0.0
 11
351.15
 21
340.2
 31
0.0
  0
LINE
  5
205
330
1F
100
AcDbEntity
  8
0
  6
Continuous
 62
     7
370
    25
100
AcDbLine
 10
352.4
 20
338.2
 30
0.0
 11
352.4
 21
334.95
 31
0.0
  0
LINE
  5
206
330
1F
100
AcDbEntity
  8
0
  6
Continuous
 62
     7
370
    25
100
AcDbLine
 10
352.4
 20
341.45
 30
0.0
 11
352.4
 21
338.2
 31
0.0
  0
LINE
  5
207
330
1F
100
AcDbEntity
  8
0
  6
Continuous
 62
     7
370
    25
100
AcDbLine
 10
366.4
 20
334.95
 30
0.0
 11
366.4
 21
336.7
 31
0.0
  0
LINE
  5
208
330
1F
100
AcDbEntity
  8
0
  6
Continuous
 62
     7
370
    25
100
AcDbLine
 10
366.4
 20
339.7
 30
0.0
 11
366.4
 21
341.45
 31
0.0
  0
LINE
  5
209
330
1F
100
AcDbEntity
  8
0
  6
Continuous
 62
     7
370
    25
100
AcDbLine
 10
338.4
 20
338.2
 30
0.0
 11
338.4
 21
339.9
 31
0.0
  0
LINE
  5
20A
330
1F
100
AcDbEntity
  8
0
  6
Continuous
 62
     7
370
    25
100
AcDbLine
 10
338.4
 20
336.5
 30
0.0
 11
338.4
 21
338.2
 31
0.0
  0
LINE
  5
20B
330
1F
100
AcDbEntity
  8
0
  6
Continuous
 62
     7
370
    25
100
AcDbLine
 10
483.9
 20
303.2
 30
0.0
 11
483.9
 21
321.2
 31
0.0
  0
LINE
  5
20C
330
1F
100
AcDbEntity
  8
0
  6
Continuous
 62
     7
370
    25
100
AcDbLine
 10
484.4
 20
319.7
 30
0.0
 11
484.4
 21
316.2
 31
0.0
  0
LINE
  5
20D
330
1F
100
AcDbEntity
  8
0
  6
Continuous
 62
     7
370
    25
100
AcDbLine
 10
484.4
 20
316.2
 30
0.0
 11
484.4
 21
308.2
 31
0.0
  0
LINE
  5
20E
330
1F
100
AcDbEntity
  8
0
  6
Continuous
 62
     7
370
    25
100
AcDbLine
 10
484.4
 20
308.2
 30
0.0
 11
484.4
 21
304.7
 31
0.0
  0
LINE
  5
20F
330
1F
100
AcDbEntity
  8
0
  6
Continuous
 62
     7
370
    25
100
AcDbLine
 10
484.4
 20
304.7
 30
0.0
 11
484.4
 21
303.7
 31
0.0
  0
LINE
  5
210
330
1F
100
AcDbEntity
  8
0
  6
Continuous
 62
     7
370
    25
100
AcDbLine
 10
484.4
 20
320.7
 30
0.0
 11
484.4
 21
319.7
 31
0.0
  0
LINE
  5
211
330
1F
100
AcDbEntity
  8
0
  6
Continuous
 62
     7
370
    25
100
AcDbLine
 10
484.4
 20
316.2
 30
0.0
 11
489.9
 21
316.2
 31
0.0
  0
SPLINE
  5
212
330
1F
100
AcDbEntity
  8
0
  6
Continuous
 62
     7
370
    25
100
AcDbSpline
210
0.0
220
0.0
230
1.0
 70
     8
 71
     3
 72
    13
 73
     9
 74
     0
 42
0.000000001
 43
0.00000001
 40
0.0
 40
0.0
 40
0.0
 40
0.0
 40
0.4562536240149148
 40
0.6151465960656927
 40
0.8248978009701463
 40
0.8989945491587304
 40
0.973794538043877
 40
1.0
 40
1.0
 40
1.0
 40
1.0
 10
490.4000000000001
 20
314.9838821814154
 30
0.0
 10
490.3918596674124
 20
315.2002706190842
 30
0.0
 10
490.3808844167652
 20
315.492017585801
 30
0.0
 10
490.2691482766131
 20
315.864276847227
 30
0.0
 10
490.1686119568508
 20
316.0543620213514
 30
0.0
 10
490.0388324017274
 20
316.1645981736526
 30
0.0
 10
489.9599523836047
 20
316.1970991738497
 30
0.0
 10
489.9123501975828
 20
316.1994024294959
 30
0.0
 10
489.9000000000001
 20
316.2000000000004
 30
0.0
  0
LINE
  5
213
330
1F
100
AcDbEntity
  8
0
  6
Continuous
 62
     7
370
    25
100
AcDbLine
 10
490.4
 20
314.9838821814
 30
0.0
 11
490.4
 21
309.4161178186
 31
0.0
  0
SPLINE
  5
214
330
1F
100
AcDbEntity
  8
0
  6
Continuous
 62
     7
370
    25
100
AcDbSpline
210
0.0
220
0.0
230
1.0
 70
     8
 71
     3
 72
    13
 73
     9
 74
     0
 42
0.000000001
 43
0.00000001
 40
0.0
 40
0.0
 40
0.0
 40
0.0
 40
0.060007128924517
 40
0.1333066582979337
 40
0.2464479258036562
 40
0.459857210150173
 40
0.9339715721127861
 40
1.0
 40
1.0
 40
1.0
 40
1.0
 10
489.9000000000001
 20
308.2000000000004
 30
0.0
 10
489.9283695012548
 20
308.2031236498746
 30
0.0
 10
489.9913927366209
 20
308.2100628808273
 30
0.0
 10
490.0926790691212
 20
308.2735264025259
 30
0.0
 10
490.2156745915622
 20
308.4187293644035
 30
0.0
 10
490.3607259397556
 20
308.7730124697285
 30
0.0
 10
490.3978039236373
 20
309.1308244616853
 30
0.0
 10
490.3997607879335
 20
309.3850416617314
 30
0.0
 10
490.4000000000001
 20
309.4161178185854
 30
0.0
  0
LINE
  5
215
330
1F
100
AcDbEntity
  8
0
  6
Continuous
 62
     7
370
    25
100
AcDbLine
 10
484.4
 20
308.2
 30
0.0
 11
489.9
 21
308.2
 31
0.0
  0
LINE
  5
216
330
1F
100
AcDbEntity
  8
0
  6
Continuous
 62
     7
370
    25
100
AcDbLine
 10
489.9
 20
304.7
 30
0.0
 11
489.9
 21
308.2
 31
0.0
  0
LINE
  5
217
330
1F
100
AcDbEntity
  8
0
  6
Continuous
 62
     7
370
    25
100
AcDbLine
 10
484.4
 20
304.7
 30
0.0
 11
489.9
 21
304.7
 31
0.0
  0
LINE
  5
218
330
1F
100
AcDbEntity
  8
0
  6
Continuous
 62
     7
370
    25
100
AcDbLine
 10
484.4
 20
319.7
 30
0.0
 11
489.9
 21
319.7
 31
0.0
  0
LINE
  5
219
330
1F
100
AcDbEntity
  8
0
  6
Continuous
 62
     7
370
    25
100
AcDbLine
 10
489.9
 20
316.2
 30
0.0
 11
489.9
 21
319.7
 31
0.0
  0
LINE
  5
21A
330
1F
100
AcDbEntity
  8
0
  6
Continuous
 62
     7
370
    25
100
AcDbLine
 10
490.4
 20
309.4161178186
 30
0.0
 11
490.4
 21
304.7
 31
0.0
  0
SPLINE
  5
21B
330
1F
100
AcDbEntity
  8
0
  6
Continuous
 62
     7
370
    25
100
AcDbSpline
210
0.0
220
0.0
230
1.0
 70
    24
 71
     3
 72
    13
 73
     9
 74
     0
 42
0.000000001
 43
0.00000001
 40
0.0
 40
0.0
 40
0.0
 40
0.0
 40
0.4562536240148967
 40
0.6151465960656775
 40
0.8248978009701471
 40
0.8989945491587304
 40
0.9737945380438766
 40
1.0
 40
1.0
 40
1.0
 40
1.0
 10
490.4000000000001
 20
304.7000000000004
 30
0.0
 10
490.3918596674123
 20
304.7000000000004
 30
0.0
 10
490.3808844167653
 20
304.7000000000004
 30
0.0
 10
490.2691482766131
 20
304.7000000000004
 30
0.0
 10
490.1686119568508
 20
304.7000000000004
 30
0.0
 10
490.0388324017274
 20
304.7000000000004
 30
0.0
 10
489.9599523836047
 20
304.7000000000004
 30
0.0
 10
489.9123501975828
 20
304.7000000000004
 30
0.0
 10
489.9000000000001
 20
304.7000000000004
 30
0.0
  0
SPLINE
  5
21C
330
1F
100
AcDbEntity
  8
0
  6
Continuous
 62
     7
370
    25
100
AcDbSpline
210
0.0
220
0.0
230
1.0
 70
    24
 71
     3
 72
    13
 73
     9
 74
     0
 42
0.000000001
 43
0.00000001
 40
0.0
 40
0.0
 40
0.0
 40
0.0
 40
0.0600071289245179
 40
0.1333066582979347
 40
0.2464479258036572
 40
0.4598572101501754
 40
0.9339715721127966
 40
1.0
 40
1.0
 40
1.0
 40
1.0
 10
489.9000000000001
 20
319.7000000000004
 30
0.0
 10
489.9283695012549
 20
319.7000000000004
 30
0.0
 10
489.991392736621
 20
319.7000000000004
 30
0.0
 10
490.0926790691212
 20
319.7000000000004
 30
0.0
 10
490.2156745915622
 20
319.7000000000004
 30
0.0
 10
490.3607259397555
 20
319.7000000000004
 30
0.0
 10
490.3978039236371
 20
319.7000000000004
 30
0.0
 10
490.3997607879335
 20
319.7000000000004
 30
0.0
 10
490.4000000000001
 20
319.7000000000004
 30
0.0
  0
LINE
  5
21D
330
1F
100
AcDbEntity
  8
0
  6
Continuous
 62
     7
370
    25
100
AcDbLine
 10
490.4
 20
319.7
 30
0.0
 11
490.4
 21
314.9838821814
 31
0.0
  0
LINE
  5
21E
330
1F
100
AcDbEntity
  8
0
  6
Continuous
 62
     7
370
    25
100
AcDbLine
 10
451.9
 20
321.5273790531
 30
0.0
 11
451.9
 21
302.8726209469
 31
0.0
  0
LINE
  5
21F
330
1F
100
AcDbEntity
  8
0
  6
Continuous
 62
     7
370
    25
100
AcDbLine
 10
457.4
 20
296.2
 30
0.0
 11
457.4
 21
302.8726209469
 31
0.0
  0
LINE
  5
220
330
1F
100
AcDbEntity
  8
0
  6
Continuous
 62
     7
370
    25
100
AcDbLine
 10
451.9
 20
302.8726209469
 30
0.0
 11
457.4
 21
302.8726209469
 31
0.0
  0
LINE
  5
221
330
1F
100
AcDbEntity
  8
0
  6
Continuous
 62
     7
370
    25
100
AcDbLine
 10
457.4
 20
321.5273790531
 30
0.0
 11
457.9
 21
320.6409715081
 31
0.0
  0
LINE
  5
222
330
1F
100
AcDbEntity
  8
0
  6
Continuous
 62
     7
370
    25
100
AcDbLine
 10
457.9
 20
320.6409715081
 30
0.0
 11
457.9
 21
303.7590284919
 31
0.0
  0
LINE
  5
223
330
1F
100
AcDbEntity
  8
0
  6
Continuous
 62
     7
370
    25
100
AcDbLine
 10
457.9
 20
303.7590284919
 30
0.0
 11
457.4
 21
302.8726209469
 31
0.0
  0
LINE
  5
224
330
1F
100
AcDbEntity
  8
0
  6
Continuous
 62
     7
370
    25
100
AcDbLine
 10
457.4
 20
321.5273790531
 30
0.0
 11
451.9
 21
321.5273790531
 31
0.0
  0
LINE
  5
225
330
1F
100
AcDbEntity
  8
0
  6
Continuous
 62
     7
370
    25
100
AcDbLine
 10
457.4
 20
321.5273790531
 30
0.0
 11
457.4
 21
328.2
 31
0.0
  0
LINE
  5
226
330
1F
100
AcDbEntity
  8
0
  6
Continuous
 62
     7
370
    25
100
AcDbLine
 10
457.9
 20
303.7590284919
 30
0.0
 11
457.9
 21
296.7
 31
0.0
  0
LINE
  5
227
330
1F
100
AcDbEntity
  8
0
  6
Continuous
 62
     7
370
    25
100
AcDbLine
 10
457.9
 20
327.7
 30
0.0
 11
457.9
 21
320.6409715081
 31
0.0
  0
SPLINE
  5
228
330
1F
100
AcDbEntity
  8
0
  6
Continuous
 62
     7
370
    25
100
AcDbSpline
210
0.0
220
0.0
230
1.0
 70
     8
 71
     3
 72
    11
 73
     7
 74
     0
 42
0.000000001
 43
0.00000001
 40
0.0
 40
0.0
 40
0.0
 40
0.0
 40
0.280018664430672
 40
0.5581571545858891
 40
0.7784597807055033
 40
1.0
 40
1.0
 40
1.0
 40
1.0
 10
430.718181818182
 20
295.7248579545464
 30
0.0
 10
430.7089289416134
 20
295.8285997789845
 30
0.0
 10
430.6904853165508
 20
296.0353868574732
 30
0.0
 10
430.4838652422137
 20
296.267282572526
 30
0.0
 10
430.2216816582493
 20
296.3311548672543
 30
0.0
 10
430.0604080971444
 20
296.334624140872
 30
0.0
 10
429.9795454545456
 20
296.3363636363646
 30
0.0
  0
SPLINE
  5
229
330
1F
100
AcDbEntity
  8
0
  6
Continuous
 62
     7
370
    25
100
AcDbSpline
210
0.0
220
0.0
230
1.0
 70
     8
 71
     3
 72
    10
 73
     6
 74
     0
 42
0.000000001
 43
0.00000001
 40
0.0
 40
0.0
 40
0.0
 40
0.0
 40
0.2801681657094673
 40
0.5601913265080626
 40
0.9999999999999999
 40
0.9999999999999999
 40
0.9999999999999999
 40
0.9999999999999999
 10
430.3829545454547
 20
295.153125000001
 30
0.0
 10
430.4423313938694
 20
295.1834070104773
 30
0.0
 10
430.5610543593895
 20
295.2439553585565
 30
0.0
 10
430.6965692837864
 20
295.4495149587642
 30
0.0
 10
430.70998498475
 20
295.6204305592307
 30
0.0
 10
430.718181818182
 20
295.7248579545464
 30
0.0
  0
SPLINE
  5
22A
330
1F
100
AcDbEntity
  8
0
  6
Continuous
 62
     7
370
    25
100
AcDbSpline
210
0.0
220
0.0
230
1.0
 70
     8
 71
     3
 72
     9
 73
     5
 74
     0
 42
0.000000001
 43
0.00000001
 40
0.0
 40
0.0
 40
0.0
 40
0.0
 40
0.5603572931609995
 40
0.9999999999999999
 40
0.9999999999999999
 40
0.9999999999999999
 40
0.9999999999999999
 10
430.030681818182
 20
295.1090909090919
 30
0.0
 10
430.0975329304459
 20
295.1095321273273
 30
0.0
 10
430.2168337998731
 20
295.1103195146618
 30
0.0
 10
430.3322240594093
 20
295.1400529236082
 30
0.0
 10
430.3829545454547
 20
295.153125000001
 30
0.0
  0
LINE
  5
22B
330
1F
100
AcDbEntity
  8
0
  6
Continuous
 62
     7
370
    25
100
AcDbLine
 10
429.3090909091
 20
295.1090909091
 30
0.0
 11
430.0306818182
 21
295.1090909091
 31
0.0
  0
LINE
  5
22C
330
1F
100
AcDbEntity
  8
0
  6
Continuous
 62
     7
370
    25
100
AcDbLine
 10
429.9795454545
 20
296.3363636364
 30
0.0
 11
429.3090909091
 21
296.3363636364
 31
0.0
  0
LINE
  5
22D
330
1F
100
AcDbEntity
  8
0
  6
Continuous
 62
     7
370
    25
100
AcDbLine
 10
429.3090909091
 20
296.3363636364
 30
0.0
 11
429.3090909091
 21
295.1090909091
 31
0.0
  0
SPLINE
  5
22E
330
1F
100
AcDbEntity
  8
0
  6
Continuous
 62
     7
370
    25
100
AcDbSpline
210
0.0
220
0.0
230
1.0
 70
     8
 71
     3
 72
    12
 73
     8
 74
     0
 42
0.000000001
 43
0.00000001
 40
0.0
 40
0.0
 40
0.0
 40
0.0
 40
0.1869731324517979
 40
0.3733711610546806
 40
0.5589633137266381
 40
0.779150154989805
 40
1.0
 40
1.0
 40
1.0
 40
1.0
 10
430.6272727272728
 20
297.262500000001
 30
0.0
 10
430.623531283984
 20
297.3275619262535
 30
0.0
 10
430.6160599055756
 20
297.4574856571489
 30
0.0
 10
430.5261095700773
 20
297.6367598396723
 30
0.0
 10
430.3531954869912
 20
297.7630410489172
 30
0.0
 10
430.1324225427988
 20
297.7867871600723
 30
0.0
 10
429.9803912721234
 20
297.789533737668
 30
0.0
 10
429.9042613636365
 20
297.7909090909101
 30
0.0
  0
SPLINE
  5
22F
330
1F
100
AcDbEntity
  8
0
  6
Continuous
 62
     7
370
    25
100
AcDbSpline
210
0.0
220
0.0
230
1.0
 70
     8
 71
     3
 72
    10
 73
     6
 74
     0
 42
0.000000001
 43
0.00000001
 40
0.0
 40
0.0
 40
0.0
 40
0.0
 40
0.2806461823125085
 40
0.5605609107451028
 40
1.0
 40
1.0
 40
1.0
 40
1.0
 10
430.309090909091
 20
296.7788352272736
 30
0.0
 10
430.3632431210126
 20
296.8016127021364
 30
0.0
 10
430.4714064068392
 20
296.8471082864635
 30
0.0
 10
430.6091267684122
 20
297.0170351772879
 30
0.0
 10
430.6203913910241
 20
297.1694144818804
 30
0.0
 10
430.6272727272728
 20
297.262500000001
 30
0.0
  0
SPLINE
  5
230
330
1F
100
AcDbEntity
  8
0
  6
Continuous
 62
     7
370
    25
100
AcDbSpline
210
0.0
220
0.0
230
1.0
 70
     8
 71
     3
 72
     9
 73
     5
 74
     0
 42
0.000000001
 43
0.00000001
 40
0.0
 40
0.0
 40
0.0
 40
0.0
 40
0.5603258410813442
 40
1.0
 40
1.0
 40
1.0
 40
1.0
 10
429.9511363636365
 20
296.7454545454555
 30
0.0
 10
430.018616516048
 20
296.7455237472074
 30
0.0
 10
430.1390467148076
 20
296.7456472499033
 30
0.0
 10
430.2571596872674
 20
296.7686996726788
 30
0.0
 10
430.309090909091
 20
296.7788352272736
 30
0.0
  0
LINE
  5
231
330
1F
100
AcDbEntity
  8
0
  6
Continuous
 62
     7
370
    25
100
AcDbLine
 10
429.3090909091
 20
296.7454545455
 30
0.0
 11
429.9511363636
 21
296.7454545455
 31
0.0
  0
LINE
  5
232
330
1F
100
AcDbEntity
  8
0
  6
Continuous
 62
     7
370
    25
100
AcDbLine
 10
429.3090909091
 20
297.7909090909
 30
0.0
 11
429.3090909091
 21
296.7454545455
 31
0.0
  0
LINE
  5
233
330
1F
100
AcDbEntity
  8
0
  6
Continuous
 62
     7
370
    25
100
AcDbLine
 10
429.9042613636
 20
297.7909090909
 30
0.0
 11
429.3090909091
 21
297.7909090909
 31
0.0
  0
SPLINE
  5
234
330
1F
100
AcDbEntity
  8
0
  6
Continuous
 62
     7
370
    25
100
AcDbSpline
210
0.0
220
0.0
230
1.0
 70
     8
 71
     3
 72
     9
 73
     5
 74
     0
 42
0.000000001
 43
0.00000001
 40
0.0
 40
0.0
 40
0.0
 40
0.0
 40
0.5590457952192418
 40
1.0
 40
1.0
 40
1.0
 40
1.0
 10
436.2366477272729
 20
297.7213068181828
 30
0.0
 10
436.1459197705999
 20
297.7459646676781
 30
0.0
 10
435.9836290290385
 20
297.7900716973816
 30
0.0
 10
435.8156780212594
 20
297.7906528355786
 30
0.0
 10
435.741619318182
 20
297.7909090909101
 30
0.0
  0
SPLINE
  5
235
330
1F
100
AcDbEntity
  8
0
  6
Continuous
 62
     7
370
    25
100
AcDbSpline
210
0.0
220
0.0
230
1.0
 70
     8
 71
     3
 72
    11
 73
     7
 74
     0
 42
0.000000001
 43
0.00000001
 40
0.0
 40
0.0
 40
0.0
 40
0.0
 40
0.2807802146626466
 40
0.5610535202318948
 40
0.781187764247403
 40
1.0
 40
1.0
 40
1.0
 40
1.0
 10
436.7636363636365
 20
296.4741477272736
 30
0.0
 10
436.7601138920638
 20
296.6075975659061
 30
0.0
 10
436.7530753082441
 20
296.8742563183009
 30
0.0
 10
436.665390941148
 20
297.2362035437047
 30
0.0
 10
436.5006659068422
 20
297.5466799540907
 30
0.0
 10
436.3244769065566
 20
297.6632148558069
 30
0.0
 10
436.2366477272729
 20
297.7213068181828
 30
0.0
  0
SPLINE
  5
236
330
1F
100
AcDbEntity
  8
0
  6
Continuous
 62
     7
370
    25
100
AcDbSpline
210
0.0
220
0.0
230
1.0
 70
     8
 71
     3
 72
     9
 73
     5
 74
     0
 42
0.000000001
 43
0.00000001
 40
0.0
 40
0.0
 40
0.0
 40
0.0
 40
0.559565411224556
 40
1.0
 40
1.0
 40
1.0
 40
1.0
 10
436.624431818182
 20
295.6190340909101
 30
0.0
 10
436.6710891500137
 20
295.7753900040048
 30
0.0
 10
436.7544705222282
 20
296.0548138389282
 30
0.0
 10
436.7608337694591
 20
296.3459300698304
 30
0.0
 10
436.7636363636365
 20
296.4741477272736
 30
0.0
  0
SPLINE
  5
237
330
1F
100
AcDbEntity
  8
0
  6
Continuous
 62
     7
370
    25
100
AcDbSpline
210
0.0
220
0.0
230
1.0
 70
     8
 71
     3
 72
    11
 73
     7
 74
     0
 42
0.000000001
 43
0.00000001
 40
0.0
 40
0.0
 40
0.0
 40
0.0
 40
0.280747448378309
 40
0.5599995389819119
 40
0.7797085369030019
 40
1.0
 40
1.0
 40
1.0
 40
1.0
 10
435.7515625000001
 20
295.1090909090919
 30
0.0
 10
435.8533901266844
 20
295.1125550416029
 30
0.0
 10
436.05650301098
 20
295.1194648554601
 30
0.0
 10
436.3338881140712
 20
295.210167899083
 30
0.0
 10
436.5243433046535
 20
295.4001959372931
 30
0.0
 10
436.591039549885
 20
295.5460236915986
 30
0.0
 10
436.624431818182
 20
295.6190340909101
 30
0.0
  0
LINE
  5
238
330
1F
100
AcDbEntity
  8
0
  6
Continuous
 62
     7
370
    25
100
AcDbLine
 10
435.7416193182
 20
297.7909090909
 30
0.0
 11
435.1272727273
 21
297.7909090909
 31
0.0
  0
LINE
  5
239
330
1F
100
AcDbEntity
  8
0
  6
Continuous
 62
     7
370
    25
100
AcDbLine
 10
435.1272727273
 20
295.1090909091
 30
0.0
 11
435.7515625
 21
295.1090909091
 31
0.0
  0
LINE
  5
23A
330
1F
100
AcDbEntity
  8
0
  6
Continuous
 62
     7
370
    25
100
AcDbLine
 10
435.1272727273
 20
297.7909090909
 30
0.0
 11
435.1272727273
 21
295.1090909091
 31
0.0
  0
SPLINE
  5
23B
330
1F
100
AcDbEntity
  8
0
  6
Continuous
 62
     7
370
    25
100
AcDbSpline
210
0.0
220
0.0
230
1.0
 70
     8
 71
     3
 72
    12
 73
     8
 74
     0
 42
0.000000001
 43
0.00000001
 40
0.0
 40
0.0
 40
0.0
 40
0.0
 40
0.2509744106352961
 40
0.5011885230981706
 40
0.6264117998227694
 40
0.7515654831771831
 40
0.9999999999999999
 40
0.9999999999999999
 40
0.9999999999999999
 40
0.9999999999999999
 10
413.0363636363638
 20
295.8242897727282
 30
0.0
 10
413.0325174148364
 20
295.6905706230263
 30
0.0
 10
413.0248366234684
 20
295.4235374104393
 30
0.0
 10
412.9478786886867
 20
295.0899179924357
 30
0.0
 10
412.7978668720975
 20
294.8653970875442
 30
0.0
 10
412.5851408487646
 20
294.6928879042525
 30
0.0
 10
412.3813804527254
 20
294.6698593453517
 30
0.0
 10
412.2458806818183
 20
294.6545454545464
 30
0.0
  0
LINE
  5
23C
330
1F
100
AcDbEntity
  8
0
  6
Continuous
 62
     7
370
    25
100
AcDbLine
 10
413.0363636364
 20
298.2
 30
0.0
 11
413.0363636364
 21
295.8242897727
 31
0.0
  0
LINE
  5
23D
330
1F
100
AcDbEntity
  8
0
  6
Continuous
 62
     7
370
    25
100
AcDbLine
 10
412.6727272727
 20
298.2
 30
0.0
 11
413.0363636364
 21
298.2
 31
0.0
  0
LINE
  5
23E
330
1F
100
AcDbEntity
  8
0
  6
Continuous
 62
     7
370
    25
100
AcDbLine
 10
412.6727272727
 20
295.7965909091
 30
0.0
 11
412.6727272727
 21
298.2
 31
0.0
  0
SPLINE
  5
23F
330
1F
100
AcDbEntity
  8
0
  6
Continuous
 62
     7
370
    25
100
AcDbSpline
210
0.0
220
0.0
230
1.0
 70
     8
 71
     3
 72
     9
 73
     5
 74
     0
 42
0.000000001
 43
0.00000001
 40
0.0
 40
0.0
 40
0.0
 40
0.0
 40
0.5596714772947503
 40
1.0
 40
1.0
 40
1.0
 40
1.0
 10
412.6251420454547
 20
295.3278409090919
 30
0.0
 10
412.6419834661798
 20
295.4145417316915
 30
0.0
 10
412.672075084939
 20
295.5694555090002
 30
0.0
 10
412.6725278898221
 20
295.7271524486297
 30
0.0
 10
412.6727272727274
 20
295.7965909090918
 30
0.0
  0
SPLINE
  5
240
330
1F
100
AcDbEntity
  8
0
  6
Continuous
 62
     7
370
    25
100
AcDbSpline
210
0.0
220
0.0
230
1.0
 70
     8
 71
     3
 72
    11
 73
     7
 74
     0
 42
0.000000001
 43
0.00000001
 40
0.0
 40
0.0
 40
0.0
 40
0.0
 40
0.2799361167245393
 40
0.55968186580657
 40
0.7799194323638304
 40
1.0
 40
1.0
 40
1.0
 40
1.0
 10
412.262215909091
 20
295.0636363636373
 30
0.0
 10
412.3073409666051
 20
295.0675218634116
 30
0.0
 10
412.3975603948076
 20
295.0752902206666
 30
0.0
 10
412.506404869137
 20
295.1433781625343
 30
0.0
 10
412.5858045296648
 20
295.2290061191327
 30
0.0
 10
412.6120326574737
 20
295.2949038112203
 30
0.0
 10
412.6251420454547
 20
295.3278409090919
 30
0.0
  0
SPLINE
  5
241
330
1F
100
AcDbEntity
  8
0
  6
Continuous
 62
     7
370
    25
100
AcDbSpline
210
0.0
220
0.0
230
1.0
 70
     8
 71
     3
 72
    12
 73
     8
 74
     0
 42
0.000000001
 43
0.00000001
 40
0.0
 40
0.0
 40
0.0
 40
0.0
 40
0.5001633446579531
 40
0.6253300340616534
 40
0.7503297891189846
 40
0.8750798257857557
 40
1.0
 40
1.0
 40
1.0
 40
1.0
 10
411.8545454545456
 20
295.79090909091
 30
0.0
 10
411.8621078687937
 20
295.6340409433677
 30
0.0
 10
411.8715627894908
 20
295.4379162871057
 30
0.0
 10
411.9627543926105
 20
295.2208421318329
 30
0.0
 10
412.0410187313367
 20
295.1321646978279
 30
0.0
 10
412.1452658122111
 20
295.0732279131531
 30
0.0
 10
412.223214837366
 20
295.0668349989578
 30
0.0
 10
412.262215909091
 20
295.0636363636373
 30
0.0
  0
LINE
  5
242
330
1F
100
AcDbEntity
  8
0
  6
Continuous
 62
     7
370
    25
100
AcDbLine
 10
411.4909090909
 20
295.7454545455
 30
0.0
 11
411.8545454545
 21
295.7909090909
 31
0.0
  0
SPLINE
  5
243
330
1F
100
AcDbEntity
  8
0
  6
Continuous
 62
     7
370
    25
100
AcDbSpline
210
0.0
220
0.0
230
1.0
 70
     8
 71
     3
 72
     9
 73
     5
 74
     0
 42
0.000000001
 43
0.00000001
 40
0.0
 40
0.0
 40
0.0
 40
0.0
 40
0.5581330890101972
 40
0.9999999999999999
 40
0.9999999999999999
 40
0.9999999999999999
 40
0.9999999999999999
 10
411.6990056818183
 20
294.9017045454555
 30
0.0
 10
411.626582227167
 20
295.0509800345786
 30
0.0
 10
411.4968220390016
 20
295.3184350413904
 30
0.0
 10
411.4927211417223
 20
295.6145924057146
 30
0.0
 10
411.4909090909092
 20
295.7454545454555
 30
0.0
  0
SPLINE
  5
244
330
1F
100
AcDbEntity
  8
0
  6
Continuous
 62
     7
370
    25
100
AcDbSpline
210
0.0
220
0.0
230
1.0
 70
     8
 71
     3
 72
     9
 73
     5
 74
     0
 42
0.000000001
 43
0.00000001
 40
0.0
 40
0.0
 40
0.0
 40
0.0
 40
0.5602222431826355
 40
1.0
 40
1.0
 40
1.0
 40
1.0
 10
412.2458806818183
 20
294.6545454545464
 30
0.0
 10
412.1257082272156
 20
294.6638205822958
 30
0.0
 10
411.9111996887468
 20
294.6803767398964
 30
0.0
 10
411.7638199935656
 20
294.8341003298818
 30
0.0
 10
411.6990056818183
 20
294.9017045454555
 30
0.0
  0
LINE
  5
245
330
1F
100
AcDbEntity
  8
0
  6
Continuous
 62
     7
370
    25
100
AcDbLine
 10
415.3069602273
 20
295.7454545455
 30
0.0
 11
414.0839488636
 21
295.7454545455
 31
0.0
  0
LINE
  5
246
330
1F
100
AcDbEntity
  8
0
  6
Continuous
 62
     7
370
    25
100
AcDbLine
 10
415.6130681818
 20
294.7
 30
0.0
 11
415.3069602273
 21
295.7454545455
 31
0.0
  0
LINE
  5
247
330
1F
100
AcDbEntity
  8
0
  6
Continuous
 62
     7
370
    25
100
AcDbLine
 10
415.9909090909
 20
294.7
 30
0.0
 11
415.6130681818
 21
294.7
 31
0.0
  0
LINE
  5
248
330
1F
100
AcDbEntity
  8
0
  6
Continuous
 62
     7
370
    25
100
AcDbLine
 10
414.8723011364
 20
298.2
 30
0.0
 11
415.9909090909
 21
294.7
 31
0.0
  0
LINE
  5
249
330
1F
100
AcDbEntity
  8
0
  6
Continuous
 62
     7
370
    25
100
AcDbLine
 10
414.5178977273
 20
298.2
 30
0.0
 11
414.8723011364
 21
298.2
 31
0.0
  0
LINE
  5
24A
330
1F
100
AcDbEntity
  8
0
  6
Continuous
 62
     7
370
    25
100
AcDbLine
 10
413.4
 20
294.7
 30
0.0
 11
414.5178977273
 21
298.2
 31
0.0
  0
LINE
  5
24B
330
1F
100
AcDbEntity
  8
0
  6
Continuous
 62
     7
370
    25
100
AcDbLine
 10
413.7785511364
 20
294.7
 30
0.0
 11
413.4
 21
294.7
 31
0.0
  0
LINE
  5
24C
330
1F
100
AcDbEntity
  8
0
  6
Continuous
 62
     7
370
    25
100
AcDbLine
 10
414.0839488636
 20
295.7454545455
 30
0.0
 11
413.7785511364
 21
294.7
 31
0.0
  0
SPLINE
  5
24D
330
1F
100
AcDbEntity
  8
0
  6
Continuous
 62
     7
370
    25
100
AcDbSpline
210
0.0
220
0.0
230
1.0
 70
     8
 71
     3
 72
    10
 73
     6
 74
     0
 42
0.000000001
 43
0.00000001
 40
0.0
 40
0.0
 40
0.0
 40
0.0
 40
0.2798668514689471
 40
0.5602377182540134
 40
1.0
 40
1.0
 40
1.0
 40
1.0
 10
430.6002840909092
 20
296.5863636363646
 30
0.0
 10
430.6859928008502
 20
296.5381597003475
 30
0.0
 10
430.8575645744983
 20
296.4416650173106
 30
0.0
 10
431.0483753199727
 20
296.1335104146085
 30
0.0
 10
431.0691386687782
 20
295.881558090043
 30
0.0
 10
431.0818181818183
 20
295.7276988636373
 30
0.0
  0
SPLINE
  5
24E
330
1F
100
AcDbEntity
  8
0
  6
Continuous
 62
     7
370
    25
100
AcDbSpline
210
0.0
220
0.0
230
1.0
 70
     8
 71
     3
 72
     9
 73
     5
 74
     0
 42
0.000000001
 43
0.00000001
 40
0.0
 40
0.0
 40
0.0
 40
0.0
 40
0.5592413203455809
 40
1.0
 40
1.0
 40
1.0
 40
1.0
 10
430.9909090909092
 20
297.3200284090918
 30
0.0
 10
430.9700198541423
 20
297.1534592743058
 30
0.0
 10
430.9326670405949
 20
296.8556108701802
 30
0.0
 10
430.7019670945322
 20
296.6687320835952
 30
0.0
 10
430.6002840909092
 20
296.5863636363646
 30
0.0
  0
SPLINE
  5
24F
330
1F
100
AcDbEntity
  8
0
  6
Continuous
 62
     7
370
    25
100
AcDbSpline
210
0.0
220
0.0
230
1.0
 70
     8
 71
     3
 72
    11
 73
     7
 74
     0
 42
0.000000001
 43
0.00000001
 40
0.0
 40
0.0
 40
0.0
 40
0.0
 40
0.2808005516517129
 40
0.5589677396737154
 40
0.7794647839570957
 40
1.0
 40
1.0
 40
1.0
 40
1.0
 10
430.030681818182
 20
298.200000000001
 30
0.0
 10
430.170016376305
 20
298.1952028044236
 30
0.0
 10
430.4473788050979
 20
298.1856534016432
 30
0.0
 10
430.7788797736914
 20
297.9578716981032
 30
0.0
 10
430.9603841128775
 20
297.6449024924137
 30
0.0
 10
430.9807335111454
 20
297.4283260184988
 30
0.0
 10
430.9909090909092
 20
297.3200284090918
 30
0.0
  0
LINE
  5
250
330
1F
100
AcDbEntity
  8
0
  6
Continuous
 62
     7
370
    25
100
AcDbLine
 10
428.9454545455
 20
298.2
 30
0.0
 11
430.0306818182
 21
298.2
 31
0.0
  0
LINE
  5
251
330
1F
100
AcDbEntity
  8
0
  6
Continuous
 62
     7
370
    25
100
AcDbLine
 10
428.9454545455
 20
294.7
 30
0.0
 11
428.9454545455
 21
298.2
 31
0.0
  0
LINE
  5
252
330
1F
100
AcDbEntity
  8
0
  6
Continuous
 62
     7
370
    25
100
AcDbLine
 10
430.0228693182
 20
294.7
 30
0.0
 11
428.9454545455
 21
294.7
 31
0.0
  0
SPLINE
  5
253
330
1F
100
AcDbEntity
  8
0
  6
Continuous
 62
     7
370
    25
100
AcDbSpline
210
0.0
220
0.0
230
1.0
 70
     8
 71
     3
 72
    11
 73
     7
 74
     0
 42
0.000000001
 43
0.00000001
 40
0.0
 40
0.0
 40
0.0
 40
0.0
 40
0.2803570641893302
 40
0.5592749118917912
 40
0.7789122644093868
 40
0.9999999999999999
 40
0.9999999999999999
 40
0.9999999999999999
 40
0.9999999999999999
 10
431.0818181818183
 20
295.7276988636373
 30
0.0
 10
431.0679754686042
 20
295.5702876107082
 30
0.0
 10
431.0403611039168
 20
295.2562731774809
 30
0.0
 10
430.7788638798626
 20
294.8718221616667
 30
0.0
 10
430.3937444549344
 20
294.7122843670826
 30
0.0
 10
430.1467652918399
 20
294.7041037628837
 30
0.0
 10
430.022869318182
 20
294.700000000001
 30
0.0
  0
SPLINE
  5
254
330
1F
100
AcDbEntity
  8
0
  6
Continuous
 62
     7
370
    25
100
AcDbSpline
210
0.0
220
0.0
230
1.0
 70
     8
 71
     3
 72
    10
 73
     6
 74
     0
 42
0.000000001
 43
0.00000001
 40
0.0
 40
0.0
 40
0.0
 40
0.0
 40
0.2781954152419195
 40
0.5587789786535924
 40
1.0
 40
1.0
 40
1.0
 40
1.0
 10
436.3069602272728
 20
298.1353693181828
 30
0.0
 10
436.4684542581976
 20
298.042385377935
 30
0.0
 10
436.7928286537293
 20
297.8556192836136
 30
0.0
 10
437.0794398419706
 20
297.230590687932
 30
0.0
 10
437.1091262011807
 20
296.7580365916695
 30
0.0
 10
437.1272727272728
 20
296.4691761363646
 30
0.0
  0
SPLINE
  5
255
330
1F
100
AcDbEntity
  8
0
  6
Continuous
 62
     7
370
    25
100
AcDbSpline
210
0.0
220
0.0
230
1.0
 70
     8
 71
     3
 72
     9
 73
     5
 74
     0
 42
0.000000001
 43
0.00000001
 40
0.0
 40
0.0
 40
0.0
 40
0.0
 40
0.5603093479473521
 40
1.0
 40
1.0
 40
1.0
 40
1.0
 10
435.7501420454547
 20
298.200000000001
 30
0.0
 10
435.8555618143699
 20
298.1992799491034
 30
0.0
 10
436.0437074687328
 20
298.1979948538249
 30
0.0
 10
436.2265611659244
 20
298.1544955537823
 30
0.0
 10
436.3069602272728
 20
298.1353693181828
 30
0.0
  0
LINE
  5
256
330
1F
100
AcDbEntity
  8
0
  6
Continuous
 62
     7
370
    25
100
AcDbLine
 10
434.7636363636
 20
298.2
 30
0.0
 11
435.7501420455
 21
298.2
 31
0.0
  0
LINE
  5
257
330
1F
100
AcDbEntity
  8
0
  6
Continuous
 62
     7
370
    25
100
AcDbLine
 10
434.7636363636
 20
294.7
 30
0.0
 11
434.7636363636
 21
298.2
 31
0.0
  0
LINE
  5
258
330
1F
100
AcDbEntity
  8
0
  6
Continuous
 62
     7
370
    25
100
AcDbLine
 10
435.7955965909
 20
294.7
 30
0.0
 11
434.7636363636
 21
294.7
 31
0.0
  0
SPLINE
  5
259
330
1F
100
AcDbEntity
  8
0
  6
Continuous
 62
     7
370
    25
100
AcDbSpline
210
0.0
220
0.0
230
1.0
 70
     8
 71
     3
 72
    12
 73
     8
 74
     0
 42
0.000000001
 43
0.00000001
 40
0.0
 40
0.0
 40
0.0
 40
0.0
 40
0.2506807516588876
 40
0.5007505944566373
 40
0.625983918879232
 40
0.7508833364896605
 40
1.0
 40
1.0
 40
1.0
 40
1.0
 10
437.1272727272728
 20
296.4691761363646
 30
0.0
 10
437.1184430717306
 20
296.2589058930461
 30
0.0
 10
437.100805278512
 20
295.8388778348826
 30
0.0
 10
436.9208302313337
 20
295.3348123493215
 30
0.0
 10
436.6780464158171
 20
294.9899230522262
 30
0.0
 10
436.3294943079544
 20
294.737137348078
 30
0.0
 10
436.0090387813125
 20
294.7148468080435
 30
0.0
 10
435.7955965909092
 20
294.700000000001
 30
0.0
  0
SPLINE
  5
25A
330
1F
100
AcDbEntity
  8
0
  6
Continuous
 62
     7
370
    25
100
AcDbSpline
210
0.0
220
0.0
230
1.0
 70
     8
 71
     3
 72
    11
 73
     7
 74
     0
 42
0.000000001
 43
0.00000001
 40
0.0
 40
0.0
 40
0.0
 40
0.0
 40
0.2814473965347342
 40
0.5601829472036642
 40
0.7795993221440134
 40
1.0
 40
1.0
 40
1.0
 40
1.0
 10
442.1954545454547
 20
296.2589488636373
 30
0.0
 10
442.3050852725754
 20
296.2256188233502
 30
0.0
 10
442.5232903957306
 20
296.1592798895802
 30
0.0
 10
442.8279471910747
 20
296.0226150311909
 30
0.0
 10
442.9734084878833
 20
295.7468576499758
 30
0.0
 10
442.9850668594896
 20
295.5661328242104
 30
0.0
 10
442.9909090909092
 20
295.4755681818191
 30
0.0
  0
SPLINE
  5
25B
330
1F
100
AcDbEntity
  8
0
  6
Continuous
 62
     7
370
    25
100
AcDbSpline
210
0.0
220
0.0
230
1.0
 70
     8
 71
     3
 72
     9
 73
     5
 74
     0
 42
0.000000001
 43
0.00000001
 40
0.0
 40
0.0
 40
0.0
 40
0.0
 40
0.5595516229649558
 40
1.0
 40
1.0
 40
1.0
 40
1.0
 10
441.7877840909092
 20
296.4045454545464
 30
0.0
 10
441.8623148277723
 20
296.3731073584023
 30
0.0
 10
441.9955120767915
 20
296.3169229156203
 30
0.0
 10
442.134317793019
 20
296.276675689196
 30
0.0
 10
442.1954545454547
 20
296.2589488636373
 30
0.0
  0
SPLINE
  5
25C
330
1F
100
AcDbEntity
  8
0
  6
Continuous
 62
     7
370
    25
100
AcDbSpline
210
0.0
220
0.0
230
1.0
 70
     8
 71
     3
 72
     9
 73
     5
 74
     0
 42
0.000000001
 43
0.00000001
 40
0.0
 40
0.0
 40
0.0
 40
0.0
 40
0.5585471834250286
 40
1.0
 40
1.0
 40
1.0
 40
1.0
 10
441.6727272727274
 20
296.6161931818191
 30
0.0
 10
441.6794899451843
 20
296.5682250364087
 30
0.0
 10
441.691597556963
 20
296.4823448335649
 30
0.0
 10
441.7583264382973
 20
296.4283719402978
 30
0.0
 10
441.7877840909092
 20
296.4045454545464
 30
0.0
  0
SPLINE
  5
25D
330
1F
100
AcDbEntity
  8
0
  6
Continuous
 62
     7
370
    25
100
AcDbSpline
210
0.0
220
0.0
230
1.0
 70
     8
 71
     3
 72
    10
 73
     6
 74
     0
 42
0.000000001
 43
0.00000001
 40
0.0
 40
0.0
 40
0.0
 40
0.0
 40
0.5003372889446516
 40
0.7505618089323538
 40
1.0
 40
1.0
 40
1.0
 40
1.0
 10
442.1286931818183
 20
296.9272727272736
 30
0.0
 10
442.0236989251064
 20
296.9219727093849
 30
0.0
 10
441.8661958147316
 20
296.9140220906687
 30
0.0
 10
441.6974741712266
 20
296.7718982926174
 30
0.0
 10
441.6809675799793
 20
296.6680404043594
 30
0.0
 10
441.6727272727275
 20
296.6161931818191
 30
0.0
  0
SPLINE
  5
25E
330
1F
100
AcDbEntity
  8
0
  6
Continuous
 62
     7
370
    25
100
AcDbSpline
210
0.0
220
0.0
230
1.0
 70
     8
 71
     3
 72
    11
 73
     7
 74
     0
 42
0.000000001
 43
0.00000001
 40
0.0
 40
0.0
 40
0.0
 40
0.0
 40
0.280436755804727
 40
0.5591468458286953
 40
0.7793134463445913
 40
1.0
 40
1.0
 40
1.0
 40
1.0
 10
442.5818181818183
 20
296.5181818181827
 30
0.0
 10
442.5707179925269
 20
296.5813486966055
 30
0.0
 10
442.5485859584696
 20
296.7072935312245
 30
0.0
 10
442.4330957450691
 20
296.8534655006893
 30
0.0
 10
442.2790241676319
 20
296.919663402691
 30
0.0
 10
442.1788428958481
 20
296.9247342921685
 30
0.0
 10
442.1286931818183
 20
296.9272727272736
 30
0.0
  0
LINE
  5
25F
330
1F
100
AcDbEntity
  8
0
  6
Continuous
 62
     7
370
    25
100
AcDbLine
 10
442.9454545455
 20
296.5636363636
 30
0.0
 11
442.5818181818
 21
296.5181818182
 31
0.0
  0
SPLINE
  5
260
330
1F
100
AcDbEntity
  8
0
  6
Continuous
 62
     7
370
    25
100
AcDbSpline
210
0.0
220
0.0
230
1.0
 70
     8
 71
     3
 72
    11
 73
     7
 74
     0
 42
0.000000001
 43
0.00000001
 40
0.0
 40
0.0
 40
0.0
 40
0.0
 40
0.2803356727877932
 40
0.5595390518462976
 40
0.7791124662955063
 40
1.0
 40
1.0
 40
1.0
 40
1.0
 10
442.1159090909092
 20
297.2909090909101
 30
0.0
 10
442.23085165215
 20
297.2819442407727
 30
0.0
 10
442.4602725142683
 20
297.2640507501017
 30
0.0
 10
442.7490469486262
 20
297.0938271760435
 30
0.0
 10
442.9004503669012
 20
296.831144497458
 30
0.0
 10
442.9304233443863
 20
296.6529829238041
 30
0.0
 10
442.9454545454547
 20
296.5636363636373
 30
0.0
  0
SPLINE
  5
261
330
1F
100
AcDbEntity
  8
0
  6
Continuous
 62
     7
370
    25
100
AcDbSpline
210
0.0
220
0.0
230
1.0
 70
     8
 71
     3
 72
    11
 73
     7
 74
     0
 42
0.000000001
 43
0.00000001
 40
0.0
 40
0.0
 40
0.0
 40
0.0
 40
0.2795324117946977
 40
0.5585268733539261
 40
0.7789792656856481
 40
1.0
 40
1.0
 40
1.0
 40
1.0
 10
441.309090909091
 20
296.5650568181827
 30
0.0
 10
441.3215250815951
 20
296.6800752057626
 30
0.0
 10
441.3463694974783
 20
296.9098906321053
 30
0.0
 10
441.5717338387117
 20
297.1598757781076
 30
0.0
 10
441.846038149044
 20
297.2764341347138
 30
0.0
 10
442.0258749377554
 20
297.2860799662401
 30
0.0
 10
442.1159090909093
 20
297.2909090909101
 30
0.0
  0
SPLINE
  5
262
330
1F
100
AcDbEntity
  8
0
  6
Continuous
 62
     7
370
    25
100
AcDbSpline
210
0.0
220
0.0
230
1.0
 70
     8
 71
     3
 72
    11
 73
     7
 74
     0
 42
0.000000001
 43
0.00000001
 40
0.0
 40
0.0
 40
0.0
 40
0.0
 40
0.2812658031315834
 40
0.5612303391683348
 40
0.7804513557212454
 40
1.0
 40
1.0
 40
1.0
 40
1.0
 10
442.2011363636365
 20
295.7845170454555
 30
0.0
 10
442.0861141262684
 20
295.8202172563252
 30
0.0
 10
441.8566017981743
 20
295.8914525121996
 30
0.0
 10
441.5412909291858
 20
296.0229782158602
 30
0.0
 10
441.3395973348233
 20
296.2795086535824
 30
0.0
 10
441.3192647784174
 20
296.4698267267094
 30
0.0
 10
441.309090909091
 20
296.5650568181827
 30
0.0
  0
SPLINE
  5
263
330
1F
100
AcDbEntity
  8
0
  6
Continuous
 62
     7
370
    25
100
AcDbSpline
210
0.0
220
0.0
230
1.0
 70
     8
 71
     3
 72
     9
 73
     5
 74
     0
 42
0.000000001
 43
0.00000001
 40
0.0
 40
0.0
 40
0.0
 40
0.0
 40
0.5587485981639617
 40
1.0
 40
1.0
 40
1.0
 40
1.0
 10
442.5441761363638
 20
295.6438920454555
 30
0.0
 10
442.4828572343158
 20
295.6765067590087
 30
0.0
 10
442.3731139575551
 20
295.7348777574513
 30
0.0
 10
442.2537887699442
 20
295.7693195543099
 30
0.0
 10
442.2011363636365
 20
295.7845170454555
 30
0.0
  0
SPLINE
  5
264
330
1F
100
AcDbEntity
  8
0
  6
Continuous
 62
     7
370
    25
100
AcDbSpline
210
0.0
220
0.0
230
1.0
 70
     8
 71
     3
 72
     9
 73
     5
 74
     0
 42
0.000000001
 43
0.00000001
 40
0.0
 40
0.0
 40
0.0
 40
0.0
 40
0.5601359041520936
 40
1.0
 40
1.0
 40
1.0
 40
1.0
 10
442.6272727272729
 20
295.4130681818191
 30
0.0
 10
442.6246094547144
 20
295.4611609138924
 30
0.0
 10
442.6198547647565
 20
295.5470199558085
 30
0.0
 10
442.5672952012456
 20
295.6142985899007
 30
0.0
 10
442.5441761363638
 20
295.6438920454555
 30
0.0
  0
SPLINE
  5
265
330
1F
100
AcDbEntity
  8
0
  6
Continuous
 62
     7
370
    25
100
AcDbSpline
210
0.0
220
0.0
230
1.0
 70
     8
 71
     3
 72
    11
 73
     7
 74
     0
 42
0.000000001
 43
0.00000001
 40
0.0
 40
0.0
 40
0.0
 40
0.0
 40
0.2807116634717338
 40
0.5598164725103669
 40
0.7798135000130365
 40
1.0
 40
1.0
 40
1.0
 40
1.0
 10
442.155681818182
 20
295.0181818181827
 30
0.0
 10
442.220700958528
 20
295.0216430014281
 30
0.0
 10
442.3503670555615
 20
295.0285455553553
 30
0.0
 10
442.512107691769
 20
295.1205117779526
 30
0.0
 10
442.6131852538382
 20
295.2596746630967
 30
0.0
 10
442.622575555475
 20
295.361922338424
 30
0.0
 10
442.6272727272729
 20
295.4130681818191
 30
0.0
  0
SPLINE
  5
266
330
1F
100
AcDbEntity
  8
0
  6
Continuous
 62
     7
370
    25
100
AcDbSpline
210
0.0
220
0.0
230
1.0
 70
     8
 71
     3
 72
    11
 73
     7
 74
     0
 42
0.000000001
 43
0.00000001
 40
0.0
 40
0.0
 40
0.0
 40
0.0
 40
0.280583507077354
 40
0.5593675415517436
 40
0.7794130404053158
 40
1.0
 40
1.0
 40
1.0
 40
1.0
 10
441.6272727272729
 20
295.5181818181828
 30
0.0
 10
441.6403666158757
 20
295.4431545985778
 30
0.0
 10
441.6664704177472
 20
295.2935813331459
 30
0.0
 10
441.7967146757291
 20
295.1158128208829
 30
0.0
 10
441.9768485771904
 20
295.0290474917861
 30
0.0
 10
442.0960219234052
 20
295.0218066752857
 30
0.0
 10
442.155681818182
 20
295.0181818181827
 30
0.0
  0
LINE
  5
267
330
1F
100
AcDbEntity
  8
0
  6
Continuous
 62
     7
370
    25
100
AcDbLine
 10
441.2636363636
 20
295.4727272727
 30
0.0
 11
441.6272727273
 21
295.5181818182
 31
0.0
  0
SPLINE
  5
268
330
1F
100
AcDbEntity
  8
0
  6
Continuous
 62
     7
370
    25
100
AcDbSpline
210
0.0
220
0.0
230
1.0
 70
     8
 71
     3
 72
    11
 73
     7
 74
     0
 42
0.000000001
 43
0.00000001
 40
0.0
 40
0.0
 40
0.0
 40
0.0
 40
0.2801408108374431
 40
0.5586568636216358
 40
0.7790325461726171
 40
1.0
 40
1.0
 40
1.0
 40
1.0
 10
442.1308238636365
 20
294.6545454545464
 30
0.0
 10
442.0060859960637
 20
294.6636783092309
 30
0.0
 10
441.7573337144351
 20
294.681891049955
 30
0.0
 10
441.4666523379508
 20
294.8997096544993
 30
0.0
 10
441.3187433943419
 20
295.1859649002413
 30
0.0
 10
441.2820217864925
 20
295.3770544083064
 30
0.0
 10
441.2636363636365
 20
295.4727272727282
 30
0.0
  0
SPLINE
  5
269
330
1F
100
AcDbEntity
  8
0
  6
Continuous
 62
     7
370
    25
100
AcDbSpline
210
0.0
220
0.0
230
1.0
 70
     8
 71
     3
 72
    11
 73
     7
 74
     0
 42
0.000000001
 43
0.00000001
 40
0.0
 40
0.0
 40
0.0
 40
0.0
 40
0.2798668095700131
 40
0.5589370258256664
 40
0.7791377658240184
 40
1.0
 40
1.0
 40
1.0
 40
1.0
 10
442.9909090909092
 20
295.4755681818191
 30
0.0
 10
442.97893799553
 20
295.3495188691787
 30
0.0
 10
442.9550298784604
 20
295.0977790218462
 30
0.0
 10
442.7225757208184
 20
294.8135657855357
 30
0.0
 10
442.4267339077101
 20
294.6720297810124
 30
0.0
 10
442.2295591174458
 20
294.6603793876821
 30
0.0
 10
442.1308238636365
 20
294.6545454545464
 30
0.0
  0
LINE
  5
26A
330
1F
100
AcDbEntity
  8
0
  6
Continuous
 62
     7
370
    25
100
AcDbLine
 10
443.5363636364
 20
295.2
 30
0.0
 11
443.9
 21
295.2
 31
0.0
  0
LINE
  5
26B
330
1F
100
AcDbEntity
  8
0
  6
Continuous
 62
     7
370
    25
100
AcDbLine
 10
443.5363636364
 20
294.7
 30
0.0
 11
443.5363636364
 21
295.2
 31
0.0
  0
LINE
  5
26C
330
1F
100
AcDbEntity
  8
0
  6
Continuous
 62
     7
370
    25
100
AcDbLine
 10
443.9
 20
294.7
 30
0.0
 11
443.5363636364
 21
294.7
 31
0.0
  0
LINE
  5
26D
330
1F
100
AcDbEntity
  8
0
  6
Continuous
 62
     7
370
    25
100
AcDbLine
 10
443.9
 20
295.2
 30
0.0
 11
443.9
 21
294.7
 31
0.0
  0
SPLINE
  5
26E
330
1F
100
AcDbEntity
  8
0
  6
Continuous
 62
     7
370
    25
100
AcDbSpline
210
0.0
220
0.0
230
1.0
 70
     8
 71
     3
 72
     9
 73
     5
 74
     0
 42
0.000000001
 43
0.00000001
 40
0.0
 40
0.0
 40
0.0
 40
0.0
 40
0.5598847066649401
 40
1.0
 40
1.0
 40
1.0
 40
1.0
 10
445.0100852272728
 20
296.5394886363646
 30
0.0
 10
444.9891126166526
 20
296.4435019285815
 30
0.0
 10
444.9516538142052
 20
296.2720617969965
 30
0.0
 10
444.947349111117
 20
296.0967567186901
 30
0.0
 10
444.9454545454547
 20
296.0196022727282
 30
0.0
  0
SPLINE
  5
26F
330
1F
100
AcDbEntity
  8
0
  6
Continuous
 62
     7
370
    25
100
AcDbSpline
210
0.0
220
0.0
230
1.0
 70
     8
 71
     3
 72
    10
 73
     6
 74
     0
 42
0.000000001
 43
0.00000001
 40
0.0
 40
0.0
 40
0.0
 40
0.0
 40
0.2798888305004884
 40
0.560351375674015
 40
1.0
 40
1.0
 40
1.0
 40
1.0
 10
445.335369318182
 20
296.8363636363646
 30
0.0
 10
445.291265010441
 20
296.829972738795
 30
0.0
 10
445.2029659901779
 20
296.8171778436271
 30
0.0
 10
445.0750539494632
 20
296.7125152709665
 30
0.0
 10
445.0347139559865
 20
296.6050805997
 30
0.0
 10
445.0100852272728
 20
296.5394886363646
 30
0.0
  0
SPLINE
  5
270
330
1F
100
AcDbEntity
  8
0
  6
Continuous
 62
     7
370
    25
100
AcDbSpline
210
0.0
220
0.0
230
1.0
 70
     8
 71
     3
 72
     9
 73
     5
 74
     0
 42
0.000000001
 43
0.00000001
 40
0.0
 40
0.0
 40
0.0
 40
0.0
 40
0.5599796479954081
 40
1.0
 40
1.0
 40
1.0
 40
1.0
 10
445.5818181818183
 20
296.7909090909101
 30
0.0
 10
445.5368226688785
 20
296.8051912750905
 30
0.0
 10
445.4564706184051
 20
296.8306961023314
 30
0.0
 10
445.3723736818204
 20
296.8346318342294
 30
0.0
 10
445.335369318182
 20
296.8363636363646
 30
0.0
  0
LINE
  5
271
330
1F
100
AcDbEntity
  8
0
  6
Continuous
 62
     7
370
    25
100
AcDbLine
 10
445.7181818182
 20
297.1545454545
 30
0.0
 11
445.5818181818
 21
296.7909090909
 31
0.0
  0
SPLINE
  5
272
330
1F
100
AcDbEntity
  8
0
  6
Continuous
 62
     7
370
    25
100
AcDbSpline
210
0.0
220
0.0
230
1.0
 70
     8
 71
     3
 72
     9
 73
     5
 74
     0
 42
0.000000001
 43
0.00000001
 40
0.0
 40
0.0
 40
0.0
 40
0.0
 40
0.5588159177973702
 40
1.0
 40
1.0
 40
1.0
 40
1.0
 10
445.3751420454547
 20
297.2909090909101
 30
0.0
 10
445.4453593043727
 20
297.2805483481694
 30
0.0
 10
445.571012952885
 20
297.2620078191496
 30
0.0
 10
445.6731295853918
 20
297.1874424905907
 30
0.0
 10
445.718181818182
 20
297.1545454545464
 30
0.0
  0
SPLINE
  5
273
330
1F
100
AcDbEntity
  8
0
  6
Continuous
 62
     7
370
    25
100
AcDbSpline
210
0.0
220
0.0
230
1.0
 70
     8
 71
     3
 72
    10
 73
     6
 74
     0
 42
0.000000001
 43
0.00000001
 40
0.0
 40
0.0
 40
0.0
 40
0.0
 40
0.5609763758134396
 40
0.7808033903854955
 40
1.0
 40
1.0
 40
1.0
 40
1.0
 10
444.9454545454547
 20
296.8392045454555
 30
0.0
 10
444.9935612711906
 20
296.9539016623768
 30
0.0
 10
445.0605193396129
 20
297.1135445664649
 30
0.0
 10
445.2285128237229
 20
297.2702409122196
 30
0.0
 10
445.3263124491835
 20
297.284026296272
 30
0.0
 10
445.3751420454547
 20
297.2909090909101
 30
0.0
  0
LINE
  5
274
330
1F
100
AcDbEntity
  8
0
  6
Continuous
 62
     7
370
    25
100
AcDbLine
 10
444.9454545455
 20
297.2454545455
 30
0.0
 11
444.9454545455
 21
296.8392045455
 31
0.0
  0
LINE
  5
275
330
1F
100
AcDbEntity
  8
0
  6
Continuous
 62
     7
370
    25
100
AcDbLine
 10
444.5818181818
 20
297.2454545455
 30
0.0
 11
444.9454545455
 21
297.2454545455
 31
0.0
  0
LINE
  5
276
330
1F
100
AcDbEntity
  8
0
  6
Continuous
 62
     7
370
    25
100
AcDbLine
 10
444.5818181818
 20
294.7
 30
0.0
 11
444.5818181818
 21
297.2454545455
 31
0.0
  0
LINE
  5
277
330
1F
100
AcDbEntity
  8
0
  6
Continuous
 62
     7
370
    25
100
AcDbLine
 10
444.9454545455
 20
294.7
 30
0.0
 11
444.5818181818
 21
294.7
 31
0.0
  0
LINE
  5
278
330
1F
100
AcDbEntity
  8
0
  6
Continuous
 62
     7
370
    25
100
AcDbLine
 10
444.9454545455
 20
296.0196022727
 30
0.0
 11
444.9454545455
 21
294.7
 31
0.0
  0
LINE
  5
279
330
1F
100
AcDbEntity
  8
0
  6
Continuous
 62
     7
370
    25
100
AcDbLine
 10
445.9909090909
 20
295.2
 30
0.0
 11
446.3545454545
 21
295.2
 31
0.0
  0
LINE
  5
27A
330
1F
100
AcDbEntity
  8
0
  6
Continuous
 62
     7
370
    25
100
AcDbLine
 10
445.9909090909
 20
294.7
 30
0.0
 11
445.9909090909
 21
295.2
 31
0.0
  0
LINE
  5
27B
330
1F
100
AcDbEntity
  8
0
  6
Continuous
 62
     7
370
    25
100
AcDbLine
 10
446.3545454545
 20
294.7
 30
0.0
 11
445.9909090909
 21
294.7
 31
0.0
  0
LINE
  5
27C
330
1F
100
AcDbEntity
  8
0
  6
Continuous
 62
     7
370
    25
100
AcDbLine
 10
446.3545454545
 20
295.2
 30
0.0
 11
446.3545454545
 21
294.7
 31
0.0
  0
SPLINE
  5
27D
330
1F
100
AcDbEntity
  8
0
  6
Continuous
 62
     7
370
    25
100
AcDbSpline
210
0.0
220
0.0
230
1.0
 70
     8
 71
     3
 72
    12
 73
     8
 74
     0
 42
0.000000001
 43
0.00000001
 40
0.0
 40
0.0
 40
0.0
 40
0.0
 40
0.1863550530715206
 40
0.372681504126755
 40
0.5592878870830116
 40
0.7794034523608041
 40
1.0
 40
1.0
 40
1.0
 40
1.0
 10
447.8772727272728
 20
297.2909090909101
 30
0.0
 10
447.990900718995
 20
297.2798063079939
 30
0.0
 10
448.2181392626669
 20
297.2576024462311
 30
0.0
 10
448.5060515419287
 20
297.0578779940604
 30
0.0
 10
448.7240527150805
 20
296.7681170791489
 30
0.0
 10
448.8380923560504
 20
296.3985889264448
 30
0.0
 10
448.8490570994967
 20
296.1322969715246
 30
0.0
 10
448.8545454545456
 20
295.9990056818191
 30
0.0
  0
SPLINE
  5
27E
330
1F
100
AcDbEntity
  8
0
  6
Continuous
 62
     7
370
    25
100
AcDbSpline
210
0.0
220
0.0
230
1.0
 70
     8
 71
     3
 72
    11
 73
     7
 74
     0
 42
0.000000001
 43
0.00000001
 40
0.0
 40
0.0
 40
0.0
 40
0.0
 40
0.2811914078543055
 40
0.5606989653479403
 40
0.780438643161857
 40
1.0
 40
1.0
 40
1.0
 40
1.0
 10
446.9000000000001
 20
295.9727272727282
 30
0.0
 10
446.9072662030583
 20
296.1455172580099
 30
0.0
 10
446.9217550971814
 20
296.4900625153107
 30
0.0
 10
447.118015286371
 20
296.941364364698
 30
0.0
 10
447.4691986635493
 20
297.2425886298794
 30
0.0
 10
447.7412848544198
 20
297.2748066298742
 30
0.0
 10
447.8772727272728
 20
297.2909090909101
 30
0.0
  0
SPLINE
  5
27F
330
1F
100
AcDbEntity
  8
0
  6
Continuous
 62
     7
370
    25
100
AcDbSpline
210
0.0
220
0.0
230
1.0
 70
     8
 71
     3
 72
    12
 73
     8
 74
     0
 42
0.000000001
 43
0.00000001
 40
0.0
 40
0.0
 40
0.0
 40
0.0
 40
0.1862936367236317
 40
0.3726115925705958
 40
0.5591801557164577
 40
0.77935543147219
 40
1.0
 40
1.0
 40
1.0
 40
1.0
 10
447.8772727272728
 20
294.6545454545464
 30
0.0
 10
447.7620849096606
 20
294.6659625188331
 30
0.0
 10
447.5316942376007
 20
294.6887981378114
 30
0.0
 10
447.2405350421258
 20
294.8932360328275
 30
0.0
 10
447.02474992151
 20
295.1913360965857
 30
0.0
 10
446.9152383042578
 20
295.5674798054236
 30
0.0
 10
446.905083038487
 20
295.8375489459149
 30
0.0
 10
446.9000000000001
 20
295.9727272727282
 30
0.0
  0
SPLINE
  5
280
330
1F
100
AcDbEntity
  8
0
  6
Continuous
 62
     7
370
    25
100
AcDbSpline
210
0.0
220
0.0
230
1.0
 70
     8
 71
     3
 72
    11
 73
     7
 74
     0
 42
0.000000001
 43
0.00000001
 40
0.0
 40
0.0
 40
0.0
 40
0.0
 40
0.2812667814404003
 40
0.560797202963165
 40
0.7804592169022027
 40
1.0
 40
1.0
 40
1.0
 40
1.0
 10
448.8545454545456
 20
295.9990056818191
 30
0.0
 10
448.8476754164384
 20
295.8239021249927
 30
0.0
 10
448.8339777514137
 20
295.4747759878989
 30
0.0
 10
448.6454862154469
 20
295.0129470898789
 30
0.0
 10
448.2911739556657
 20
294.7036829417019
 30
0.0
 10
448.0152144128494
 20
294.6709216026181
 30
0.0
 10
447.8772727272728
 20
294.6545454545464
 30
0.0
  0
LINE
  5
281
330
1F
100
AcDbEntity
  8
0
  6
Continuous
 62
     7
370
    25
100
AcDbLine
 10
374.4
 20
292.7
 30
0.0
 11
451.4
 21
292.7
 31
0.0
  0
LINE
  5
282
330
1F
100
AcDbEntity
  8
0
  6
Continuous
 62
     7
370
    25
100
AcDbLine
 10
374.4
 20
331.7
 30
0.0
 11
374.4
 21
292.7
 31
0.0
  0
LINE
  5
283
330
1F
100
AcDbEntity
  8
0
  6
Continuous
 62
     7
370
    25
100
AcDbLine
 10
374.4
 20
331.7
 30
0.0
 11
451.4
 21
331.7
 31
0.0
  0
LINE
  5
284
330
1F
100
AcDbEntity
  8
0
  6
Continuous
 62
     7
370
    25
100
AcDbLine
 10
451.4
 20
331.7
 30
0.0
 11
451.4
 21
292.7
 31
0.0
  0
LINE
  5
285
330
1F
100
AcDbEntity
  8
0
  6
Continuous
 62
     7
370
    25
100
AcDbLine
 10
449.3545454545
 20
295.2
 30
0.0
 11
449.7181818182
 21
295.2
 31
0.0
  0
LINE
  5
286
330
1F
100
AcDbEntity
  8
0
  6
Continuous
 62
     7
370
    25
100
AcDbLine
 10
449.3545454545
 20
294.7
 30
0.0
 11
449.3545454545
 21
295.2
 31
0.0
  0
LINE
  5
287
330
1F
100
AcDbEntity
  8
0
  6
Continuous
 62
     7
370
    25
100
AcDbLine
 10
449.7181818182
 20
294.7
 30
0.0
 11
449.3545454545
 21
294.7
 31
0.0
  0
LINE
  5
288
330
1F
100
AcDbEntity
  8
0
  6
Continuous
 62
     7
370
    25
100
AcDbLine
 10
449.7181818182
 20
295.2
 30
0.0
 11
449.7181818182
 21
294.7
 31
0.0
  0
LINE
  5
289
330
1F
100
AcDbEntity
  8
0
  6
Continuous
 62
     7
370
    25
100
AcDbLine
 10
439.2615056818
 20
295.7454545455
 30
0.0
 11
438.0384943182
 21
295.7454545455
 31
0.0
  0
LINE
  5
28A
330
1F
100
AcDbEntity
  8
0
  6
Continuous
 62
     7
370
    25
100
AcDbLine
 10
439.5676136364
 20
294.7
 30
0.0
 11
439.2615056818
 21
295.7454545455
 31
0.0
  0
LINE
  5
28B
330
1F
100
AcDbEntity
  8
0
  6
Continuous
 62
     7
370
    25
100
AcDbLine
 10
439.9454545455
 20
294.7
 30
0.0
 11
439.5676136364
 21
294.7
 31
0.0
  0
LINE
  5
28C
330
1F
100
AcDbEntity
  8
0
  6
Continuous
 62
     7
370
    25
100
AcDbLine
 10
438.8268465909
 20
298.2
 30
0.0
 11
439.9454545455
 21
294.7
 31
0.0
  0
LINE
  5
28D
330
1F
100
AcDbEntity
  8
0
  6
Continuous
 62
     7
370
    25
100
AcDbLine
 10
438.4724431818
 20
298.2
 30
0.0
 11
438.8268465909
 21
298.2
 31
0.0
  0
LINE
  5
28E
330
1F
100
AcDbEntity
  8
0
  6
Continuous
 62
     7
370
    25
100
AcDbLine
 10
437.3545454545
 20
294.7
 30
0.0
 11
438.4724431818
 21
298.2
 31
0.0
  0
LINE
  5
28F
330
1F
100
AcDbEntity
  8
0
  6
Continuous
 62
     7
370
    25
100
AcDbLine
 10
437.7330965909
 20
294.7
 30
0.0
 11
437.3545454545
 21
294.7
 31
0.0
  0
LINE
  5
290
330
1F
100
AcDbEntity
  8
0
  6
Continuous
 62
     7
370
    25
100
AcDbLine
 10
438.0384943182
 20
295.7454545455
 30
0.0
 11
437.7330965909
 21
294.7
 31
0.0
  0
SPLINE
  5
291
330
1F
100
AcDbEntity
  8
0
  6
Continuous
 62
     7
370
    25
100
AcDbSpline
210
0.0
220
0.0
230
1.0
 70
     8
 71
     3
 72
     9
 73
     5
 74
     0
 42
0.000000001
 43
0.00000001
 40
0.0
 40
0.0
 40
0.0
 40
0.0
 40
0.5590684780632666
 40
0.9999999999999999
 40
0.9999999999999999
 40
0.9999999999999999
 40
0.9999999999999999
 10
433.952556818182
 20
295.18934659091
 30
0.0
 10
433.794932378286
 20
295.0185185642307
 30
0.0
 10
433.5129911741566
 20
294.7129602410873
 30
0.0
 10
433.1033506794884
 20
294.6724206417715
 30
0.0
 10
432.9227272727274
 20
294.6545454545464
 30
0.0
  0
SPLINE
  5
292
330
1F
100
AcDbEntity
  8
0
  6
Continuous
 62
     7
370
    25
100
AcDbSpline
210
0.0
220
0.0
230
1.0
 70
     8
 71
     3
 72
     9
 73
     5
 74
     0
 42
0.000000001
 43
0.00000001
 40
0.0
 40
0.0
 40
0.0
 40
0.0
 40
0.5602848301801621
 40
1.0
 40
1.0
 40
1.0
 40
1.0
 10
434.309090909091
 20
296.4464488636373
 30
0.0
 10
434.2975107340944
 20
296.194889924884
 30
0.0
 10
434.2768423626288
 20
295.7459058988977
 30
0.0
 10
434.0515995151234
 20
295.3593299152208
 30
0.0
 10
433.952556818182
 20
295.18934659091
 30
0.0
  0
SPLINE
  5
293
330
1F
100
AcDbEntity
  8
0
  6
Continuous
 62
     7
370
    25
100
AcDbSpline
210
0.0
220
0.0
230
1.0
 70
     8
 71
     3
 72
    12
 73
     8
 74
     0
 42
0.000000001
 43
0.00000001
 40
0.0
 40
0.0
 40
0.0
 40
0.0
 40
0.1863318592745604
 40
0.3727323048978189
 40
0.559350553990452
 40
0.7794750609847453
 40
1.0
 40
1.0
 40
1.0
 40
1.0
 10
432.9248579545456
 20
298.2454545454555
 30
0.0
 10
433.0830766256259
 20
298.2288050243564
 30
0.0
 10
433.399572206034
 20
298.1954998536847
 30
0.0
 10
433.8062634538521
 20
297.9224060427105
 30
0.0
 10
434.1036877601114
 20
297.5133177866689
 30
0.0
 10
434.2836632196094
 20
297.0054705125582
 30
0.0
 10
434.3006098792762
 20
296.6329022681077
 30
0.0
 10
434.309090909091
 20
296.4464488636373
 30
0.0
  0
SPLINE
  5
294
330
1F
100
AcDbEntity
  8
0
  6
Continuous
 62
     7
370
    25
100
AcDbSpline
210
0.0
220
0.0
230
1.0
 70
     8
 71
     3
 72
    11
 73
     7
 74
     0
 42
0.000000001
 43
0.00000001
 40
0.0
 40
0.0
 40
0.0
 40
0.0
 40
0.2811022216976736
 40
0.5606668278398887
 40
0.7804755269385466
 40
1.0
 40
1.0
 40
1.0
 40
1.0
 10
431.5363636363638
 20
296.4038352272736
 30
0.0
 10
431.5476950612329
 20
296.6462669552584
 30
0.0
 10
431.5702959286254
 20
297.1298043214026
 30
0.0
 10
431.8636302163975
 20
297.753194665304
 30
0.0
 10
432.3530475138072
 20
298.1754718063242
 30
0.0
 10
432.7343366991507
 20
298.2221370290806
 30
0.0
 10
432.9248579545456
 20
298.2454545454555
 30
0.0
  0
SPLINE
  5
295
330
1F
100
AcDbEntity
  8
0
  6
Continuous
 62
     7
370
    25
100
AcDbSpline
210
0.0
220
0.0
230
1.0
 70
     8
 71
     3
 72
     9
 73
     5
 74
     0
 42
0.000000001
 43
0.00000001
 40
0.0
 40
0.0
 40
0.0
 40
0.0
 40
0.5591024805277266
 40
0.9999999999999999
 40
0.9999999999999999
 40
0.9999999999999999
 40
0.9999999999999999
 10
431.8907670454547
 20
295.2035511363646
 30
0.0
 10
431.7737484044325
 20
295.413220395692
 30
0.0
 10
431.5644511018848
 20
295.7882308215615
 30
0.0
 10
431.5449580670634
 20
296.2154675940542
 30
0.0
 10
431.5363636363638
 20
296.4038352272736
 30
0.0
  0
SPLINE
  5
296
330
1F
100
AcDbEntity
  8
0
  6
Continuous
 62
     7
370
    25
100
AcDbSpline
210
0.0
220
0.0
230
1.0
 70
     8
 71
     3
 72
    10
 73
     6
 74
     0
 42
0.000000001
 43
0.00000001
 40
0.0
 40
0.0
 40
0.0
 40
0.0
 40
0.2804963604137207
 40
0.5607765042458084
 40
1.0
 40
1.0
 40
1.0
 40
1.0
 10
432.9227272727274
 20
294.6545454545464
 30
0.0
 10
432.8091064775231
 20
294.6622775808308
 30
0.0
 10
432.581952470069
 20
294.6777358732014
 30
0.0
 10
432.1999884792603
 20
294.8428748629919
 30
0.0
 10
432.0079795581989
 20
295.0668343125372
 30
0.0
 10
431.8907670454547
 20
295.2035511363646
 30
0.0
  0
SPLINE
  5
297
330
1F
100
AcDbEntity
  8
0
  6
Continuous
 62
     7
370
    25
100
AcDbSpline
210
0.0
220
0.0
230
1.0
 70
     8
 71
     3
 72
     9
 73
     5
 74
     0
 42
0.000000001
 43
0.00000001
 40
0.0
 40
0.0
 40
0.0
 40
0.0
 40
0.5590684780632647
 40
1.0
 40
1.0
 40
1.0
 40
1.0
 10
428.1343750000001
 20
295.18934659091
 30
0.0
 10
427.9767505601042
 20
295.0185185642307
 30
0.0
 10
427.6948093559748
 20
294.7129602410873
 30
0.0
 10
427.2851688613066
 20
294.6724206417715
 30
0.0
 10
427.1045454545456
 20
294.6545454545464
 30
0.0
  0
SPLINE
  5
298
330
1F
100
AcDbEntity
  8
0
  6
Continuous
 62
     7
370
    25
100
AcDbSpline
210
0.0
220
0.0
230
1.0
 70
     8
 71
     3
 72
     9
 73
     5
 74
     0
 42
0.000000001
 43
0.00000001
 40
0.0
 40
0.0
 40
0.0
 40
0.0
 40
0.5602848301801621
 40
1.0
 40
1.0
 40
1.0
 40
1.0
 10
428.4909090909092
 20
296.4464488636373
 30
0.0
 10
428.4793289159125
 20
296.194889924884
 30
0.0
 10
428.458660544447
 20
295.7459058988977
 30
0.0
 10
428.2334176969416
 20
295.3593299152208
 30
0.0
 10
428.1343750000001
 20
295.18934659091
 30
0.0
  0
SPLINE
  5
299
330
1F
100
AcDbEntity
  8
0
  6
Continuous
 62
     7
370
    25
100
AcDbSpline
210
0.0
220
0.0
230
1.0
 70
     8
 71
     3
 72
    12
 73
     8
 74
     0
 42
0.000000001
 43
0.00000001
 40
0.0
 40
0.0
 40
0.0
 40
0.0
 40
0.1863318592745578
 40
0.3727323048978186
 40
0.5593505539904511
 40
0.7794750609847438
 40
1.0
 40
1.0
 40
1.0
 40
1.0
 10
427.1066761363638
 20
298.2454545454555
 30
0.0
 10
427.2648948074441
 20
298.2288050243564
 30
0.0
 10
427.5813903878521
 20
298.1954998536847
 30
0.0
 10
427.9880816356703
 20
297.9224060427105
 30
0.0
 10
428.2855059419296
 20
297.513317786669
 30
0.0
 10
428.4654814014276
 20
297.0054705125582
 30
0.0
 10
428.4824280610943
 20
296.6329022681077
 30
0.0
 10
428.4909090909092
 20
296.4464488636373
 30
0.0
  0
SPLINE
  5
29A
330
1F
100
AcDbEntity
  8
0
  6
Continuous
 62
     7
370
    25
100
AcDbSpline
210
0.0
220
0.0
230
1.0
 70
     8
 71
     3
 72
    11
 73
     7
 74
     0
 42
0.000000001
 43
0.00000001
 40
0.0
 40
0.0
 40
0.0
 40
0.0
 40
0.2811022216976731
 40
0.5606668278398892
 40
0.7804755269385438
 40
1.0
 40
1.0
 40
1.0
 40
1.0
 10
425.718181818182
 20
296.4038352272736
 30
0.0
 10
425.7295132430511
 20
296.6462669552584
 30
0.0
 10
425.7521141104436
 20
297.1298043214026
 30
0.0
 10
426.0454483982157
 20
297.753194665304
 30
0.0
 10
426.5348656956253
 20
298.1754718063242
 30
0.0
 10
426.9161548809689
 20
298.2221370290806
 30
0.0
 10
427.1066761363638
 20
298.2454545454555
 30
0.0
  0
SPLINE
  5
29B
330
1F
100
AcDbEntity
  8
0
  6
Continuous
 62
     7
370
    25
100
AcDbSpline
210
0.0
220
0.0
230
1.0
 70
     8
 71
     3
 72
     9
 73
     5
 74
     0
 42
0.000000001
 43
0.00000001
 40
0.0
 40
0.0
 40
0.0
 40
0.0
 40
0.5591024805277279
 40
1.0
 40
1.0
 40
1.0
 40
1.0
 10
426.0725852272729
 20
295.2035511363646
 30
0.0
 10
425.9555665862507
 20
295.413220395692
 30
0.0
 10
425.746269283703
 20
295.7882308215615
 30
0.0
 10
425.7267762488817
 20
296.2154675940542
 30
0.0
 10
425.718181818182
 20
296.4038352272736
 30
0.0
  0
SPLINE
  5
29C
330
1F
100
AcDbEntity
  8
0
  6
Continuous
 62
     7
370
    25
100
AcDbSpline
210
0.0
220
0.0
230
1.0
 70
     8
 71
     3
 72
    10
 73
     6
 74
     0
 42
0.000000001
 43
0.00000001
 40
0.0
 40
0.0
 40
0.0
 40
0.0
 40
0.2804963604137283
 40
0.5607765042458118
 40
1.0
 40
1.0
 40
1.0
 40
1.0
 10
427.1045454545456
 20
294.6545454545464
 30
0.0
 10
426.9909246593413
 20
294.6622775808308
 30
0.0
 10
426.7637706518871
 20
294.6777358732014
 30
0.0
 10
426.3818066610784
 20
294.8428748629919
 30
0.0
 10
426.1897977400171
 20
295.0668343125372
 30
0.0
 10
426.0725852272729
 20
295.2035511363646
 30
0.0
  0
LINE
  5
29D
330
1F
100
AcDbEntity
  8
0
  6
Continuous
 62
     7
370
    25
100
AcDbLine
 10
425.0818181818
 20
298.2
 30
0.0
 11
425.4596590909
 21
298.2
 31
0.0
  0
LINE
  5
29E
330
1F
100
AcDbEntity
  8
0
  6
Continuous
 62
     7
370
    25
100
AcDbLine
 10
424.3034090909
 20
295.6609375
 30
0.0
 11
425.0818181818
 21
298.2
 31
0.0
  0
SPLINE
  5
29F
330
1F
100
AcDbEntity
  8
0
  6
Continuous
 62
     7
370
    25
100
AcDbSpline
210
0.0
220
0.0
230
1.0
 70
     8
 71
     3
 72
     9
 73
     5
 74
     0
 42
0.000000001
 43
0.00000001
 40
0.0
 40
0.0
 40
0.0
 40
0.0
 40
0.5599895267155864
 40
1.0
 40
1.0
 40
1.0
 40
1.0
 10
424.1500000000001
 20
295.1090909090919
 30
0.0
 10
424.1768111278886
 20
295.2126105023065
 30
0.0
 10
424.2246890374019
 20
295.3974703760649
 30
0.0
 10
424.2793553436321
 20
295.5804323258729
 30
0.0
 10
424.3034090909093
 20
295.660937500001
 30
0.0
  0
SPLINE
  5
2A0
330
1F
100
AcDbEntity
  8
0
  6
Continuous
 62
     7
370
    25
100
AcDbSpline
210
0.0
220
0.0
230
1.0
 70
     8
 71
     3
 72
     9
 73
     5
 74
     0
 42
0.000000001
 43
0.00000001
 40
0.0
 40
0.0
 40
0.0
 40
0.0
 40
0.5599999868780406
 40
1.0
 40
1.0
 40
1.0
 40
1.0
 10
424.0093750000001
 20
295.660937500001
 30
0.0
 10
424.0368219339864
 20
295.5582299155121
 30
0.0
 10
424.0858343172531
 20
295.3748235103415
 30
0.0
 10
424.1303938187547
 20
295.1902869833775
 30
0.0
 10
424.1500000000001
 20
295.1090909090919
 30
0.0
  0
LINE
  5
2A1
330
1F
100
AcDbEntity
  8
0
  6
Continuous
 62
     7
370
    25
100
AcDbLine
 10
423.3090909091
 20
298.2
 30
0.0
 11
424.009375
 21
295.6609375
 31
0.0
  0
LINE
  5
2A2
330
1F
100
AcDbEntity
  8
0
  6
Continuous
 62
     7
370
    25
100
AcDbLine
 10
422.9348011364
 20
298.2
 30
0.0
 11
423.3090909091
 21
298.2
 31
0.0
  0
LINE
  5
2A3
330
1F
100
AcDbEntity
  8
0
  6
Continuous
 62
     7
370
    25
100
AcDbLine
 10
423.9816761364
 20
294.7
 30
0.0
 11
422.9348011364
 21
298.2
 31
0.0
  0
LINE
  5
2A4
330
1F
100
AcDbEntity
  8
0
  6
Continuous
 62
     7
370
    25
100
AcDbLine
 10
424.3573863636
 20
294.7
 30
0.0
 11
423.9816761364
 21
294.7
 31
0.0
  0
LINE
  5
2A5
330
1F
100
AcDbEntity
  8
0
  6
Continuous
 62
     7
370
    25
100
AcDbLine
 10
425.4596590909
 20
298.2
 30
0.0
 11
424.3573863636
 21
294.7
 31
0.0
  0
SPLINE
  5
2A6
330
1F
100
AcDbEntity
  8
0
  6
Continuous
 62
     7
370
    25
100
AcDbSpline
210
0.0
220
0.0
230
1.0
 70
     8
 71
     3
 72
    10
 73
     6
 74
     0
 42
0.000000001
 43
0.00000001
 40
0.0
 40
0.0
 40
0.0
 40
0.0
 40
0.2809661002113851
 40
0.5614008016297724
 40
1.0
 40
1.0
 40
1.0
 40
1.0
 10
422.0875000000001
 20
296.50965909091
 30
0.0
 10
422.1749480884166
 20
296.4631502194967
 30
0.0
 10
422.349678872312
 20
296.3702204401578
 30
0.0
 10
422.5809309194679
 20
296.0865853055554
 30
0.0
 10
422.6097149364784
 20
295.8301456725708
 30
0.0
 10
422.6272727272728
 20
295.67372159091
 30
0.0
  0
SPLINE
  5
2A7
330
1F
100
AcDbEntity
  8
0
  6
Continuous
 62
     7
370
    25
100
AcDbSpline
210
0.0
220
0.0
230
1.0
 70
     8
 71
     3
 72
     9
 73
     5
 74
     0
 42
0.000000001
 43
0.00000001
 40
0.0
 40
0.0
 40
0.0
 40
0.0
 40
0.5601300503800153
 40
1.0
 40
1.0
 40
1.0
 40
1.0
 10
421.4795454545456
 20
296.6900568181828
 30
0.0
 10
421.5949794351477
 20
296.6627448759987
 30
0.0
 10
421.8010636838393
 20
296.6139848743426
 30
0.0
 10
421.9999957583898
 20
296.5415298700138
 30
0.0
 10
422.0875000000001
 20
296.50965909091
 30
0.0
  0
SPLINE
  5
2A8
330
1F
100
AcDbEntity
  8
0
  6
Continuous
 62
     7
370
    25
100
AcDbSpline
210
0.0
220
0.0
230
1.0
 70
     8
 71
     3
 72
     9
 73
     5
 74
     0
 42
0.000000001
 43
0.00000001
 40
0.0
 40
0.0
 40
0.0
 40
0.0
 40
0.5578659727489418
 40
1.0
 40
1.0
 40
1.0
 40
1.0
 10
420.9234375000001
 20
296.9230113636373
 30
0.0
 10
421.0202299354237
 20
296.8633137500915
 30
0.0
 10
421.1937347558498
 20
296.7563030764497
 30
0.0
 10
421.3919207034074
 20
296.7103668063006
 30
0.0
 10
421.4795454545456
 20
296.6900568181828
 30
0.0
  0
SPLINE
  5
2A9
330
1F
100
AcDbEntity
  8
0
  6
Continuous
 62
     7
370
    25
100
AcDbSpline
210
0.0
220
0.0
230
1.0
 70
     8
 71
     3
 72
     9
 73
     5
 74
     0
 42
0.000000001
 43
0.00000001
 40
0.0
 40
0.0
 40
0.0
 40
0.0
 40
0.5603735864954463
 40
1.0
 40
1.0
 40
1.0
 40
1.0
 10
420.809090909091
 20
297.278125000001
 30
0.0
 10
420.8123227383948
 20
297.2054902525887
 30
0.0
 10
420.8180900146933
 20
297.0758718173829
 30
0.0
 10
420.8912669752705
 20
296.9696911775227
 30
0.0
 10
420.9234375000001
 20
296.9230113636373
 30
0.0
  0
SPLINE
  5
2AA
330
1F
100
AcDbEntity
  8
0
  6
Continuous
 62
     7
370
    25
100
AcDbSpline
210
0.0
220
0.0
230
1.0
 70
     8
 71
     3
 72
    11
 73
     7
 74
     0
 42
0.000000001
 43
0.00000001
 40
0.0
 40
0.0
 40
0.0
 40
0.0
 40
0.2809288144203215
 40
0.559976624969024
 40
0.7797524177997971
 40
0.9999999999999999
 40
0.9999999999999999
 40
0.9999999999999999
 40
0.9999999999999999
 10
421.473153409091
 20
297.8363636363646
 30
0.0
 10
421.3812797621977
 20
297.831586705411
 30
0.0
 10
421.1981476231285
 20
297.8220648282101
 30
0.0
 10
420.9660130799884
 20
297.6957166526975
 30
0.0
 10
420.8286857103526
 20
297.494572784471
 30
0.0
 10
420.815627176595
 20
297.3503258149543
 30
0.0
 10
420.809090909091
 20
297.278125000001
 30
0.0
  0
SPLINE
  5
2AB
330
1F
100
AcDbEntity
  8
0
  6
Continuous
 62
     7
370
    25
100
AcDbSpline
210
0.0
220
0.0
230
1.0
 70
     8
 71
     3
 72
    11
 73
     7
 74
     0
 42
0.000000001
 43
0.00000001
 40
0.0
 40
0.0
 40
0.0
 40
0.0
 40
0.2807568041224235
 40
0.5592998321704196
 40
0.7792108033992158
 40
1.0
 40
1.0
 40
1.0
 40
1.0
 10
422.1727272727274
 20
297.1545454545464
 30
0.0
 10
422.1593501804374
 20
297.2569812683906
 30
0.0
 10
422.1327014746433
 20
297.461045186522
 30
0.0
 10
421.9609542065367
 20
297.7072964354022
 30
0.0
 10
421.7155295561386
 20
297.8231755903421
 30
0.0
 10
421.5540527215507
 20
297.8319617846606
 30
0.0
 10
421.473153409091
 20
297.8363636363646
 30
0.0
  0
LINE
  5
2AC
330
1F
100
AcDbEntity
  8
0
  6
Continuous
 62
     7
370
    25
100
AcDbLine
 10
422.5363636364
 20
297.2
 30
0.0
 11
422.1727272727
 21
297.1545454545
 31
0.0
  0
SPLINE
  5
2AD
330
1F
100
AcDbEntity
  8
0
  6
Continuous
 62
     7
370
    25
100
AcDbSpline
210
0.0
220
0.0
230
1.0
 70
     8
 71
     3
 72
    11
 73
     7
 74
     0
 42
0.000000001
 43
0.00000001
 40
0.0
 40
0.0
 40
0.0
 40
0.0
 40
0.2801552694366365
 40
0.5590638157958682
 40
0.7792847073406495
 40
1.0
 40
1.0
 40
1.0
 40
1.0
 10
421.4610795454547
 20
298.2454545454555
 30
0.0
 10
421.6193570185691
 20
298.2323602307806
 30
0.0
 10
421.9352076118913
 20
298.2062298726326
 30
0.0
 10
422.3072694981769
 20
297.9359518911526
 30
0.0
 10
422.5013920181778
 20
297.5709146086438
 30
0.0
 10
422.5246977197708
 20
297.3237305881745
 30
0.0
 10
422.5363636363638
 20
297.200000000001
 30
0.0
  0
SPLINE
  5
2AE
330
1F
100
AcDbEntity
  8
0
  6
Continuous
 62
     7
370
    25
100
AcDbSpline
210
0.0
220
0.0
230
1.0
 70
     8
 71
     3
 72
    11
 73
     7
 74
     0
 42
0.000000001
 43
0.00000001
 40
0.0
 40
0.0
 40
0.0
 40
0.0
 40
0.2796966400673409
 40
0.5588536046323657
 40
0.7791301955814923
 40
0.9999999999999999
 40
0.9999999999999999
 40
0.9999999999999999
 40
0.9999999999999999
 10
420.4454545454547
 20
297.2866477272736
 30
0.0
 10
420.4605598218531
 20
297.4343615403337
 30
0.0
 10
420.4907412289738
 20
297.7295041522102
 30
0.0
 10
420.7684624199928
 20
298.0576080348434
 30
0.0
 10
421.1140122763066
 20
298.2248882840212
 30
0.0
 10
421.3452867901088
 20
298.2385929820344
 30
0.0
 10
421.4610795454547
 20
298.2454545454555
 30
0.0
  0
SPLINE
  5
2AF
330
1F
100
AcDbEntity
  8
0
  6
Continuous
 62
     7
370
    25
100
AcDbSpline
210
0.0
220
0.0
230
1.0
 70
     8
 71
     3
 72
    11
 73
     7
 74
     0
 42
0.000000001
 43
0.00000001
 40
0.0
 40
0.0
 40
0.0
 40
0.0
 40
0.2811422353234704
 40
0.5600560767279978
 40
0.7798618562135813
 40
1.0
 40
1.0
 40
1.0
 40
1.0
 10
421.3893465909092
 20
296.325000000001
 30
0.0
 10
421.256661746881
 20
296.3623316061713
 30
0.0
 10
420.9923437474806
 20
296.4366989201596
 30
0.0
 10
420.6608614782286
 20
296.6478027920343
 30
0.0
 10
420.4721131500654
 20
296.9613076491231
 30
0.0
 10
420.4543452213688
 20
297.1781464295145
 30
0.0
 10
420.4454545454547
 20
297.2866477272736
 30
0.0
  0
SPLINE
  5
2B0
330
1F
100
AcDbEntity
  8
0
  6
Continuous
 62
     7
370
    25
100
AcDbSpline
210
0.0
220
0.0
230
1.0
 70
     8
 71
     3
 72
    12
 73
     8
 74
     0
 42
0.000000001
 43
0.00000001
 40
0.0
 40
0.0
 40
0.0
 40
0.0
 40
0.1249721034342082
 40
0.2498151757896965
 40
0.3745975099840264
 40
0.4995717193136337
 40
1.0
 40
1.0
 40
1.0
 40
1.0
 10
422.2636363636365
 20
295.6630681818191
 30
0.0
 10
422.2606076166797
 20
295.7131847198621
 30
0.0
 10
422.254553249884
 20
295.8133660516725
 30
0.0
 10
422.1930079777563
 20
295.9534078652247
 30
0.0
 10
422.0911655227689
 20
296.0664593746781
 30
0.0
 10
421.8295824550883
 20
296.2180256920882
 30
0.0
 10
421.5850300651406
 20
296.2774502524017
 30
0.0
 10
421.3893465909092
 20
296.325000000001
 30
0.0
  0
SPLINE
  5
2B1
330
1F
100
AcDbEntity
  8
0
  6
Continuous
 62
     7
370
    25
100
AcDbSpline
210
0.0
220
0.0
230
1.0
 70
     8
 71
     3
 72
    11
 73
     7
 74
     0
 42
0.000000001
 43
0.00000001
 40
0.0
 40
0.0
 40
0.0
 40
0.0
 40
0.280850373927669
 40
0.5599587157919464
 40
0.7797674199183247
 40
1.0
 40
1.0
 40
1.0
 40
1.0
 10
421.5562500000001
 20
295.0636363636373
 30
0.0
 10
421.6543140846252
 20
295.0692864908571
 30
0.0
 10
421.8498339912717
 20
295.0805516992233
 30
0.0
 10
422.0948749940625
 20
295.218848728261
 30
0.0
 10
422.2433333529193
 20
295.431820416387
 30
0.0
 10
422.2568643487568
 20
295.5859361086391
 30
0.0
 10
422.2636363636365
 20
295.6630681818191
 30
0.0
  0
SPLINE
  5
2B2
330
1F
100
AcDbEntity
  8
0
  6
Continuous
 62
     7
370
    25
100
AcDbSpline
210
0.0
220
0.0
230
1.0
 70
     8
 71
     3
 72
    11
 73
     7
 74
     0
 42
0.000000001
 43
0.00000001
 40
0.0
 40
0.0
 40
0.0
 40
0.0
 40
0.280743131631456
 40
0.5591429302990512
 40
0.779409560079937
 40
0.9999999999999999
 40
0.9999999999999999
 40
0.9999999999999999
 40
0.9999999999999999
 10
420.718181818182
 20
295.8818181818191
 30
0.0
 10
420.7341015658384
 20
295.7593422783629
 30
0.0
 10
420.7658081807164
 20
295.515412764748
 30
0.0
 10
420.9833477378672
 20
295.2341790513584
 30
0.0
 10
421.2677528307848
 20
295.0861757951633
 30
0.0
 10
421.4600371992152
 20
295.071153185522
 30
0.0
 10
421.5562500000001
 20
295.0636363636373
 30
0.0
  0
LINE
  5
2B3
330
1F
100
AcDbEntity
  8
0
  6
Continuous
 62
     7
370
    25
100
AcDbLine
 10
420.3545454545
 20
295.8363636364
 30
0.0
 11
420.7181818182
 21
295.8818181818
 31
0.0
  0
SPLINE
  5
2B4
330
1F
100
AcDbEntity
  8
0
  6
Continuous
 62
     7
370
    25
100
AcDbSpline
210
0.0
220
0.0
230
1.0
 70
     8
 71
     3
 72
    11
 73
     7
 74
     0
 42
0.000000001
 43
0.00000001
 40
0.0
 40
0.0
 40
0.0
 40
0.0
 40
0.280062769867209
 40
0.558926785146822
 40
0.7791755171400587
 40
1.0
 40
1.0
 40
1.0
 40
1.0
 10
421.5250000000001
 20
294.6545454545464
 30
0.0
 10
421.3489313476725
 20
294.6695707653401
 30
0.0
 10
420.9975476708731
 20
294.699557073987
 30
0.0
 10
420.5948115848367
 20
295.0154507328959
 30
0.0
 10
420.389026461603
 20
295.4241859337376
 30
0.0
 10
420.366049121318
 20
295.6988515580729
 30
0.0
 10
420.3545454545456
 20
295.8363636363646
 30
0.0
  0
SPLINE
  5
2B5
330
1F
100
AcDbEntity
  8
0
  6
Continuous
 62
     7
370
    25
100
AcDbSpline
210
0.0
220
0.0
230
1.0
 70
     8
 71
     3
 72
    11
 73
     7
 74
     0
 42
0.000000001
 43
0.00000001
 40
0.0
 40
0.0
 40
0.0
 40
0.0
 40
0.2795457404631681
 40
0.5587730018237577
 40
0.7790388768935207
 40
0.9999999999999999
 40
0.9999999999999999
 40
0.9999999999999999
 40
0.9999999999999999
 10
422.6272727272728
 20
295.67372159091
 30
0.0
 10
422.6079640014341
 20
295.5159264361082
 30
0.0
 10
422.5693685476797
 20
295.2005158983701
 30
0.0
 10
422.2723717879849
 20
294.8473379648244
 30
0.0
 10
421.8973519389149
 20
294.6751218629507
 30
0.0
 10
421.6492476268741
 20
294.6614114585782
 30
0.0
 10
421.5250000000001
 20
294.6545454545464
 30
0.0
  0
LINE
  5
2B6
330
1F
100
AcDbEntity
  8
0
  6
Continuous
 62
     7
370
    25
100
AcDbLine
 10
418.2380681818
 20
294.7
 30
0.0
 11
416.7636363636
 21
297.4862215909
 31
0.0
  0
LINE
  5
2B7
330
1F
100
AcDbEntity
  8
0
  6
Continuous
 62
     7
370
    25
100
AcDbLine
 10
418.6272727273
 20
294.7
 30
0.0
 11
418.2380681818
 21
294.7
 31
0.0
  0
LINE
  5
2B8
330
1F
100
AcDbEntity
  8
0
  6
Continuous
 62
     7
370
    25
100
AcDbLine
 10
418.6272727273
 20
298.2
 30
0.0
 11
418.6272727273
 21
294.7
 31
0.0
  0
LINE
  5
2B9
330
1F
100
AcDbEntity
  8
0
  6
Continuous
 62
     7
370
    25
100
AcDbLine
 10
418.2636363636
 20
298.2
 30
0.0
 11
418.6272727273
 21
298.2
 31
0.0
  0
LINE
  5
2BA
330
1F
100
AcDbEntity
  8
0
  6
Continuous
 62
     7
370
    25
100
AcDbLine
 10
418.2636363636
 20
295.4102272727
 30
0.0
 11
418.2636363636
 21
298.2
 31
0.0
  0
LINE
  5
2BB
330
1F
100
AcDbEntity
  8
0
  6
Continuous
 62
     7
370
    25
100
AcDbLine
 10
416.7870738636
 20
298.2
 30
0.0
 11
418.2636363636
 21
295.4102272727
 31
0.0
  0
LINE
  5
2BC
330
1F
100
AcDbEntity
  8
0
  6
Continuous
 62
     7
370
    25
100
AcDbLine
 10
416.4
 20
298.2
 30
0.0
 11
416.7870738636
 21
298.2
 31
0.0
  0
LINE
  5
2BD
330
1F
100
AcDbEntity
  8
0
  6
Continuous
 62
     7
370
    25
100
AcDbLine
 10
416.4
 20
294.7
 30
0.0
 11
416.4
 21
298.2
 31
0.0
  0
LINE
  5
2BE
330
1F
100
AcDbEntity
  8
0
  6
Continuous
 62
     7
370
    25
100
AcDbLine
 10
416.7636363636
 20
294.7
 30
0.0
 11
416.4
 21
294.7
 31
0.0
  0
LINE
  5
2BF
330
1F
100
AcDbEntity
  8
0
  6
Continuous
 62
     7
370
    25
100
AcDbLine
 10
416.7636363636
 20
297.4862215909
 30
0.0
 11
416.7636363636
 21
294.7
 31
0.0
  0
LINE
  5
2C0
330
1F
100
AcDbEntity
  8
0
  6
Continuous
 62
     7
370
    25
100
AcDbLine
 10
374.4
 20
289.7
 30
0.0
 11
409.4
 21
289.7
 31
0.0
  0
LINE
  5
2C1
330
1F
100
AcDbEntity
  8
0
  6
Continuous
 62
     7
370
    25
100
AcDbLine
 10
374.4
 20
292.7
 30
0.0
 11
374.4
 21
289.7
 31
0.0
  0
LINE
  5
2C2
330
1F
100
AcDbEntity
  8
0
  6
Continuous
 62
     7
370
    25
100
AcDbLine
 10
451.4
 20
292.7
 30
0.0
 11
451.4
 21
289.7
 31
0.0
  0
LINE
  5
2C3
330
1F
100
AcDbEntity
  8
0
  6
Continuous
 62
     7
370
    25
100
AcDbLine
 10
419.4
 20
289.7
 30
0.0
 11
451.4
 21
289.7
 31
0.0
  0
LINE
  5
2C4
330
1F
100
AcDbEntity
  8
0
  6
Continuous
 62
     7
370
    25
100
AcDbLine
 10
419.4
 20
289.7
 30
0.0
 11
419.4
 21
291.7
 31
0.0
  0
LINE
  5
2C5
330
1F
100
AcDbEntity
  8
0
  6
Continuous
 62
     7
370
    25
100
AcDbLine
 10
409.4
 20
291.7
 30
0.0
 11
419.4
 21
291.7
 31
0.0
  0
LINE
  5
2C6
330
1F
100
AcDbEntity
  8
0
  6
Continuous
 62
     7
370
    25
100
AcDbLine
 10
409.4
 20
291.7
 30
0.0
 11
409.4
 21
289.7
 31
0.0
  0
LINE
  5
2C7
330
1F
100
AcDbEntity
  8
0
  6
Continuous
 62
     7
370
    25
100
AcDbLine
 10
374.4
 20
334.7
 30
0.0
 11
374.4
 21
331.7
 31
0.0
  0
LINE
  5
2C8
330
1F
100
AcDbEntity
  8
0
  6
Continuous
 62
     7
370
    25
100
AcDbLine
 10
374.4
 20
334.7
 30
0.0
 11
451.4
 21
334.7
 31
0.0
  0
LINE
  5
2C9
330
1F
100
AcDbEntity
  8
0
  6
Continuous
 62
     7
370
    25
100
AcDbLine
 10
451.4
 20
334.7
 30
0.0
 11
451.4
 21
331.7
 31
0.0
  0
SPLINE
  5
2CA
330
1F
100
AcDbEntity
  8
0
  6
Continuous
 62
     7
370
    25
100
AcDbSpline
210
0.0
220
0.0
230
1.0
 70
     8
 71
     3
 72
     9
 73
     5
 74
     0
 42
0.000000001
 43
0.00000001
 40
0.0
 40
0.0
 40
0.0
 40
0.0
 40
0.5600121541623545
 40
0.9999999999999999
 40
0.9999999999999999
 40
0.9999999999999999
 40
0.9999999999999999
 10
414.8943181818183
 20
297.1161931818191
 30
0.0
 10
414.854016392695
 20
297.2496231760817
 30
0.0
 10
414.7820504740559
 20
297.4878858517592
 30
0.0
 10
414.7219139049512
 20
297.7293931383227
 30
0.0
 10
414.6954545454547
 20
297.8356534090918
 30
0.0
  0
LINE
  5
2CB
330
1F
100
AcDbEntity
  8
0
  6
Continuous
 62
     7
370
    25
100
AcDbLine
 10
415.1869318182
 20
296.1545454545
 30
0.0
 11
414.8943181818
 21
297.1161931818
 31
0.0
  0
LINE
  5
2CC
330
1F
100
AcDbEntity
  8
0
  6
Continuous
 62
     7
370
    25
100
AcDbLine
 10
414.2032670455
 20
296.1545454545
 30
0.0
 11
415.1869318182
 21
296.1545454545
 31
0.0
  0
LINE
  5
2CD
330
1F
100
AcDbEntity
  8
0
  6
Continuous
 62
     7
370
    25
100
AcDbLine
 10
414.5328125
 20
297.1730113636
 30
0.0
 11
414.2032670455
 21
296.1545454545
 31
0.0
  0
SPLINE
  5
2CE
330
1F
100
AcDbEntity
  8
0
  6
Continuous
 62
     7
370
    25
100
AcDbSpline
210
0.0
220
0.0
230
1.0
 70
     8
 71
     3
 72
     9
 73
     5
 74
     0
 42
0.000000001
 43
0.00000001
 40
0.0
 40
0.0
 40
0.0
 40
0.0
 40
0.5599894472996638
 40
1.0
 40
1.0
 40
1.0
 40
1.0
 10
414.6954545454547
 20
297.8356534090918
 30
0.0
 10
414.6712021064411
 20
297.7104369780944
 30
0.0
 10
414.6278933635166
 20
297.4868319948197
 30
0.0
 10
414.5618654699445
 20
297.2689025979872
 30
0.0
 10
414.5328125000001
 20
297.1730113636373
 30
0.0
  0
SPLINE
  5
2CF
330
1F
100
AcDbEntity
  8
0
  6
Continuous
 62
     7
370
    25
100
AcDbSpline
210
0.0
220
0.0
230
1.0
 70
     8
 71
     3
 72
     9
 73
     5
 74
     0
 42
0.000000001
 43
0.00000001
 40
0.0
 40
0.0
 40
0.0
 40
0.0
 40
0.5599438328954879
 40
1.0
 40
1.0
 40
1.0
 40
1.0
 10
428.1272727272728
 20
296.4571022727282
 30
0.0
 10
428.1211259926261
 20
296.6093357399
 30
0.0
 10
428.1101485797399
 20
296.8812084853939
 30
0.0
 10
428.0164963376182
 20
297.1361200489412
 30
0.0
 10
427.9752840909092
 20
297.2482954545464
 30
0.0
  0
SPLINE
  5
2D0
330
1F
100
AcDbEntity
  8
0
  6
Continuous
 62
     7
370
    25
100
AcDbSpline
210
0.0
220
0.0
230
1.0
 70
     8
 71
     3
 72
    12
 73
     8
 74
     0
 42
0.000000001
 43
0.00000001
 40
0.0
 40
0.0
 40
0.0
 40
0.0
 40
0.1862510114136806
 40
0.3725758417800408
 40
0.5591877236753391
 40
0.77937866932461
 40
1.0
 40
1.0
 40
1.0
 40
1.0
 10
427.1017045454547
 20
295.0636363636373
 30
0.0
 10
427.2230244257926
 20
295.076130065194
 30
0.0
 10
427.4657122705376
 20
295.1011224200762
 30
0.0
 10
427.7700636133877
 20
295.3197540560739
 30
0.0
 10
427.9967495902339
 20
295.6338476078422
 30
0.0
 10
428.1114247115052
 20
296.0303176332229
 30
0.0
 10
428.1219866179941
 20
296.3147481587507
 30
0.0
 10
428.1272727272728
 20
296.4571022727282
 30
0.0
  0
SPLINE
  5
2D1
330
1F
100
AcDbEntity
  8
0
  6
Continuous
 62
     7
370
    25
100
AcDbSpline
210
0.0
220
0.0
230
1.0
 70
     8
 71
     3
 72
    10
 73
     6
 74
     0
 42
0.000000001
 43
0.00000001
 40
0.0
 40
0.0
 40
0.0
 40
0.0
 40
0.2810713840286641
 40
0.5621123918061354
 40
1.0
 40
1.0
 40
1.0
 40
1.0
 10
427.9752840909092
 20
297.2482954545464
 30
0.0
 10
427.9259618017362
 20
297.3392314308585
 30
0.0
 10
427.8273225538019
 20
297.5210935557515
 30
0.0
 10
427.5363776888768
 20
297.7663730064425
 30
0.0
 10
427.2710958531128
 20
297.8098702064728
 30
0.0
 10
427.1095170454547
 20
297.8363636363646
 30
0.0
  0
SPLINE
  5
2D2
330
1F
100
AcDbEntity
  8
0
  6
Continuous
 62
     7
370
    25
100
AcDbSpline
210
0.0
220
0.0
230
1.0
 70
     8
 71
     3
 72
    11
 73
     7
 74
     0
 42
0.000000001
 43
0.00000001
 40
0.0
 40
0.0
 40
0.0
 40
0.0
 40
0.2809860806230282
 40
0.5604983476887176
 40
0.7804774439318767
 40
1.0
 40
1.0
 40
1.0
 40
1.0
 10
426.0818181818183
 20
296.3981534090919
 30
0.0
 10
426.090830658306
 20
296.221928983657
 30
0.0
 10
426.108808339509
 20
295.8704044559666
 30
0.0
 10
426.3311758996652
 20
295.4220031763213
 30
0.0
 10
426.6864847664982
 20
295.1165008834083
 30
0.0
 10
426.9633938338789
 20
295.0812456628981
 30
0.0
 10
427.1017045454547
 20
295.0636363636373
 30
0.0
  0
SPLINE
  5
2D3
330
1F
100
AcDbEntity
  8
0
  6
Continuous
 62
     7
370
    25
100
AcDbSpline
210
0.0
220
0.0
230
1.0
 70
     8
 71
     3
 72
    11
 73
     7
 74
     0
 42
0.000000001
 43
0.00000001
 40
0.0
 40
0.0
 40
0.0
 40
0.0
 40
0.248837523810773
 40
0.498074597271056
 40
0.7486037825912245
 40
1.0
 40
1.0
 40
1.0
 40
1.0
 10
427.1095170454547
 20
297.8363636363646
 30
0.0
 10
426.9426593570484
 20
297.8126811942254
 30
0.0
 10
426.6086760627213
 20
297.7652782838836
 30
0.0
 10
426.2507680622674
 20
297.3761519558798
 30
0.0
 10
426.0995388951861
 20
296.8963340522786
 30
0.0
 10
426.087731884799
 20
296.564404749735
 30
0.0
 10
426.0818181818183
 20
296.3981534090919
 30
0.0
  0
SPLINE
  5
2D4
330
1F
100
AcDbEntity
  8
0
  6
Continuous
 62
     7
370
    25
100
AcDbSpline
210
0.0
220
0.0
230
1.0
 70
     8
 71
     3
 72
     9
 73
     5
 74
     0
 42
0.000000001
 43
0.00000001
 40
0.0
 40
0.0
 40
0.0
 40
0.0
 40
0.5599438328954929
 40
0.9999999999999999
 40
0.9999999999999999
 40
0.9999999999999999
 40
0.9999999999999999
 10
433.9454545454547
 20
296.4571022727282
 30
0.0
 10
433.9393078108079
 20
296.6093357399
 30
0.0
 10
433.9283303979218
 20
296.8812084853939
 30
0.0
 10
433.8346781558
 20
297.1361200489412
 30
0.0
 10
433.793465909091
 20
297.2482954545464
 30
0.0
  0
SPLINE
  5
2D5
330
1F
100
AcDbEntity
  8
0
  6
Continuous
 62
     7
370
    25
100
AcDbSpline
210
0.0
220
0.0
230
1.0
 70
     8
 71
     3
 72
    12
 73
     8
 74
     0
 42
0.000000001
 43
0.00000001
 40
0.0
 40
0.0
 40
0.0
 40
0.0
 40
0.1862510114136869
 40
0.3725758417800433
 40
0.5591877236753409
 40
0.7793786693246108
 40
0.9999999999999999
 40
0.9999999999999999
 40
0.9999999999999999
 40
0.9999999999999999
 10
432.9198863636365
 20
295.0636363636373
 30
0.0
 10
433.0412062439744
 20
295.076130065194
 30
0.0
 10
433.2838940887194
 20
295.1011224200762
 30
0.0
 10
433.5882454315695
 20
295.3197540560739
 30
0.0
 10
433.8149314084158
 20
295.6338476078422
 30
0.0
 10
433.929606529687
 20
296.0303176332229
 30
0.0
 10
433.940168436176
 20
296.3147481587507
 30
0.0
 10
433.9454545454547
 20
296.4571022727282
 30
0.0
  0
SPLINE
  5
2D6
330
1F
100
AcDbEntity
  8
0
  6
Continuous
 62
     7
370
    25
100
AcDbSpline
210
0.0
220
0.0
230
1.0
 70
     8
 71
     3
 72
    11
 73
     7
 74
     0
 42
0.000000001
 43
0.00000001
 40
0.0
 40
0.0
 40
0.0
 40
0.0
 40
0.2809860806230302
 40
0.560498347688719
 40
0.7804774439318759
 40
1.0
 40
1.0
 40
1.0
 40
1.0
 10
431.9000000000001
 20
296.3981534090919
 30
0.0
 10
431.9090124764878
 20
296.221928983657
 30
0.0
 10
431.9269901576909
 20
295.8704044559666
 30
0.0
 10
432.149357717847
 20
295.4220031763214
 30
0.0
 10
432.50466658468
 20
295.1165008834083
 30
0.0
 10
432.7815756520608
 20
295.0812456628981
 30
0.0
 10
432.9198863636365
 20
295.0636363636373
 30
0.0
  0
SPLINE
  5
2D7
330
1F
100
AcDbEntity
  8
0
  6
Continuous
 62
     7
370
    25
100
AcDbSpline
210
0.0
220
0.0
230
1.0
 70
     8
 71
     3
 72
    11
 73
     7
 74
     0
 42
0.000000001
 43
0.00000001
 40
0.0
 40
0.0
 40
0.0
 40
0.0
 40
0.2488375238107706
 40
0.4980745972710571
 40
0.7486037825912233
 40
1.0
 40
1.0
 40
1.0
 40
1.0
 10
432.9276988636365
 20
297.8363636363646
 30
0.0
 10
432.7608411752302
 20
297.8126811942254
 30
0.0
 10
432.4268578809031
 20
297.7652782838836
 30
0.0
 10
432.0689498804492
 20
297.3761519558798
 30
0.0
 10
431.917720713368
 20
296.8963340522786
 30
0.0
 10
431.9059137029809
 20
296.564404749735
 30
0.0
 10
431.9000000000001
 20
296.3981534090919
 30
0.0
  0
SPLINE
  5
2D8
330
1F
100
AcDbEntity
  8
0
  6
Continuous
 62
     7
370
    25
100
AcDbSpline
210
0.0
220
0.0
230
1.0
 70
     8
 71
     3
 72
    10
 73
     6
 74
     0
 42
0.000000001
 43
0.00000001
 40
0.0
 40
0.0
 40
0.0
 40
0.0
 40
0.2810713840286603
 40
0.562112391806136
 40
1.0
 40
1.0
 40
1.0
 40
1.0
 10
433.793465909091
 20
297.2482954545464
 30
0.0
 10
433.744143619918
 20
297.3392314308585
 30
0.0
 10
433.6455043719838
 20
297.5210935557515
 30
0.0
 10
433.3545595070586
 20
297.7663730064425
 30
0.0
 10
433.0892776712946
 20
297.8098702064728
 30
0.0
 10
432.9276988636365
 20
297.8363636363646
 30
0.0
  0
LINE
  5
2D9
330
1F
100
AcDbEntity
  8
0
  6
Continuous
 62
     7
370
    25
100
AcDbLine
 10
439.1414772727
 20
296.1545454545
 30
0.0
 11
438.8488636364
 21
297.1161931818
 31
0.0
  0
LINE
  5
2DA
330
1F
100
AcDbEntity
  8
0
  6
Continuous
 62
     7
370
    25
100
AcDbLine
 10
438.1578125
 20
296.1545454545
 30
0.0
 11
439.1414772727
 21
296.1545454545
 31
0.0
  0
LINE
  5
2DB
330
1F
100
AcDbEntity
  8
0
  6
Continuous
 62
     7
370
    25
100
AcDbLine
 10
438.4873579545
 20
297.1730113636
 30
0.0
 11
438.1578125
 21
296.1545454545
 31
0.0
  0
SPLINE
  5
2DC
330
1F
100
AcDbEntity
  8
0
  6
Continuous
 62
     7
370
    25
100
AcDbSpline
210
0.0
220
0.0
230
1.0
 70
     8
 71
     3
 72
     9
 73
     5
 74
     0
 42
0.000000001
 43
0.00000001
 40
0.0
 40
0.0
 40
0.0
 40
0.0
 40
0.5599894472996763
 40
1.0
 40
1.0
 40
1.0
 40
1.0
 10
438.6500000000001
 20
297.8356534090918
 30
0.0
 10
438.6257475609866
 20
297.7104369780944
 30
0.0
 10
438.582438818062
 20
297.4868319948197
 30
0.0
 10
438.5164109244899
 20
297.2689025979872
 30
0.0
 10
438.4873579545456
 20
297.1730113636373
 30
0.0
  0
SPLINE
  5
2DD
330
1F
100
AcDbEntity
  8
0
  6
Continuous
 62
     7
370
    25
100
AcDbSpline
210
0.0
220
0.0
230
1.0
 70
     8
 71
     3
 72
     9
 73
     5
 74
     0
 42
0.000000001
 43
0.00000001
 40
0.0
 40
0.0
 40
0.0
 40
0.0
 40
0.5600121541623545
 40
0.9999999999999999
 40
0.9999999999999999
 40
0.9999999999999999
 40
0.9999999999999999
 10
438.8488636363638
 20
297.1161931818191
 30
0.0
 10
438.8085618472404
 20
297.2496231760817
 30
0.0
 10
438.7365959286014
 20
297.4878858517592
 30
0.0
 10
438.6764593594966
 20
297.7293931383227
 30
0.0
 10
438.6500000000001
 20
297.8356534090918
 30
0.0
  0
SPLINE
  5
2DE
330
1F
100
AcDbEntity
  8
0
  6
Continuous
 62
     7
370
    25
100
AcDbSpline
210
0.0
220
0.0
230
1.0
 70
     8
 71
     3
 72
    12
 73
     8
 74
     0
 42
0.000000001
 43
0.00000001
 40
0.0
 40
0.0
 40
0.0
 40
0.0
 40
0.1249854473788179
 40
0.250031768283304
 40
0.4990135263415293
 40
0.7492069660713767
 40
1.0
 40
1.0
 40
1.0
 40
1.0
 10
447.8865056818183
 20
295.0181818181827
 30
0.0
 10
447.9391215249687
 20
295.0229650596345
 30
0.0
 10
448.0443788375479
 20
295.0325338721914
 30
0.0
 10
448.2292251160658
 20
295.1399116625145
 30
0.0
 10
448.3962234154566
 20
295.3518477216324
 30
0.0
 10
448.4804545681674
 20
295.6596950343433
 30
0.0
 10
448.4874214706027
 20
295.8692465639789
 30
0.0
 10
448.4909090909092
 20
295.9741477272736
 30
0.0
  0
SPLINE
  5
2DF
330
1F
100
AcDbEntity
  8
0
  6
Continuous
 62
     7
370
    25
100
AcDbSpline
210
0.0
220
0.0
230
1.0
 70
     8
 71
     3
 72
    12
 73
     8
 74
     0
 42
0.000000001
 43
0.00000001
 40
0.0
 40
0.0
 40
0.0
 40
0.0
 40
0.2508546319790926
 40
0.5010024037370877
 40
0.7498284881184315
 40
0.8748817238429175
 40
0.9999999999999999
 40
0.9999999999999999
 40
0.9999999999999999
 40
0.9999999999999999
 10
447.2636363636365
 20
295.9741477272736
 30
0.0
 10
447.2670955651253
 20
295.8677907586841
 30
0.0
 10
447.274004220737
 20
295.6553765150358
 30
0.0
 10
447.3607287814182
 20
295.3437690240432
 30
0.0
 10
447.5347377967827
 20
295.1308808373635
 30
0.0
 10
447.7266169090561
 20
295.0311418279614
 30
0.0
 10
447.8332001876043
 20
295.0225025701301
 30
0.0
 10
447.8865056818183
 20
295.0181818181827
 30
0.0
  0
SPLINE
  5
2E0
330
1F
100
AcDbEntity
  8
0
  6
Continuous
 62
     7
370
    25
100
AcDbSpline
210
0.0
220
0.0
230
1.0
 70
     8
 71
     3
 72
    12
 73
     8
 74
     0
 42
0.000000001
 43
0.00000001
 40
0.0
 40
0.0
 40
0.0
 40
0.0
 40
0.125004193778475
 40
0.2500226272984992
 40
0.4991096571460237
 40
0.7492050127368566
 40
1.0
 40
1.0
 40
1.0
 40
1.0
 10
447.8680397727274
 20
296.9272727272736
 30
0.0
 10
447.8155320365938
 20
296.922507386645
 30
0.0
 10
447.7105105829544
 20
296.912976162548
 30
0.0
 10
447.5243699849826
 20
296.8083778605021
 30
0.0
 10
447.3583848333043
 20
296.5953151257993
 30
0.0
 10
447.2742058881239
 20
296.2882389852807
 30
0.0
 10
447.2671628176632
 20
296.0789422601655
 30
0.0
 10
447.2636363636365
 20
295.9741477272736
 30
0.0
  0
SPLINE
  5
2E1
330
1F
100
AcDbEntity
  8
0
  6
Continuous
 62
     7
370
    25
100
AcDbSpline
210
0.0
220
0.0
230
1.0
 70
     8
 71
     3
 72
    12
 73
     8
 74
     0
 42
0.000000001
 43
0.00000001
 40
0.0
 40
0.0
 40
0.0
 40
0.0
 40
0.250832555455765
 40
0.5009722888337214
 40
0.7498385290883132
 40
0.8748873117295374
 40
1.0
 40
1.0
 40
1.0
 40
1.0
 10
448.4909090909092
 20
295.9741477272736
 30
0.0
 10
448.4874175738604
 20
296.0802706874486
 30
0.0
 10
448.4804441836469
 20
296.2922234866377
 30
0.0
 10
448.3928729771839
 20
296.6028286834241
 30
0.0
 10
448.2191521251798
 20
296.815111220802
 30
0.0
 10
448.0275541837927
 20
296.9143672274946
 30
0.0
 10
447.9212202976794
 20
296.9229701614526
 30
0.0
 10
447.8680397727274
 20
296.9272727272736
 30
0.0
  0
LINE
  5
2E2
330
1F
100
AcDbEntity
  8
0
  6
Continuous
 62
     8
370
    25
100
AcDbLine
 10
338.7
 20
338.2
 30
0.0
 11
338.7
 21
336.2
 31
0.0
  0
LINE
  5
2E3
330
1F
100
AcDbEntity
  8
0
  6
Continuous
 62
     8
370
    25
100
AcDbLine
 10
338.7
 20
340.2
 30
0.0
 11
338.7
 21
338.2
 31
0.0
  0
LINE
  5
2E4
330
1F
100
AcDbEntity
  8
0
  6
Continuous
 62
     8
370
    25
100
AcDbLine
 10
451.9
 20
328.2
 30
0.0
 11
451.9
 21
321.5273790531
 31
0.0
  0
LINE
  5
2E5
330
1F
100
AcDbEntity
  8
0
  6
Continuous
 62
     8
370
    25
100
AcDbLine
 10
451.9
 20
302.8726209469
 30
0.0
 11
451.9
 21
296.2
 31
0.0
  0
LINE
  5
2E6
330
1F
100
AcDbEntity
  8
0
  6
Continuous
 62
     7
370
    18
100
AcDbLine
 10
375.3207373393
 20
312.2
 30
0.0
 11
363.4792626607
 21
312.2
 31
0.0
  0
LINE
  5
2E7
330
1F
100
AcDbEntity
  8
0
  6
CENTERX2
 62
     7
370
    18
100
AcDbLine
 10
375.3207373393
 20
312.2
 30
0.0
 11
375.3207373393
 21
312.2382441316
 31
0.0
  0
DIMENSION
  5
2E8
330
1F
100
AcDbEntity
  8
0
  6
Continuous
 62
     7
370
    18
100
AcDbDimension
  2
_D_8
 10
419.4
 20
279.7
 30
0.0
 11
432.8618059568
 21
279.7
 31
0.0
 70
   160
  1
<>
 71
     2
 42
-1.0
  3
SLDDIMSTYLE4
100
AcDbAlignedDimension
 13
409.4
 23
289.7
 33
0.0
 14
419.4
 24
289.7
 34
0.0
100
AcDbRotatedDimension
  0
DIMENSION
  5
2F5
330
1F
100
AcDbEntity
  8
0
  6
Continuous
 62
     7
370
    18
100
AcDbDimension
  2
_D_9
 10
401.380177208
 20
289.7
 30
0.0
 11
401.380177208
 21
286.9811258859
 31
0.0
 70
   160
  1
<>
 71
     2
 42
-1.0
  3
SLDDIMSTYLE4
100
AcDbAlignedDimension
 13
409.4
 23
291.7
 33
0.0
 14
409.4
 24
289.7
 34
0.0
 50
90.0
100
AcDbRotatedDimension
  0
DIMENSION
  5
301
330
1F
100
AcDbEntity
  8
0
  6
Continuous
 62
     7
370
    18
100
AcDbDimension
  2
_D_10
 10
457.9
 20
283.1788722431
 30
0.0
 11
469.2481147559
 21
283.1788722431
 31
0.0
 70
   160
  1
<>
 71
     2
 42
-1.0
  3
SLDDIMSTYLE5
100
AcDbAlignedDimension
 13
451.4
 23
294.7
 33
0.0
 14
457.9
 24
296.7
 34
0.0
100
AcDbRotatedDimension
  0
DIMENSION
  5
30E
330
1F
100
AcDbEntity
  8
0
  6
Continuous
 62
     7
370
    18
100
AcDbDimension
  2
_D_11
 10
490.4
 20
351.6
 30
0.0
 11
471.6866915633
 21
351.6
 31
0.0
 70
   160
  1
<>
 71
     2
 42
-1.0
  3
SLDDIMSTYLE0
100
AcDbAlignedDimension
 13
451.4
 23
334.7
 33
0.0
 14
490.4
 24
319.7
 34
0.0
100
AcDbRotatedDimension
  0
DIMENSION
  5
318
330
1F
100
AcDbEntity
  8
0
  6
Continuous
 62
     7
370
    18
100
AcDbDimension
  2
_D_12
 10
500.5061444939
 20
328.2
 30
0.0
 11
500.5061444939
 21
312.2
 31
0.0
 70
   160
  1
<>
 71
     2
 42
-1.0
  3
SLDDIMSTYLE0
100
AcDbAlignedDimension
 13
457.4
 23
296.2
 33
0.0
 14
457.4
 24
328.2
 34
0.0
 50
90.0
100
AcDbRotatedDimension
  0
DIMENSION
  5
322
330
1F
100
AcDbEntity
  8
0
  6
Continuous
 62
     7
370
    18
100
AcDbDimension
  2
_D_13
 10
506.5061444939
 20
303.2
 30
0.0
 11
506.5061444939
 21
311.1740926688
 31
0.0
 70
   160
  1
%%c<>
 71
     2
 42
-1.0
  3
SLDDIMSTYLE4
100
AcDbAlignedDimension
 13
483.9
 23
321.2
 33
0.0
 14
483.9
 24
303.2
 34
0.0
 50
90.0
100
AcDbRotatedDimension
  0
DIMENSION
  5
32F
330
1F
100
AcDbEntity
  8
0
  6
Continuous
 62
     7
370
    18
100
AcDbDimension
  2
_D_14
 10
451.4
 20
351.6
 30
0.0
 11
412.9
 21
351.6
 31
0.0
 70
   160
  1
<>
 71
     2
 42
-1.0
  3
SLDDIMSTYLE6
100
AcDbAlignedDimension
 13
374.4
 23
334.7
 33
0.0
 14
451.4
 24
334.7
 34
0.0
100
AcDbRotatedDimension
  0
LINE
  5
33A
330
1F
100
AcDbEntity
  8
0
  6
CENTERX2
 62
     7
370
    18
100
AcDbLine
 10
429.4
 20
312.2
 30
0.0
 11
485.9
 21
312.2
 31
0.0
  0
LINE
  5
33B
330
1F
100
AcDbEntity
  8
0
  6
CENTERX2
 62
     7
370
    18
100
AcDbLine
 10
482.4
 20
312.2
 30
0.0
 11
491.9
 21
312.2
 31
0.0
  0
LINE
  5
33C
330
1F
100
AcDbEntity
  8
0
  6
CENTERX2
 62
     7
370
    18
100
AcDbLine
 10
372.4
 20
312.2
 30
0.0
 11
432.4
 21
312.2
 31
0.0
  0
LINE
  5
33D
330
1F
100
AcDbEntity
  8
0
  6
Continuous
 62
     7
370
    25
100
AcDbLine
 10
115.7029122526
 20
56.1879832103
 30
0.0
 11
116.2949570258
 21
55.5959384372
 31
0.0
  0
LINE
  5
33E
330
1F
100
AcDbEntity
  8
0
  6
Continuous
 62
     7
370
    25
100
AcDbLine
 10
118.1895002998
 20
55.5959384372
 30
0.0
 11
118.781545073
 21
56.1879832103
 31
0.0
  0
LINE
  5
33F
330
1F
100
AcDbEntity
  8
0
  6
Continuous
 62
     7
370
    25
100
AcDbLine
 10
115.7029122526
 20
62.8188846696
 30
0.0
 11
115.7029122526
 21
56.1879832103
 31
0.0
  0
LINE
  5
340
330
1F
100
AcDbEntity
  8
0
  6
Continuous
 62
     7
370
    25
100
AcDbLine
 10
118.781545073
 20
56.1879832103
 30
0.0
 11
118.781545073
 21
62.8188846696
 31
0.0
  0
ARC
  5
341
330
1F
100
AcDbEntity
  8
0
  6
Continuous
 62
     7
370
    25
100
AcDbCircle
 10
118.0474095543
 20
49.6991724966
 30
0.0
 40
0.1420907455552509
100
AcDbArc
 50
270.0
 51
0.0
  0
ARC
  5
342
330
1F
100
AcDbEntity
  8
0
  6
Continuous
 62
     7
370
    25
100
AcDbCircle
 10
116.4370477713
 20
49.6991724966
 30
0.0
 40
0.1420907455552509
100
AcDbArc
 50
180.0
 51
270.0
  0
LINE
  5
343
330
1F
100
AcDbEntity
  8
0
  6
Continuous
 62
     7
370
    25
100
AcDbLine
 10
116.2949570258
 20
55.5959384372
 30
0.0
 11
116.2949570258
 21
49.6991724966
 31
0.0
  0
LINE
  5
344
330
1F
100
AcDbEntity
  8
0
  6
Continuous
 62
     7
370
    25
100
AcDbLine
 10
118.1895002998
 20
49.6991724966
 30
0.0
 11
118.1895002998
 21
55.5959384372
 31
0.0
  0
LINE
  5
345
330
1F
100
AcDbEntity
  8
0
  6
Continuous
 62
     7
370
    25
100
AcDbLine
 10
120.4392704378
 20
56.1879832103
 30
0.0
 11
121.0313152109
 21
55.5959384372
 31
0.0
  0
LINE
  5
346
330
1F
100
AcDbEntity
  8
0
  6
Continuous
 62
     7
370
    25
100
AcDbLine
 10
122.925858485
 20
55.5959384372
 30
0.0
 11
123.5179032581
 21
56.1879832103
 31
0.0
  0
LINE
  5
347
330
1F
100
AcDbEntity
  8
0
  6
Continuous
 62
     7
370
    25
100
AcDbLine
 10
120.4392704378
 20
62.8188846696
 30
0.0
 11
120.4392704378
 21
56.1879832103
 31
0.0
  0
LINE
  5
348
330
1F
100
AcDbEntity
  8
0
  6
Continuous
 62
     7
370
    25
100
AcDbLine
 10
123.5179032581
 20
56.1879832103
 30
0.0
 11
123.5179032581
 21
62.8188846696
 31
0.0
  0
LINE
  5
349
330
1F
100
AcDbEntity
  8
0
  6
Continuous
 62
     7
370
    25
100
AcDbLine
 10
121.0313152109
 20
55.5959384372
 30
0.0
 11
121.0313152109
 21
49.6991724966
 31
0.0
  0
LINE
  5
34A
330
1F
100
AcDbEntity
  8
0
  6
Continuous
 62
     7
370
    25
100
AcDbLine
 10
122.925858485
 20
49.6991724966
 30
0.0
 11
122.925858485
 21
55.5959384372
 31
0.0
  0
ARC
  5
34B
330
1F
100
AcDbEntity
  8
0
  6
Continuous
 62
     7
370
    25
100
AcDbCircle
 10
122.7837677394
 20
49.6991724966
 30
0.0
 40
0.1420907455552438
100
AcDbArc
 50
270.0
 51
0.0
  0
ARC
  5
34C
330
1F
100
AcDbEntity
  8
0
  6
Continuous
 62
     7
370
    25
100
AcDbCircle
 10
121.1734059565
 20
49.6991724966
 30
0.0
 40
0.1420907455552438
100
AcDbArc
 50
180.0
 51
270.0
  0
LINE
  5
34D
330
1F
100
AcDbEntity
  8
0
  6
Continuous
 62
     7
370
    25
100
AcDbLine
 10
123.873130122
 20
106.1565620639
 30
0.0
 11
123.873130122
 21
118.4710933454
 31
0.0
  0
LINE
  5
34E
330
1F
100
AcDbEntity
  8
0
  6
Continuous
 62
     7
370
    25
100
AcDbLine
 10
115.3476853887
 20
118.4710933454
 30
0.0
 11
115.3476853887
 21
106.1565620639
 31
0.0
  0
LINE
  5
34F
330
1F
100
AcDbEntity
  8
0
  6
Continuous
 62
     7
370
    25
100
AcDbLine
 10
123.873130122
 20
118.4710933454
 30
0.0
 11
123.6363122128
 21
118.7079112546
 31
0.0
  0
LINE
  5
350
330
1F
100
AcDbEntity
  8
0
  6
Continuous
 62
     7
370
    25
100
AcDbLine
 10
115.584503298
 20
118.7079112546
 30
0.0
 11
115.3476853887
 21
118.4710933454
 31
0.0
  0
ARC
  5
351
330
1F
100
AcDbEntity
  8
0
  6
Continuous
 62
     7
370
    25
100
AcDbCircle
 10
127.4253987609
 20
103.3147471528
 30
0.0
 40
0.236817909258761
100
AcDbArc
 50
180.0
 51
270.0
  0
ARC
  5
352
330
1F
100
AcDbEntity
  8
0
  6
Continuous
 62
     7
370
    25
100
AcDbCircle
 10
111.7954167498
 20
103.3147471528
 30
0.0
 40
0.2368179092587468
100
AcDbArc
 50
270.0
 51
0.0
  0
LINE
  5
353
330
1F
100
AcDbEntity
  8
0
  6
Continuous
 62
     7
370
    25
100
AcDbLine
 10
118.1895002998
 20
55.5959384372
 30
0.0
 11
116.2949570258
 21
55.5959384372
 31
0.0
  0
LINE
  5
354
330
1F
100
AcDbEntity
  8
0
  6
Continuous
 62
     7
370
    25
100
AcDbLine
 10
115.7029122526
 20
56.1879832103
 30
0.0
 11
118.781545073
 21
56.1879832103
 31
0.0
  0
LINE
  5
355
330
1F
100
AcDbEntity
  8
0
  6
Continuous
 62
     7
370
    25
100
AcDbLine
 10
118.6077873438
 20
62.8188846696
 30
0.0
 11
115.8766699818
 21
62.8188846696
 31
0.0
  0
LINE
  5
356
330
1F
100
AcDbEntity
  8
0
  6
Continuous
 62
     7
370
    25
100
AcDbLine
 10
118.0474094573
 20
49.5570817511
 30
0.0
 11
116.4370477713
 21
49.5570817511
 31
0.0
  0
LINE
  5
357
330
1F
100
AcDbEntity
  8
0
  6
Continuous
 62
     7
370
    25
100
AcDbLine
 10
118.8525904458
 20
62.8188846696
 30
0.0
 11
118.6077873438
 21
62.8188846696
 31
0.0
  0
LINE
  5
358
330
1F
100
AcDbEntity
  8
0
  6
Continuous
 62
     7
370
    25
100
AcDbLine
 10
115.6318668798
 20
62.8188846696
 30
0.0
 11
115.6318668798
 21
66.6079712177
 31
0.0
  0
LINE
  5
359
330
1F
100
AcDbEntity
  8
0
  6
Continuous
 62
     7
370
    25
100
AcDbLine
 10
115.8766699818
 20
62.8188846696
 30
0.0
 11
115.6318668798
 21
62.8188846696
 31
0.0
  0
LINE
  5
35A
330
1F
100
AcDbEntity
  8
0
  6
Continuous
 62
     7
370
    25
100
AcDbLine
 10
118.8525904458
 20
62.8188846696
 30
0.0
 11
118.8525904458
 21
66.6079712177
 31
0.0
  0
LINE
  5
35B
330
1F
100
AcDbEntity
  8
0
  6
Continuous
 62
     7
370
    25
100
AcDbLine
 10
122.925858485
 20
55.5959384372
 30
0.0
 11
121.0313152109
 21
55.5959384372
 31
0.0
  0
LINE
  5
35C
330
1F
100
AcDbEntity
  8
0
  6
Continuous
 62
     7
370
    25
100
AcDbLine
 10
120.4392704378
 20
56.1879832103
 30
0.0
 11
123.5179032581
 21
56.1879832103
 31
0.0
  0
LINE
  5
35D
330
1F
100
AcDbEntity
  8
0
  6
Continuous
 62
     7
370
    25
100
AcDbLine
 10
123.344145529
 20
62.8188846696
 30
0.0
 11
120.6130281669
 21
62.8188846696
 31
0.0
  0
LINE
  5
35E
330
1F
100
AcDbEntity
  8
0
  6
Continuous
 62
     7
370
    25
100
AcDbLine
 10
122.7837676425
 20
49.5570817511
 30
0.0
 11
121.1734059565
 21
49.5570817511
 31
0.0
  0
LINE
  5
35F
330
1F
100
AcDbEntity
  8
0
  6
Continuous
 62
     7
370
    25
100
AcDbLine
 10
123.5889486309
 20
62.8188846696
 30
0.0
 11
123.5889486309
 21
66.6079712177
 31
0.0
  0
LINE
  5
360
330
1F
100
AcDbEntity
  8
0
  6
Continuous
 62
     7
370
    25
100
AcDbLine
 10
120.6130281669
 20
62.8188846696
 30
0.0
 11
120.368225065
 21
62.8188846696
 31
0.0
  0
LINE
  5
361
330
1F
100
AcDbEntity
  8
0
  6
Continuous
 62
     7
370
    25
100
AcDbLine
 10
120.368225065
 20
62.8188846696
 30
0.0
 11
120.368225065
 21
66.6079712177
 31
0.0
  0
LINE
  5
362
330
1F
100
AcDbEntity
  8
0
  6
Continuous
 62
     7
370
    25
100
AcDbLine
 10
123.5889486309
 20
62.8188846696
 30
0.0
 11
123.344145529
 21
62.8188846696
 31
0.0
  0
LINE
  5
363
330
1F
100
AcDbEntity
  8
0
  6
Continuous
 62
     7
370
    25
100
AcDbLine
 10
123.873130122
 20
118.4710933454
 30
0.0
 11
115.3476853887
 21
118.4710933454
 31
0.0
  0
LINE
  5
364
330
1F
100
AcDbEntity
  8
0
  6
Continuous
 62
     7
370
    25
100
AcDbLine
 10
115.584503298
 20
118.7079112546
 30
0.0
 11
116.0581391165
 21
118.7079112546
 31
0.0
  0
LINE
  5
365
330
1F
100
AcDbEntity
  8
0
  6
Continuous
 62
     7
370
    25
100
AcDbLine
 10
116.0581391165
 20
118.7079112546
 30
0.0
 11
117.7158644813
 21
118.7079112546
 31
0.0
  0
LINE
  5
366
330
1F
100
AcDbEntity
  8
0
  6
Continuous
 62
     7
370
    25
100
AcDbLine
 10
117.7158644813
 20
118.7079112546
 30
0.0
 11
121.5049510295
 21
118.7079112546
 31
0.0
  0
LINE
  5
367
330
1F
100
AcDbEntity
  8
0
  6
Continuous
 62
     7
370
    25
100
AcDbLine
 10
121.5049510295
 20
118.7079112546
 30
0.0
 11
123.1626763943
 21
118.7079112546
 31
0.0
  0
LINE
  5
368
330
1F
100
AcDbEntity
  8
0
  6
Continuous
 62
     7
370
    25
100
AcDbLine
 10
123.1626763943
 20
118.7079112546
 30
0.0
 11
123.6363122128
 21
118.7079112546
 31
0.0
  0
SPLINE
  5
369
330
1F
100
AcDbEntity
  8
0
  6
Continuous
 62
     7
370
    25
100
AcDbSpline
210
0.0
220
0.0
230
1.0
 70
     8
 71
     3
 72
    13
 73
     9
 74
     0
 42
0.000000001
 43
0.00000001
 40
0.0
 40
0.0
 40
0.0
 40
0.0
 40
0.0600071289245178
 40
0.1333066582979344
 40
0.2464479258036561
 40
0.4598572101501749
 40
0.9339715721127944
 40
1.0
 40
1.0
 40
1.0
 40
1.0
 10
121.5049510294506
 20
121.3129082564909
 30
0.0
 10
121.5034715569857
 20
121.3263450684386
 30
0.0
 10
121.5001848886535
 20
121.3561951301068
 30
0.0
 10
121.4701262916078
 20
121.4041679651052
 30
0.0
 10
121.4013529679078
 20
121.4624230500506
 30
0.0
 10
121.2335517993302
 20
121.5311245640792
 30
0.0
 10
121.0640792236444
 20
121.548686025324
 30
0.0
 10
120.9436728520193
 20
121.5496128663466
 30
0.0
 10
120.9289540710314
 20
121.5497261657496
 30
0.0
  0
LINE
  5
36A
330
1F
100
AcDbEntity
  8
0
  6
Continuous
 62
     7
370
    25
100
AcDbLine
 10
121.5049510295
 20
118.7079112546
 30
0.0
 11
121.5049510295
 21
121.3129082565
 31
0.0
  0
LINE
  5
36B
330
1F
100
AcDbEntity
  8
0
  6
Continuous
 62
     7
370
    25
100
AcDbLine
 10
117.7158644813
 20
118.7079112546
 30
0.0
 11
117.7158644813
 21
121.3129082565
 31
0.0
  0
SPLINE
  5
36C
330
1F
100
AcDbEntity
  8
0
  6
Continuous
 62
     7
370
    25
100
AcDbSpline
210
0.0
220
0.0
230
1.0
 70
     8
 71
     3
 72
    13
 73
     9
 74
     0
 42
0.000000001
 43
0.00000001
 40
0.0
 40
0.0
 40
0.0
 40
0.0
 40
0.4562536240148967
 40
0.6151465960656775
 40
0.8248978009701471
 40
0.8989945491587304
 40
0.9737945380438766
 40
1.0
 40
1.0
 40
1.0
 40
1.0
 10
118.29186143973
 20
121.5497261657496
 30
0.0
 10
118.1893721249371
 20
121.5458706126614
 30
0.0
 10
118.0511903115562
 20
121.5406723408378
 30
0.0
 10
117.87487499157
 20
121.4877501026388
 30
0.0
 10
117.7848438445355
 20
121.4401325005374
 30
0.0
 10
117.7326320543101
 20
121.3786642547197
 30
0.0
 10
117.7172384164791
 20
121.3413038527715
 30
0.0
 10
117.7161475121058
 20
121.3187577524318
 30
0.0
 10
117.7158644813108
 20
121.3129082564909
 30
0.0
  0
LINE
  5
36D
330
1F
100
AcDbEntity
  8
0
  6
Continuous
 62
     7
370
    25
100
AcDbLine
 10
118.2918614397
 20
121.5497261657
 30
0.0
 11
120.928954071
 21
121.5497261657
 31
0.0
  0
LINE
  5
36E
330
1F
100
AcDbEntity
  8
0
  6
Continuous
 62
     7
370
    25
100
AcDbLine
 10
123.1626763943
 20
121.3129082565
 30
0.0
 11
121.5049510295
 21
121.3129082565
 31
0.0
  0
LINE
  5
36F
330
1F
100
AcDbEntity
  8
0
  6
Continuous
 62
     7
370
    25
100
AcDbLine
 10
123.1626763943
 20
118.7079112546
 30
0.0
 11
123.1626763943
 21
121.3129082565
 31
0.0
  0
LINE
  5
370
330
1F
100
AcDbEntity
  8
0
  6
Continuous
 62
     7
370
    25
100
AcDbLine
 10
116.0581391165
 20
118.7079112546
 30
0.0
 11
116.0581391165
 21
121.3129082565
 31
0.0
  0
LINE
  5
371
330
1F
100
AcDbEntity
  8
0
  6
Continuous
 62
     7
370
    25
100
AcDbLine
 10
117.7158644813
 20
121.3129082565
 30
0.0
 11
116.0581391165
 21
121.3129082565
 31
0.0
  0
LINE
  5
372
330
1F
100
AcDbEntity
  8
0
  6
Continuous
 62
     7
370
    25
100
AcDbLine
 10
120.928954071
 20
121.5497261657
 30
0.0
 11
123.1626763943
 21
121.5497261657
 31
0.0
  0
SPLINE
  5
373
330
1F
100
AcDbEntity
  8
0
  6
Continuous
 62
     7
370
    25
100
AcDbSpline
210
0.0
220
0.0
230
1.0
 70
    24
 71
     3
 72
    13
 73
     9
 74
     0
 42
0.000000001
 43
0.00000001
 40
0.0
 40
0.0
 40
0.0
 40
0.0
 40
0.456253624014915
 40
0.6151465960656886
 40
0.8248978009701609
 40
0.8989945491587418
 40
0.9737945380438864
 40
0.9999999999999999
 40
0.9999999999999999
 40
0.9999999999999999
 40
0.9999999999999999
 10
123.1626763942618
 20
121.5497261657496
 30
0.0
 10
123.1626763942618
 20
121.5458706126614
 30
0.0
 10
123.1626763942618
 20
121.5406723408378
 30
0.0
 10
123.1626763942618
 20
121.4877501026388
 30
0.0
 10
123.1626763942618
 20
121.4401325005375
 30
0.0
 10
123.1626763942618
 20
121.3786642547197
 30
0.0
 10
123.1626763942618
 20
121.3413038527715
 30
0.0
 10
123.1626763942618
 20
121.3187577524318
 30
0.0
 10
123.1626763942618
 20
121.3129082564909
 30
0.0
  0
SPLINE
  5
374
330
1F
100
AcDbEntity
  8
0
  6
Continuous
 62
     7
370
    25
100
AcDbSpline
210
0.0
220
0.0
230
1.0
 70
    24
 71
     3
 72
    13
 73
     9
 74
     0
 42
0.000000001
 43
0.00000001
 40
0.0
 40
0.0
 40
0.0
 40
0.0
 40
0.060007128924517
 40
0.1333066582979337
 40
0.2464479258036562
 40
0.459857210150173
 40
0.9339715721127861
 40
1.0
 40
1.0
 40
1.0
 40
1.0
 10
116.0581391164997
 20
121.3129082564909
 30
0.0
 10
116.0581391164997
 20
121.3263450684386
 30
0.0
 10
116.0581391164997
 20
121.3561951301068
 30
0.0
 10
116.0581391164997
 20
121.4041679651053
 30
0.0
 10
116.0581391164997
 20
121.4624230500506
 30
0.0
 10
116.0581391164997
 20
121.5311245640792
 30
0.0
 10
116.0581391164997
 20
121.548686025324
 30
0.0
 10
116.0581391164997
 20
121.5496128663466
 30
0.0
 10
116.0581391164997
 20
121.5497261657496
 30
0.0
  0
LINE
  5
375
330
1F
100
AcDbEntity
  8
0
  6
Continuous
 62
     7
370
    25
100
AcDbLine
 10
116.0581391165
 20
121.5497261657
 30
0.0
 11
118.2918614397
 21
121.5497261657
 31
0.0
  0
LINE
  5
376
330
1F
100
AcDbEntity
  8
0
  6
Continuous
 62
     7
370
    25
100
AcDbLine
 10
112.0322346591
 20
103.3147471528
 30
0.0
 11
113.4531421147
 21
103.3147471528
 31
0.0
  0
LINE
  5
377
330
1F
100
AcDbEntity
  8
0
  6
Continuous
 62
     7
370
    25
100
AcDbLine
 10
113.4531421147
 20
103.3147471528
 30
0.0
 11
125.7676733961
 21
103.3147471528
 31
0.0
  0
LINE
  5
378
330
1F
100
AcDbEntity
  8
0
  6
Continuous
 62
     7
370
    25
100
AcDbLine
 10
125.7676733961
 20
103.3147471528
 30
0.0
 11
127.1885808517
 21
103.3147471528
 31
0.0
  0
LINE
  5
379
330
1F
100
AcDbEntity
  8
0
  6
Continuous
 62
     7
370
    25
100
AcDbLine
 10
125.7676733961
 20
105.9197441547
 30
0.0
 11
113.4531421147
 21
105.9197441547
 31
0.0
  0
LINE
  5
37A
330
1F
100
AcDbEntity
  8
0
  6
Continuous
 62
     7
370
    25
100
AcDbLine
 10
125.7676733961
 20
103.3147471528
 30
0.0
 11
125.7676733961
 21
105.9197441547
 31
0.0
  0
LINE
  5
37B
330
1F
100
AcDbEntity
  8
0
  6
Continuous
 62
     7
370
    25
100
AcDbLine
 10
113.4531421147
 20
103.3147471528
 30
0.0
 11
113.4531421147
 21
105.9197441547
 31
0.0
  0
LINE
  5
37C
330
1F
100
AcDbEntity
  8
0
  6
Continuous
 62
     7
370
    25
100
AcDbLine
 10
125.7676733961
 20
106.1565620639
 30
0.0
 11
125.7676733961
 21
105.9197441547
 31
0.0
  0
LINE
  5
37D
330
1F
100
AcDbEntity
  8
0
  6
Continuous
 62
     7
370
    25
100
AcDbLine
 10
113.4531421147
 20
106.1565620639
 30
0.0
 11
113.4531421147
 21
105.9197441547
 31
0.0
  0
LINE
  5
37E
330
1F
100
AcDbEntity
  8
0
  6
Continuous
 62
     7
370
    25
100
AcDbLine
 10
113.4531421147
 20
106.1565620639
 30
0.0
 11
125.7676733961
 21
106.1565620639
 31
0.0
  0
ARC
  5
37F
330
1F
100
AcDbEntity
  8
0
  6
Continuous
 62
     7
370
    25
100
AcDbCircle
 10
107.7695122924
 20
66.6079712177
 30
0.0
 40
2.012952228688178
100
AcDbArc
 50
0.0
 51
180.0
  0
LINE
  5
380
330
1F
100
AcDbEntity
  8
0
  6
Continuous
 62
     7
370
    25
100
AcDbLine
 10
105.6381511091
 20
66.6079712177
 30
0.0
 11
105.6381511091
 21
83.1852248658
 31
0.0
  0
LINE
  5
381
330
1F
100
AcDbEntity
  8
0
  6
Continuous
 62
     7
370
    25
100
AcDbLine
 10
105.6381511091
 20
83.1852248658
 30
0.0
 11
133.5826644016
 21
83.1852248658
 31
0.0
  0
LINE
  5
382
330
1F
100
AcDbEntity
  8
0
  6
Continuous
 62
     7
370
    25
100
AcDbLine
 10
133.5826644016
 20
66.6079712177
 30
0.0
 11
133.5826644016
 21
83.1852248658
 31
0.0
  0
LINE
  5
383
330
1F
100
AcDbEntity
  8
0
  6
Continuous
 62
     7
370
    25
100
AcDbLine
 10
133.464255447
 20
66.6079712177
 30
0.0
 11
133.5826644016
 21
66.6079712177
 31
0.0
  0
ARC
  5
384
330
1F
100
AcDbEntity
  8
0
  6
Continuous
 62
     7
370
    25
100
AcDbCircle
 10
131.4513032183
 20
66.6079712177
 30
0.0
 40
2.012952228694104
100
AcDbArc
 50
0.0
 51
180.0
  0
CIRCLE
  5
385
330
1F
100
AcDbEntity
  8
0
  6
Continuous
 62
     7
370
    25
100
AcDbCircle
 10
119.6104077554
 20
69.9234219473
 30
0.0
 40
2.368179092587368
  0
LINE
  5
386
330
1F
100
AcDbEntity
  8
0
  6
Continuous
 62
     7
370
    25
100
AcDbLine
 10
105.6381511091
 20
66.6079712177
 30
0.0
 11
105.7565600638
 21
66.6079712177
 31
0.0
  0
LINE
  5
387
330
1F
100
AcDbEntity
  8
0
  6
Continuous
 62
     7
370
    25
100
AcDbLine
 10
109.7824645211
 20
66.6079712177
 30
0.0
 11
129.4383509896
 21
66.6079712177
 31
0.0
  0
LINE
  5
388
330
1F
100
AcDbEntity
  8
0
  6
Continuous
 62
     7
370
    25
100
AcDbLine
 10
104.2172436536
 20
66.6079712177
 30
0.0
 11
104.2172436536
 21
103.0779292436
 31
0.0
  0
LINE
  5
389
330
1F
100
AcDbEntity
  8
0
  6
Continuous
 62
     7
370
    25
100
AcDbLine
 10
104.2172436536
 20
103.0779292436
 30
0.0
 11
105.6381511091
 21
103.0779292436
 31
0.0
  0
LINE
  5
38A
330
1F
100
AcDbEntity
  8
0
  6
Continuous
 62
     7
370
    25
100
AcDbLine
 10
105.6381511091
 20
87.921583051
 30
0.0
 11
105.6381511091
 21
103.0779292436
 31
0.0
  0
LINE
  5
38B
330
1F
100
AcDbEntity
  8
0
  6
Continuous
 62
     7
370
    25
100
AcDbLine
 10
105.6381511091
 20
87.921583051
 30
0.0
 11
104.6908794721
 21
87.921583051
 31
0.0
  0
LINE
  5
38C
330
1F
100
AcDbEntity
  8
0
  6
Continuous
 62
     7
370
    25
100
AcDbLine
 10
104.6908794721
 20
83.1852248658
 30
0.0
 11
104.6908794721
 21
87.921583051
 31
0.0
  0
LINE
  5
38D
330
1F
100
AcDbEntity
  8
0
  6
Continuous
 62
     7
370
    25
100
AcDbLine
 10
104.6908794721
 20
83.1852248658
 30
0.0
 11
105.6381511091
 21
83.1852248658
 31
0.0
  0
LINE
  5
38E
330
1F
100
AcDbEntity
  8
0
  6
Continuous
 62
     7
370
    25
100
AcDbLine
 10
104.2172436536
 20
66.6079712177
 30
0.0
 11
105.6381511091
 21
66.6079712177
 31
0.0
  0
LINE
  5
38F
330
1F
100
AcDbEntity
  8
0
  6
Continuous
 62
     7
370
    25
100
AcDbLine
 10
134.5299360387
 20
87.921583051
 30
0.0
 11
134.5299360387
 21
83.1852248658
 31
0.0
  0
LINE
  5
390
330
1F
100
AcDbEntity
  8
0
  6
Continuous
 62
     7
370
    25
100
AcDbLine
 10
134.5299360387
 20
87.921583051
 30
0.0
 11
133.5826644016
 21
87.921583051
 31
0.0
  0
LINE
  5
391
330
1F
100
AcDbEntity
  8
0
  6
Continuous
 62
     7
370
    25
100
AcDbLine
 10
133.5826644016
 20
87.921583051
 30
0.0
 11
133.5826644016
 21
103.0779292436
 31
0.0
  0
LINE
  5
392
330
1F
100
AcDbEntity
  8
0
  6
Continuous
 62
     7
370
    25
100
AcDbLine
 10
133.5826644016
 20
103.0779292436
 30
0.0
 11
135.0035718572
 21
103.0779292436
 31
0.0
  0
LINE
  5
393
330
1F
100
AcDbEntity
  8
0
  6
Continuous
 62
     7
370
    25
100
AcDbLine
 10
135.0035718572
 20
66.6079712177
 30
0.0
 11
135.0035718572
 21
103.0779292436
 31
0.0
  0
LINE
  5
394
330
1F
100
AcDbEntity
  8
0
  6
Continuous
 62
     7
370
    25
100
AcDbLine
 10
133.5826644016
 20
83.1852248658
 30
0.0
 11
134.5299360387
 21
83.1852248658
 31
0.0
  0
LINE
  5
395
330
1F
100
AcDbEntity
  8
0
  6
Continuous
 62
     7
370
    25
100
AcDbLine
 10
133.5826644016
 20
66.6079712177
 30
0.0
 11
135.0035718572
 21
66.6079712177
 31
0.0
  0
SPLINE
  5
396
330
1F
100
AcDbEntity
  8
0
  6
Continuous
 62
     7
370
    25
100
AcDbSpline
210
0.0
220
0.0
230
1.0
 70
     8
 71
     3
 72
    10
 73
     6
 74
     0
 42
0.000000001
 43
0.00000001
 40
0.0
 40
0.0
 40
0.0
 40
0.0
 40
0.2799242767335977
 40
0.5601958364081545
 40
1.0
 40
1.0
 40
1.0
 40
1.0
 10
128.4264926500566
 20
93.22643877403496
 30
0.0
 10
128.4492896108434
 20
93.26707841492696
 30
0.0
 10
128.49491181505
 20
93.34840811553913
 30
0.0
 10
128.640980180423
 20
93.43867267576411
 30
0.0
 10
128.7603058940671
 20
93.44850514320423
 30
0.0
 10
128.8331870425194
 20
93.45451056732675
 30
0.0
  0
SPLINE
  5
397
330
1F
100
AcDbEntity
  8
0
  6
Continuous
 62
     7
370
    25
100
AcDbSpline
210
0.0
220
0.0
230
1.0
 70
     8
 71
     3
 72
     9
 73
     5
 74
     0
 42
0.000000001
 43
0.00000001
 40
0.0
 40
0.0
 40
0.0
 40
0.0
 40
0.5592097131906869
 40
1.0
 40
1.0
 40
1.0
 40
1.0
 10
128.0790027349085
 20
93.41145276564333
 30
0.0
 10
128.1578987176814
 20
93.40157227315073
 30
0.0
 10
128.2989835037857
 20
93.38390360206093
 30
0.0
 10
128.3874829526217
 20
93.27461300684551
 30
0.0
 10
128.4264926500566
 20
93.22643877403496
 30
0.0
  0
SPLINE
  5
398
330
1F
100
AcDbEntity
  8
0
  6
Continuous
 62
     7
370
    25
100
AcDbSpline
210
0.0
220
0.0
230
1.0
 70
     8
 71
     3
 72
    11
 73
     7
 74
     0
 42
0.000000001
 43
0.00000001
 40
0.0
 40
0.0
 40
0.0
 40
0.0
 40
0.2808047279569207
 40
0.5589915801001691
 40
0.7794593579395712
 40
1.0
 40
1.0
 40
1.0
 40
1.0
 10
127.6622166701761
 20
92.95665473536235
 30
0.0
 10
127.664476458948
 20
93.02265533068706
 30
0.0
 10
127.6689749690176
 20
93.15404121345526
 30
0.0
 10
127.7770153165456
 20
93.31090194627414
 30
0.0
 10
127.9251228430668
 20
93.39703288694565
 30
0.0
 10
128.0277037880905
 20
93.40664561000018
 30
0.0
 10
128.0790027349085
 20
93.41145276564335
 30
0.0
  0
LINE
  5
399
330
1F
100
AcDbEntity
  8
0
  6
Continuous
 62
     7
370
    25
100
AcDbLine
 10
127.6622166702
 20
92.4426522278
 30
0.0
 11
127.6622166702
 21
92.9566547354
 31
0.0
  0
LINE
  5
39A
330
1F
100
AcDbEntity
  8
0
  6
Continuous
 62
     7
370
    25
100
AcDbLine
 10
129.319942035
 20
92.4426522278
 30
0.0
 11
127.6622166702
 21
92.4426522278
 31
0.0
  0
LINE
  5
39B
330
1F
100
AcDbEntity
  8
0
  6
Continuous
 62
     7
370
    25
100
AcDbLine
 10
129.319942035
 20
92.9529544555
 30
0.0
 11
129.319942035
 21
92.4426522278
 31
0.0
  0
SPLINE
  5
39C
330
1F
100
AcDbEntity
  8
0
  6
Continuous
 62
     7
370
    25
100
AcDbSpline
210
0.0
220
0.0
230
1.0
 70
     8
 71
     3
 72
    11
 73
     7
 74
     0
 42
0.000000001
 43
0.00000001
 40
0.0
 40
0.0
 40
0.0
 40
0.0
 40
0.2803819068615687
 40
0.5593259666885091
 40
0.7789248743890747
 40
1.0
 40
1.0
 40
1.0
 40
1.0
 10
128.8331870425194
 20
93.45451056732675
 30
0.0
 10
128.9078028993285
 20
93.44809974874973
 30
0.0
 10
129.0566519698953
 20
93.43531098738495
 30
0.0
 10
129.2386960852761
 20
93.3111299933785
 30
0.0
 10
129.3141292271636
 20
93.12865231191617
 30
0.0
 10
129.318000110011
 20
93.0116510555128
 30
0.0
 10
129.3199420349873
 20
92.95295445553019
 30
0.0
  0
SPLINE
  5
39D
330
1F
100
AcDbEntity
  8
0
  6
Continuous
 62
     7
370
    25
100
AcDbSpline
210
0.0
220
0.0
230
1.0
 70
     8
 71
     3
 72
    10
 73
     6
 74
     0
 42
0.000000001
 43
0.00000001
 40
0.0
 40
0.0
 40
0.0
 40
0.0
 40
0.2781862585353739
 40
0.5587890029769619
 40
1.0
 40
1.0
 40
1.0
 40
1.0
 10
127.6928280760604
 20
95.92932499689569
 30
0.0
 10
127.7368661060807
 20
96.00581248946777
 30
0.0
 10
127.8253247057888
 20
96.1594518889823
 30
0.0
 10
128.1213477679019
 20
96.2952475289732
 30
0.0
 10
128.3451791731282
 20
96.3092781292329
 30
0.0
 10
128.4819968475391
 20
96.3178543792733
 30
0.0
  0
SPLINE
  5
39E
330
1F
100
AcDbEntity
  8
0
  6
Continuous
 62
     7
370
    25
100
AcDbSpline
210
0.0
220
0.0
230
1.0
 70
     8
 71
     3
 72
     9
 73
     5
 74
     0
 42
0.000000001
 43
0.00000001
 40
0.0
 40
0.0
 40
0.0
 40
0.0
 40
0.5603000924432162
 40
1.0
 40
1.0
 40
1.0
 40
1.0
 10
127.6622166701761
 20
95.66559596158481
 30
0.0
 10
127.6625583827062
 20
95.71552561626935
 30
0.0
 10
127.663168256834
 20
95.80463796045409
 30
0.0
 10
127.6837696467978
 20
95.8912442287376
 30
0.0
 10
127.6928280760604
 20
95.92932499689569
 30
0.0
  0
LINE
  5
39F
330
1F
100
AcDbEntity
  8
0
  6
Continuous
 62
     7
370
    25
100
AcDbLine
 10
127.6622166702
 20
95.1983515355
 30
0.0
 11
127.6622166702
 21
95.6655959616
 31
0.0
  0
LINE
  5
3A0
330
1F
100
AcDbEntity
  8
0
  6
Continuous
 62
     7
370
    25
100
AcDbLine
 10
129.319942035
 20
95.1983515355
 30
0.0
 11
127.6622166702
 21
95.1983515355
 31
0.0
  0
LINE
  5
3A1
330
1F
100
AcDbEntity
  8
0
  6
Continuous
 62
     7
370
    25
100
AcDbLine
 10
129.319942035
 20
95.6871248624
 30
0.0
 11
129.319942035
 21
95.1983515355
 31
0.0
  0
SPLINE
  5
3A2
330
1F
100
AcDbEntity
  8
0
  6
Continuous
 62
     7
370
    25
100
AcDbSpline
210
0.0
220
0.0
230
1.0
 70
     8
 71
     3
 72
    12
 73
     8
 74
     0
 42
0.000000001
 43
0.00000001
 40
0.0
 40
0.0
 40
0.0
 40
0.0
 40
0.2506969178100072
 40
0.5007516787876903
 40
0.6260006654453375
 40
0.7508919778120542
 40
1.0
 40
1.0
 40
1.0
 40
1.0
 10
128.4819968475391
 20
96.3178543792733
 30
0.0
 10
128.5816205564349
 20
96.31375076232173
 30
0.0
 10
128.7806127894165
 20
96.30555403977907
 30
0.0
 10
129.0194080687091
 20
96.22033543034814
 30
0.0
 10
129.1828558859355
 20
96.10534402876587
 30
0.0
 10
129.3021578884905
 20
95.93991723840914
 30
0.0
 10
129.3128322271633
 20
95.78818707606241
 30
0.0
 10
129.3199420349873
 20
95.68712486242651
 30
0.0
  0
SPLINE
  5
3A3
330
1F
100
AcDbEntity
  8
0
  6
Continuous
 62
     7
370
    25
100
AcDbSpline
210
0.0
220
0.0
230
1.0
 70
     8
 71
     3
 72
    11
 73
     7
 74
     0
 42
0.000000001
 43
0.00000001
 40
0.0
 40
0.0
 40
0.0
 40
0.0
 40
0.2814468730425311
 40
0.560100476273842
 40
0.7795390491623243
 40
1.0
 40
1.0
 40
1.0
 40
1.0
 10
128.581568013932
 20
98.71832682312322
 30
0.0
 10
128.5973764807289
 20
98.77026816486156
 30
0.0
 10
128.6288365203676
 20
98.87363534720558
 30
0.0
 10
128.6934497502915
 20
99.01794289162022
 30
0.0
 10
128.8239661388575
 20
99.08723726919929
 30
0.0
 10
128.9096591023794
 20
99.09246343289654
 30
0.0
 10
128.9526051643757
 20
99.09508258785303
 30
0.0
  0
SPLINE
  5
3A4
330
1F
100
AcDbEntity
  8
0
  6
Continuous
 62
     7
370
    25
100
AcDbSpline
210
0.0
220
0.0
230
1.0
 70
     8
 71
     3
 72
     9
 73
     5
 74
     0
 42
0.000000001
 43
0.00000001
 40
0.0
 40
0.0
 40
0.0
 40
0.0
 40
0.5595482485362976
 40
1.0
 40
1.0
 40
1.0
 40
1.0
 10
128.5126082534234
 20
98.52523949369919
 30
0.0
 10
128.5274886976309
 20
98.56054306105612
 30
0.0
 10
128.554082372522
 20
98.6236360426699
 30
0.0
 10
128.5731636373974
 20
98.68937290637054
 30
0.0
 10
128.581568013932
 20
98.71832682312322
 30
0.0
  0
SPLINE
  5
3A5
330
1F
100
AcDbEntity
  8
0
  6
Continuous
 62
     7
370
    25
100
AcDbSpline
210
0.0
220
0.0
230
1.0
 70
     8
 71
     3
 72
     9
 73
     5
 74
     0
 42
0.000000001
 43
0.00000001
 40
0.0
 40
0.0
 40
0.0
 40
0.0
 40
0.5583476694668309
 40
1.0
 40
1.0
 40
1.0
 40
1.0
 10
128.4123643088792
 20
98.47074446344364
 30
0.0
 10
128.435149694293
 20
98.47382650774874
 30
0.0
 10
128.4759582919817
 20
98.47934644536764
 30
0.0
 10
128.5013804833558
 20
98.5111800902483
 30
0.0
 10
128.5126082534234
 20
98.5252394936992
 30
0.0
  0
SPLINE
  5
3A6
330
1F
100
AcDbEntity
  8
0
  6
Continuous
 62
     7
370
    25
100
AcDbSpline
210
0.0
220
0.0
230
1.0
 70
     8
 71
     3
 72
    11
 73
     7
 74
     0
 42
0.000000001
 43
0.00000001
 40
0.0
 40
0.0
 40
0.0
 40
0.0
 40
0.2811761988748831
 40
0.5609828245982337
 40
0.7806510166989976
 40
1.0
 40
1.0
 40
1.0
 40
1.0
 10
128.2650258937438
 20
98.68670625001198
 30
0.0
 10
128.2660759650356
 20
98.65927701078748
 30
0.0
 10
128.2681709928569
 20
98.6045521366398
 30
0.0
 10
128.2945237669219
 20
98.5314275984197
 30
0.0
 10
128.3473794874255
 20
98.47949503515642
 30
0.0
 10
128.3907132043571
 20
98.47365990644313
 30
0.0
 10
128.4123643088792
 20
98.47074446344362
 30
0.0
  0
SPLINE
  5
3A7
330
1F
100
AcDbEntity
  8
0
  6
Continuous
 62
     7
370
    25
100
AcDbSpline
210
0.0
220
0.0
230
1.0
 70
     8
 71
     3
 72
    11
 73
     7
 74
     0
 42
0.000000001
 43
0.00000001
 40
0.0
 40
0.0
 40
0.0
 40
0.0
 40
0.2804551463335453
 40
0.5592363321752085
 40
0.7793210018579628
 40
1.0
 40
1.0
 40
1.0
 40
1.0
 10
128.4587860013191
 20
98.90132248027771
 30
0.0
 10
128.428857011394
 20
98.89608237277342
 30
0.0
 10
128.3691776695448
 20
98.88563343454136
 30
0.0
 10
128.3001557804638
 20
98.83074277559628
 30
0.0
 10
128.2685971967815
 20
98.75790529116516
 30
0.0
 10
128.266217397735
 20
98.71046058863995
 30
0.0
 10
128.2650258937438
 20
98.68670625001197
 30
0.0
  0
LINE
  5
3A8
330
1F
100
AcDbEntity
  8
0
  6
Continuous
 62
     7
370
    25
100
AcDbLine
 10
128.4372571005
 20
99.073553687
 30
0.0
 11
128.4587860013
 21
98.9013224803
 31
0.0
  0
SPLINE
  5
3A9
330
1F
100
AcDbEntity
  8
0
  6
Continuous
 62
     7
370
    25
100
AcDbSpline
210
0.0
220
0.0
230
1.0
 70
     8
 71
     3
 72
    11
 73
     7
 74
     0
 42
0.000000001
 43
0.00000001
 40
0.0
 40
0.0
 40
0.0
 40
0.0
 40
0.2803356727877953
 40
0.5595390518462917
 40
0.7791124662955051
 40
1.0
 40
1.0
 40
1.0
 40
1.0
 10
128.0927946870102
 20
98.68065124665024
 30
0.0
 10
128.0970407611429
 20
98.73509216072604
 30
0.0
 10
128.105515759243
 20
98.84375409854039
 30
0.0
 10
128.186139741073
 20
98.98052801412443
 30
0.0
 10
128.3105556665552
 20
99.05223809606545
 30
0.0
 10
128.3949393693211
 20
99.06643437179002
 30
0.0
 10
128.4372571004774
 20
99.07355368701133
 30
0.0
  0
SPLINE
  5
3AA
330
1F
100
AcDbEntity
  8
0
  6
Continuous
 62
     7
370
    25
100
AcDbSpline
210
0.0
220
0.0
230
1.0
 70
     8
 71
     3
 72
    11
 73
     7
 74
     0
 42
0.000000001
 43
0.00000001
 40
0.0
 40
0.0
 40
0.0
 40
0.0
 40
0.2795283844787499
 40
0.5585899947134858
 40
0.7789976770475981
 40
1.0
 40
1.0
 40
1.0
 40
1.0
 10
128.4365843223261
 20
98.29851325671001
 30
0.0
 10
128.3820880820905
 20
98.30436412999013
 30
0.0
 10
128.2731866029013
 20
98.31605610639073
 30
0.0
 10
128.1551359987139
 20
98.423116491413
 30
0.0
 10
128.0995792835611
 20
98.55282657781255
 30
0.0
 10
128.0950582493476
 20
98.63800477474828
 30
0.0
 10
128.0927946870102
 20
98.68065124665024
 30
0.0
  0
SPLINE
  5
3AB
330
1F
100
AcDbEntity
  8
0
  6
Continuous
 62
     7
370
    25
100
AcDbSpline
210
0.0
220
0.0
230
1.0
 70
     8
 71
     3
 72
    11
 73
     7
 74
     0
 42
0.000000001
 43
0.00000001
 40
0.0
 40
0.0
 40
0.0
 40
0.0
 40
0.281231647641618
 40
0.5612003029688819
 40
0.7805058241320183
 40
1.0
 40
1.0
 40
1.0
 40
1.0
 10
128.8062759164673
 20
98.72101793572844
 30
0.0
 10
128.7893718845061
 20
98.6665232680607
 30
0.0
 10
128.7556397354483
 20
98.55777866459313
 30
0.0
 10
128.693233320562
 20
98.40854046660333
 30
0.0
 10
128.5719732687789
 20
98.31254396504004
 30
0.0
 10
128.4817269044565
 20
98.3031914997995
 30
0.0
 10
128.4365843223261
 20
98.29851325671001
 30
0.0
  0
SPLINE
  5
3AC
330
1F
100
AcDbEntity
  8
0
  6
Continuous
 62
     7
370
    25
100
AcDbSpline
210
0.0
220
0.0
230
1.0
 70
     8
 71
     3
 72
     9
 73
     5
 74
     0
 42
0.000000001
 43
0.00000001
 40
0.0
 40
0.0
 40
0.0
 40
0.0
 40
0.5587485981639598
 40
1.0
 40
1.0
 40
1.0
 40
1.0
 10
128.8728809534463
 20
98.88349385926817
 30
0.0
 10
128.8574334568968
 20
98.85445103090608
 30
0.0
 10
128.8297868612717
 20
98.80247268419073
 30
0.0
 10
128.8134739926254
 20
98.74595600128688
 30
0.0
 10
128.8062759164673
 20
98.72101793572844
 30
0.0
  0
SPLINE
  5
3AD
330
1F
100
AcDbEntity
  8
0
  6
Continuous
 62
     7
370
    25
100
AcDbSpline
210
0.0
220
0.0
230
1.0
 70
     8
 71
     3
 72
     9
 73
     5
 74
     0
 42
0.000000001
 43
0.00000001
 40
0.0
 40
0.0
 40
0.0
 40
0.0
 40
0.5601359041520936
 40
1.0
 40
1.0
 40
1.0
 40
1.0
 10
128.982207403033
 20
98.9228513811194
 30
0.0
 10
128.9594289625128
 20
98.92158995984123
 30
0.0
 10
128.9187630449177
 20
98.91933796837124
 30
0.0
 10
128.8868974739907
 20
98.89444387648686
 30
0.0
 10
128.8728809534463
 20
98.88349385926817
 30
0.0
  0
SPLINE
  5
3AE
330
1F
100
AcDbEntity
  8
0
  6
Continuous
 62
     7
370
    25
100
AcDbSpline
210
0.0
220
0.0
230
1.0
 70
     8
 71
     3
 72
    11
 73
     7
 74
     0
 42
0.000000001
 43
0.00000001
 40
0.0
 40
0.0
 40
0.0
 40
0.0
 40
0.2807099370238264
 40
0.5599111445760446
 40
0.7798336750106188
 40
0.9999999999999999
 40
0.9999999999999999
 40
0.9999999999999999
 40
0.9999999999999999
 10
129.1692397290954
 20
98.69948903488674
 30
0.0
 10
129.1675681677187
 20
98.73027094477098
 30
0.0
 10
129.1642340290932
 20
98.79166932125263
 30
0.0
 10
129.1210808229204
 20
98.86862675465534
 30
0.0
 10
129.0548052375194
 20
98.91607486634543
 30
0.0
 10
129.0064156166075
 20
98.92059170880137
 30
0.0
 10
128.982207403033
 20
98.9228513811194
 30
0.0
  0
SPLINE
  5
3AF
330
1F
100
AcDbEntity
  8
0
  6
Continuous
 62
     7
370
    25
100
AcDbSpline
210
0.0
220
0.0
230
1.0
 70
     8
 71
     3
 72
    11
 73
     7
 74
     0
 42
0.000000001
 43
0.00000001
 40
0.0
 40
0.0
 40
0.0
 40
0.0
 40
0.280607469996124
 40
0.5594270613909482
 40
0.7794055204400328
 40
1.0
 40
1.0
 40
1.0
 40
1.0
 10
128.9324218198366
 20
98.44921556260195
 30
0.0
 10
128.9679704575249
 20
98.45539751105018
 30
0.0
 10
129.0388412362633
 20
98.46772201992418
 30
0.0
 10
129.1227775454417
 20
98.52965223058914
 30
0.0
 10
129.1641400374581
 20
98.61478195009147
 30
0.0
 10
129.1675382480609
 20
98.6712270322956
 30
0.0
 10
129.1692397290954
 20
98.69948903488674
 30
0.0
  0
LINE
  5
3B0
330
1F
100
AcDbEntity
  8
0
  6
Continuous
 62
     7
370
    25
100
AcDbLine
 10
128.9539507207
 20
98.2769843559
 30
0.0
 11
128.9324218198
 21
98.4492155626
 31
0.0
  0
SPLINE
  5
3B1
330
1F
100
AcDbEntity
  8
0
  6
Continuous
 62
     7
370
    25
100
AcDbSpline
210
0.0
220
0.0
230
1.0
 70
     8
 71
     3
 72
    11
 73
     7
 74
     0
 42
0.000000001
 43
0.00000001
 40
0.0
 40
0.0
 40
0.0
 40
0.0
 40
0.2801408108374434
 40
0.5586568636216359
 40
0.7790325461726146
 40
1.0
 40
1.0
 40
1.0
 40
1.0
 10
129.341470935829
 20
98.68771541723892
 30
0.0
 10
129.3371452887251
 20
98.62863509523095
 30
0.0
 10
129.3285190823648
 20
98.51081710471371
 30
0.0
 10
129.2253523893131
 20
98.37313999303478
 30
0.0
 10
129.0897716516911
 20
98.30308501946253
 30
0.0
 10
128.9992648161287
 20
98.2856923506715
 30
0.0
 10
128.9539507206783
 20
98.27698435586831
 30
0.0
  0
SPLINE
  5
3B2
330
1F
100
AcDbEntity
  8
0
  6
Continuous
 62
     7
370
    25
100
AcDbSpline
210
0.0
220
0.0
230
1.0
 70
     8
 71
     3
 72
    11
 73
     7
 74
     0
 42
0.000000001
 43
0.00000001
 40
0.0
 40
0.0
 40
0.0
 40
0.0
 40
0.2798713233358462
 40
0.5588848023232168
 40
0.7791211678545111
 40
1.0
 40
1.0
 40
1.0
 40
1.0
 10
128.9526051643757
 20
99.09508258785303
 30
0.0
 10
129.0122889182122
 20
99.08937378825803
 30
0.0
 10
129.1314734869176
 20
99.07797368732899
 30
0.0
 10
129.266435052522
 20
98.96821441579756
 30
0.0
 10
129.3331184178535
 20
98.82786190369488
 30
0.0
 10
129.338684061125
 20
98.734476250212
 30
0.0
 10
129.341470935829
 20
98.68771541723892
 30
0.0
  0
LINE
  5
3B3
330
1F
100
AcDbEntity
  8
0
  6
Continuous
 62
     7
370
    25
100
AcDbLine
 10
129.0831241257
 20
99.353429398
 30
0.0
 11
129.0831241257
 21
99.5256606047
 31
0.0
  0
LINE
  5
3B4
330
1F
100
AcDbEntity
  8
0
  6
Continuous
 62
     7
370
    25
100
AcDbLine
 10
129.319942035
 20
99.353429398
 30
0.0
 11
129.0831241257
 21
99.353429398
 31
0.0
  0
LINE
  5
3B5
330
1F
100
AcDbEntity
  8
0
  6
Continuous
 62
     7
370
    25
100
AcDbLine
 10
129.319942035
 20
99.5256606047
 30
0.0
 11
129.319942035
 21
99.353429398
 31
0.0
  0
LINE
  5
3B6
330
1F
100
AcDbEntity
  8
0
  6
Continuous
 62
     7
370
    25
100
AcDbLine
 10
129.0831241257
 20
99.5256606047
 30
0.0
 11
129.319942035
 21
99.5256606047
 31
0.0
  0
SPLINE
  5
3B7
330
1F
100
AcDbEntity
  8
0
  6
Continuous
 62
     7
370
    25
100
AcDbSpline
210
0.0
220
0.0
230
1.0
 70
     8
 71
     3
 72
     9
 73
     5
 74
     0
 42
0.000000001
 43
0.00000001
 40
0.0
 40
0.0
 40
0.0
 40
0.0
 40
0.5598847066649401
 40
1.0
 40
1.0
 40
1.0
 40
1.0
 10
128.4486943290496
 20
100.0514367299306
 30
0.0
 10
128.4941570719572
 20
100.041503350333
 30
0.0
 10
128.5753572590073
 20
100.0237615197751
 30
0.0
 10
128.6583880232611
 20
100.0217226582045
 30
0.0
 10
128.6949311324266
 20
100.0208253240463
 30
0.0
  0
SPLINE
  5
3B8
330
1F
100
AcDbEntity
  8
0
  6
Continuous
 62
     7
370
    25
100
AcDbSpline
210
0.0
220
0.0
230
1.0
 70
     8
 71
     3
 72
    10
 73
     6
 74
     0
 42
0.000000001
 43
0.00000001
 40
0.0
 40
0.0
 40
0.0
 40
0.0
 40
0.2797998478167942
 40
0.560432482654038
 40
1.0
 40
1.0
 40
1.0
 40
1.0
 10
128.3080836954272
 20
100.205502926579
 30
0.0
 10
128.3111412230171
 20
100.1846339304911
 30
0.0
 10
128.3172653785209
 20
100.1428338245248
 30
0.0
 10
128.3667549259737
 20
100.0822208989057
 30
0.0
 10
128.4176381951969
 20
100.0631043432685
 30
0.0
 10
128.4486943290496
 20
100.0514367299306
 30
0.0
  0
SPLINE
  5
3B9
330
1F
100
AcDbEntity
  8
0
  6
Continuous
 62
     7
370
    25
100
AcDbSpline
210
0.0
220
0.0
230
1.0
 70
     8
 71
     3
 72
     9
 73
     5
 74
     0
 42
0.000000001
 43
0.00000001
 40
0.0
 40
0.0
 40
0.0
 40
0.0
 40
0.5599796479954097
 40
1.0
 40
1.0
 40
1.0
 40
1.0
 10
128.3296125962689
 20
100.3222299358301
 30
0.0
 10
128.3228480422744
 20
100.3009184492293
 30
0.0
 10
128.310768042548
 20
100.2628608400337
 30
0.0
 10
128.308903938949
 20
100.2230295186396
 30
0.0
 10
128.3080836954272
 20
100.205502926579
 30
0.0
  0
LINE
  5
3BA
330
1F
100
AcDbEntity
  8
0
  6
Continuous
 62
     7
370
    25
100
AcDbLine
 10
128.1573813895
 20
100.3868166384
 30
0.0
 11
128.3296125963
 21
100.3222299358
 31
0.0
  0
SPLINE
  5
3BB
330
1F
100
AcDbEntity
  8
0
  6
Continuous
 62
     7
370
    25
100
AcDbSpline
210
0.0
220
0.0
230
1.0
 70
     8
 71
     3
 72
     9
 73
     5
 74
     0
 42
0.000000001
 43
0.00000001
 40
0.0
 40
0.0
 40
0.0
 40
0.0
 40
0.5588159177973628
 40
1.0
 40
1.0
 40
1.0
 40
1.0
 10
128.0927946870102
 20
100.2243407148155
 30
0.0
 10
128.0977019058786
 20
100.2575981237172
 30
0.0
 10
128.1064833645166
 20
100.31711219238
 30
0.0
 10
128.1418001749416
 20
100.3654782872016
 30
0.0
 10
128.1573813895353
 20
100.3868166383552
 30
0.0
  0
SPLINE
  5
3BC
330
1F
100
AcDbEntity
  8
0
  6
Continuous
 62
     7
370
    25
100
AcDbSpline
210
0.0
220
0.0
230
1.0
 70
     8
 71
     3
 72
    10
 73
     6
 74
     0
 42
0.000000001
 43
0.00000001
 40
0.0
 40
0.0
 40
0.0
 40
0.0
 40
0.5609553826215862
 40
0.7808331283188071
 40
1.0
 40
1.0
 40
1.0
 40
1.0
 10
128.3067381391246
 20
100.0208253240463
 30
0.0
 10
128.2524395765001
 20
100.0436344267767
 30
0.0
 10
128.1768576000527
 20
100.0753840161218
 30
0.0
 10
128.1024649592228
 20
100.1548457922266
 30
0.0
 10
128.0960146297556
 20
100.2012007589887
 30
0.0
 10
128.0927946870102
 20
100.2243407148155
 30
0.0
  0
LINE
  5
3BD
330
1F
100
AcDbEntity
  8
0
  6
Continuous
 62
     7
370
    25
100
AcDbLine
 10
128.1143235879
 20
100.020825324
 30
0.0
 11
128.3067381391
 21
100.020825324
 31
0.0
  0
LINE
  5
3BE
330
1F
100
AcDbEntity
  8
0
  6
Continuous
 62
     7
370
    25
100
AcDbLine
 10
128.1143235879
 20
99.8485941173
 30
0.0
 11
128.1143235879
 21
100.020825324
 31
0.0
  0
LINE
  5
3BF
330
1F
100
AcDbEntity
  8
0
  6
Continuous
 62
     7
370
    25
100
AcDbLine
 10
129.319942035
 20
99.8485941173
 30
0.0
 11
128.1143235879
 21
99.8485941173
 31
0.0
  0
LINE
  5
3C0
330
1F
100
AcDbEntity
  8
0
  6
Continuous
 62
     7
370
    25
100
AcDbLine
 10
129.319942035
 20
100.020825324
 30
0.0
 11
129.319942035
 21
99.8485941173
 31
0.0
  0
LINE
  5
3C1
330
1F
100
AcDbEntity
  8
0
  6
Continuous
 62
     7
370
    25
100
AcDbLine
 10
128.6949311324
 20
100.020825324
 30
0.0
 11
129.319942035
 21
100.020825324
 31
0.0
  0
LINE
  5
3C2
330
1F
100
AcDbEntity
  8
0
  6
Continuous
 62
     7
370
    25
100
AcDbLine
 10
129.0831241257
 20
100.5375189442
 30
0.0
 11
129.0831241257
 21
100.709750151
 31
0.0
  0
LINE
  5
3C3
330
1F
100
AcDbEntity
  8
0
  6
Continuous
 62
     7
370
    25
100
AcDbLine
 10
129.319942035
 20
100.5375189442
 30
0.0
 11
129.0831241257
 21
100.5375189442
 31
0.0
  0
LINE
  5
3C4
330
1F
100
AcDbEntity
  8
0
  6
Continuous
 62
     7
370
    25
100
AcDbLine
 10
129.319942035
 20
100.709750151
 30
0.0
 11
129.319942035
 21
100.5375189442
 31
0.0
  0
LINE
  5
3C5
330
1F
100
AcDbEntity
  8
0
  6
Continuous
 62
     7
370
    25
100
AcDbLine
 10
129.0831241257
 20
100.709750151
 30
0.0
 11
129.319942035
 21
100.709750151
 31
0.0
  0
SPLINE
  5
3C6
330
1F
100
AcDbEntity
  8
0
  6
Continuous
 62
     7
370
    25
100
AcDbSpline
210
0.0
220
0.0
230
1.0
 70
     8
 71
     3
 72
    12
 73
     8
 74
     0
 42
0.000000001
 43
0.00000001
 40
0.0
 40
0.0
 40
0.0
 40
0.0
 40
0.186338478326273
 40
0.3726681582033706
 40
0.5592557324999824
 40
0.7793825329357913
 40
1.0
 40
1.0
 40
1.0
 40
1.0
 10
128.0927946870102
 20
101.4309683291778
 30
0.0
 10
128.0980880148154
 20
101.4847682466394
 30
0.0
 10
128.1086744204878
 20
101.5923655412613
 30
0.0
 10
128.2029082728551
 20
101.7290446429199
 30
0.0
 10
128.3405055606628
 20
101.8318455653756
 30
0.0
 10
128.5153012935865
 20
101.8865427902336
 30
0.0
 10
128.6415112064434
 20
101.8914055903938
 30
0.0
 10
128.7046864156205
 20
101.8938396972745
 30
0.0
  0
SPLINE
  5
3C7
330
1F
100
AcDbEntity
  8
0
  6
Continuous
 62
     7
370
    25
100
AcDbSpline
210
0.0
220
0.0
230
1.0
 70
     8
 71
     3
 72
    11
 73
     7
 74
     0
 42
0.000000001
 43
0.00000001
 40
0.0
 40
0.0
 40
0.0
 40
0.0
 40
0.2812141040738121
 40
0.5607144246992773
 40
0.7804214708955975
 40
1.0
 40
1.0
 40
1.0
 40
1.0
 10
128.7171328114196
 20
100.9680969610812
 30
0.0
 10
128.635275831044
 20
100.9714999855136
 30
0.0
 10
128.4720607255639
 20
100.9782852955644
 30
0.0
 10
128.2586527517566
 20
101.0717265861193
 30
0.0
 10
128.1155962172061
 20
101.2376446426807
 30
0.0
 10
128.1003937145309
 20
101.3665396701596
 30
0.0
 10
128.0927946870102
 20
101.4309683291778
 30
0.0
  0
SPLINE
  5
3C8
330
1F
100
AcDbEntity
  8
0
  6
Continuous
 62
     7
370
    25
100
AcDbSpline
210
0.0
220
0.0
230
1.0
 70
     8
 71
     3
 72
    12
 73
     8
 74
     0
 42
0.000000001
 43
0.00000001
 40
0.0
 40
0.0
 40
0.0
 40
0.0
 40
0.1862936367236391
 40
0.3726115925706049
 40
0.5591801557164588
 40
0.7793554314721907
 40
1.0
 40
1.0
 40
1.0
 40
1.0
 10
129.341470935829
 20
101.4309683291778
 30
0.0
 10
129.3360634052405
 20
101.3764112528998
 30
0.0
 10
129.3252476381543
 20
101.2672899783599
 30
0.0
 10
129.2284185284124
 20
101.1293865544923
 30
0.0
 10
129.0872276607141
 20
101.0271829922655
 30
0.0
 10
128.9090725272985
 20
100.9753143677911
 30
0.0
 10
128.7811581088856
 20
100.9705044701755
 30
0.0
 10
128.7171328114196
 20
100.9680969610812
 30
0.0
  0
SPLINE
  5
3C9
330
1F
100
AcDbEntity
  8
0
  6
Continuous
 62
     7
370
    25
100
AcDbSpline
210
0.0
220
0.0
230
1.0
 70
     8
 71
     3
 72
    11
 73
     7
 74
     0
 42
0.000000001
 43
0.00000001
 40
0.0
 40
0.0
 40
0.0
 40
0.0
 40
0.2812667814403983
 40
0.5607972029631647
 40
0.7804592169022033
 40
1.0
 40
1.0
 40
1.0
 40
1.0
 10
128.7046864156205
 20
101.8938396972745
 30
0.0
 10
128.7876217320832
 20
101.8905858011523
 30
0.0
 10
128.9529803757916
 20
101.8840980963666
 30
0.0
 10
129.1717190839202
 20
101.7948217534453
 30
0.0
 10
129.3181976618802
 20
101.6270067762731
 30
0.0
 10
129.3337146055329
 20
101.4963024523336
 30
0.0
 10
129.341470935829
 20
101.4309683291778
 30
0.0
  0
LINE
  5
3CA
330
1F
100
AcDbEntity
  8
0
  6
Continuous
 62
     7
370
    25
100
AcDbLine
 10
129.0831241257
 20
102.1306576065
 30
0.0
 11
129.0831241257
 21
102.3028888133
 31
0.0
  0
LINE
  5
3CB
330
1F
100
AcDbEntity
  8
0
  6
Continuous
 62
     7
370
    25
100
AcDbLine
 10
129.319942035
 20
102.1306576065
 30
0.0
 11
129.0831241257
 21
102.1306576065
 31
0.0
  0
LINE
  5
3CC
330
1F
100
AcDbEntity
  8
0
  6
Continuous
 62
     7
370
    25
100
AcDbLine
 10
129.319942035
 20
102.3028888133
 30
0.0
 11
129.319942035
 21
102.1306576065
 31
0.0
  0
LINE
  5
3CD
330
1F
100
AcDbEntity
  8
0
  6
Continuous
 62
     7
370
    25
100
AcDbLine
 10
129.0831241257
 20
102.3028888133
 30
0.0
 11
129.319942035
 21
102.3028888133
 31
0.0
  0
LINE
  5
3CE
330
1F
100
AcDbEntity
  8
0
  6
Continuous
 62
     7
370
    25
100
AcDbLine
 10
128.8247773156
 20
97.3287035516
 30
0.0
 11
128.8247773156
 21
96.7494415633
 31
0.0
  0
LINE
  5
3CF
330
1F
100
AcDbEntity
  8
0
  6
Continuous
 62
     7
370
    25
100
AcDbLine
 10
129.319942035
 20
97.4736872432
 30
0.0
 11
128.8247773156
 21
97.3287035516
 31
0.0
  0
LINE
  5
3D0
330
1F
100
AcDbEntity
  8
0
  6
Continuous
 62
     7
370
    25
100
AcDbLine
 10
129.319942035
 20
97.6526462315
 30
0.0
 11
129.319942035
 21
97.4736872432
 31
0.0
  0
LINE
  5
3D1
330
1F
100
AcDbEntity
  8
0
  6
Continuous
 62
     7
370
    25
100
AcDbLine
 10
127.6622166702
 20
97.1228334373
 30
0.0
 11
129.319942035
 21
97.6526462315
 31
0.0
  0
LINE
  5
3D2
330
1F
100
AcDbEntity
  8
0
  6
Continuous
 62
     7
370
    25
100
AcDbLine
 10
127.6622166702
 20
96.9549752886
 30
0.0
 11
127.6622166702
 21
97.1228334373
 31
0.0
  0
LINE
  5
3D3
330
1F
100
AcDbEntity
  8
0
  6
Continuous
 62
     7
370
    25
100
AcDbLine
 10
129.319942035
 20
96.4254988835
 30
0.0
 11
127.6622166702
 21
96.9549752886
 31
0.0
  0
LINE
  5
3D4
330
1F
100
AcDbEntity
  8
0
  6
Continuous
 62
     7
370
    25
100
AcDbLine
 10
129.319942035
 20
96.6047942608
 30
0.0
 11
129.319942035
 21
96.4254988835
 31
0.0
  0
LINE
  5
3D5
330
1F
100
AcDbEntity
  8
0
  6
Continuous
 62
     7
370
    25
100
AcDbLine
 10
128.8247773156
 20
96.7494415633
 30
0.0
 11
129.319942035
 21
96.6047942608
 31
0.0
  0
SPLINE
  5
3D6
330
1F
100
AcDbEntity
  8
0
  6
Continuous
 62
     7
370
    25
100
AcDbSpline
210
0.0
220
0.0
230
1.0
 70
     8
 71
     3
 72
     9
 73
     5
 74
     0
 42
0.000000001
 43
0.00000001
 40
0.0
 40
0.0
 40
0.0
 40
0.0
 40
0.5590867055894091
 40
1.0
 40
1.0
 40
1.0
 40
1.0
 10
129.0881699618633
 20
94.81419521111057
 30
0.0
 10
129.1690316167794
 20
94.73951296880709
 30
0.0
 10
129.3136633064757
 20
94.605933970135
 30
0.0
 10
129.3329619203903
 20
94.41195774699689
 30
0.0
 10
129.341470935829
 20
94.32643105141574
 30
0.0
  0
SPLINE
  5
3D7
330
1F
100
AcDbEntity
  8
0
  6
Continuous
 62
     7
370
    25
100
AcDbSpline
210
0.0
220
0.0
230
1.0
 70
     8
 71
     3
 72
     9
 73
     5
 74
     0
 42
0.000000001
 43
0.00000001
 40
0.0
 40
0.0
 40
0.0
 40
0.0
 40
0.560306450641061
 40
1.0
 40
1.0
 40
1.0
 40
1.0
 10
128.49276129796
 20
94.98306252708768
 30
0.0
 10
128.6118642503187
 20
94.9774269735283
 30
0.0
 10
128.824431769794
 20
94.96736898909327
 30
0.0
 10
129.0076222773758
 20
94.86097566806264
 30
0.0
 10
129.0881699618633
 20
94.81419521111057
 30
0.0
  0
SPLINE
  5
3D8
330
1F
100
AcDbEntity
  8
0
  6
Continuous
 62
     7
370
    25
100
AcDbSpline
210
0.0
220
0.0
230
1.0
 70
     8
 71
     3
 72
    12
 73
     8
 74
     0
 42
0.000000001
 43
0.00000001
 40
0.0
 40
0.0
 40
0.0
 40
0.0
 40
0.1863309974786254
 40
0.3727306861090147
 40
0.5593769580454554
 40
0.7794794791840302
 40
1.0
 40
1.0
 40
1.0
 40
1.0
 10
127.6406877693344
 20
94.32744021864269
 30
0.0
 10
127.6485698043711
 20
94.40239117475014
 30
0.0
 10
127.6643367801663
 20
94.5523207177273
 30
0.0
 10
127.7937853134411
 20
94.74485542199506
 30
0.0
 10
127.9872683839139
 20
94.88615933980113
 30
0.0
 10
128.228012190108
 20
94.97101559864971
 30
0.0
 10
128.4044558005814
 20
94.97904434543553
 30
0.0
 10
128.49276129796
 20
94.9830625270877
 30
0.0
  0
SPLINE
  5
3D9
330
1F
100
AcDbEntity
  8
0
  6
Continuous
 62
     7
370
    25
100
AcDbSpline
210
0.0
220
0.0
230
1.0
 70
     8
 71
     3
 72
    11
 73
     7
 74
     0
 42
0.000000001
 43
0.00000001
 40
0.0
 40
0.0
 40
0.0
 40
0.0
 40
0.2811022216976736
 40
0.5606668278398852
 40
0.7804755269385467
 40
1.0
 40
1.0
 40
1.0
 40
1.0
 10
128.512944642499
 20
93.66979957574378
 30
0.0
 10
128.3981202925804
 20
93.67516654443666
 30
0.0
 10
128.1690996763829
 20
93.68587112476328
 30
0.0
 10
127.8738396805932
 20
93.8248047502515
 30
0.0
 10
127.673834101265
 20
94.0566103125067
 30
0.0
 10
127.6517317802884
 20
94.23720252789875
 30
0.0
 10
127.6406877693344
 20
94.32744021864269
 30
0.0
  0
SPLINE
  5
3DA
330
1F
100
AcDbEntity
  8
0
  6
Continuous
 62
     7
370
    25
100
AcDbSpline
210
0.0
220
0.0
230
1.0
 70
     8
 71
     3
 72
     9
 73
     5
 74
     0
 42
0.000000001
 43
0.00000001
 40
0.0
 40
0.0
 40
0.0
 40
0.0
 40
0.5591024805277315
 40
1.0
 40
1.0
 40
1.0
 40
1.0
 10
129.0814421803503
 20
93.83765772449394
 30
0.0
 10
128.9821353090908
 20
93.78223350467161
 30
0.0
 10
128.8045169390815
 20
93.68310280546594
 30
0.0
 10
128.6021623006411
 20
93.67387020596293
 30
0.0
 10
128.512944642499
 20
93.66979957574378
 30
0.0
  0
SPLINE
  5
3DB
330
1F
100
AcDbEntity
  8
0
  6
Continuous
 62
     7
370
    25
100
AcDbSpline
210
0.0
220
0.0
230
1.0
 70
     8
 71
     3
 72
    10
 73
     6
 74
     0
 42
0.000000001
 43
0.00000001
 40
0.0
 40
0.0
 40
0.0
 40
0.0
 40
0.2804963604137227
 40
0.5607765042458089
 40
0.9999999999999999
 40
0.9999999999999999
 40
0.9999999999999999
 40
0.9999999999999999
 10
129.341470935829
 20
94.32643105141574
 30
0.0
 10
129.3378087238674
 20
94.27261617307856
 30
0.0
 10
129.3304871229076
 20
94.1650278988285
 30
0.0
 10
129.252271382309
 20
93.98411607139762
 30
0.0
 10
129.1461961651089
 20
93.89317376890807
 30
0.0
 10
129.0814421803503
 20
93.83765772449394
 30
0.0
  0
SPLINE
  5
3DC
330
1F
100
AcDbEntity
  8
0
  6
Continuous
 62
     7
370
    25
100
AcDbSpline
210
0.0
220
0.0
230
1.0
 70
     8
 71
     3
 72
     9
 73
     5
 74
     0
 42
0.000000001
 43
0.00000001
 40
0.0
 40
0.0
 40
0.0
 40
0.0
 40
0.5590867055894071
 40
1.0
 40
1.0
 40
1.0
 40
1.0
 10
129.0881699618633
 20
92.05849590337255
 30
0.0
 10
129.1690316167794
 20
91.98381366106905
 30
0.0
 10
129.3136633064757
 20
91.85023466239699
 30
0.0
 10
129.3329619203903
 20
91.65625843925885
 30
0.0
 10
129.341470935829
 20
91.57073174367771
 30
0.0
  0
SPLINE
  5
3DD
330
1F
100
AcDbEntity
  8
0
  6
Continuous
 62
     7
370
    25
100
AcDbSpline
210
0.0
220
0.0
230
1.0
 70
     8
 71
     3
 72
     9
 73
     5
 74
     0
 42
0.000000001
 43
0.00000001
 40
0.0
 40
0.0
 40
0.0
 40
0.0
 40
0.5603064506410578
 40
1.0
 40
1.0
 40
1.0
 40
1.0
 10
128.49276129796
 20
92.22736321934966
 30
0.0
 10
128.6118642503187
 20
92.22172766579025
 30
0.0
 10
128.824431769794
 20
92.21166968135525
 30
0.0
 10
129.0076222773758
 20
92.1052763603246
 30
0.0
 10
129.0881699618633
 20
92.05849590337255
 30
0.0
  0
SPLINE
  5
3DE
330
1F
100
AcDbEntity
  8
0
  6
Continuous
 62
     7
370
    25
100
AcDbSpline
210
0.0
220
0.0
230
1.0
 70
     8
 71
     3
 72
    12
 73
     8
 74
     0
 42
0.000000001
 43
0.00000001
 40
0.0
 40
0.0
 40
0.0
 40
0.0
 40
0.1863309974786233
 40
0.3727306861090138
 40
0.5593769580454522
 40
0.7794794791840328
 40
1.0
 40
1.0
 40
1.0
 40
1.0
 10
127.6406877693344
 20
91.57174091090465
 30
0.0
 10
127.6485698043711
 20
91.6466918670121
 30
0.0
 10
127.6643367801663
 20
91.79662140998926
 30
0.0
 10
127.7937853134411
 20
91.98915611425701
 30
0.0
 10
127.9872683839139
 20
92.1304600320631
 30
0.0
 10
128.228012190108
 20
92.21531629091167
 30
0.0
 10
128.4044558005814
 20
92.22334503769748
 30
0.0
 10
128.49276129796
 20
92.22736321934966
 30
0.0
  0
SPLINE
  5
3DF
330
1F
100
AcDbEntity
  8
0
  6
Continuous
 62
     7
370
    25
100
AcDbSpline
210
0.0
220
0.0
230
1.0
 70
     8
 71
     3
 72
    11
 73
     7
 74
     0
 42
0.000000001
 43
0.00000001
 40
0.0
 40
0.0
 40
0.0
 40
0.0
 40
0.2811022216976726
 40
0.5606668278398834
 40
0.7804755269385445
 40
0.9999999999999999
 40
0.9999999999999999
 40
0.9999999999999999
 40
0.9999999999999999
 10
128.512944642499
 20
90.91410026800575
 30
0.0
 10
128.3981202925804
 20
90.91946723669864
 30
0.0
 10
128.1690996763829
 20
90.93017181702525
 30
0.0
 10
127.8738396805932
 20
91.06910544251346
 30
0.0
 10
127.673834101265
 20
91.30091100476865
 30
0.0
 10
127.6517317802884
 20
91.48150322016072
 30
0.0
 10
127.6406877693344
 20
91.57174091090467
 30
0.0
  0
SPLINE
  5
3E0
330
1F
100
AcDbEntity
  8
0
  6
Continuous
 62
     7
370
    25
100
AcDbSpline
210
0.0
220
0.0
230
1.0
 70
     8
 71
     3
 72
     9
 73
     5
 74
     0
 42
0.000000001
 43
0.00000001
 40
0.0
 40
0.0
 40
0.0
 40
0.0
 40
0.5591024805277343
 40
1.0
 40
1.0
 40
1.0
 40
1.0
 10
129.0814421803503
 20
91.08195841675591
 30
0.0
 10
128.9821353090908
 20
91.02653419693355
 30
0.0
 10
128.8045169390815
 20
90.9274034977279
 30
0.0
 10
128.6021623006411
 20
90.9181708982249
 30
0.0
 10
128.512944642499
 20
90.91410026800575
 30
0.0
  0
SPLINE
  5
3E1
330
1F
100
AcDbEntity
  8
0
  6
Continuous
 62
     7
370
    25
100
AcDbSpline
210
0.0
220
0.0
230
1.0
 70
     8
 71
     3
 72
    10
 73
     6
 74
     0
 42
0.000000001
 43
0.00000001
 40
0.0
 40
0.0
 40
0.0
 40
0.0
 40
0.2804963604137285
 40
0.5607765042458135
 40
1.0
 40
1.0
 40
1.0
 40
1.0
 10
129.341470935829
 20
91.57073174367771
 30
0.0
 10
129.3378087238674
 20
91.51691686534052
 30
0.0
 10
129.3304871229076
 20
91.40932859109047
 30
0.0
 10
129.252271382309
 20
91.22841676365957
 30
0.0
 10
129.1461961651089
 20
91.13747446117003
 30
0.0
 10
129.0814421803503
 20
91.08195841675591
 30
0.0
  0
LINE
  5
3E2
330
1F
100
AcDbEntity
  8
0
  6
Continuous
 62
     7
370
    25
100
AcDbLine
 10
127.6622166702
 20
90.6126956562
 30
0.0
 11
127.6622166702
 21
90.7916546445
 31
0.0
  0
LINE
  5
3E3
330
1F
100
AcDbEntity
  8
0
  6
Continuous
 62
     7
370
    25
100
AcDbLine
 10
128.8648076156
 20
90.2440132293
 30
0.0
 11
127.6622166702
 21
90.6126956562
 31
0.0
  0
SPLINE
  5
3E4
330
1F
100
AcDbEntity
  8
0
  6
Continuous
 62
     7
370
    25
100
AcDbSpline
210
0.0
220
0.0
230
1.0
 70
     8
 71
     3
 72
     9
 73
     5
 74
     0
 42
0.000000001
 43
0.00000001
 40
0.0
 40
0.0
 40
0.0
 40
0.0
 40
0.5599895267155807
 40
1.0
 40
1.0
 40
1.0
 40
1.0
 10
129.1261819274119
 20
90.17135318896699
 30
0.0
 10
129.0771513401471
 20
90.18405189946982
 30
0.0
 10
128.9895950825286
 20
90.20672859233106
 30
0.0
 10
128.9029377496737
 20
90.23262051302774
 30
0.0
 10
128.8648076156306
 20
90.24401322930774
 30
0.0
  0
SPLINE
  5
3E5
330
1F
100
AcDbEntity
  8
0
  6
Continuous
 62
     7
370
    25
100
AcDbSpline
210
0.0
220
0.0
230
1.0
 70
     8
 71
     3
 72
     9
 73
     5
 74
     0
 42
0.000000001
 43
0.00000001
 40
0.0
 40
0.0
 40
0.0
 40
0.0
 40
0.5599999868780466
 40
1.0
 40
1.0
 40
1.0
 40
1.0
 10
128.8648076156306
 20
90.10474815198798
 30
0.0
 10
128.913453606478
 20
90.11774800303235
 30
0.0
 10
129.0003214493123
 20
90.14096202329839
 30
0.0
 10
129.0877245583073
 20
90.16206699926482
 30
0.0
 10
129.1261819274119
 20
90.17135318896699
 30
0.0
  0
LINE
  5
3E6
330
1F
100
AcDbEntity
  8
0
  6
Continuous
 62
     7
370
    25
100
AcDbLine
 10
127.6622166702
 20
89.7730685234
 30
0.0
 11
128.8648076156
 21
90.104748152
 31
0.0
  0
LINE
  5
3E7
330
1F
100
AcDbEntity
  8
0
  6
Continuous
 62
     7
370
    25
100
AcDbLine
 10
127.6622166702
 20
89.5957914805
 30
0.0
 11
127.6622166702
 21
89.7730685234
 31
0.0
  0
LINE
  5
3E8
330
1F
100
AcDbEntity
  8
0
  6
Continuous
 62
     7
370
    25
100
AcDbLine
 10
129.319942035
 20
90.091628978
 30
0.0
 11
127.6622166702
 21
89.5957914805
 31
0.0
  0
LINE
  5
3E9
330
1F
100
AcDbEntity
  8
0
  6
Continuous
 62
     7
370
    25
100
AcDbLine
 10
129.319942035
 20
90.2695787991
 30
0.0
 11
129.319942035
 21
90.091628978
 31
0.0
  0
LINE
  5
3EA
330
1F
100
AcDbEntity
  8
0
  6
Continuous
 62
     7
370
    25
100
AcDbLine
 10
127.6622166702
 20
90.7916546445
 30
0.0
 11
129.319942035
 21
90.2695787991
 31
0.0
  0
SPLINE
  5
3EB
330
1F
100
AcDbEntity
  8
0
  6
Continuous
 62
     7
370
    25
100
AcDbSpline
210
0.0
220
0.0
230
1.0
 70
     8
 71
     3
 72
    10
 73
     6
 74
     0
 42
0.000000001
 43
0.00000001
 40
0.0
 40
0.0
 40
0.0
 40
0.0
 40
0.2809548685522211
 40
0.561428763007475
 40
1.0
 40
1.0
 40
1.0
 40
1.0
 10
128.462822670227
 20
89.1944793132747
 30
0.0
 10
128.4848645108195
 20
89.23588504709744
 30
0.0
 10
128.5289104579927
 20
89.31862563116813
 30
0.0
 10
128.6631759240952
 20
89.42825094417151
 30
0.0
 10
128.7846569857749
 20
89.44184407568976
 30
0.0
 10
128.8587526122689
 20
89.45013501076994
 30
0.0
  0
SPLINE
  5
3EC
330
1F
100
AcDbEntity
  8
0
  6
Continuous
 62
     7
370
    25
100
AcDbSpline
210
0.0
220
0.0
230
1.0
 70
     8
 71
     3
 72
     9
 73
     5
 74
     0
 42
0.000000001
 43
0.00000001
 40
0.0
 40
0.0
 40
0.0
 40
0.0
 40
0.5601294389833988
 40
1.0
 40
1.0
 40
1.0
 40
1.0
 10
128.3773798450114
 20
88.90653026451692
 30
0.0
 10
128.39035889263
 20
88.96119063062862
 30
0.0
 10
128.4135304074893
 20
89.05877587130249
 30
0.0
 10
128.447764222717
 20
89.15302284436125
 30
0.0
 10
128.462822670227
 20
89.1944793132747
 30
0.0
  0
SPLINE
  5
3ED
330
1F
100
AcDbEntity
  8
0
  6
Continuous
 62
     7
370
    25
100
AcDbSpline
210
0.0
220
0.0
230
1.0
 70
     8
 71
     3
 72
     9
 73
     5
 74
     0
 42
0.000000001
 43
0.00000001
 40
0.0
 40
0.0
 40
0.0
 40
0.0
 40
0.5578659727489398
 40
1.0
 40
1.0
 40
1.0
 40
1.0
 10
128.2670442281977
 20
88.64313761828171
 30
0.0
 10
128.295319156253
 20
88.68898198265987
 30
0.0
 10
128.3460032442534
 20
88.7711600802991
 30
0.0
 10
128.3677603071652
 20
88.8650280437892
 30
0.0
 10
128.3773798450114
 20
88.90653026451692
 30
0.0
  0
SPLINE
  5
3EE
330
1F
100
AcDbEntity
  8
0
  6
Continuous
 62
     7
370
    25
100
AcDbSpline
210
0.0
220
0.0
230
1.0
 70
     8
 71
     3
 72
     9
 73
     5
 74
     0
 42
0.000000001
 43
0.00000001
 40
0.0
 40
0.0
 40
0.0
 40
0.0
 40
0.5603735864954601
 40
0.9999999999999999
 40
0.9999999999999999
 40
0.9999999999999999
 40
0.9999999999999999
 10
128.0988496903719
 20
88.5889789771018
 30
0.0
 10
128.1332521084153
 20
88.59050968721938
 30
0.0
 10
128.1946440420689
 20
88.59324127584965
 30
0.0
 10
128.2449349963399
 20
88.62790050546921
 30
0.0
 10
128.2670442281977
 20
88.64313761828171
 30
0.0
  0
SPLINE
  5
3EF
330
1F
100
AcDbEntity
  8
0
  6
Continuous
 62
     7
370
    25
100
AcDbSpline
210
0.0
220
0.0
230
1.0
 70
     8
 71
     3
 72
    11
 73
     7
 74
     0
 42
0.000000001
 43
0.00000001
 40
0.0
 40
0.0
 40
0.0
 40
0.0
 40
0.2809130961866021
 40
0.559907102523561
 40
0.7797622419644763
 40
0.9999999999999999
 40
0.9999999999999999
 40
0.9999999999999999
 40
0.9999999999999999
 10
127.8344478769097
 20
88.90350276283606
 30
0.0
 10
127.8366783824425
 20
88.8599771641429
 30
0.0
 10
127.8411241555551
 20
88.77322331684739
 30
0.0
 10
127.9013438962746
 20
88.66359943051431
 30
0.0
 10
127.9962791470873
 20
88.59814053413334
 30
0.0
 10
128.0646396982945
 20
88.59203459895411
 30
0.0
 10
128.0988496903719
 20
88.5889789771018
 30
0.0
  0
SPLINE
  5
3F0
330
1F
100
AcDbEntity
  8
0
  6
Continuous
 62
     7
370
    25
100
AcDbSpline
210
0.0
220
0.0
230
1.0
 70
     8
 71
     3
 72
    11
 73
     7
 74
     0
 42
0.000000001
 43
0.00000001
 40
0.0
 40
0.0
 40
0.0
 40
0.0
 40
0.2807710612028862
 40
0.5592153069184379
 40
0.7791983588131213
 40
1.0
 40
1.0
 40
1.0
 40
1.0
 10
128.1573813895353
 20
89.2348460023529
 30
0.0
 10
128.1088754448321
 20
89.22847933344119
 30
0.0
 10
128.0122655355405
 20
89.2157987576929
 30
0.0
 10
127.895294770723
 20
89.1347853013863
 30
0.0
 10
127.8407728094709
 20
89.01829878838545
 30
0.0
 10
127.8365587964036
 20
88.94181545088617
 30
0.0
 10
127.8344478769097
 20
88.90350276283606
 30
0.0
  0
LINE
  5
3F1
330
1F
100
AcDbEntity
  8
0
  6
Continuous
 62
     7
370
    25
100
AcDbLine
 10
128.1358524887
 20
89.4070772091
 30
0.0
 11
128.1573813895
 21
89.2348460024
 31
0.0
  0
SPLINE
  5
3F2
330
1F
100
AcDbEntity
  8
0
  6
Continuous
 62
     7
370
    25
100
AcDbSpline
210
0.0
220
0.0
230
1.0
 70
     8
 71
     3
 72
    11
 73
     7
 74
     0
 42
0.000000001
 43
0.00000001
 40
0.0
 40
0.0
 40
0.0
 40
0.0
 40
0.2801640110428269
 40
0.5590832990876016
 40
0.7792619167098968
 40
1.0
 40
1.0
 40
1.0
 40
1.0
 10
127.6406877693344
 20
88.89778414854999
 30
0.0
 10
127.6468935321938
 20
88.97273720099815
 30
0.0
 10
127.6592774867206
 20
89.12231030170956
 30
0.0
 10
127.7872081257527
 20
89.29864311133588
 30
0.0
 10
127.9602554609446
 20
89.39021608596433
 30
0.0
 10
128.0772706537818
 20
89.40145208237547
 30
0.0
 10
128.1358524886936
 20
89.40707720908652
 30
0.0
  0
SPLINE
  5
3F3
330
1F
100
AcDbEntity
  8
0
  6
Continuous
 62
     7
370
    25
100
AcDbSpline
210
0.0
220
0.0
230
1.0
 70
     8
 71
     3
 72
    11
 73
     7
 74
     0
 42
0.000000001
 43
0.00000001
 40
0.0
 40
0.0
 40
0.0
 40
0.0
 40
0.2796966400673394
 40
0.5588536046323693
 40
0.7791301955815004
 40
1.0
 40
1.0
 40
1.0
 40
1.0
 10
128.0948130214641
 20
88.41674777036818
 30
0.0
 10
128.0248504687091
 20
88.42390217031905
 30
0.0
 10
127.8850603561535
 20
88.4381971657847
 30
0.0
 10
127.7296586051438
 20
88.56973586941261
 30
0.0
 10
127.6504286874027
 20
88.7334006584464
 30
0.0
 10
127.6439376515417
 20
88.84294055209337
 30
0.0
 10
127.6406877693344
 20
88.89778414854999
 30
0.0
  0
SPLINE
  5
3F4
330
1F
100
AcDbEntity
  8
0
  6
Continuous
 62
     7
370
    25
100
AcDbSpline
210
0.0
220
0.0
230
1.0
 70
     8
 71
     3
 72
    11
 73
     7
 74
     0
 42
0.000000001
 43
0.00000001
 40
0.0
 40
0.0
 40
0.0
 40
0.0
 40
0.2811358215028709
 40
0.5600674279982105
 40
0.7799190432328078
 40
1.0
 40
1.0
 40
1.0
 40
1.0
 10
128.5502838298964
 20
88.86380885190917
 30
0.0
 10
128.5326231820526
 20
88.80097863457075
 30
0.0
 10
128.4974403527647
 20
88.67581081341876
 30
0.0
 10
128.3975093229165
 20
88.518658114489
 30
0.0
 10
128.248759861996
 20
88.42983091141056
 30
0.0
 10
128.1461464661266
 20
88.42111033275913
 30
0.0
 10
128.0948130214641
 20
88.41674777036818
 30
0.0
  0
SPLINE
  5
3F5
330
1F
100
AcDbEntity
  8
0
  6
Continuous
 62
     7
370
    25
100
AcDbSpline
210
0.0
220
0.0
230
1.0
 70
     8
 71
     3
 72
    12
 73
     8
 74
     0
 42
0.000000001
 43
0.00000001
 40
0.0
 40
0.0
 40
0.0
 40
0.0
 40
0.1249773848436604
 40
0.2497534974596075
 40
0.3745803861128263
 40
0.4995622091171993
 40
1.0
 40
1.0
 40
1.0
 40
1.0
 10
128.8637984484037
 20
89.27790380403631
 30
0.0
 10
128.8400702561825
 20
89.27644609094101
 30
0.0
 10
128.7926520852626
 20
89.27353301235246
 30
0.0
 10
128.7261157513499
 20
89.24477724227238
 30
0.0
 10
128.6728251007784
 20
89.19620195341591
 30
0.0
 10
128.6008937774409
 20
89.07243793135642
 30
0.0
 10
128.5727796897083
 20
88.95654339821154
 30
0.0
 10
128.5502838298964
 20
88.86380885190917
 30
0.0
  0
SPLINE
  5
3F6
330
1F
100
AcDbEntity
  8
0
  6
Continuous
 62
     7
370
    25
100
AcDbSpline
210
0.0
220
0.0
230
1.0
 70
     8
 71
     3
 72
    11
 73
     7
 74
     0
 42
0.000000001
 43
0.00000001
 40
0.0
 40
0.0
 40
0.0
 40
0.0
 40
0.2808386408707356
 40
0.5599225583364474
 40
0.7797756900032485
 40
1.0
 40
1.0
 40
1.0
 40
1.0
 10
129.1477108282536
 20
88.9428602846873
 30
0.0
 10
129.1449965694978
 20
88.98929115464833
 30
0.0
 10
129.139585011096
 20
89.08186278729036
 30
0.0
 10
129.0745164404616
 20
89.1982835463651
 30
0.0
 10
128.9732943637428
 20
89.26820014979025
 30
0.0
 10
128.9003176039903
 20
89.27466743436834
 30
0.0
 10
128.8637984484037
 20
89.27790380403631
 30
0.0
  0
SPLINE
  5
3F7
330
1F
100
AcDbEntity
  8
0
  6
Continuous
 62
     7
370
    25
100
AcDbSpline
210
0.0
220
0.0
230
1.0
 70
     8
 71
     3
 72
    11
 73
     7
 74
     0
 42
0.000000001
 43
0.00000001
 40
0.0
 40
0.0
 40
0.0
 40
0.0
 40
0.2807459198691748
 40
0.559177425961796
 40
0.7794309326905582
 40
1.0
 40
1.0
 40
1.0
 40
1.0
 10
128.760190613103
 20
88.54592117541839
 30
0.0
 10
128.818214476739
 20
88.55342312460266
 30
0.0
 10
128.9337838667678
 20
88.56836517838747
 30
0.0
 10
129.0666508450346
 20
88.67174473712673
 30
0.0
 10
129.1370156583351
 20
88.80622976237395
 30
0.0
 10
129.1441440706683
 20
88.89729504771023
 30
0.0
 10
129.1477108282536
 20
88.9428602846873
 30
0.0
  0
LINE
  5
3F8
330
1F
100
AcDbEntity
  8
0
  6
Continuous
 62
     7
370
    25
100
AcDbLine
 10
128.7817195139
 20
88.3736899687
 30
0.0
 11
128.7601906131
 21
88.5459211754
 31
0.0
  0
SPLINE
  5
3F9
330
1F
100
AcDbEntity
  8
0
  6
Continuous
 62
     7
370
    25
100
AcDbSpline
210
0.0
220
0.0
230
1.0
 70
     8
 71
     3
 72
    11
 73
     7
 74
     0
 42
0.000000001
 43
0.00000001
 40
0.0
 40
0.0
 40
0.0
 40
0.0
 40
0.280061898290378
 40
0.5589431196130804
 40
0.7791639751192554
 40
1.0
 40
1.0
 40
1.0
 40
1.0
 10
129.341470935829
 20
88.92805916535863
 30
0.0
 10
129.3344007389717
 20
88.84464309475825
 30
0.0
 10
129.3202901515916
 20
88.6781626166502
 30
0.0
 10
129.1704928892727
 20
88.48754770116203
 30
0.0
 10
128.9769918045331
 20
88.38988145869708
 30
0.0
 10
128.8468707734305
 20
88.37909214819561
 30
0.0
 10
128.7817195139447
 20
88.37368996868476
 30
0.0
  0
SPLINE
  5
3FA
330
1F
100
AcDbEntity
  8
0
  6
Continuous
 62
     7
370
    25
100
AcDbSpline
210
0.0
220
0.0
230
1.0
 70
     8
 71
     3
 72
    11
 73
     7
 74
     0
 42
0.000000001
 43
0.00000001
 40
0.0
 40
0.0
 40
0.0
 40
0.0
 40
0.2795820911979394
 40
0.558786731902549
 40
0.7790462921151916
 40
1.0
 40
1.0
 40
1.0
 40
1.0
 10
128.8587526122689
 20
89.45013501076994
 30
0.0
 10
128.9335277371523
 20
89.4410536484053
 30
0.0
 10
129.082977036577
 20
89.42290318399172
 30
0.0
 10
129.2501246306765
 20
89.2820188407475
 30
0.0
 10
129.3317296300733
 20
89.10443504852564
 30
0.0
 10
129.3382204299831
 20
88.98691275785228
 30
0.0
 10
129.341470935829
 20
88.92805916535863
 30
0.0
  0
LINE
  5
3FB
330
1F
100
AcDbEntity
  8
0
  6
Continuous
 62
     7
370
    25
100
AcDbLine
 10
105.6381511091
 20
103.0779292436
 30
0.0
 11
133.5826644016
 21
103.0779292436
 31
0.0
  0
LINE
  5
3FC
330
1F
100
AcDbEntity
  8
0
  6
Continuous
 62
     7
370
    25
100
AcDbLine
 10
133.5826644016
 20
87.921583051
 30
0.0
 11
105.6381511091
 21
87.921583051
 31
0.0
  0
CIRCLE
  5
3FD
330
1F
100
AcDbEntity
  8
0
  6
Continuous
 62
     7
370
    25
100
AcDbCircle
 10
119.6104077554
 20
92.6579412362
 30
0.0
 40
2.368179092587368
  0
SPLINE
  5
3FE
330
1F
100
AcDbEntity
  8
0
  6
Continuous
 62
     7
370
    25
100
AcDbSpline
210
0.0
220
0.0
230
1.0
 70
     8
 71
     3
 72
     9
 73
     5
 74
     0
 42
0.000000001
 43
0.00000001
 40
0.0
 40
0.0
 40
0.0
 40
0.0
 40
0.5599659895687896
 40
1.0
 40
1.0
 40
1.0
 40
1.0
 10
128.4877154618252
 20
92.05513201261603
 30
0.0
 10
128.4156399663081
 20
92.05208013466104
 30
0.0
 10
128.2869259071335
 20
92.04663002159732
 30
0.0
 10
128.1661316242734
 20
92.00254406896643
 30
0.0
 10
128.1129780315493
 20
91.98314475042659
 30
0.0
  0
SPLINE
  5
3FF
330
1F
100
AcDbEntity
  8
0
  6
Continuous
 62
     7
370
    25
100
AcDbSpline
210
0.0
220
0.0
230
1.0
 70
     8
 71
     3
 72
    12
 73
     8
 74
     0
 42
0.000000001
 43
0.00000001
 40
0.0
 40
0.0
 40
0.0
 40
0.0
 40
0.1862510114136809
 40
0.3725758417800392
 40
0.5591877236753406
 40
0.7793786693246134
 40
1.0
 40
1.0
 40
1.0
 40
1.0
 10
129.1477108282536
 20
91.5693861873751
 30
0.0
 10
129.1417933636905
 20
91.62684762820139
 30
0.0
 10
129.1299560892292
 20
91.74179328419139
 30
0.0
 10
129.0264043153596
 20
91.88594498157912
 30
0.0
 10
128.8776383588768
 20
91.99331157976911
 30
0.0
 10
128.689855953888
 20
92.04762582469604
 30
0.0
 10
128.5551394691183
 20
92.05262832192103
 30
0.0
 10
128.4877154618252
 20
92.05513201261603
 30
0.0
  0
SPLINE
  5
400
330
1F
100
AcDbEntity
  8
0
  6
Continuous
 62
     7
370
    25
100
AcDbSpline
210
0.0
220
0.0
230
1.0
 70
     8
 71
     3
 72
    10
 73
     6
 74
     0
 42
0.000000001
 43
0.00000001
 40
0.0
 40
0.0
 40
0.0
 40
0.0
 40
0.281050308478164
 40
0.5620650570343887
 40
1.0
 40
1.0
 40
1.0
 40
1.0
 10
128.1129780315493
 20
91.98314475042659
 30
0.0
 10
128.0699212453786
 20
91.95977000171506
 30
0.0
 10
127.9838131208021
 20
91.91302346178472
 30
0.0
 10
127.8674038951048
 20
91.7753841561324
 30
0.0
 10
127.8469232711871
 20
91.64966560415877
 30
0.0
 10
127.8344478769097
 20
91.57308646720728
 30
0.0
  0
SPLINE
  5
401
330
1F
100
AcDbEntity
  8
0
  6
Continuous
 62
     7
370
    25
100
AcDbSpline
210
0.0
220
0.0
230
1.0
 70
     8
 71
     3
 72
    12
 73
     8
 74
     0
 42
0.000000001
 43
0.00000001
 40
0.0
 40
0.0
 40
0.0
 40
0.0
 40
0.1863157694358776
 40
0.3725165897002049
 40
0.5590074841780702
 40
0.7792968295489515
 40
1.0
 40
1.0
 40
1.0
 40
1.0
 10
127.8344478769097
 20
91.57308646720728
 30
0.0
 10
127.8403232258263
 20
91.51414354537222
 30
0.0
 10
127.8520702988107
 20
91.39629406706217
 30
0.0
 10
127.957969844451
 20
91.24772733686366
 30
0.0
 10
128.1144716864395
 20
91.1423777150075
 30
0.0
 10
128.308329257148
 20
91.09306728471871
 30
0.0
 10
128.4464903725618
 20
91.08857814892637
 30
0.0
 10
128.5156357551043
 20
91.08633147473938
 30
0.0
  0
SPLINE
  5
402
330
1F
100
AcDbEntity
  8
0
  6
Continuous
 62
     7
370
    25
100
AcDbSpline
210
0.0
220
0.0
230
1.0
 70
     8
 71
     3
 72
    11
 73
     7
 74
     0
 42
0.000000001
 43
0.00000001
 40
0.0
 40
0.0
 40
0.0
 40
0.0
 40
0.2809879343709941
 40
0.5605507243730548
 40
0.7804823194427484
 40
1.0
 40
1.0
 40
1.0
 40
1.0
 10
128.5156357551043
 20
91.08633147473938
 30
0.0
 10
128.5991183314905
 20
91.09054748975768
 30
0.0
 10
128.7656600684892
 20
91.09895813656276
 30
0.0
 10
128.9777005332495
 20
91.20477898222984
 30
0.0
 10
129.1227550779658
 20
91.37269394169492
 30
0.0
 10
129.1393974699459
 20
91.5038632880095
 30
0.0
 10
129.1477108282536
 20
91.5693861873751
 30
0.0
  0
SPLINE
  5
403
330
1F
100
AcDbEntity
  8
0
  6
Continuous
 62
     7
370
    25
100
AcDbSpline
210
0.0
220
0.0
230
1.0
 70
     8
 71
     3
 72
    12
 73
     8
 74
     0
 42
0.000000001
 43
0.00000001
 40
0.0
 40
0.0
 40
0.0
 40
0.0
 40
0.186985236129058
 40
0.3732947046388558
 40
0.5589393105863751
 40
0.7791386336164262
 40
1.0
 40
1.0
 40
1.0
 40
1.0
 10
128.1062502500363
 20
93.23922155890972
 30
0.0
 10
128.0754593598804
 20
93.23731336069646
 30
0.0
 10
128.0139888583357
 20
93.23350386052866
 30
0.0
 10
127.9289338026649
 20
93.19133940032722
 30
0.0
 10
127.8690030208893
 20
93.10943106502762
 30
0.0
 10
127.857979363692
 20
93.00483321298749
 30
0.0
 10
127.8566449740492
 20
92.93283208277154
 30
0.0
 10
127.8559767777515
 20
92.89677747989637
 30
0.0
  0
SPLINE
  5
404
330
1F
100
AcDbEntity
  8
0
  6
Continuous
 62
     7
370
    25
100
AcDbSpline
210
0.0
220
0.0
230
1.0
 70
     8
 71
     3
 72
    10
 73
     6
 74
     0
 42
0.000000001
 43
0.00000001
 40
0.0
 40
0.0
 40
0.0
 40
0.0
 40
0.2805747611904665
 40
0.5604683115852235
 40
1.0
 40
1.0
 40
1.0
 40
1.0
 10
128.335331210555
 20
93.08851925301778
 30
0.0
 10
128.3245076065277
 20
93.11413890465715
 30
0.0
 10
128.3028866772298
 20
93.1653160056793
 30
0.0
 10
128.2227857586445
 20
93.23113981422684
 30
0.0
 10
128.1504460675474
 20
93.23615657624956
 30
0.0
 10
128.1062502500363
 20
93.23922155890972
 30
0.0
  0
SPLINE
  5
405
330
1F
100
AcDbEntity
  8
0
  6
Continuous
 62
     7
370
    25
100
AcDbSpline
210
0.0
220
0.0
230
1.0
 70
     8
 71
     3
 72
     9
 73
     5
 74
     0
 42
0.000000001
 43
0.00000001
 40
0.0
 40
0.0
 40
0.0
 40
0.0
 40
0.5603258410813929
 40
1.0
 40
1.0
 40
1.0
 40
1.0
 10
128.3511414971106
 20
92.91897915888937
 30
0.0
 10
128.3511087206822
 20
92.9509401761105
 30
0.0
 10
128.3510502253817
 20
93.00798023187423
 30
0.0
 10
128.3401317722517
 20
93.06392276626273
 30
0.0
 10
128.335331210555
 20
93.08851925301778
 30
0.0
  0
LINE
  5
406
330
1F
100
AcDbEntity
  8
0
  6
Continuous
 62
     7
370
    25
100
AcDbLine
 10
128.3511414971
 20
92.6148834345
 30
0.0
 11
128.3511414971
 21
92.9189791589
 31
0.0
  0
LINE
  5
407
330
1F
100
AcDbEntity
  8
0
  6
Continuous
 62
     7
370
    25
100
AcDbLine
 10
127.8559767778
 20
92.6148834345
 30
0.0
 11
128.3511414971
 21
92.6148834345
 31
0.0
  0
LINE
  5
408
330
1F
100
AcDbEntity
  8
0
  6
Continuous
 62
     7
370
    25
100
AcDbLine
 10
127.8559767778
 20
92.8967774799
 30
0.0
 11
127.8559767778
 21
92.6148834345
 31
0.0
  0
SPLINE
  5
409
330
1F
100
AcDbEntity
  8
0
  6
Continuous
 62
     7
370
    25
100
AcDbSpline
210
0.0
220
0.0
230
1.0
 70
     8
 71
     3
 72
    11
 73
     7
 74
     0
 42
0.000000001
 43
0.00000001
 40
0.0
 40
0.0
 40
0.0
 40
0.0
 40
0.2800564033439979
 40
0.5581512245668531
 40
0.7784733168577452
 40
1.0
 40
1.0
 40
1.0
 40
1.0
 10
128.834532598822
 20
93.28227936059312
 30
0.0
 10
128.7853784409542
 20
93.27793122452208
 30
0.0
 10
128.6874144127124
 20
93.26926540776638
 30
0.0
 10
128.5773735593922
 20
93.17145192420568
 30
0.0
 10
128.5474474268111
 20
93.04713314999834
 30
0.0
 10
128.5457517530054
 20
92.97073695635355
 30
0.0
 10
128.5449016046859
 20
92.93243472191546
 30
0.0
  0
SPLINE
  5
40A
330
1F
100
AcDbEntity
  8
0
  6
Continuous
 62
     7
370
    25
100
AcDbSpline
210
0.0
220
0.0
230
1.0
 70
     8
 71
     3
 72
    10
 73
     6
 74
     0
 42
0.000000001
 43
0.00000001
 40
0.0
 40
0.0
 40
0.0
 40
0.0
 40
0.2802454918512544
 40
0.5601047849734089
 40
1.0
 40
1.0
 40
1.0
 40
1.0
 10
129.1053258047215
 20
93.12350371688557
 30
0.0
 10
129.0910067083749
 20
93.15165916913817
 30
0.0
 10
129.062388248441
 20
93.20793127337652
 30
0.0
 10
128.9649656608618
 20
93.2720825915616
 30
0.0
 10
128.8840103667427
 20
93.27841137372083
 30
0.0
 10
128.834532598822
 20
93.28227936059312
 30
0.0
  0
SPLINE
  5
40B
330
1F
100
AcDbEntity
  8
0
  6
Continuous
 62
     7
370
    25
100
AcDbSpline
210
0.0
220
0.0
230
1.0
 70
     8
 71
     3
 72
     9
 73
     5
 74
     0
 42
0.000000001
 43
0.00000001
 40
0.0
 40
0.0
 40
0.0
 40
0.0
 40
0.5603572931610004
 40
0.9999999999999999
 40
0.9999999999999999
 40
0.9999999999999999
 40
0.9999999999999999
 10
129.1261819274119
 20
92.95665473536235
 30
0.0
 10
129.1259729506518
 20
92.98831781663831
 30
0.0
 10
129.1256000158072
 20
93.0448229815793
 30
0.0
 10
129.1115172083235
 20
93.09947594160367
 30
0.0
 10
129.1053258047215
 20
93.12350371688557
 30
0.0
  0
LINE
  5
40C
330
1F
100
AcDbEntity
  8
0
  6
Continuous
 62
     7
370
    25
100
AcDbLine
 10
129.1261819274
 20
92.6148834345
 30
0.0
 11
129.1261819274
 21
92.9566547354
 31
0.0
  0
LINE
  5
40D
330
1F
100
AcDbEntity
  8
0
  6
Continuous
 62
     7
370
    25
100
AcDbLine
 10
128.5449016047
 20
92.6148834345
 30
0.0
 11
129.1261819274
 21
92.6148834345
 31
0.0
  0
LINE
  5
40E
330
1F
100
AcDbEntity
  8
0
  6
Continuous
 62
     7
370
    25
100
AcDbLine
 10
128.5449016047
 20
92.9324347219
 30
0.0
 11
128.5449016047
 21
92.6148834345
 31
0.0
  0
SPLINE
  5
40F
330
1F
100
AcDbEntity
  8
0
  6
Continuous
 62
     7
370
    25
100
AcDbSpline
210
0.0
220
0.0
230
1.0
 70
     8
 71
     3
 72
     9
 73
     5
 74
     0
 42
0.000000001
 43
0.00000001
 40
0.0
 40
0.0
 40
0.0
 40
0.0
 40
0.5599659895687882
 40
1.0
 40
1.0
 40
1.0
 40
1.0
 10
128.4877154618252
 20
94.81083132035405
 30
0.0
 10
128.4156399663081
 20
94.80777944239908
 30
0.0
 10
128.2869259071335
 20
94.80232932933536
 30
0.0
 10
128.1661316242734
 20
94.75824337670448
 30
0.0
 10
128.1129780315493
 20
94.73884405816462
 30
0.0
  0
SPLINE
  5
410
330
1F
100
AcDbEntity
  8
0
  6
Continuous
 62
     7
370
    25
100
AcDbSpline
210
0.0
220
0.0
230
1.0
 70
     8
 71
     3
 72
    12
 73
     8
 74
     0
 42
0.000000001
 43
0.00000001
 40
0.0
 40
0.0
 40
0.0
 40
0.0
 40
0.1862510114136871
 40
0.3725758417800416
 40
0.5591877236753422
 40
0.7793786693246105
 40
0.9999999999999999
 40
0.9999999999999999
 40
0.9999999999999999
 40
0.9999999999999999
 10
129.1477108282536
 20
94.32508549511313
 30
0.0
 10
129.1417933636905
 20
94.38254693593942
 30
0.0
 10
129.1299560892292
 20
94.49749259192943
 30
0.0
 10
129.0264043153596
 20
94.64164428931718
 30
0.0
 10
128.8776383588768
 20
94.74901088750714
 30
0.0
 10
128.689855953888
 20
94.80332513243407
 30
0.0
 10
128.5551394691183
 20
94.80832762965906
 30
0.0
 10
128.4877154618252
 20
94.81083132035405
 30
0.0
  0
SPLINE
  5
411
330
1F
100
AcDbEntity
  8
0
  6
Continuous
 62
     7
370
    25
100
AcDbSpline
210
0.0
220
0.0
230
1.0
 70
     8
 71
     3
 72
    10
 73
     6
 74
     0
 42
0.000000001
 43
0.00000001
 40
0.0
 40
0.0
 40
0.0
 40
0.0
 40
0.2810503084781643
 40
0.5620650570343942
 40
1.0
 40
1.0
 40
1.0
 40
1.0
 10
128.1129780315493
 20
94.73884405816462
 30
0.0
 10
128.0699212453786
 20
94.71546930945308
 30
0.0
 10
127.9838131208021
 20
94.66872276952274
 30
0.0
 10
127.8674038951048
 20
94.53108346387043
 30
0.0
 10
127.8469232711871
 20
94.4053649118968
 30
0.0
 10
127.8344478769097
 20
94.3287857749453
 30
0.0
  0
SPLINE
  5
412
330
1F
100
AcDbEntity
  8
0
  6
Continuous
 62
     7
370
    25
100
AcDbSpline
210
0.0
220
0.0
230
1.0
 70
     8
 71
     3
 72
    12
 73
     8
 74
     0
 42
0.000000001
 43
0.00000001
 40
0.0
 40
0.0
 40
0.0
 40
0.0
 40
0.1863157694358776
 40
0.3725165897002042
 40
0.559007484178072
 40
0.7792968295489511
 40
1.0
 40
1.0
 40
1.0
 40
1.0
 10
127.8344478769097
 20
94.3287857749453
 30
0.0
 10
127.8403232258263
 20
94.26984285311028
 30
0.0
 10
127.8520702988106
 20
94.15199337480021
 30
0.0
 10
127.957969844451
 20
94.00342664460169
 30
0.0
 10
128.1144716864395
 20
93.89807702274553
 30
0.0
 10
128.308329257148
 20
93.84876659245676
 30
0.0
 10
128.4464903725618
 20
93.8442774566644
 30
0.0
 10
128.5156357551043
 20
93.84203078247741
 30
0.0
  0
SPLINE
  5
413
330
1F
100
AcDbEntity
  8
0
  6
Continuous
 62
     7
370
    25
100
AcDbSpline
210
0.0
220
0.0
230
1.0
 70
     8
 71
     3
 72
    11
 73
     7
 74
     0
 42
0.000000001
 43
0.00000001
 40
0.0
 40
0.0
 40
0.0
 40
0.0
 40
0.2809879343709954
 40
0.5605507243730569
 40
0.7804823194427513
 40
1.0
 40
1.0
 40
1.0
 40
1.0
 10
128.5156357551043
 20
93.84203078247741
 30
0.0
 10
128.5991183314905
 20
93.84624679749572
 30
0.0
 10
128.7656600684892
 20
93.8546574443008
 30
0.0
 10
128.9777005332495
 20
93.96047828996787
 30
0.0
 10
129.1227550779658
 20
94.12839324943295
 30
0.0
 10
129.1393974699459
 20
94.25956259574754
 30
0.0
 10
129.1477108282536
 20
94.32508549511313
 30
0.0
  0
SPLINE
  5
414
330
1F
100
AcDbEntity
  8
0
  6
Continuous
 62
     7
370
    25
100
AcDbSpline
210
0.0
220
0.0
230
1.0
 70
     8
 71
     3
 72
     9
 73
     5
 74
     0
 42
0.000000001
 43
0.00000001
 40
0.0
 40
0.0
 40
0.0
 40
0.0
 40
0.5590457952192153
 40
1.0
 40
1.0
 40
1.0
 40
1.0
 10
127.8889429071653
 20
95.89602247840617
 30
0.0
 10
127.8772640664367
 20
95.85305046838498
 30
0.0
 10
127.8563733973207
 20
95.77618376016773
 30
0.0
 10
127.8560981494551
 20
95.6966361471274
 30
0.0
 10
127.8559767777515
 20
95.661559292677
 30
0.0
  0
SPLINE
  5
415
330
1F
100
AcDbEntity
  8
0
  6
Continuous
 62
     7
370
    25
100
AcDbSpline
210
0.0
220
0.0
230
1.0
 70
     8
 71
     3
 72
    11
 73
     7
 74
     0
 42
0.000000001
 43
0.00000001
 40
0.0
 40
0.0
 40
0.0
 40
0.0
 40
0.2808066103457293
 40
0.5611092997290473
 40
0.7812119317127162
 40
1.0
 40
1.0
 40
1.0
 40
1.0
 10
128.4796421240095
 20
96.14562317253967
 30
0.0
 10
128.4164389731956
 20
96.14391041479378
 30
0.0
 10
128.2901460926605
 20
96.14048797292811
 30
0.0
 10
128.1184675346323
 20
96.09958266566201
 30
0.0
 10
127.9717585151538
 20
96.02091864594959
 30
0.0
 10
127.9164929327432
 20
95.9375713203936
 30
0.0
 10
127.8889429071653
 20
95.89602247840617
 30
0.0
  0
SPLINE
  5
416
330
1F
100
AcDbEntity
  8
0
  6
Continuous
 62
     7
370
    25
100
AcDbSpline
210
0.0
220
0.0
230
1.0
 70
     8
 71
     3
 72
     9
 73
     5
 74
     0
 42
0.000000001
 43
0.00000001
 40
0.0
 40
0.0
 40
0.0
 40
0.0
 40
0.5595654112245583
 40
0.9999999999999999
 40
0.9999999999999999
 40
0.9999999999999999
 40
0.9999999999999999
 10
128.8846545710941
 20
96.07969091371196
 30
0.0
 10
128.8105988102154
 20
96.10178949726392
 30
0.0
 10
128.6782536734482
 20
96.14128190174189
 30
0.0
 10
128.5403705991411
 20
96.1442957635525
 30
0.0
 10
128.4796421240095
 20
96.14562317253967
 30
0.0
  0
SPLINE
  5
417
330
1F
100
AcDbEntity
  8
0
  6
Continuous
 62
     7
370
    25
100
AcDbSpline
210
0.0
220
0.0
230
1.0
 70
     8
 71
     3
 72
    11
 73
     7
 74
     0
 42
0.000000001
 43
0.00000001
 40
0.0
 40
0.0
 40
0.0
 40
0.0
 40
0.2807159424981931
 40
0.5599515531954437
 40
0.7796947846772564
 40
1.0
 40
1.0
 40
1.0
 40
1.0
 10
129.1261819274119
 20
95.66626873973613
 30
0.0
 10
129.1245391138605
 20
95.71449315353193
 30
0.0
 10
129.1212621499961
 20
95.81068767375261
 30
0.0
 10
129.078337917437
 20
95.94207933065971
 30
0.0
 10
128.9883266156023
 20
96.03229984233892
 30
0.0
 10
128.9192413287638
 20
96.06388044610651
 30
0.0
 10
128.8846545710941
 20
96.07969091371196
 30
0.0
  0
LINE
  5
418
330
1F
100
AcDbEntity
  8
0
  6
Continuous
 62
     7
370
    25
100
AcDbLine
 10
129.1261819274
 20
95.3705827422
 30
0.0
 11
129.1261819274
 21
95.6662687397
 31
0.0
  0
LINE
  5
419
330
1F
100
AcDbEntity
  8
0
  6
Continuous
 62
     7
370
    25
100
AcDbLine
 10
127.8559767778
 20
95.3705827422
 30
0.0
 11
129.1261819274
 21
95.3705827422
 31
0.0
  0
LINE
  5
41A
330
1F
100
AcDbEntity
  8
0
  6
Continuous
 62
     7
370
    25
100
AcDbLine
 10
127.8559767778
 20
95.6615592927
 30
0.0
 11
127.8559767778
 21
95.3705827422
 31
0.0
  0
SPLINE
  5
41B
330
1F
100
AcDbEntity
  8
0
  6
Continuous
 62
     7
370
    25
100
AcDbSpline
210
0.0
220
0.0
230
1.0
 70
     8
 71
     3
 72
     9
 73
     5
 74
     0
 42
0.000000001
 43
0.00000001
 40
0.0
 40
0.0
 40
0.0
 40
0.0
 40
0.5600094372021656
 40
1.0
 40
1.0
 40
1.0
 40
1.0
 10
128.1755463996205
 20
97.13326149865281
 30
0.0
 10
128.1123959082148
 20
97.11400248833365
 30
0.0
 10
127.9996290739251
 20
97.07961197803193
 30
0.0
 10
127.8851527626224
 20
97.05145941814098
 30
0.0
 10
127.8347842659854
 20
97.03907255747036
 30
0.0
  0
LINE
  5
41C
330
1F
100
AcDbEntity
  8
0
  6
Continuous
 62
     7
370
    25
100
AcDbLine
 10
128.6310172081
 20
97.2718537978
 30
0.0
 11
128.1755463996
 21
97.1332614987
 31
0.0
  0
LINE
  5
41D
330
1F
100
AcDbEntity
  8
0
  6
Continuous
 62
     7
370
    25
100
AcDbLine
 10
128.6310172081
 20
96.805954928
 30
0.0
 11
128.6310172081
 21
97.2718537978
 31
0.0
  0
LINE
  5
41E
330
1F
100
AcDbEntity
  8
0
  6
Continuous
 62
     7
370
    25
100
AcDbLine
 10
128.1486352736
 20
96.9620394591
 30
0.0
 11
128.6310172081
 21
96.805954928
 31
0.0
  0
SPLINE
  5
41F
330
1F
100
AcDbEntity
  8
0
  6
Continuous
 62
     7
370
    25
100
AcDbSpline
210
0.0
220
0.0
230
1.0
 70
     8
 71
     3
 72
     9
 73
     5
 74
     0
 42
0.000000001
 43
0.00000001
 40
0.0
 40
0.0
 40
0.0
 40
0.0
 40
0.5599894472996734
 40
1.0
 40
1.0
 40
1.0
 40
1.0
 10
127.8347842659854
 20
97.03907255747036
 30
0.0
 10
127.8940912527727
 20
97.02758573366712
 30
0.0
 10
127.9999985820506
 20
97.0070731617631
 30
0.0
 10
128.1032177502984
 20
96.97579998634608
 30
0.0
 10
128.1486352735683
 20
96.96203945914614
 30
0.0
  0
SPLINE
  5
420
330
1F
100
AcDbEntity
  8
0
  6
Continuous
 62
     7
370
    25
100
AcDbSpline
210
0.0
220
0.0
230
1.0
 70
     8
 71
     3
 72
    11
 73
     7
 74
     0
 42
0.000000001
 43
0.00000001
 40
0.0
 40
0.0
 40
0.0
 40
0.0
 40
0.1254000435821291
 40
0.2508361888025487
 40
0.5005497456620949
 40
1.0
 40
1.0
 40
1.0
 40
1.0
 10
129.1692397290954
 20
101.4353413871613
 30
0.0
 10
129.1669998455811
 20
101.4602807962951
 30
0.0
 10
129.1625194337087
 20
101.5101667944129
 30
0.0
 10
129.1118608828115
 20
101.5977177982132
 30
0.0
 10
128.9704158974351
 20
101.7091572989838
 30
0.0
 10
128.81804332025
 20
101.7166279677664
 30
0.0
 10
128.7164600332683
 20
101.7216084905408
 30
0.0
  0
SPLINE
  5
421
330
1F
100
AcDbEntity
  8
0
  6
Continuous
 62
     7
370
    25
100
AcDbSpline
210
0.0
220
0.0
230
1.0
 70
     8
 71
     3
 72
    12
 73
     8
 74
     0
 42
0.000000001
 43
0.00000001
 40
0.0
 40
0.0
 40
0.0
 40
0.0
 40
0.2508546319790932
 40
0.5010024037370864
 40
0.7498284881184327
 40
0.8748817238429166
 40
1.0
 40
1.0
 40
1.0
 40
1.0
 10
128.7164600332683
 20
101.1403281678149
 30
0.0
 10
128.7668345031412
 20
101.1419665695435
 30
0.0
 10
128.8674414972964
 20
101.145238756299
 30
0.0
 10
129.0150299663488
 20
101.1863146145827
 30
0.0
 10
129.1158614368996
 20
101.2687315170043
 30
0.0
 10
129.1631014042558
 20
101.3596123374023
 30
0.0
 10
129.1671932662101
 20
101.4100939957778
 30
0.0
 10
129.1692397290954
 20
101.4353413871613
 30
0.0
  0
SPLINE
  5
422
330
1F
100
AcDbEntity
  8
0
  6
Continuous
 62
     7
370
    25
100
AcDbSpline
210
0.0
220
0.0
230
1.0
 70
     8
 71
     3
 72
    12
 73
     8
 74
     0
 42
0.000000001
 43
0.00000001
 40
0.0
 40
0.0
 40
0.0
 40
0.0
 40
0.1250041937784756
 40
0.2500226272984972
 40
0.4991096571460261
 40
0.7492050127368565
 40
1.0
 40
1.0
 40
1.0
 40
1.0
 10
128.2650258937438
 20
101.4265952711944
 30
0.0
 10
128.267282929753
 20
101.4017257266122
 30
0.0
 10
128.2717972588796
 20
101.3519838044558
 30
0.0
 10
128.3213387612847
 20
101.2638209499762
 30
0.0
 10
128.4222529040312
 20
101.1852044367992
 30
0.0
 10
128.567695163193
 20
101.1453342731968
 30
0.0
 10
128.6668255889059
 20
101.1419984227543
 30
0.0
 10
128.7164600332683
 20
101.1403281678149
 30
0.0
  0
SPLINE
  5
423
330
1F
100
AcDbEntity
  8
0
  6
Continuous
 62
     7
370
    25
100
AcDbSpline
210
0.0
220
0.0
230
1.0
 70
     8
 71
     3
 72
    12
 73
     8
 74
     0
 42
0.000000001
 43
0.00000001
 40
0.0
 40
0.0
 40
0.0
 40
0.0
 40
0.2508325554557678
 40
0.5009722888337222
 40
0.7498385290883128
 40
0.8748873117295374
 40
1.0
 40
1.0
 40
1.0
 40
1.0
 10
128.7164600332683
 20
101.7216084905408
 30
0.0
 10
128.6661963981624
 20
101.7199547830055
 30
0.0
 10
128.5658079606313
 20
101.7166519356239
 30
0.0
 10
128.4186942140156
 20
101.6751750755723
 30
0.0
 10
128.3181496006677
 20
101.5928946576397
 30
0.0
 10
128.2711384006951
 20
101.5021470098446
 30
0.0
 10
128.2670637430282
 20
101.4517834726592
 30
0.0
 10
128.2650258937438
 20
101.4265952711944
 30
0.0
  0
CIRCLE
  5
424
330
1F
100
AcDbEntity
  8
0
  6
Continuous
 62
     7
370
    25
100
AcDbCircle
 10
119.6104077554
 20
70.1720807521
 30
0.0
 40
0.2960223865734122
  0
CIRCLE
  5
425
330
1F
100
AcDbEntity
  8
0
  6
Continuous
 62
     7
370
    25
100
AcDbCircle
 10
119.6104077554
 20
92.6579412362
 30
0.0
 40
0.2960223865734122
  0
CIRCLE
  5
426
330
1F
100
AcDbEntity
  8
0
  6
Continuous
 62
     7
370
    25
100
AcDbCircle
 10
107.7695122924
 20
85.5534039584
 30
0.0
 40
2.012952228696321
  0
CIRCLE
  5
427
330
1F
100
AcDbEntity
  8
0
  6
Continuous
 62
     7
370
    25
100
AcDbCircle
 10
131.4513032183
 20
85.5534039584
 30
0.0
 40
2.012952228694104
  0
LINE
  5
428
330
1F
100
AcDbEntity
  8
0
  6
Continuous
 62
     8
370
    25
100
AcDbLine
 10
116.2949570258
 20
49.6991724966
 30
0.0
 11
118.1895002998
 21
49.6991724966
 31
0.0
  0
LINE
  5
429
330
1F
100
AcDbEntity
  8
0
  6
Continuous
 62
     8
370
    25
100
AcDbLine
 10
121.0313152109
 20
49.6991724966
 30
0.0
 11
122.925858485
 21
49.6991724966
 31
0.0
  0
DIMENSION
  5
42A
330
1F
100
AcDbEntity
  8
0
  6
Continuous
 62
     7
370
    18
100
AcDbDimension
  2
_D_15
 10
113.4096886254
 20
103.0779292436
 30
0.0
 11
113.4096886254
 21
96.6952176525
 31
0.0
 70
   160
  1
<>
 71
     2
 42
-1.0
  3
SLDDIMSTYLE7
100
AcDbAlignedDimension
 13
116.0581391165
 23
92.6579412362
 33
0.0
 14
104.2172436536
 24
103.0779292436
 34
0.0
 50
90.0
100
AcDbRotatedDimension
  0
DIMENSION
  5
436
330
1F
100
AcDbEntity
  8
0
  6
Continuous
 62
     7
370
    18
100
AcDbDimension
  2
_D_16
 10
129.5069406735
 20
85.0324135848
 30
0.0
 11
144.9538372339
 21
89.1714043642
 31
0.0
 70
   163
  1
2x<>
 71
     1
 42
-1.0
  3
SLDDIMSTYLE8
100
AcDbDiametricDimension
 15
133.3956657631
 25
86.0743943321
 35
0.0
 40
0.0
  0
DIMENSION
  5
441
330
1F
100
AcDbEntity
  8
0
  6
Continuous
 62
     7
370
    18
100
AcDbDimension
  2
_D_17
 10
97.1600699577
 20
85.5534039584
 30
0.0
 11
97.1600699577
 21
94.0158522518
 31
0.0
 70
   160
  1
<>
 71
     2
 42
-1.0
  3
SLDDIMSTYLE7
100
AcDbAlignedDimension
 13
104.2172436536
 23
103.0779292436
 33
0.0
 14
104.5724705175
 24
85.5534039584
 34
0.0
 50
90.0
100
AcDbRotatedDimension
  0
DIMENSION
  5
44D
330
1F
100
AcDbEntity
  8
0
  6
Continuous
 62
     7
370
    18
100
AcDbDimension
  2
_D_18
 10
139.7399300424
 20
85.5534039584
 30
0.0
 11
139.7399300424
 21
76.0806875881
 31
0.0
 70
   160
  1
<>
 71
     2
 42
-1.0
  3
SLDDIMSTYLE9
100
AcDbAlignedDimension
 13
134.6483449933
 23
66.6079712177
 33
0.0
 14
134.6483449933
 24
85.5534039584
 34
0.0
 50
90.0
100
AcDbRotatedDimension
  0
INSERT
  5
465
330
1F
100
AcDbEntity
  8
0
  6
Continuous
 62
     7
370
     0
100
AcDbBlockReference
  2
SW_CENTERMARKSYMBOL_5
 10
119.6104077554
 20
69.9234219473
 30
0.0
  0
INSERT
  5
471
330
1F
100
AcDbEntity
  8
0
  6
Continuous
 62
     7
370
     0
100
AcDbBlockReference
  2
SW_CENTERMARKSYMBOL_6
 10
107.7695122924
 20
85.5534039584
 30
0.0
  0
INSERT
  5
47D
330
1F
100
AcDbEntity
  8
0
  6
Continuous
 62
     7
370
     0
100
AcDbBlockReference
  2
SW_CENTERMARKSYMBOL_7
 10
131.4513032183
 20
85.5534039584
 30
0.0
  0
INSERT
  5
489
330
1F
100
AcDbEntity
  8
0
  6
Continuous
 62
     7
370
     0
100
AcDbBlockReference
  2
SW_CENTERMARKSYMBOL_8
 10
119.6104077554
 20
92.6579412362
 30
0.0
  0
INSERT
  5
495
330
1F
100
AcDbEntity
  8
0
  6
Continuous
 62
     7
370
     0
100
AcDbBlockReference
  2
SW_CENTERMARKSYMBOL_9
 10
119.6104077554
 20
70.1720807521
 30
0.0
  0
INSERT
  5
4A1
330
1F
100
AcDbEntity
  8
0
  6
Continuous
 62
     7
370
     0
100
AcDbBlockReference
  2
SW_CENTERMARKSYMBOL_10
 10
107.7695122924
 20
66.6079712177
 30
0.0
  0
INSERT
  5
4AD
330
1F
100
AcDbEntity
  8
0
  6
Continuous
 62
     7
370
     0
100
AcDbBlockReference
  2
SW_CENTERMARKSYMBOL_11
 10
131.4513032183
 20
66.6079712177
 30
0.0
  0
LINE
  5
4AE
330
1F
100
AcDbEntity
  8
0
  6
CENTERX2
 62
     7
 48
0.4736358185
370
    18
100
AcDbLine
 10
119.6104077554
 20
64.6079712177
 30
0.0
 11
119.6104077554
 21
105.0779292436
 31
0.0
  0
LINE
  5
4AF
330
1F
100
AcDbEntity
  8
0
  6
CENTERX2
 62
     7
 48
0.4736358185
370
    18
100
AcDbLine
 10
119.6104077554
 20
101.3147471528
 30
0.0
 11
119.6104077554
 21
107.9197441547
 31
0.0
  0
LINE
  5
4B0
330
1F
100
AcDbEntity
  8
0
  6
CENTERX2
 62
     7
 48
0.4736358185
370
    18
100
AcDbLine
 10
119.6104077554
 20
116.7079112546
 30
0.0
 11
119.6104077554
 21
123.3129082565
 31
0.0
  0
ENDSEC
  0
SECTION
  2
OBJECTS
  0
DICTIONARY
  5
C
330
0
100
AcDbDictionary
281
     1
  3
ACAD_GROUP
350
D
  3
ACAD_LAYOUT
350
1A
  3
ACAD_MLINESTYLE
350
17
  3
ACAD_PLOTSETTINGS
350
19
  3
ACAD_PLOTSTYLENAME
350
E
  3
ACAD_SCALELIST
350
47
  0
DICTIONARY
  5
D
102
{ACAD_REACTORS
330
C
102
}
330
C
100
AcDbDictionary
281
     1
  0
DICTIONARY
  5
1A
102
{ACAD_REACTORS
330
C
102
}
330
C
100
AcDbDictionary
281
     1
  3
Layout1
350
1E
  3
Layout2
350
26
  3
Model
350
22
  0
DICTIONARY
  5
17
102
{ACAD_REACTORS
330
C
102
}
330
C
100
AcDbDictionary
281
     1
  3
Standard
350
18
  0
DICTIONARY
  5
19
102
{ACAD_REACTORS
330
C
102
}
330
C
100
AcDbDictionary
281
     1
  0
ACDBDICTIONARYWDFLT
  5
E
102
{ACAD_REACTORS
330
C
102
}
330
C
100
AcDbDictionary
281
     1
  3
Normal
350
F
100
AcDbDictionaryWithDefault
340
F
  0
DICTIONARY
  5
47
102
{ACAD_REACTORS
330
C
102
}
330
C
100
AcDbDictionary
281
     1
  3
A0
350
48
  3
A1
350
49
  3
A2
350
4A
  3
A3
350
4B
  3
A4
350
4C
  3
A5
350
4D
  3
A6
350
4E
  3
A7
350
4F
  3
A8
350
50
  3
A9
350
51
  3
B0
350
52
  3
B1
350
53
  3
B2
350
54
  3
B3
350
55
  3
B4
350
56
  3
B5
350
57
  3
B6
350
58
  3
B7
350
59
  3
B8
350
5A
  3
B9
350
5B
  3
C0
350
5C
  3
C1
350
5D
  3
C2
350
5E
  3
C3
350
5F
  3
C4
350
60
  3
C5
350
61
  3
C6
350
62
  3
C7
350
63
  3
C8
350
64
  3
C9
350
65
  3
D0
350
66
  3
D1
350
67
  3
D2
350
68
  0
LAYOUT
  5
1E
102
{ACAD_REACTORS
330
1A
102
}
330
1A
100
AcDbPlotSettings
  1

  2
none_device
  4

  6

 40
0.0
 41
0.0
 42
0.0
 43
0.0
 44
0.0
 45
0.0
 46
0.0
 47
0.0
 48
0.0
 49
0.0
140
0.0
141
0.0
142
1.0
143
1.0
 70
   688
 72
     1
 73
     0
 74
     5
  7

 75
    16
147
1.0
148
0.0
149
0.0
100
AcDbLayout
  1
Layout1
 70
     1
 71
     1
 10
0.0
 20
0.0
 11
420.0
 21
297.0
 12
0.0
 22
0.0
 32
0.0
 14
1.0000000000E+20
 24
1.0000000000E+20
 34
1.0000000000E+20
 15
-1.0000000000E+20
 25
-1.0000000000E+20
 35
-1.0000000000E+20
146
0.0
 13
0.0
 23
0.0
 33
0.0
 16
1.0
 26
0.0
 36
0.0
 17
0.0
 27
1.0
 37
0.0
 76
     0
330
1B
  0
LAYOUT
  5
26
102
{ACAD_REACTORS
330
1A
102
}
330
1A
100
AcDbPlotSettings
  1

  2
none_device
  4

  6

 40
0.0
 41
0.0
 42
0.0
 43
0.0
 44
0.0
 45
0.0
 46
0.0
 47
0.0
 48
0.0
 49
0.0
140
0.0
141
0.0
142
1.0
143
1.0
 70
   688
 72
     1
 73
     0
 74
     5
  7

 75
    16
147
1.0
148
0.0
149
0.0
100
AcDbLayout
  1
Layout2
 70
     1
 71
     2
 10
0.0
 20
0.0
 11
0.0
 21
0.0
 12
0.0
 22
0.0
 32
0.0
 14
0.0
 24
0.0
 34
0.0
 15
0.0
 25
0.0
 35
0.0
146
0.0
 13
0.0
 23
0.0
 33
0.0
 16
1.0
 26
0.0
 36
0.0
 17
0.0
 27
1.0
 37
0.0
 76
     0
330
23
  0
LAYOUT
  5
22
102
{ACAD_REACTORS
330
1A
102
}
330
1A
100
AcDbPlotSettings
  1

  2
none_device
  4
Letter_(8.50_x_11.00_Inches)
  6

 40
6.35
 41
6.35
 42
6.35000508
 43
6.35000508
 44
215.9
 45
279.4
 46
0.0
 47
0.0
 48
0.0
 49
0.0
140
0.0
141
0.0
142
1.0
143
1.0
 70
  1712
 72
     1
 73
     0
 74
     0
  7

 75
     0
147
1.0
148
0.0
149
0.0
100
AcDbLayout
  1
Model
 70
     1
 71
     0
 10
0.0
 20
0.0
 11
594.0
 21
420.0
 12
0.0
 22
0.0
 32
0.0
 14
0.0
 24
0.0
 34
0.0
 15
594.0
 25
420.0
 35
0.0
146
0.0
 13
0.0
 23
0.0
 33
0.0
 16
1.0
 26
0.0
 36
0.0
 17
0.0
 27
1.0
 37
0.0
 76
     0
330
1F
331
29
  0
MLINESTYLE
  5
18
102
{ACAD_REACTORS
330
17
102
}
330
17
100
AcDbMlineStyle
  2
Standard
 70
     0
  3

 62
   256
 51
90.0
 52
90.0
 71
     2
 49
0.5
 62
   256
  6
BYLAYER
 49
-0.5
 62
   256
  6
BYLAYER
  0
ACDBPLACEHOLDER
  5
F
102
{ACAD_REACTORS
330
E
102
}
330
E
  0
SCALE
  5
48
102
{ACAD_REACTORS
330
47
102
}
330
47
100
AcDbScale
 70
     0
300
1:1
140
1.0
141
1.0
290
     1
  0
SCALE
  5
49
102
{ACAD_REACTORS
330
47
102
}
330
47
100
AcDbScale
 70
     0
300
1:2
140
1.0
141
2.0
290
     0
  0
SCALE
  5
4A
102
{ACAD_REACTORS
330
47
102
}
330
47
100
AcDbScale
 70
     0
300
1:4
140
1.0
141
4.0
290
     0
  0
SCALE
  5
4B
102
{ACAD_REACTORS
330
47
102
}
330
47
100
AcDbScale
 70
     0
300
1:5
140
1.0
141
5.0
290
     0
  0
SCALE
  5
4C
102
{ACAD_REACTORS
330
47
102
}
330
47
100
AcDbScale
 70
     0
300
1:8
140
1.0
141
8.0
290
     0
  0
SCALE
  5
4D
102
{ACAD_REACTORS
330
47
102
}
330
47
100
AcDbScale
 70
     0
300
1:10
140
1.0
141
10.0
290
     0
  0
SCALE
  5
4E
102
{ACAD_REACTORS
330
47
102
}
330
47
100
AcDbScale
 70
     0
300
1:16
140
1.0
141
16.0
290
     0
  0
SCALE
  5
4F
102
{ACAD_REACTORS
330
47
102
}
330
47
100
AcDbScale
 70
     0
300
1:20
140
1.0
141
20.0
290
     0
  0
SCALE
  5
50
102
{ACAD_REACTORS
330
47
102
}
330
47
100
AcDbScale
 70
     0
300
1:30
140
1.0
141
30.0
290
     0
  0
SCALE
  5
51
102
{ACAD_REACTORS
330
47
102
}
330
47
100
AcDbScale
 70
     0
300
1:40
140
1.0
141
40.0
290
     0
  0
SCALE
  5
52
102
{ACAD_REACTORS
330
47
102
}
330
47
100
AcDbScale
 70
     0
300
1:50
140
1.0
141
50.0
290
     0
  0
SCALE
  5
53
102
{ACAD_REACTORS
330
47
102
}
330
47
100
AcDbScale
 70
     0
300
1:100
140
1.0
141
100.0
290
     0
  0
SCALE
  5
54
102
{ACAD_REACTORS
330
47
102
}
330
47
100
AcDbScale
 70
     0
300
2:1
140
2.0
141
1.0
290
     0
  0
SCALE
  5
55
102
{ACAD_REACTORS
330
47
102
}
330
47
100
AcDbScale
 70
     0
300
4:1
140
4.0
141
1.0
290
     0
  0
SCALE
  5
56
102
{ACAD_REACTORS
330
47
102
}
330
47
100
AcDbScale
 70
     0
300
8:1
140
8.0
141
1.0
290
     0
  0
SCALE
  5
57
102
{ACAD_REACTORS
330
47
102
}
330
47
100
AcDbScale
 70
     0
300
10:1
140
10.0
141
1.0
290
     0
  0
SCALE
  5
58
102
{ACAD_REACTORS
330
47
102
}
330
47
100
AcDbScale
 70
     0
300
100:1
140
100.0
141
1.0
290
     0
  0
SCALE
  5
59
102
{ACAD_REACTORS
330
47
102
}
330
47
100
AcDbScale
 70
     0
300
1/128" = 1'-0"
140
0.0078125
141
12.0
290
     0
  0
SCALE
  5
5A
102
{ACAD_REACTORS
330
47
102
}
330
47
100
AcDbScale
 70
     0
300
1/64" = 1'-0"
140
0.015625
141
12.0
290
     0
  0
SCALE
  5
5B
102
{ACAD_REACTORS
330
47
102
}
330
47
100
AcDbScale
 70
     0
300
1/32" = 1'-0"
140
0.03125
141
12.0
290
     0
  0
SCALE
  5
5C
102
{ACAD_REACTORS
330
47
102
}
330
47
100
AcDbScale
 70
     0
300
1/16" = 1'-0"
140
0.0625
141
12.0
290
     0
  0
SCALE
  5
5D
102
{ACAD_REACTORS
330
47
102
}
330
47
100
AcDbScale
 70
     0
300
3/32" = 1'-0"
140
0.09375
141
12.0
290
     0
  0
SCALE
  5
5E
102
{ACAD_REACTORS
330
47
102
}
330
47
100
AcDbScale
 70
     0
300
1/8" = 1'-0"
140
0.125
141
12.0
290
     0
  0
SCALE
  5
5F
102
{ACAD_REACTORS
330
47
102
}
330
47
100
AcDbScale
 70
     0
300
3/16" = 1'-0"
140
0.1875
141
12.0
290
     0
  0
SCALE
  5
60
102
{ACAD_REACTORS
330
47
102
}
330
47
100
AcDbScale
 70
     0
300
1/4" = 1'-0"
140
0.25
141
12.0
290
     0
  0
SCALE
  5
61
102
{ACAD_REACTORS
330
47
102
}
330
47
100
AcDbScale
 70
     0
300
3/8" = 1'-0"
140
0.375
141
12.0
290
     0
  0
SCALE
  5
62
102
{ACAD_REACTORS
330
47
102
}
330
47
100
AcDbScale
 70
     0
300
1/2" = 1'-0"
140
0.5
141
12.0
290
     0
  0
SCALE
  5
63
102
{ACAD_REACTORS
330
47
102
}
330
47
100
AcDbScale
 70
     0
300
3/4" = 1'-0"
140
0.75
141
12.0
290
     0
  0
SCALE
  5
64
102
{ACAD_REACTORS
330
47
102
}
330
47
100
AcDbScale
 70
     0
300
1" = 1'-0"
140
1.0
141
12.0
290
     0
  0
SCALE
  5
65
102
{ACAD_REACTORS
330
47
102
}
330
47
100
AcDbScale
 70
     0
300
1-1/2" = 1'-0"
140
1.5
141
12.0
290
     0
  0
SCALE
  5
66
102
{ACAD_REACTORS
330
47
102
}
330
47
100
AcDbScale
 70
     0
300
3" = 1'-0"
140
3.0
141
12.0
290
     0
  0
SCALE
  5
67
102
{ACAD_REACTORS
330
47
102
}
330
47
100
AcDbScale
 70
     0
300
6" = 1'-0"
140
6.0
141
12.0
290
     0
  0
SCALE
  5
68
102
{ACAD_REACTORS
330
47
102
}
330
47
100
AcDbScale
 70
     0
300
1'-0" = 1'-0"
140
12.0
141
12.0
290
     0
  0
ENDSEC
  0
EOF
