  0
SECTION
  2
HEADER
  9
$ACADVER
  1
AC1015
  9
$ACADMAINTVER
 70
     6
  9
$DWGCODEPAGE
  3
ANSI_1250
  9
$INSBASE
 10
0.0
 20
0.0
 30
0.0
  9
$EXTMIN
 10
0.0
 20
0.0
 30
0.0
  9
$EXTMAX
 10
420.0
 20
297.0
 30
0.0
  9
$LIMMIN
 10
0.0
 20
0.0
  9
$LIMMAX
 10
420.0
 20
297.0
  9
$ORTHOMODE
 70
     0
  9
$REGENMODE
 70
     1
  9
$FILLMODE
 70
     1
  9
$QTEXTMODE
 70
     0
  9
$MIRRTEXT
 70
     1
  9
$LTSCALE
 40
1.0
  9
$ATTMODE
 70
     1
  9
$TEXTSIZE
 40
3.5
  9
$TRACEWID
 40
1.0
  9
$TEXTSTYLE
  7
Standard
  9
$CLAYER
  8
0
  9
$CELTYPE
  6
ByLayer
  9
$CECOLOR
 62
   256
  9
$CELTSCALE
 40
1.0
  9
$DISPSILH
 70
     0
  9
$DIMSCALE
 40
1.0
  9
$DIMASZ
 40
3.302
  9
$DIMEXO
 40
1.0
  9
$DIMDLI
 40
3.75
  9
$DIMRND
 40
0.0
  9
$DIMDLE
 40
0.0
  9
$DIMEXE
 40
1.0
  9
$DIMTP
 40
0.0
  9
$DIMTM
 40
0.0
  9
$DIMTXT
 40
3.5
  9
$DIMCEN
 40
2.5
  9
$DIMTSZ
 40
0.0
  9
$DIMTOL
 70
     0
  9
$DIMLIM
 70
     0
  9
$DIMTIH
 70
     1
  9
$DIMTOH
 70
     1
  9
$DIMSE1
 70
     0
  9
$DIMSE2
 70
     0
  9
$DIMTAD
 70
     1
  9
$DIMZIN
 70
     1
  9
$DIMBLK
  1

  9
$DIMASO
 70
     1
  9
$DIMSHO
 70
     1
  9
$DIMPOST
  1

  9
$DIMAPOST
  1

  9
$DIMALT
 70
     0
  9
$DIMALTD
 70
     3
  9
$DIMALTF
 40
0.0393700787
  9
$DIMLFAC
 40
1.0
  9
$DIMTOFL
 70
     1
  9
$DIMTVP
 40
0.0
  9
$DIMTIX
 70
     0
  9
$DIMSOXD
 70
     0
  9
$DIMSAH
 70
     0
  9
$DIMBLK1
  1

  9
$DIMBLK2
  1

  9
$DIMSTYLE
  2
ISO-25
  9
$DIMCLRD
 70
     0
  9
$DIMCLRE
 70
     0
  9
$DIMCLRT
 70
     0
  9
$DIMTFAC
 40
1.0
  9
$DIMGAP
 40
1.524
  9
$DIMJUST
 70
     0
  9
$DIMSD1
 70
     0
  9
$DIMSD2
 70
     0
  9
$DIMTOLJ
 70
     0
  9
$DIMTZIN
 70
     1
  9
$DIMALTZ
 70
     0
  9
$DIMALTTZ
 70
     0
  9
$DIMUPT
 70
     0
  9
$DIMDEC
 70
     2
  9
$DIMTDEC
 70
     2
  9
$DIMALTU
 70
     2
  9
$DIMALTTD
 70
     3
  9
$DIMTXSTY
  7
Standard
  9
$DIMAUNIT
 70
     0
  9
$DIMADEC
 70
     2
  9
$DIMALTRND
 40
0.0
  9
$DIMAZIN
 70
     0
  9
$DIMDSEP
 70
    44
  9
$DIMATFIT
 70
     3
  9
$DIMFRAC
 70
     0
  9
$DIMLDRBLK
  1

  9
$DIMLUNIT
 70
     2
  9
$DIMLWD
 70
    -2
  9
$DIMLWE
 70
    -2
  9
$DIMTMOVE
 70
     0
  9
$LUNITS
 70
     2
  9
$LUPREC
 70
     2
  9
$SKETCHINC
 40
1.0
  9
$FILLETRAD
 40
10.0
  9
$AUNITS
 70
     0
  9
$AUPREC
 70
     2
  9
$MENU
  1
.
  9
$ELEVATION
 40
0.0
  9
$PELEVATION
 40
0.0
  9
$THICKNESS
 40
0.0
  9
$LIMCHECK
 70
     0
  9
$CHAMFERA
 40
0.0
  9
$CHAMFERB
 40
0.0
  9
$CHAMFERC
 40
0.0
  9
$CHAMFERD
 40
0.0
  9
$SKPOLY
 70
     0
  9
$TDCREATE
 40
2460663.418150289
  9
$TDUCREATE
 40
2460663.376483622
  9
$TDUPDATE
 40
2460663.418153009
  9
$TDUUPDATE
 40
2460663.376486342
  9
$TDINDWG
 40
0.0000000116
  9
$TDUSRTIMER
 40
0.0000000116
  9
$USRTIMER
 70
     1
  9
$ANGBASE
 50
0.0
  9
$ANGDIR
 70
     0
  9
$PDMODE
 70
     0
  9
$PDSIZE
 40
-1.0
  9
$PLINEWID
 40
0.0
  9
$SPLFRAME
 70
     0
  9
$SPLINETYPE
 70
     6
  9
$SPLINESEGS
 70
     8
  9
$HANDSEED
  5
351
  9
$SURFTAB1
 70
     6
  9
$SURFTAB2
 70
     6
  9
$SURFTYPE
 70
     6
  9
$SURFU
 70
     6
  9
$SURFV
 70
     6
  9
$UCSBASE
  2

  9
$UCSNAME
  2

  9
$UCSORG
 10
0.0
 20
0.0
 30
0.0
  9
$UCSXDIR
 10
1.0
 20
0.0
 30
0.0
  9
$UCSYDIR
 10
0.0
 20
1.0
 30
0.0
  9
$UCSORTHOREF
  2

  9
$UCSORTHOVIEW
 70
     0
  9
$UCSORGTOP
 10
0.0
 20
0.0
 30
0.0
  9
$UCSORGBOTTOM
 10
0.0
 20
0.0
 30
0.0
  9
$UCSORGLEFT
 10
0.0
 20
0.0
 30
0.0
  9
$UCSORGRIGHT
 10
0.0
 20
0.0
 30
0.0
  9
$UCSORGFRONT
 10
0.0
 20
0.0
 30
0.0
  9
$UCSORGBACK
 10
0.0
 20
0.0
 30
0.0
  9
$PUCSBASE
  2

  9
$PUCSNAME
  2

  9
$PUCSORG
 10
0.0
 20
0.0
 30
0.0
  9
$PUCSXDIR
 10
1.0
 20
0.0
 30
0.0
  9
$PUCSYDIR
 10
0.0
 20
1.0
 30
0.0
  9
$PUCSORTHOREF
  2

  9
$PUCSORTHOVIEW
 70
     0
  9
$PUCSORGTOP
 10
0.0
 20
0.0
 30
0.0
  9
$PUCSORGBOTTOM
 10
0.0
 20
0.0
 30
0.0
  9
$PUCSORGLEFT
 10
0.0
 20
0.0
 30
0.0
  9
$PUCSORGRIGHT
 10
0.0
 20
0.0
 30
0.0
  9
$PUCSORGFRONT
 10
0.0
 20
0.0
 30
0.0
  9
$PUCSORGBACK
 10
0.0
 20
0.0
 30
0.0
  9
$USERI1
 70
     0
  9
$USERI2
 70
     0
  9
$USERI3
 70
     0
  9
$USERI4
 70
     0
  9
$USERI5
 70
     0
  9
$USERR1
 40
0.0
  9
$USERR2
 40
0.0
  9
$USERR3
 40
0.0
  9
$USERR4
 40
0.0
  9
$USERR5
 40
0.0
  9
$WORLDVIEW
 70
     1
  9
$SHADEDGE
 70
     3
  9
$SHADEDIF
 70
    70
  9
$TILEMODE
 70
     1
  9
$MAXACTVP
 70
    64
  9
$PINSBASE
 10
0.0
 20
0.0
 30
0.0
  9
$PLIMCHECK
 70
     0
  9
$PEXTMIN
 10
1.0000000000E+20
 20
1.0000000000E+20
 30
1.0000000000E+20
  9
$PEXTMAX
 10
-1.0000000000E+20
 20
-1.0000000000E+20
 30
-1.0000000000E+20
  9
$PLIMMIN
 10
0.0
 20
0.0
  9
$PLIMMAX
 10
420.0
 20
297.0
  9
$UNITMODE
 70
     0
  9
$VISRETAIN
 70
     1
  9
$PLINEGEN
 70
     0
  9
$PSLTSCALE
 70
     1
  9
$TREEDEPTH
 70
  3020
  9
$CMLSTYLE
  2
Standard
  9
$CMLJUST
 70
     0
  9
$CMLSCALE
 40
20.0
  9
$PROXYGRAPHICS
 70
     1
  9
$MEASUREMENT
 70
     1
  9
$CELWEIGHT
370
    -1
  9
$ENDCAPS
280
     0
  9
$JOINSTYLE
280
     0
  9
$LWDISPLAY
290
     1
  9
$INSUNITS
 70
     4
  9
$HYPERLINKBASE
  1

  9
$STYLESHEET
  1

  9
$XEDIT
290
     1
  9
$CEPSNTYPE
380
     0
  9
$PSTYLEMODE
290
     1
  9
$FINGERPRINTGUID
  2
{d7e05ebc-0bd4-4348-8273-ec17e0bc0984}
  9
$VERSIONGUID
  2
{FAEB1C32-E019-11D5-929B-00C0DF256EC4}
  9
$EXTNAMES
290
     1
  9
$PSVPSCALE
 40
0.0
  9
$OLESTARTUP
290
     0
  0
ENDSEC
  0
SECTION
  2
CLASSES
  0
CLASS
  1
ACDBDICTIONARYWDFLT
  2
AcDbDictionaryWithDefault
  3
ObjectDBX Classes
 90
        0
280
     0
281
     0
  0
CLASS
  1
VISUALSTYLE
  2
AcDbVisualStyle
  3
ObjectDBX Classes
 90
     4095
280
     0
281
     0
  0
CLASS
  1
MATERIAL
  2
AcDbMaterial
  3
ObjectDBX Classes
 90
     1153
280
     0
281
     0
  0
CLASS
  1
SCALE
  2
AcDbScale
  3
ObjectDBX Classes
 90
     1153
280
     0
281
     0
  0
CLASS
  1
TABLESTYLE
  2
AcDbTableStyle
  3
ObjectDBX Classes
 90
     4095
280
     0
281
     0
  0
CLASS
  1
MLEADERSTYLE
  2
AcDbMLeaderStyle
  3
ACDB_MLEADERSTYLE_CLASS
 90
     4095
280
     0
281
     0
  0
CLASS
  1
SUN
  2
AcDbSun
  3
SCENEOE
 90
     1153
280
     0
281
     0
  0
CLASS
  1
ACDBPLACEHOLDER
  2
AcDbPlaceHolder
  3
ObjectDBX Classes
 90
        0
280
     0
281
     0
  0
CLASS
  1
LAYOUT
  2
AcDbLayout
  3
ObjectDBX Classes
 90
        0
280
     0
281
     0
  0
ENDSEC
  0
SECTION
  2
TABLES
  0
TABLE
  2
VPORT
  5
8
330
0
100
AcDbSymbolTable
 70
     1
  0
VPORT
  5
29
330
8
100
AcDbSymbolTableRecord
100
AcDbViewportTableRecord
  2
*Active
 70
     0
 10
0.0
 20
0.0
 11
1.0
 21
1.0
 12
210.0
 22
148.5
 13
0.0
 23
0.0
 14
10.0
 24
10.0
 15
10.0
 25
10.0
 16
0.0
 26
0.0
 36
1.0
 17
0.0
 27
0.0
 37
0.0
 40
297.0
 41
1.4141414141
 42
50.0
 43
0.0
 44
0.0
 50
0.0
 51
0.0
 71
     0
 72
  2000
 73
     1
 74
     3
 75
     0
 76
     0
 77
     0
 78
     0
281
     0
 65
     1
110
0.0
120
0.0
130
0.0
111
1.0
121
0.0
131
0.0
112
0.0
122
1.0
132
0.0
 79
     0
146
0.0
  0
ENDTAB
  0
TABLE
  2
LTYPE
  5
5
330
0
100
AcDbSymbolTable
 70
     6
  0
LTYPE
  5
14
330
5
100
AcDbSymbolTableRecord
100
AcDbLinetypeTableRecord
  2
ByBlock
 70
     0
  3

 72
    65
 73
     0
 40
0.0
  0
LTYPE
  5
15
330
5
100
AcDbSymbolTableRecord
100
AcDbLinetypeTableRecord
  2
ByLayer
 70
     0
  3

 72
    65
 73
     0
 40
0.0
  0
LTYPE
  5
16
330
5
100
AcDbSymbolTableRecord
100
AcDbLinetypeTableRecord
  2
Continuous
 70
     0
  3
Solid line
 72
    65
 73
     0
 40
0.0
  0
LTYPE
  5
6E
330
5
100
AcDbSymbolTableRecord
100
AcDbLinetypeTableRecord
  2
HIDDEN
 70
     0
  3
Hidden __ __ __ __ __ __ __ __ __ __ __ __ __ __
 72
    65
 73
     2
 40
1.905
 49
1.27
 74
     0
 49
-0.635
 74
     0
  0
LTYPE
  5
6F
330
5
100
AcDbSymbolTableRecord
100
AcDbLinetypeTableRecord
  2
PHANTOM
 70
     0
  3
Phantom ______  __  __  ______  __  __  ______
 72
    65
 73
     6
 40
12.7
 49
6.35
 74
     0
 49
-1.27
 74
     0
 49
1.27
 74
     0
 49
-1.27
 74
     0
 49
1.27
 74
     0
 49
-1.27
 74
     0
  0
LTYPE
  5
70
330
5
100
AcDbSymbolTableRecord
100
AcDbLinetypeTableRecord
  2
CENTER
 70
     0
  3
Center ____ _ ____ _ ____ _ ____ _ ____ _ ____
 72
    65
 73
     4
 40
10.16
 49
6.35
 74
     0
 49
-1.27
 74
     0
 49
1.27
 74
     0
 49
-1.27
 74
     0
  0
LTYPE
  5
71
330
5
100
AcDbSymbolTableRecord
100
AcDbLinetypeTableRecord
  2
CENTERX2
 70
     0
  3
Center (2x) ________  __  ________  __  _____
 72
    65
 73
     4
 40
20.32
 49
12.7
 74
     0
 49
-2.54
 74
     0
 49
2.54
 74
     0
 49
-2.54
 74
     0
  0
LTYPE
  5
72
330
5
100
AcDbSymbolTableRecord
100
AcDbLinetypeTableRecord
  2
DOT2
 70
     0
  3
Dot (.5x) ........................................
 72
    65
 73
     2
 40
0.635
 49
0.0
 74
     0
 49
-0.635
 74
     0
  0
ENDTAB
  0
TABLE
  2
LAYER
  5
2
330
0
100
AcDbSymbolTable
 70
     2
  0
LAYER
  5
10
330
2
100
AcDbSymbolTableRecord
100
AcDbLayerTableRecord
  2
0
 70
     0
 62
     7
  6
Continuous
370
    -3
390
F
  0
LAYER
  5
73
330
2
100
AcDbSymbolTableRecord
100
AcDbLayerTableRecord
  2
FORMAT
 70
     0
 62
     7
  6
Continuous
370
    -3
390
F
  0
ENDTAB
  0
TABLE
  2
STYLE
  5
3
330
0
100
AcDbSymbolTable
 70
     4
  0
STYLE
  5
11
330
3
100
AcDbSymbolTableRecord
100
AcDbTextStyleTableRecord
  2
Standard
 70
     0
 40
0.0
 41
1.0
 50
0.0
 71
     0
 42
3.5
  3
txt
  4

  0
STYLE
  5
B1
330
3
100
AcDbSymbolTableRecord
100
AcDbTextStyleTableRecord
  2
SLDTEXTSTYLE0
 70
     0
 40
0.0
 41
0.75
 50
0.0
 71
     0
 42
3.5
  3
TXT
  4

  0
STYLE
  5
B5
330
3
100
AcDbSymbolTableRecord
100
AcDbTextStyleTableRecord
  2
SLDTEXTSTYLE1
 70
     0
 40
0.0
 41
0.6875
 50
0.0
 71
     0
 42
3.5
  3
TXT
  4
bigfont
  0
STYLE
  5
B7
330
3
100
AcDbSymbolTableRecord
100
AcDbTextStyleTableRecord
  2
SLDTEXTSTYLE2
 70
     0
 40
0.0
 41
0.75
 50
0.0
 71
     0
 42
3.5
  3
TXT
  4
bigfont
  0
ENDTAB
  0
TABLE
  2
VIEW
  5
6
330
0
100
AcDbSymbolTable
 70
     0
  0
ENDTAB
  0
TABLE
  2
UCS
  5
7
330
0
100
AcDbSymbolTable
 70
     0
  0
ENDTAB
  0
TABLE
  2
APPID
  5
9
330
0
100
AcDbSymbolTable
 70
     1
  0
APPID
  5
12
330
9
100
AcDbSymbolTableRecord
100
AcDbRegAppTableRecord
  2
ACAD
 70
     0
  0
ENDTAB
  0
TABLE
  2
DIMSTYLE
  5
A
330
0
100
AcDbSymbolTable
 70
     6
100
AcDbDimStyleTable
  0
DIMSTYLE
105
27
330
A
100
AcDbSymbolTableRecord
100
AcDbDimStyleTableRecord
  2
ISO-25
 70
     0
 41
2.5
 42
0.625
 43
3.75
 44
1.25
 73
     0
 74
     0
 77
     1
 78
     8
140
2.5
141
2.5
143
0.0393700787
147
0.625
171
     3
172
     1
178
     0
271
     2
272
     2
274
     3
278
    44
283
     0
284
     8
340
11
  0
DIMSTYLE
105
13D
102
{ACAD_REACTORS
330
13C
330
152
330
15C
330
306
330
310
102
}
330
A
100
AcDbSymbolTableRecord
100
AcDbDimStyleTableRecord
  2
SLDDIMSTYLE0
 70
     0
 41
3.302
 44
0.0
 45
0.000000001
 73
     0
 74
     0
 77
     1
 78
    12
 79
     3
140
3.5
147
0.875
173
     1
178
     0
271
     0
272
     0
276
     2
284
    12
340
B1
  0
DIMSTYLE
105
148
102
{ACAD_REACTORS
330
147
102
}
330
A
100
AcDbSymbolTableRecord
100
AcDbDimStyleTableRecord
  2
SLDDIMSTYLE1
 70
     0
 41
3.302
 44
0.0
 45
0.000000001
 73
     0
 74
     0
 77
     1
 78
    12
 79
     3
140
3.5
147
0.875
173
     1
178
     0
271
     0
272
     2
276
     2
284
    12
340
B1
  0
DIMSTYLE
105
167
102
{ACAD_REACTORS
330
166
330
173
102
}
330
A
100
AcDbSymbolTableRecord
100
AcDbDimStyleTableRecord
  2
SLDDIMSTYLE2
 70
     0
 41
3.302
 44
0.0
 45
0.000000001
 73
     0
 74
     0
 77
     1
 78
    12
 79
     3
140
3.5
141
0.0
147
0.875
172
     1
173
     1
178
     0
271
     0
272
     0
276
     2
284
    12
340
B1
341
168
343
168
  0
DIMSTYLE
105
31B
102
{ACAD_REACTORS
330
31A
330
336
102
}
330
A
100
AcDbSymbolTableRecord
100
AcDbDimStyleTableRecord
  2
SLDDIMSTYLE3
 70
     0
 41
3.302
 44
0.0
 45
0.000000001
 73
     0
 74
     0
 77
     1
 78
    12
 79
     3
140
3.5
147
0.875
172
     1
173
     1
178
     0
271
     1
272
     1
276
     2
284
    12
289
     0
340
B1
  0
DIMSTYLE
105
329
102
{ACAD_REACTORS
330
328
102
}
330
A
100
AcDbSymbolTableRecord
100
AcDbDimStyleTableRecord
  2
SLDDIMSTYLE4
 70
     0
 41
3.302
 44
0.0
 45
0.000000001
 73
     0
 74
     0
 77
     1
 78
    12
 79
     3
140
3.5
147
0.875
172
     1
173
     1
178
     0
271
     0
272
     0
276
     2
284
    12
289
     0
340
B1
  0
ENDTAB
  0
TABLE
  2
BLOCK_RECORD
  5
1
330
0
100
AcDbSymbolTable
 70
    25
  0
BLOCK_RECORD
  5
1F
330
1
100
AcDbSymbolTableRecord
100
AcDbBlockTableRecord
  2
*Model_Space
340
22
  0
BLOCK_RECORD
  5
1B
330
1
100
AcDbSymbolTableRecord
100
AcDbBlockTableRecord
  2
*Paper_Space
340
1E
  0
BLOCK_RECORD
  5
23
330
1
100
AcDbSymbolTableRecord
100
AcDbBlockTableRecord
  2
*Paper_Space0
340
26
  0
BLOCK_RECORD
  5
C1
330
1
100
AcDbSymbolTableRecord
100
AcDbBlockTableRecord
  2
SW_NOTE_0
340
0
102
{BLKREFS
331
C6
102
}
  0
BLOCK_RECORD
  5
C8
330
1
100
AcDbSymbolTableRecord
100
AcDbBlockTableRecord
  2
SW_NOTE_0_1
340
0
102
{BLKREFS
331
D1
102
}
  0
BLOCK_RECORD
  5
13E
330
1
100
AcDbSymbolTableRecord
100
AcDbBlockTableRecord
  2
_D
340
0
  0
BLOCK_RECORD
  5
149
330
1
100
AcDbSymbolTableRecord
100
AcDbBlockTableRecord
  2
_D_1
340
0
  0
BLOCK_RECORD
  5
153
330
1
100
AcDbSymbolTableRecord
100
AcDbBlockTableRecord
  2
_D_2
340
0
  0
BLOCK_RECORD
  5
15D
330
1
100
AcDbSymbolTableRecord
100
AcDbBlockTableRecord
  2
_D_3
340
0
  0
BLOCK_RECORD
  5
168
330
1
100
AcDbSymbolTableRecord
100
AcDbBlockTableRecord
  2
_None
340
0
  0
BLOCK_RECORD
  5
16B
330
1
100
AcDbSymbolTableRecord
100
AcDbBlockTableRecord
  2
_D_4
340
0
  0
BLOCK_RECORD
  5
174
330
1
100
AcDbSymbolTableRecord
100
AcDbBlockTableRecord
  2
_D_5
340
0
  0
BLOCK_RECORD
  5
17E
330
1
100
AcDbSymbolTableRecord
100
AcDbBlockTableRecord
  2
SW_CENTERMARKSYMBOL_0
340
0
102
{BLKREFS
331
189
102
}
  0
BLOCK_RECORD
  5
18A
330
1
100
AcDbSymbolTableRecord
100
AcDbBlockTableRecord
  2
SW_CENTERMARKSYMBOL_1
340
0
102
{BLKREFS
331
195
102
}
  0
BLOCK_RECORD
  5
196
330
1
100
AcDbSymbolTableRecord
100
AcDbBlockTableRecord
  2
SW_CENTERMARKSYMBOL_2
340
0
102
{BLKREFS
331
1A1
102
}
  0
BLOCK_RECORD
  5
1A2
330
1
100
AcDbSymbolTableRecord
100
AcDbBlockTableRecord
  2
SW_CENTERMARKSYMBOL_3
340
0
102
{BLKREFS
331
1AD
102
}
  0
BLOCK_RECORD
  5
1AE
330
1
100
AcDbSymbolTableRecord
100
AcDbBlockTableRecord
  2
SW_CENTERMARKSYMBOL_4
340
0
102
{BLKREFS
331
1B9
102
}
  0
BLOCK_RECORD
  5
1DC
330
1
100
AcDbSymbolTableRecord
100
AcDbBlockTableRecord
  2
SW_CENTERMARKSYMBOL_5
340
0
102
{BLKREFS
331
1E7
102
}
  0
BLOCK_RECORD
  5
1E8
330
1
100
AcDbSymbolTableRecord
100
AcDbBlockTableRecord
  2
SW_CENTERMARKSYMBOL_6
340
0
102
{BLKREFS
331
1F3
102
}
  0
BLOCK_RECORD
  5
1F4
330
1
100
AcDbSymbolTableRecord
100
AcDbBlockTableRecord
  2
SW_CENTERMARKSYMBOL_7
340
0
102
{BLKREFS
331
1FF
102
}
  0
BLOCK_RECORD
  5
200
330
1
100
AcDbSymbolTableRecord
100
AcDbBlockTableRecord
  2
SW_CENTERMARKSYMBOL_8
340
0
102
{BLKREFS
331
20B
102
}
  0
BLOCK_RECORD
  5
307
330
1
100
AcDbSymbolTableRecord
100
AcDbBlockTableRecord
  2
_D_6
340
0
  0
BLOCK_RECORD
  5
311
330
1
100
AcDbSymbolTableRecord
100
AcDbBlockTableRecord
  2
_D_7
340
0
  0
BLOCK_RECORD
  5
31C
330
1
100
AcDbSymbolTableRecord
100
AcDbBlockTableRecord
  2
_D_8
340
0
  0
BLOCK_RECORD
  5
32A
330
1
100
AcDbSymbolTableRecord
100
AcDbBlockTableRecord
  2
_D_9
340
0
  0
BLOCK_RECORD
  5
337
330
1
100
AcDbSymbolTableRecord
100
AcDbBlockTableRecord
  2
_D_10
340
0
  0
BLOCK_RECORD
  5
340
330
1
100
AcDbSymbolTableRecord
100
AcDbBlockTableRecord
  2
SW_CENTERMARKSYMBOL_9
340
0
102
{BLKREFS
331
34B
102
}
  0
ENDTAB
  0
ENDSEC
  0
SECTION
  2
BLOCKS
  0
BLOCK
  5
20
330
1F
100
AcDbEntity
  8
0
100
AcDbBlockBegin
  2
*Model_Space
 70
     0
 10
0.0
 20
0.0
 30
0.0
  3
*Model_Space
  1

  0
ENDBLK
  5
21
330
1F
100
AcDbEntity
  8
0
100
AcDbBlockEnd
  0
BLOCK
  5
1C
330
1B
100
AcDbEntity
 67
     1
  8
0
100
AcDbBlockBegin
  2
*Paper_Space
 70
     0
 10
0.0
 20
0.0
 30
0.0
  3
*Paper_Space
  1

  0
ENDBLK
  5
1D
330
1B
100
AcDbEntity
 67
     1
  8
0
100
AcDbBlockEnd
  0
BLOCK
  5
24
330
23
100
AcDbEntity
  8
0
100
AcDbBlockBegin
  2
*Paper_Space0
 70
     0
 10
0.0
 20
0.0
 30
0.0
  3
*Paper_Space0
  1

  0
ENDBLK
  5
25
330
23
100
AcDbEntity
  8
0
100
AcDbBlockEnd
  0
BLOCK
  5
C2
330
C1
100
AcDbEntity
  8
0
100
AcDbBlockBegin
  2
SW_NOTE_0
 70
     0
 10
0.0
 20
0.0
 30
0.0
  3
SW_NOTE_0
  1

  0
MTEXT
  5
C4
330
C1
100
AcDbEntity
  8
0
  6
Continuous
 62
     0
370
     0
100
AcDbMText
 10
0.0
 20
1.9336016097
 30
0.0
 40
1.5
 41
0.0
 71
     1
 72
     1
  1
ODSTRANIT
  7
SLDTEXTSTYLE0
 73
     1
 44
1.0
  0
MTEXT
  5
C5
330
C1
100
AcDbEntity
  8
0
  6
Continuous
 62
     0
370
     0
100
AcDbMText
 10
0.0
 20
-0.5663983345
 30
0.0
 40
1.5
 41
0.0
 71
     1
 72
     1
  1
OSTRÉ HRANY
  7
SLDTEXTSTYLE0
 73
     1
 44
1.0
  0
ENDBLK
  5
C3
330
C1
100
AcDbEntity
  8
0
100
AcDbBlockEnd
  0
BLOCK
  5
C9
330
C8
100
AcDbEntity
  8
0
100
AcDbBlockBegin
  2
SW_NOTE_0_1
 70
     0
 10
0.0
 20
0.0
 30
0.0
  3
SW_NOTE_0_1
  1

  0
MTEXT
  5
CB
330
C8
100
AcDbEntity
  8
0
  6
Continuous
 62
     0
370
     0
100
AcDbMText
 10
0.0
 20
1.9336016097
 30
0.0
 40
1.5
 41
0.0
 71
     1
 72
     1
  1
POKUD NENÍ UVEDENO JINAK:
  7
SLDTEXTSTYLE0
 73
     1
 44
1.0
  0
MTEXT
  5
CC
330
C8
100
AcDbEntity
  8
0
  6
Continuous
 62
     0
370
     0
100
AcDbMText
 10
0.0
 20
-0.5663983345
 30
0.0
 40
1.5
 41
0.0
 71
     1
 72
     1
  1
JEDNOTKY JSOU V MILIMETRECH
  7
SLDTEXTSTYLE0
 73
     1
 44
1.0
  0
MTEXT
  5
CD
330
C8
100
AcDbEntity
  8
0
  6
Continuous
 62
     0
370
     0
100
AcDbMText
 10
0.0
 20
-3.0663982786
 30
0.0
 40
1.5
 41
0.0
 71
     1
 72
     1
  1
DRSNOST:
  7
SLDTEXTSTYLE0
 73
     1
 44
1.0
  0
MTEXT
  5
CE
330
C8
100
AcDbEntity
  8
0
  6
Continuous
 62
     0
370
     0
100
AcDbMText
 10
0.0
 20
-5.5663982227
 30
0.0
 40
1.5
 41
0.0
 71
     1
 72
     1
  1
TOLERANCE:
  7
SLDTEXTSTYLE0
 73
     1
 44
1.0
  0
MTEXT
  5
CF
330
C8
100
AcDbEntity
  8
0
  6
Continuous
 62
     0
370
     0
100
AcDbMText
 10
1.6875
 20
-8.0663981668
 30
0.0
 40
1.5
 41
0.0
 71
     1
 72
     1
  1
LINEÁRNÍ:
  7
SLDTEXTSTYLE0
 73
     1
 44
1.0
  0
MTEXT
  5
D0
330
C8
100
AcDbEntity
  8
0
  6
Continuous
 62
     0
370
     0
100
AcDbMText
 10
1.6875
 20
-10.5663981109
 30
0.0
 40
1.5
 41
0.0
 71
     1
 72
     1
  1
ÚHLOVÁ:
  7
SLDTEXTSTYLE0
 73
     1
 44
1.0
  0
ENDBLK
  5
CA
330
C8
100
AcDbEntity
  8
0
100
AcDbBlockEnd
  0
BLOCK
  5
13F
330
13E
100
AcDbEntity
  8
0
100
AcDbBlockBegin
  2
_D
 70
     0
 10
0.0
 20
0.0
 30
0.0
  3
_D
  1

  0
SOLID
  5
141
330
13E
100
AcDbEntity
  8
0
  6
Continuous
 62
     7
370
    18
100
AcDbTrace
 10
93.44
 20
182.16
 30
0.0
 11
96.742
 21
181.652
 31
0.0
 12
96.742
 22
182.668
 32
0.0
 13
96.742
 23
182.668
 33
0.0
  0
SOLID
  5
142
330
13E
100
AcDbEntity
  8
0
  6
Continuous
 62
     7
370
    18
100
AcDbTrace
 10
143.44
 20
182.16
 30
0.0
 11
140.138
 21
182.668
 31
0.0
 12
140.138
 22
181.652
 32
0.0
 13
140.138
 23
181.652
 33
0.0
  0
LINE
  5
143
330
13E
100
AcDbEntity
  8
0
  6
Continuous
 62
     7
370
     0
100
AcDbLine
 10
93.44
 20
191.91
 30
0.0
 11
93.44
 21
181.16
 31
0.0
  0
LINE
  5
144
330
13E
100
AcDbEntity
  8
0
  6
Continuous
 62
     7
370
     0
100
AcDbLine
 10
143.44
 20
191.91
 30
0.0
 11
143.44
 21
181.16
 31
0.0
  0
LINE
  5
145
330
13E
100
AcDbEntity
  8
0
  6
Continuous
 62
     7
370
     0
100
AcDbLine
 10
93.44
 20
182.16
 30
0.0
 11
143.44
 21
182.16
 31
0.0
  0
MTEXT
  5
146
330
13E
100
AcDbEntity
  8
0
  6
Continuous
 62
     7
370
    18
100
AcDbMText
 10
115.8538888065
 20
186.6717369146
 30
0.0
 40
3.5
 41
0.0
 71
     1
 72
     1
  1
50
  7
SLDTEXTSTYLE0
 73
     1
 44
1.0
  0
ENDBLK
  5
140
330
13E
100
AcDbEntity
  8
0
100
AcDbBlockEnd
  0
BLOCK
  5
14A
330
149
100
AcDbEntity
  8
0
100
AcDbBlockBegin
  2
_D_1
 70
     0
 10
0.0
 20
0.0
 30
0.0
  3
_D_1
  1

  0
SOLID
  5
14C
330
149
100
AcDbEntity
  8
0
  6
Continuous
 62
     7
370
    18
100
AcDbTrace
 10
150.94
 20
176.16
 30
0.0
 11
147.638
 21
176.668
 31
0.0
 12
147.638
 22
175.652
 32
0.0
 13
147.638
 23
175.652
 33
0.0
  0
SOLID
  5
14D
330
149
100
AcDbEntity
  8
0
  6
Continuous
 62
     7
370
    18
100
AcDbTrace
 10
85.94
 20
176.16
 30
0.0
 11
89.242
 21
175.652
 31
0.0
 12
89.242
 22
176.668
 32
0.0
 13
89.242
 23
176.668
 33
0.0
  0
LINE
  5
14E
330
149
100
AcDbEntity
  8
0
  6
Continuous
 62
     7
370
     0
100
AcDbLine
 10
150.94
 20
194.16
 30
0.0
 11
150.94
 21
175.16
 31
0.0
  0
LINE
  5
14F
330
149
100
AcDbEntity
  8
0
  6
Continuous
 62
     7
370
     0
100
AcDbLine
 10
85.94
 20
194.16
 30
0.0
 11
85.94
 21
175.16
 31
0.0
  0
LINE
  5
150
330
149
100
AcDbEntity
  8
0
  6
Continuous
 62
     7
370
     0
100
AcDbLine
 10
150.94
 20
176.16
 30
0.0
 11
85.94
 21
176.16
 31
0.0
  0
MTEXT
  5
151
330
149
100
AcDbEntity
  8
0
  6
Continuous
 62
     7
370
    18
100
AcDbMText
 10
115.8538888065
 20
180.6717369146
 30
0.0
 40
3.5
 41
0.0
 71
     1
 72
     1
  1
65
  7
SLDTEXTSTYLE0
 73
     1
 44
1.0
  0
ENDBLK
  5
14B
330
149
100
AcDbEntity
  8
0
100
AcDbBlockEnd
  0
BLOCK
  5
154
330
153
100
AcDbEntity
  8
0
100
AcDbBlockBegin
  2
_D_2
 70
     0
 10
0.0
 20
0.0
 30
0.0
  3
_D_2
  1

  0
SOLID
  5
156
330
153
100
AcDbEntity
  8
0
  6
Continuous
 62
     7
370
    18
100
AcDbTrace
 10
160.94
 20
199.66
 30
0.0
 11
161.448
 21
202.962
 31
0.0
 12
160.432
 22
202.962
 32
0.0
 13
160.432
 23
202.962
 33
0.0
  0
SOLID
  5
157
330
153
100
AcDbEntity
  8
0
  6
Continuous
 62
     7
370
    18
100
AcDbTrace
 10
160.94
 20
229.66
 30
0.0
 11
160.432
 21
226.358
 31
0.0
 12
161.448
 22
226.358
 32
0.0
 13
161.448
 23
226.358
 33
0.0
  0
LINE
  5
158
330
153
100
AcDbEntity
  8
0
  6
Continuous
 62
     7
370
     0
100
AcDbLine
 10
151.19
 20
199.66
 30
0.0
 11
161.94
 21
199.66
 31
0.0
  0
LINE
  5
159
330
153
100
AcDbEntity
  8
0
  6
Continuous
 62
     7
370
     0
100
AcDbLine
 10
151.19
 20
229.66
 30
0.0
 11
161.94
 21
229.66
 31
0.0
  0
LINE
  5
15A
330
153
100
AcDbEntity
  8
0
  6
Continuous
 62
     7
370
     0
100
AcDbLine
 10
160.94
 20
199.66
 30
0.0
 11
160.94
 21
229.66
 31
0.0
  0
MTEXT
  5
15B
330
153
100
AcDbEntity
  8
0
  6
Continuous
 62
     7
370
    18
100
AcDbMText
 10
156.4282630854
 20
212.0738888065
 30
0.0
 40
3.5
 41
0.0
 71
     1
 72
     1
  1
30
  7
SLDTEXTSTYLE0
 11
6.123233995736766E-17
 21
1.0
 31
0.0
 73
     1
 44
1.0
  0
ENDBLK
  5
155
330
153
100
AcDbEntity
  8
0
100
AcDbBlockEnd
  0
BLOCK
  5
15E
330
15D
100
AcDbEntity
  8
0
100
AcDbBlockBegin
  2
_D_3
 70
     0
 10
0.0
 20
0.0
 30
0.0
  3
_D_3
  1

  0
SOLID
  5
160
330
15D
100
AcDbEntity
  8
0
  6
Continuous
 62
     7
370
    18
100
AcDbTrace
 10
166.94
 20
192.16
 30
0.0
 11
167.448
 21
195.462
 31
0.0
 12
166.432
 22
195.462
 32
0.0
 13
166.432
 23
195.462
 33
0.0
  0
SOLID
  5
161
330
15D
100
AcDbEntity
  8
0
  6
Continuous
 62
     7
370
    18
100
AcDbTrace
 10
166.94
 20
237.16
 30
0.0
 11
166.432
 21
233.858
 31
0.0
 12
167.448
 22
233.858
 32
0.0
 13
167.448
 23
233.858
 33
0.0
  0
LINE
  5
162
330
15D
100
AcDbEntity
  8
0
  6
Continuous
 62
     7
370
     0
100
AcDbLine
 10
148.94
 20
192.16
 30
0.0
 11
167.94
 21
192.16
 31
0.0
  0
LINE
  5
163
330
15D
100
AcDbEntity
  8
0
  6
Continuous
 62
     7
370
     0
100
AcDbLine
 10
148.94
 20
237.16
 30
0.0
 11
167.94
 21
237.16
 31
0.0
  0
LINE
  5
164
330
15D
100
AcDbEntity
  8
0
  6
Continuous
 62
     7
370
     0
100
AcDbLine
 10
166.94
 20
192.16
 30
0.0
 11
166.94
 21
237.16
 31
0.0
  0
MTEXT
  5
165
330
15D
100
AcDbEntity
  8
0
  6
Continuous
 62
     7
370
    18
100
AcDbMText
 10
162.4282630854
 20
212.0738888065
 30
0.0
 40
3.5
 41
0.0
 71
     1
 72
     1
  1
45
  7
SLDTEXTSTYLE0
 11
-3.828568698926949E-16
 21
1.0
 31
0.0
 73
     1
 44
1.0
  0
ENDBLK
  5
15F
330
15D
100
AcDbEntity
  8
0
100
AcDbBlockEnd
  0
BLOCK
  5
169
330
168
100
AcDbEntity
  8
0
100
AcDbBlockBegin
  2
_None
 70
     0
 10
0.0
 20
0.0
 30
0.0
  3
_None
  1

  0
ENDBLK
  5
16A
330
168
100
AcDbEntity
  8
0
100
AcDbBlockEnd
  0
BLOCK
  5
16C
330
16B
100
AcDbEntity
  8
0
100
AcDbBlockBegin
  2
_D_4
 70
     0
 10
0.0
 20
0.0
 30
0.0
  3
_D_4
  1

  0
SOLID
  5
16E
330
16B
100
AcDbEntity
  8
0
  6
Continuous
 62
     7
370
    18
100
AcDbTrace
 10
115.2226641456
 20
217.8773358544
 30
0.0
 11
113.247007799
 21
220.5714126907
 31
0.0
 12
112.5285873093
 22
219.852992201
 32
0.0
 13
112.5285873093
 23
219.852992201
 33
0.0
  0
LINE
  5
16F
330
16B
100
AcDbEntity
  8
0
  6
Continuous
 62
     7
370
     0
100
AcDbLine
 10
115.2226641456
 20
217.8773358544
 30
0.0
 11
76.3092865024
 21
256.7907134976
 31
0.0
  0
LINE
  5
170
330
16B
100
AcDbEntity
  8
0
  6
Continuous
 62
     7
370
     0
100
AcDbLine
 10
115.2226641456
 20
217.8773358544
 30
0.0
 11
121.6573358544
 21
211.4426641456
 31
0.0
  0
MTEXT
  5
171
330
16B
100
AcDbEntity
  8
0
  6
Continuous
 62
     7
370
    18
100
AcDbMText
 10
79.497058308
 20
259.9784853032
 30
0.0
 40
3.5
 41
0.0
 71
     1
 72
     1
  1
%%c
  7
SLDTEXTSTYLE0
 11
0.7071067811865422
 21
-0.7071067811865528
 31
0.0
 73
     1
 44
1.0
  0
MTEXT
  5
172
330
16B
100
AcDbEntity
  8
0
  6
Continuous
 62
     7
370
    18
100
AcDbMText
 10
83.2672877252
 20
256.2838769635
 30
0.0
 40
3.5
 41
0.0
 71
     1
 72
     1
  1
9
  7
SLDTEXTSTYLE0
 11
0.7071067811865422
 21
-0.7071067811865528
 31
0.0
 73
     1
 44
1.0
  0
ENDBLK
  5
16D
330
16B
100
AcDbEntity
  8
0
100
AcDbBlockEnd
  0
BLOCK
  5
175
330
174
100
AcDbEntity
  8
0
100
AcDbBlockBegin
  2
_D_5
 70
     0
 10
0.0
 20
0.0
 30
0.0
  3
_D_5
  1

  0
SOLID
  5
177
330
174
100
AcDbEntity
  8
0
  6
Continuous
 62
     7
370
    18
100
AcDbTrace
 10
112.0760389693
 20
208.2960389693
 30
0.0
 11
109.381962133
 21
206.3203826227
 31
0.0
 12
110.1003826227
 22
205.601962133
 32
0.0
 13
110.1003826227
 23
205.601962133
 33
0.0
  0
LINE
  5
178
330
174
100
AcDbEntity
  8
0
  6
Continuous
 62
     7
370
     0
100
AcDbLine
 10
112.0760389693
 20
208.2960389693
 30
0.0
 11
93.9788153673
 21
190.1988153673
 31
0.0
  0
LINE
  5
179
330
174
100
AcDbEntity
  8
0
  6
Continuous
 62
     7
370
     0
100
AcDbLine
 10
92.9011846327
 20
189.1211846327
 30
0.0
 11
86.4788153673
 21
182.6988153673
 31
0.0
  0
LINE
  5
17A
330
174
100
AcDbEntity
  8
0
  6
Continuous
 62
     7
370
     0
100
AcDbLine
 10
85.4011846328
 20
181.6211846327
 30
0.0
 11
82.3054824044
 21
178.5254824044
 31
0.0
  0
LINE
  5
17B
330
174
100
AcDbEntity
  8
0
  6
Continuous
 62
     7
370
     0
100
AcDbLine
 10
112.0760389693
 20
208.2960389693
 30
0.0
 11
124.8039610307
 21
221.0239610307
 31
0.0
  0
MTEXT
  5
17C
330
174
100
AcDbEntity
  8
0
  6
Continuous
 62
     7
370
    18
100
AcDbMText
 10
79.1188853417
 20
181.7120794671
 30
0.0
 40
3.5
 41
0.0
 71
     1
 72
     1
  1
%%c
  7
SLDTEXTSTYLE0
 11
0.7071067811865426
 21
0.7071067811865526
 31
0.0
 73
     1
 44
1.0
  0
MTEXT
  5
17D
330
174
100
AcDbEntity
  8
0
  6
Continuous
 62
     7
370
    18
100
AcDbMText
 10
82.8134936815
 20
185.4823088843
 30
0.0
 40
3.5
 41
0.0
 71
     1
 72
     1
  1
18
  7
SLDTEXTSTYLE0
 11
0.7071067811865426
 21
0.7071067811865526
 31
0.0
 73
     1
 44
1.0
  0
ENDBLK
  5
176
330
174
100
AcDbEntity
  8
0
100
AcDbBlockEnd
  0
BLOCK
  5
17F
330
17E
100
AcDbEntity
  8
0
100
AcDbBlockBegin
  2
SW_CENTERMARKSYMBOL_0
 70
     0
 10
0.0
 20
0.0
 30
0.0
  3
SW_CENTERMARKSYMBOL_0
  1

  0
LINE
  5
181
330
17E
100
AcDbEntity
  8
0
  6
Continuous
 62
     0
370
    18
100
AcDbLine
 10
0.0
 20
0.0
 30
0.0
 11
0.0
 21
2.5
 31
0.0
  0
LINE
  5
182
330
17E
100
AcDbEntity
  8
0
  6
Continuous
 62
     0
370
    18
100
AcDbLine
 10
0.0
 20
0.0
 30
0.0
 11
-2.5
 21
0.0
 31
0.0
  0
LINE
  5
183
330
17E
100
AcDbEntity
  8
0
  6
Continuous
 62
     0
370
    18
100
AcDbLine
 10
0.0
 20
0.0
 30
0.0
 11
0.0
 21
-2.5
 31
0.0
  0
LINE
  5
184
330
17E
100
AcDbEntity
  8
0
  6
Continuous
 62
     0
370
    18
100
AcDbLine
 10
0.0
 20
0.0
 30
0.0
 11
2.5
 21
0.0
 31
0.0
  0
LINE
  5
185
330
17E
100
AcDbEntity
  8
0
  6
Continuous
 62
     0
370
    18
100
AcDbLine
 10
0.0
 20
5.0
 30
0.0
 11
0.0
 21
21.5
 31
0.0
  0
LINE
  5
186
330
17E
100
AcDbEntity
  8
0
  6
Continuous
 62
     0
370
    18
100
AcDbLine
 10
-5.0
 20
0.0
 30
0.0
 11
-21.5
 21
0.0
 31
0.0
  0
LINE
  5
187
330
17E
100
AcDbEntity
  8
0
  6
Continuous
 62
     0
370
    18
100
AcDbLine
 10
0.0
 20
-5.0
 30
0.0
 11
0.0
 21
-21.5
 31
0.0
  0
LINE
  5
188
330
17E
100
AcDbEntity
  8
0
  6
Continuous
 62
     0
370
    18
100
AcDbLine
 10
5.0
 20
0.0
 30
0.0
 11
21.5
 21
0.0
 31
0.0
  0
ENDBLK
  5
180
330
17E
100
AcDbEntity
  8
0
100
AcDbBlockEnd
  0
BLOCK
  5
18B
330
18A
100
AcDbEntity
  8
0
100
AcDbBlockBegin
  2
SW_CENTERMARKSYMBOL_1
 70
     0
 10
0.0
 20
0.0
 30
0.0
  3
SW_CENTERMARKSYMBOL_1
  1

  0
LINE
  5
18D
330
18A
100
AcDbEntity
  8
0
  6
Continuous
 62
     0
370
    18
100
AcDbLine
 10
0.0
 20
0.0
 30
0.0
 11
0.0
 21
2.5
 31
0.0
  0
LINE
  5
18E
330
18A
100
AcDbEntity
  8
0
  6
Continuous
 62
     0
370
    18
100
AcDbLine
 10
0.0
 20
0.0
 30
0.0
 11
-2.5
 21
0.0
 31
0.0
  0
LINE
  5
18F
330
18A
100
AcDbEntity
  8
0
  6
Continuous
 62
     0
370
    18
100
AcDbLine
 10
0.0
 20
0.0
 30
0.0
 11
0.0
 21
-2.5
 31
0.0
  0
LINE
  5
190
330
18A
100
AcDbEntity
  8
0
  6
Continuous
 62
     0
370
    18
100
AcDbLine
 10
0.0
 20
0.0
 30
0.0
 11
2.5
 21
0.0
 31
0.0
  0
LINE
  5
191
330
18A
100
AcDbEntity
  8
0
  6
Continuous
 62
     0
370
    18
100
AcDbLine
 10
0.0
 20
5.0
 30
0.0
 11
0.0
 21
6.75
 31
0.0
  0
LINE
  5
192
330
18A
100
AcDbEntity
  8
0
  6
Continuous
 62
     0
370
    18
100
AcDbLine
 10
-5.0
 20
0.0
 30
0.0
 11
-6.75
 21
0.0
 31
0.0
  0
LINE
  5
193
330
18A
100
AcDbEntity
  8
0
  6
Continuous
 62
     0
370
    18
100
AcDbLine
 10
0.0
 20
-5.0
 30
0.0
 11
0.0
 21
-6.75
 31
0.0
  0
LINE
  5
194
330
18A
100
AcDbEntity
  8
0
  6
Continuous
 62
     0
370
    18
100
AcDbLine
 10
5.0
 20
0.0
 30
0.0
 11
6.75
 21
0.0
 31
0.0
  0
ENDBLK
  5
18C
330
18A
100
AcDbEntity
  8
0
100
AcDbBlockEnd
  0
BLOCK
  5
197
330
196
100
AcDbEntity
  8
0
100
AcDbBlockBegin
  2
SW_CENTERMARKSYMBOL_2
 70
     0
 10
0.0
 20
0.0
 30
0.0
  3
SW_CENTERMARKSYMBOL_2
  1

  0
LINE
  5
199
330
196
100
AcDbEntity
  8
0
  6
Continuous
 62
     0
370
    18
100
AcDbLine
 10
0.0
 20
0.0
 30
0.0
 11
0.0
 21
2.5
 31
0.0
  0
LINE
  5
19A
330
196
100
AcDbEntity
  8
0
  6
Continuous
 62
     0
370
    18
100
AcDbLine
 10
0.0
 20
0.0
 30
0.0
 11
-2.5
 21
0.0
 31
0.0
  0
LINE
  5
19B
330
196
100
AcDbEntity
  8
0
  6
Continuous
 62
     0
370
    18
100
AcDbLine
 10
0.0
 20
0.0
 30
0.0
 11
0.0
 21
-2.5
 31
0.0
  0
LINE
  5
19C
330
196
100
AcDbEntity
  8
0
  6
Continuous
 62
     0
370
    18
100
AcDbLine
 10
0.0
 20
0.0
 30
0.0
 11
2.5
 21
0.0
 31
0.0
  0
LINE
  5
19D
330
196
100
AcDbEntity
  8
0
  6
Continuous
 62
     0
370
    18
100
AcDbLine
 10
0.0
 20
5.0
 30
0.0
 11
0.0
 21
6.75
 31
0.0
  0
LINE
  5
19E
330
196
100
AcDbEntity
  8
0
  6
Continuous
 62
     0
370
    18
100
AcDbLine
 10
-5.0
 20
0.0
 30
0.0
 11
-6.75
 21
0.0
 31
0.0
  0
LINE
  5
19F
330
196
100
AcDbEntity
  8
0
  6
Continuous
 62
     0
370
    18
100
AcDbLine
 10
0.0
 20
-5.0
 30
0.0
 11
0.0
 21
-6.75
 31
0.0
  0
LINE
  5
1A0
330
196
100
AcDbEntity
  8
0
  6
Continuous
 62
     0
370
    18
100
AcDbLine
 10
5.0
 20
0.0
 30
0.0
 11
6.75
 21
0.0
 31
0.0
  0
ENDBLK
  5
198
330
196
100
AcDbEntity
  8
0
100
AcDbBlockEnd
  0
BLOCK
  5
1A3
330
1A2
100
AcDbEntity
  8
0
100
AcDbBlockBegin
  2
SW_CENTERMARKSYMBOL_3
 70
     0
 10
0.0
 20
0.0
 30
0.0
  3
SW_CENTERMARKSYMBOL_3
  1

  0
LINE
  5
1A5
330
1A2
100
AcDbEntity
  8
0
  6
Continuous
 62
     0
370
    18
100
AcDbLine
 10
0.0
 20
0.0
 30
0.0
 11
0.0
 21
2.5
 31
0.0
  0
LINE
  5
1A6
330
1A2
100
AcDbEntity
  8
0
  6
Continuous
 62
     0
370
    18
100
AcDbLine
 10
0.0
 20
0.0
 30
0.0
 11
-2.5
 21
0.0
 31
0.0
  0
LINE
  5
1A7
330
1A2
100
AcDbEntity
  8
0
  6
Continuous
 62
     0
370
    18
100
AcDbLine
 10
0.0
 20
0.0
 30
0.0
 11
0.0
 21
-2.5
 31
0.0
  0
LINE
  5
1A8
330
1A2
100
AcDbEntity
  8
0
  6
Continuous
 62
     0
370
    18
100
AcDbLine
 10
0.0
 20
0.0
 30
0.0
 11
2.5
 21
0.0
 31
0.0
  0
LINE
  5
1A9
330
1A2
100
AcDbEntity
  8
0
  6
Continuous
 62
     0
370
    18
100
AcDbLine
 10
0.0
 20
5.0
 30
0.0
 11
0.0
 21
6.75
 31
0.0
  0
LINE
  5
1AA
330
1A2
100
AcDbEntity
  8
0
  6
Continuous
 62
     0
370
    18
100
AcDbLine
 10
-5.0
 20
0.0
 30
0.0
 11
-6.75
 21
0.0
 31
0.0
  0
LINE
  5
1AB
330
1A2
100
AcDbEntity
  8
0
  6
Continuous
 62
     0
370
    18
100
AcDbLine
 10
0.0
 20
-5.0
 30
0.0
 11
0.0
 21
-6.75
 31
0.0
  0
LINE
  5
1AC
330
1A2
100
AcDbEntity
  8
0
  6
Continuous
 62
     0
370
    18
100
AcDbLine
 10
5.0
 20
0.0
 30
0.0
 11
6.75
 21
0.0
 31
0.0
  0
ENDBLK
  5
1A4
330
1A2
100
AcDbEntity
  8
0
100
AcDbBlockEnd
  0
BLOCK
  5
1AF
330
1AE
100
AcDbEntity
  8
0
100
AcDbBlockBegin
  2
SW_CENTERMARKSYMBOL_4
 70
     0
 10
0.0
 20
0.0
 30
0.0
  3
SW_CENTERMARKSYMBOL_4
  1

  0
LINE
  5
1B1
330
1AE
100
AcDbEntity
  8
0
  6
Continuous
 62
     0
370
    18
100
AcDbLine
 10
0.0
 20
0.0
 30
0.0
 11
0.0
 21
2.5
 31
0.0
  0
LINE
  5
1B2
330
1AE
100
AcDbEntity
  8
0
  6
Continuous
 62
     0
370
    18
100
AcDbLine
 10
0.0
 20
0.0
 30
0.0
 11
-2.5
 21
0.0
 31
0.0
  0
LINE
  5
1B3
330
1AE
100
AcDbEntity
  8
0
  6
Continuous
 62
     0
370
    18
100
AcDbLine
 10
0.0
 20
0.0
 30
0.0
 11
0.0
 21
-2.5
 31
0.0
  0
LINE
  5
1B4
330
1AE
100
AcDbEntity
  8
0
  6
Continuous
 62
     0
370
    18
100
AcDbLine
 10
0.0
 20
0.0
 30
0.0
 11
2.5
 21
0.0
 31
0.0
  0
LINE
  5
1B5
330
1AE
100
AcDbEntity
  8
0
  6
Continuous
 62
     0
370
    18
100
AcDbLine
 10
0.0
 20
5.0
 30
0.0
 11
0.0
 21
6.75
 31
0.0
  0
LINE
  5
1B6
330
1AE
100
AcDbEntity
  8
0
  6
Continuous
 62
     0
370
    18
100
AcDbLine
 10
-5.0
 20
0.0
 30
0.0
 11
-6.75
 21
0.0
 31
0.0
  0
LINE
  5
1B7
330
1AE
100
AcDbEntity
  8
0
  6
Continuous
 62
     0
370
    18
100
AcDbLine
 10
0.0
 20
-5.0
 30
0.0
 11
0.0
 21
-6.75
 31
0.0
  0
LINE
  5
1B8
330
1AE
100
AcDbEntity
  8
0
  6
Continuous
 62
     0
370
    18
100
AcDbLine
 10
5.0
 20
0.0
 30
0.0
 11
6.75
 21
0.0
 31
0.0
  0
ENDBLK
  5
1B0
330
1AE
100
AcDbEntity
  8
0
100
AcDbBlockEnd
  0
BLOCK
  5
1DD
330
1DC
100
AcDbEntity
  8
0
100
AcDbBlockBegin
  2
SW_CENTERMARKSYMBOL_5
 70
     0
 10
0.0
 20
0.0
 30
0.0
  3
SW_CENTERMARKSYMBOL_5
  1

  0
LINE
  5
1DF
330
1DC
100
AcDbEntity
  8
0
  6
Continuous
 62
     0
370
    18
100
AcDbLine
 10
0.0
 20
0.0
 30
0.0
 11
0.0
 21
3.1357792411
 31
0.0
  0
LINE
  5
1E0
330
1DC
100
AcDbEntity
  8
0
  6
Continuous
 62
     0
370
    18
100
AcDbLine
 10
0.0
 20
0.0
 30
0.0
 11
-3.1357792411
 21
0.0
 31
0.0
  0
LINE
  5
1E1
330
1DC
100
AcDbEntity
  8
0
  6
Continuous
 62
     0
370
    18
100
AcDbLine
 10
0.0
 20
0.0
 30
0.0
 11
0.0
 21
-3.1357792411
 31
0.0
  0
LINE
  5
1E2
330
1DC
100
AcDbEntity
  8
0
  6
Continuous
 62
     0
370
    18
100
AcDbLine
 10
0.0
 20
0.0
 30
0.0
 11
3.1357792411
 21
0.0
 31
0.0
  0
LINE
  5
1E3
330
1DC
100
AcDbEntity
  8
0
  6
Continuous
 62
     0
370
    18
100
AcDbLine
 10
0.0
 20
6.2715584823
 30
0.0
 11
0.0
 21
8.466603951
 31
0.0
  0
LINE
  5
1E4
330
1DC
100
AcDbEntity
  8
0
  6
Continuous
 62
     0
370
    18
100
AcDbLine
 10
-6.2715584823
 20
0.0
 30
0.0
 11
-8.466603951
 21
0.0
 31
0.0
  0
LINE
  5
1E5
330
1DC
100
AcDbEntity
  8
0
  6
Continuous
 62
     0
370
    18
100
AcDbLine
 10
0.0
 20
-6.2715584823
 30
0.0
 11
0.0
 21
-8.466603951
 31
0.0
  0
LINE
  5
1E6
330
1DC
100
AcDbEntity
  8
0
  6
Continuous
 62
     0
370
    18
100
AcDbLine
 10
6.2715584823
 20
0.0
 30
0.0
 11
8.466603951
 21
0.0
 31
0.0
  0
ENDBLK
  5
1DE
330
1DC
100
AcDbEntity
  8
0
100
AcDbBlockEnd
  0
BLOCK
  5
1E9
330
1E8
100
AcDbEntity
  8
0
100
AcDbBlockBegin
  2
SW_CENTERMARKSYMBOL_6
 70
     0
 10
0.0
 20
0.0
 30
0.0
  3
SW_CENTERMARKSYMBOL_6
  1

  0
LINE
  5
1EB
330
1E8
100
AcDbEntity
  8
0
  6
Continuous
 62
     0
370
    18
100
AcDbLine
 10
0.0
 20
0.0
 30
0.0
 11
0.0
 21
3.1357792411
 31
0.0
  0
LINE
  5
1EC
330
1E8
100
AcDbEntity
  8
0
  6
Continuous
 62
     0
370
    18
100
AcDbLine
 10
0.0
 20
0.0
 30
0.0
 11
-3.1357792411
 21
0.0
 31
0.0
  0
LINE
  5
1ED
330
1E8
100
AcDbEntity
  8
0
  6
Continuous
 62
     0
370
    18
100
AcDbLine
 10
0.0
 20
0.0
 30
0.0
 11
0.0
 21
-3.1357792411
 31
0.0
  0
LINE
  5
1EE
330
1E8
100
AcDbEntity
  8
0
  6
Continuous
 62
     0
370
    18
100
AcDbLine
 10
0.0
 20
0.0
 30
0.0
 11
3.1357792411
 21
0.0
 31
0.0
  0
LINE
  5
1EF
330
1E8
100
AcDbEntity
  8
0
  6
Continuous
 62
     0
370
    18
100
AcDbLine
 10
0.0
 20
6.2715584823
 30
0.0
 11
0.0
 21
8.4666039511
 31
0.0
  0
LINE
  5
1F0
330
1E8
100
AcDbEntity
  8
0
  6
Continuous
 62
     0
370
    18
100
AcDbLine
 10
-6.2715584823
 20
0.0
 30
0.0
 11
-8.4666039511
 21
0.0
 31
0.0
  0
LINE
  5
1F1
330
1E8
100
AcDbEntity
  8
0
  6
Continuous
 62
     0
370
    18
100
AcDbLine
 10
0.0
 20
-6.2715584823
 30
0.0
 11
0.0
 21
-8.4666039511
 31
0.0
  0
LINE
  5
1F2
330
1E8
100
AcDbEntity
  8
0
  6
Continuous
 62
     0
370
    18
100
AcDbLine
 10
6.2715584823
 20
0.0
 30
0.0
 11
8.4666039511
 21
0.0
 31
0.0
  0
ENDBLK
  5
1EA
330
1E8
100
AcDbEntity
  8
0
100
AcDbBlockEnd
  0
BLOCK
  5
1F5
330
1F4
100
AcDbEntity
  8
0
100
AcDbBlockBegin
  2
SW_CENTERMARKSYMBOL_7
 70
     0
 10
0.0
 20
0.0
 30
0.0
  3
SW_CENTERMARKSYMBOL_7
  1

  0
LINE
  5
1F7
330
1F4
100
AcDbEntity
  8
0
  6
Continuous
 62
     0
370
    18
100
AcDbLine
 10
0.0
 20
0.0
 30
0.0
 11
0.0
 21
3.1357792411
 31
0.0
  0
LINE
  5
1F8
330
1F4
100
AcDbEntity
  8
0
  6
Continuous
 62
     0
370
    18
100
AcDbLine
 10
0.0
 20
0.0
 30
0.0
 11
-3.1357792411
 21
0.0
 31
0.0
  0
LINE
  5
1F9
330
1F4
100
AcDbEntity
  8
0
  6
Continuous
 62
     0
370
    18
100
AcDbLine
 10
0.0
 20
0.0
 30
0.0
 11
0.0
 21
-3.1357792411
 31
0.0
  0
LINE
  5
1FA
330
1F4
100
AcDbEntity
  8
0
  6
Continuous
 62
     0
370
    18
100
AcDbLine
 10
0.0
 20
0.0
 30
0.0
 11
3.1357792411
 21
0.0
 31
0.0
  0
LINE
  5
1FB
330
1F4
100
AcDbEntity
  8
0
  6
Continuous
 62
     0
370
    18
100
AcDbLine
 10
0.0
 20
6.2715584823
 30
0.0
 11
0.0
 21
8.4666039511
 31
0.0
  0
LINE
  5
1FC
330
1F4
100
AcDbEntity
  8
0
  6
Continuous
 62
     0
370
    18
100
AcDbLine
 10
-6.2715584823
 20
0.0
 30
0.0
 11
-8.4666039511
 21
0.0
 31
0.0
  0
LINE
  5
1FD
330
1F4
100
AcDbEntity
  8
0
  6
Continuous
 62
     0
370
    18
100
AcDbLine
 10
0.0
 20
-6.2715584823
 30
0.0
 11
0.0
 21
-8.4666039511
 31
0.0
  0
LINE
  5
1FE
330
1F4
100
AcDbEntity
  8
0
  6
Continuous
 62
     0
370
    18
100
AcDbLine
 10
6.2715584823
 20
0.0
 30
0.0
 11
8.4666039511
 21
0.0
 31
0.0
  0
ENDBLK
  5
1F6
330
1F4
100
AcDbEntity
  8
0
100
AcDbBlockEnd
  0
BLOCK
  5
201
330
200
100
AcDbEntity
  8
0
100
AcDbBlockBegin
  2
SW_CENTERMARKSYMBOL_8
 70
     0
 10
0.0
 20
0.0
 30
0.0
  3
SW_CENTERMARKSYMBOL_8
  1

  0
LINE
  5
203
330
200
100
AcDbEntity
  8
0
  6
Continuous
 62
     0
370
    18
100
AcDbLine
 10
0.0
 20
0.0
 30
0.0
 11
0.0
 21
3.1357792411
 31
0.0
  0
LINE
  5
204
330
200
100
AcDbEntity
  8
0
  6
Continuous
 62
     0
370
    18
100
AcDbLine
 10
0.0
 20
0.0
 30
0.0
 11
-3.1357792411
 21
0.0
 31
0.0
  0
LINE
  5
205
330
200
100
AcDbEntity
  8
0
  6
Continuous
 62
     0
370
    18
100
AcDbLine
 10
0.0
 20
0.0
 30
0.0
 11
0.0
 21
-3.1357792411
 31
0.0
  0
LINE
  5
206
330
200
100
AcDbEntity
  8
0
  6
Continuous
 62
     0
370
    18
100
AcDbLine
 10
0.0
 20
0.0
 30
0.0
 11
3.1357792411
 21
0.0
 31
0.0
  0
LINE
  5
207
330
200
100
AcDbEntity
  8
0
  6
Continuous
 62
     0
370
    18
100
AcDbLine
 10
0.0
 20
6.2715584823
 30
0.0
 11
0.0
 21
8.4666039511
 31
0.0
  0
LINE
  5
208
330
200
100
AcDbEntity
  8
0
  6
Continuous
 62
     0
370
    18
100
AcDbLine
 10
-6.2715584823
 20
0.0
 30
0.0
 11
-8.4666039511
 21
0.0
 31
0.0
  0
LINE
  5
209
330
200
100
AcDbEntity
  8
0
  6
Continuous
 62
     0
370
    18
100
AcDbLine
 10
0.0
 20
-6.2715584823
 30
0.0
 11
0.0
 21
-8.4666039511
 31
0.0
  0
LINE
  5
20A
330
200
100
AcDbEntity
  8
0
  6
Continuous
 62
     0
370
    18
100
AcDbLine
 10
6.2715584823
 20
0.0
 30
0.0
 11
8.4666039511
 21
0.0
 31
0.0
  0
ENDBLK
  5
202
330
200
100
AcDbEntity
  8
0
100
AcDbBlockEnd
  0
BLOCK
  5
308
330
307
100
AcDbEntity
  8
0
100
AcDbBlockBegin
  2
_D_6
 70
     0
 10
0.0
 20
0.0
 30
0.0
  3
_D_6
  1

  0
SOLID
  5
30A
330
307
100
AcDbEntity
  8
0
  6
Continuous
 62
     7
370
    18
100
AcDbTrace
 10
326.94
 20
183.7109374552
 30
0.0
 11
330.242
 21
183.2029374552
 31
0.0
 12
330.242
 22
184.2189374552
 32
0.0
 13
330.242
 23
184.2189374552
 33
0.0
  0
SOLID
  5
30B
330
307
100
AcDbEntity
  8
0
  6
Continuous
 62
     7
370
    18
100
AcDbTrace
 10
348.94
 20
183.7109374552
 30
0.0
 11
345.638
 21
184.2189374552
 31
0.0
 12
345.638
 22
183.2029374552
 32
0.0
 13
345.638
 23
183.2029374552
 33
0.0
  0
LINE
  5
30C
330
307
100
AcDbEntity
  8
0
  6
Continuous
 62
     7
370
     0
100
AcDbLine
 10
326.94
 20
213.66
 30
0.0
 11
326.94
 21
182.7109374552
 31
0.0
  0
LINE
  5
30D
330
307
100
AcDbEntity
  8
0
  6
Continuous
 62
     7
370
     0
100
AcDbLine
 10
348.94
 20
233.16
 30
0.0
 11
348.94
 21
182.7109374552
 31
0.0
  0
LINE
  5
30E
330
307
100
AcDbEntity
  8
0
  6
Continuous
 62
     7
370
     0
100
AcDbLine
 10
326.94
 20
183.7109374552
 30
0.0
 11
348.94
 21
183.7109374552
 31
0.0
  0
MTEXT
  5
30F
330
307
100
AcDbEntity
  8
0
  6
Continuous
 62
     7
370
    18
100
AcDbMText
 10
336.4871584515
 20
188.2226743698
 30
0.0
 40
3.5
 41
0.0
 71
     1
 72
     1
  1
22
  7
SLDTEXTSTYLE0
 73
     1
 44
1.0
  0
ENDBLK
  5
309
330
307
100
AcDbEntity
  8
0
100
AcDbBlockEnd
  0
BLOCK
  5
312
330
311
100
AcDbEntity
  8
0
100
AcDbBlockBegin
  2
_D_7
 70
     0
 10
0.0
 20
0.0
 30
0.0
  3
_D_7
  1

  0
SOLID
  5
314
330
311
100
AcDbEntity
  8
0
  6
Continuous
 62
     7
370
    18
100
AcDbTrace
 10
271.94
 20
176.16
 30
0.0
 11
275.242
 21
175.652
 31
0.0
 12
275.242
 22
176.668
 32
0.0
 13
275.242
 23
176.668
 33
0.0
  0
SOLID
  5
315
330
311
100
AcDbEntity
  8
0
  6
Continuous
 62
     7
370
    18
100
AcDbTrace
 10
348.94
 20
176.16
 30
0.0
 11
345.638
 21
176.668
 31
0.0
 12
345.638
 22
175.652
 32
0.0
 13
345.638
 23
175.652
 33
0.0
  0
LINE
  5
316
330
311
100
AcDbEntity
  8
0
  6
Continuous
 62
     7
370
     0
100
AcDbLine
 10
271.94
 20
191.16
 30
0.0
 11
271.94
 21
175.16
 31
0.0
  0
LINE
  5
317
330
311
100
AcDbEntity
  8
0
  6
Continuous
 62
     7
370
     0
100
AcDbLine
 10
348.94
 20
236.16
 30
0.0
 11
348.94
 21
175.16
 31
0.0
  0
LINE
  5
318
330
311
100
AcDbEntity
  8
0
  6
Continuous
 62
     7
370
     0
100
AcDbLine
 10
271.94
 20
176.16
 30
0.0
 11
348.94
 21
176.16
 31
0.0
  0
MTEXT
  5
319
330
311
100
AcDbEntity
  8
0
  6
Continuous
 62
     7
370
    18
100
AcDbMText
 10
313.1142409467
 20
180.6717369146
 30
0.0
 40
3.5
 41
0.0
 71
     1
 72
     1
  1
77
  7
SLDTEXTSTYLE0
 73
     1
 44
1.0
  0
ENDBLK
  5
313
330
311
100
AcDbEntity
  8
0
100
AcDbBlockEnd
  0
BLOCK
  5
31D
330
31C
100
AcDbEntity
  8
0
100
AcDbBlockBegin
  2
_D_8
 70
     0
 10
0.0
 20
0.0
 30
0.0
  3
_D_8
  1

  0
SOLID
  5
31F
330
31C
100
AcDbEntity
  8
0
  6
Continuous
 62
     7
370
    18
100
AcDbTrace
 10
355.44
 20
242.5328525337
 30
0.0
 11
358.742
 21
242.0248525337
 31
0.0
 12
358.742
 22
243.0408525337
 32
0.0
 13
358.742
 23
243.0408525337
 33
0.0
  0
SOLID
  5
320
330
31C
100
AcDbEntity
  8
0
  6
Continuous
 62
     7
370
    18
100
AcDbTrace
 10
348.94
 20
242.5328525337
 30
0.0
 11
345.638
 21
243.0408525337
 31
0.0
 12
345.638
 22
242.0248525337
 32
0.0
 13
345.638
 23
242.0248525337
 33
0.0
  0
LINE
  5
321
330
31C
100
AcDbEntity
  8
0
  6
Continuous
 62
     7
370
     0
100
AcDbLine
 10
355.44
 20
231.16
 30
0.0
 11
355.44
 21
236.398
 31
0.0
  0
LINE
  5
322
330
31C
100
AcDbEntity
  8
0
  6
Continuous
 62
     7
370
     0
100
AcDbLine
 10
355.44
 20
237.922
 30
0.0
 11
355.44
 21
243.5328525337
 31
0.0
  0
LINE
  5
323
330
31C
100
AcDbEntity
  8
0
  6
Continuous
 62
     7
370
     0
100
AcDbLine
 10
348.94
 20
238.16
 30
0.0
 11
348.94
 21
243.5328525337
 31
0.0
  0
LINE
  5
324
330
31C
100
AcDbEntity
  8
0
  6
Continuous
 62
     7
370
     0
100
AcDbLine
 10
355.44
 20
242.5328525337
 30
0.0
 11
361.79
 21
242.5328525337
 31
0.0
  0
LINE
  5
325
330
31C
100
AcDbEntity
  8
0
  6
Continuous
 62
     7
370
     0
100
AcDbLine
 10
355.44
 20
242.5328525337
 30
0.0
 11
348.94
 21
242.5328525337
 31
0.0
  0
LINE
  5
326
330
31C
100
AcDbEntity
  8
0
  6
Continuous
 62
     7
370
     0
100
AcDbLine
 10
348.94
 20
242.5328525337
 30
0.0
 11
342.59
 21
242.5328525337
 31
0.0
  0
MTEXT
  5
327
330
31C
100
AcDbEntity
  8
0
  6
Continuous
 62
     7
370
    18
100
AcDbMText
 10
348.9245917788
 20
247.0445894483
 30
0.0
 40
3.5
 41
0.0
 71
     1
 72
     1
  1
6,5
  7
SLDTEXTSTYLE0
 73
     1
 44
1.0
  0
ENDBLK
  5
31E
330
31C
100
AcDbEntity
  8
0
100
AcDbBlockEnd
  0
BLOCK
  5
32B
330
32A
100
AcDbEntity
  8
0
100
AcDbBlockBegin
  2
_D_9
 70
     0
 10
0.0
 20
0.0
 30
0.0
  3
_D_9
  1

  0
SOLID
  5
32D
330
32A
100
AcDbEntity
  8
0
  6
Continuous
 62
     7
370
    18
100
AcDbTrace
 10
317.4035969304
 20
221.66
 30
0.0
 11
317.9115969304
 21
224.962
 31
0.0
 12
316.8955969304
 22
224.962
 32
0.0
 13
316.8955969304
 23
224.962
 33
0.0
  0
SOLID
  5
32E
330
32A
100
AcDbEntity
  8
0
  6
Continuous
 62
     7
370
    18
100
AcDbTrace
 10
317.4035969304
 20
207.66
 30
0.0
 11
316.8955969304
 21
204.358
 31
0.0
 12
317.9115969304
 22
204.358
 32
0.0
 13
317.9115969304
 23
204.358
 33
0.0
  0
LINE
  5
32F
330
32A
100
AcDbEntity
  8
0
  6
Continuous
 62
     7
370
     0
100
AcDbLine
 10
325.94
 20
221.66
 30
0.0
 11
316.4035969304
 21
221.66
 31
0.0
  0
LINE
  5
330
330
32A
100
AcDbEntity
  8
0
  6
Continuous
 62
     7
370
     0
100
AcDbLine
 10
325.94
 20
207.66
 30
0.0
 11
316.4035969304
 21
207.66
 31
0.0
  0
LINE
  5
331
330
32A
100
AcDbEntity
  8
0
  6
Continuous
 62
     7
370
     0
100
AcDbLine
 10
317.4035969304
 20
221.66
 30
0.0
 11
317.4035969304
 21
228.01
 31
0.0
  0
LINE
  5
332
330
32A
100
AcDbEntity
  8
0
  6
Continuous
 62
     7
370
     0
100
AcDbLine
 10
317.4035969304
 20
221.66
 30
0.0
 11
317.4035969304
 21
207.66
 31
0.0
  0
LINE
  5
333
330
32A
100
AcDbEntity
  8
0
  6
Continuous
 62
     7
370
     0
100
AcDbLine
 10
317.4035969304
 20
207.66
 30
0.0
 11
317.4035969304
 21
201.31
 31
0.0
  0
MTEXT
  5
334
330
32A
100
AcDbEntity
  8
0
  6
Continuous
 62
     7
370
    18
100
AcDbMText
 10
312.8918598412
 20
206.659342241
 30
0.0
 40
3.5
 41
0.0
 71
     1
 72
     1
  1
%%c
  7
SLDTEXTSTYLE0
 11
-7.044195017643634E-15
 21
1.0
 31
0.0
 73
     1
 44
1.0
  0
MTEXT
  5
335
330
32A
100
AcDbEntity
  8
0
  6
Continuous
 62
     7
370
    18
100
AcDbMText
 10
312.8383876646
 20
211.9377796394
 30
0.0
 40
3.5
 41
0.0
 71
     1
 72
     1
  1
14
  7
SLDTEXTSTYLE0
 11
-7.044195017643634E-15
 21
1.0
 31
0.0
 73
     1
 44
1.0
  0
ENDBLK
  5
32C
330
32A
100
AcDbEntity
  8
0
100
AcDbBlockEnd
  0
BLOCK
  5
338
330
337
100
AcDbEntity
  8
0
100
AcDbBlockBegin
  2
_D_10
 70
     0
 10
0.0
 20
0.0
 30
0.0
  3
_D_10
  1

  0
SOLID
  5
33A
330
337
100
AcDbEntity
  8
0
  6
Continuous
 62
     7
370
    18
100
AcDbTrace
 10
366.1781338199
 20
214.66
 30
0.0
 11
366.6861338199
 21
217.962
 31
0.0
 12
365.6701338199
 22
217.962
 32
0.0
 13
365.6701338199
 23
217.962
 33
0.0
  0
SOLID
  5
33B
330
337
100
AcDbEntity
  8
0
  6
Continuous
 62
     7
370
    18
100
AcDbTrace
 10
366.1781338199
 20
237.16
 30
0.0
 11
365.6701338199
 21
233.858
 31
0.0
 12
366.6861338199
 22
233.858
 32
0.0
 13
366.6861338199
 23
233.858
 33
0.0
  0
LINE
  5
33C
330
337
100
AcDbEntity
  8
0
  6
Continuous
 62
     7
370
     0
100
AcDbLine
 10
327.94
 20
214.66
 30
0.0
 11
367.1781338199
 21
214.66
 31
0.0
  0
LINE
  5
33D
330
337
100
AcDbEntity
  8
0
  6
Continuous
 62
     7
370
     0
100
AcDbLine
 10
349.94
 20
237.16
 30
0.0
 11
367.1781338199
 21
237.16
 31
0.0
  0
LINE
  5
33E
330
337
100
AcDbEntity
  8
0
  6
Continuous
 62
     7
370
     0
100
AcDbLine
 10
366.1781338199
 20
214.66
 30
0.0
 11
366.1781338199
 21
237.16
 31
0.0
  0
MTEXT
  5
33F
330
337
100
AcDbEntity
  8
0
  6
Continuous
 62
     7
370
    18
100
AcDbMText
 10
361.6663969053
 20
222.7512103965
 30
0.0
 40
3.5
 41
0.0
 71
     1
 72
     1
  1
22,5
  7
SLDTEXTSTYLE0
 11
6.123233995736766E-17
 21
1.0
 31
0.0
 73
     1
 44
1.0
  0
ENDBLK
  5
339
330
337
100
AcDbEntity
  8
0
100
AcDbBlockEnd
  0
BLOCK
  5
341
330
340
100
AcDbEntity
  8
0
100
AcDbBlockBegin
  2
SW_CENTERMARKSYMBOL_9
 70
     0
 10
0.0
 20
0.0
 30
0.0
  3
SW_CENTERMARKSYMBOL_9
  1

  0
LINE
  5
343
330
340
100
AcDbEntity
  8
0
  6
Continuous
 62
     0
370
    18
100
AcDbLine
 10
0.0
 20
0.0
 30
0.0
 11
0.0
 21
2.5
 31
0.0
  0
LINE
  5
344
330
340
100
AcDbEntity
  8
0
  6
Continuous
 62
     0
370
    18
100
AcDbLine
 10
0.0
 20
0.0
 30
0.0
 11
-2.5
 21
0.0
 31
0.0
  0
LINE
  5
345
330
340
100
AcDbEntity
  8
0
  6
Continuous
 62
     0
370
    18
100
AcDbLine
 10
0.0
 20
0.0
 30
0.0
 11
0.0
 21
-2.5
 31
0.0
  0
LINE
  5
346
330
340
100
AcDbEntity
  8
0
  6
Continuous
 62
     0
370
    18
100
AcDbLine
 10
0.0
 20
0.0
 30
0.0
 11
2.5
 21
0.0
 31
0.0
  0
LINE
  5
347
330
340
100
AcDbEntity
  8
0
  6
Continuous
 62
     0
370
    18
100
AcDbLine
 10
0.0
 20
5.0
 30
0.0
 11
0.0
 21
9.5
 31
0.0
  0
LINE
  5
348
330
340
100
AcDbEntity
  8
0
  6
Continuous
 62
     0
370
    18
100
AcDbLine
 10
-5.0
 20
0.0
 30
0.0
 11
-9.5
 21
0.0
 31
0.0
  0
LINE
  5
349
330
340
100
AcDbEntity
  8
0
  6
Continuous
 62
     0
370
    18
100
AcDbLine
 10
0.0
 20
-5.0
 30
0.0
 11
0.0
 21
-9.5
 31
0.0
  0
LINE
  5
34A
330
340
100
AcDbEntity
  8
0
  6
Continuous
 62
     0
370
    18
100
AcDbLine
 10
5.0
 20
0.0
 30
0.0
 11
9.5
 21
0.0
 31
0.0
  0
ENDBLK
  5
342
330
340
100
AcDbEntity
  8
0
100
AcDbBlockEnd
  0
ENDSEC
  0
SECTION
  2
ENTITIES
  0
LINE
  5
74
330
1F
100
AcDbEntity
  8
0
  6
Continuous
 62
     7
370
    50
100
AcDbLine
 10
230.0
 20
14.25
 30
0.0
 11
410.0
 21
14.25
 31
0.0
  0
LINE
  5
75
330
1F
100
AcDbEntity
  8
0
  6
Continuous
 62
     7
370
    50
100
AcDbLine
 10
410.0
 20
48.25
 30
0.0
 11
230.0
 21
48.25
 31
0.0
  0
LINE
  5
76
330
1F
100
AcDbEntity
  8
0
  6
Continuous
 62
     7
370
    50
100
AcDbLine
 10
230.0
 20
65.25
 30
0.0
 11
410.0
 21
65.25
 31
0.0
  0
LINE
  5
77
330
1F
100
AcDbEntity
  8
0
  6
Continuous
 62
     7
370
    50
100
AcDbLine
 10
256.9909524338
 20
48.25
 30
0.0
 11
256.9909524338
 21
10.0
 31
0.0
  0
LINE
  5
78
330
1F
100
AcDbEntity
  8
0
  6
Continuous
 62
     7
370
    50
100
AcDbLine
 10
328.8
 20
31.25
 30
0.0
 11
230.0
 21
31.25
 31
0.0
  0
LINE
  5
79
330
1F
100
AcDbEntity
  8
0
  6
Continuous
 62
     7
370
    50
100
AcDbLine
 10
328.8
 20
35.5
 30
0.0
 11
230.0
 21
35.5
 31
0.0
  0
LINE
  5
7A
330
1F
100
AcDbEntity
  8
0
  6
Continuous
 62
     7
370
    50
100
AcDbLine
 10
328.8
 20
39.75
 30
0.0
 11
230.0
 21
39.75
 31
0.0
  0
LINE
  5
7B
330
1F
100
AcDbEntity
  8
0
  6
Continuous
 62
     7
370
    50
100
AcDbLine
 10
328.8
 20
44.0
 30
0.0
 11
230.0
 21
44.0
 31
0.0
  0
LINE
  5
7C
330
1F
100
AcDbEntity
  8
0
  6
Continuous
 62
     7
370
    50
100
AcDbLine
 10
284.6
 20
10.0
 30
0.0
 11
284.6
 21
48.25
 31
0.0
  0
LINE
  5
7D
330
1F
100
AcDbEntity
  8
0
  6
Continuous
 62
     7
370
    50
100
AcDbLine
 10
230.0
 20
65.25
 30
0.0
 11
230.0
 21
10.0
 31
0.0
  0
LINE
  5
7E
330
1F
100
AcDbEntity
  8
0
  6
Continuous
 62
     7
370
    50
100
AcDbLine
 10
242.0703737145
 20
48.25
 30
0.0
 11
242.0703737145
 21
10.0
 31
0.0
  0
LINE
  5
7F
330
1F
100
AcDbEntity
  8
0
  6
Continuous
 62
     7
370
    50
100
AcDbLine
 10
263.8
 20
48.25
 30
0.0
 11
263.8
 21
65.25
 31
0.0
  0
LINE
  5
80
330
1F
100
AcDbEntity
  8
0
  6
Continuous
 62
     7
370
    50
100
AcDbLine
 10
274.3989261635
 20
48.25
 30
0.0
 11
274.3989261635
 21
10.0
 31
0.0
  0
LINE
  5
81
330
1F
100
AcDbEntity
  8
0
  6
Continuous
 62
     7
370
    50
100
AcDbLine
 10
295.0
 20
31.25
 30
0.0
 11
295.0
 21
48.25
 31
0.0
  0
LINE
  5
82
330
1F
100
AcDbEntity
  8
0
  6
Continuous
 62
     7
370
    50
100
AcDbLine
 10
284.6
 20
18.5
 30
0.0
 11
230.0
 21
18.5
 31
0.0
  0
LINE
  5
83
330
1F
100
AcDbEntity
  8
0
  6
Continuous
 62
     7
370
    50
100
AcDbLine
 10
310.6
 20
65.25
 30
0.0
 11
310.6
 21
27.0
 31
0.0
  0
LINE
  5
84
330
1F
100
AcDbEntity
  8
0
  6
Continuous
 62
     7
370
    50
100
AcDbLine
 10
284.6
 20
22.749928
 30
0.0
 11
230.0
 21
22.749928
 31
0.0
  0
LINE
  5
85
330
1F
100
AcDbEntity
  8
0
  6
Continuous
 62
     7
370
    50
100
AcDbLine
 10
284.6
 20
27.0
 30
0.0
 11
230.0
 21
27.0
 31
0.0
  0
LINE
  5
86
330
1F
100
AcDbEntity
  8
0
  6
Continuous
 62
     7
370
    50
100
AcDbLine
 10
284.6
 20
27.0
 30
0.0
 11
410.0
 21
27.0
 31
0.0
  0
LINE
  5
87
330
1F
100
AcDbEntity
  8
0
  6
Continuous
 62
     7
370
    50
100
AcDbLine
 10
328.8
 20
65.25
 30
0.0
 11
328.8
 21
10.0
 31
0.0
  0
LINE
  5
88
330
1F
100
AcDbEntity
  8
0
  6
Continuous
 62
     7
370
    50
100
AcDbLine
 10
373.0
 20
10.0
 30
0.0
 11
373.0
 21
14.25
 31
0.0
  0
LINE
  5
89
330
1F
100
AcDbEntity
  8
0
  6
Continuous
 62
     7
370
    50
100
AcDbLine
 10
380.8
 20
58.875
 30
0.0
 11
380.8
 21
65.25
 31
0.0
  0
LINE
  5
8A
330
1F
100
AcDbEntity
  8
0
  6
Continuous
 62
     7
370
    50
100
AcDbLine
 10
397.0
 20
14.25
 30
0.0
 11
397.0
 21
27.0
 31
0.0
  0
LINE
  5
8B
330
1F
100
AcDbEntity
  8
0
  6
Continuous
 62
     7
370
    50
100
AcDbLine
 10
410.0
 20
58.875
 30
0.0
 11
328.8
 21
58.875
 31
0.0
  0
LINE
  5
8C
330
1F
100
AcDbEntity
  8
0
  6
Continuous
 62
     7
370
    50
100
AcDbLine
 10
410.0
 20
18.5
 30
0.0
 11
397.0
 21
18.5
 31
0.0
  0
LINE
  5
8D
330
1F
100
AcDbEntity
  8
0
  6
Continuous
 62
     7
370
    35
100
AcDbLine
 10
20.0
 20
48.5
 30
0.0
 11
15.0
 21
48.5
 31
0.0
  0
LINE
  5
8E
330
1F
100
AcDbEntity
  8
0
  6
Continuous
 62
     7
370
    35
100
AcDbLine
 10
410.0
 20
48.5
 30
0.0
 11
415.0
 21
48.5
 31
0.0
  0
LINE
  5
8F
330
1F
100
AcDbEntity
  8
0
  6
Continuous
 62
     7
370
    35
100
AcDbLine
 10
20.0
 20
98.5
 30
0.0
 11
15.0
 21
98.5
 31
0.0
  0
LINE
  5
90
330
1F
100
AcDbEntity
  8
0
  6
Continuous
 62
     7
370
    35
100
AcDbLine
 10
410.0
 20
98.5
 30
0.0
 11
415.0
 21
98.5
 31
0.0
  0
LINE
  5
91
330
1F
100
AcDbEntity
  8
0
  6
Continuous
 62
     7
370
    35
100
AcDbLine
 10
20.0
 20
148.5
 30
0.0
 11
15.0
 21
148.5
 31
0.0
  0
LINE
  5
92
330
1F
100
AcDbEntity
  8
0
  6
Continuous
 62
     7
370
    35
100
AcDbLine
 10
410.0
 20
148.5
 30
0.0
 11
415.0
 21
148.5
 31
0.0
  0
LINE
  5
93
330
1F
100
AcDbEntity
  8
0
  6
Continuous
 62
     7
370
    35
100
AcDbLine
 10
20.0
 20
198.5
 30
0.0
 11
15.0
 21
198.5
 31
0.0
  0
LINE
  5
94
330
1F
100
AcDbEntity
  8
0
  6
Continuous
 62
     7
370
    35
100
AcDbLine
 10
410.0
 20
198.5
 30
0.0
 11
415.0
 21
198.5
 31
0.0
  0
LINE
  5
95
330
1F
100
AcDbEntity
  8
0
  6
Continuous
 62
     7
370
    35
100
AcDbLine
 10
20.0
 20
248.5
 30
0.0
 11
15.0
 21
248.5
 31
0.0
  0
LINE
  5
96
330
1F
100
AcDbEntity
  8
0
  6
Continuous
 62
     7
370
    35
100
AcDbLine
 10
410.0
 20
248.5
 30
0.0
 11
415.0
 21
248.5
 31
0.0
  0
LINE
  5
97
330
1F
100
AcDbEntity
  8
0
  6
Continuous
 62
     7
370
    35
100
AcDbLine
 10
65.0
 20
287.0
 30
0.0
 11
65.0
 21
292.0
 31
0.0
  0
LINE
  5
98
330
1F
100
AcDbEntity
  8
0
  6
Continuous
 62
     7
370
    35
100
AcDbLine
 10
65.0
 20
10.0
 30
0.0
 11
65.0
 21
5.0
 31
0.0
  0
LINE
  5
99
330
1F
100
AcDbEntity
  8
0
  6
Continuous
 62
     7
370
    35
100
AcDbLine
 10
115.0
 20
287.0
 30
0.0
 11
115.0
 21
292.0
 31
0.0
  0
LINE
  5
9A
330
1F
100
AcDbEntity
  8
0
  6
Continuous
 62
     7
370
    35
100
AcDbLine
 10
115.0
 20
10.0
 30
0.0
 11
115.0
 21
5.0
 31
0.0
  0
LINE
  5
9B
330
1F
100
AcDbEntity
  8
0
  6
Continuous
 62
     7
370
    35
100
AcDbLine
 10
165.0
 20
287.0
 30
0.0
 11
165.0
 21
292.0
 31
0.0
  0
LINE
  5
9C
330
1F
100
AcDbEntity
  8
0
  6
Continuous
 62
     7
370
    35
100
AcDbLine
 10
165.0
 20
10.0
 30
0.0
 11
165.0
 21
5.0
 31
0.0
  0
LINE
  5
9D
330
1F
100
AcDbEntity
  8
0
  6
Continuous
 62
     7
370
    35
100
AcDbLine
 10
215.0
 20
287.0
 30
0.0
 11
215.0
 21
292.0
 31
0.0
  0
LINE
  5
9E
330
1F
100
AcDbEntity
  8
0
  6
Continuous
 62
     7
370
    35
100
AcDbLine
 10
215.0
 20
10.0
 30
0.0
 11
215.0
 21
5.0
 31
0.0
  0
LINE
  5
9F
330
1F
100
AcDbEntity
  8
0
  6
Continuous
 62
     7
370
    35
100
AcDbLine
 10
265.0
 20
287.0
 30
0.0
 11
265.0
 21
292.0
 31
0.0
  0
LINE
  5
A0
330
1F
100
AcDbEntity
  8
0
  6
Continuous
 62
     7
370
    35
100
AcDbLine
 10
265.0
 20
10.0
 30
0.0
 11
265.0
 21
5.0
 31
0.0
  0
LINE
  5
A1
330
1F
100
AcDbEntity
  8
0
  6
Continuous
 62
     7
370
    35
100
AcDbLine
 10
315.0
 20
287.0
 30
0.0
 11
315.0
 21
292.0
 31
0.0
  0
LINE
  5
A2
330
1F
100
AcDbEntity
  8
0
  6
Continuous
 62
     7
370
    35
100
AcDbLine
 10
315.0
 20
10.0
 30
0.0
 11
315.0
 21
5.0
 31
0.0
  0
LINE
  5
A3
330
1F
100
AcDbEntity
  8
0
  6
Continuous
 62
     7
370
    35
100
AcDbLine
 10
365.0
 20
287.0
 30
0.0
 11
365.0
 21
292.0
 31
0.0
  0
LINE
  5
A4
330
1F
100
AcDbEntity
  8
0
  6
Continuous
 62
     7
370
    35
100
AcDbLine
 10
365.0
 20
10.0
 30
0.0
 11
365.0
 21
5.0
 31
0.0
  0
LINE
  5
A5
330
1F
100
AcDbEntity
  8
0
  6
Continuous
 62
     7
370
    70
100
AcDbLine
 10
20.0
 20
10.0
 30
0.0
 11
20.0
 21
287.0
 31
0.0
  0
LINE
  5
A6
330
1F
100
AcDbEntity
  8
0
  6
Continuous
 62
     7
370
    70
100
AcDbLine
 10
20.0
 20
287.0
 30
0.0
 11
410.0
 21
287.0
 31
0.0
  0
LINE
  5
A7
330
1F
100
AcDbEntity
  8
0
  6
Continuous
 62
     7
370
    70
100
AcDbLine
 10
410.0
 20
287.0
 30
0.0
 11
410.0
 21
10.0
 31
0.0
  0
LINE
  5
A8
330
1F
100
AcDbEntity
  8
0
  6
Continuous
 62
     7
370
    70
100
AcDbLine
 10
410.0
 20
10.0
 30
0.0
 11
20.0
 21
10.0
 31
0.0
  0
LINE
  5
A9
330
1F
100
AcDbEntity
  8
0
  6
Continuous
 62
     7
370
    70
100
AcDbLine
 10
15.0
 20
5.0
 30
0.0
 11
15.0
 21
292.0
 31
0.0
  0
LINE
  5
AA
330
1F
100
AcDbEntity
  8
0
  6
Continuous
 62
     7
370
    70
100
AcDbLine
 10
15.0
 20
292.0
 30
0.0
 11
415.0
 21
292.0
 31
0.0
  0
LINE
  5
AB
330
1F
100
AcDbEntity
  8
0
  6
Continuous
 62
     7
370
    70
100
AcDbLine
 10
415.0
 20
292.0
 30
0.0
 11
415.0
 21
5.0
 31
0.0
  0
LINE
  5
AC
330
1F
100
AcDbEntity
  8
0
  6
Continuous
 62
     7
370
    70
100
AcDbLine
 10
415.0
 20
5.0
 30
0.0
 11
15.0
 21
5.0
 31
0.0
  0
LINE
  5
AD
330
1F
100
AcDbEntity
  8
0
  6
Continuous
 62
     7
370
    35
100
AcDbLine
 10
14.999
 20
148.5
 30
0.0
 11
25.001
 21
148.5
 31
0.0
  0
LINE
  5
AE
330
1F
100
AcDbEntity
  8
0
  6
Continuous
 62
     7
370
    35
100
AcDbLine
 10
215.0
 20
292.001
 30
0.0
 11
215.0
 21
281.999
 31
0.0
  0
LINE
  5
AF
330
1F
100
AcDbEntity
  8
0
  6
Continuous
 62
     7
370
    35
100
AcDbLine
 10
415.001
 20
148.5
 30
0.0
 11
404.999
 21
148.5
 31
0.0
  0
LINE
  5
B0
330
1F
100
AcDbEntity
  8
0
  6
Continuous
 62
     7
370
    35
100
AcDbLine
 10
215.0
 20
4.999
 30
0.0
 11
215.0
 21
15.001
 31
0.0
  0
MTEXT
  5
B2
330
1F
100
AcDbEntity
  8
0
  6
Continuous
 62
     7
370
     0
100
AcDbMText
 10
364.8433075591
 20
23.6069112001
 30
0.0
 40
6.35
 41
0.0
 71
     2
 72
     1
  1
CE025CCOOFFGM050_#_##Svoboda
  7
SLDTEXTSTYLE0
 73
     1
 44
1.0
  0
MTEXT
  5
B3
330
1F
100
AcDbEntity
  8
0
  6
Continuous
 62
     7
370
     0
100
AcDbMText
 10
285.6178111281
 20
12.9493119036
 30
0.0
 40
1.4986
 41
0.0
 71
     1
 72
     1
  1
HMOTNOST:
  7
SLDTEXTSTYLE0
 73
     1
 44
1.0
  0
MTEXT
  5
B4
330
1F
100
AcDbEntity
  8
0
  6
Continuous
 62
     7
370
     0
100
AcDbMText
 10
400.8711564346
 20
24.406388569
 30
0.0
 40
2.9104166667
 41
0.0
 71
     1
 72
     1
  1
A3
  7
SLDTEXTSTYLE0
 73
     1
 44
1.0
  0
MTEXT
  5
B6
330
1F
100
AcDbEntity
  8
0
  6
Continuous
 62
     7
370
     0
100
AcDbMText
 10
374.4782944278
 20
12.9000872745
 30
0.0
 40
1.5
 41
0.0
 71
     1
 72
     1
  1
LIST 1 Z 1 LISTŮ
  7
SLDTEXTSTYLE1
 73
     1
 44
1.0
  0
MTEXT
  5
B8
330
1F
100
AcDbEntity
  8
0
  6
Continuous
 62
     7
370
     0
100
AcDbMText
 10
330.0739661175
 20
12.9000872745
 30
0.0
 40
1.5
 41
0.0
 71
     1
 72
     1
  1
MĚŘÍTKO:1:1
  7
SLDTEXTSTYLE2
 73
     1
 44
1.0
  0
MTEXT
  5
B9
330
1F
100
AcDbEntity
  8
0
  6
Continuous
 62
     7
370
     0
100
AcDbMText
 10
330.2786531243
 20
25.9860562892
 30
0.0
 40
1.5
 41
0.0
 71
     1
 72
     1
  1
Č. VÝKRESU
  7
SLDTEXTSTYLE2
 73
     1
 44
1.0
  0
MTEXT
  5
BA
330
1F
100
AcDbEntity
  8
0
  6
Continuous
 62
     7
370
     0
100
AcDbMText
 10
329.9561869366
 20
46.5761792212
 30
0.0
 40
1.5
 41
0.0
 71
     1
 72
     1
  1
NÁZEV:
  7
SLDTEXTSTYLE0
 73
     1
 44
1.0
  0
MTEXT
  5
BB
330
1F
100
AcDbEntity
  8
0
  6
Continuous
 62
     7
370
     0
100
AcDbMText
 10
383.3275816993
 20
62.3349086805
 30
0.0
 40
1.5
 41
0.0
 71
     1
 72
     1
  1
ZMĚNA
  7
SLDTEXTSTYLE2
 73
     1
 44
1.0
  0
MTEXT
  5
BC
330
1F
100
AcDbEntity
  8
0
  6
Continuous
 62
     7
370
     0
100
AcDbMText
 10
342.6146405229
 20
62.5329935751
 30
0.0
 40
1.5
 41
0.0
 71
     1
 72
     1
  1
NEUPRAVOVAT MĚŘÍTKO VÝKRESU
  7
SLDTEXTSTYLE2
 73
     1
 44
1.0
  0
MTEXT
  5
BD
330
1F
100
AcDbEntity
  8
0
  6
Continuous
 62
     7
370
     0
100
AcDbMText
 10
285.6458623088
 20
25.9860562892
 30
0.0
 40
1.5
 41
0.0
 71
     1
 72
     1
  1
MATERIÁL:
  7
SLDTEXTSTYLE0
 73
     1
 44
1.0
  0
MTEXT
  5
BE
330
1F
100
AcDbEntity
  8
0
  6
Continuous
 62
     7
370
     0
100
AcDbMText
 10
277.2147019657
 20
46.5761792212
 30
0.0
 40
1.5
 41
0.0
 71
     1
 72
     1
  1
DATUM
  7
SLDTEXTSTYLE0
 73
     1
 44
1.0
  0
MTEXT
  5
BF
330
1F
100
AcDbEntity
  8
0
  6
Continuous
 62
     7
370
     0
100
AcDbMText
 10
260.0335875632
 20
46.5617563795
 30
0.0
 40
1.5
 41
0.0
 71
     1
 72
     1
  1
PODPIS
  7
SLDTEXTSTYLE0
 73
     1
 44
1.0
  0
MTEXT
  5
C0
330
1F
100
AcDbEntity
  8
0
  6
Continuous
 62
     7
370
     0
100
AcDbMText
 10
244.3222392177
 20
46.5014826335
 30
0.0
 40
1.5
 41
0.0
 71
     1
 72
     1
  1
JMÉNO
  7
SLDTEXTSTYLE0
 73
     1
 44
1.0
  0
INSERT
  5
C6
330
1F
100
AcDbEntity
  8
0
  6
Continuous
 62
     7
370
     0
100
AcDbBlockReference
  2
SW_NOTE_0
 10
311.3092156863
 20
62.069489643
 30
0.0
  0
MTEXT
  5
C7
330
1F
100
AcDbEntity
  8
0
  6
Continuous
 62
     7
370
     0
100
AcDbMText
 10
264.3712921668
 20
63.9192719951
 30
0.0
 40
1.5
 41
0.0
 71
     1
 72
     1
  1
OPRACOVÁNÍ:
  7
SLDTEXTSTYLE0
 73
     1
 44
1.0
  0
INSERT
  5
D1
330
1F
100
AcDbEntity
  8
0
  6
Continuous
 62
     7
370
     0
100
AcDbBlockReference
  2
SW_NOTE_0_1
 10
230.5936687456
 20
61.9873698743
 30
0.0
  0
MTEXT
  5
D2
330
1F
100
AcDbEntity
  8
0
  6
Continuous
 62
     7
370
     0
100
AcDbMText
 10
230.6690428622
 20
25.3496492073
 30
0.0
 40
1.5
 41
0.0
 71
     1
 72
     1
  1
Z. JAKOSTI
  7
SLDTEXTSTYLE0
 73
     1
 44
1.0
  0
MTEXT
  5
D3
330
1F
100
AcDbEntity
  8
0
  6
Continuous
 62
     7
370
     0
100
AcDbMText
 10
230.4551864991
 20
29.7337046506
 30
0.0
 40
1.5
 41
0.0
 71
     1
 72
     1
  1
VÝROBA
  7
SLDTEXTSTYLE0
 73
     1
 44
1.0
  0
MTEXT
  5
D4
330
1F
100
AcDbEntity
  8
0
  6
Continuous
 62
     7
370
     0
100
AcDbMText
 10
230.4017224083
 20
34.0642960031
 30
0.0
 40
1.5
 41
0.0
 71
     1
 72
     1
  1
SCHVÁLIL
  7
SLDTEXTSTYLE0
 73
     1
 44
1.0
  0
MTEXT
  5
D5
330
1F
100
AcDbEntity
  8
0
  6
Continuous
 62
     7
370
     0
100
AcDbMText
 10
230.4104688676
 20
38.15440716
 30
0.0
 40
1.5
 41
0.0
 71
     1
 72
     1
  1
PŘEZKOUŠEL
  7
SLDTEXTSTYLE2
 73
     1
 44
1.0
  0
MTEXT
  5
D6
330
1F
100
AcDbEntity
  8
0
  6
Continuous
 62
     7
370
     0
100
AcDbMText
 10
230.2121492441
 20
42.4297148859
 30
0.0
 40
1.5
 41
0.0
 71
     1
 72
     1
  1
NAVRHL
  7
SLDTEXTSTYLE0
 73
     1
 44
1.0
  0
MTEXT
  5
D7
330
1F
100
AcDbEntity
  8
0
  6
Continuous
 62
     7
370
     0
100
AcDbMText
 10
17.3396881428
 20
31.81015409
 30
0.0
 40
3.96875
 41
0.0
 71
     2
 72
     1
  1
A
  7
SLDTEXTSTYLE0
 73
     1
 44
1.0
  0
MTEXT
  5
D8
330
1F
100
AcDbEntity
  8
0
  6
Continuous
 62
     7
370
     0
100
AcDbMText
 10
412.3396881428
 20
31.81015409
 30
0.0
 40
3.96875
 41
0.0
 71
     2
 72
     1
  1
A
  7
SLDTEXTSTYLE0
 73
     1
 44
1.0
  0
MTEXT
  5
D9
330
1F
100
AcDbEntity
  8
0
  6
Continuous
 62
     7
370
     0
100
AcDbMText
 10
17.4706018241
 20
76.06015409
 30
0.0
 40
3.96875
 41
0.0
 71
     2
 72
     1
  1
B
  7
SLDTEXTSTYLE0
 73
     1
 44
1.0
  0
MTEXT
  5
DA
330
1F
100
AcDbEntity
  8
0
  6
Continuous
 62
     7
370
     0
100
AcDbMText
 10
412.4706018241
 20
76.06015409
 30
0.0
 40
3.96875
 41
0.0
 71
     2
 72
     1
  1
B
  7
SLDTEXTSTYLE0
 73
     1
 44
1.0
  0
MTEXT
  5
DB
330
1F
100
AcDbEntity
  8
0
  6
Continuous
 62
     7
370
     0
100
AcDbMText
 10
17.458658902
 20
126.06015409
 30
0.0
 40
3.96875
 41
0.0
 71
     2
 72
     1
  1
C
  7
SLDTEXTSTYLE0
 73
     1
 44
1.0
  0
MTEXT
  5
DC
330
1F
100
AcDbEntity
  8
0
  6
Continuous
 62
     7
370
     0
100
AcDbMText
 10
412.458658902
 20
126.06015409
 30
0.0
 40
3.96875
 41
0.0
 71
     2
 72
     1
  1
C
  7
SLDTEXTSTYLE0
 73
     1
 44
1.0
  0
MTEXT
  5
DD
330
1F
100
AcDbEntity
  8
0
  6
Continuous
 62
     7
370
     0
100
AcDbMText
 10
17.4526872821
 20
176.06015409
 30
0.0
 40
3.96875
 41
0.0
 71
     2
 72
     1
  1
D
  7
SLDTEXTSTYLE0
 73
     1
 44
1.0
  0
MTEXT
  5
DE
330
1F
100
AcDbEntity
  8
0
  6
Continuous
 62
     7
370
     0
100
AcDbMText
 10
412.4526872821
 20
176.06015409
 30
0.0
 40
3.96875
 41
0.0
 71
     2
 72
     1
  1
D
  7
SLDTEXTSTYLE0
 73
     1
 44
1.0
  0
MTEXT
  5
DF
330
1F
100
AcDbEntity
  8
0
  6
Continuous
 62
     7
370
     0
100
AcDbMText
 10
17.5078089051
 20
226.06015409
 30
0.0
 40
3.96875
 41
0.0
 71
     2
 72
     1
  1
E
  7
SLDTEXTSTYLE0
 73
     1
 44
1.0
  0
MTEXT
  5
E0
330
1F
100
AcDbEntity
  8
0
  6
Continuous
 62
     7
370
     0
100
AcDbMText
 10
412.5078089051
 20
226.06015409
 30
0.0
 40
3.96875
 41
0.0
 71
     2
 72
     1
  1
E
  7
SLDTEXTSTYLE0
 73
     1
 44
1.0
  0
MTEXT
  5
E1
330
1F
100
AcDbEntity
  8
0
  6
Continuous
 62
     7
370
     0
100
AcDbMText
 10
17.4577402091
 20
270.31015409
 30
0.0
 40
3.96875
 41
0.0
 71
     2
 72
     1
  1
F
  7
SLDTEXTSTYLE0
 73
     1
 44
1.0
  0
MTEXT
  5
E2
330
1F
100
AcDbEntity
  8
0
  6
Continuous
 62
     7
370
     0
100
AcDbMText
 10
412.4577402091
 20
270.31015409
 30
0.0
 40
3.96875
 41
0.0
 71
     2
 72
     1
  1
F
  7
SLDTEXTSTYLE0
 73
     1
 44
1.0
  0
MTEXT
  5
E3
330
1F
100
AcDbEntity
  8
0
  6
Continuous
 62
     7
370
     0
100
AcDbMText
 10
42.4600369465
 20
10.06015409
 30
0.0
 40
3.96875
 41
0.0
 71
     2
 72
     1
  1
8
  7
SLDTEXTSTYLE0
 73
     1
 44
1.0
  0
MTEXT
  5
E4
330
1F
100
AcDbEntity
  8
0
  6
Continuous
 62
     7
370
     0
100
AcDbMText
 10
42.4600369465
 20
292.06015409
 30
0.0
 40
3.96875
 41
0.0
 71
     2
 72
     1
  1
8
  7
SLDTEXTSTYLE0
 73
     1
 44
1.0
  0
MTEXT
  5
E5
330
1F
100
AcDbEntity
  8
0
  6
Continuous
 62
     7
370
     0
100
AcDbMText
 10
89.9600369465
 20
10.06015409
 30
0.0
 40
3.96875
 41
0.0
 71
     2
 72
     1
  1
7
  7
SLDTEXTSTYLE0
 73
     1
 44
1.0
  0
MTEXT
  5
E6
330
1F
100
AcDbEntity
  8
0
  6
Continuous
 62
     7
370
     0
100
AcDbMText
 10
89.9600369465
 20
292.06015409
 30
0.0
 40
3.96875
 41
0.0
 71
     2
 72
     1
  1
7
  7
SLDTEXTSTYLE0
 73
     1
 44
1.0
  0
MTEXT
  5
E7
330
1F
100
AcDbEntity
  8
0
  6
Continuous
 62
     7
370
     0
100
AcDbMText
 10
139.9600369465
 20
10.06015409
 30
0.0
 40
3.96875
 41
0.0
 71
     2
 72
     1
  1
6
  7
SLDTEXTSTYLE0
 73
     1
 44
1.0
  0
MTEXT
  5
E8
330
1F
100
AcDbEntity
  8
0
  6
Continuous
 62
     7
370
     0
100
AcDbMText
 10
139.9600369465
 20
292.06015409
 30
0.0
 40
3.96875
 41
0.0
 71
     2
 72
     1
  1
6
  7
SLDTEXTSTYLE0
 73
     1
 44
1.0
  0
MTEXT
  5
E9
330
1F
100
AcDbEntity
  8
0
  6
Continuous
 62
     7
370
     0
100
AcDbMText
 10
189.9600369465
 20
10.06015409
 30
0.0
 40
3.96875
 41
0.0
 71
     2
 72
     1
  1
5
  7
SLDTEXTSTYLE0
 73
     1
 44
1.0
  0
MTEXT
  5
EA
330
1F
100
AcDbEntity
  8
0
  6
Continuous
 62
     7
370
     0
100
AcDbMText
 10
189.9600369465
 20
292.06015409
 30
0.0
 40
3.96875
 41
0.0
 71
     2
 72
     1
  1
5
  7
SLDTEXTSTYLE0
 73
     1
 44
1.0
  0
MTEXT
  5
EB
330
1F
100
AcDbEntity
  8
0
  6
Continuous
 62
     7
370
     0
100
AcDbMText
 10
239.9600369465
 20
10.06015409
 30
0.0
 40
3.96875
 41
0.0
 71
     2
 72
     1
  1
4
  7
SLDTEXTSTYLE0
 73
     1
 44
1.0
  0
MTEXT
  5
EC
330
1F
100
AcDbEntity
  8
0
  6
Continuous
 62
     7
370
     0
100
AcDbMText
 10
239.9600369465
 20
292.06015409
 30
0.0
 40
3.96875
 41
0.0
 71
     2
 72
     1
  1
4
  7
SLDTEXTSTYLE0
 73
     1
 44
1.0
  0
MTEXT
  5
ED
330
1F
100
AcDbEntity
  8
0
  6
Continuous
 62
     7
370
     0
100
AcDbMText
 10
289.9600369465
 20
10.06015409
 30
0.0
 40
3.96875
 41
0.0
 71
     2
 72
     1
  1
3
  7
SLDTEXTSTYLE0
 73
     1
 44
1.0
  0
MTEXT
  5
EE
330
1F
100
AcDbEntity
  8
0
  6
Continuous
 62
     7
370
     0
100
AcDbMText
 10
289.9600369465
 20
292.06015409
 30
0.0
 40
3.96875
 41
0.0
 71
     2
 72
     1
  1
3
  7
SLDTEXTSTYLE0
 73
     1
 44
1.0
  0
MTEXT
  5
EF
330
1F
100
AcDbEntity
  8
0
  6
Continuous
 62
     7
370
     0
100
AcDbMText
 10
339.9600369465
 20
10.06015409
 30
0.0
 40
3.96875
 41
0.0
 71
     2
 72
     1
  1
2
  7
SLDTEXTSTYLE0
 73
     1
 44
1.0
  0
MTEXT
  5
F0
330
1F
100
AcDbEntity
  8
0
  6
Continuous
 62
     7
370
     0
100
AcDbMText
 10
339.9600369465
 20
292.06015409
 30
0.0
 40
3.96875
 41
0.0
 71
     2
 72
     1
  1
2
  7
SLDTEXTSTYLE0
 73
     1
 44
1.0
  0
MTEXT
  5
F1
330
1F
100
AcDbEntity
  8
0
  6
Continuous
 62
     7
370
     0
100
AcDbMText
 10
387.4600369465
 20
10.06015409
 30
0.0
 40
3.96875
 41
0.0
 71
     2
 72
     1
  1
1
  7
SLDTEXTSTYLE0
 73
     1
 44
1.0
  0
MTEXT
  5
F2
330
1F
100
AcDbEntity
  8
0
  6
Continuous
 62
     7
370
     0
100
AcDbMText
 10
387.4600369465
 20
292.06015409
 30
0.0
 40
3.96875
 41
0.0
 71
     2
 72
     1
  1
1
  7
SLDTEXTSTYLE0
 73
     1
 44
1.0
  0
CIRCLE
  5
F3
330
1F
100
AcDbEntity
  8
0
  6
Continuous
 62
     7
370
    25
100
AcDbCircle
 10
113.44
 20
240.66
 30
0.0
 40
3.400000000000006
  0
LINE
  5
F4
330
1F
100
AcDbEntity
  8
0
  6
Continuous
 62
     7
370
    25
100
AcDbLine
 10
110.04
 20
242.16
 30
0.0
 11
110.3887707395
 21
242.16
 31
0.0
  0
LINE
  5
F5
330
1F
100
AcDbEntity
  8
0
  6
Continuous
 62
     7
370
    25
100
AcDbLine
 10
110.04
 20
240.66
 30
0.0
 11
110.04
 21
242.16
 31
0.0
  0
LINE
  5
F6
330
1F
100
AcDbEntity
  8
0
  6
Continuous
 62
     7
370
    25
100
AcDbLine
 10
116.84
 20
242.16
 30
0.0
 11
116.84
 21
240.66
 31
0.0
  0
LINE
  5
F7
330
1F
100
AcDbEntity
  8
0
  6
Continuous
 62
     7
370
    25
100
AcDbLine
 10
116.4912292605
 20
242.16
 30
0.0
 11
116.84
 21
242.16
 31
0.0
  0
LINE
  5
F8
330
1F
100
AcDbEntity
  8
0
  6
Continuous
 62
     7
370
    25
100
AcDbLine
 10
116.84
 20
240.66
 30
0.0
 11
116.84
 21
239.16
 31
0.0
  0
LINE
  5
F9
330
1F
100
AcDbEntity
  8
0
  6
Continuous
 62
     7
370
    25
100
AcDbLine
 10
116.84
 20
239.16
 30
0.0
 11
116.4912292605
 21
239.16
 31
0.0
  0
LINE
  5
FA
330
1F
100
AcDbEntity
  8
0
  6
Continuous
 62
     7
370
    25
100
AcDbLine
 10
110.04
 20
239.16
 30
0.0
 11
110.04
 21
240.66
 31
0.0
  0
LINE
  5
FB
330
1F
100
AcDbEntity
  8
0
  6
Continuous
 62
     7
370
    25
100
AcDbLine
 10
110.3887707395
 20
239.16
 30
0.0
 11
110.04
 21
239.16
 31
0.0
  0
CIRCLE
  5
FC
330
1F
100
AcDbEntity
  8
0
  6
Continuous
 62
     7
370
    25
100
AcDbCircle
 10
123.44
 20
240.66
 30
0.0
 40
3.400000000000006
  0
LINE
  5
FD
330
1F
100
AcDbEntity
  8
0
  6
Continuous
 62
     7
370
    25
100
AcDbLine
 10
120.04
 20
239.16
 30
0.0
 11
120.04
 21
240.66
 31
0.0
  0
LINE
  5
FE
330
1F
100
AcDbEntity
  8
0
  6
Continuous
 62
     7
370
    25
100
AcDbLine
 10
120.3887707395
 20
239.16
 30
0.0
 11
120.04
 21
239.16
 31
0.0
  0
LINE
  5
FF
330
1F
100
AcDbEntity
  8
0
  6
Continuous
 62
     7
370
    25
100
AcDbLine
 10
126.84
 20
242.16
 30
0.0
 11
126.84
 21
240.66
 31
0.0
  0
LINE
  5
100
330
1F
100
AcDbEntity
  8
0
  6
Continuous
 62
     7
370
    25
100
AcDbLine
 10
126.4912292605
 20
242.16
 30
0.0
 11
126.84
 21
242.16
 31
0.0
  0
LINE
  5
101
330
1F
100
AcDbEntity
  8
0
  6
Continuous
 62
     7
370
    25
100
AcDbLine
 10
126.84
 20
239.16
 30
0.0
 11
126.4912292605
 21
239.16
 31
0.0
  0
LINE
  5
102
330
1F
100
AcDbEntity
  8
0
  6
Continuous
 62
     7
370
    25
100
AcDbLine
 10
126.84
 20
240.66
 30
0.0
 11
126.84
 21
239.16
 31
0.0
  0
LINE
  5
103
330
1F
100
AcDbEntity
  8
0
  6
Continuous
 62
     7
370
    25
100
AcDbLine
 10
120.04
 20
242.16
 30
0.0
 11
120.3887707395
 21
242.16
 31
0.0
  0
LINE
  5
104
330
1F
100
AcDbEntity
  8
0
  6
Continuous
 62
     7
370
    25
100
AcDbLine
 10
120.04
 20
240.66
 30
0.0
 11
120.04
 21
242.16
 31
0.0
  0
ARC
  5
105
330
1F
100
AcDbEntity
  8
0
  6
Continuous
 62
     7
370
    25
100
AcDbCircle
 10
118.44
 20
214.66
 30
0.0
 40
8.500000000000032
100
AcDbArc
 50
28.0724869359
 51
61.9275130641
  0
SPLINE
  5
106
330
1F
100
AcDbEntity
  8
0
  6
Continuous
 62
     7
370
    25
100
AcDbSpline
210
0.0
220
0.0
230
1.0
 70
    24
 71
     3
 72
    13
 73
     9
 74
     0
 42
0.000000001
 43
0.00000001
 40
0.0
 40
0.0
 40
0.0
 40
0.0
 40
0.0600071289245176
 40
0.1333066582979345
 40
0.2464479258036567
 40
0.4598572101501736
 40
0.9339715721128006
 40
1.0
 40
1.0
 40
1.0
 40
1.0
 10
125.940000000013
 20
218.6600000000005
 30
0.0
 10
125.940000000013
 20
218.6568763501264
 30
0.0
 10
125.940000000013
 20
218.6499371191737
 30
0.0
 10
125.940000000013
 20
218.586473597475
 30
0.0
 10
125.940000000013
 20
218.4412706355975
 30
0.0
 10
125.940000000013
 20
218.0869875302724
 30
0.0
 10
125.940000000013
 20
217.7291755383156
 30
0.0
 10
125.940000000013
 20
217.4749583382695
 30
0.0
 10
125.940000000013
 20
217.4438821814155
 30
0.0
  0
ARC
  5
107
330
1F
100
AcDbEntity
  8
0
  6
Continuous
 62
     7
370
    25
100
AcDbCircle
 10
118.44
 20
214.66
 30
0.0
 40
8.000000000000025
100
AcDbArc
 50
20.3641348063
 51
69.6358651937
  0
SPLINE
  5
108
330
1F
100
AcDbEntity
  8
0
  6
Continuous
 62
     7
370
    25
100
AcDbSpline
210
0.0
220
0.0
230
1.0
 70
    24
 71
     3
 72
    13
 73
     9
 74
     0
 42
0.000000001
 43
0.00000001
 40
0.0
 40
0.0
 40
0.0
 40
0.0
 40
0.4562536240148976
 40
0.6151465960656778
 40
0.824897800970147
 40
0.8989945491587304
 40
0.9737945380438768
 40
1.0
 40
1.0
 40
1.0
 40
1.0
 10
121.223882181428
 20
222.1600000000005
 30
0.0
 10
121.4402706190968
 20
222.1600000000005
 30
0.0
 10
121.7320175858136
 20
222.1600000000005
 30
0.0
 10
122.1042768472396
 20
222.1600000000005
 30
0.0
 10
122.294362021364
 20
222.1600000000005
 30
0.0
 10
122.4045981736652
 20
222.1600000000005
 30
0.0
 10
122.4370991738623
 20
222.1600000000005
 30
0.0
 10
122.4394024295086
 20
222.1600000000005
 30
0.0
 10
122.440000000013
 20
222.1600000000005
 30
0.0
  0
ARC
  5
109
330
1F
100
AcDbEntity
  8
0
  6
Continuous
 62
     7
370
    25
100
AcDbCircle
 10
118.44
 20
214.66
 30
0.0
 40
8.500000000000012
100
AcDbArc
 50
298.0724869359
 51
331.9275130641
  0
ARC
  5
10A
330
1F
100
AcDbEntity
  8
0
  6
Continuous
 62
     7
370
    25
100
AcDbCircle
 10
118.44
 20
214.66
 30
0.0
 40
8.000000000000012
100
AcDbArc
 50
290.3641348063
 51
339.6358651937
  0
SPLINE
  5
10B
330
1F
100
AcDbEntity
  8
0
  6
Continuous
 62
     7
370
    25
100
AcDbSpline
210
0.0
220
0.0
230
1.0
 70
    24
 71
     3
 72
    13
 73
     9
 74
     0
 42
0.000000001
 43
0.00000001
 40
0.0
 40
0.0
 40
0.0
 40
0.0
 40
0.0600071289245178
 40
0.1333066582979344
 40
0.2464479258036561
 40
0.4598572101501749
 40
0.9339715721127944
 40
1.0
 40
1.0
 40
1.0
 40
1.0
 10
122.440000000013
 20
207.1600000000005
 30
0.0
 10
122.4368763501389
 20
207.1600000000005
 30
0.0
 10
122.4299371191862
 20
207.1600000000005
 30
0.0
 10
122.3664735974875
 20
207.1600000000005
 30
0.0
 10
122.22127063561
 20
207.1600000000005
 30
0.0
 10
121.8669875302849
 20
207.1600000000005
 30
0.0
 10
121.5091755383282
 20
207.1600000000005
 30
0.0
 10
121.2549583382821
 20
207.1600000000005
 30
0.0
 10
121.223882181428
 20
207.1600000000005
 30
0.0
  0
SPLINE
  5
10C
330
1F
100
AcDbEntity
  8
0
  6
Continuous
 62
     7
370
    25
100
AcDbSpline
210
0.0
220
0.0
230
1.0
 70
    24
 71
     3
 72
    13
 73
     9
 74
     0
 42
0.000000001
 43
0.00000001
 40
0.0
 40
0.0
 40
0.0
 40
0.0
 40
0.4562536240149153
 40
0.6151465960656882
 40
0.8248978009701609
 40
0.8989945491587419
 40
0.9737945380438864
 40
0.9999999999999999
 40
0.9999999999999999
 40
0.9999999999999999
 40
0.9999999999999999
 10
125.940000000013
 20
211.8761178185855
 30
0.0
 10
125.940000000013
 20
211.6597293809168
 30
0.0
 10
125.940000000013
 20
211.3679824142
 30
0.0
 10
125.940000000013
 20
210.995723152774
 30
0.0
 10
125.940000000013
 20
210.8056379786496
 30
0.0
 10
125.940000000013
 20
210.6954018263484
 30
0.0
 10
125.940000000013
 20
210.6629008261513
 30
0.0
 10
125.940000000013
 20
210.660597570505
 30
0.0
 10
125.940000000013
 20
210.6600000000005
 30
0.0
  0
ARC
  5
10D
330
1F
100
AcDbEntity
  8
0
  6
Continuous
 62
     7
370
    25
100
AcDbCircle
 10
118.44
 20
214.66
 30
0.0
 40
8.500000000000025
100
AcDbArc
 50
118.0724869359
 51
151.9275130641
  0
SPLINE
  5
10E
330
1F
100
AcDbEntity
  8
0
  6
Continuous
 62
     7
370
    25
100
AcDbSpline
210
0.0
220
0.0
230
1.0
 70
    24
 71
     3
 72
    13
 73
     9
 74
     0
 42
0.000000001
 43
0.00000001
 40
0.0
 40
0.0
 40
0.0
 40
0.0
 40
0.0600071289245179
 40
0.1333066582979347
 40
0.2464479258036572
 40
0.4598572101501754
 40
0.9339715721127966
 40
1.0
 40
1.0
 40
1.0
 40
1.0
 10
114.440000000013
 20
222.1600000000005
 30
0.0
 10
114.4431236498872
 20
222.1600000000005
 30
0.0
 10
114.4500628808399
 20
222.1600000000005
 30
0.0
 10
114.5135264025385
 20
222.1600000000005
 30
0.0
 10
114.658729364416
 20
222.1600000000005
 30
0.0
 10
115.0130124697412
 20
222.1600000000005
 30
0.0
 10
115.3708244616979
 20
222.1600000000005
 30
0.0
 10
115.625041661744
 20
222.1600000000005
 30
0.0
 10
115.656117818598
 20
222.1600000000005
 30
0.0
  0
ARC
  5
10F
330
1F
100
AcDbEntity
  8
0
  6
Continuous
 62
     7
370
    25
100
AcDbCircle
 10
118.44
 20
214.66
 30
0.0
 40
8.000000000000025
100
AcDbArc
 50
110.3641348063
 51
159.6358651937
  0
SPLINE
  5
110
330
1F
100
AcDbEntity
  8
0
  6
Continuous
 62
     7
370
    25
100
AcDbSpline
210
0.0
220
0.0
230
1.0
 70
    24
 71
     3
 72
    13
 73
     9
 74
     0
 42
0.000000001
 43
0.00000001
 40
0.0
 40
0.0
 40
0.0
 40
0.0
 40
0.4562536240149148
 40
0.6151465960656927
 40
0.8248978009701463
 40
0.8989945491587304
 40
0.973794538043877
 40
1.0
 40
1.0
 40
1.0
 40
1.0
 10
110.940000000013
 20
217.4438821814155
 30
0.0
 10
110.940000000013
 20
217.6602706190843
 30
0.0
 10
110.940000000013
 20
217.952017585801
 30
0.0
 10
110.940000000013
 20
218.3242768472271
 30
0.0
 10
110.940000000013
 20
218.5143620213515
 30
0.0
 10
110.940000000013
 20
218.6245981736527
 30
0.0
 10
110.940000000013
 20
218.6570991738498
 30
0.0
 10
110.940000000013
 20
218.6594024294961
 30
0.0
 10
110.940000000013
 20
218.6600000000005
 30
0.0
  0
ARC
  5
111
330
1F
100
AcDbEntity
  8
0
  6
Continuous
 62
     7
370
    25
100
AcDbCircle
 10
118.44
 20
214.66
 30
0.0
 40
8.5
100
AcDbArc
 50
208.0724869359
 51
241.9275130641
  0
ARC
  5
112
330
1F
100
AcDbEntity
  8
0
  6
Continuous
 62
     7
370
    25
100
AcDbCircle
 10
118.44
 20
214.66
 30
0.0
 40
7.999999999999999
100
AcDbArc
 50
200.3641348063
 51
249.6358651937
  0
SPLINE
  5
113
330
1F
100
AcDbEntity
  8
0
  6
Continuous
 62
     7
370
    25
100
AcDbSpline
210
0.0
220
0.0
230
1.0
 70
    24
 71
     3
 72
    13
 73
     9
 74
     0
 42
0.000000001
 43
0.00000001
 40
0.0
 40
0.0
 40
0.0
 40
0.0
 40
0.0600071289245169
 40
0.1333066582979337
 40
0.2464479258036562
 40
0.4598572101501728
 40
0.9339715721127863
 40
1.0
 40
1.0
 40
1.0
 40
1.0
 10
110.940000000013
 20
210.6600000000005
 30
0.0
 10
110.940000000013
 20
210.6631236498746
 30
0.0
 10
110.940000000013
 20
210.6700628808274
 30
0.0
 10
110.940000000013
 20
210.733526402526
 30
0.0
 10
110.940000000013
 20
210.8787293644035
 30
0.0
 10
110.940000000013
 20
211.2330124697286
 30
0.0
 10
110.940000000013
 20
211.5908244616854
 30
0.0
 10
110.940000000013
 20
211.8450416617315
 30
0.0
 10
110.940000000013
 20
211.8761178185855
 30
0.0
  0
SPLINE
  5
114
330
1F
100
AcDbEntity
  8
0
  6
Continuous
 62
     7
370
    25
100
AcDbSpline
210
0.0
220
0.0
230
1.0
 70
    24
 71
     3
 72
    13
 73
     9
 74
     0
 42
0.000000001
 43
0.00000001
 40
0.0
 40
0.0
 40
0.0
 40
0.0
 40
0.4562536240148967
 40
0.6151465960656775
 40
0.8248978009701471
 40
0.8989945491587304
 40
0.9737945380438766
 40
1.0
 40
1.0
 40
1.0
 40
1.0
 10
115.656117818598
 20
207.1600000000005
 30
0.0
 10
115.4397293809293
 20
207.1600000000005
 30
0.0
 10
115.1479824142125
 20
207.1600000000005
 30
0.0
 10
114.7757231527865
 20
207.1600000000005
 30
0.0
 10
114.5856379786621
 20
207.1600000000005
 30
0.0
 10
114.4754018263609
 20
207.1600000000005
 30
0.0
 10
114.4429008261638
 20
207.1600000000005
 30
0.0
 10
114.4405975705175
 20
207.1600000000005
 30
0.0
 10
114.440000000013
 20
207.1600000000005
 30
0.0
  0
CIRCLE
  5
115
330
1F
100
AcDbEntity
  8
0
  6
Continuous
 62
     7
370
    25
100
AcDbCircle
 10
118.44
 20
214.66
 30
0.0
 40
4.549999999999997
  0
LINE
  5
116
330
1F
100
AcDbEntity
  8
0
  6
Continuous
 62
     7
370
    25
100
AcDbLine
 10
121.2238821814
 20
222.16
 30
0.0
 11
115.6561178186
 21
222.16
 31
0.0
  0
LINE
  5
117
330
1F
100
AcDbEntity
  8
0
  6
Continuous
 62
     7
370
    25
100
AcDbLine
 10
110.94
 20
217.4438821814
 30
0.0
 11
110.94
 21
211.8761178186
 31
0.0
  0
LINE
  5
118
330
1F
100
AcDbEntity
  8
0
  6
Continuous
 62
     7
370
    25
100
AcDbLine
 10
115.6561178186
 20
207.16
 30
0.0
 11
121.2238821814
 21
207.16
 31
0.0
  0
LINE
  5
119
330
1F
100
AcDbEntity
  8
0
  6
Continuous
 62
     7
370
    25
100
AcDbLine
 10
125.94
 20
211.8761178186
 30
0.0
 11
125.94
 21
217.4438821814
 31
0.0
  0
CIRCLE
  5
11A
330
1F
100
AcDbEntity
  8
0
  6
Continuous
 62
     7
370
    25
100
AcDbCircle
 10
118.44
 20
214.66
 30
0.0
 40
4.25
  0
ARC
  5
11B
330
1F
100
AcDbEntity
  8
0
  6
Continuous
 62
     7
370
    25
100
AcDbCircle
 10
118.44
 20
214.66
 30
0.0
 40
8.5
100
AcDbArc
 50
151.9275130641
 51
208.0724869359
  0
CIRCLE
  5
11C
330
1F
100
AcDbEntity
  8
0
  6
Continuous
 62
     7
370
    25
100
AcDbCircle
 10
118.44
 20
214.66
 30
0.0
 40
9.000000000000014
  0
ARC
  5
11D
330
1F
100
AcDbEntity
  8
0
  6
Continuous
 62
     7
370
    25
100
AcDbCircle
 10
118.44
 20
214.66
 30
0.0
 40
8.500000000000007
100
AcDbArc
 50
241.9275130641
 51
298.0724869359
  0
ARC
  5
11E
330
1F
100
AcDbEntity
  8
0
  6
Continuous
 62
     7
370
    25
100
AcDbCircle
 10
118.44
 20
214.66
 30
0.0
 40
8.500000000000012
100
AcDbArc
 50
331.9275130641
 51
28.0724869359
  0
ARC
  5
11F
330
1F
100
AcDbEntity
  8
0
  6
Continuous
 62
     7
370
    25
100
AcDbCircle
 10
118.44
 20
214.66
 30
0.0
 40
8.500000000000032
100
AcDbArc
 50
61.9275130641
 51
118.0724869359
  0
ARC
  5
120
330
1F
100
AcDbEntity
  8
0
  6
Continuous
 62
     7
370
    25
100
AcDbCircle
 10
118.44
 20
214.66
 30
0.0
 40
16.0
100
AcDbArc
 50
215.6590876961
 51
324.3409123039
  0
ARC
  5
121
330
1F
100
AcDbEntity
  8
0
  6
Continuous
 62
     7
370
    25
100
AcDbCircle
 10
118.44
 20
214.66
 30
0.0
 40
15.50000000000004
100
AcDbArc
 50
212.9958854736
 51
327.0041145264
  0
LINE
  5
122
330
1F
100
AcDbEntity
  8
0
  6
Continuous
 62
     7
370
    25
100
AcDbLine
 10
131.44
 20
206.2190284919
 30
0.0
 11
131.44
 21
205.3326209469
 31
0.0
  0
LINE
  5
123
330
1F
100
AcDbEntity
  8
0
  6
Continuous
 62
     7
370
    25
100
AcDbLine
 10
105.44
 20
206.2190284919
 30
0.0
 11
105.44
 21
205.3326209469
 31
0.0
  0
CIRCLE
  5
124
330
1F
100
AcDbEntity
  8
0
  6
Continuous
 62
     7
370
    25
100
AcDbCircle
 10
118.44
 20
214.66
 30
0.0
 40
9.500000000000014
  0
ARC
  5
125
330
1F
100
AcDbEntity
  8
0
  6
Continuous
 62
     7
370
    25
100
AcDbCircle
 10
118.44
 20
214.66
 30
0.0
 40
15.50000000000006
100
AcDbArc
 50
32.9958854736
 51
147.0041145264
  0
LINE
  5
126
330
1F
100
AcDbEntity
  8
0
  6
Continuous
 62
     7
370
    25
100
AcDbLine
 10
131.44
 20
223.1009715081
 30
0.0
 11
131.44
 21
206.2190284919
 31
0.0
  0
LINE
  5
127
330
1F
100
AcDbEntity
  8
0
  6
Continuous
 62
     7
370
    25
100
AcDbLine
 10
105.44
 20
223.1009715081
 30
0.0
 11
105.44
 21
206.2190284919
 31
0.0
  0
ARC
  5
128
330
1F
100
AcDbEntity
  8
0
  6
Continuous
 62
     7
370
    25
100
AcDbCircle
 10
118.44
 20
214.66
 30
0.0
 40
16.00000000000007
100
AcDbArc
 50
35.6590876961
 51
144.3409123039
  0
LINE
  5
129
330
1F
100
AcDbEntity
  8
0
  6
Continuous
 62
     7
370
    25
100
AcDbLine
 10
131.44
 20
223.9873790531
 30
0.0
 11
131.44
 21
223.1009715081
 31
0.0
  0
LINE
  5
12A
330
1F
100
AcDbEntity
  8
0
  6
Continuous
 62
     7
370
    25
100
AcDbLine
 10
105.44
 20
223.9873790531
 30
0.0
 11
105.44
 21
223.1009715081
 31
0.0
  0
ARC
  5
12B
330
1F
100
AcDbEntity
  8
0
  6
Continuous
 62
     7
370
    25
100
AcDbCircle
 10
118.44
 20
214.66
 30
0.0
 40
16.0
100
AcDbArc
 50
324.3409123039
 51
35.6590876961
  0
ARC
  5
12C
330
1F
100
AcDbEntity
  8
0
  6
Continuous
 62
     7
370
    25
100
AcDbCircle
 10
118.44
 20
214.66
 30
0.0
 40
15.99999999999998
100
AcDbArc
 50
144.3409123039
 51
215.6590876961
  0
CIRCLE
  5
12D
330
1F
100
AcDbEntity
  8
0
  6
Continuous
 62
     7
370
    25
100
AcDbCircle
 10
118.44
 20
214.66
 30
0.0
 40
16.5
  0
CIRCLE
  5
12E
330
1F
100
AcDbEntity
  8
0
  6
Continuous
 62
     7
370
    25
100
AcDbCircle
 10
118.44
 20
214.66
 30
0.0
 40
17.5
  0
LINE
  5
12F
330
1F
100
AcDbEntity
  8
0
  6
Continuous
 62
     7
370
    25
100
AcDbLine
 10
88.94
 20
237.16
 30
0.0
 11
85.94
 21
234.16
 31
0.0
  0
CIRCLE
  5
130
330
1F
100
AcDbEntity
  8
0
  6
Continuous
 62
     7
370
    25
100
AcDbCircle
 10
93.44
 20
229.66
 30
0.0
 40
4.250000000021373
  0
CIRCLE
  5
131
330
1F
100
AcDbEntity
  8
0
  6
Continuous
 62
     7
370
    25
100
AcDbCircle
 10
143.44
 20
229.66
 30
0.0
 40
4.249999999957311
  0
CIRCLE
  5
132
330
1F
100
AcDbEntity
  8
0
  6
Continuous
 62
     7
370
    25
100
AcDbCircle
 10
93.44
 20
199.66
 30
0.0
 40
4.250000000040373
  0
LINE
  5
133
330
1F
100
AcDbEntity
  8
0
  6
Continuous
 62
     7
370
    25
100
AcDbLine
 10
147.94
 20
237.16
 30
0.0
 11
88.94
 21
237.16
 31
0.0
  0
LINE
  5
134
330
1F
100
AcDbEntity
  8
0
  6
Continuous
 62
     7
370
    25
100
AcDbLine
 10
88.94
 20
192.16
 30
0.0
 11
147.94
 21
192.16
 31
0.0
  0
CIRCLE
  5
135
330
1F
100
AcDbEntity
  8
0
  6
Continuous
 62
     7
370
    25
100
AcDbCircle
 10
143.44
 20
199.66
 30
0.0
 40
4.249999999976296
  0
LINE
  5
136
330
1F
100
AcDbEntity
  8
0
  6
Continuous
 62
     7
370
    25
100
AcDbLine
 10
147.94
 20
192.16
 30
0.0
 11
150.94
 21
195.16
 31
0.0
  0
LINE
  5
137
330
1F
100
AcDbEntity
  8
0
  6
Continuous
 62
     7
370
    25
100
AcDbLine
 10
150.94
 20
234.16
 30
0.0
 11
147.94
 21
237.16
 31
0.0
  0
CIRCLE
  5
138
330
1F
100
AcDbEntity
  8
0
  6
Continuous
 62
     7
370
    25
100
AcDbCircle
 10
118.44
 20
214.66
 30
0.0
 40
19.00000000000001
  0
LINE
  5
139
330
1F
100
AcDbEntity
  8
0
  6
Continuous
 62
     7
370
    25
100
AcDbLine
 10
150.94
 20
195.16
 30
0.0
 11
150.94
 21
234.16
 31
0.0
  0
LINE
  5
13A
330
1F
100
AcDbEntity
  8
0
  6
Continuous
 62
     7
370
    25
100
AcDbLine
 10
85.94
 20
195.16
 30
0.0
 11
88.94
 21
192.16
 31
0.0
  0
LINE
  5
13B
330
1F
100
AcDbEntity
  8
0
  6
Continuous
 62
     7
370
    25
100
AcDbLine
 10
85.94
 20
234.16
 30
0.0
 11
85.94
 21
195.16
 31
0.0
  0
DIMENSION
  5
13C
330
1F
100
AcDbEntity
  8
0
  6
Continuous
 62
     7
370
    18
100
AcDbDimension
  2
_D
 10
143.44
 20
182.16
 30
0.0
 11
118.44
 21
182.16
 31
0.0
 70
   160
  1
<>
 71
     2
 42
-1.0
  3
SLDDIMSTYLE0
100
AcDbAlignedDimension
 13
93.44
 23
192.91
 33
0.0
 14
143.44
 24
192.91
 34
0.0
100
AcDbRotatedDimension
  0
DIMENSION
  5
147
330
1F
100
AcDbEntity
  8
0
  6
Continuous
 62
     7
370
    18
100
AcDbDimension
  2
_D_1
 10
85.94
 20
176.16
 30
0.0
 11
118.44
 21
176.16
 31
0.0
 70
   160
  1
<>
 71
     2
 42
-1.0
  3
SLDDIMSTYLE1
100
AcDbAlignedDimension
 13
150.94
 23
195.16
 33
0.0
 14
85.94
 24
195.16
 34
0.0
100
AcDbRotatedDimension
  0
DIMENSION
  5
152
330
1F
100
AcDbEntity
  8
0
  6
Continuous
 62
     7
370
    18
100
AcDbDimension
  2
_D_2
 10
160.94
 20
229.66
 30
0.0
 11
160.94
 21
214.66
 31
0.0
 70
   160
  1
<>
 71
     2
 42
-1.0
  3
SLDDIMSTYLE0
100
AcDbAlignedDimension
 13
150.19
 23
199.66
 33
0.0
 14
150.19
 24
229.66
 34
0.0
 50
90.0
100
AcDbRotatedDimension
  0
DIMENSION
  5
15C
330
1F
100
AcDbEntity
  8
0
  6
Continuous
 62
     7
370
    18
100
AcDbDimension
  2
_D_3
 10
166.94
 20
237.16
 30
0.0
 11
166.94
 21
214.66
 31
0.0
 70
   160
  1
<>
 71
     2
 42
-1.0
  3
SLDDIMSTYLE0
100
AcDbAlignedDimension
 13
147.94
 23
192.16
 33
0.0
 14
147.94
 24
237.16
 34
0.0
 50
90.0
100
AcDbRotatedDimension
  0
DIMENSION
  5
166
330
1F
100
AcDbEntity
  8
0
  6
Continuous
 62
     7
370
    18
100
AcDbDimension
  2
_D_4
 10
121.6573358544
 20
211.4426641456
 30
0.0
 11
79.04001
 21
254.06001
 31
0.0
 70
   163
  1
<>
 71
     1
 42
-1.0
  3
SLDDIMSTYLE2
100
AcDbDiametricDimension
 15
115.2226641456
 25
217.8773358544
 35
0.0
 40
0.0
  0
DIMENSION
  5
173
330
1F
100
AcDbEntity
  8
0
  6
Continuous
 62
     7
370
    18
100
AcDbDimension
  2
_D_5
 10
124.8039610307
 20
221.0239610307
 30
0.0
 11
85.94001
 21
182.16001
 31
0.0
 70
   163
  1
<>
 71
     1
 42
-1.0
  3
SLDDIMSTYLE2
100
AcDbDiametricDimension
 15
112.0760389693
 25
208.2960389693
 35
0.0
 40
0.0
  0
INSERT
  5
189
330
1F
100
AcDbEntity
  8
0
  6
Continuous
 62
     7
370
     0
100
AcDbBlockReference
  2
SW_CENTERMARKSYMBOL_0
 10
118.44
 20
214.66
 30
0.0
  0
INSERT
  5
195
330
1F
100
AcDbEntity
  8
0
  6
Continuous
 62
     7
370
     0
100
AcDbBlockReference
  2
SW_CENTERMARKSYMBOL_1
 10
143.44
 20
199.66
 30
0.0
  0
INSERT
  5
1A1
330
1F
100
AcDbEntity
  8
0
  6
Continuous
 62
     7
370
     0
100
AcDbBlockReference
  2
SW_CENTERMARKSYMBOL_2
 10
143.44
 20
229.66
 30
0.0
  0
INSERT
  5
1AD
330
1F
100
AcDbEntity
  8
0
  6
Continuous
 62
     7
370
     0
100
AcDbBlockReference
  2
SW_CENTERMARKSYMBOL_3
 10
93.44
 20
229.66
 30
0.0
  0
INSERT
  5
1B9
330
1F
100
AcDbEntity
  8
0
  6
Continuous
 62
     7
370
     0
100
AcDbBlockReference
  2
SW_CENTERMARKSYMBOL_4
 10
93.44
 20
199.66
 30
0.0
  0
CIRCLE
  5
1BA
330
1F
100
AcDbEntity
  8
0
  6
Continuous
 62
     7
370
    25
100
AcDbCircle
 10
124.7115584823
 20
119.795340232
 30
0.0
 40
2.132329883976212
  0
CIRCLE
  5
1BB
330
1F
100
AcDbEntity
  8
0
  6
Continuous
 62
     7
370
    25
100
AcDbCircle
 10
124.7115584823
 20
119.795340232
 30
0.0
 40
2.508623392913179
  0
CIRCLE
  5
1BC
330
1F
100
AcDbEntity
  8
0
  6
Continuous
 62
     7
370
    25
100
AcDbCircle
 10
124.7115584823
 20
119.795340232
 30
0.0
 40
4.076513013483918
  0
LINE
  5
1BD
330
1F
100
AcDbEntity
  8
0
  6
Continuous
 62
     7
370
    25
100
AcDbLine
 10
128.9762182502
 20
121.6768077767
 30
0.0
 11
128.3279155204
 21
121.6768077767
 31
0.0
  0
LINE
  5
1BE
330
1F
100
AcDbEntity
  8
0
  6
Continuous
 62
     7
370
    25
100
AcDbLine
 10
128.9762182502
 20
117.9138726874
 30
0.0
 11
128.9762182502
 21
121.6768077767
 31
0.0
  0
LINE
  5
1BF
330
1F
100
AcDbEntity
  8
0
  6
Continuous
 62
     7
370
    25
100
AcDbLine
 10
128.3279155204
 20
117.9138726874
 30
0.0
 11
128.9762182502
 21
117.9138726874
 31
0.0
  0
LINE
  5
1C0
330
1F
100
AcDbEntity
  8
0
  6
Continuous
 62
     7
370
    25
100
AcDbLine
 10
120.4468987143
 20
117.9138726874
 30
0.0
 11
121.0952014441
 21
117.9138726874
 31
0.0
  0
LINE
  5
1C1
330
1F
100
AcDbEntity
  8
0
  6
Continuous
 62
     7
370
    25
100
AcDbLine
 10
120.4468987143
 20
121.6768077767
 30
0.0
 11
120.4468987143
 21
117.9138726874
 31
0.0
  0
LINE
  5
1C2
330
1F
100
AcDbEntity
  8
0
  6
Continuous
 62
     7
370
    25
100
AcDbLine
 10
121.0952014441
 20
121.6768077767
 30
0.0
 11
120.4468987143
 21
121.6768077767
 31
0.0
  0
ARC
  5
1C3
330
1F
100
AcDbEntity
  8
0
  6
Continuous
 62
     7
370
    25
100
AcDbCircle
 10
124.7115584823
 20
119.795340232
 30
0.0
 40
4.264659767952423
100
AcDbArc
 50
26.178968704
 51
153.821031296
  0
ARC
  5
1C4
330
1F
100
AcDbEntity
  8
0
  6
Continuous
 62
     7
370
    25
100
AcDbCircle
 10
124.7115584823
 20
119.795340232
 30
0.0
 40
4.264659767952423
100
AcDbArc
 50
206.178968704
 51
333.821031296
  0
CIRCLE
  5
1C5
330
1F
100
AcDbEntity
  8
0
  6
Continuous
 62
     7
370
    25
100
AcDbCircle
 10
112.1684415177
 20
119.795340232
 30
0.0
 40
2.132329883976183
  0
CIRCLE
  5
1C6
330
1F
100
AcDbEntity
  8
0
  6
Continuous
 62
     7
370
    25
100
AcDbCircle
 10
112.1684415177
 20
119.795340232
 30
0.0
 40
2.508623392913179
  0
CIRCLE
  5
1C7
330
1F
100
AcDbEntity
  8
0
  6
Continuous
 62
     7
370
    25
100
AcDbCircle
 10
112.1684415177
 20
119.795340232
 30
0.0
 40
4.076513013483904
  0
LINE
  5
1C8
330
1F
100
AcDbEntity
  8
0
  6
Continuous
 62
     7
370
    25
100
AcDbLine
 10
107.9037817498
 20
117.9138726874
 30
0.0
 11
108.5520844796
 21
117.9138726874
 31
0.0
  0
LINE
  5
1C9
330
1F
100
AcDbEntity
  8
0
  6
Continuous
 62
     7
370
    25
100
AcDbLine
 10
107.9037817498
 20
121.6768077767
 30
0.0
 11
107.9037817498
 21
117.9138726874
 31
0.0
  0
LINE
  5
1CA
330
1F
100
AcDbEntity
  8
0
  6
Continuous
 62
     7
370
    25
100
AcDbLine
 10
108.5520844796
 20
121.6768077767
 30
0.0
 11
107.9037817498
 21
121.6768077767
 31
0.0
  0
LINE
  5
1CB
330
1F
100
AcDbEntity
  8
0
  6
Continuous
 62
     7
370
    25
100
AcDbLine
 10
116.4331012857
 20
117.9138726874
 30
0.0
 11
116.4331012857
 21
121.6768077767
 31
0.0
  0
LINE
  5
1CC
330
1F
100
AcDbEntity
  8
0
  6
Continuous
 62
     7
370
    25
100
AcDbLine
 10
115.7847985559
 20
117.9138726874
 30
0.0
 11
116.4331012857
 21
117.9138726874
 31
0.0
  0
LINE
  5
1CD
330
1F
100
AcDbEntity
  8
0
  6
Continuous
 62
     7
370
    25
100
AcDbLine
 10
116.4331012857
 20
121.6768077767
 30
0.0
 11
115.7847985559
 21
121.6768077767
 31
0.0
  0
ARC
  5
1CE
330
1F
100
AcDbEntity
  8
0
  6
Continuous
 62
     7
370
    25
100
AcDbCircle
 10
112.1684415177
 20
119.795340232
 30
0.0
 40
4.26465976795241
100
AcDbArc
 50
26.178968704
 51
153.821031296
  0
ARC
  5
1CF
330
1F
100
AcDbEntity
  8
0
  6
Continuous
 62
     7
370
    25
100
AcDbCircle
 10
112.1684415177
 20
119.795340232
 30
0.0
 40
4.264659767952404
100
AcDbArc
 50
206.178968704
 51
333.821031296
  0
LINE
  5
1D0
330
1F
100
AcDbEntity
  8
0
  6
Continuous
 62
     7
370
    25
100
AcDbLine
 10
155.4421950455
 20
115.4052492944
 30
0.0
 11
159.2051301348
 21
111.6423142051
 31
0.0
  0
CIRCLE
  5
1D1
330
1F
100
AcDbEntity
  8
0
  6
Continuous
 62
     7
370
    25
100
AcDbCircle
 10
87.0822075886
 20
68.3685606773
 30
0.0
 40
5.330824709910786
  0
CIRCLE
  5
1D2
330
1F
100
AcDbEntity
  8
0
  6
Continuous
 62
     7
370
    25
100
AcDbCircle
 10
87.0822075886
 20
105.997911571
 30
0.0
 40
5.33082470988694
  0
LINE
  5
1D3
330
1F
100
AcDbEntity
  8
0
  6
Continuous
 62
     7
370
    25
100
AcDbLine
 10
81.4378049545
 20
58.9612229539
 30
0.0
 11
77.6748698652
 21
62.7241580433
 31
0.0
  0
LINE
  5
1D4
330
1F
100
AcDbEntity
  8
0
  6
Continuous
 62
     7
370
    25
100
AcDbLine
 10
77.6748698652
 20
111.6423142051
 30
0.0
 11
81.4378049545
 21
115.4052492944
 31
0.0
  0
LINE
  5
1D5
330
1F
100
AcDbEntity
  8
0
  6
Continuous
 62
     7
370
    25
100
AcDbLine
 10
159.2051301348
 20
111.6423142051
 30
0.0
 11
159.2051301348
 21
62.7241580433
 31
0.0
  0
LINE
  5
1D6
330
1F
100
AcDbEntity
  8
0
  6
Continuous
 62
     7
370
    25
100
AcDbLine
 10
77.6748698652
 20
62.7241580433
 30
0.0
 11
77.6748698652
 21
111.6423142051
 31
0.0
  0
LINE
  5
1D7
330
1F
100
AcDbEntity
  8
0
  6
Continuous
 62
     7
370
    25
100
AcDbLine
 10
81.4378049545
 20
115.4052492944
 30
0.0
 11
155.4421950455
 21
115.4052492944
 31
0.0
  0
CIRCLE
  5
1D8
330
1F
100
AcDbEntity
  8
0
  6
Continuous
 62
     7
370
    25
100
AcDbCircle
 10
149.7977924114
 20
68.3685606773
 30
0.0
 40
5.330824709991134
  0
LINE
  5
1D9
330
1F
100
AcDbEntity
  8
0
  6
Continuous
 62
     7
370
    25
100
AcDbLine
 10
155.4421950455
 20
58.9612229539
 30
0.0
 11
81.4378049545
 21
58.9612229539
 31
0.0
  0
CIRCLE
  5
1DA
330
1F
100
AcDbEntity
  8
0
  6
Continuous
 62
     7
370
    25
100
AcDbCircle
 10
149.7977924114
 20
105.997911571
 30
0.0
 40
5.330824709967317
  0
LINE
  5
1DB
330
1F
100
AcDbEntity
  8
0
  6
Continuous
 62
     7
370
    25
100
AcDbLine
 10
159.2051301348
 20
62.7241580433
 30
0.0
 11
155.4421950455
 21
58.9612229539
 31
0.0
  0
INSERT
  5
1E7
330
1F
100
AcDbEntity
  8
0
  6
Continuous
 62
     7
370
     0
100
AcDbBlockReference
  2
SW_CENTERMARKSYMBOL_5
 10
87.0822075886
 20
105.997911571
 30
0.0
  0
INSERT
  5
1F3
330
1F
100
AcDbEntity
  8
0
  6
Continuous
 62
     7
370
     0
100
AcDbBlockReference
  2
SW_CENTERMARKSYMBOL_6
 10
149.7977924114
 20
105.997911571
 30
0.0
  0
INSERT
  5
1FF
330
1F
100
AcDbEntity
  8
0
  6
Continuous
 62
     7
370
     0
100
AcDbBlockReference
  2
SW_CENTERMARKSYMBOL_7
 10
149.7977924114
 20
68.3685606773
 30
0.0
  0
INSERT
  5
20B
330
1F
100
AcDbEntity
  8
0
  6
Continuous
 62
     7
370
     0
100
AcDbBlockReference
  2
SW_CENTERMARKSYMBOL_8
 10
87.0822075886
 20
68.3685606773
 30
0.0
  0
LINE
  5
20C
330
1F
100
AcDbEntity
  8
0
  6
Continuous
 62
     7
370
    25
100
AcDbLine
 10
303.94
 20
244.06
 30
0.0
 11
283.94
 21
244.06
 31
0.0
  0
LINE
  5
20D
330
1F
100
AcDbEntity
  8
0
  6
Continuous
 62
     7
370
    25
100
AcDbLine
 10
283.94
 20
237.26
 30
0.0
 11
303.94
 21
237.26
 31
0.0
  0
LINE
  5
20E
330
1F
100
AcDbEntity
  8
0
  6
Continuous
 62
     7
370
    25
100
AcDbLine
 10
263.94
 20
243.91
 30
0.0
 11
249.94
 21
243.91
 31
0.0
  0
LINE
  5
20F
330
1F
100
AcDbEntity
  8
0
  6
Continuous
 62
     7
370
    25
100
AcDbLine
 10
249.94
 20
237.41
 30
0.0
 11
263.94
 21
237.41
 31
0.0
  0
LINE
  5
210
330
1F
100
AcDbEntity
  8
0
  6
Continuous
 62
     7
370
    25
100
AcDbLine
 10
249.94
 20
243.91
 30
0.0
 11
248.69
 21
242.66
 31
0.0
  0
LINE
  5
211
330
1F
100
AcDbEntity
  8
0
  6
Continuous
 62
     7
370
    25
100
AcDbLine
 10
248.69
 20
238.66
 30
0.0
 11
249.94
 21
237.41
 31
0.0
  0
ARC
  5
212
330
1F
100
AcDbEntity
  8
0
  6
Continuous
 62
     7
370
    25
100
AcDbCircle
 10
236.24
 20
238.96
 30
0.0
 40
0.3000000000000398
100
AcDbArc
 50
180.0
 51
270.0
  0
ARC
  5
213
330
1F
100
AcDbEntity
  8
0
  6
Continuous
 62
     7
370
    25
100
AcDbCircle
 10
236.24
 20
242.36
 30
0.0
 40
0.3000000000000398
100
AcDbArc
 50
90.0
 51
180.0
  0
LINE
  5
214
330
1F
100
AcDbEntity
  8
0
  6
Continuous
 62
     7
370
    25
100
AcDbLine
 10
248.69
 20
242.66
 30
0.0
 11
236.24
 21
242.66
 31
0.0
  0
LINE
  5
215
330
1F
100
AcDbEntity
  8
0
  6
Continuous
 62
     7
370
    25
100
AcDbLine
 10
236.24
 20
238.66
 30
0.0
 11
248.69
 21
238.66
 31
0.0
  0
LINE
  5
216
330
1F
100
AcDbEntity
  8
0
  6
Continuous
 62
     7
370
    25
100
AcDbLine
 10
381.44
 20
205.66
 30
0.0
 11
381.94
 21
206.16
 31
0.0
  0
LINE
  5
217
330
1F
100
AcDbEntity
  8
0
  6
Continuous
 62
     7
370
    25
100
AcDbLine
 10
381.94
 20
223.16
 30
0.0
 11
381.44
 21
223.66
 31
0.0
  0
LINE
  5
218
330
1F
100
AcDbEntity
  8
0
  6
Continuous
 62
     7
370
    25
100
AcDbLine
 10
355.44
 20
205.66
 30
0.0
 11
381.44
 21
205.66
 31
0.0
  0
LINE
  5
219
330
1F
100
AcDbEntity
  8
0
  6
Continuous
 62
     7
370
    25
100
AcDbLine
 10
381.44
 20
223.66
 30
0.0
 11
355.44
 21
223.66
 31
0.0
  0
ARC
  5
21A
330
1F
100
AcDbEntity
  8
0
  6
Continuous
 62
     7
370
    25
100
AcDbCircle
 10
349.44
 20
198.16
 30
0.0
 40
0.5
100
AcDbArc
 50
90.0
 51
180.0
  0
ARC
  5
21B
330
1F
100
AcDbEntity
  8
0
  6
Continuous
 62
     7
370
    25
100
AcDbCircle
 10
349.44
 20
231.16
 30
0.0
 40
0.5
100
AcDbArc
 50
180.0
 51
270.0
  0
LINE
  5
21C
330
1F
100
AcDbEntity
  8
0
  6
Continuous
 62
     7
370
    25
100
AcDbLine
 10
354.94
 20
230.66
 30
0.0
 11
349.44
 21
230.66
 31
0.0
  0
LINE
  5
21D
330
1F
100
AcDbEntity
  8
0
  6
Continuous
 62
     7
370
    25
100
AcDbLine
 10
355.44
 20
230.16
 30
0.0
 11
354.94
 21
230.66
 31
0.0
  0
LINE
  5
21E
330
1F
100
AcDbEntity
  8
0
  6
Continuous
 62
     7
370
    25
100
AcDbLine
 10
354.94
 20
198.66
 30
0.0
 11
355.44
 21
199.16
 31
0.0
  0
LINE
  5
21F
330
1F
100
AcDbEntity
  8
0
  6
Continuous
 62
     7
370
    25
100
AcDbLine
 10
349.44
 20
198.66
 30
0.0
 11
354.94
 21
198.66
 31
0.0
  0
LINE
  5
220
330
1F
100
AcDbEntity
  8
0
  6
Continuous
 62
     7
370
    25
100
AcDbLine
 10
283.94
 20
237.26
 30
0.0
 11
283.94
 21
239.16
 31
0.0
  0
LINE
  5
221
330
1F
100
AcDbEntity
  8
0
  6
Continuous
 62
     7
370
    25
100
AcDbLine
 10
283.94
 20
242.16
 30
0.0
 11
283.94
 21
244.06
 31
0.0
  0
LINE
  5
222
330
1F
100
AcDbEntity
  8
0
  6
Continuous
 62
     7
370
    25
100
AcDbLine
 10
303.94
 20
237.26
 30
0.0
 11
303.94
 21
244.06
 31
0.0
  0
LINE
  5
223
330
1F
100
AcDbEntity
  8
0
  6
Continuous
 62
     7
370
    25
100
AcDbLine
 10
263.94
 20
239.16
 30
0.0
 11
283.94
 21
239.16
 31
0.0
  0
LINE
  5
224
330
1F
100
AcDbEntity
  8
0
  6
Continuous
 62
     7
370
    25
100
AcDbLine
 10
263.94
 20
239.16
 30
0.0
 11
263.94
 21
242.16
 31
0.0
  0
LINE
  5
225
330
1F
100
AcDbEntity
  8
0
  6
Continuous
 62
     7
370
    25
100
AcDbLine
 10
263.94
 20
242.16
 30
0.0
 11
283.94
 21
242.16
 31
0.0
  0
LINE
  5
226
330
1F
100
AcDbEntity
  8
0
  6
Continuous
 62
     7
370
    25
100
AcDbLine
 10
283.94
 20
240.66
 30
0.0
 11
283.94
 21
242.16
 31
0.0
  0
LINE
  5
227
330
1F
100
AcDbEntity
  8
0
  6
Continuous
 62
     7
370
    25
100
AcDbLine
 10
283.94
 20
239.16
 30
0.0
 11
283.94
 21
240.66
 31
0.0
  0
LINE
  5
228
330
1F
100
AcDbEntity
  8
0
  6
Continuous
 62
     7
370
    25
100
AcDbLine
 10
263.94
 20
242.16
 30
0.0
 11
263.94
 21
243.91
 31
0.0
  0
LINE
  5
229
330
1F
100
AcDbEntity
  8
0
  6
Continuous
 62
     7
370
    25
100
AcDbLine
 10
263.94
 20
237.41
 30
0.0
 11
263.94
 21
239.16
 31
0.0
  0
LINE
  5
22A
330
1F
100
AcDbEntity
  8
0
  6
Continuous
 62
     7
370
    25
100
AcDbLine
 10
249.94
 20
243.91
 30
0.0
 11
249.94
 21
237.41
 31
0.0
  0
LINE
  5
22B
330
1F
100
AcDbEntity
  8
0
  6
Continuous
 62
     7
370
    25
100
AcDbLine
 10
248.69
 20
240.66
 30
0.0
 11
248.69
 21
242.66
 31
0.0
  0
LINE
  5
22C
330
1F
100
AcDbEntity
  8
0
  6
Continuous
 62
     7
370
    25
100
AcDbLine
 10
248.69
 20
238.66
 30
0.0
 11
248.69
 21
240.66
 31
0.0
  0
LINE
  5
22D
330
1F
100
AcDbEntity
  8
0
  6
Continuous
 62
     7
370
    25
100
AcDbLine
 10
235.94
 20
238.96
 30
0.0
 11
235.94
 21
242.36
 31
0.0
  0
LINE
  5
22E
330
1F
100
AcDbEntity
  8
0
  6
Continuous
 62
     7
370
    25
100
AcDbLine
 10
381.44
 20
205.66
 30
0.0
 11
381.44
 21
223.66
 31
0.0
  0
LINE
  5
22F
330
1F
100
AcDbEntity
  8
0
  6
Continuous
 62
     7
370
    25
100
AcDbLine
 10
381.94
 20
222.16
 30
0.0
 11
381.94
 21
218.66
 31
0.0
  0
LINE
  5
230
330
1F
100
AcDbEntity
  8
0
  6
Continuous
 62
     7
370
    25
100
AcDbLine
 10
381.94
 20
218.66
 30
0.0
 11
381.94
 21
210.66
 31
0.0
  0
LINE
  5
231
330
1F
100
AcDbEntity
  8
0
  6
Continuous
 62
     7
370
    25
100
AcDbLine
 10
381.94
 20
210.66
 30
0.0
 11
381.94
 21
207.16
 31
0.0
  0
LINE
  5
232
330
1F
100
AcDbEntity
  8
0
  6
Continuous
 62
     7
370
    25
100
AcDbLine
 10
381.94
 20
207.16
 30
0.0
 11
381.94
 21
206.16
 31
0.0
  0
LINE
  5
233
330
1F
100
AcDbEntity
  8
0
  6
Continuous
 62
     7
370
    25
100
AcDbLine
 10
381.94
 20
223.16
 30
0.0
 11
381.94
 21
222.16
 31
0.0
  0
LINE
  5
234
330
1F
100
AcDbEntity
  8
0
  6
Continuous
 62
     7
370
    25
100
AcDbLine
 10
381.94
 20
218.66
 30
0.0
 11
387.44
 21
218.66
 31
0.0
  0
SPLINE
  5
235
330
1F
100
AcDbEntity
  8
0
  6
Continuous
 62
     7
370
    25
100
AcDbSpline
210
0.0
220
0.0
230
1.0
 70
     8
 71
     3
 72
    13
 73
     9
 74
     0
 42
0.000000001
 43
0.00000001
 40
0.0
 40
0.0
 40
0.0
 40
0.0
 40
0.4562536240149148
 40
0.6151465960656927
 40
0.8248978009701463
 40
0.8989945491587304
 40
0.973794538043877
 40
1.0
 40
1.0
 40
1.0
 40
1.0
 10
387.94
 20
217.4438821814155
 30
0.0
 10
387.9318596674123
 20
217.6602706190843
 30
0.0
 10
387.9208844167651
 20
217.952017585801
 30
0.0
 10
387.809148276613
 20
218.3242768472271
 30
0.0
 10
387.7086119568506
 20
218.5143620213515
 30
0.0
 10
387.5788324017273
 20
218.6245981736527
 30
0.0
 10
387.4999523836046
 20
218.6570991738498
 30
0.0
 10
387.4523501975827
 20
218.6594024294961
 30
0.0
 10
387.44
 20
218.6600000000005
 30
0.0
  0
LINE
  5
236
330
1F
100
AcDbEntity
  8
0
  6
Continuous
 62
     7
370
    25
100
AcDbLine
 10
387.94
 20
217.4438821814
 30
0.0
 11
387.94
 21
211.8761178186
 31
0.0
  0
SPLINE
  5
237
330
1F
100
AcDbEntity
  8
0
  6
Continuous
 62
     7
370
    25
100
AcDbSpline
210
0.0
220
0.0
230
1.0
 70
     8
 71
     3
 72
    13
 73
     9
 74
     0
 42
0.000000001
 43
0.00000001
 40
0.0
 40
0.0
 40
0.0
 40
0.0
 40
0.0600071289245169
 40
0.1333066582979337
 40
0.2464479258036562
 40
0.4598572101501728
 40
0.9339715721127863
 40
1.0
 40
1.0
 40
1.0
 40
1.0
 10
387.44
 20
210.6600000000005
 30
0.0
 10
387.4683695012548
 20
210.6631236498746
 30
0.0
 10
387.5313927366208
 20
210.6700628808274
 30
0.0
 10
387.6326790691211
 20
210.733526402526
 30
0.0
 10
387.7556745915621
 20
210.8787293644035
 30
0.0
 10
387.9007259397555
 20
211.2330124697286
 30
0.0
 10
387.9378039236371
 20
211.5908244616854
 30
0.0
 10
387.9397607879333
 20
211.8450416617315
 30
0.0
 10
387.94
 20
211.8761178185855
 30
0.0
  0
LINE
  5
238
330
1F
100
AcDbEntity
  8
0
  6
Continuous
 62
     7
370
    25
100
AcDbLine
 10
381.94
 20
210.66
 30
0.0
 11
387.44
 21
210.66
 31
0.0
  0
LINE
  5
239
330
1F
100
AcDbEntity
  8
0
  6
Continuous
 62
     7
370
    25
100
AcDbLine
 10
387.44
 20
207.16
 30
0.0
 11
387.44
 21
210.66
 31
0.0
  0
LINE
  5
23A
330
1F
100
AcDbEntity
  8
0
  6
Continuous
 62
     7
370
    25
100
AcDbLine
 10
387.94
 20
211.8761178186
 30
0.0
 11
387.94
 21
207.16
 31
0.0
  0
SPLINE
  5
23B
330
1F
100
AcDbEntity
  8
0
  6
Continuous
 62
     7
370
    25
100
AcDbSpline
210
0.0
220
0.0
230
1.0
 70
    24
 71
     3
 72
    13
 73
     9
 74
     0
 42
0.000000001
 43
0.00000001
 40
0.0
 40
0.0
 40
0.0
 40
0.0
 40
0.4562536240148967
 40
0.6151465960656775
 40
0.8248978009701471
 40
0.8989945491587304
 40
0.9737945380438766
 40
1.0
 40
1.0
 40
1.0
 40
1.0
 10
387.94
 20
207.1600000000005
 30
0.0
 10
387.9318596674123
 20
207.1600000000005
 30
0.0
 10
387.9208844167651
 20
207.1600000000005
 30
0.0
 10
387.809148276613
 20
207.1600000000005
 30
0.0
 10
387.7086119568507
 20
207.1600000000005
 30
0.0
 10
387.5788324017273
 20
207.1600000000005
 30
0.0
 10
387.4999523836046
 20
207.1600000000005
 30
0.0
 10
387.4523501975827
 20
207.1600000000005
 30
0.0
 10
387.44
 20
207.1600000000005
 30
0.0
  0
LINE
  5
23C
330
1F
100
AcDbEntity
  8
0
  6
Continuous
 62
     7
370
    25
100
AcDbLine
 10
381.94
 20
207.16
 30
0.0
 11
387.44
 21
207.16
 31
0.0
  0
LINE
  5
23D
330
1F
100
AcDbEntity
  8
0
  6
Continuous
 62
     7
370
    25
100
AcDbLine
 10
381.94
 20
222.16
 30
0.0
 11
387.44
 21
222.16
 31
0.0
  0
LINE
  5
23E
330
1F
100
AcDbEntity
  8
0
  6
Continuous
 62
     7
370
    25
100
AcDbLine
 10
387.44
 20
218.66
 30
0.0
 11
387.44
 21
222.16
 31
0.0
  0
SPLINE
  5
23F
330
1F
100
AcDbEntity
  8
0
  6
Continuous
 62
     7
370
    25
100
AcDbSpline
210
0.0
220
0.0
230
1.0
 70
    24
 71
     3
 72
    13
 73
     9
 74
     0
 42
0.000000001
 43
0.00000001
 40
0.0
 40
0.0
 40
0.0
 40
0.0
 40
0.0600071289245179
 40
0.1333066582979347
 40
0.2464479258036572
 40
0.4598572101501754
 40
0.9339715721127966
 40
1.0
 40
1.0
 40
1.0
 40
1.0
 10
387.44
 20
222.1600000000005
 30
0.0
 10
387.4683695012548
 20
222.1600000000005
 30
0.0
 10
387.5313927366208
 20
222.1600000000005
 30
0.0
 10
387.6326790691211
 20
222.1600000000005
 30
0.0
 10
387.7556745915621
 20
222.1600000000005
 30
0.0
 10
387.9007259397555
 20
222.1600000000005
 30
0.0
 10
387.9378039236371
 20
222.1600000000005
 30
0.0
 10
387.9397607879333
 20
222.1600000000005
 30
0.0
 10
387.94
 20
222.1600000000005
 30
0.0
  0
LINE
  5
240
330
1F
100
AcDbEntity
  8
0
  6
Continuous
 62
     7
370
    25
100
AcDbLine
 10
387.94
 20
222.16
 30
0.0
 11
387.94
 21
217.4438821814
 31
0.0
  0
LINE
  5
241
330
1F
100
AcDbEntity
  8
0
  6
Continuous
 62
     7
370
    25
100
AcDbLine
 10
349.44
 20
223.9873790531
 30
0.0
 11
349.44
 21
205.3326209469
 31
0.0
  0
LINE
  5
242
330
1F
100
AcDbEntity
  8
0
  6
Continuous
 62
     7
370
    25
100
AcDbLine
 10
354.94
 20
223.9873790531
 30
0.0
 11
354.94
 21
230.66
 31
0.0
  0
LINE
  5
243
330
1F
100
AcDbEntity
  8
0
  6
Continuous
 62
     7
370
    25
100
AcDbLine
 10
354.94
 20
223.9873790531
 30
0.0
 11
349.44
 21
223.9873790531
 31
0.0
  0
LINE
  5
244
330
1F
100
AcDbEntity
  8
0
  6
Continuous
 62
     7
370
    25
100
AcDbLine
 10
355.44
 20
230.16
 30
0.0
 11
355.44
 21
223.1009715081
 31
0.0
  0
LINE
  5
245
330
1F
100
AcDbEntity
  8
0
  6
Continuous
 62
     7
370
    25
100
AcDbLine
 10
354.94
 20
223.9873790531
 30
0.0
 11
355.44
 21
223.1009715081
 31
0.0
  0
LINE
  5
246
330
1F
100
AcDbEntity
  8
0
  6
Continuous
 62
     7
370
    25
100
AcDbLine
 10
355.44
 20
223.1009715081
 30
0.0
 11
355.44
 21
206.2190284919
 31
0.0
  0
LINE
  5
247
330
1F
100
AcDbEntity
  8
0
  6
Continuous
 62
     7
370
    25
100
AcDbLine
 10
355.44
 20
206.2190284919
 30
0.0
 11
354.94
 21
205.3326209469
 31
0.0
  0
LINE
  5
248
330
1F
100
AcDbEntity
  8
0
  6
Continuous
 62
     7
370
    25
100
AcDbLine
 10
349.44
 20
205.3326209469
 30
0.0
 11
354.94
 21
205.3326209469
 31
0.0
  0
LINE
  5
249
330
1F
100
AcDbEntity
  8
0
  6
Continuous
 62
     7
370
    25
100
AcDbLine
 10
354.94
 20
198.66
 30
0.0
 11
354.94
 21
205.3326209469
 31
0.0
  0
LINE
  5
24A
330
1F
100
AcDbEntity
  8
0
  6
Continuous
 62
     7
370
    25
100
AcDbLine
 10
355.44
 20
206.2190284919
 30
0.0
 11
355.44
 21
199.16
 31
0.0
  0
SPLINE
  5
24B
330
1F
100
AcDbEntity
  8
0
  6
Continuous
 62
     7
370
    25
100
AcDbSpline
210
0.0
220
0.0
230
1.0
 70
     8
 71
     3
 72
    23
 73
    19
 74
     0
 42
0.000000001
 43
0.00000001
 40
0.0
 40
0.0
 40
0.0
 40
0.0
 40
0.0881782879354021
 40
0.1703962258015024
 40
0.2478554589180553
 40
0.3223119628233683
 40
0.3939861698943344
 40
0.4626934939826057
 40
0.5304592248215045
 40
0.5989497110176134
 40
0.634998049735926
 40
0.6748411946041468
 40
0.7189748316776008
 40
0.7666373843242444
 40
0.8184614652166474
 40
0.8745656704273169
 40
0.9350741581065669
 40
1.0
 40
1.0
 40
1.0
 40
1.0
 10
320.2581818181818
 20
198.1848579545465
 30
0.0
 10
320.2573761012493
 20
198.2173655902498
 30
0.0
 10
320.2558191292603
 20
198.2801835306211
 30
0.0
 10
320.239679452325
 20
198.3703528504596
 30
0.0
 10
320.2145647392074
 20
198.4531170363195
 30
0.0
 10
320.1779814372338
 20
198.5273159814093
 30
0.0
 10
320.1330288516282
 20
198.5926542583632
 30
0.0
 10
320.0817581257691
 20
198.6501095632068
 30
0.0
 10
320.0217233073531
 20
198.6964166976038
 30
0.0
 10
319.9662969677427
 20
198.7279228193344
 30
0.0
 10
319.9168078172211
 20
198.7474956855135
 30
0.0
 10
319.8747870066518
 20
198.7614287942096
 30
0.0
 10
319.8272407317626
 20
198.7712179868739
 30
0.0
 10
319.7752249144938
 20
198.7808144077755
 30
0.0
 10
319.7182986016385
 20
198.7877496819052
 30
0.0
 10
319.6564351903111
 20
198.7923590394016
 30
0.0
 10
319.5896721937835
 20
198.7964106442387
 30
0.0
 10
319.5434634703216
 20
198.7963796692657
 30
0.0
 10
319.5195454545454
 20
198.7963636363646
 30
0.0
  0
SPLINE
  5
24C
330
1F
100
AcDbEntity
  8
0
  6
Continuous
 62
     7
370
    25
100
AcDbSpline
210
0.0
220
0.0
230
1.0
 70
     8
 71
     3
 72
    15
 73
    11
 74
     0
 42
0.000000001
 43
0.00000001
 40
0.0
 40
0.0
 40
0.0
 40
0.0
 40
0.1210409259551159
 40
0.2361565684961482
 40
0.3502598871584596
 40
0.4667719731857884
 40
0.5882478153244254
 40
0.7153606937404142
 40
0.8524502302519117
 40
1.0
 40
1.0
 40
1.0
 40
1.0
 10
319.9229545454546
 20
197.613125000001
 30
0.0
 10
319.9492530789303
 20
197.6245223388708
 30
0.0
 10
320.0005627609501
 20
197.6467590857911
 30
0.0
 10
320.068303178086
 20
197.6952083077189
 30
0.0
 10
320.1269850412658
 20
197.7525007226925
 30
0.0
 10
320.1747902536494
 20
197.8211277712851
 30
0.0
 10
320.2123798972196
 20
197.8990837034991
 30
0.0
 10
320.2396579214854
 20
197.9863469804283
 30
0.0
 10
320.2547941215921
 20
198.0827696935861
 30
0.0
 10
320.2570252552802
 20
198.1500049232347
 30
0.0
 10
320.2581818181818
 20
198.1848579545465
 30
0.0
  0
SPLINE
  5
24D
330
1F
100
AcDbEntity
  8
0
  6
Continuous
 62
     7
370
    25
100
AcDbSpline
210
0.0
220
0.0
230
1.0
 70
     8
 71
     3
 72
    11
 73
     7
 74
     0
 42
0.000000001
 43
0.00000001
 40
0.0
 40
0.0
 40
0.0
 40
0.0
 40
0.3127941251982892
 40
0.5827301107661262
 40
0.8109483712724667
 40
1.0
 40
1.0
 40
1.0
 40
1.0
 10
319.5706818181818
 20
197.5690909090919
 30
0.0
 10
319.6078814778436
 20
197.5695019433181
 30
0.0
 10
319.6771838081908
 20
197.5702676930585
 30
0.0
 10
319.7731768247647
 20
197.5790989780599
 30
0.0
 10
319.8543022910308
 20
197.5908169677645
 30
0.0
 10
319.9015487069182
 20
197.6061693342311
 30
0.0
 10
319.9229545454546
 20
197.613125000001
 30
0.0
  0
LINE
  5
24E
330
1F
100
AcDbEntity
  8
0
  6
Continuous
 62
     7
370
    25
100
AcDbLine
 10
318.8490909091
 20
197.5690909091
 30
0.0
 11
319.5706818182
 21
197.5690909091
 31
0.0
  0
LINE
  5
24F
330
1F
100
AcDbEntity
  8
0
  6
Continuous
 62
     7
370
    25
100
AcDbLine
 10
318.8490909091
 20
198.7963636364
 30
0.0
 11
318.8490909091
 21
197.5690909091
 31
0.0
  0
LINE
  5
250
330
1F
100
AcDbEntity
  8
0
  6
Continuous
 62
     7
370
    25
100
AcDbLine
 10
319.5195454545
 20
198.7963636364
 30
0.0
 11
318.8490909091
 21
198.7963636364
 31
0.0
  0
SPLINE
  5
251
330
1F
100
AcDbEntity
  8
0
  6
Continuous
 62
     7
370
    25
100
AcDbSpline
210
0.0
220
0.0
230
1.0
 70
     8
 71
     3
 72
    23
 73
    19
 74
     0
 42
0.000000001
 43
0.00000001
 40
0.0
 40
0.0
 40
0.0
 40
0.0
 40
0.0859477677671273
 40
0.1646612895918322
 40
0.2391822142960209
 40
0.3092369848563652
 40
0.376694351716064
 40
0.4407479895346254
 40
0.5032957377886659
 40
0.5666613310136045
 40
0.6011212985389532
 40
0.6409394331421697
 40
0.686627326985871
 40
0.7373982524124165
 40
0.7941894459313101
 40
0.8569408067006914
 40
0.9257597107636947
 40
1.0
 40
1.0
 40
1.0
 40
1.0
 10
320.1672727272727
 20
199.722500000001
 30
0.0
 10
320.1662575196111
 20
199.7523737253003
 30
0.0
 10
320.1643125545804
 20
199.809606696679
 30
0.0
 10
320.1512190147604
 20
199.8920350138033
 30
0.0
 10
320.126941930892
 20
199.9660850494551
 30
0.0
 10
320.0939677299465
 20
200.0322732326693
 30
0.0
 10
320.0537250922737
 20
200.089969999941
 30
0.0
 10
320.0063451556197
 20
200.1384693762138
 30
0.0
 10
319.9520695590324
 20
200.1767255486753
 30
0.0
 10
319.9013994472507
 20
200.2005257424414
 30
0.0
 10
319.8560256303977
 20
200.2159505730744
 30
0.0
 10
319.8151412813125
 20
200.2244221330077
 30
0.0
 10
319.7686172454522
 20
200.2334048025755
 30
0.0
 10
319.7156126672793
 20
200.2390690140003
 30
0.0
 10
319.65673453675
 20
200.2452837781474
 30
0.0
 10
319.5913030167029
 20
200.248322525703
 30
0.0
 10
319.5197990187104
 20
200.2505668519534
 30
0.0
 10
319.4700687760402
 20
200.2507921650949
 30
0.0
 10
319.4442613636364
 20
200.2509090909101
 30
0.0
  0
SPLINE
  5
252
330
1F
100
AcDbEntity
  8
0
  6
Continuous
 62
     7
370
    25
100
AcDbSpline
210
0.0
220
0.0
230
1.0
 70
     8
 71
     3
 72
    15
 73
    11
 74
     0
 42
0.000000001
 43
0.00000001
 40
0.0
 40
0.0
 40
0.0
 40
0.0
 40
0.1232115076675098
 40
0.2406990252533389
 40
0.354261293216721
 40
0.4669536443969423
 40
0.5842822876469569
 40
0.7105515410306925
 40
0.8478091896452408
 40
1.0
 40
1.0
 40
1.0
 40
1.0
 10
319.8490909090909
 20
199.2388352272738
 30
0.0
 10
319.8733747696944
 20
199.2474855644094
 30
0.0
 10
319.9208143448387
 20
199.2643843732633
 30
0.0
 10
319.9843528036281
 20
199.3030628215725
 30
0.0
 10
320.0401200443824
 20
199.3486192269412
 30
0.0
 10
320.0865811459561
 20
199.4038376386305
 30
0.0
 10
320.1232861388067
 20
199.4690077779026
 30
0.0
 10
320.1492629470829
 20
199.5445090458342
 30
0.0
 10
320.1649930361524
 20
199.6302319918554
 30
0.0
 10
320.1664871358114
 20
199.6907040436519
 30
0.0
 10
320.1672727272727
 20
199.722500000001
 30
0.0
  0
SPLINE
  5
253
330
1F
100
AcDbEntity
  8
0
  6
Continuous
 62
     7
370
    25
100
AcDbSpline
210
0.0
220
0.0
230
1.0
 70
     8
 71
     3
 72
    11
 73
     7
 74
     0
 42
0.000000001
 43
0.00000001
 40
0.0
 40
0.0
 40
0.0
 40
0.0
 40
0.3231090798450185
 40
0.5974912675160299
 40
0.821785922781881
 40
1.0
 40
1.0
 40
1.0
 40
1.0
 10
319.4911363636364
 20
199.2054545454556
 30
0.0
 10
319.5299837563811
 20
199.2057355174304
 30
0.0
 10
319.601820109423
 20
199.2062550890298
 30
0.0
 10
319.7003181380715
 20
199.213026304166
 30
0.0
 10
319.7815105715656
 20
199.2210170008779
 30
0.0
 10
319.8283516384976
 20
199.2333671128451
 30
0.0
 10
319.8490909090909
 20
199.2388352272738
 30
0.0
  0
LINE
  5
254
330
1F
100
AcDbEntity
  8
0
  6
Continuous
 62
     7
370
    25
100
AcDbLine
 10
318.8490909091
 20
199.2054545455
 30
0.0
 11
319.4911363636
 21
199.2054545455
 31
0.0
  0
LINE
  5
255
330
1F
100
AcDbEntity
  8
0
  6
Continuous
 62
     7
370
    25
100
AcDbLine
 10
318.8490909091
 20
200.2509090909
 30
0.0
 11
318.8490909091
 21
199.2054545455
 31
0.0
  0
LINE
  5
256
330
1F
100
AcDbEntity
  8
0
  6
Continuous
 62
     7
370
    25
100
AcDbLine
 10
319.4442613636
 20
200.2509090909
 30
0.0
 11
318.8490909091
 21
200.2509090909
 31
0.0
  0
SPLINE
  5
257
330
1F
100
AcDbEntity
  8
0
  6
Continuous
 62
     7
370
    25
100
AcDbSpline
210
0.0
220
0.0
230
1.0
 70
     8
 71
     3
 72
    15
 73
    11
 74
     0
 42
0.000000001
 43
0.00000001
 40
0.0
 40
0.0
 40
0.0
 40
0.0
 40
0.0894057494543693
 40
0.188125325222233
 40
0.2967013461921434
 40
0.41554149557404
 40
0.5447946592898609
 40
0.6850249410151804
 40
0.8376109392146742
 40
1.0
 40
1.0
 40
1.0
 40
1.0
 10
325.7766477272727
 20
200.1813068181828
 30
0.0
 10
325.7627667598597
 20
200.1869935277947
 30
0.0
 10
325.7335587779918
 20
200.1989593588704
 30
0.0
 10
325.6856743950893
 20
200.2127693210398
 30
0.0
 10
325.6323040877699
 20
200.2247307273117
 30
0.0
 10
325.5733061181159
 20
200.2348270675096
 30
0.0
 10
325.5084896053875
 20
200.2412581149342
 30
0.0
 10
325.4379768856509
 20
200.2474963115718
 30
0.0
 10
325.3616498612585
 20
200.2497101558309
 30
0.0
 10
325.3088439967576
 20
200.2505012388463
 30
0.0
 10
325.2816193181818
 20
200.2509090909101
 30
0.0
  0
SPLINE
  5
258
330
1F
100
AcDbEntity
  8
0
  6
Continuous
 62
     7
370
    25
100
AcDbSpline
210
0.0
220
0.0
230
1.0
 70
     8
 71
     3
 72
    23
 73
    19
 74
     0
 42
0.000000001
 43
0.00000001
 40
0.0
 40
0.0
 40
0.0
 40
0.0
 40
0.091057692584198
 40
0.177271661161427
 40
0.2587565480870237
 40
0.3352398500869443
 40
0.4078328982379348
 40
0.4759035837309332
 40
0.5405672899847732
 40
0.6013885147851543
 40
0.659248169657966
 40
0.7139410164568256
 40
0.765992717145338
 40
0.8161259581187268
 40
0.8639755313063072
 40
0.9102873125800778
 40
0.9552760909847243
 40
1.0
 40
1.0
 40
1.0
 40
1.0
 10
326.3036363636364
 20
198.9341477272737
 30
0.0
 10
326.3033260432433
 20
198.9774841565406
 30
0.0
 10
326.3027219096438
 20
199.0618517765287
 30
0.0
 10
326.2952029923167
 20
199.1847913630928
 30
0.0
 10
326.2844595684983
 20
199.3005331941278
 30
0.0
 10
326.2677344871561
 20
199.4090055221326
 30
0.0
 10
326.2478445825643
 20
199.5104721060171
 30
0.0
 10
326.2217896076174
 20
199.6047027315762
 30
0.0
 10
326.1926956782439
 20
199.6921804680712
 30
0.0
 10
326.1573901469239
 20
199.772091913642
 30
0.0
 10
326.1189387030608
 20
199.8451178408786
 30
0.0
 10
326.0786715820246
 20
199.9123903754677
 30
0.0
 10
326.0349672712107
 20
199.9729845843308
 30
0.0
 10
325.9893056694391
 20
200.0280193373853
 30
0.0
 10
325.939622575281
 20
200.0755522726795
 30
0.0
 10
325.8887719671751
 20
200.1180948933061
 30
0.0
 10
325.8341689146899
 20
200.1532371200768
 30
0.0
 10
325.7957836799873
 20
200.1719686866214
 30
0.0
 10
325.7766477272727
 20
200.1813068181828
 30
0.0
  0
SPLINE
  5
259
330
1F
100
AcDbEntity
  8
0
  6
Continuous
 62
     7
370
    25
100
AcDbSpline
210
0.0
220
0.0
230
1.0
 70
     8
 71
     3
 72
    23
 73
    19
 74
     0
 42
0.000000001
 43
0.00000001
 40
0.0
 40
0.0
 40
0.0
 40
0.0
 40
0.0838757011713844
 40
0.1627002619072092
 40
0.2366373969403642
 40
0.3059982833359136
 40
0.3707988108096669
 40
0.4312335182308226
 40
0.48833577794168
 40
0.5424441322884362
 40
0.5952722887951952
 40
0.6483716879973133
 40
0.7021510655130977
 40
0.7579963679795555
 40
0.8148204673977174
 40
0.8740154473088951
 40
0.9356443925564378
 40
1.0
 40
1.0
 40
1.0
 40
1.0
 10
325.2915625
 20
197.5690909090919
 30
0.0
 10
325.3221133928546
 20
197.5695176485968
 30
0.0
 10
325.3813753507224
 20
197.5703454286122
 30
0.0
 10
325.4673856068505
 20
197.5762036885514
 30
0.0
 10
325.5478869148563
 20
197.5848631255125
 30
0.0
 10
325.6223759744744
 20
197.5989480042641
 30
0.0
 10
325.6917089672228
 20
197.6141486440295
 30
0.0
 10
325.7543709393973
 20
197.636419593543
 30
0.0
 10
325.8123903727312
 20
197.6598487513267
 30
0.0
 10
325.8648563126111
 20
197.6887466485151
 30
0.0
 10
325.912827825507
 20
197.7219510636156
 30
0.0
 10
325.9580009028573
 20
197.7587559108306
 30
0.0
 10
325.9993202627032
 20
197.8013918381885
 30
0.0
 10
326.0380710637105
 20
197.8480615724656
 30
0.0
 10
326.074717074425
 20
197.8988767368499
 30
0.0
 10
326.1081996182871
 20
197.9543421220176
 30
0.0
 10
326.1377542878241
 20
198.0150445028999
 30
0.0
 10
326.1554119210143
 20
198.0573986735418
 30
0.0
 10
326.1644318181818
 20
198.0790340909101
 30
0.0
  0
LINE
  5
25A
330
1F
100
AcDbEntity
  8
0
  6
Continuous
 62
     7
370
    25
100
AcDbLine
 10
324.6672727273
 20
197.5690909091
 30
0.0
 11
325.2915625
 21
197.5690909091
 31
0.0
  0
LINE
  5
25B
330
1F
100
AcDbEntity
  8
0
  6
Continuous
 62
     7
370
    25
100
AcDbLine
 10
324.6672727273
 20
200.2509090909
 30
0.0
 11
324.6672727273
 21
197.5690909091
 31
0.0
  0
LINE
  5
25C
330
1F
100
AcDbEntity
  8
0
  6
Continuous
 62
     7
370
    25
100
AcDbLine
 10
325.2816193182
 20
200.2509090909
 30
0.0
 11
324.6672727273
 21
200.2509090909
 31
0.0
  0
SPLINE
  5
25D
330
1F
100
AcDbEntity
  8
0
  6
Continuous
 62
     7
370
    25
100
AcDbSpline
210
0.0
220
0.0
230
1.0
 70
     8
 71
     3
 72
    15
 73
    11
 74
     0
 42
0.000000001
 43
0.00000001
 40
0.0
 40
0.0
 40
0.0
 40
0.0
 40
0.1116456946495738
 40
0.2264258713479465
 40
0.3444741085554709
 40
0.4664619175398294
 40
0.5931634275125093
 40
0.7242447941216931
 40
0.8597655265817259
 40
1.0
 40
1.0
 40
1.0
 40
1.0
 10
326.1644318181818
 20
198.0790340909101
 30
0.0
 10
326.1756556784774
 20
198.1094588828478
 30
0.0
 10
326.1984185118791
 20
198.1711626507064
 30
0.0
 10
326.2267843434335
 20
198.2671944462105
 30
0.0
 10
326.2497069803085
 20
198.367681472619
 30
0.0
 10
326.2702185078098
 20
198.472242026387
 30
0.0
 10
326.2843529632917
 20
198.5816700109627
 30
0.0
 10
326.2962125069507
 20
198.6952914362274
 30
0.0
 10
326.3023885060899
 20
198.8133397743302
 30
0.0
 10
326.303215697801
 20
198.8934221023149
 30
0.0
 10
326.3036363636364
 20
198.9341477272737
 30
0.0
  0
SPLINE
  5
25E
330
1F
100
AcDbEntity
  8
0
  6
Continuous
 62
     7
370
    25
100
AcDbSpline
210
0.0
220
0.0
230
1.0
 70
     8
 71
     3
 72
    23
 73
    19
 74
     0
 42
0.000000001
 43
0.00000001
 40
0.0
 40
0.0
 40
0.0
 40
0.0
 40
0.0962668487102102
 40
0.1851887142498576
 40
0.2670522646414191
 40
0.3425535158095234
 40
0.4116298860129102
 40
0.4751854140306059
 40
0.5336270929387997
 40
0.5873801801951998
 40
0.6383796135347338
 40
0.6880940834234889
 40
0.7375708011894995
 40
0.7869390713018619
 40
0.8371140147138916
 40
0.8890450561406117
 40
0.9429881641617253
 40
1.0
 40
1.0
 40
1.0
 40
1.0
 10
302.5763636363636
 20
198.2842897727283
 30
0.0
 10
302.5755922062543
 20
198.232669059492
 30
0.0
 10
302.5741082047315
 20
198.1333661983204
 30
0.0
 10
302.5653677529158
 20
197.9903399754297
 30
0.0
 10
302.5490233850699
 20
197.8592056380191
 30
0.0
 10
302.5267814334495
 20
197.7397262208817
 30
0.0
 10
302.4977158715351
 20
197.6318512822495
 30
0.0
 10
302.4628154158334
 20
197.5353165723752
 30
0.0
 10
302.4201242456458
 20
197.45101740305
 30
0.0
 10
302.3713019818028
 20
197.3781242635567
 30
0.0
 10
302.3166854223766
 20
197.3155439737252
 30
0.0
 10
302.2564212973615
 20
197.2618298020502
 30
0.0
 10
302.1909389540098
 20
197.2160813101652
 30
0.0
 10
302.1198913663973
 20
197.1790995092355
 30
0.0
 10
302.0440330495643
 20
197.1495320280209
 30
0.0
 10
301.9626615682013
 20
197.1292135859056
 30
0.0
 10
301.8759776139908
 20
197.1169902127668
 30
0.0
 10
301.816461678345
 20
197.1153752624083
 30
0.0
 10
301.7858806818182
 20
197.1145454545465
 30
0.0
  0
LINE
  5
25F
330
1F
100
AcDbEntity
  8
0
  6
Continuous
 62
     7
370
    25
100
AcDbLine
 10
302.5763636364
 20
200.66
 30
0.0
 11
302.5763636364
 21
198.2842897727
 31
0.0
  0
LINE
  5
260
330
1F
100
AcDbEntity
  8
0
  6
Continuous
 62
     7
370
    25
100
AcDbLine
 10
302.2127272727
 20
200.66
 30
0.0
 11
302.5763636364
 21
200.66
 31
0.0
  0
LINE
  5
261
330
1F
100
AcDbEntity
  8
0
  6
Continuous
 62
     7
370
    25
100
AcDbLine
 10
302.2127272727
 20
198.2565909091
 30
0.0
 11
302.2127272727
 21
200.66
 31
0.0
  0
SPLINE
  5
262
330
1F
100
AcDbEntity
  8
0
  6
Continuous
 62
     7
370
    25
100
AcDbSpline
210
0.0
220
0.0
230
1.0
 70
     8
 71
     3
 72
    11
 73
     7
 74
     0
 42
0.000000001
 43
0.00000001
 40
0.0
 40
0.0
 40
0.0
 40
0.0
 40
0.1899378633492042
 40
0.4190751882676111
 40
0.6888208399565361
 40
0.9999999999999999
 40
0.9999999999999999
 40
0.9999999999999999
 40
0.9999999999999999
 10
302.1651420454545
 20
197.7878409090919
 30
0.0
 10
302.1725798299436
 20
197.8168468622757
 30
0.0
 10
302.1889904122262
 20
197.8808450302924
 30
0.0
 10
302.2022271821181
 20
197.9887581200275
 30
0.0
 10
302.2116867813178
 20
198.1160263257875
 30
0.0
 10
302.2123643338176
 20
198.2075598876545
 30
0.0
 10
302.2127272727272
 20
198.2565909090919
 30
0.0
  0
SPLINE
  5
263
330
1F
100
AcDbEntity
  8
0
  6
Continuous
 62
     7
370
    25
100
AcDbSpline
210
0.0
220
0.0
230
1.0
 70
     8
 71
     3
 72
    15
 73
    11
 74
     0
 42
0.000000001
 43
0.00000001
 40
0.0
 40
0.0
 40
0.0
 40
0.0
 40
0.1318753426358343
 40
0.2576529831924869
 40
0.3827609181757876
 40
0.5089715295156519
 40
0.6345929352780179
 40
0.7573414601716918
 40
0.8779288610425218
 40
1.0
 40
1.0
 40
1.0
 40
1.0
 10
301.8022159090909
 20
197.5236363636374
 30
0.0
 10
301.8233556537713
 20
197.5246634666773
 30
0.0
 10
301.8646576756048
 20
197.5266701811773
 30
0.0
 10
301.924829408492
 20
197.5403704846919
 30
0.0
 10
301.9807635264258
 20
197.5640812388729
 30
0.0
 10
302.0316676852303
 20
197.5970294187683
 30
0.0
 10
302.0772896535844
 20
197.6364590538432
 30
0.0
 10
302.1148175487663
 20
197.6823899062313
 30
0.0
 10
302.145896027503
 20
197.732473334503
 30
0.0
 10
302.1587006082248
 20
197.7693099715661
 30
0.0
 10
302.1651420454545
 20
197.7878409090919
 30
0.0
  0
SPLINE
  5
264
330
1F
100
AcDbEntity
  8
0
  6
Continuous
 62
     7
370
    25
100
AcDbSpline
210
0.0
220
0.0
230
1.0
 70
     8
 71
     3
 72
    23
 73
    19
 74
     0
 42
0.000000001
 43
0.00000001
 40
0.0
 40
0.0
 40
0.0
 40
0.0
 40
0.1073559733815323
 40
0.2065681780405376
 40
0.2976862275996194
 40
0.3795789659120611
 40
0.4539091456714813
 40
0.5210059557000669
 40
0.5803213152528152
 40
0.6331440915541412
 40
0.6819673272515994
 40
0.7282238973232185
 40
0.773116414329368
 40
0.8172095941165214
 40
0.8611451100622665
 40
0.9056495000405613
 40
0.952037153024125
 40
0.9999999999999999
 40
0.9999999999999999
 40
0.9999999999999999
 40
0.9999999999999999
 10
301.3945454545455
 20
198.2509090909101
 30
0.0
 10
301.3959291095131
 20
198.2175104539022
 30
0.0
 10
301.3985914586744
 20
198.1532467210288
 30
0.0
 10
301.406806576409
 20
198.0609233947215
 30
0.0
 10
301.4158960321453
 20
197.9766255664462
 30
0.0
 10
301.4296627824259
 20
197.9008144050684
 30
0.0
 10
301.4456473495993
 20
197.8330937375152
 30
0.0
 10
301.4648316440761
 20
197.7735788098779
 30
0.0
 10
301.4854991783599
 20
197.721617294747
 30
0.0
 10
301.5109207747249
 20
197.6782074043538
 30
0.0
 10
301.5390791580602
 20
197.6416971655119
 30
0.0
 10
301.5689337596483
 20
197.609771482638
 30
0.0
 10
301.6020825417003
 20
197.5836703809331
 30
0.0
 10
301.6367962861946
 20
197.5608905288314
 30
0.0
 10
301.6750434438387
 20
197.5449288068815
 30
0.0
 10
301.7152249738389
 20
197.5327435796419
 30
0.0
 10
301.7578444094911
 20
197.5244366750404
 30
0.0
 10
301.7872617007104
 20
197.5239060868516
 30
0.0
 10
301.8022159090909
 20
197.5236363636374
 30
0.0
  0
LINE
  5
265
330
1F
100
AcDbEntity
  8
0
  6
Continuous
 62
     7
370
    25
100
AcDbLine
 10
301.0309090909
 20
198.2054545455
 30
0.0
 11
301.3945454545
 21
198.2509090909
 31
0.0
  0
SPLINE
  5
266
330
1F
100
AcDbEntity
  8
0
  6
Continuous
 62
     7
370
    25
100
AcDbSpline
210
0.0
220
0.0
230
1.0
 70
     8
 71
     3
 72
    15
 73
    11
 74
     0
 42
0.000000001
 43
0.00000001
 40
0.0
 40
0.0
 40
0.0
 40
0.0
 40
0.1010490053577533
 40
0.2071533109936865
 40
0.3194648646185316
 40
0.4391077011200589
 40
0.5656092495404482
 40
0.7011883501996641
 40
0.8455298974050567
 40
1.0
 40
1.0
 40
1.0
 40
1.0
 10
301.2390056818182
 20
197.3617045454556
 30
0.0
 10
301.2220047308964
 20
197.3861660525121
 30
0.0
 10
301.1871523020079
 20
197.4363128318962
 30
0.0
 10
301.1463479884456
 20
197.521355793406
 30
0.0
 10
301.1094372318528
 20
197.6138527853001
 30
0.0
 10
301.0810918460984
 20
197.7156741760548
 30
0.0
 10
301.0582678484986
 20
197.825754702755
 30
0.0
 10
301.0420728536397
 20
197.9443910685492
 30
0.0
 10
301.0331721335975
 20
198.0720313758017
 30
0.0
 10
301.031680294326
 20
198.159986377818
 30
0.0
 10
301.0309090909091
 20
198.2054545454556
 30
0.0
  0
SPLINE
  5
267
330
1F
100
AcDbEntity
  8
0
  6
Continuous
 62
     7
370
    25
100
AcDbSpline
210
0.0
220
0.0
230
1.0
 70
     8
 71
     3
 72
    15
 73
    11
 74
     0
 42
0.000000001
 43
0.00000001
 40
0.0
 40
0.0
 40
0.0
 40
0.0
 40
0.1422756403703536
 40
0.2767365039298886
 40
0.4044482731598682
 40
0.5261123324890591
 40
0.644658697951457
 40
0.7620593432335027
 40
0.8795701101468201
 40
1.0
 40
1.0
 40
1.0
 40
1.0
 10
301.7858806818182
 20
197.1145454545465
 30
0.0
 10
301.7562362742316
 20
197.1150433520549
 30
0.0
 10
301.6985757379992
 20
197.1160117990459
 30
0.0
 10
301.6151613151829
 20
197.1288033535171
 30
0.0
 10
301.5373132117377
 20
197.1473642001375
 30
0.0
 10
301.4655294942609
 20
197.174662004547
 30
0.0
 10
301.3995121092583
 20
197.2095626602477
 30
0.0
 10
301.3397606701211
 20
197.2527333831376
 30
0.0
 10
301.2844686301694
 20
197.3023725717217
 30
0.0
 10
301.2542834380791
 20
197.3417661238165
 30
0.0
 10
301.2390056818182
 20
197.3617045454556
 30
0.0
  0
LINE
  5
268
330
1F
100
AcDbEntity
  8
0
  6
Continuous
 62
     7
370
    25
100
AcDbLine
 10
304.8469602273
 20
198.2054545455
 30
0.0
 11
303.6239488636
 21
198.2054545455
 31
0.0
  0
LINE
  5
269
330
1F
100
AcDbEntity
  8
0
  6
Continuous
 62
     7
370
    25
100
AcDbLine
 10
305.1530681818
 20
197.16
 30
0.0
 11
304.8469602273
 21
198.2054545455
 31
0.0
  0
LINE
  5
26A
330
1F
100
AcDbEntity
  8
0
  6
Continuous
 62
     7
370
    25
100
AcDbLine
 10
305.5309090909
 20
197.16
 30
0.0
 11
305.1530681818
 21
197.16
 31
0.0
  0
LINE
  5
26B
330
1F
100
AcDbEntity
  8
0
  6
Continuous
 62
     7
370
    25
100
AcDbLine
 10
304.4123011364
 20
200.66
 30
0.0
 11
305.5309090909
 21
197.16
 31
0.0
  0
LINE
  5
26C
330
1F
100
AcDbEntity
  8
0
  6
Continuous
 62
     7
370
    25
100
AcDbLine
 10
304.0578977273
 20
200.66
 30
0.0
 11
304.4123011364
 21
200.66
 31
0.0
  0
LINE
  5
26D
330
1F
100
AcDbEntity
  8
0
  6
Continuous
 62
     7
370
    25
100
AcDbLine
 10
302.94
 20
197.16
 30
0.0
 11
304.0578977273
 21
200.66
 31
0.0
  0
LINE
  5
26E
330
1F
100
AcDbEntity
  8
0
  6
Continuous
 62
     7
370
    25
100
AcDbLine
 10
303.3185511364
 20
197.16
 30
0.0
 11
302.94
 21
197.16
 31
0.0
  0
LINE
  5
26F
330
1F
100
AcDbEntity
  8
0
  6
Continuous
 62
     7
370
    25
100
AcDbLine
 10
303.6239488636
 20
198.2054545455
 30
0.0
 11
303.3185511364
 21
197.16
 31
0.0
  0
SPLINE
  5
270
330
1F
100
AcDbEntity
  8
0
  6
Continuous
 62
     7
370
    25
100
AcDbSpline
210
0.0
220
0.0
230
1.0
 70
     8
 71
     3
 72
    15
 73
    11
 74
     0
 42
0.000000001
 43
0.00000001
 40
0.0
 40
0.0
 40
0.0
 40
0.0
 40
0.1134955418346445
 40
0.2259989297760188
 40
0.339269098522387
 40
0.4584033987388578
 40
0.5828288938708704
 40
0.7128865688815812
 40
0.8512114562531197
 40
1.0
 40
1.0
 40
1.0
 40
1.0
 10
320.1402840909091
 20
199.0463636363646
 30
0.0
 10
320.1762548351085
 20
199.0295914712054
 30
0.0
 10
320.2478818749103
 20
198.9961937595883
 30
0.0
 10
320.3429773949283
 20
198.9242667286553
 30
0.0
 10
320.4261532818444
 20
198.8366527055198
 30
0.0
 10
320.496078800082
 20
198.733044496462
 30
0.0
 10
320.5533608329183
 20
198.615409987869
 30
0.0
 10
320.5934247495617
 20
198.4838727876063
 30
0.0
 10
320.6179459129983
 20
198.3398956794784
 30
0.0
 10
320.6204964414455
 20
198.2396489439253
 30
0.0
 10
320.6218181818182
 20
198.1876988636374
 30
0.0
  0
SPLINE
  5
271
330
1F
100
AcDbEntity
  8
0
  6
Continuous
 62
     7
370
    25
100
AcDbSpline
210
0.0
220
0.0
230
1.0
 70
     8
 71
     3
 72
    15
 73
    11
 74
     0
 42
0.000000001
 43
0.00000001
 40
0.0
 40
0.0
 40
0.0
 40
0.0
 40
0.1333786706066402
 40
0.2619252341554815
 40
0.3867490650401643
 40
0.5114364515435105
 40
0.6336363288425926
 40
0.7543578055143839
 40
0.87576851040339
 40
1.0
 40
1.0
 40
1.0
 40
1.0
 10
320.5309090909091
 20
199.7800284090919
 30
0.0
 10
320.5297261580104
 20
199.7413586234957
 30
0.0
 10
320.5274031480786
 20
199.6654200000189
 30
0.0
 10
320.5077830202411
 20
199.5546716239986
 30
0.0
 10
320.4755420046919
 20
199.4497194235062
 30
0.0
 10
320.4310461931959
 20
199.3512995208451
 30
0.0
 10
320.3747119401946
 20
199.2605067747221
 30
0.0
 10
320.3072811989292
 20
199.1789445092443
 30
0.0
 10
320.2294814915017
 20
199.1060442950096
 30
0.0
 10
320.1702433078544
 20
199.0664089043646
 30
0.0
 10
320.1402840909091
 20
199.0463636363646
 30
0.0
  0
SPLINE
  5
272
330
1F
100
AcDbEntity
  8
0
  6
Continuous
 62
     7
370
    25
100
AcDbSpline
210
0.0
220
0.0
230
1.0
 70
     8
 71
     3
 72
    23
 73
    19
 74
     0
 42
0.000000001
 43
0.00000001
 40
0.0
 40
0.0
 40
0.0
 40
0.0
 40
0.0544199008451914
 40
0.1060523162565181
 40
0.1549730787461435
 40
0.2012838652153515
 40
0.2452075788106312
 40
0.2863483776398005
 40
0.3259675705682552
 40
0.3636675859428593
 40
0.4367582574700975
 40
0.5112362885366329
 40
0.5876989460161555
 40
0.6682289134090649
 40
0.7504893743805793
 40
0.8322579304600501
 40
0.9146071290589902
 40
0.9999999999999999
 40
0.9999999999999999
 40
0.9999999999999999
 40
0.9999999999999999
 10
319.5706818181818
 20
200.660000000001
 30
0.0
 10
319.597442826255
 20
200.6598084197633
 30
0.0
 10
319.6495940953209
 20
200.659435072373
 30
0.0
 10
319.7256504298407
 20
200.6541961386251
 30
0.0
 10
319.797453323445
 20
200.6464809176556
 30
0.0
 10
319.8651297374769
 20
200.6361342919932
 30
0.0
 10
319.9281696018424
 20
200.6218626132277
 30
0.0
 10
319.9871278481704
 20
200.6048940754965
 30
0.0
 10
320.0416615056585
 20
200.5842792650947
 30
0.0
 10
320.108886147159
 20
200.5532899269605
 30
0.0
 10
320.1863518768965
 20
200.5046684046416
 30
0.0
 10
320.2710297915957
 20
200.4335422805039
 30
0.0
 10
320.3449481919083
 20
200.3464787504192
 30
0.0
 10
320.4106827755135
 20
200.2486576926475
 30
0.0
 10
320.4645685597415
 20
200.1407047347347
 30
0.0
 10
320.5029695036181
 20
200.0254736421662
 30
0.0
 10
320.5264880552478
 20
199.904561461102
 30
0.0
 10
320.5294176929735
 20
199.8220385512635
 30
0.0
 10
320.5309090909091
 20
199.7800284090919
 30
0.0
  0
LINE
  5
273
330
1F
100
AcDbEntity
  8
0
  6
Continuous
 62
     7
370
    25
100
AcDbLine
 10
318.4854545455
 20
200.66
 30
0.0
 11
319.5706818182
 21
200.66
 31
0.0
  0
LINE
  5
274
330
1F
100
AcDbEntity
  8
0
  6
Continuous
 62
     7
370
    25
100
AcDbLine
 10
318.4854545455
 20
197.16
 30
0.0
 11
318.4854545455
 21
200.66
 31
0.0
  0
LINE
  5
275
330
1F
100
AcDbEntity
  8
0
  6
Continuous
 62
     7
370
    25
100
AcDbLine
 10
319.5628693182
 20
197.16
 30
0.0
 11
318.4854545455
 21
197.16
 31
0.0
  0
SPLINE
  5
276
330
1F
100
AcDbEntity
  8
0
  6
Continuous
 62
     7
370
    25
100
AcDbSpline
210
0.0
220
0.0
230
1.0
 70
     8
 71
     3
 72
    23
 73
    19
 74
     0
 42
0.000000001
 43
0.00000001
 40
0.0
 40
0.0
 40
0.0
 40
0.0
 40
0.0927167590882806
 40
0.1801828503269483
 40
0.2644844746646971
 40
0.3464547069403137
 40
0.4250710312591282
 40
0.499228385582297
 40
0.5714123754260498
 40
0.6423085886576492
 40
0.6788506151926694
 40
0.7174739186893365
 40
0.7581199166694998
 40
0.8008069053587523
 40
0.84682533884393
 40
0.8950746429128078
 40
0.9461164316244263
 40
1.0
 40
1.0
 40
1.0
 40
1.0
 10
320.6218181818182
 20
198.1876988636374
 30
0.0
 10
320.6204743463868
 20
198.135515356353
 30
0.0
 10
320.6178627786316
 20
198.0341035600929
 30
0.0
 10
320.5930687734494
 20
197.8869105158206
 30
0.0
 10
320.5526801380662
 20
197.7497024878106
 30
0.0
 10
320.4968896593149
 20
197.6232777962304
 30
0.0
 10
320.4273728744486
 20
197.5106283047192
 30
0.0
 10
320.3474774661273
 20
197.4118696827565
 30
0.0
 10
320.2549624392912
 20
197.3312286599351
 30
0.0
 10
320.1690259931622
 20
197.2771029854536
 30
0.0
 10
320.0939867742783
 20
197.243499953558
 30
0.0
 10
320.0330121521346
 20
197.2203653220558
 30
0.0
 10
319.9666824285887
 20
197.2026158591541
 30
0.0
 10
319.8957197940443
 20
197.1864714513904
 30
0.0
 10
319.8195120751789
 20
197.1747891675333
 30
0.0
 10
319.7381921555769
 20
197.1665697851402
 30
0.0
 10
319.652215788828
 20
197.1603523433962
 30
0.0
 10
319.5931844068719
 20
197.1601195494493
 30
0.0
 10
319.5628693181818
 20
197.160000000001
 30
0.0
  0
SPLINE
  5
277
330
1F
100
AcDbEntity
  8
0
  6
Continuous
 62
     7
370
    25
100
AcDbSpline
210
0.0
220
0.0
230
1.0
 70
     8
 71
     3
 72
    19
 73
    15
 74
     0
 42
0.000000001
 43
0.00000001
 40
0.0
 40
0.0
 40
0.0
 40
0.0
 40
0.0661297850621442
 40
0.1323063145957533
 40
0.2001432470913932
 40
0.2709948764223982
 40
0.3452317459811035
 40
0.4227459821809252
 40
0.5042032756070172
 40
0.5908175642441984
 40
0.6830127059796938
 40
0.7812662377116577
 40
0.8868843908001325
 40
1.0
 40
1.0
 40
1.0
 40
1.0
 10
325.8469602272727
 20
200.5953693181828
 30
0.0
 10
325.8877687150483
 20
200.5797701712174
 30
0.0
 10
325.9694145364695
 20
200.5485608508801
 30
0.0
 10
326.0827082747326
 20
200.4793772738989
 30
0.0
 10
326.1870543299758
 20
200.393016300811
 30
0.0
 10
326.2832436914218
 20
200.2901485382125
 30
0.0
 10
326.3694847657359
 20
200.1709449143955
 30
0.0
 10
326.4464864502715
 20
200.0374808712745
 30
0.0
 10
326.5123469059121
 20
199.8892248896057
 30
0.0
 10
326.5684855284392
 20
199.7268059627885
 30
0.0
 10
326.6131789102348
 20
199.5493725040613
 30
0.0
 10
326.6446369606178
 20
199.356474106711
 30
0.0
 10
326.663925889764
 20
199.1480835209164
 30
0.0
 10
326.6661319097928
 20
199.003793852381
 30
0.0
 10
326.6672727272727
 20
198.9291761363646
 30
0.0
  0
SPLINE
  5
278
330
1F
100
AcDbEntity
  8
0
  6
Continuous
 62
     7
370
    25
100
AcDbSpline
210
0.0
220
0.0
230
1.0
 70
     8
 71
     3
 72
    15
 73
    11
 74
     0
 42
0.000000001
 43
0.00000001
 40
0.0
 40
0.0
 40
0.0
 40
0.0
 40
0.157768981263723
 40
0.3068317722095679
 40
0.4446853154065932
 40
0.5740378871988587
 40
0.6938055486786892
 40
0.8052293349315871
 40
0.9065525990511042
 40
1.0
 40
1.0
 40
1.0
 40
1.0
 10
325.2901420454546
 20
200.660000000001
 30
0.0
 10
325.3197402674725
 20
200.6600090348705
 30
0.0
 10
325.377303388203
 20
200.6600266060369
 30
0.0
 10
325.4606393840036
 20
200.6560102895734
 30
0.0
 10
325.5385813572518
 20
200.6513346273629
 30
0.0
 10
325.6108692903335
 20
200.6444192620941
 30
0.0
 10
325.6778198461704
 20
200.634845536706
 30
0.0
 10
325.7394441337408
 20
200.6249862623385
 30
0.0
 10
325.7952477736634
 20
200.6111412687563
 30
0.0
 10
325.8301937752135
 20
200.6004829733029
 30
0.0
 10
325.8469602272727
 20
200.5953693181828
 30
0.0
  0
LINE
  5
279
330
1F
100
AcDbEntity
  8
0
  6
Continuous
 62
     7
370
    25
100
AcDbLine
 10
324.3036363636
 20
200.66
 30
0.0
 11
325.2901420455
 21
200.66
 31
0.0
  0
LINE
  5
27A
330
1F
100
AcDbEntity
  8
0
  6
Continuous
 62
     7
370
    25
100
AcDbLine
 10
324.3036363636
 20
197.16
 30
0.0
 11
324.3036363636
 21
200.66
 31
0.0
  0
LINE
  5
27B
330
1F
100
AcDbEntity
  8
0
  6
Continuous
 62
     7
370
    25
100
AcDbLine
 10
325.3355965909
 20
197.16
 30
0.0
 11
324.3036363636
 21
197.16
 31
0.0
  0
SPLINE
  5
27C
330
1F
100
AcDbEntity
  8
0
  6
Continuous
 62
     7
370
    25
100
AcDbSpline
210
0.0
220
0.0
230
1.0
 70
     8
 71
     3
 72
    31
 73
    27
 74
     0
 42
0.000000001
 43
0.00000001
 40
0.0
 40
0.0
 40
0.0
 40
0.0
 40
0.0577553347540333
 40
0.1136139226023749
 40
0.1671197257755566
 40
0.2189464986391538
 40
0.2686643663353139
 40
0.3168966216208767
 40
0.3635773347188843
 40
0.4087770573903811
 40
0.4520210878651962
 40
0.4933464890352591
 40
0.5327655511252253
 40
0.569964342274778
 40
0.6057775680813444
 40
0.6402404808462637
 40
0.6733902473124882
 40
0.7057429754128417
 40
0.737921108410789
 40
0.7710708748770121
 40
0.8052923530984054
 40
0.8409668427136457
 40
0.8780909052648262
 40
0.9167713881419295
 40
0.9574514408635615
 40
1.0
 40
1.0
 40
1.0
 40
1.0
 10
326.6672727272727
 20
198.9291761363646
 30
0.0
 10
326.6666748914354
 20
198.8806348373297
 30
0.0
 10
326.6654988533285
 20
198.7851463873871
 30
0.0
 10
326.6578070176972
 20
198.6448436486503
 30
0.0
 10
326.6442895372389
 20
198.5100048204238
 30
0.0
 10
326.6254469073416
 20
198.3809948046213
 30
0.0
 10
326.6002139371089
 20
198.2576191616281
 30
0.0
 10
326.5708460955104
 20
198.139602861028
 30
0.0
 10
326.5351375629801
 20
198.0273103698343
 30
0.0
 10
326.4949451570946
 20
197.9210316204865
 30
0.0
 10
326.4501863273795
 20
197.8214916337885
 30
0.0
 10
326.4018038217659
 20
197.7291412101888
 30
0.0
 10
326.3511370441405
 20
197.64386142764
 30
0.0
 10
326.2967825715121
 20
197.5664395873306
 30
0.0
 10
326.2391585143045
 20
197.4967661519523
 30
0.0
 10
326.1788924453797
 20
197.4340072161693
 30
0.0
 10
326.1154563782218
 20
197.3786822757603
 30
0.0
 10
326.0479684917172
 20
197.3317197643696
 30
0.0
 10
325.976845944603
 20
197.2904747397576
 30
0.0
 10
325.9004586764211
 20
197.2560860677491
 30
0.0
 10
325.8192182826496
 20
197.2258269409877
 30
0.0
 10
325.7323392589457
 20
197.202180396545
 30
0.0
 10
325.6406150440516
 20
197.1827978255445
 30
0.0
 10
325.5435478423406
 20
197.1694599361947
 30
0.0
 10
325.4413107898209
 20
197.1617377834926
 30
0.0
 10
325.3713581429332
 20
197.160587866488
 30
0.0
 10
325.3355965909091
 20
197.160000000001
 30
0.0
  0
SPLINE
  5
27D
330
1F
100
AcDbEntity
  8
0
  6
Continuous
 62
     7
370
    25
100
AcDbSpline
210
0.0
220
0.0
230
1.0
 70
     8
 71
     3
 72
    23
 73
    19
 74
     0
 42
0.000000001
 43
0.00000001
 40
0.0
 40
0.0
 40
0.0
 40
0.0
 40
0.0888020249989599
 40
0.1690438221939707
 40
0.2412984384705505
 40
0.3055987735467961
 40
0.3614602812014786
 40
0.4094933830719599
 40
0.4495464594938949
 40
0.4818678640812722
 40
0.5389057168513094
 40
0.5962116047656744
 40
0.655284474422711
 40
0.7171583883965916
 40
0.7819971740158735
 40
0.8500813053860578
 40
0.9224248055745138
 40
1.0
 40
1.0
 40
1.0
 40
1.0
 10
331.7354545454546
 20
198.7189488636374
 30
0.0
 10
331.770533570455
 20
198.7084283753494
 30
0.0
 10
331.8373101159785
 20
198.6884015397952
 30
0.0
 10
331.9319905479321
 20
198.6577519738592
 30
0.0
 10
332.0165633833014
 20
198.628732818199
 30
0.0
 10
332.0910168949077
 20
198.6012731335479
 30
0.0
 10
332.1553018935139
 20
198.575128309351
 30
0.0
 10
332.2091012800653
 20
198.5500727223299
 30
0.0
 10
332.2537960552469
 20
198.5282438600235
 30
0.0
 10
332.2982434643996
 20
198.4985055464783
 30
0.0
 10
332.3445687868321
 20
198.4593420437495
 30
0.0
 10
332.3927913828545
 20
198.40621994336
 30
0.0
 10
332.4341105602629
 20
198.3451567837261
 30
0.0
 10
332.4689738137563
 20
198.2767030151551
 30
0.0
 10
332.4963159034905
 20
198.2010093471492
 30
0.0
 10
332.5175154768137
 20
198.1188655433748
 30
0.0
 10
332.5281990444668
 20
198.0293609922768
 30
0.0
 10
332.5299849677137
 20
197.9675514387659
 30
0.0
 10
332.5309090909091
 20
197.9355681818192
 30
0.0
  0
SPLINE
  5
27E
330
1F
100
AcDbEntity
  8
0
  6
Continuous
 62
     7
370
    25
100
AcDbSpline
210
0.0
220
0.0
230
1.0
 70
     8
 71
     3
 72
    15
 73
    11
 74
     0
 42
0.000000001
 43
0.00000001
 40
0.0
 40
0.0
 40
0.0
 40
0.0
 40
0.0564719285384476
 40
0.1326570773564946
 40
0.2281521911408201
 40
0.3431668580366659
 40
0.4767998177852612
 40
0.6316582076712588
 40
0.8051723455879789
 40
1.0
 40
1.0
 40
1.0
 40
1.0
 10
331.3277840909091
 20
198.8645454545465
 30
0.0
 10
331.3348340017758
 20
198.8604228445455
 30
0.0
 10
331.3513948063279
 20
198.8507385038836
 30
0.0
 10
331.3813679685512
 20
198.8368726432088
 30
0.0
 10
331.4197894072462
 20
198.8213216666274
 30
0.0
 10
331.4666980508872
 20
198.8047327428723
 30
0.0
 10
331.5216031213872
 20
198.7850272959624
 30
0.0
 10
331.5853657267973
 20
198.7651265598788
 30
0.0
 10
331.6573209680756
 20
198.741828428694
 30
0.0
 10
331.708424347528
 20
198.7268640160302
 30
0.0
 10
331.7354545454546
 20
198.7189488636374
 30
0.0
  0
SPLINE
  5
27F
330
1F
100
AcDbEntity
  8
0
  6
Continuous
 62
     7
370
    25
100
AcDbSpline
210
0.0
220
0.0
230
1.0
 70
     8
 71
     3
 72
    11
 73
     7
 74
     0
 42
0.000000001
 43
0.00000001
 40
0.0
 40
0.0
 40
0.0
 40
0.0
 40
0.2533345299835125
 40
0.4960226624459858
 40
0.7370566853077676
 40
1.0
 40
1.0
 40
1.0
 40
1.0
 10
331.2127272727272
 20
199.0761931818192
 30
0.0
 10
331.2139314829416
 20
199.0548968691906
 30
0.0
 10
331.2162892963699
 20
199.01319922264
 30
0.0
 10
331.2396718495208
 20
198.9551056174585
 30
0.0
 10
331.2763736531596
 20
198.9035492416798
 30
0.0
 10
331.3101577160396
 20
198.8779181353373
 30
0.0
 10
331.3277840909091
 20
198.8645454545465
 30
0.0
  0
SPLINE
  5
280
330
1F
100
AcDbEntity
  8
0
  6
Continuous
 62
     7
370
    25
100
AcDbSpline
210
0.0
220
0.0
230
1.0
 70
     8
 71
     3
 72
    15
 73
    11
 74
     0
 42
0.000000001
 43
0.00000001
 40
0.0
 40
0.0
 40
0.0
 40
0.0
 40
0.1744475096522795
 40
0.3268824124617938
 40
0.4613472122667958
 40
0.5816380267185493
 40
0.6910705666047824
 40
0.7927892955004686
 40
0.8939382396375781
 40
1.0
 40
1.0
 40
1.0
 40
1.0
 10
331.6686931818182
 20
199.3872727272737
 30
0.0
 10
331.6326308537975
 20
199.3863004643233
 30
0.0
 10
331.5650567118341
 20
199.3844786231322
 30
0.0
 10
331.4708374470826
 20
199.3682051785732
 30
0.0
 10
331.3903499895213
 20
199.3422000611029
 30
0.0
 10
331.3251121553768
 20
199.303404562785
 30
0.0
 10
331.27508593676
 20
199.255820674213
 30
0.0
 10
331.2390490938322
 20
199.2017700667355
 30
0.0
 10
331.2164424238775
 20
199.1411039053076
 30
0.0
 10
331.2139850770836
 20
199.0981694049852
 30
0.0
 10
331.2127272727272
 20
199.0761931818192
 30
0.0
  0
SPLINE
  5
281
330
1F
100
AcDbEntity
  8
0
  6
Continuous
 62
     7
370
    25
100
AcDbSpline
210
0.0
220
0.0
230
1.0
 70
     8
 71
     3
 72
    15
 73
    11
 74
     0
 42
0.000000001
 43
0.00000001
 40
0.0
 40
0.0
 40
0.0
 40
0.0
 40
0.1428901499986547
 40
0.2715775881364904
 40
0.3904693795008498
 40
0.5025712980780841
 40
0.6152081973574496
 40
0.7321896610795406
 40
0.8591868078244159
 40
0.9999999999999999
 40
0.9999999999999999
 40
0.9999999999999999
 40
0.9999999999999999
 10
332.1218181818182
 20
198.9781818181828
 30
0.0
 10
332.1168350182736
 20
199.0103341413304
 30
0.0
 10
332.1073639977957
 20
199.071442974749
 30
0.0
 10
332.079172237426
 20
199.1563110967575
 30
0.0
 10
332.0380847999168
 20
199.2275987526127
 30
0.0
 10
331.9868208956376
 20
199.2874342165998
 30
0.0
 10
331.9226639778456
 20
199.3326304663791
 30
0.0
 10
331.8477373522193
 20
199.3648775787598
 30
0.0
 10
331.7617401306686
 20
199.3841177565424
 30
0.0
 10
331.7007575072736
 20
199.3861855125979
 30
0.0
 10
331.6686931818182
 20
199.3872727272737
 30
0.0
  0
LINE
  5
282
330
1F
100
AcDbEntity
  8
0
  6
Continuous
 62
     7
370
    25
100
AcDbLine
 10
332.4854545455
 20
199.0236363636
 30
0.0
 11
332.1218181818
 21
198.9781818182
 31
0.0
  0
SPLINE
  5
283
330
1F
100
AcDbEntity
  8
0
  6
Continuous
 62
     7
370
    25
100
AcDbSpline
210
0.0
220
0.0
230
1.0
 70
     8
 71
     3
 72
    19
 73
    15
 74
     0
 42
0.000000001
 43
0.00000001
 40
0.0
 40
0.0
 40
0.0
 40
0.0
 40
0.0940979807465284
 40
0.1832242239908924
 40
0.2679816082040672
 40
0.3505333049061091
 40
0.4292230974138174
 40
0.5039604698815182
 40
0.5757366039802707
 40
0.6459794083478002
 40
0.7197924729759911
 40
0.8026697393828564
 40
0.8958213810445659
 40
0.9999999999999999
 40
0.9999999999999999
 40
0.9999999999999999
 40
0.9999999999999999
 10
331.6559090909091
 20
199.7509090909101
 30
0.0
 10
331.6945457115036
 20
199.7497387362551
 30
0.0
 10
331.7697775578186
 20
199.7474598635125
 30
0.0
 10
331.8790188133652
 20
199.7320892658284
 30
0.0
 10
331.9809776059156
 20
199.7048270888247
 30
0.0
 10
332.074997500803
 20
199.6673364754009
 30
0.0
 10
332.1606088578914
 20
199.6214550180133
 30
0.0
 10
332.23582640146
 20
199.567179622398
 30
0.0
 10
332.3004851487244
 20
199.5056361415682
 30
0.0
 10
332.3555416122565
 20
199.4357232305816
 30
0.0
 10
332.4002526586133
 20
199.3535246869816
 30
0.0
 10
332.4366109119679
 20
199.2573867492101
 30
0.0
 10
332.4665605518112
 20
199.1460598730762
 30
0.0
 10
332.4789262131311
 20
199.0659366506442
 30
0.0
 10
332.4854545454545
 20
199.0236363636374
 30
0.0
  0
SPLINE
  5
284
330
1F
100
AcDbEntity
  8
0
  6
Continuous
 62
     7
370
    25
100
AcDbSpline
210
0.0
220
0.0
230
1.0
 70
     8
 71
     3
 72
    23
 73
    19
 74
     0
 42
0.000000001
 43
0.00000001
 40
0.0
 40
0.0
 40
0.0
 40
0.0
 40
0.0644363268042908
 40
0.1258667377151224
 40
0.1859381026629076
 40
0.2442596602086012
 40
0.3015808136688487
 40
0.3585695142859087
 40
0.4164511649581951
 40
0.475923306330246
 40
0.5359946712780324
 40
0.5958276290276497
 40
0.6573018210832177
 40
0.7202998620236516
 40
0.7854602006447301
 40
0.8533603183878387
 40
0.9245747987912779
 40
1.0
 40
1.0
 40
1.0
 40
1.0
 10
330.8490909090909
 20
199.0250568181828
 30
0.0
 10
330.8497782891741
 20
199.0513706010694
 30
0.0
 10
330.8511209834731
 20
199.102770644696
 30
0.0
 10
330.8614973814131
 20
199.1781037925059
 30
0.0
 10
330.8773918145832
 20
199.2498681389962
 30
0.0
 10
330.900843968539
 20
199.3178733896105
 30
0.0
 10
330.9319869255772
 20
199.3812220779415
 30
0.0
 10
330.9681474293171
 20
199.4416333682352
 30
0.0
 10
331.0119090620095
 20
199.4979875506958
 30
0.0
 10
331.0622450899909
 20
199.5502064703219
 30
0.0
 10
331.1179498657193
 20
199.5979945613519
 30
0.0
 10
331.1800221301343
 20
199.6386722326961
 30
0.0
 10
331.2468203319346
 20
199.6735648522099
 30
0.0
 10
331.3189855214339
 20
199.7019553123602
 30
0.0
 10
331.3960556369155
 20
199.7240357117259
 30
0.0
 10
331.4781291846083
 20
199.7391855505252
 30
0.0
 10
331.5651961938253
 20
199.7498224207976
 30
0.0
 10
331.6250981025715
 20
199.7505399991796
 30
0.0
 10
331.6559090909091
 20
199.7509090909101
 30
0.0
  0
SPLINE
  5
285
330
1F
100
AcDbEntity
  8
0
  6
Continuous
 62
     7
370
    25
100
AcDbSpline
210
0.0
220
0.0
230
1.0
 70
     8
 71
     3
 72
    23
 73
    19
 74
     0
 42
0.000000001
 43
0.00000001
 40
0.0
 40
0.0
 40
0.0
 40
0.0
 40
0.0803479529685884
 40
0.1540857697659217
 40
0.2217463782410224
 40
0.2830078046298348
 40
0.3384292434626339
 40
0.3876370850929206
 40
0.4310890015474597
 40
0.4683951320205009
 40
0.5353469519551292
 40
0.601101244154175
 40
0.6656147996428069
 40
0.7304355421121372
 40
0.7957028268409425
 40
0.8616285479192456
 40
0.9296396743680707
 40
1.0
 40
1.0
 40
1.0
 40
1.0
 10
331.7411363636363
 20
198.2445170454556
 30
0.0
 10
331.7079631512179
 20
198.2546033185127
 30
0.0
 10
331.6443458494417
 20
198.2739460782303
 30
0.0
 10
331.553258343374
 20
198.3032694139639
 30
0.0
 10
331.4701874510289
 20
198.3306120586826
 30
0.0
 10
331.3953225152882
 20
198.357557802549
 30
0.0
 10
331.3288500241783
 20
198.3841385578367
 30
0.0
 10
331.2695309822825
 20
198.4079054330759
 30
0.0
 10
331.2184112348733
 20
198.431055161677
 30
0.0
 10
331.1621097294665
 20
198.4610135588408
 30
0.0
 10
331.1005577054372
 20
198.5012735961
 30
0.0
 10
331.0355630279308
 20
198.5566329598504
 30
0.0
 10
330.9797158329931
 20
198.6199538960861
 30
0.0
 10
330.9324101753724
 20
198.6896678064195
 30
0.0
 10
330.8956816016455
 20
198.7661501179082
 30
0.0
 10
330.8680570987855
 20
198.8478091546102
 30
0.0
 10
330.8526418056472
 20
198.9349916463727
 30
0.0
 10
330.8502878626201
 20
198.9946972108145
 30
0.0
 10
330.8490909090909
 20
199.0250568181828
 30
0.0
  0
SPLINE
  5
286
330
1F
100
AcDbEntity
  8
0
  6
Continuous
 62
     7
370
    25
100
AcDbSpline
210
0.0
220
0.0
230
1.0
 70
     8
 71
     3
 72
    15
 73
    11
 74
     0
 42
0.000000001
 43
0.00000001
 40
0.0
 40
0.0
 40
0.0
 40
0.0
 40
0.0610041680348465
 40
0.1413951950876469
 40
0.2376911451785598
 40
0.3520340277813426
 40
0.4865134538123948
 40
0.638400655607832
 40
0.810735948977014
 40
1.0
 40
1.0
 40
1.0
 40
1.0
 10
332.0841761363636
 20
198.1038920454556
 30
0.0
 10
332.0783711603779
 20
198.1087845304206
 30
0.0
 10
332.0649164123102
 20
198.1201243107731
 30
0.0
 10
332.0392211297179
 20
198.1349161741796
 30
0.0
 10
332.0070576683651
 20
198.1513978978383
 30
0.0
 10
331.9676614782657
 20
198.1684416661105
 30
0.0
 10
331.9209236279173
 20
198.1856002571295
 30
0.0
 10
331.8674254072308
 20
198.2052646845395
 30
0.0
 10
331.806651774109
 20
198.2247231299889
 30
0.0
 10
331.7636459587441
 20
198.2377163092694
 30
0.0
 10
331.7411363636363
 20
198.2445170454556
 30
0.0
  0
SPLINE
  5
287
330
1F
100
AcDbEntity
  8
0
  6
Continuous
 62
     7
370
    25
100
AcDbSpline
210
0.0
220
0.0
230
1.0
 70
     8
 71
     3
 72
    11
 73
     7
 74
     0
 42
0.000000001
 43
0.00000001
 40
0.0
 40
0.0
 40
0.0
 40
0.0
 40
0.2800024894960485
 40
0.533178543664111
 40
0.7691212689052842
 40
1.0
 40
1.0
 40
1.0
 40
1.0
 10
332.1672727272727
 20
197.8730681818192
 30
0.0
 10
332.1664925328025
 20
197.8966112247115
 30
0.0
 10
332.1650068926136
 20
197.9414417022737
 30
0.0
 10
332.1491023250168
 20
198.004454481348
 30
0.0
 10
332.1228416768476
 20
198.0596191301399
 30
0.0
 10
332.0969711034352
 20
198.0892415197798
 30
0.0
 10
332.0841761363636
 20
198.1038920454556
 30
0.0
  0
SPLINE
  5
288
330
1F
100
AcDbEntity
  8
0
  6
Continuous
 62
     7
370
    25
100
AcDbSpline
210
0.0
220
0.0
230
1.0
 70
     8
 71
     3
 72
    15
 73
    11
 74
     0
 42
0.000000001
 43
0.00000001
 40
0.0
 40
0.0
 40
0.0
 40
0.0
 40
0.1542702648641901
 40
0.2919558213672656
 40
0.419290313497259
 40
0.5397792421130223
 40
0.6560244828035149
 40
0.7677850657837908
 40
0.8804278840528513
 40
1.0
 40
1.0
 40
1.0
 40
1.0
 10
331.6956818181818
 20
197.4781818181828
 30
0.0
 10
331.7313098256789
 20
197.4794220927796
 30
0.0
 10
331.7987356786238
 20
197.481769307189
 30
0.0
 10
331.8937689368932
 20
197.5025330767587
 30
0.0
 10
331.9765142209372
 20
197.5369028042423
 30
0.0
 10
332.0448530087633
 20
197.5869935886033
 30
0.0
 10
332.0991505789003
 20
197.6469325637729
 30
0.0
 10
332.139702004347
 20
197.7149639412748
 30
0.0
 10
332.1629501402102
 20
197.7918184382131
 30
0.0
 10
332.165803483646
 20
197.8454514638114
 30
0.0
 10
332.1672727272727
 20
197.8730681818192
 30
0.0
  0
SPLINE
  5
289
330
1F
100
AcDbEntity
  8
0
  6
Continuous
 62
     7
370
    25
100
AcDbSpline
210
0.0
220
0.0
230
1.0
 70
     8
 71
     3
 72
    15
 73
    11
 74
     0
 42
0.000000001
 43
0.00000001
 40
0.0
 40
0.0
 40
0.0
 40
0.0
 40
0.1486602329898506
 40
0.2817900771618579
 40
0.4040342802842953
 40
0.5181502331779344
 40
0.6308884781878117
 40
0.746060154752101
 40
0.8674901524067969
 40
1.0
 40
1.0
 40
1.0
 40
1.0
 10
331.1672727272727
 20
197.9781818181828
 30
0.0
 10
331.1734261229698
 20
197.9383856798458
 30
0.0
 10
331.1850900751475
 20
197.8629508667339
 30
0.0
 10
331.2201380260894
 20
197.7588121825594
 30
0.0
 10
331.2682069150628
 20
197.6704700037582
 30
0.0
 10
331.3308614253406
 20
197.598746689946
 30
0.0
 10
331.4062913113966
 20
197.5438932226216
 30
0.0
 10
331.4931997863784
 20
197.5053463222815
 30
0.0
 10
331.5910445304355
 20
197.4822936923684
 30
0.0
 10
331.6598027081484
 20
197.4795917399184
 30
0.0
 10
331.6956818181818
 20
197.4781818181828
 30
0.0
  0
LINE
  5
28A
330
1F
100
AcDbEntity
  8
0
  6
Continuous
 62
     7
370
    25
100
AcDbLine
 10
330.8036363636
 20
197.9327272727
 30
0.0
 11
331.1672727273
 21
197.9781818182
 31
0.0
  0
SPLINE
  5
28B
330
1F
100
AcDbEntity
  8
0
  6
Continuous
 62
     7
370
    25
100
AcDbSpline
210
0.0
220
0.0
230
1.0
 70
     8
 71
     3
 72
    23
 73
    19
 74
     0
 42
0.000000001
 43
0.00000001
 40
0.0
 40
0.0
 40
0.0
 40
0.0
 40
0.0685982000108931
 40
0.1337684207341331
 40
0.1965722569929141
 40
0.2562287272301801
 40
0.3146023216973862
 40
0.3708951153036785
 40
0.4271879089099697
 40
0.4830691009199767
 40
0.5398892390028422
 40
0.597518718014747
 40
0.6574054859212541
 40
0.719194267109141
 40
0.7843292749589591
 40
0.8522468537509189
 40
0.9244620033624396
 40
1.0
 40
1.0
 40
1.0
 40
1.0
 10
331.6708238636364
 20
197.1145454545465
 30
0.0
 10
331.6405025021684
 20
197.1153296299277
 30
0.0
 10
331.5813749939038
 20
197.1168587939919
 30
0.0
 10
331.4947946131848
 20
197.1258036367493
 30
0.0
 10
331.4134243223899
 20
197.1423597274097
 30
0.0
 10
331.3363587772063
 20
197.1640839279595
 30
0.0
 10
331.2649284312006
 20
197.1933729471489
 30
0.0
 10
331.1977417246519
 20
197.2283019132083
 30
0.0
 10
331.1362091232536
 20
197.2705047933964
 30
0.0
 10
331.0785168972054
 20
197.3182104294238
 30
0.0
 10
331.0269911309171
 20
197.3733354618747
 30
0.0
 10
330.9793969038139
 20
197.4341130813362
 30
0.0
 10
330.937933007437
 20
197.5018354911124
 30
0.0
 10
330.9005448452431
 20
197.5755756058087
 30
0.0
 10
330.868955714921
 20
197.6558409636683
 30
0.0
 10
330.8420549506561
 20
197.7425498777163
 30
0.0
 10
330.8189729673347
 20
197.8351693493649
 30
0.0
 10
330.8088246407154
 20
197.8997240376168
 30
0.0
 10
330.8036363636364
 20
197.9327272727283
 30
0.0
  0
SPLINE
  5
28C
330
1F
100
AcDbEntity
  8
0
  6
Continuous
 62
     7
370
    25
100
AcDbSpline
210
0.0
220
0.0
230
1.0
 70
     8
 71
     3
 72
    23
 73
    19
 74
     0
 42
0.000000001
 43
0.00000001
 40
0.0
 40
0.0
 40
0.0
 40
0.0
 40
0.0667365676275932
 40
0.1307394576781663
 40
0.1926219323102793
 40
0.2527062673934878
 40
0.3114422337405043
 40
0.3702615929787219
 40
0.4289021079482177
 40
0.4884620470024314
 40
0.5484554105456722
 40
0.6080717555211879
 40
0.6677538400275177
 40
0.7291865847145691
 40
0.7928053990892737
 40
0.8587142205001844
 40
0.9274460170065547
 40
1.0
 40
1.0
 40
1.0
 40
1.0
 10
332.5309090909091
 20
197.9355681818192
 30
0.0
 10
332.5302331919862
 20
197.9057114849444
 30
0.0
 10
332.5289090804569
 20
197.847221087607
 30
0.0
 10
332.5183441313762
 20
197.7615061971701
 30
0.0
 10
332.4994384294533
 20
197.680406785069
 30
0.0
 10
332.4752150151902
 20
197.6031220681542
 30
0.0
 10
332.4417342724437
 20
197.5308684261241
 30
0.0
 10
332.4022830768753
 20
197.4624832590702
 30
0.0
 10
332.3548012037405
 20
197.3989059773303
 30
0.0
 10
332.3009692021574
 20
197.3399335024096
 30
0.0
 10
332.2407140236199
 20
197.2868636822967
 30
0.0
 10
332.1752261909563
 20
197.2402456419531
 30
0.0
 10
332.1039032074477
 20
197.2018277225856
 30
0.0
 10
332.027661644783
 20
197.1696193030539
 30
0.0
 10
331.945713838912
 20
197.1449508456379
 30
0.0
 10
331.8587016289499
 20
197.1273277932643
 30
0.0
 10
331.7665075760542
 20
197.1164323872537
 30
0.0
 10
331.7032885201744
 20
197.1151856745035
 30
0.0
 10
331.6708238636364
 20
197.1145454545465
 30
0.0
  0
LINE
  5
28D
330
1F
100
AcDbEntity
  8
0
  6
Continuous
 62
     7
370
    25
100
AcDbLine
 10
333.0763636364
 20
197.66
 30
0.0
 11
333.44
 21
197.66
 31
0.0
  0
LINE
  5
28E
330
1F
100
AcDbEntity
  8
0
  6
Continuous
 62
     7
370
    25
100
AcDbLine
 10
333.0763636364
 20
197.16
 30
0.0
 11
333.0763636364
 21
197.66
 31
0.0
  0
LINE
  5
28F
330
1F
100
AcDbEntity
  8
0
  6
Continuous
 62
     7
370
    25
100
AcDbLine
 10
333.44
 20
197.16
 30
0.0
 11
333.0763636364
 21
197.16
 31
0.0
  0
LINE
  5
290
330
1F
100
AcDbEntity
  8
0
  6
Continuous
 62
     7
370
    25
100
AcDbLine
 10
333.44
 20
197.66
 30
0.0
 11
333.44
 21
197.16
 31
0.0
  0
SPLINE
  5
291
330
1F
100
AcDbEntity
  8
0
  6
Continuous
 62
     7
370
    25
100
AcDbSpline
210
0.0
220
0.0
230
1.0
 70
     8
 71
     3
 72
    11
 73
     7
 74
     0
 42
0.000000001
 43
0.00000001
 40
0.0
 40
0.0
 40
0.0
 40
0.0
 40
0.2427338836200175
 40
0.4890531082323479
 40
0.7416065579580067
 40
1.0
 40
1.0
 40
1.0
 40
1.0
 10
334.5500852272727
 20
198.9994886363646
 30
0.0
 10
334.5399774373192
 20
198.9581881581682
 30
0.0
 10
334.519612558628
 20
198.8749771662283
 30
0.0
 10
334.5005144807501
 20
198.7464044795636
 30
0.0
 10
334.4879540632193
 20
198.6143239121841
 30
0.0
 10
334.4862940425799
 20
198.5248503724401
 30
0.0
 10
334.4854545454546
 20
198.4796022727283
 30
0.0
  0
SPLINE
  5
292
330
1F
100
AcDbEntity
  8
0
  6
Continuous
 62
     7
370
    25
100
AcDbSpline
210
0.0
220
0.0
230
1.0
 70
     8
 71
     3
 72
    15
 73
    11
 74
     0
 42
0.000000001
 43
0.00000001
 40
0.0
 40
0.0
 40
0.0
 40
0.0
 40
0.1128482450535508
 40
0.2237707476587509
 40
0.3390101317530223
 40
0.4609584624010872
 40
0.5859784711844869
 40
0.7164536607227071
 40
0.8531371885918307
 40
0.9999999999999999
 40
0.9999999999999999
 40
0.9999999999999999
 40
0.9999999999999999
 10
334.8753693181819
 20
199.2963636363646
 30
0.0
 10
334.8574892879462
 20
199.2954681406157
 30
0.0
 10
334.8220343481543
 20
199.2936924306508
 30
0.0
 10
334.7705427428326
 20
199.2773899262859
 30
0.0
 10
334.720725705627
 20
199.2534816087122
 30
0.0
 10
334.6752610835128
 20
199.218171373749
 30
0.0
 10
334.63326866007
 20
199.1754686576244
 30
0.0
 10
334.598848615211
 20
199.1235914574678
 30
0.0
 10
334.5697746792877
 20
199.064703734996
 30
0.0
 10
334.5568035980913
 20
199.0217411203465
 30
0.0
 10
334.5500852272727
 20
198.9994886363646
 30
0.0
  0
SPLINE
  5
293
330
1F
100
AcDbEntity
  8
0
  6
Continuous
 62
     7
370
    25
100
AcDbSpline
210
0.0
220
0.0
230
1.0
 70
     8
 71
     3
 72
    11
 73
     7
 74
     0
 42
0.000000001
 43
0.00000001
 40
0.0
 40
0.0
 40
0.0
 40
0.0
 40
0.2631914158914981
 40
0.5150108514500544
 40
0.7599583482797367
 40
1.0
 40
1.0
 40
1.0
 40
1.0
 10
335.1218181818182
 20
199.2509090909101
 30
0.0
 10
335.1008506956409
 20
199.2578949506044
 30
0.0
 10
335.059821686878
 20
199.2715648248176
 30
0.0
 10
334.9975396668901
 20
199.2856837461642
 30
0.0
 10
334.9362411695253
 20
199.2946890534004
 30
0.0
 10
334.895522640957
 20
199.2958092190067
 30
0.0
 10
334.8753693181819
 20
199.2963636363646
 30
0.0
  0
LINE
  5
294
330
1F
100
AcDbEntity
  8
0
  6
Continuous
 62
     7
370
    25
100
AcDbLine
 10
335.2581818182
 20
199.6145454545
 30
0.0
 11
335.1218181818
 21
199.2509090909
 31
0.0
  0
SPLINE
  5
295
330
1F
100
AcDbEntity
  8
0
  6
Continuous
 62
     7
370
    25
100
AcDbSpline
210
0.0
220
0.0
230
1.0
 70
     8
 71
     3
 72
    11
 73
     7
 74
     0
 42
0.000000001
 43
0.00000001
 40
0.0
 40
0.0
 40
0.0
 40
0.0
 40
0.2261087100499863
 40
0.4629556926786628
 40
0.7199783096476559
 40
1.0
 40
1.0
 40
1.0
 40
1.0
 10
334.9151420454545
 20
199.7509090909101
 30
0.0
 10
334.9435080379948
 20
199.7492174799739
 30
0.0
 10
335.0015871704709
 20
199.7457539207306
 30
0.0
 10
335.0881230604633
 20
199.7178884072211
 30
0.0
 10
335.1756082643478
 20
199.6753242929134
 30
0.0
 10
335.2298825300107
 20
199.635375342347
 30
0.0
 10
335.2581818181819
 20
199.6145454545465
 30
0.0
  0
SPLINE
  5
296
330
1F
100
AcDbEntity
  8
0
  6
Continuous
 62
     7
370
    25
100
AcDbSpline
210
0.0
220
0.0
230
1.0
 70
     8
 71
     3
 72
    19
 73
    15
 74
     0
 42
0.000000001
 43
0.00000001
 40
0.0
 40
0.0
 40
0.0
 40
0.0
 40
0.1074641575763819
 40
0.2071278442969117
 40
0.2981499594408161
 40
0.3815951115316691
 40
0.4571065637987443
 40
0.5239784429531148
 40
0.5848779813153256
 40
0.6371486459391844
 40
0.7325112188499237
 40
0.8235648458920004
 40
0.9106767658710344
 40
1.0
 40
1.0
 40
1.0
 40
1.0
 10
334.4854545454546
 20
199.2992045454556
 30
0.0
 10
334.4947327864327
 20
199.321072118631
 30
0.0
 10
334.5126157912969
 20
199.3632199695423
 30
0.0
 10
334.5414288625792
 20
199.4224896338451
 30
0.0
 10
334.5679667822714
 20
199.4769689530974
 30
0.0
 10
334.595120133165
 20
199.5251063244198
 30
0.0
 10
334.6210322956844
 20
199.5677847716578
 30
0.0
 10
334.6469198815675
 20
199.6045444298301
 30
0.0
 10
334.6719885614831
 20
199.6354969231761
 30
0.0
 10
334.7040451430665
 20
199.6686883934109
 30
0.0
 10
334.7457881644997
 20
199.7014025795446
 30
0.0
 10
334.7991566845993
 20
199.7304243715407
 30
0.0
 10
334.8563460854815
 20
199.7475931650831
 30
0.0
 10
334.8953803162638
 20
199.7497945852835
 30
0.0
 10
334.9151420454545
 20
199.7509090909101
 30
0.0
  0
LINE
  5
297
330
1F
100
AcDbEntity
  8
0
  6
Continuous
 62
     7
370
    25
100
AcDbLine
 10
334.4854545455
 20
199.7054545455
 30
0.0
 11
334.4854545455
 21
199.2992045455
 31
0.0
  0
LINE
  5
298
330
1F
100
AcDbEntity
  8
0
  6
Continuous
 62
     7
370
    25
100
AcDbLine
 10
334.1218181818
 20
199.7054545455
 30
0.0
 11
334.4854545455
 21
199.7054545455
 31
0.0
  0
LINE
  5
299
330
1F
100
AcDbEntity
  8
0
  6
Continuous
 62
     7
370
    25
100
AcDbLine
 10
334.1218181818
 20
197.16
 30
0.0
 11
334.1218181818
 21
199.7054545455
 31
0.0
  0
LINE
  5
29A
330
1F
100
AcDbEntity
  8
0
  6
Continuous
 62
     7
370
    25
100
AcDbLine
 10
334.4854545455
 20
197.16
 30
0.0
 11
334.1218181818
 21
197.16
 31
0.0
  0
LINE
  5
29B
330
1F
100
AcDbEntity
  8
0
  6
Continuous
 62
     7
370
    25
100
AcDbLine
 10
334.4854545455
 20
198.4796022727
 30
0.0
 11
334.4854545455
 21
197.16
 31
0.0
  0
LINE
  5
29C
330
1F
100
AcDbEntity
  8
0
  6
Continuous
 62
     7
370
    25
100
AcDbLine
 10
335.5309090909
 20
197.66
 30
0.0
 11
335.8945454545
 21
197.66
 31
0.0
  0
LINE
  5
29D
330
1F
100
AcDbEntity
  8
0
  6
Continuous
 62
     7
370
    25
100
AcDbLine
 10
335.5309090909
 20
197.16
 30
0.0
 11
335.5309090909
 21
197.66
 31
0.0
  0
LINE
  5
29E
330
1F
100
AcDbEntity
  8
0
  6
Continuous
 62
     7
370
    25
100
AcDbLine
 10
335.8945454545
 20
197.16
 30
0.0
 11
335.5309090909
 21
197.16
 31
0.0
  0
LINE
  5
29F
330
1F
100
AcDbEntity
  8
0
  6
Continuous
 62
     7
370
    25
100
AcDbLine
 10
335.8945454545
 20
197.66
 30
0.0
 11
335.8945454545
 21
197.16
 31
0.0
  0
SPLINE
  5
2A0
330
1F
100
AcDbEntity
  8
0
  6
Continuous
 62
     7
370
    25
100
AcDbSpline
210
0.0
220
0.0
230
1.0
 70
     8
 71
     3
 72
    23
 73
    19
 74
     0
 42
0.000000001
 43
0.00000001
 40
0.0
 40
0.0
 40
0.0
 40
0.0
 40
0.0562994607896006
 40
0.1104843795282414
 40
0.1640180816267187
 40
0.2170997971745965
 40
0.2702389387310961
 40
0.3246247121116271
 40
0.3805013890915533
 40
0.4390826992767441
 40
0.499299389674247
 40
0.561252369694765
 40
0.6252109899383523
 40
0.6923896064580334
 40
0.7627611560156048
 40
0.8371679241845501
 40
0.9163985854960467
 40
0.9999999999999999
 40
0.9999999999999999
 40
0.9999999999999999
 40
0.9999999999999999
 10
337.4172727272727
 20
199.7509090909101
 30
0.0
 10
337.4514257940174
 20
199.7500512715413
 30
0.0
 10
337.5184491781732
 20
199.7483678514982
 30
0.0
 10
337.616881725683
 20
199.7321581245492
 30
0.0
 10
337.7108702701091
 20
199.7057576904641
 30
0.0
 10
337.8010509111127
 20
199.6697263253337
 30
0.0
 10
337.8860620099001
 20
199.6218369724368
 30
0.0
 10
337.9675755950343
 20
199.5652047611935
 30
0.0
 10
338.0438502129257
 20
199.4966020062198
 30
0.0
 10
338.1159334535028
 20
199.4188859948463
 30
0.0
 10
338.1826847345987
 20
199.3316408096014
 30
0.0
 10
338.238963076426
 20
199.2335591995379
 30
0.0
 10
338.2879612020785
 20
199.1270426807904
 30
0.0
 10
338.3263461469109
 20
199.010848684248
 30
0.0
 10
338.356998862076
 20
198.8859357425248
 30
0.0
 10
338.3786373252021
 20
198.7517532807538
 30
0.0
 10
338.392458079338
 20
198.608443989458
 30
0.0
 10
338.3938373222226
 20
198.5097019320873
 30
0.0
 10
338.3945454545454
 20
198.4590056818192
 30
0.0
  0
SPLINE
  5
2A1
330
1F
100
AcDbEntity
  8
0
  6
Continuous
 62
     7
370
    25
100
AcDbSpline
210
0.0
220
0.0
230
1.0
 70
     8
 71
     3
 72
    23
 73
    19
 74
     0
 42
0.000000001
 43
0.00000001
 40
0.0
 40
0.0
 40
0.0
 40
0.0
 40
0.0857884597734095
 40
0.1664595412497267
 40
0.2420111369601069
 40
0.3134663157291132
 40
0.3807163806375298
 40
0.4449486700082225
 40
0.506098935293161
 40
0.5652478392428205
 40
0.6226765458477631
 40
0.6777025803252646
 40
0.7312604080786559
 40
0.7839272137527556
 40
0.8362008360891703
 40
0.8892899562354006
 40
0.9437893878328157
 40
1.0
 40
1.0
 40
1.0
 40
1.0
 10
336.44
 20
198.4327272727283
 30
0.0
 10
336.4407973245227
 20
198.4855428814953
 30
0.0
 10
336.4423444122619
 20
198.5880235884505
 30
0.0
 10
336.4548262879198
 20
198.7366555260689
 30
0.0
 10
336.4772546371306
 20
198.8750951918275
 30
0.0
 10
336.5061100321878
 20
199.0039589591439
 30
0.0
 10
336.5456560345975
 20
199.1226660597371
 30
0.0
 10
336.592772949882
 20
199.2316890311403
 30
0.0
 10
336.6491969451648
 20
199.3305743110561
 30
0.0
 10
336.7140544851661
 20
199.4189968702559
 30
0.0
 10
336.7858041714243
 20
199.4967676850983
 30
0.0
 10
336.8620235899037
 20
199.5651618380349
 30
0.0
 10
336.9436205638928
 20
199.6220677940406
 30
0.0
 10
337.0291081925011
 20
199.6695224649847
 30
0.0
 10
337.1195959321357
 20
199.7059096145448
 30
0.0
 10
337.2145758026271
 20
199.7323153206991
 30
0.0
 10
337.3144573906273
 20
199.7483048980395
 30
0.0
 10
337.3826496125914
 20
199.7500321276928
 30
0.0
 10
337.4172727272727
 20
199.7509090909101
 30
0.0
  0
SPLINE
  5
2A2
330
1F
100
AcDbEntity
  8
0
  6
Continuous
 62
     7
370
    25
100
AcDbSpline
210
0.0
220
0.0
230
1.0
 70
     8
 71
     3
 72
    23
 73
    19
 74
     0
 42
0.000000001
 43
0.00000001
 40
0.0
 40
0.0
 40
0.0
 40
0.0
 40
0.0555165611084294
 40
0.1097085344297011
 40
0.1624977974568805
 40
0.2149870510369026
 40
0.267724322230557
 40
0.3210390591854521
 40
0.376682347756316
 40
0.4341878910631724
 40
0.4936445727982243
 40
0.555402323043014
 40
0.6193680003177868
 40
0.6871951297332708
 40
0.7584593421547615
 40
0.8340522164131875
 40
0.914481696642712
 40
1.0
 40
1.0
 40
1.0
 40
1.0
 10
337.4172727272727
 20
197.1145454545465
 30
0.0
 10
337.3831217512974
 20
197.1154293977119
 30
0.0
 10
337.3156346186508
 20
197.1171761937539
 30
0.0
 10
337.2167165210129
 20
197.1331814563411
 30
0.0
 10
337.1220565340797
 20
197.15947543787
 30
0.0
 10
337.0321400627462
 20
197.1968453393756
 30
0.0
 10
336.9465179096547
 20
197.2438194242725
 30
0.0
 10
336.8652515359983
 20
197.3014632880656
 30
0.0
 10
336.7888308815612
 20
197.3698187334076
 30
0.0
 10
336.7169483863162
 20
197.4480968658189
 30
0.0
 10
336.6511060128818
 20
197.5363558032553
 30
0.0
 10
336.5944695281785
 20
197.6354309534608
 30
0.0
 10
336.5468555141287
 20
197.7446779293636
 30
0.0
 10
336.5071686829372
 20
197.863203305087
 30
0.0
 10
336.4766448669762
 20
197.9918094631656
 30
0.0
 10
336.4561739660882
 20
198.1301278081779
 30
0.0
 10
336.4419777863134
 20
198.2780777419619
 30
0.0
 10
336.4406726033398
 20
198.3801342346497
 30
0.0
 10
336.44
 20
198.4327272727283
 30
0.0
  0
SPLINE
  5
2A3
330
1F
100
AcDbEntity
  8
0
  6
Continuous
 62
     7
370
    25
100
AcDbSpline
210
0.0
220
0.0
230
1.0
 70
     8
 71
     3
 72
    23
 73
    19
 74
     0
 42
0.000000001
 43
0.00000001
 40
0.0
 40
0.0
 40
0.0
 40
0.0
 40
0.0880029041958866
 40
0.1701931607871305
 40
0.2473127300446648
 40
0.3196189682101209
 40
0.3873720857078116
 40
0.4512539639810209
 40
0.512210248583317
 40
0.5708398966999927
 40
0.6272114454665151
 40
0.6814696201629239
 40
0.7342800761988156
 40
0.7862119439065545
 40
0.8381078045548316
 40
0.8904560935552059
 40
0.9441950138416841
 40
1.0
 40
1.0
 40
1.0
 40
1.0
 10
338.3945454545454
 20
198.4590056818192
 30
0.0
 10
338.3937598621389
 20
198.4040594204669
 30
0.0
 10
338.392240566202
 20
198.2977961331536
 30
0.0
 10
338.3796815237855
 20
198.1437408129825
 30
0.0
 10
338.3574101142308
 20
198.0007832637443
 30
0.0
 10
338.3285368357965
 20
197.8681322995193
 30
0.0
 10
338.2889772039882
 20
197.746924709642
 30
0.0
 10
338.2425875778378
 20
197.6357947510951
 30
0.0
 10
338.1862334875961
 20
197.535740578686
 30
0.0
 10
338.121364843771
 20
197.4467957450981
 30
0.0
 10
338.050159538911
 20
197.368470908868
 30
0.0
 10
337.9739147181735
 20
197.3003148220685
 30
0.0
 10
337.8923441858392
 20
197.2434019016961
 30
0.0
 10
337.8066961949515
 20
197.1957446843385
 30
0.0
 10
337.7158327165972
 20
197.1597019578207
 30
0.0
 10
337.6206906468805
 20
197.1331123266791
 30
0.0
 10
337.5205610240931
 20
197.1171188305782
 30
0.0
 10
337.4521323618529
 20
197.1154139648314
 30
0.0
 10
337.4172727272727
 20
197.1145454545465
 30
0.0
  0
CIRCLE
  5
2A4
330
1F
100
AcDbEntity
  8
0
  6
Continuous
 62
     7
370
    25
100
AcDbCircle
 10
326.94
 20
214.66
 30
0.0
 40
7.0
  0
LINE
  5
2A5
330
1F
100
AcDbEntity
  8
0
  6
Continuous
 62
     7
370
    25
100
AcDbLine
 10
271.94
 20
195.16
 30
0.0
 11
348.94
 21
195.16
 31
0.0
  0
LINE
  5
2A6
330
1F
100
AcDbEntity
  8
0
  6
Continuous
 62
     7
370
    25
100
AcDbLine
 10
271.94
 20
234.16
 30
0.0
 11
271.94
 21
195.16
 31
0.0
  0
LINE
  5
2A7
330
1F
100
AcDbEntity
  8
0
  6
Continuous
 62
     7
370
    25
100
AcDbLine
 10
271.94
 20
234.16
 30
0.0
 11
348.94
 21
234.16
 31
0.0
  0
LINE
  5
2A8
330
1F
100
AcDbEntity
  8
0
  6
Continuous
 62
     7
370
    25
100
AcDbLine
 10
348.94
 20
234.16
 30
0.0
 11
348.94
 21
195.16
 31
0.0
  0
LINE
  5
2A9
330
1F
100
AcDbEntity
  8
0
  6
Continuous
 62
     7
370
    25
100
AcDbLine
 10
338.8945454545
 20
197.66
 30
0.0
 11
339.2581818182
 21
197.66
 31
0.0
  0
LINE
  5
2AA
330
1F
100
AcDbEntity
  8
0
  6
Continuous
 62
     7
370
    25
100
AcDbLine
 10
338.8945454545
 20
197.16
 30
0.0
 11
338.8945454545
 21
197.66
 31
0.0
  0
LINE
  5
2AB
330
1F
100
AcDbEntity
  8
0
  6
Continuous
 62
     7
370
    25
100
AcDbLine
 10
339.2581818182
 20
197.16
 30
0.0
 11
338.8945454545
 21
197.16
 31
0.0
  0
LINE
  5
2AC
330
1F
100
AcDbEntity
  8
0
  6
Continuous
 62
     7
370
    25
100
AcDbLine
 10
339.2581818182
 20
197.66
 30
0.0
 11
339.2581818182
 21
197.16
 31
0.0
  0
LINE
  5
2AD
330
1F
100
AcDbEntity
  8
0
  6
Continuous
 62
     7
370
    25
100
AcDbLine
 10
328.8015056818
 20
198.2054545455
 30
0.0
 11
327.5784943182
 21
198.2054545455
 31
0.0
  0
LINE
  5
2AE
330
1F
100
AcDbEntity
  8
0
  6
Continuous
 62
     7
370
    25
100
AcDbLine
 10
329.1076136364
 20
197.16
 30
0.0
 11
328.8015056818
 21
198.2054545455
 31
0.0
  0
LINE
  5
2AF
330
1F
100
AcDbEntity
  8
0
  6
Continuous
 62
     7
370
    25
100
AcDbLine
 10
329.4854545455
 20
197.16
 30
0.0
 11
329.1076136364
 21
197.16
 31
0.0
  0
LINE
  5
2B0
330
1F
100
AcDbEntity
  8
0
  6
Continuous
 62
     7
370
    25
100
AcDbLine
 10
328.3668465909
 20
200.66
 30
0.0
 11
329.4854545455
 21
197.16
 31
0.0
  0
LINE
  5
2B1
330
1F
100
AcDbEntity
  8
0
  6
Continuous
 62
     7
370
    25
100
AcDbLine
 10
328.0124431818
 20
200.66
 30
0.0
 11
328.3668465909
 21
200.66
 31
0.0
  0
LINE
  5
2B2
330
1F
100
AcDbEntity
  8
0
  6
Continuous
 62
     7
370
    25
100
AcDbLine
 10
326.8945454545
 20
197.16
 30
0.0
 11
328.0124431818
 21
200.66
 31
0.0
  0
LINE
  5
2B3
330
1F
100
AcDbEntity
  8
0
  6
Continuous
 62
     7
370
    25
100
AcDbLine
 10
327.2730965909
 20
197.16
 30
0.0
 11
326.8945454545
 21
197.16
 31
0.0
  0
LINE
  5
2B4
330
1F
100
AcDbEntity
  8
0
  6
Continuous
 62
     7
370
    25
100
AcDbLine
 10
327.5784943182
 20
198.2054545455
 30
0.0
 11
327.2730965909
 21
197.16
 31
0.0
  0
SPLINE
  5
2B5
330
1F
100
AcDbEntity
  8
0
  6
Continuous
 62
     7
370
    25
100
AcDbSpline
210
0.0
220
0.0
230
1.0
 70
     8
 71
     3
 72
    15
 73
    11
 74
     0
 42
0.000000001
 43
0.00000001
 40
0.0
 40
0.0
 40
0.0
 40
0.0
 40
0.1337649070426882
 40
0.2614594112704884
 40
0.3854851197582153
 40
0.5058365689440522
 40
0.6259462731828805
 40
0.7469128434188625
 40
0.8709845759429885
 40
1.0
 40
1.0
 40
1.0
 40
1.0
 10
323.4925568181818
 20
197.6493465909101
 30
0.0
 10
323.459336292551
 20
197.6069333408488
 30
0.0
 10
323.394402826326
 20
197.5240316019976
 30
0.0
 10
323.2839593696101
 20
197.4144208079616
 30
0.0
 10
323.1658761940573
 20
197.3218590394617
 30
0.0
 10
323.0403635447123
 20
197.2451237016457
 30
0.0
 10
322.9065518068521
 20
197.1870051684943
 30
0.0
 10
322.7655051312212
 20
197.1446817916099
 30
0.0
 10
322.6165695489033
 20
197.1193936613782
 30
0.0
 10
322.5146715083972
 20
197.1161824323948
 30
0.0
 10
322.4627272727273
 20
197.1145454545465
 30
0.0
  0
SPLINE
  5
2B6
330
1F
100
AcDbEntity
  8
0
  6
Continuous
 62
     7
370
    25
100
AcDbSpline
210
0.0
220
0.0
230
1.0
 70
     8
 71
     3
 72
    15
 73
    11
 74
     0
 42
0.000000001
 43
0.00000001
 40
0.0
 40
0.0
 40
0.0
 40
0.0
 40
0.1416907485135356
 40
0.2774612942222734
 40
0.4074958162297563
 40
0.5327187817376448
 40
0.6537263486818012
 40
0.7710596611015741
 40
0.8863102006438552
 40
1.0
 40
1.0
 40
1.0
 40
1.0
 10
323.8490909090909
 20
198.9064488636374
 30
0.0
 10
323.8479481272679
 20
198.8436830758201
 30
0.0
 10
323.8457103119769
 20
198.7207740157484
 30
0.0
 10
323.8297327543877
 20
198.5407533400976
 30
0.0
 10
323.8006769654478
 20
198.3698786224398
 30
0.0
 10
323.7633195173235
 20
198.2072759806757
 30
0.0
 10
323.7124455926594
 20
198.0542181971293
 30
0.0
 10
323.6511968410622
 20
197.9099316655766
 30
0.0
 10
323.5793445575866
 20
197.7740028788461
 30
0.0
 10
323.5213542868743
 20
197.6907094098265
 30
0.0
 10
323.4925568181818
 20
197.6493465909101
 30
0.0
  0
SPLINE
  5
2B7
330
1F
100
AcDbEntity
  8
0
  6
Continuous
 62
     7
370
    25
100
AcDbSpline
210
0.0
220
0.0
230
1.0
 70
     8
 71
     3
 72
    31
 73
    27
 74
     0
 42
0.000000001
 43
0.00000001
 40
0.0
 40
0.0
 40
0.0
 40
0.0
 40
0.0374926737782896
 40
0.0740510373152984
 40
0.1104132093353027
 40
0.1462905595615537
 40
0.182366737986501
 40
0.2186772744483299
 40
0.2550749034222164
 40
0.2922408739317046
 40
0.329654228970467
 40
0.3675327509850833
 40
0.4056909293123593
 40
0.4445404480785448
 40
0.4840761393264901
 40
0.5247146563554201
 40
0.5664015424377792
 40
0.6096675591076345
 40
0.653909139995328
 40
0.6991821398204042
 40
0.7455791418302294
 40
0.7934048941475284
 40
0.8424054055292817
 40
0.8933527573913604
 40
0.9457457808148028
 40
0.9999999999999999
 40
0.9999999999999999
 40
0.9999999999999999
 40
0.9999999999999999
 10
322.4648579545454
 20
200.7054545454556
 30
0.0
 10
322.4966104320794
 20
200.7047514607006
 30
0.0
 10
322.5593241214958
 20
200.703362811928
 30
0.0
 10
322.6523269634596
 20
200.6929056169419
 30
0.0
 10
322.743172194359
 20
200.6770998367811
 30
0.0
 10
322.8317804340801
 20
200.6530530057551
 30
0.0
 10
322.9186364268805
 20
200.6235124953636
 30
0.0
 10
323.003093622313
 20
200.5864576888743
 30
0.0
 10
323.0852097410101
 20
200.5426015643798
 30
0.0
 10
323.1653192308863
 20
200.4933385191127
 30
0.0
 10
323.2421938025044
 20
200.4369700320259
 30
0.0
 10
323.3152341802469
 20
200.3744608244613
 30
0.0
 10
323.3845454145921
 20
200.3060673334917
 30
0.0
 10
323.4490223630803
 20
200.2312489606217
 30
0.0
 10
323.5097393728429
 20
200.1507167769396
 30
0.0
 10
323.5656846112587
 20
200.0639149632918
 30
0.0
 10
323.617623052583
 20
199.9710602693067
 30
0.0
 10
323.6657865141828
 20
199.872775335866
 30
0.0
 10
323.7091356207114
 20
199.7689733231004
 30
0.0
 10
323.7470226420819
 20
199.660208523762
 30
0.0
 10
323.7777259137316
 20
199.5460936556096
 30
0.0
 10
323.8044619789452
 20
199.4277472717986
 30
0.0
 10
323.823811741666
 20
199.3040640351914
 30
0.0
 10
323.8390394903024
 20
199.1759435656757
 30
0.0
 10
323.8474657766327
 20
199.0426897815115
 30
0.0
 10
323.848542932139
 20
198.9523878161984
 30
0.0
 10
323.8490909090909
 20
198.9064488636374
 30
0.0
  0
SPLINE
  5
2B8
330
1F
100
AcDbEntity
  8
0
  6
Continuous
 62
     7
370
    25
100
AcDbSpline
210
0.0
220
0.0
230
1.0
 70
     8
 71
     3
 72
    23
 73
    19
 74
     0
 42
0.000000001
 43
0.00000001
 40
0.0
 40
0.0
 40
0.0
 40
0.0
 40
0.0831919280333215
 40
0.1620053758937692
 40
0.2362691051123553
 40
0.3066253171786716
 40
0.3736257302631201
 40
0.4377442844797712
 40
0.4997342717197023
 40
0.5601671328288018
 40
0.6188356570355564
 40
0.6750154308347256
 40
0.7296971697697449
 40
0.7830091722210554
 40
0.8359127345022762
 40
0.8894446742174573
 40
0.9439470604285818
 40
1.0
 40
1.0
 40
1.0
 40
1.0
 10
321.0763636363636
 20
198.8638352272737
 30
0.0
 10
321.0775998935567
 20
198.9356060313578
 30
0.0
 10
321.0800073424041
 20
199.075370265325
 30
0.0
 10
321.0983585464667
 20
199.2785748307441
 30
0.0
 10
321.1295316911432
 20
199.4689297746752
 30
0.0
 10
321.1723455731913
 20
199.646617826242
 30
0.0
 10
321.2285985154331
 20
199.8113194819216
 30
0.0
 10
321.2966181480763
 20
199.9636741713739
 30
0.0
 10
321.37787315243
 20
200.1029723791494
 30
0.0
 10
321.4711756313287
 20
200.2286033847292
 30
0.0
 10
321.5729526378142
 20
200.3407972532503
 30
0.0
 10
321.6825107356773
 20
200.4380388947527
 30
0.0
 10
321.7975430635354
 20
200.5211964939746
 30
0.0
 10
321.9194755429308
 20
200.588077831446
 30
0.0
 10
322.0467382387306
 20
200.6418771389079
 30
0.0
 10
322.1811104422483
 20
200.6778856700357
 30
0.0
 10
322.3210001635654
 20
200.7019574839742
 30
0.0
 10
322.4164590828115
 20
200.7042780097328
 30
0.0
 10
322.4648579545454
 20
200.7054545454556
 30
0.0
  0
SPLINE
  5
2B9
330
1F
100
AcDbEntity
  8
0
  6
Continuous
 62
     7
370
    25
100
AcDbSpline
210
0.0
220
0.0
230
1.0
 70
     8
 71
     3
 72
    15
 73
    11
 74
     0
 42
0.000000001
 43
0.00000001
 40
0.0
 40
0.0
 40
0.0
 40
0.0
 40
0.1198666267285368
 40
0.2390237457231748
 40
0.3595530360203463
 40
0.4815592024525973
 40
0.6054681757402863
 40
0.7329681629362587
 40
0.8642495927208782
 40
1.0
 40
1.0
 40
1.0
 40
1.0
 10
321.4307670454546
 20
197.6635511363647
 30
0.0
 10
321.4023002359798
 20
197.7056923544709
 30
0.0
 10
321.3455351161533
 20
197.7897253507769
 30
0.0
 10
321.2739261321234
 20
197.9246097935828
 30
0.0
 10
321.2125034433573
 20
198.0653020595565
 30
0.0
 10
321.1631439434967
 20
198.212811582837
 30
0.0
 10
321.1235906173393
 20
198.3662806708096
 30
0.0
 10
321.0962680258896
 20
198.5263871678575
 30
0.0
 10
321.0796729443888
 20
198.6930285520395
 30
0.0
 10
321.07747897826
 20
198.8062679535056
 30
0.0
 10
321.0763636363636
 20
198.8638352272737
 30
0.0
  0
SPLINE
  5
2BA
330
1F
100
AcDbEntity
  8
0
  6
Continuous
 62
     7
370
    25
100
AcDbSpline
210
0.0
220
0.0
230
1.0
 70
     8
 71
     3
 72
    15
 73
    11
 74
     0
 42
0.000000001
 43
0.00000001
 40
0.0
 40
0.0
 40
0.0
 40
0.0
 40
0.1284641182900635
 40
0.2521184410080549
 40
0.3734764128786709
 40
0.4930039365319287
 40
0.6137088487223161
 40
0.7372765388034525
 40
0.8655035905742501
 40
1.0
 40
1.0
 40
1.0
 40
1.0
 10
322.4627272727273
 20
197.1145454545465
 30
0.0
 10
322.410539125461
 20
197.1161252734044
 30
0.0
 10
322.3081167953737
 20
197.1192257614849
 30
0.0
 10
322.1581872584837
 20
197.1454046467971
 30
0.0
 10
322.016368624021
 20
197.1888945097026
 30
0.0
 10
321.8818955949245
 20
197.2488720696003
 30
0.0
 10
321.7561351101491
 20
197.327216535325
 30
0.0
 10
321.6384046646795
 20
197.4226357651846
 30
0.0
 10
321.5279553505375
 20
197.5346600028744
 30
0.0
 10
321.4636744577936
 20
197.6199093250069
 30
0.0
 10
321.4307670454546
 20
197.6635511363647
 30
0.0
  0
SPLINE
  5
2BB
330
1F
100
AcDbEntity
  8
0
  6
Continuous
 62
     7
370
    25
100
AcDbSpline
210
0.0
220
0.0
230
1.0
 70
     8
 71
     3
 72
    15
 73
    11
 74
     0
 42
0.000000001
 43
0.00000001
 40
0.0
 40
0.0
 40
0.0
 40
0.0
 40
0.1337649070426901
 40
0.2614594112704904
 40
0.3854851197582174
 40
0.5058365689440544
 40
0.625946273182883
 40
0.7469128434188623
 40
0.8709845759429884
 40
1.0
 40
1.0
 40
1.0
 40
1.0
 10
317.674375
 20
197.6493465909101
 30
0.0
 10
317.6411544743692
 20
197.6069333408488
 30
0.0
 10
317.5762210081442
 20
197.5240316019976
 30
0.0
 10
317.4657775514282
 20
197.4144208079616
 30
0.0
 10
317.3476943758754
 20
197.3218590394617
 30
0.0
 10
317.2221817265305
 20
197.2451237016457
 30
0.0
 10
317.0883699886704
 20
197.1870051684944
 30
0.0
 10
316.9473233130394
 20
197.1446817916098
 30
0.0
 10
316.7983877307215
 20
197.1193936613782
 30
0.0
 10
316.6964896902153
 20
197.1161824323948
 30
0.0
 10
316.6445454545454
 20
197.1145454545465
 30
0.0
  0
SPLINE
  5
2BC
330
1F
100
AcDbEntity
  8
0
  6
Continuous
 62
     7
370
    25
100
AcDbSpline
210
0.0
220
0.0
230
1.0
 70
     8
 71
     3
 72
    15
 73
    11
 74
     0
 42
0.000000001
 43
0.00000001
 40
0.0
 40
0.0
 40
0.0
 40
0.0
 40
0.1416907485135358
 40
0.2774612942222738
 40
0.4074958162297569
 40
0.5327187817376455
 40
0.6537263486818022
 40
0.7710596611015752
 40
0.8863102006438566
 40
1.0
 40
1.0
 40
1.0
 40
1.0
 10
318.0309090909091
 20
198.9064488636374
 30
0.0
 10
318.0297663090861
 20
198.8436830758201
 30
0.0
 10
318.0275284937951
 20
198.7207740157484
 30
0.0
 10
318.0115509362059
 20
198.5407533400976
 30
0.0
 10
317.982495147266
 20
198.3698786224398
 30
0.0
 10
317.9451376991416
 20
198.2072759806757
 30
0.0
 10
317.8942637744776
 20
198.0542181971293
 30
0.0
 10
317.8330150228804
 20
197.9099316655766
 30
0.0
 10
317.7611627394048
 20
197.7740028788461
 30
0.0
 10
317.7031724686925
 20
197.6907094098265
 30
0.0
 10
317.674375
 20
197.6493465909101
 30
0.0
  0
SPLINE
  5
2BD
330
1F
100
AcDbEntity
  8
0
  6
Continuous
 62
     7
370
    25
100
AcDbSpline
210
0.0
220
0.0
230
1.0
 70
     8
 71
     3
 72
    31
 73
    27
 74
     0
 42
0.000000001
 43
0.00000001
 40
0.0
 40
0.0
 40
0.0
 40
0.0
 40
0.0374926737782909
 40
0.0740510373152984
 40
0.110413209335304
 40
0.1462905595615524
 40
0.1823667379865009
 40
0.218677274448331
 40
0.2550749034222164
 40
0.2922408739317057
 40
0.3296542289704659
 40
0.3675327509850843
 40
0.4056909293123593
 40
0.4445404480785448
 40
0.4840761393264901
 40
0.5247146563554208
 40
0.5664015424377792
 40
0.6096675591076345
 40
0.6539091399953285
 40
0.6991821398204043
 40
0.7455791418302294
 40
0.7934048941475285
 40
0.8424054055292818
 40
0.8933527573913606
 40
0.9457457808148028
 40
1.0
 40
1.0
 40
1.0
 40
1.0
 10
316.6466761363637
 20
200.7054545454556
 30
0.0
 10
316.6784286138976
 20
200.7047514607006
 30
0.0
 10
316.7411423033139
 20
200.703362811928
 30
0.0
 10
316.8341451452778
 20
200.6929056169419
 30
0.0
 10
316.9249903761772
 20
200.6770998367811
 30
0.0
 10
317.0135986158983
 20
200.6530530057551
 30
0.0
 10
317.1004546086987
 20
200.6235124953636
 30
0.0
 10
317.1849118041313
 20
200.5864576888743
 30
0.0
 10
317.2670279228282
 20
200.5426015643798
 30
0.0
 10
317.3471374127045
 20
200.4933385191127
 30
0.0
 10
317.4240119843226
 20
200.4369700320259
 30
0.0
 10
317.4970523620651
 20
200.3744608244613
 30
0.0
 10
317.5663635964103
 20
200.3060673334917
 30
0.0
 10
317.6308405448985
 20
200.2312489606217
 30
0.0
 10
317.6915575546611
 20
200.1507167769396
 30
0.0
 10
317.7475027930768
 20
200.0639149632918
 30
0.0
 10
317.7994412344012
 20
199.9710602693067
 30
0.0
 10
317.847604696001
 20
199.872775335866
 30
0.0
 10
317.8909538025296
 20
199.7689733231004
 30
0.0
 10
317.9288408239
 20
199.660208523762
 30
0.0
 10
317.9595440955497
 20
199.5460936556096
 30
0.0
 10
317.9862801607634
 20
199.4277472717986
 30
0.0
 10
318.0056299234842
 20
199.3040640351914
 30
0.0
 10
318.0208576721205
 20
199.1759435656757
 30
0.0
 10
318.0292839584509
 20
199.0426897815115
 30
0.0
 10
318.0303611139572
 20
198.9523878161984
 30
0.0
 10
318.0309090909091
 20
198.9064488636374
 30
0.0
  0
SPLINE
  5
2BE
330
1F
100
AcDbEntity
  8
0
  6
Continuous
 62
     7
370
    25
100
AcDbSpline
210
0.0
220
0.0
230
1.0
 70
     8
 71
     3
 72
    23
 73
    19
 74
     0
 42
0.000000001
 43
0.00000001
 40
0.0
 40
0.0
 40
0.0
 40
0.0
 40
0.0831919280333215
 40
0.1620053758937691
 40
0.2362691051123555
 40
0.3066253171786715
 40
0.3736257302631204
 40
0.4377442844797709
 40
0.499734271719702
 40
0.5601671328288016
 40
0.6188356570355571
 40
0.6750154308347251
 40
0.7296971697697445
 40
0.7830091722210551
 40
0.8359127345022748
 40
0.8894446742174585
 40
0.9439470604285806
 40
1.0
 40
1.0
 40
1.0
 40
1.0
 10
315.2581818181818
 20
198.8638352272737
 30
0.0
 10
315.2594180753749
 20
198.9356060313578
 30
0.0
 10
315.2618255242223
 20
199.075370265325
 30
0.0
 10
315.2801767282849
 20
199.2785748307441
 30
0.0
 10
315.3113498729614
 20
199.4689297746752
 30
0.0
 10
315.3541637550094
 20
199.646617826242
 30
0.0
 10
315.4104166972513
 20
199.8113194819216
 30
0.0
 10
315.4784363298944
 20
199.9636741713739
 30
0.0
 10
315.5596913342482
 20
200.1029723791494
 30
0.0
 10
315.6529938131469
 20
200.2286033847292
 30
0.0
 10
315.7547708196324
 20
200.3407972532503
 30
0.0
 10
315.8643289174954
 20
200.4380388947527
 30
0.0
 10
315.9793612453536
 20
200.5211964939746
 30
0.0
 10
316.101293724749
 20
200.588077831446
 30
0.0
 10
316.2285564205488
 20
200.6418771389079
 30
0.0
 10
316.3629286240665
 20
200.6778856700357
 30
0.0
 10
316.5028183453836
 20
200.7019574839742
 30
0.0
 10
316.5982772646297
 20
200.7042780097328
 30
0.0
 10
316.6466761363637
 20
200.7054545454556
 30
0.0
  0
SPLINE
  5
2BF
330
1F
100
AcDbEntity
  8
0
  6
Continuous
 62
     7
370
    25
100
AcDbSpline
210
0.0
220
0.0
230
1.0
 70
     8
 71
     3
 72
    15
 73
    11
 74
     0
 42
0.000000001
 43
0.00000001
 40
0.0
 40
0.0
 40
0.0
 40
0.0
 40
0.1198666267285365
 40
0.2390237457231743
 40
0.3595530360203468
 40
0.4815592024525983
 40
0.6054681757402873
 40
0.7329681629362593
 40
0.8642495927208786
 40
1.0
 40
1.0
 40
1.0
 40
1.0
 10
315.6125852272727
 20
197.6635511363647
 30
0.0
 10
315.584118417798
 20
197.7056923544709
 30
0.0
 10
315.5273532979715
 20
197.7897253507769
 30
0.0
 10
315.4557443139417
 20
197.9246097935828
 30
0.0
 10
315.3943216251755
 20
198.0653020595565
 30
0.0
 10
315.3449621253148
 20
198.212811582837
 30
0.0
 10
315.3054087991575
 20
198.3662806708096
 30
0.0
 10
315.2780862077078
 20
198.5263871678575
 30
0.0
 10
315.2614911262069
 20
198.6930285520395
 30
0.0
 10
315.2592971600782
 20
198.8062679535056
 30
0.0
 10
315.2581818181818
 20
198.8638352272737
 30
0.0
  0
SPLINE
  5
2C0
330
1F
100
AcDbEntity
  8
0
  6
Continuous
 62
     7
370
    25
100
AcDbSpline
210
0.0
220
0.0
230
1.0
 70
     8
 71
     3
 72
    15
 73
    11
 74
     0
 42
0.000000001
 43
0.00000001
 40
0.0
 40
0.0
 40
0.0
 40
0.0
 40
0.1284641182900691
 40
0.2521184410080602
 40
0.3734764128786762
 40
0.4930039365319313
 40
0.6137088487223186
 40
0.7372765388034525
 40
0.865503590574252
 40
0.9999999999999999
 40
0.9999999999999999
 40
0.9999999999999999
 40
0.9999999999999999
 10
316.6445454545454
 20
197.1145454545465
 30
0.0
 10
316.5923573072791
 20
197.1161252734044
 30
0.0
 10
316.4899349771919
 20
197.1192257614849
 30
0.0
 10
316.3400054403019
 20
197.1454046467971
 30
0.0
 10
316.1981868058392
 20
197.1888945097026
 30
0.0
 10
316.0637137767427
 20
197.2488720696003
 30
0.0
 10
315.9379532919673
 20
197.327216535325
 30
0.0
 10
315.8202228464977
 20
197.4226357651846
 30
0.0
 10
315.7097735323557
 20
197.5346600028745
 30
0.0
 10
315.6454926396118
 20
197.6199093250069
 30
0.0
 10
315.6125852272727
 20
197.6635511363647
 30
0.0
  0
LINE
  5
2C1
330
1F
100
AcDbEntity
  8
0
  6
Continuous
 62
     7
370
    25
100
AcDbLine
 10
314.6218181818
 20
200.66
 30
0.0
 11
314.9996590909
 21
200.66
 31
0.0
  0
LINE
  5
2C2
330
1F
100
AcDbEntity
  8
0
  6
Continuous
 62
     7
370
    25
100
AcDbLine
 10
313.8434090909
 20
198.1209375
 30
0.0
 11
314.6218181818
 21
200.66
 31
0.0
  0
SPLINE
  5
2C3
330
1F
100
AcDbEntity
  8
0
  6
Continuous
 62
     7
370
    25
100
AcDbSpline
210
0.0
220
0.0
230
1.0
 70
     8
 71
     3
 72
     9
 73
     5
 74
     0
 42
0.000000001
 43
0.00000001
 40
0.0
 40
0.0
 40
0.0
 40
0.0
 40
0.4899113765140223
 40
0.9999999999999999
 40
0.9999999999999999
 40
0.9999999999999999
 40
0.9999999999999999
 10
313.6899999999999
 20
197.5690909090919
 30
0.0
 10
313.7133629069862
 20
197.6596787286952
 30
0.0
 10
313.7610509340585
 20
197.8445852729112
 30
0.0
 10
313.8155895588582
 20
198.0275892521425
 30
0.0
 10
313.8434090909091
 20
198.120937500001
 30
0.0
  0
SPLINE
  5
2C4
330
1F
100
AcDbEntity
  8
0
  6
Continuous
 62
     7
370
    25
100
AcDbSpline
210
0.0
220
0.0
230
1.0
 70
     8
 71
     3
 72
    11
 73
     7
 74
     0
 42
0.000000001
 43
0.00000001
 40
0.0
 40
0.0
 40
0.0
 40
0.0
 40
0.2646946039773326
 40
0.5196779431309865
 40
0.7652786362812265
 40
1.0
 40
1.0
 40
1.0
 40
1.0
 10
313.5493749999999
 20
198.120937500001
 30
0.0
 10
313.5625169825946
 20
198.0724371750433
 30
0.0
 10
313.5883187873192
 20
197.9772159323869
 30
0.0
 10
313.6242515386488
 20
197.8364502227977
 30
0.0
 10
313.6585901139782
 20
197.7011498791823
 30
0.0
 10
313.6796893376415
 20
197.6124408101726
 30
0.0
 10
313.6899999999999
 20
197.5690909090919
 30
0.0
  0
LINE
  5
2C5
330
1F
100
AcDbEntity
  8
0
  6
Continuous
 62
     7
370
    25
100
AcDbLine
 10
312.8490909091
 20
200.66
 30
0.0
 11
313.549375
 21
198.1209375
 31
0.0
  0
LINE
  5
2C6
330
1F
100
AcDbEntity
  8
0
  6
Continuous
 62
     7
370
    25
100
AcDbLine
 10
312.4748011364
 20
200.66
 30
0.0
 11
312.8490909091
 21
200.66
 31
0.0
  0
LINE
  5
2C7
330
1F
100
AcDbEntity
  8
0
  6
Continuous
 62
     7
370
    25
100
AcDbLine
 10
313.5216761364
 20
197.16
 30
0.0
 11
312.4748011364
 21
200.66
 31
0.0
  0
LINE
  5
2C8
330
1F
100
AcDbEntity
  8
0
  6
Continuous
 62
     7
370
    25
100
AcDbLine
 10
313.8973863636
 20
197.16
 30
0.0
 11
313.5216761364
 21
197.16
 31
0.0
  0
LINE
  5
2C9
330
1F
100
AcDbEntity
  8
0
  6
Continuous
 62
     7
370
    25
100
AcDbLine
 10
314.9996590909
 20
200.66
 30
0.0
 11
313.8973863636
 21
197.16
 31
0.0
  0
SPLINE
  5
2CA
330
1F
100
AcDbEntity
  8
0
  6
Continuous
 62
     7
370
    25
100
AcDbSpline
210
0.0
220
0.0
230
1.0
 70
     8
 71
     3
 72
    15
 73
    11
 74
     0
 42
0.000000001
 43
0.00000001
 40
0.0
 40
0.0
 40
0.0
 40
0.0
 40
0.1337850715093826
 40
0.2593853989987146
 40
0.3808217004101822
 40
0.4995309368699217
 40
0.6183575741441208
 40
0.7398956903217165
 40
0.8662956414442508
 40
1.0
 40
1.0
 40
1.0
 40
1.0
 10
311.6275
 20
198.9696590909101
 30
0.0
 10
311.6700771097312
 20
198.9490652733923
 30
0.0
 10
311.7526265337532
 20
198.9091375332229
 30
0.0
 10
311.8626688270066
 20
198.8308725911286
 30
0.0
 10
311.9569167718541
 20
198.7419419412031
 30
0.0
 10
312.033608132437
 20
198.6403735123287
 30
0.0
 10
312.0941367551071
 20
198.5284048025311
 30
0.0
 10
312.1365350070284
 20
198.4055930067994
 30
0.0
 10
312.1627734767218
 20
198.2728532082584
 30
0.0
 10
312.1657451595541
 20
198.1809590063174
 30
0.0
 10
312.1672727272727
 20
198.1337215909101
 30
0.0
  0
SPLINE
  5
2CB
330
1F
100
AcDbEntity
  8
0
  6
Continuous
 62
     7
370
    25
100
AcDbSpline
210
0.0
220
0.0
230
1.0
 70
     8
 71
     3
 72
    15
 73
    11
 74
     0
 42
0.000000001
 43
0.00000001
 40
0.0
 40
0.0
 40
0.0
 40
0.0
 40
0.1693237986142586
 40
0.3253554330118976
 40
0.4689155231524372
 40
0.6003115468851047
 40
0.7188463901177571
 40
0.8249851745593386
 40
0.9187577878191818
 40
1.0
 40
1.0
 40
1.0
 40
1.0
 10
311.0195454545454
 20
199.1500568181828
 30
0.0
 10
311.0543766165092
 20
199.1416538348588
 30
0.0
 10
311.1213046436133
 20
199.1255075146111
 30
0.0
 10
311.2172847221605
 20
199.1003252034853
 30
0.0
 10
311.3054595543736
 20
199.0770484298394
 30
0.0
 10
311.3856981736325
 20
199.0547558201042
 30
0.0
 10
311.4574434264635
 20
199.0316901062086
 30
0.0
 10
311.52132895291
 20
199.0103055645727
 30
0.0
 10
311.5777180445734
 20
198.9912091728448
 30
0.0
 10
311.6117174239463
 20
198.9764912011432
 30
0.0
 10
311.6275
 20
198.9696590909101
 30
0.0
  0
SPLINE
  5
2CC
330
1F
100
AcDbEntity
  8
0
  6
Continuous
 62
     7
370
    25
100
AcDbSpline
210
0.0
220
0.0
230
1.0
 70
     8
 71
     3
 72
    15
 73
    11
 74
     0
 42
0.000000001
 43
0.00000001
 40
0.0
 40
0.0
 40
0.0
 40
0.0
 40
0.0750156946076107
 40
0.1629301842777534
 40
0.2646744147797526
 40
0.3809699752964675
 40
0.5123091530377067
 40
0.6582210125869621
 40
0.8208323791787844
 40
1.0
 40
1.0
 40
1.0
 40
1.0
 10
310.4634375
 20
199.3830113636374
 30
0.0
 10
310.4742562289327
 20
199.3722231176917
 30
0.0
 10
310.4977539450824
 20
199.3487916090033
 30
0.0
 10
310.5430097425329
 20
199.3192703793959
 30
0.0
 10
310.5968796847157
 20
199.2882130715665
 30
0.0
 10
310.6621628129968
 20
199.2600451666194
 30
0.0
 10
310.7364798799346
 20
199.2305103272937
 30
0.0
 10
310.8217072722514
 20
199.203432522707
 30
0.0
 10
310.9167640485439
 20
199.1754159506709
 30
0.0
 10
310.9841961506305
 20
199.1587785093545
 30
0.0
 10
311.0195454545454
 20
199.1500568181828
 30
0.0
  0
SPLINE
  5
2CD
330
1F
100
AcDbEntity
  8
0
  6
Continuous
 62
     7
370
    25
100
AcDbSpline
210
0.0
220
0.0
230
1.0
 70
     8
 71
     3
 72
    11
 73
     7
 74
     0
 42
0.000000001
 43
0.00000001
 40
0.0
 40
0.0
 40
0.0
 40
0.0
 40
0.2837744943495286
 40
0.5395840214497865
 40
0.7756449623277224
 40
1.0
 40
1.0
 40
1.0
 40
1.0
 10
310.3490909090909
 20
199.738125000001
 30
0.0
 10
310.3502958145288
 20
199.7020134398693
 30
0.0
 10
310.3525868862588
 20
199.6333489854356
 30
0.0
 10
310.3740060467071
 20
199.5366203958843
 30
0.0
 10
310.4096582518102
 20
199.4518369155104
 30
0.0
 10
310.4458175292831
 20
199.4055610319461
 30
0.0
 10
310.4634375
 20
199.3830113636374
 30
0.0
  0
SPLINE
  5
2CE
330
1F
100
AcDbEntity
  8
0
  6
Continuous
 62
     7
370
    25
100
AcDbSpline
210
0.0
220
0.0
230
1.0
 70
     8
 71
     3
 72
    23
 73
    19
 74
     0
 42
0.000000001
 43
0.00000001
 40
0.0
 40
0.0
 40
0.0
 40
0.0
 40
0.0804235931284734
 40
0.1554478660209124
 40
0.2274865779056501
 40
0.2949489652405866
 40
0.3597986509905155
 40
0.4210200219417461
 40
0.4819019994984955
 40
0.5406082872412742
 40
0.5984821386513641
 40
0.6551515363375461
 40
0.7102010032718235
 40
0.765597189572355
 40
0.8217224591483806
 40
0.8791641554936599
 40
0.9383687171181117
 40
1.0
 40
1.0
 40
1.0
 40
1.0
 10
311.0131534090909
 20
200.2963636363647
 30
0.0
 10
310.9868471074134
 20
200.296138318954
 30
0.0
 10
310.9360006045454
 20
200.2957028110478
 30
0.0
 10
310.8620479601474
 20
200.287112021348
 30
0.0
 10
310.7927985642262
 20
200.2757663891839
 30
0.0
 10
310.7281584279239
 20
200.2584891877898
 30
0.0
 10
310.6686845885121
 20
200.2366849331582
 30
0.0
 10
310.6135496288485
 20
200.2100621042404
 30
0.0
 10
310.5635023409667
 20
200.1783760804028
 30
0.0
 10
310.5182717120006
 20
200.1418411679138
 30
0.0
 10
310.4786605741266
 20
200.1012160460363
 30
0.0
 10
310.4438137579244
 20
200.0580108426922
 30
0.0
 10
310.4140133078652
 20
200.0120585303801
 30
0.0
 10
310.3907868181922
 20
199.9626657907878
 30
0.0
 10
310.3722376525428
 20
199.9105670733834
 30
0.0
 10
310.3586051701405
 20
199.855657389738
 30
0.0
 10
310.3508410519851
 20
199.7977692528167
 30
0.0
 10
310.3496820487298
 20
199.7582708304867
 30
0.0
 10
310.3490909090909
 20
199.738125000001
 30
0.0
  0
SPLINE
  5
2CF
330
1F
100
AcDbEntity
  8
0
  6
Continuous
 62
     7
370
    25
100
AcDbSpline
210
0.0
220
0.0
230
1.0
 70
     8
 71
     3
 72
    23
 73
    19
 74
     0
 42
0.000000001
 43
0.00000001
 40
0.0
 40
0.0
 40
0.0
 40
0.0
 40
0.0765728135290738
 40
0.1493228985313964
 40
0.2172186749416055
 40
0.2820872493082827
 40
0.3432655771108257
 40
0.4022310899227217
 40
0.4584773865507825
 40
0.514151205804173
 40
0.5690726415643271
 40
0.6243527363272731
 40
0.6811913672928036
 40
0.739404158449123
 40
0.7998297883091653
 40
0.8628307336450728
 40
0.9296455439554808
 40
1.0
 40
1.0
 40
1.0
 40
1.0
 10
311.7127272727272
 20
199.6145454545465
 30
0.0
 10
311.7100597164479
 20
199.6425341429446
 30
0.0
 10
311.7048577757425
 20
199.6971142463139
 30
0.0
 10
311.6904847413202
 20
199.7756304922305
 30
0.0
 10
311.6721141905495
 20
199.8488367207682
 30
0.0
 10
311.6490822144357
 20
199.9163326716203
 30
0.0
 10
311.6201411287409
 20
199.9778683751889
 30
0.0
 10
311.5879188172262
 20
200.0341437669991
 30
0.0
 10
311.5503869023222
 20
200.0845773509898
 30
0.0
 10
311.508512726454
 20
200.1294459818402
 30
0.0
 10
311.4618366515852
 20
200.1687380082397
 30
0.0
 10
311.4109834603017
 20
200.2031762932494
 30
0.0
 10
311.3555207876095
 20
200.2323464803731
 30
0.0
 10
311.2953500193465
 20
200.2555960982066
 30
0.0
 10
311.2312542678497
 20
200.2743034402887
 30
0.0
 10
311.1624535029247
 20
200.2867451288076
 30
0.0
 10
311.0893339979614
 20
200.2946937551802
 30
0.0
 10
311.0389800655771
 20
200.2957975151471
 30
0.0
 10
311.0131534090909
 20
200.2963636363647
 30
0.0
  0
LINE
  5
2D0
330
1F
100
AcDbEntity
  8
0
  6
Continuous
 62
     7
370
    25
100
AcDbLine
 10
312.0763636364
 20
199.66
 30
0.0
 11
311.7127272727
 21
199.6145454545
 31
0.0
  0
SPLINE
  5
2D1
330
1F
100
AcDbEntity
  8
0
  6
Continuous
 62
     7
370
    25
100
AcDbSpline
210
0.0
220
0.0
230
1.0
 70
     8
 71
     3
 72
    19
 73
    15
 74
     0
 42
0.000000001
 43
0.00000001
 40
0.0
 40
0.0
 40
0.0
 40
0.0
 40
0.0919148450095061
 40
0.1793500136985491
 40
0.2627602509497613
 40
0.3438245629315465
 40
0.4230536694981489
 40
0.500153763856669
 40
0.5774020559630036
 40
0.6564709802344403
 40
0.7376500484536386
 40
0.8208783262149126
 40
0.9079232481193411
 40
1.0
 40
1.0
 40
1.0
 40
1.0
 10
311.0010795454545
 20
200.7054545454556
 30
0.0
 10
311.0527768170416
 20
200.7040112795717
 30
0.0
 10
311.1536517776245
 20
200.701195088607
 30
0.0
 10
311.2999776386165
 20
200.6776421557642
 30
0.0
 10
311.4362451434017
 20
200.6377405745953
 30
0.0
 10
311.5619362614378
 20
200.5822168237045
 30
0.0
 10
311.6760696564492
 20
200.512121910037
 30
0.0
 10
311.7766877354348
 20
200.4270307449872
 30
0.0
 10
311.8644677465896
 20
200.3288463798926
 30
0.0
 10
311.9374923192906
 20
200.2165123895937
 30
0.0
 10
311.9965956950098
 20
200.0925971327464
 30
0.0
 10
312.0398745135102
 20
199.9576489489516
 30
0.0
 10
312.0680896661913
 20
199.8123924160686
 30
0.0
 10
312.0735544744123
 20
199.7117399710141
 30
0.0
 10
312.0763636363636
 20
199.660000000001
 30
0.0
  0
SPLINE
  5
2D2
330
1F
100
AcDbEntity
  8
0
  6
Continuous
 62
     7
370
    25
100
AcDbSpline
210
0.0
220
0.0
230
1.0
 70
     8
 71
     3
 72
    23
 73
    19
 74
     0
 42
0.000000001
 43
0.00000001
 40
0.0
 40
0.0
 40
0.0
 40
0.0
 40
0.0655342124430472
 40
0.1288270559297151
 40
0.1899548512024726
 40
0.2496480368191137
 40
0.3082483091336504
 40
0.3667963607881981
 40
0.4255009350642032
 40
0.4858920521208362
 40
0.5466819835686079
 40
0.6066869295489951
 40
0.66752212965502
 40
0.7294256136805803
 40
0.7931375186351548
 40
0.8590270504025663
 40
0.9276974320877976
 40
1.0
 40
1.0
 40
1.0
 40
1.0
 10
309.9854545454546
 20
199.7466477272737
 30
0.0
 10
309.9862383907144
 20
199.7810183281711
 30
0.0
 10
309.9877792725433
 20
199.8485840035501
 30
0.0
 10
310.0009334656037
 20
199.9474750799787
 30
0.0
 10
310.0217838060325
 20
200.0418960708732
 30
0.0
 10
310.0528966518717
 20
200.1308385004825
 30
0.0
 10
310.0909617982705
 20
200.2155690880123
 30
0.0
 10
310.1391675476908
 20
200.2943871603613
 30
0.0
 10
310.1949095156143
 20
200.3691815271761
 30
0.0
 10
310.2594458678131
 20
200.4381744341372
 30
0.0
 10
310.3305274465918
 20
200.5014481619054
 30
0.0
 10
310.4089673986745
 20
200.5558322407064
 30
0.0
 10
310.4931098940822
 20
200.6019173686921
 30
0.0
 10
310.5829725212305
 20
200.6408551427638
 30
0.0
 10
310.6793814441714
 20
200.6696473794773
 30
0.0
 10
310.7814202256976
 20
200.6899140872683
 30
0.0
 10
310.8892251138122
 20
200.7032319977418
 30
0.0
 10
310.9631597563736
 20
200.7047010791933
 30
0.0
 10
311.0010795454545
 20
200.7054545454556
 30
0.0
  0
SPLINE
  5
2D3
330
1F
100
AcDbEntity
  8
0
  6
Continuous
 62
     7
370
    25
100
AcDbSpline
210
0.0
220
0.0
230
1.0
 70
     8
 71
     3
 72
    23
 73
    19
 74
     0
 42
0.000000001
 43
0.00000001
 40
0.0
 40
0.0
 40
0.0
 40
0.0
 40
0.0696134502891531
 40
0.1341558467413847
 40
0.1941216639751317
 40
0.2492702399547626
 40
0.3003975238168696
 40
0.3464602541181251
 40
0.3882517207597329
 40
0.4259028191906364
 40
0.4961060560373053
 40
0.5655345875935786
 40
0.6348462500707484
 40
0.704758528907391
 40
0.7756659742820934
 40
0.847725381578479
 40
0.9224175839219327
 40
1.0
 40
1.0
 40
1.0
 40
1.0
 10
310.9293465909091
 20
198.785000000001
 30
0.0
 10
310.8963883376328
 20
198.7942991767614
 30
0.0
 10
310.8328727044177
 20
198.8122201234622
 30
0.0
 10
310.7417895863331
 20
198.8409006111753
 30
0.0
 10
310.6578891350438
 20
198.8687402606365
 30
0.0
 10
310.5816885089716
 20
198.8984420938175
 30
0.0
 10
310.5122307152052
 20
198.9266501736663
 30
0.0
 10
310.4508831324047
 20
198.956921673201
 30
0.0
 10
310.396706273176
 20
198.9865624415513
 30
0.0
 10
310.33440040177
 20
199.0258845880411
 30
0.0
 10
310.2663472692989
 20
199.0808803133711
 30
0.0
 10
310.1942203813983
 20
199.154367514028
 30
0.0
 10
310.1312128846976
 20
199.2357398211396
 30
0.0
 10
310.0786444274924
 20
199.3249901249894
 30
0.0
 10
310.0360089545186
 20
199.4210225471503
 30
0.0
 10
310.0077770487519
 20
199.5245385533047
 30
0.0
 10
309.9880863734883
 20
199.6334477247827
 30
0.0
 10
309.9863428523015
 20
199.7084399355809
 30
0.0
 10
309.9854545454546
 20
199.7466477272737
 30
0.0
  0
SPLINE
  5
2D4
330
1F
100
AcDbEntity
  8
0
  6
Continuous
 62
     7
370
    25
100
AcDbSpline
210
0.0
220
0.0
230
1.0
 70
     8
 71
     3
 72
    23
 73
    19
 74
     0
 42
0.000000001
 43
0.00000001
 40
0.0
 40
0.0
 40
0.0
 40
0.0
 40
0.0628274913813597
 40
0.1223726895779753
 40
0.1803837658619588
 40
0.2364891989894682
 40
0.2926289502320351
 40
0.3503980605968382
 40
0.4101926792197961
 40
0.4734229773823774
 40
0.510212485250965
 40
0.5552799601987776
 40
0.6084730122619797
 40
0.6698570376582513
 40
0.7400379641843857
 40
0.8179174674906489
 40
0.9048122599055279
 40
0.9999999999999999
 40
0.9999999999999999
 40
0.9999999999999999
 40
0.9999999999999999
 10
311.8036363636363
 20
198.1230681818192
 30
0.0
 10
311.8028546326004
 20
198.1482163606999
 30
0.0
 10
311.80133201046
 20
198.1971989035321
 30
0.0
 10
311.7883719811125
 20
198.2685044977335
 30
0.0
 10
311.7662744953764
 20
198.3345839531405
 30
0.0
 10
311.7361918922036
 20
198.395943111812
 30
0.0
 10
311.697339534654
 20
198.4520892232511
 30
0.0
 10
311.6493581013716
 20
198.5027475502593
 30
0.0
 10
311.5923435915044
 20
198.5475269382752
 30
0.0
 10
311.5379407980766
 20
198.5814869120796
 30
0.0
 10
311.4853868068685
 20
198.606221982881
 30
0.0
 10
311.4357348738578
 20
198.6275433068809
 30
0.0
 10
311.3759381568364
 20
198.6500337661174
 30
0.0
 10
311.3060935407516
 20
198.6742406221396
 30
0.0
 10
311.2261789100527
 20
198.699458947897
 30
0.0
 10
311.1361502262876
 20
198.726479551459
 30
0.0
 10
311.0363221693086
 20
198.7556566751538
 30
0.0
 10
310.9660716370437
 20
198.774926346043
 30
0.0
 10
310.9293465909091
 20
198.785000000001
 30
0.0
  0
SPLINE
  5
2D5
330
1F
100
AcDbEntity
  8
0
  6
Continuous
 62
     7
370
    25
100
AcDbSpline
210
0.0
220
0.0
230
1.0
 70
     8
 71
     3
 72
    23
 73
    19
 74
     0
 42
0.000000001
 43
0.00000001
 40
0.0
 40
0.0
 40
0.0
 40
0.0
 40
0.0781252968918887
 40
0.1518301493922335
 40
0.2221520613978998
 40
0.2890233266244052
 40
0.3525976224640656
 40
0.4148420026739694
 40
0.4749348900295443
 40
0.5348433958080103
 40
0.5934135167521026
 40
0.6507869454438927
 40
0.7072859995271761
 40
0.7634577572775806
 40
0.8197238077213155
 40
0.8778515259498442
 40
0.937478525171102
 40
1.0
 40
1.0
 40
1.0
 40
1.0
 10
311.09625
 20
197.5236363636374
 30
0.0
 10
311.1234978846358
 20
197.5241900888707
 30
0.0
 10
311.1764519284535
 20
197.5252662087479
 30
0.0
 10
311.2535591438087
 20
197.5333601648993
 30
0.0
 10
311.3261861920129
 20
197.5455527600977
 30
0.0
 10
311.3936501127397
 20
197.564520878828
 30
0.0
 10
311.4572050680935
 20
197.5867021190305
 30
0.0
 10
311.5150619019023
 20
197.6162740214951
 30
0.0
 10
311.5692034849894
 20
197.6496945470619
 30
0.0
 10
311.6180573946873
 20
197.6886049128119
 30
0.0
 10
311.6611358224173
 20
197.732338889915
 30
0.0
 10
311.7001834379621
 20
197.7782375999167
 30
0.0
 10
311.7319321099304
 20
197.8284853952292
 30
0.0
 10
311.7587035285191
 20
197.8811010494847
 30
0.0
 10
311.7783360279201
 20
197.9373798669812
 30
0.0
 10
311.7935635377944
 20
197.9962011909918
 30
0.0
 10
311.8020528294921
 20
198.0586641801085
 30
0.0
 10
311.8031002456012
 20
198.1012636965942
 30
0.0
 10
311.8036363636363
 20
198.1230681818192
 30
0.0
  0
SPLINE
  5
2D6
330
1F
100
AcDbEntity
  8
0
  6
Continuous
 62
     7
370
    25
100
AcDbSpline
210
0.0
220
0.0
230
1.0
 70
     8
 71
     3
 72
    19
 73
    15
 74
     0
 42
0.000000001
 43
0.00000001
 40
0.0
 40
0.0
 40
0.0
 40
0.0
 40
0.106713384981201
 40
0.2023827530813248
 40
0.2879881362754664
 40
0.3651321209974009
 40
0.438155321852681
 40
0.5114419818683948
 40
0.587093492650868
 40
0.6659855935524697
 40
0.7468394073744405
 40
0.8288800136248057
 40
0.9125295864996439
 40
1.0
 40
1.0
 40
1.0
 40
1.0
 10
310.2581818181818
 20
198.3418181818192
 30
0.0
 10
310.2634765758427
 20
198.2955243317482
 30
0.0
 10
310.273518124356
 20
198.2077276900264
 30
0.0
 10
310.301020241332
 20
198.0847760619353
 30
0.0
 10
310.3378044093797
 20
197.977956369051
 30
0.0
 10
310.3832488463161
 20
197.8851166437069
 30
0.0
 10
310.4414853798908
 20
197.8064199814921
 30
0.0
 10
310.5080065128609
 20
197.7356454850146
 30
0.0
 10
310.5863588620391
 20
197.6739007867974
 30
0.0
 10
310.6740668498122
 20
197.6199972885603
 30
0.0
 10
310.7706036343559
 20
197.5764927798398
 30
0.0
 10
310.8741764128563
 20
197.5464323953622
 30
0.0
 10
310.9833231401978
 20
197.5271928052268
 30
0.0
 10
311.058051524237
 20
197.5248393604098
 30
0.0
 10
311.0962499999999
 20
197.5236363636374
 30
0.0
  0
LINE
  5
2D7
330
1F
100
AcDbEntity
  8
0
  6
Continuous
 62
     7
370
    25
100
AcDbLine
 10
309.8945454545
 20
198.2963636364
 30
0.0
 11
310.2581818182
 21
198.3418181818
 31
0.0
  0
SPLINE
  5
2D8
330
1F
100
AcDbEntity
  8
0
  6
Continuous
 62
     7
370
    25
100
AcDbSpline
210
0.0
220
0.0
230
1.0
 70
     8
 71
     3
 72
    19
 73
    15
 74
     0
 42
0.000000001
 43
0.00000001
 40
0.0
 40
0.0
 40
0.0
 40
0.0
 40
0.0842734715608933
 40
0.1665166244253432
 40
0.2473877598069593
 40
0.3288365457123069
 40
0.4090983268496176
 40
0.4877267016055324
 40
0.5657077880693232
 40
0.6449848608508585
 40
0.7265584459444162
 40
0.8120697979385845
 40
0.9027287756276013
 40
1.0
 40
1.0
 40
1.0
 40
1.0
 10
312.1672727272727
 20
198.1337215909101
 30
0.0
 10
312.1657280253012
 20
198.0862494078896
 30
0.0
 10
312.1626758363588
 20
197.9924487429323
 30
0.0
 10
312.1355859526006
 20
197.8552449460005
 30
0.0
 10
312.0913238594918
 20
197.7244939364448
 30
0.0
 10
312.0294131950877
 20
197.6023182183196
 30
0.0
 10
311.9536479840464
 20
197.4898339969977
 30
0.0
 10
311.8644887915439
 20
197.3900521871014
 30
0.0
 10
311.7615377978405
 20
197.3054132045824
 30
0.0
 10
311.6462401611901
 20
197.2355242610675
 30
0.0
 10
311.5185876704929
 20
197.1800708983759
 30
0.0
 10
311.3780314430827
 20
197.1427038235231
 30
0.0
 10
311.2256359358013
 20
197.1185119130452
 30
0.0
 10
311.1197867321317
 20
197.1158982608049
 30
0.0
 10
311.065
 20
197.1145454545465
 30
0.0
  0
LINE
  5
2D9
330
1F
100
AcDbEntity
  8
0
  6
Continuous
 62
     7
370
    25
100
AcDbLine
 10
307.7780681818
 20
197.16
 30
0.0
 11
306.3036363636
 21
199.9462215909
 31
0.0
  0
LINE
  5
2DA
330
1F
100
AcDbEntity
  8
0
  6
Continuous
 62
     7
370
    25
100
AcDbLine
 10
308.1672727273
 20
197.16
 30
0.0
 11
307.7780681818
 21
197.16
 31
0.0
  0
LINE
  5
2DB
330
1F
100
AcDbEntity
  8
0
  6
Continuous
 62
     7
370
    25
100
AcDbLine
 10
308.1672727273
 20
200.66
 30
0.0
 11
308.1672727273
 21
197.16
 31
0.0
  0
LINE
  5
2DC
330
1F
100
AcDbEntity
  8
0
  6
Continuous
 62
     7
370
    25
100
AcDbLine
 10
307.8036363636
 20
200.66
 30
0.0
 11
308.1672727273
 21
200.66
 31
0.0
  0
LINE
  5
2DD
330
1F
100
AcDbEntity
  8
0
  6
Continuous
 62
     7
370
    25
100
AcDbLine
 10
307.8036363636
 20
197.8702272727
 30
0.0
 11
307.8036363636
 21
200.66
 31
0.0
  0
LINE
  5
2DE
330
1F
100
AcDbEntity
  8
0
  6
Continuous
 62
     7
370
    25
100
AcDbLine
 10
306.3270738636
 20
200.66
 30
0.0
 11
307.8036363636
 21
197.8702272727
 31
0.0
  0
LINE
  5
2DF
330
1F
100
AcDbEntity
  8
0
  6
Continuous
 62
     7
370
    25
100
AcDbLine
 10
305.94
 20
200.66
 30
0.0
 11
306.3270738636
 21
200.66
 31
0.0
  0
LINE
  5
2E0
330
1F
100
AcDbEntity
  8
0
  6
Continuous
 62
     7
370
    25
100
AcDbLine
 10
305.94
 20
197.16
 30
0.0
 11
305.94
 21
200.66
 31
0.0
  0
LINE
  5
2E1
330
1F
100
AcDbEntity
  8
0
  6
Continuous
 62
     7
370
    25
100
AcDbLine
 10
306.3036363636
 20
197.16
 30
0.0
 11
305.94
 21
197.16
 31
0.0
  0
LINE
  5
2E2
330
1F
100
AcDbEntity
  8
0
  6
Continuous
 62
     7
370
    25
100
AcDbLine
 10
306.3036363636
 20
199.9462215909
 30
0.0
 11
306.3036363636
 21
197.16
 31
0.0
  0
SPLINE
  5
2E3
330
1F
100
AcDbEntity
  8
0
  6
Continuous
 62
     7
370
    25
100
AcDbSpline
210
0.0
220
0.0
230
1.0
 70
     8
 71
     3
 72
    23
 73
    19
 74
     0
 42
0.000000001
 43
0.00000001
 40
0.0
 40
0.0
 40
0.0
 40
0.0
 40
0.0690622114285179
 40
0.1347658792836456
 40
0.1976107057024345
 40
0.2585282108425837
 40
0.318127425281013
 40
0.3770582660618971
 40
0.4356857915191251
 40
0.4947336263914066
 40
0.5540911070636493
 40
0.6133334186580068
 40
0.6729241889746481
 40
0.7340655047106267
 40
0.7962987887860594
 40
0.8612408916846029
 40
0.9289703310657822
 40
0.9999999999999999
 40
0.9999999999999999
 40
0.9999999999999999
 40
0.9999999999999999
 10
311.065
 20
197.1145454545465
 30
0.0
 10
311.0218678115767
 20
197.1154498923023
 30
0.0
 10
310.9377009831758
 20
197.1172147843744
 30
0.0
 10
310.8150398821531
 20
197.1324118698817
 30
0.0
 10
310.6992070638632
 20
197.1571383816988
 30
0.0
 10
310.589944532401
 20
197.1919846392919
 30
0.0
 10
310.4870877252811
 20
197.2369018612999
 30
0.0
 10
310.390749308108
 20
197.2916862116917
 30
0.0
 10
310.3014074524178
 20
197.3567184610205
 30
0.0
 10
310.2197656328723
 20
197.4315429273738
 30
0.0
 10
310.1459337777589
 20
197.5145617647573
 30
0.0
 10
310.0808762129583
 20
197.6050817657948
 30
0.0
 10
310.0258451052256
 20
197.7033206105374
 30
0.0
 10
309.9807790773945
 20
197.8084772168221
 30
0.0
 10
309.9441252424393
 20
197.9203631012419
 30
0.0
 10
309.9173222922587
 20
198.0392305126918
 30
0.0
 10
309.9001891345249
 20
198.1654511300371
 30
0.0
 10
309.8964562751611
 20
198.2520396639115
 30
0.0
 10
309.8945454545454
 20
198.2963636363646
 30
0.0
  0
SPLINE
  5
2E4
330
1F
100
AcDbEntity
  8
0
  6
Continuous
 62
     7
370
    25
100
AcDbSpline
210
0.0
220
0.0
230
1.0
 70
     8
 71
     3
 72
    15
 73
    11
 74
     0
 42
0.000000001
 43
0.00000001
 40
0.0
 40
0.0
 40
0.0
 40
0.0
 40
0.1348306128719199
 40
0.2655522766928016
 40
0.3942179015238056
 40
0.5192745831226615
 40
0.642230360710708
 40
0.7628424106338232
 40
0.8821514059548589
 40
1.0
 40
1.0
 40
1.0
 40
1.0
 10
317.6672727272727
 20
198.9171022727283
 30
0.0
 10
317.6669256579884
 20
198.9535716752936
 30
0.0
 10
317.6662420963206
 20
199.0253990791344
 30
0.0
 10
317.6589535991689
 20
199.1318371339349
 30
0.0
 10
317.6467348979733
 20
199.2351044818284
 30
0.0
 10
317.6309858010319
 20
199.3358263838746
 30
0.0
 10
317.6081651670672
 20
199.4329228743229
 30
0.0
 10
317.5833242086518
 20
199.5279048957615
 30
0.0
 10
317.5518138838787
 20
199.6194953310676
 30
0.0
 10
317.5274105972726
 20
199.678817180105
 30
0.0
 10
317.5152840909091
 20
199.7082954545465
 30
0.0
  0
SPLINE
  5
2E5
330
1F
100
AcDbEntity
  8
0
  6
Continuous
 62
     7
370
    25
100
AcDbSpline
210
0.0
220
0.0
230
1.0
 70
     8
 71
     3
 72
    23
 73
    19
 74
     0
 42
0.000000001
 43
0.00000001
 40
0.0
 40
0.0
 40
0.0
 40
0.0
 40
0.0549231502919699
 40
0.1086030052064171
 40
0.1610368556519759
 40
0.2129852978324795
 40
0.2656874514313826
 40
0.3191576965915259
 40
0.3745727672960877
 40
0.4325440293275161
 40
0.492437848824433
 40
0.5542084725851989
 40
0.6185456342266038
 40
0.6863015999283235
 40
0.7577792075712924
 40
0.8336420180410764
 40
0.9144133612381078
 40
1.0
 40
1.0
 40
1.0
 40
1.0
 10
316.6417045454546
 20
197.5236363636374
 30
0.0
 10
316.677276695637
 20
197.5247684960171
 30
0.0
 10
316.7476157492225
 20
197.5270071326953
 30
0.0
 10
316.8508574371222
 20
197.5435767907856
 30
0.0
 10
316.9496619465169
 20
197.571181533386
 30
0.0
 10
317.0434871525686
 20
197.6110561903191
 30
0.0
 10
317.1332452463099
 20
197.6606975939525
 30
0.0
 10
317.2184987100432
 20
197.7217686751041
 30
0.0
 10
317.2989434115351
 20
197.7941493246477
 30
0.0
 10
317.3749548596056
 20
197.8769461025605
 30
0.0
 10
317.443780465345
 20
197.9709830185894
 30
0.0
 10
317.5046935130628
 20
198.0751591746428
 30
0.0
 10
317.5549615696318
 20
198.190472997851
 30
0.0
 10
317.5956686632715
 20
198.3159775433317
 30
0.0
 10
317.628794921743
 20
198.4514335567647
 30
0.0
 10
317.6505052388248
 20
198.5976549050428
 30
0.0
 10
317.6654415046149
 20
198.7539130034713
 30
0.0
 10
317.6666506532961
 20
198.8616661971425
 30
0.0
 10
317.6672727272727
 20
198.9171022727283
 30
0.0
  0
SPLINE
  5
2E6
330
1F
100
AcDbEntity
  8
0
  6
Continuous
 62
     7
370
    25
100
AcDbSpline
210
0.0
220
0.0
230
1.0
 70
     8
 71
     3
 72
    23
 73
    19
 74
     0
 42
0.000000001
 43
0.00000001
 40
0.0
 40
0.0
 40
0.0
 40
0.0
 40
0.0820167094769213
 40
0.1594134130609959
 40
0.2330069745226142
 40
0.303189177358941
 40
0.3699716694339439
 40
0.4341909870753243
 40
0.496708954997673
 40
0.5582085812881032
 40
0.618080969644611
 40
0.6750827924608154
 40
0.7301076280391964
 40
0.7838984160543082
 40
0.8370755298410726
 40
0.8904187639022285
 40
0.9443870054531992
 40
0.9999999999999999
 40
0.9999999999999999
 40
0.9999999999999999
 40
0.9999999999999999
 10
315.6218181818182
 20
198.8581534090919
 30
0.0
 10
315.6228506363221
 20
198.8067530385445
 30
0.0
 10
315.6248573871093
 20
198.7068476832353
 30
0.0
 10
315.6381398685518
 20
198.5612724513522
 30
0.0
 10
315.6614928834084
 20
198.4244923166777
 30
0.0
 10
315.6941693439239
 20
198.2965203811312
 30
0.0
 10
315.7348739774289
 20
198.1769818245873
 30
0.0
 10
315.786491660068
 20
198.066978763654
 30
0.0
 10
315.8469745387065
 20
197.9654657975605
 30
0.0
 10
315.9165002481143
 20
197.8732483275941
 30
0.0
 10
315.9929712712771
 20
197.7915023377997
 30
0.0
 10
316.0733684220759
 20
197.7194784667296
 30
0.0
 10
316.1586984392932
 20
197.6598314537233
 30
0.0
 10
316.2469330695719
 20
197.6092608306676
 30
0.0
 10
316.3400082647332
 20
197.5706241354614
 30
0.0
 10
316.4371544966905
 20
197.543901766655
 30
0.0
 10
316.5381279937213
 20
197.5268970339451
 30
0.0
 10
316.6068352756003
 20
197.5247340753392
 30
0.0
 10
316.6417045454546
 20
197.5236363636374
 30
0.0
  0
SPLINE
  5
2E7
330
1F
100
AcDbEntity
  8
0
  6
Continuous
 62
     7
370
    25
100
AcDbSpline
210
0.0
220
0.0
230
1.0
 70
     8
 71
     3
 72
    15
 73
    11
 74
     0
 42
0.000000001
 43
0.00000001
 40
0.0
 40
0.0
 40
0.0
 40
0.0
 40
0.1290893592394788
 40
0.255100016180433
 40
0.3798655055392197
 40
0.5068907155239867
 40
0.6325188027370866
 40
0.754841705189159
 40
0.8765222138546879
 40
1.0
 40
1.0
 40
1.0
 40
1.0
 10
317.5152840909091
 20
199.7082954545465
 30
0.0
 10
317.4947929965973
 20
199.7514094406328
 30
0.0
 10
317.4542995080458
 20
199.8366091705952
 30
0.0
 10
317.371510527599
 20
199.9506199156544
 30
0.0
 10
317.2756754270009
 20
200.0524886185147
 30
0.0
 10
317.1650304423612
 20
200.1379251139205
 30
0.0
 10
317.0456513880423
 20
200.2087810358543
 30
0.0
 10
316.9185885306879
 20
200.2598071954655
 30
0.0
 10
316.7857030891687
 20
200.2907311655978
 30
0.0
 10
316.6951337174257
 20
200.2944769924447
 30
0.0
 10
316.6495170454545
 20
200.2963636363647
 30
0.0
  0
SPLINE
  5
2E8
330
1F
100
AcDbEntity
  8
0
  6
Continuous
 62
     7
370
    25
100
AcDbSpline
210
0.0
220
0.0
230
1.0
 70
     8
 71
     3
 72
    23
 73
    19
 74
     0
 42
0.000000001
 43
0.00000001
 40
0.0
 40
0.0
 40
0.0
 40
0.0
 40
0.054969301025597
 40
0.1083590609100919
 40
0.1601640429853788
 40
0.2113322971038464
 40
0.2628532052336254
 40
0.3149821664487521
 40
0.3690071678834783
 40
0.4247807921276377
 40
0.4829618213623599
 40
0.5435867127152633
 40
0.6079447966355056
 40
0.6759283484733851
 40
0.749003235152355
 40
0.827141000277197
 40
0.9105022622530009
 40
1.0
 40
1.0
 40
1.0
 40
1.0
 10
316.6495170454545
 20
200.2963636363647
 30
0.0
 10
316.6130012266368
 20
200.2952323690454
 30
0.0
 10
316.5410188699099
 20
200.293002341338
 30
0.0
 10
316.4356132686208
 20
200.2765645473081
 30
0.0
 10
316.3353526274149
 20
200.248656734671
 30
0.0
 10
316.2401566263983
 20
200.2098471455842
 30
0.0
 10
316.1493906714254
 20
200.1609960876179
 30
0.0
 10
316.0642787326933
 20
200.099556661026
 30
0.0
 10
315.9839447653272
 20
200.0277623834844
 30
0.0
 10
315.9091550427664
 20
199.9447527194654
 30
0.0
 10
315.840150269185
 20
199.8511829455403
 30
0.0
 10
315.7824921889253
 20
199.7437443624691
 30
0.0
 10
315.7316115756987
 20
199.6259174858819
 30
0.0
 10
315.6917352643454
 20
199.4952268394165
 30
0.0
 10
315.6594714782851
 20
199.3531074395328
 30
0.0
 10
315.638790159098
 20
199.1985777876936
 30
0.0
 10
315.6235218641493
 20
199.0324628127801
 30
0.0
 10
315.6223993588672
 20
198.9176155652712
 30
0.0
 10
315.6218181818182
 20
198.8581534090919
 30
0.0
  0
SPLINE
  5
2E9
330
1F
100
AcDbEntity
  8
0
  6
Continuous
 62
     7
370
    25
100
AcDbSpline
210
0.0
220
0.0
230
1.0
 70
     8
 71
     3
 72
    15
 73
    11
 74
     0
 42
0.000000001
 43
0.00000001
 40
0.0
 40
0.0
 40
0.0
 40
0.0
 40
0.1348306128719203
 40
0.2655522766928024
 40
0.3942179015238061
 40
0.5192745831226624
 40
0.64223036071071
 40
0.7628424106338255
 40
0.88215140595486
 40
1.0
 40
1.0
 40
1.0
 40
1.0
 10
323.4854545454545
 20
198.9171022727283
 30
0.0
 10
323.4851074761702
 20
198.9535716752936
 30
0.0
 10
323.4844239145024
 20
199.0253990791344
 30
0.0
 10
323.4771354173507
 20
199.1318371339349
 30
0.0
 10
323.4649167161551
 20
199.2351044818284
 30
0.0
 10
323.4491676192137
 20
199.3358263838746
 30
0.0
 10
323.4263469852491
 20
199.4329228743229
 30
0.0
 10
323.4015060268336
 20
199.5279048957615
 30
0.0
 10
323.3699957020605
 20
199.6194953310676
 30
0.0
 10
323.3455924154545
 20
199.678817180105
 30
0.0
 10
323.3334659090909
 20
199.7082954545465
 30
0.0
  0
SPLINE
  5
2EA
330
1F
100
AcDbEntity
  8
0
  6
Continuous
 62
     7
370
    25
100
AcDbSpline
210
0.0
220
0.0
230
1.0
 70
     8
 71
     3
 72
    23
 73
    19
 74
     0
 42
0.000000001
 43
0.00000001
 40
0.0
 40
0.0
 40
0.0
 40
0.0
 40
0.0549231502919699
 40
0.1086030052064189
 40
0.161036855651976
 40
0.2129852978324796
 40
0.2656874514313827
 40
0.3191576965915245
 40
0.3745727672960877
 40
0.4325440293275162
 40
0.4924378488244341
 40
0.5542084725852
 40
0.6185456342266049
 40
0.6863015999283236
 40
0.7577792075712924
 40
0.8336420180410764
 40
0.9144133612381077
 40
1.0
 40
1.0
 40
1.0
 40
1.0
 10
322.4598863636364
 20
197.5236363636374
 30
0.0
 10
322.4954585138188
 20
197.5247684960171
 30
0.0
 10
322.5657975674043
 20
197.5270071326953
 30
0.0
 10
322.669039255304
 20
197.5435767907856
 30
0.0
 10
322.7678437646987
 20
197.571181533386
 30
0.0
 10
322.8616689707505
 20
197.6110561903191
 30
0.0
 10
322.9514270644918
 20
197.6606975939524
 30
0.0
 10
323.036680528225
 20
197.7217686751041
 30
0.0
 10
323.1171252297169
 20
197.7941493246477
 30
0.0
 10
323.1931366777874
 20
197.8769461025605
 30
0.0
 10
323.2619622835268
 20
197.9709830185894
 30
0.0
 10
323.3228753312446
 20
198.0751591746428
 30
0.0
 10
323.3731433878136
 20
198.190472997851
 30
0.0
 10
323.4138504814533
 20
198.3159775433317
 30
0.0
 10
323.4469767399248
 20
198.4514335567647
 30
0.0
 10
323.4686870570066
 20
198.5976549050428
 30
0.0
 10
323.4836233227968
 20
198.7539130034713
 30
0.0
 10
323.4848324714779
 20
198.8616661971425
 30
0.0
 10
323.4854545454545
 20
198.9171022727283
 30
0.0
  0
SPLINE
  5
2EB
330
1F
100
AcDbEntity
  8
0
  6
Continuous
 62
     7
370
    25
100
AcDbSpline
210
0.0
220
0.0
230
1.0
 70
     8
 71
     3
 72
    15
 73
    11
 74
     0
 42
0.000000001
 43
0.00000001
 40
0.0
 40
0.0
 40
0.0
 40
0.0
 40
0.1290893592394812
 40
0.255100016180435
 40
0.3798655055392191
 40
0.5068907155239881
 40
0.6325188027370876
 40
0.7548417051891566
 40
0.8765222138546881
 40
1.0
 40
1.0
 40
1.0
 40
1.0
 10
323.3334659090909
 20
199.7082954545465
 30
0.0
 10
323.3129748147792
 20
199.7514094406328
 30
0.0
 10
323.2724813262276
 20
199.8366091705952
 30
0.0
 10
323.1896923457808
 20
199.9506199156544
 30
0.0
 10
323.0938572451827
 20
200.0524886185147
 30
0.0
 10
322.983212260543
 20
200.1379251139205
 30
0.0
 10
322.8638332062241
 20
200.2087810358543
 30
0.0
 10
322.7367703488698
 20
200.2598071954655
 30
0.0
 10
322.6038849073506
 20
200.2907311655978
 30
0.0
 10
322.5133155356075
 20
200.2944769924447
 30
0.0
 10
322.4676988636364
 20
200.2963636363647
 30
0.0
  0
SPLINE
  5
2EC
330
1F
100
AcDbEntity
  8
0
  6
Continuous
 62
     7
370
    25
100
AcDbSpline
210
0.0
220
0.0
230
1.0
 70
     8
 71
     3
 72
    23
 73
    19
 74
     0
 42
0.000000001
 43
0.00000001
 40
0.0
 40
0.0
 40
0.0
 40
0.0
 40
0.0549693010255954
 40
0.1083590609100886
 40
0.1601640429853773
 40
0.2113322971038449
 40
0.2628532052336241
 40
0.3149821664487523
 40
0.3690071678834773
 40
0.4247807921276356
 40
0.482961821362359
 40
0.5435867127152625
 40
0.6079447966355048
 40
0.6759283484733841
 40
0.7490032351523546
 40
0.827141000277197
 40
0.9105022622530009
 40
1.0
 40
1.0
 40
1.0
 40
1.0
 10
322.4676988636364
 20
200.2963636363647
 30
0.0
 10
322.4311830448186
 20
200.2952323690454
 30
0.0
 10
322.3592006880917
 20
200.293002341338
 30
0.0
 10
322.2537950868027
 20
200.2765645473082
 30
0.0
 10
322.1535344455967
 20
200.248656734671
 30
0.0
 10
322.0583384445802
 20
200.2098471455842
 30
0.0
 10
321.9675724896072
 20
200.1609960876179
 30
0.0
 10
321.8824605508751
 20
200.099556661026
 30
0.0
 10
321.8021265835091
 20
200.0277623834844
 30
0.0
 10
321.7273368609483
 20
199.9447527194654
 30
0.0
 10
321.6583320873668
 20
199.8511829455403
 30
0.0
 10
321.6006740071071
 20
199.743744362469
 30
0.0
 10
321.5497933938805
 20
199.6259174858819
 30
0.0
 10
321.5099170825272
 20
199.4952268394165
 30
0.0
 10
321.4776532964669
 20
199.3531074395328
 30
0.0
 10
321.4569719772799
 20
199.1985777876936
 30
0.0
 10
321.4417036823311
 20
199.0324628127801
 30
0.0
 10
321.4405811770491
 20
198.9176155652712
 30
0.0
 10
321.44
 20
198.8581534090919
 30
0.0
  0
SPLINE
  5
2ED
330
1F
100
AcDbEntity
  8
0
  6
Continuous
 62
     7
370
    25
100
AcDbSpline
210
0.0
220
0.0
230
1.0
 70
     8
 71
     3
 72
    23
 73
    19
 74
     0
 42
0.000000001
 43
0.00000001
 40
0.0
 40
0.0
 40
0.0
 40
0.0
 40
0.0820167094769213
 40
0.1594134130609958
 40
0.2330069745226141
 40
0.3031891773589418
 40
0.3699716694339434
 40
0.4341909870753238
 40
0.4967089549976744
 40
0.5582085812881047
 40
0.6180809696446111
 40
0.675082792460814
 40
0.7301076280391966
 40
0.7838984160543084
 40
0.8370755298410727
 40
0.8904187639022303
 40
0.9443870054531993
 40
0.9999999999999999
 40
0.9999999999999999
 40
0.9999999999999999
 40
0.9999999999999999
 10
321.44
 20
198.8581534090919
 30
0.0
 10
321.441032454504
 20
198.8067530385445
 30
0.0
 10
321.443039205291
 20
198.7068476832353
 30
0.0
 10
321.4563216867336
 20
198.5612724513522
 30
0.0
 10
321.4796747015902
 20
198.4244923166777
 30
0.0
 10
321.5123511621057
 20
198.2965203811312
 30
0.0
 10
321.5530557956107
 20
198.1769818245873
 30
0.0
 10
321.6046734782498
 20
198.066978763654
 30
0.0
 10
321.6651563568883
 20
197.9654657975605
 30
0.0
 10
321.7346820662962
 20
197.8732483275941
 30
0.0
 10
321.8111530894589
 20
197.7915023377997
 30
0.0
 10
321.8915502402577
 20
197.7194784667296
 30
0.0
 10
321.976880257475
 20
197.6598314537233
 30
0.0
 10
322.0651148877537
 20
197.6092608306676
 30
0.0
 10
322.158190082915
 20
197.5706241354614
 30
0.0
 10
322.2553363148723
 20
197.543901766655
 30
0.0
 10
322.3563098119031
 20
197.5268970339451
 30
0.0
 10
322.4250170937821
 20
197.5247340753392
 30
0.0
 10
322.4598863636364
 20
197.5236363636374
 30
0.0
  0
SPLINE
  5
2EE
330
1F
100
AcDbEntity
  8
0
  6
Continuous
 62
     7
370
    25
100
AcDbSpline
210
0.0
220
0.0
230
1.0
 70
     8
 71
     3
 72
    15
 73
    11
 74
     0
 42
0.000000001
 43
0.00000001
 40
0.0
 40
0.0
 40
0.0
 40
0.0
 40
0.1510739700527839
 40
0.2949499051911129
 40
0.4307193228074199
 40
0.5599595334307873
 40
0.681357379842828
 40
0.7944179911337563
 40
0.9012434198188539
 40
1.0
 40
1.0
 40
1.0
 40
1.0
 10
304.4343181818182
 20
199.5761931818192
 30
0.0
 10
304.4233714323839
 20
199.6121612333522
 30
0.0
 10
304.4019994997693
 20
199.6823836110779
 30
0.0
 10
304.371734894314
 20
199.78521078445
 30
0.0
 10
304.34268775007
 20
199.8827404363456
 30
0.0
 10
304.3178758920334
 20
199.9756528882255
 30
0.0
 10
304.2932034591187
 20
200.0627392579758
 30
0.0
 10
304.2719251647972
 20
200.1449686739713
 30
0.0
 10
304.2528243498238
 20
200.2219330391896
 30
0.0
 10
304.2410909732348
 20
200.2717314620131
 30
0.0
 10
304.2354545454546
 20
200.2956534090919
 30
0.0
  0
LINE
  5
2EF
330
1F
100
AcDbEntity
  8
0
  6
Continuous
 62
     7
370
    25
100
AcDbLine
 10
304.7269318182
 20
198.6145454545
 30
0.0
 11
304.4343181818
 21
199.5761931818
 31
0.0
  0
LINE
  5
2F0
330
1F
100
AcDbEntity
  8
0
  6
Continuous
 62
     7
370
    25
100
AcDbLine
 10
303.7432670455
 20
198.6145454545
 30
0.0
 11
304.7269318182
 21
198.6145454545
 31
0.0
  0
LINE
  5
2F1
330
1F
100
AcDbEntity
  8
0
  6
Continuous
 62
     7
370
    25
100
AcDbLine
 10
304.0728125
 20
199.6330113636
 30
0.0
 11
303.7432670455
 21
198.6145454545
 31
0.0
  0
SPLINE
  5
2F2
330
1F
100
AcDbEntity
  8
0
  6
Continuous
 62
     7
370
    25
100
AcDbSpline
210
0.0
220
0.0
230
1.0
 70
     8
 71
     3
 72
    11
 73
     7
 74
     0
 42
0.000000001
 43
0.00000001
 40
0.0
 40
0.0
 40
0.0
 40
0.0
 40
0.2488751571872396
 40
0.4974197103002305
 40
0.7479413436558426
 40
1.0
 40
1.0
 40
1.0
 40
1.0
 10
304.2354545454546
 20
200.2956534090919
 30
0.0
 10
304.2252219963891
 20
200.2399326809714
 30
0.0
 10
304.2047704911073
 20
200.1285652437685
 30
0.0
 10
304.1664349503754
 20
199.9626628034118
 30
0.0
 10
304.1237854982281
 20
199.7970597399805
 30
0.0
 10
304.0898381061002
 20
199.6878055318065
 30
0.0
 10
304.0728125
 20
199.6330113636374
 30
0.0
  0
SPLINE
  5
2F3
330
1F
100
AcDbEntity
  8
0
  6
Continuous
 62
     7
370
    25
100
AcDbSpline
210
0.0
220
0.0
230
1.0
 70
     8
 71
     3
 72
    23
 73
    19
 74
     0
 42
0.000000001
 43
0.00000001
 40
0.0
 40
0.0
 40
0.0
 40
0.0
 40
0.04858613413488
 40
0.0962602058660294
 40
0.1431674606468378
 40
0.1913492648606341
 40
0.2403169073324709
 40
0.2916690293142803
 40
0.3455098677312233
 40
0.4028526006308539
 40
0.4630768848996512
 40
0.5263885353005525
 40
0.5935261726947687
 40
0.6645681194727823
 40
0.7401213189636109
 40
0.8214824859429299
 40
0.9080398943911004
 40
1.0
 40
1.0
 40
1.0
 40
1.0
 10
337.4265056818182
 20
197.4781818181828
 30
0.0
 10
337.4469222597302
 20
197.4787872562194
 30
0.0
 10
337.4873721540854
 20
197.4799867669662
 30
0.0
 10
337.5465395730885
 20
197.4918987416233
 30
0.0
 10
337.6036245981363
 20
197.5105144124454
 30
0.0
 10
337.6582826791983
 20
197.5368584479883
 30
0.0
 10
337.7105569289832
 20
197.5710138933026
 30
0.0
 10
337.7613311555613
 20
197.6113477489796
 30
0.0
 10
337.8089688677446
 20
197.660407891896
 30
0.0
 10
337.8542433872899
 20
197.7164135721941
 30
0.0
 10
337.8965855422969
 20
197.7796262188444
 30
0.0
 10
337.9326650983892
 20
197.8512686335548
 30
0.0
 10
337.9630926074561
 20
197.9303187315089
 30
0.0
 10
337.9875311103807
 20
198.016721353673
 30
0.0
 10
338.0079644608109
 20
198.1103039814118
 30
0.0
 10
338.0204674585642
 20
198.2118206904268
 30
0.0
 10
338.0294939966961
 20
198.3205858453717
 30
0.0
 10
338.0304279708319
 20
198.3955376468325
 30
0.0
 10
338.0309090909091
 20
198.4341477272737
 30
0.0
  0
SPLINE
  5
2F4
330
1F
100
AcDbEntity
  8
0
  6
Continuous
 62
     7
370
    25
100
AcDbSpline
210
0.0
220
0.0
230
1.0
 70
     8
 71
     3
 72
    23
 73
    19
 74
     0
 42
0.000000001
 43
0.00000001
 40
0.0
 40
0.0
 40
0.0
 40
0.0
 40
0.0914820109348281
 40
0.1770646809617236
 40
0.2569568658574884
 40
0.3322046711927941
 40
0.4019110831417151
 40
0.4679780540384924
 40
0.5305767406473119
 40
0.5896588361577446
 40
0.6462789822163432
 40
0.7003021260507273
 40
0.7515120069402041
 40
0.801343072705305
 40
0.8502640635955725
 40
0.8992993411874725
 40
0.949177189374798
 40
1.0
 40
1.0
 40
1.0
 40
1.0
 10
338.0309090909091
 20
198.4341477272737
 30
0.0
 10
338.0304282874315
 20
198.4729940380839
 30
0.0
 10
338.0294976857373
 20
198.5481816029379
 30
0.0
 10
338.0205442314593
 20
198.6569588381594
 30
0.0
 10
338.0078029625865
 20
198.7584394030773
 30
0.0
 10
337.9876714999293
 20
198.8518319779387
 30
0.0
 10
337.9633185170467
 20
198.9381768415331
 30
0.0
 10
337.9316024874343
 20
199.016315614687
 30
0.0
 10
337.8960996679664
 20
199.0878484345013
 30
0.0
 10
337.8535276257252
 20
199.1506814751968
 30
0.0
 10
337.8073325285386
 20
199.2060931042713
 30
0.0
 10
337.7584836404383
 20
199.2545987625365
 30
0.0
 10
337.7068015095991
 20
199.2955812791404
 30
0.0
 10
337.6526773878134
 20
199.329422912839
 30
0.0
 10
337.595216926771
 20
199.3551072249695
 30
0.0
 10
337.5351254190799
 20
199.3735669810611
 30
0.0
 10
337.4724286325164
 20
199.3854649868792
 30
0.0
 10
337.4296365777607
 20
199.3866663892056
 30
0.0
 10
337.4080397727272
 20
199.3872727272737
 30
0.0
  0
SPLINE
  5
2F5
330
1F
100
AcDbEntity
  8
0
  6
Continuous
 62
     7
370
    25
100
AcDbSpline
210
0.0
220
0.0
230
1.0
 70
     8
 71
     3
 72
    23
 73
    19
 74
     0
 42
0.000000001
 43
0.00000001
 40
0.0
 40
0.0
 40
0.0
 40
0.0
 40
0.0918285138918167
 40
0.17776968204482
 40
0.2580302212286025
 40
0.333105534868574
 40
0.4031864489552399
 40
0.4696188742250254
 40
0.5315789437437183
 40
0.5909885331931855
 40
0.6474788880247825
 40
0.7009891280720509
 40
0.7520816197681415
 40
0.801798457018857
 40
0.8506073055732984
 40
0.8995301788482177
 40
0.9492936912810971
 40
1.0
 40
1.0
 40
1.0
 40
1.0
 10
336.8036363636364
 20
198.4341477272737
 30
0.0
 10
336.8041158359702
 20
198.3950645338414
 30
0.0
 10
336.8050440405193
 20
198.3194038640199
 30
0.0
 10
336.8140204212793
 20
198.2099211507935
 30
0.0
 10
336.8266595377162
 20
198.1079506782872
 30
0.0
 10
336.8469646419802
 20
198.0141153428554
 30
0.0
 10
336.8712889151603
 20
197.9273246471183
 30
0.0
 10
336.9025475808482
 20
197.8487113650667
 30
0.0
 10
336.9388822987178
 20
197.777384995136
 30
0.0
 10
336.9807972025985
 20
197.7141708073346
 30
0.0
 10
337.0269985435334
 20
197.6586550325342
 30
0.0
 10
337.0763020873076
 20
197.6108685181282
 30
0.0
 10
337.1277158207434
 20
197.5698437403285
 30
0.0
 10
337.1818753629552
 20
197.5360392925039
 30
0.0
 10
337.2393265848128
 20
197.5103452806831
 30
0.0
 10
337.2994205637325
 20
197.4918881189925
 30
0.0
 10
337.3621166860843
 20
197.4799894158568
 30
0.0
 10
337.4049088311872
 20
197.4787881083807
 30
0.0
 10
337.4265056818182
 20
197.4781818181828
 30
0.0
  0
SPLINE
  5
2F6
330
1F
100
AcDbEntity
  8
0
  6
Continuous
 62
     7
370
    25
100
AcDbSpline
210
0.0
220
0.0
230
1.0
 70
     8
 71
     3
 72
    23
 73
    19
 74
     0
 42
0.000000001
 43
0.00000001
 40
0.0
 40
0.0
 40
0.0
 40
0.0
 40
0.0492081114433093
 40
0.0969393295480919
 40
0.1444395158836682
 40
0.1924372048271326
 40
0.2419392722209244
 40
0.293272261514355
 40
0.347177638338805
 40
0.404151451913319
 40
0.4641377667933039
 40
0.5270227956702984
 40
0.5937146723299063
 40
0.6648417762905727
 40
0.7403695305280299
 40
0.8212684990064687
 40
0.9079296628467064
 40
1.0
 40
1.0
 40
1.0
 40
1.0
 10
337.4080397727272
 20
199.3872727272737
 30
0.0
 10
337.3873843181788
 20
199.38668464587
 30
0.0
 10
337.3466933455584
 20
199.3855261332725
 30
0.0
 10
337.2870849620221
 20
199.3734673180423
 30
0.0
 10
337.2298411522988
 20
199.3549833191372
 30
0.0
 10
337.1746081772818
 20
199.3291793824356
 30
0.0
 10
337.1217841878998
 20
199.2956182740608
 30
0.0
 10
337.071986809678
 20
199.2537974481974
 30
0.0
 10
337.0243721970275
 20
199.2051459801912
 30
0.0
 10
336.97855077056
 20
199.1499107180352
 30
0.0
 10
336.9376069879871
 20
199.0864087121534
 30
0.0
 10
336.9010716690183
 20
199.0156845544863
 30
0.0
 10
336.8706938535039
 20
198.9370503202147
 30
0.0
 10
336.8460924486597
 20
198.8509578563533
 30
0.0
 10
336.8269146866324
 20
198.7574036068263
 30
0.0
 10
336.8139399681039
 20
198.6562625877437
 30
0.0
 10
336.8050841800197
 20
198.5477035947207
 30
0.0
 10
336.8041286089751
 20
198.4727557628511
 30
0.0
 10
336.8036363636364
 20
198.4341477272737
 30
0.0
  0
LINE
  5
2F7
330
1F
100
AcDbEntity
  8
0
  6
Continuous
 62
     7
370
    25
100
AcDbLine
 10
328.6814772727
 20
198.6145454545
 30
0.0
 11
328.3888636364
 21
199.5761931818
 31
0.0
  0
LINE
  5
2F8
330
1F
100
AcDbEntity
  8
0
  6
Continuous
 62
     7
370
    25
100
AcDbLine
 10
327.6978125
 20
198.6145454545
 30
0.0
 11
328.6814772727
 21
198.6145454545
 31
0.0
  0
LINE
  5
2F9
330
1F
100
AcDbEntity
  8
0
  6
Continuous
 62
     7
370
    25
100
AcDbLine
 10
328.0273579545
 20
199.6330113636
 30
0.0
 11
327.6978125
 21
198.6145454545
 31
0.0
  0
SPLINE
  5
2FA
330
1F
100
AcDbEntity
  8
0
  6
Continuous
 62
     7
370
    25
100
AcDbSpline
210
0.0
220
0.0
230
1.0
 70
     8
 71
     3
 72
    11
 73
     7
 74
     0
 42
0.000000001
 43
0.00000001
 40
0.0
 40
0.0
 40
0.0
 40
0.0
 40
0.2488751571872399
 40
0.4974197103002299
 40
0.7479413436558436
 40
1.0
 40
1.0
 40
1.0
 40
1.0
 10
328.19
 20
200.2956534090919
 30
0.0
 10
328.1797674509346
 20
200.2399326809714
 30
0.0
 10
328.1593159456527
 20
200.1285652437685
 30
0.0
 10
328.1209804049209
 20
199.9626628034118
 30
0.0
 10
328.0783309527736
 20
199.7970597399805
 30
0.0
 10
328.0443835606457
 20
199.6878055318065
 30
0.0
 10
328.0273579545454
 20
199.6330113636374
 30
0.0
  0
SPLINE
  5
2FB
330
1F
100
AcDbEntity
  8
0
  6
Continuous
 62
     7
370
    25
100
AcDbSpline
210
0.0
220
0.0
230
1.0
 70
     8
 71
     3
 72
    15
 73
    11
 74
     0
 42
0.000000001
 43
0.00000001
 40
0.0
 40
0.0
 40
0.0
 40
0.0
 40
0.1510739700527838
 40
0.2949499051911151
 40
0.4307193228074207
 40
0.559959533430788
 40
0.6813573798428272
 40
0.7944179911337578
 40
0.901243419818854
 40
1.0
 40
1.0
 40
1.0
 40
1.0
 10
328.3888636363637
 20
199.5761931818192
 30
0.0
 10
328.3779168869294
 20
199.6121612333522
 30
0.0
 10
328.3565449543148
 20
199.6823836110779
 30
0.0
 10
328.3262803488595
 20
199.78521078445
 30
0.0
 10
328.2972332046154
 20
199.8827404363456
 30
0.0
 10
328.272421346579
 20
199.9756528882255
 30
0.0
 10
328.2477489136641
 20
200.0627392579758
 30
0.0
 10
328.2264706193427
 20
200.1449686739713
 30
0.0
 10
328.2073698043693
 20
200.2219330391896
 30
0.0
 10
328.1956364277803
 20
200.2717314620131
 30
0.0
 10
328.19
 20
200.2956534090919
 30
0.0
  0
LINE
  5
2FC
330
1F
100
AcDbEntity
  8
0
  6
Continuous
 62
     7
370
    25
100
AcDbLine
 10
271.94
 20
237.16
 30
0.0
 11
271.94
 21
234.16
 31
0.0
  0
LINE
  5
2FD
330
1F
100
AcDbEntity
  8
0
  6
Continuous
 62
     7
370
    25
100
AcDbLine
 10
271.94
 20
237.16
 30
0.0
 11
348.94
 21
237.16
 31
0.0
  0
LINE
  5
2FE
330
1F
100
AcDbEntity
  8
0
  6
Continuous
 62
     7
370
    25
100
AcDbLine
 10
348.94
 20
237.16
 30
0.0
 11
348.94
 21
234.16
 31
0.0
  0
LINE
  5
2FF
330
1F
100
AcDbEntity
  8
0
  6
Continuous
 62
     7
370
    25
100
AcDbLine
 10
271.94
 20
192.16
 30
0.0
 11
348.94
 21
192.16
 31
0.0
  0
LINE
  5
300
330
1F
100
AcDbEntity
  8
0
  6
Continuous
 62
     7
370
    25
100
AcDbLine
 10
271.94
 20
195.16
 30
0.0
 11
271.94
 21
192.16
 31
0.0
  0
LINE
  5
301
330
1F
100
AcDbEntity
  8
0
  6
Continuous
 62
     7
370
    25
100
AcDbLine
 10
348.94
 20
195.16
 30
0.0
 11
348.94
 21
192.16
 31
0.0
  0
CIRCLE
  5
302
330
1F
100
AcDbEntity
  8
0
  6
Continuous
 62
     7
370
    25
100
AcDbCircle
 10
326.94
 20
214.66
 30
0.0
 40
2.0
  0
LINE
  5
303
330
1F
100
AcDbEntity
  8
0
  6
Continuous
 62
     8
370
    25
100
AcDbLine
 10
236.24
 20
242.66
 30
0.0
 11
236.24
 21
238.66
 31
0.0
  0
LINE
  5
304
330
1F
100
AcDbEntity
  8
0
  6
Continuous
 62
     8
370
    25
100
AcDbLine
 10
349.44
 20
230.66
 30
0.0
 11
349.44
 21
223.9873790531
 31
0.0
  0
LINE
  5
305
330
1F
100
AcDbEntity
  8
0
  6
Continuous
 62
     8
370
    25
100
AcDbLine
 10
349.44
 20
205.3326209469
 30
0.0
 11
349.44
 21
198.66
 31
0.0
  0
DIMENSION
  5
306
330
1F
100
AcDbEntity
  8
0
  6
Continuous
 62
     7
370
    18
100
AcDbDimension
  2
_D_6
 10
348.94
 20
183.7109374552
 30
0.0
 11
339.073269645
 21
183.7109374552
 31
0.0
 70
   160
  1
<>
 71
     2
 42
-1.0
  3
SLDDIMSTYLE0
100
AcDbAlignedDimension
 13
326.94
 23
214.66
 33
0.0
 14
348.94
 24
234.16
 34
0.0
100
AcDbRotatedDimension
  0
DIMENSION
  5
310
330
1F
100
AcDbEntity
  8
0
  6
Continuous
 62
     7
370
    18
100
AcDbDimension
  2
_D_7
 10
348.94
 20
176.16
 30
0.0
 11
315.7003521402
 21
176.16
 31
0.0
 70
   160
  1
<>
 71
     2
 42
-1.0
  3
SLDDIMSTYLE0
100
AcDbAlignedDimension
 13
271.94
 23
192.16
 33
0.0
 14
348.94
 24
237.16
 34
0.0
100
AcDbRotatedDimension
  0
DIMENSION
  5
31A
330
1F
100
AcDbEntity
  8
0
  6
Continuous
 62
     7
370
    18
100
AcDbDimension
  2
_D_8
 10
348.94
 20
242.5328525337
 30
0.0
 11
352.1572305961
 21
242.5328525337
 31
0.0
 70
   160
  1
<>
 71
     2
 42
-1.0
  3
SLDDIMSTYLE3
100
AcDbAlignedDimension
 13
355.44
 23
230.16
 33
0.0
 14
348.94
 24
237.16
 34
0.0
100
AcDbRotatedDimension
  0
DIMENSION
  5
328
330
1F
100
AcDbEntity
  8
0
  6
Continuous
 62
     7
370
    18
100
AcDbDimension
  2
_D_9
 10
317.4035969304
 20
207.66
 30
0.0
 11
317.4035969304
 21
211.8846723665
 31
0.0
 70
   160
  1
%%c<>
 71
     2
 42
-1.0
  3
SLDDIMSTYLE4
100
AcDbAlignedDimension
 13
326.94
 23
221.66
 33
0.0
 14
326.94
 24
207.66
 34
0.0
 50
90.0
100
AcDbRotatedDimension
  0
DIMENSION
  5
336
330
1F
100
AcDbEntity
  8
0
  6
Continuous
 62
     7
370
    18
100
AcDbDimension
  2
_D_10
 10
366.1781338199
 20
237.16
 30
0.0
 11
366.1781338199
 21
227.276904927
 31
0.0
 70
   160
  1
<>
 71
     2
 42
-1.0
  3
SLDDIMSTYLE3
100
AcDbAlignedDimension
 13
326.94
 23
214.66
 33
0.0
 14
348.94
 24
237.16
 34
0.0
 50
90.0
100
AcDbRotatedDimension
  0
INSERT
  5
34B
330
1F
100
AcDbEntity
  8
0
  6
Continuous
 62
     7
370
     0
100
AcDbBlockReference
  2
SW_CENTERMARKSYMBOL_9
 10
326.94
 20
214.66
 30
0.0
  0
LINE
  5
34C
330
1F
100
AcDbEntity
  8
0
  6
CENTERX2
 62
     7
370
    18
100
AcDbLine
 10
284.94
 20
235.16
 30
0.0
 11
284.94
 21
244.16
 31
0.0
  0
LINE
  5
34D
330
1F
100
AcDbEntity
  8
0
  6
CENTERX2
 62
     7
370
    18
100
AcDbLine
 10
298.54
 20
235.16
 30
0.0
 11
298.54
 21
244.16
 31
0.0
  0
LINE
  5
34E
330
1F
100
AcDbEntity
  8
0
  6
CENTERX2
 62
     7
370
    18
100
AcDbLine
 10
269.94
 20
214.66
 30
0.0
 11
350.94
 21
214.66
 31
0.0
  0
LINE
  5
34F
330
1F
100
AcDbEntity
  8
0
  6
CENTERX2
 62
     7
370
    18
100
AcDbLine
 10
356.94
 20
214.66
 30
0.0
 11
347.44
 21
214.66
 31
0.0
  0
LINE
  5
350
330
1F
100
AcDbEntity
  8
0
  6
CENTERX2
 62
     7
370
    18
100
AcDbLine
 10
379.94
 20
214.66
 30
0.0
 11
389.44
 21
214.66
 31
0.0
  0
ENDSEC
  0
SECTION
  2
OBJECTS
  0
DICTIONARY
  5
C
330
0
100
AcDbDictionary
281
     1
  3
ACAD_GROUP
350
D
  3
ACAD_LAYOUT
350
1A
  3
ACAD_MLINESTYLE
350
17
  3
ACAD_PLOTSETTINGS
350
19
  3
ACAD_PLOTSTYLENAME
350
E
  3
ACAD_SCALELIST
350
47
  0
DICTIONARY
  5
D
102
{ACAD_REACTORS
330
C
102
}
330
C
100
AcDbDictionary
281
     1
  0
DICTIONARY
  5
1A
102
{ACAD_REACTORS
330
C
102
}
330
C
100
AcDbDictionary
281
     1
  3
Layout1
350
1E
  3
Layout2
350
26
  3
Model
350
22
  0
DICTIONARY
  5
17
102
{ACAD_REACTORS
330
C
102
}
330
C
100
AcDbDictionary
281
     1
  3
Standard
350
18
  0
DICTIONARY
  5
19
102
{ACAD_REACTORS
330
C
102
}
330
C
100
AcDbDictionary
281
     1
  0
ACDBDICTIONARYWDFLT
  5
E
102
{ACAD_REACTORS
330
C
102
}
330
C
100
AcDbDictionary
281
     1
  3
Normal
350
F
100
AcDbDictionaryWithDefault
340
F
  0
DICTIONARY
  5
47
102
{ACAD_REACTORS
330
C
102
}
330
C
100
AcDbDictionary
281
     1
  3
A0
350
48
  3
A1
350
49
  3
A2
350
4A
  3
A3
350
4B
  3
A4
350
4C
  3
A5
350
4D
  3
A6
350
4E
  3
A7
350
4F
  3
A8
350
50
  3
A9
350
51
  3
B0
350
52
  3
B1
350
53
  3
B2
350
54
  3
B3
350
55
  3
B4
350
56
  3
B5
350
57
  3
B6
350
58
  3
B7
350
59
  3
B8
350
5A
  3
B9
350
5B
  3
C0
350
5C
  3
C1
350
5D
  3
C2
350
5E
  3
C3
350
5F
  3
C4
350
60
  3
C5
350
61
  3
C6
350
62
  3
C7
350
63
  3
C8
350
64
  3
C9
350
65
  3
D0
350
66
  3
D1
350
67
  3
D2
350
68
  0
LAYOUT
  5
1E
102
{ACAD_REACTORS
330
1A
102
}
330
1A
100
AcDbPlotSettings
  1

  2
none_device
  4

  6

 40
0.0
 41
0.0
 42
0.0
 43
0.0
 44
0.0
 45
0.0
 46
0.0
 47
0.0
 48
0.0
 49
0.0
140
0.0
141
0.0
142
1.0
143
1.0
 70
   688
 72
     1
 73
     0
 74
     5
  7

 75
    16
147
1.0
148
0.0
149
0.0
100
AcDbLayout
  1
Layout1
 70
     1
 71
     1
 10
0.0
 20
0.0
 11
420.0
 21
297.0
 12
0.0
 22
0.0
 32
0.0
 14
1.0000000000E+20
 24
1.0000000000E+20
 34
1.0000000000E+20
 15
-1.0000000000E+20
 25
-1.0000000000E+20
 35
-1.0000000000E+20
146
0.0
 13
0.0
 23
0.0
 33
0.0
 16
1.0
 26
0.0
 36
0.0
 17
0.0
 27
1.0
 37
0.0
 76
     0
330
1B
  0
LAYOUT
  5
26
102
{ACAD_REACTORS
330
1A
102
}
330
1A
100
AcDbPlotSettings
  1

  2
none_device
  4

  6

 40
0.0
 41
0.0
 42
0.0
 43
0.0
 44
0.0
 45
0.0
 46
0.0
 47
0.0
 48
0.0
 49
0.0
140
0.0
141
0.0
142
1.0
143
1.0
 70
   688
 72
     1
 73
     0
 74
     5
  7

 75
    16
147
1.0
148
0.0
149
0.0
100
AcDbLayout
  1
Layout2
 70
     1
 71
     2
 10
0.0
 20
0.0
 11
0.0
 21
0.0
 12
0.0
 22
0.0
 32
0.0
 14
0.0
 24
0.0
 34
0.0
 15
0.0
 25
0.0
 35
0.0
146
0.0
 13
0.0
 23
0.0
 33
0.0
 16
1.0
 26
0.0
 36
0.0
 17
0.0
 27
1.0
 37
0.0
 76
     0
330
23
  0
LAYOUT
  5
22
102
{ACAD_REACTORS
330
1A
102
}
330
1A
100
AcDbPlotSettings
  1

  2
none_device
  4
Letter_(8.50_x_11.00_Inches)
  6

 40
6.35
 41
6.35
 42
6.35000508
 43
6.35000508
 44
215.9
 45
279.4
 46
0.0
 47
0.0
 48
0.0
 49
0.0
140
0.0
141
0.0
142
1.0
143
1.0
 70
  1712
 72
     1
 73
     0
 74
     0
  7

 75
     0
147
1.0
148
0.0
149
0.0
100
AcDbLayout
  1
Model
 70
     1
 71
     0
 10
0.0
 20
0.0
 11
420.0
 21
297.0
 12
0.0
 22
0.0
 32
0.0
 14
0.0
 24
0.0
 34
0.0
 15
420.0
 25
297.0
 35
0.0
146
0.0
 13
0.0
 23
0.0
 33
0.0
 16
1.0
 26
0.0
 36
0.0
 17
0.0
 27
1.0
 37
0.0
 76
     0
330
1F
331
29
  0
MLINESTYLE
  5
18
102
{ACAD_REACTORS
330
17
102
}
330
17
100
AcDbMlineStyle
  2
Standard
 70
     0
  3

 62
   256
 51
90.0
 52
90.0
 71
     2
 49
0.5
 62
   256
  6
BYLAYER
 49
-0.5
 62
   256
  6
BYLAYER
  0
ACDBPLACEHOLDER
  5
F
102
{ACAD_REACTORS
330
E
102
}
330
E
  0
SCALE
  5
48
102
{ACAD_REACTORS
330
47
102
}
330
47
100
AcDbScale
 70
     0
300
1:1
140
1.0
141
1.0
290
     1
  0
SCALE
  5
49
102
{ACAD_REACTORS
330
47
102
}
330
47
100
AcDbScale
 70
     0
300
1:2
140
1.0
141
2.0
290
     0
  0
SCALE
  5
4A
102
{ACAD_REACTORS
330
47
102
}
330
47
100
AcDbScale
 70
     0
300
1:4
140
1.0
141
4.0
290
     0
  0
SCALE
  5
4B
102
{ACAD_REACTORS
330
47
102
}
330
47
100
AcDbScale
 70
     0
300
1:5
140
1.0
141
5.0
290
     0
  0
SCALE
  5
4C
102
{ACAD_REACTORS
330
47
102
}
330
47
100
AcDbScale
 70
     0
300
1:8
140
1.0
141
8.0
290
     0
  0
SCALE
  5
4D
102
{ACAD_REACTORS
330
47
102
}
330
47
100
AcDbScale
 70
     0
300
1:10
140
1.0
141
10.0
290
     0
  0
SCALE
  5
4E
102
{ACAD_REACTORS
330
47
102
}
330
47
100
AcDbScale
 70
     0
300
1:16
140
1.0
141
16.0
290
     0
  0
SCALE
  5
4F
102
{ACAD_REACTORS
330
47
102
}
330
47
100
AcDbScale
 70
     0
300
1:20
140
1.0
141
20.0
290
     0
  0
SCALE
  5
50
102
{ACAD_REACTORS
330
47
102
}
330
47
100
AcDbScale
 70
     0
300
1:30
140
1.0
141
30.0
290
     0
  0
SCALE
  5
51
102
{ACAD_REACTORS
330
47
102
}
330
47
100
AcDbScale
 70
     0
300
1:40
140
1.0
141
40.0
290
     0
  0
SCALE
  5
52
102
{ACAD_REACTORS
330
47
102
}
330
47
100
AcDbScale
 70
     0
300
1:50
140
1.0
141
50.0
290
     0
  0
SCALE
  5
53
102
{ACAD_REACTORS
330
47
102
}
330
47
100
AcDbScale
 70
     0
300
1:100
140
1.0
141
100.0
290
     0
  0
SCALE
  5
54
102
{ACAD_REACTORS
330
47
102
}
330
47
100
AcDbScale
 70
     0
300
2:1
140
2.0
141
1.0
290
     0
  0
SCALE
  5
55
102
{ACAD_REACTORS
330
47
102
}
330
47
100
AcDbScale
 70
     0
300
4:1
140
4.0
141
1.0
290
     0
  0
SCALE
  5
56
102
{ACAD_REACTORS
330
47
102
}
330
47
100
AcDbScale
 70
     0
300
8:1
140
8.0
141
1.0
290
     0
  0
SCALE
  5
57
102
{ACAD_REACTORS
330
47
102
}
330
47
100
AcDbScale
 70
     0
300
10:1
140
10.0
141
1.0
290
     0
  0
SCALE
  5
58
102
{ACAD_REACTORS
330
47
102
}
330
47
100
AcDbScale
 70
     0
300
100:1
140
100.0
141
1.0
290
     0
  0
SCALE
  5
59
102
{ACAD_REACTORS
330
47
102
}
330
47
100
AcDbScale
 70
     0
300
1/128" = 1'-0"
140
0.0078125
141
12.0
290
     0
  0
SCALE
  5
5A
102
{ACAD_REACTORS
330
47
102
}
330
47
100
AcDbScale
 70
     0
300
1/64" = 1'-0"
140
0.015625
141
12.0
290
     0
  0
SCALE
  5
5B
102
{ACAD_REACTORS
330
47
102
}
330
47
100
AcDbScale
 70
     0
300
1/32" = 1'-0"
140
0.03125
141
12.0
290
     0
  0
SCALE
  5
5C
102
{ACAD_REACTORS
330
47
102
}
330
47
100
AcDbScale
 70
     0
300
1/16" = 1'-0"
140
0.0625
141
12.0
290
     0
  0
SCALE
  5
5D
102
{ACAD_REACTORS
330
47
102
}
330
47
100
AcDbScale
 70
     0
300
3/32" = 1'-0"
140
0.09375
141
12.0
290
     0
  0
SCALE
  5
5E
102
{ACAD_REACTORS
330
47
102
}
330
47
100
AcDbScale
 70
     0
300
1/8" = 1'-0"
140
0.125
141
12.0
290
     0
  0
SCALE
  5
5F
102
{ACAD_REACTORS
330
47
102
}
330
47
100
AcDbScale
 70
     0
300
3/16" = 1'-0"
140
0.1875
141
12.0
290
     0
  0
SCALE
  5
60
102
{ACAD_REACTORS
330
47
102
}
330
47
100
AcDbScale
 70
     0
300
1/4" = 1'-0"
140
0.25
141
12.0
290
     0
  0
SCALE
  5
61
102
{ACAD_REACTORS
330
47
102
}
330
47
100
AcDbScale
 70
     0
300
3/8" = 1'-0"
140
0.375
141
12.0
290
     0
  0
SCALE
  5
62
102
{ACAD_REACTORS
330
47
102
}
330
47
100
AcDbScale
 70
     0
300
1/2" = 1'-0"
140
0.5
141
12.0
290
     0
  0
SCALE
  5
63
102
{ACAD_REACTORS
330
47
102
}
330
47
100
AcDbScale
 70
     0
300
3/4" = 1'-0"
140
0.75
141
12.0
290
     0
  0
SCALE
  5
64
102
{ACAD_REACTORS
330
47
102
}
330
47
100
AcDbScale
 70
     0
300
1" = 1'-0"
140
1.0
141
12.0
290
     0
  0
SCALE
  5
65
102
{ACAD_REACTORS
330
47
102
}
330
47
100
AcDbScale
 70
     0
300
1-1/2" = 1'-0"
140
1.5
141
12.0
290
     0
  0
SCALE
  5
66
102
{ACAD_REACTORS
330
47
102
}
330
47
100
AcDbScale
 70
     0
300
3" = 1'-0"
140
3.0
141
12.0
290
     0
  0
SCALE
  5
67
102
{ACAD_REACTORS
330
47
102
}
330
47
100
AcDbScale
 70
     0
300
6" = 1'-0"
140
6.0
141
12.0
290
     0
  0
SCALE
  5
68
102
{ACAD_REACTORS
330
47
102
}
330
47
100
AcDbScale
 70
     0
300
1'-0" = 1'-0"
140
12.0
141
12.0
290
     0
  0
ENDSEC
  0
EOF
