  0
SECTION
  2
HEADER
  9
$ACADVER
  1
AC1015
  9
$ACADMAINTVER
 70
     6
  9
$DWGCODEPAGE
  3
ANSI_1250
  9
$INSBASE
 10
0.0
 20
0.0
 30
0.0
  9
$EXTMIN
 10
0.0
 20
0.0
 30
0.0
  9
$EXTMAX
 10
420.0
 20
297.0
 30
0.0
  9
$LIMMIN
 10
0.0
 20
0.0
  9
$LIMMAX
 10
420.0
 20
297.0
  9
$ORTHOMODE
 70
     0
  9
$REGENMODE
 70
     1
  9
$FILLMODE
 70
     1
  9
$QTEXTMODE
 70
     0
  9
$MIRRTEXT
 70
     1
  9
$LTSCALE
 40
1.0
  9
$ATTMODE
 70
     1
  9
$TEXTSIZE
 40
3.5
  9
$TRACEWID
 40
1.0
  9
$TEXTSTYLE
  7
Standard
  9
$CLAYER
  8
0
  9
$CELTYPE
  6
ByLayer
  9
$CECOLOR
 62
   256
  9
$CELTSCALE
 40
1.0
  9
$DISPSILH
 70
     0
  9
$DIMSCALE
 40
1.0
  9
$DIMASZ
 40
3.302
  9
$DIMEXO
 40
1.0
  9
$DIMDLI
 40
3.75
  9
$DIMRND
 40
0.0
  9
$DIMDLE
 40
0.0
  9
$DIMEXE
 40
1.0
  9
$DIMTP
 40
0.0
  9
$DIMTM
 40
0.0
  9
$DIMTXT
 40
3.5
  9
$DIMCEN
 40
2.5
  9
$DIMTSZ
 40
0.0
  9
$DIMTOL
 70
     0
  9
$DIMLIM
 70
     0
  9
$DIMTIH
 70
     1
  9
$DIMTOH
 70
     1
  9
$DIMSE1
 70
     0
  9
$DIMSE2
 70
     0
  9
$DIMTAD
 70
     1
  9
$DIMZIN
 70
     1
  9
$DIMBLK
  1

  9
$DIMASO
 70
     1
  9
$DIMSHO
 70
     1
  9
$DIMPOST
  1

  9
$DIMAPOST
  1

  9
$DIMALT
 70
     0
  9
$DIMALTD
 70
     3
  9
$DIMALTF
 40
0.0393700787
  9
$DIMLFAC
 40
1.0
  9
$DIMTOFL
 70
     1
  9
$DIMTVP
 40
0.0
  9
$DIMTIX
 70
     0
  9
$DIMSOXD
 70
     0
  9
$DIMSAH
 70
     0
  9
$DIMBLK1
  1

  9
$DIMBLK2
  1

  9
$DIMSTYLE
  2
ISO-25
  9
$DIMCLRD
 70
     0
  9
$DIMCLRE
 70
     0
  9
$DIMCLRT
 70
     0
  9
$DIMTFAC
 40
1.0
  9
$DIMGAP
 40
1.524
  9
$DIMJUST
 70
     0
  9
$DIMSD1
 70
     0
  9
$DIMSD2
 70
     0
  9
$DIMTOLJ
 70
     0
  9
$DIMTZIN
 70
     1
  9
$DIMALTZ
 70
     0
  9
$DIMALTTZ
 70
     0
  9
$DIMUPT
 70
     0
  9
$DIMDEC
 70
     2
  9
$DIMTDEC
 70
     2
  9
$DIMALTU
 70
     2
  9
$DIMALTTD
 70
     3
  9
$DIMTXSTY
  7
Standard
  9
$DIMAUNIT
 70
     0
  9
$DIMADEC
 70
     2
  9
$DIMALTRND
 40
0.0
  9
$DIMAZIN
 70
     0
  9
$DIMDSEP
 70
    44
  9
$DIMATFIT
 70
     3
  9
$DIMFRAC
 70
     0
  9
$DIMLDRBLK
  1

  9
$DIMLUNIT
 70
     2
  9
$DIMLWD
 70
    -2
  9
$DIMLWE
 70
    -2
  9
$DIMTMOVE
 70
     0
  9
$LUNITS
 70
     2
  9
$LUPREC
 70
     2
  9
$SKETCHINC
 40
1.0
  9
$FILLETRAD
 40
10.0
  9
$AUNITS
 70
     0
  9
$AUPREC
 70
     2
  9
$MENU
  1
.
  9
$ELEVATION
 40
0.0
  9
$PELEVATION
 40
0.0
  9
$THICKNESS
 40
0.0
  9
$LIMCHECK
 70
     0
  9
$CHAMFERA
 40
0.0
  9
$CHAMFERB
 40
0.0
  9
$CHAMFERC
 40
0.0
  9
$CHAMFERD
 40
0.0
  9
$SKPOLY
 70
     0
  9
$TDCREATE
 40
2460659.745843877
  9
$TDUCREATE
 40
2460659.704177211
  9
$TDUPDATE
 40
2460659.745846227
  9
$TDUUPDATE
 40
2460659.70417956
  9
$TDINDWG
 40
0.0000000116
  9
$TDUSRTIMER
 40
0.0000000116
  9
$USRTIMER
 70
     1
  9
$ANGBASE
 50
0.0
  9
$ANGDIR
 70
     0
  9
$PDMODE
 70
     0
  9
$PDSIZE
 40
-1.0
  9
$PLINEWID
 40
0.0
  9
$SPLFRAME
 70
     0
  9
$SPLINETYPE
 70
     6
  9
$SPLINESEGS
 70
     8
  9
$HANDSEED
  5
334
  9
$SURFTAB1
 70
     6
  9
$SURFTAB2
 70
     6
  9
$SURFTYPE
 70
     6
  9
$SURFU
 70
     6
  9
$SURFV
 70
     6
  9
$UCSBASE
  2

  9
$UCSNAME
  2

  9
$UCSORG
 10
0.0
 20
0.0
 30
0.0
  9
$UCSXDIR
 10
1.0
 20
0.0
 30
0.0
  9
$UCSYDIR
 10
0.0
 20
1.0
 30
0.0
  9
$UCSORTHOREF
  2

  9
$UCSORTHOVIEW
 70
     0
  9
$UCSORGTOP
 10
0.0
 20
0.0
 30
0.0
  9
$UCSORGBOTTOM
 10
0.0
 20
0.0
 30
0.0
  9
$UCSORGLEFT
 10
0.0
 20
0.0
 30
0.0
  9
$UCSORGRIGHT
 10
0.0
 20
0.0
 30
0.0
  9
$UCSORGFRONT
 10
0.0
 20
0.0
 30
0.0
  9
$UCSORGBACK
 10
0.0
 20
0.0
 30
0.0
  9
$PUCSBASE
  2

  9
$PUCSNAME
  2

  9
$PUCSORG
 10
0.0
 20
0.0
 30
0.0
  9
$PUCSXDIR
 10
1.0
 20
0.0
 30
0.0
  9
$PUCSYDIR
 10
0.0
 20
1.0
 30
0.0
  9
$PUCSORTHOREF
  2

  9
$PUCSORTHOVIEW
 70
     0
  9
$PUCSORGTOP
 10
0.0
 20
0.0
 30
0.0
  9
$PUCSORGBOTTOM
 10
0.0
 20
0.0
 30
0.0
  9
$PUCSORGLEFT
 10
0.0
 20
0.0
 30
0.0
  9
$PUCSORGRIGHT
 10
0.0
 20
0.0
 30
0.0
  9
$PUCSORGFRONT
 10
0.0
 20
0.0
 30
0.0
  9
$PUCSORGBACK
 10
0.0
 20
0.0
 30
0.0
  9
$USERI1
 70
     0
  9
$USERI2
 70
     0
  9
$USERI3
 70
     0
  9
$USERI4
 70
     0
  9
$USERI5
 70
     0
  9
$USERR1
 40
0.0
  9
$USERR2
 40
0.0
  9
$USERR3
 40
0.0
  9
$USERR4
 40
0.0
  9
$USERR5
 40
0.0
  9
$WORLDVIEW
 70
     1
  9
$SHADEDGE
 70
     3
  9
$SHADEDIF
 70
    70
  9
$TILEMODE
 70
     1
  9
$MAXACTVP
 70
    64
  9
$PINSBASE
 10
0.0
 20
0.0
 30
0.0
  9
$PLIMCHECK
 70
     0
  9
$PEXTMIN
 10
1.0000000000E+20
 20
1.0000000000E+20
 30
1.0000000000E+20
  9
$PEXTMAX
 10
-1.0000000000E+20
 20
-1.0000000000E+20
 30
-1.0000000000E+20
  9
$PLIMMIN
 10
0.0
 20
0.0
  9
$PLIMMAX
 10
420.0
 20
297.0
  9
$UNITMODE
 70
     0
  9
$VISRETAIN
 70
     1
  9
$PLINEGEN
 70
     0
  9
$PSLTSCALE
 70
     1
  9
$TREEDEPTH
 70
  3020
  9
$CMLSTYLE
  2
Standard
  9
$CMLJUST
 70
     0
  9
$CMLSCALE
 40
20.0
  9
$PROXYGRAPHICS
 70
     1
  9
$MEASUREMENT
 70
     1
  9
$CELWEIGHT
370
    -1
  9
$ENDCAPS
280
     0
  9
$JOINSTYLE
280
     0
  9
$LWDISPLAY
290
     1
  9
$INSUNITS
 70
     4
  9
$HYPERLINKBASE
  1

  9
$STYLESHEET
  1

  9
$XEDIT
290
     1
  9
$CEPSNTYPE
380
     0
  9
$PSTYLEMODE
290
     1
  9
$FINGERPRINTGUID
  2
{dd8d1335-bf1e-4fc8-8c11-1ec64ab7809b}
  9
$VERSIONGUID
  2
{FAEB1C32-E019-11D5-929B-00C0DF256EC4}
  9
$EXTNAMES
290
     1
  9
$PSVPSCALE
 40
0.0
  9
$OLESTARTUP
290
     0
  0
ENDSEC
  0
SECTION
  2
CLASSES
  0
CLASS
  1
ACDBDICTIONARYWDFLT
  2
AcDbDictionaryWithDefault
  3
ObjectDBX Classes
 90
        0
280
     0
281
     0
  0
CLASS
  1
VISUALSTYLE
  2
AcDbVisualStyle
  3
ObjectDBX Classes
 90
     4095
280
     0
281
     0
  0
CLASS
  1
MATERIAL
  2
AcDbMaterial
  3
ObjectDBX Classes
 90
     1153
280
     0
281
     0
  0
CLASS
  1
SCALE
  2
AcDbScale
  3
ObjectDBX Classes
 90
     1153
280
     0
281
     0
  0
CLASS
  1
TABLESTYLE
  2
AcDbTableStyle
  3
ObjectDBX Classes
 90
     4095
280
     0
281
     0
  0
CLASS
  1
MLEADERSTYLE
  2
AcDbMLeaderStyle
  3
ACDB_MLEADERSTYLE_CLASS
 90
     4095
280
     0
281
     0
  0
CLASS
  1
SUN
  2
AcDbSun
  3
SCENEOE
 90
     1153
280
     0
281
     0
  0
CLASS
  1
ACDBPLACEHOLDER
  2
AcDbPlaceHolder
  3
ObjectDBX Classes
 90
        0
280
     0
281
     0
  0
CLASS
  1
LAYOUT
  2
AcDbLayout
  3
ObjectDBX Classes
 90
        0
280
     0
281
     0
  0
ENDSEC
  0
SECTION
  2
TABLES
  0
TABLE
  2
VPORT
  5
8
330
0
100
AcDbSymbolTable
 70
     1
  0
VPORT
  5
29
330
8
100
AcDbSymbolTableRecord
100
AcDbViewportTableRecord
  2
*Active
 70
     0
 10
0.0
 20
0.0
 11
1.0
 21
1.0
 12
210.0
 22
148.5
 13
0.0
 23
0.0
 14
10.0
 24
10.0
 15
10.0
 25
10.0
 16
0.0
 26
0.0
 36
1.0
 17
0.0
 27
0.0
 37
0.0
 40
297.0
 41
1.4141414141
 42
50.0
 43
0.0
 44
0.0
 50
0.0
 51
0.0
 71
     0
 72
  2000
 73
     1
 74
     3
 75
     0
 76
     0
 77
     0
 78
     0
281
     0
 65
     1
110
0.0
120
0.0
130
0.0
111
1.0
121
0.0
131
0.0
112
0.0
122
1.0
132
0.0
 79
     0
146
0.0
  0
ENDTAB
  0
TABLE
  2
LTYPE
  5
5
330
0
100
AcDbSymbolTable
 70
     6
  0
LTYPE
  5
14
330
5
100
AcDbSymbolTableRecord
100
AcDbLinetypeTableRecord
  2
ByBlock
 70
     0
  3

 72
    65
 73
     0
 40
0.0
  0
LTYPE
  5
15
330
5
100
AcDbSymbolTableRecord
100
AcDbLinetypeTableRecord
  2
ByLayer
 70
     0
  3

 72
    65
 73
     0
 40
0.0
  0
LTYPE
  5
16
330
5
100
AcDbSymbolTableRecord
100
AcDbLinetypeTableRecord
  2
Continuous
 70
     0
  3
Solid line
 72
    65
 73
     0
 40
0.0
  0
LTYPE
  5
6E
330
5
100
AcDbSymbolTableRecord
100
AcDbLinetypeTableRecord
  2
HIDDEN
 70
     0
  3
Hidden __ __ __ __ __ __ __ __ __ __ __ __ __ __
 72
    65
 73
     2
 40
1.905
 49
1.27
 74
     0
 49
-0.635
 74
     0
  0
LTYPE
  5
6F
330
5
100
AcDbSymbolTableRecord
100
AcDbLinetypeTableRecord
  2
PHANTOM
 70
     0
  3
Phantom ______  __  __  ______  __  __  ______
 72
    65
 73
     6
 40
12.7
 49
6.35
 74
     0
 49
-1.27
 74
     0
 49
1.27
 74
     0
 49
-1.27
 74
     0
 49
1.27
 74
     0
 49
-1.27
 74
     0
  0
LTYPE
  5
70
330
5
100
AcDbSymbolTableRecord
100
AcDbLinetypeTableRecord
  2
CENTER
 70
     0
  3
Center ____ _ ____ _ ____ _ ____ _ ____ _ ____
 72
    65
 73
     4
 40
10.16
 49
6.35
 74
     0
 49
-1.27
 74
     0
 49
1.27
 74
     0
 49
-1.27
 74
     0
  0
LTYPE
  5
71
330
5
100
AcDbSymbolTableRecord
100
AcDbLinetypeTableRecord
  2
CENTERX2
 70
     0
  3
Center (2x) ________  __  ________  __  _____
 72
    65
 73
     4
 40
20.32
 49
12.7
 74
     0
 49
-2.54
 74
     0
 49
2.54
 74
     0
 49
-2.54
 74
     0
  0
LTYPE
  5
72
330
5
100
AcDbSymbolTableRecord
100
AcDbLinetypeTableRecord
  2
DOT2
 70
     0
  3
Dot (.5x) ........................................
 72
    65
 73
     2
 40
0.635
 49
0.0
 74
     0
 49
-0.635
 74
     0
  0
ENDTAB
  0
TABLE
  2
LAYER
  5
2
330
0
100
AcDbSymbolTable
 70
     2
  0
LAYER
  5
10
330
2
100
AcDbSymbolTableRecord
100
AcDbLayerTableRecord
  2
0
 70
     0
 62
     7
  6
Continuous
370
    -3
390
F
  0
LAYER
  5
73
330
2
100
AcDbSymbolTableRecord
100
AcDbLayerTableRecord
  2
FORMAT
 70
     0
 62
     7
  6
Continuous
370
    -3
390
F
  0
ENDTAB
  0
TABLE
  2
STYLE
  5
3
330
0
100
AcDbSymbolTable
 70
     4
  0
STYLE
  5
11
330
3
100
AcDbSymbolTableRecord
100
AcDbTextStyleTableRecord
  2
Standard
 70
     0
 40
0.0
 41
1.0
 50
0.0
 71
     0
 42
3.5
  3
txt
  4

  0
STYLE
  5
B1
330
3
100
AcDbSymbolTableRecord
100
AcDbTextStyleTableRecord
  2
SLDTEXTSTYLE0
 70
     0
 40
0.0
 41
0.75
 50
0.0
 71
     0
 42
3.5
  3
TXT
  4

  0
STYLE
  5
B5
330
3
100
AcDbSymbolTableRecord
100
AcDbTextStyleTableRecord
  2
SLDTEXTSTYLE1
 70
     0
 40
0.0
 41
0.6875
 50
0.0
 71
     0
 42
3.5
  3
TXT
  4
bigfont
  0
STYLE
  5
B7
330
3
100
AcDbSymbolTableRecord
100
AcDbTextStyleTableRecord
  2
SLDTEXTSTYLE2
 70
     0
 40
0.0
 41
0.75
 50
0.0
 71
     0
 42
3.5
  3
TXT
  4
bigfont
  0
ENDTAB
  0
TABLE
  2
VIEW
  5
6
330
0
100
AcDbSymbolTable
 70
     0
  0
ENDTAB
  0
TABLE
  2
UCS
  5
7
330
0
100
AcDbSymbolTable
 70
     0
  0
ENDTAB
  0
TABLE
  2
APPID
  5
9
330
0
100
AcDbSymbolTable
 70
     1
  0
APPID
  5
12
330
9
100
AcDbSymbolTableRecord
100
AcDbRegAppTableRecord
  2
ACAD
 70
     0
  0
ENDTAB
  0
TABLE
  2
DIMSTYLE
  5
A
330
0
100
AcDbSymbolTable
 70
     7
100
AcDbDimStyleTable
  0
DIMSTYLE
105
27
330
A
100
AcDbSymbolTableRecord
100
AcDbDimStyleTableRecord
  2
ISO-25
 70
     0
 41
2.5
 42
0.625
 43
3.75
 44
1.25
 73
     0
 74
     0
 77
     1
 78
     8
140
2.5
141
2.5
143
0.0393700787
147
0.625
171
     3
172
     1
178
     0
271
     2
272
     2
274
     3
278
    44
283
     0
284
     8
340
11
  0
DIMSTYLE
105
12B
102
{ACAD_REACTORS
330
12A
330
140
330
14A
330
2EA
330
2F4
102
}
330
A
100
AcDbSymbolTableRecord
100
AcDbDimStyleTableRecord
  2
SLDDIMSTYLE0
 70
     0
 41
3.302
 44
0.0
 45
0.000000001
 73
     0
 74
     0
 77
     1
 78
    12
 79
     3
140
3.5
147
0.875
173
     1
178
     0
271
     0
272
     0
276
     2
284
    12
340
B1
  0
DIMSTYLE
105
136
102
{ACAD_REACTORS
330
135
102
}
330
A
100
AcDbSymbolTableRecord
100
AcDbDimStyleTableRecord
  2
SLDDIMSTYLE1
 70
     0
 41
3.302
 44
0.0
 45
0.000000001
 73
     0
 74
     0
 77
     1
 78
    12
 79
     3
140
3.5
147
0.875
173
     1
178
     0
271
     0
272
     2
276
     2
284
    12
340
B1
  0
DIMSTYLE
105
155
102
{ACAD_REACTORS
330
154
330
161
102
}
330
A
100
AcDbSymbolTableRecord
100
AcDbDimStyleTableRecord
  2
SLDDIMSTYLE2
 70
     0
 41
3.302
 44
0.0
 45
0.000000001
 73
     0
 74
     0
 77
     1
 78
    12
 79
     3
140
3.5
141
0.0
147
0.875
172
     1
173
     1
178
     0
271
     0
272
     0
276
     2
284
    12
340
B1
341
156
343
156
  0
DIMSTYLE
105
2FF
102
{ACAD_REACTORS
330
2FE
102
}
330
A
100
AcDbSymbolTableRecord
100
AcDbDimStyleTableRecord
  2
SLDDIMSTYLE3
 70
     0
 41
3.302
 44
0.0
 45
0.000000001
 73
     0
 74
     0
 77
     1
 78
    12
 79
     3
140
3.5
147
0.875
172
     1
173
     1
178
     0
271
     1
272
     1
276
     2
284
    12
289
     0
340
B1
  0
DIMSTYLE
105
30B
102
{ACAD_REACTORS
330
30A
102
}
330
A
100
AcDbSymbolTableRecord
100
AcDbDimStyleTableRecord
  2
SLDDIMSTYLE4
 70
     0
 41
3.302
 44
0.0
 45
0.000000001
 73
     0
 74
     0
 77
     1
 78
    12
 79
     3
140
3.5
147
0.875
172
     1
173
     1
178
     0
271
     0
272
     0
276
     2
284
    12
289
     0
340
B1
  0
DIMSTYLE
105
319
102
{ACAD_REACTORS
330
318
102
}
330
A
100
AcDbSymbolTableRecord
100
AcDbDimStyleTableRecord
  2
SLDDIMSTYLE5
 70
     0
 41
3.302
 44
0.0
 45
0.000000001
 73
     0
 74
     0
 77
     1
 78
    12
 79
     3
140
3.5
147
0.875
173
     1
178
     0
271
     1
272
     1
276
     2
284
    12
340
B1
  0
ENDTAB
  0
TABLE
  2
BLOCK_RECORD
  5
1
330
0
100
AcDbSymbolTable
 70
    25
  0
BLOCK_RECORD
  5
1F
330
1
100
AcDbSymbolTableRecord
100
AcDbBlockTableRecord
  2
*Model_Space
340
22
  0
BLOCK_RECORD
  5
1B
330
1
100
AcDbSymbolTableRecord
100
AcDbBlockTableRecord
  2
*Paper_Space
340
1E
  0
BLOCK_RECORD
  5
23
330
1
100
AcDbSymbolTableRecord
100
AcDbBlockTableRecord
  2
*Paper_Space0
340
26
  0
BLOCK_RECORD
  5
C1
330
1
100
AcDbSymbolTableRecord
100
AcDbBlockTableRecord
  2
SW_NOTE_0
340
0
102
{BLKREFS
331
C6
102
}
  0
BLOCK_RECORD
  5
C8
330
1
100
AcDbSymbolTableRecord
100
AcDbBlockTableRecord
  2
SW_NOTE_0_1
340
0
102
{BLKREFS
331
D1
102
}
  0
BLOCK_RECORD
  5
12C
330
1
100
AcDbSymbolTableRecord
100
AcDbBlockTableRecord
  2
_D
340
0
  0
BLOCK_RECORD
  5
137
330
1
100
AcDbSymbolTableRecord
100
AcDbBlockTableRecord
  2
_D_1
340
0
  0
BLOCK_RECORD
  5
141
330
1
100
AcDbSymbolTableRecord
100
AcDbBlockTableRecord
  2
_D_2
340
0
  0
BLOCK_RECORD
  5
14B
330
1
100
AcDbSymbolTableRecord
100
AcDbBlockTableRecord
  2
_D_3
340
0
  0
BLOCK_RECORD
  5
156
330
1
100
AcDbSymbolTableRecord
100
AcDbBlockTableRecord
  2
_None
340
0
  0
BLOCK_RECORD
  5
159
330
1
100
AcDbSymbolTableRecord
100
AcDbBlockTableRecord
  2
_D_4
340
0
  0
BLOCK_RECORD
  5
162
330
1
100
AcDbSymbolTableRecord
100
AcDbBlockTableRecord
  2
_D_5
340
0
  0
BLOCK_RECORD
  5
16C
330
1
100
AcDbSymbolTableRecord
100
AcDbBlockTableRecord
  2
SW_CENTERMARKSYMBOL_0
340
0
102
{BLKREFS
331
177
102
}
  0
BLOCK_RECORD
  5
178
330
1
100
AcDbSymbolTableRecord
100
AcDbBlockTableRecord
  2
SW_CENTERMARKSYMBOL_1
340
0
102
{BLKREFS
331
183
102
}
  0
BLOCK_RECORD
  5
184
330
1
100
AcDbSymbolTableRecord
100
AcDbBlockTableRecord
  2
SW_CENTERMARKSYMBOL_2
340
0
102
{BLKREFS
331
18F
102
}
  0
BLOCK_RECORD
  5
190
330
1
100
AcDbSymbolTableRecord
100
AcDbBlockTableRecord
  2
SW_CENTERMARKSYMBOL_3
340
0
102
{BLKREFS
331
19B
102
}
  0
BLOCK_RECORD
  5
19C
330
1
100
AcDbSymbolTableRecord
100
AcDbBlockTableRecord
  2
SW_CENTERMARKSYMBOL_4
340
0
102
{BLKREFS
331
1A7
102
}
  0
BLOCK_RECORD
  5
1C6
330
1
100
AcDbSymbolTableRecord
100
AcDbBlockTableRecord
  2
SW_CENTERMARKSYMBOL_5
340
0
102
{BLKREFS
331
1D1
102
}
  0
BLOCK_RECORD
  5
1D2
330
1
100
AcDbSymbolTableRecord
100
AcDbBlockTableRecord
  2
SW_CENTERMARKSYMBOL_6
340
0
102
{BLKREFS
331
1DD
102
}
  0
BLOCK_RECORD
  5
1DE
330
1
100
AcDbSymbolTableRecord
100
AcDbBlockTableRecord
  2
SW_CENTERMARKSYMBOL_7
340
0
102
{BLKREFS
331
1E9
102
}
  0
BLOCK_RECORD
  5
1EA
330
1
100
AcDbSymbolTableRecord
100
AcDbBlockTableRecord
  2
SW_CENTERMARKSYMBOL_8
340
0
102
{BLKREFS
331
1F5
102
}
  0
BLOCK_RECORD
  5
2EB
330
1
100
AcDbSymbolTableRecord
100
AcDbBlockTableRecord
  2
_D_6
340
0
  0
BLOCK_RECORD
  5
2F5
330
1
100
AcDbSymbolTableRecord
100
AcDbBlockTableRecord
  2
_D_7
340
0
  0
BLOCK_RECORD
  5
300
330
1
100
AcDbSymbolTableRecord
100
AcDbBlockTableRecord
  2
_D_8
340
0
  0
BLOCK_RECORD
  5
30C
330
1
100
AcDbSymbolTableRecord
100
AcDbBlockTableRecord
  2
_D_9
340
0
  0
BLOCK_RECORD
  5
31A
330
1
100
AcDbSymbolTableRecord
100
AcDbBlockTableRecord
  2
_D_10
340
0
  0
BLOCK_RECORD
  5
323
330
1
100
AcDbSymbolTableRecord
100
AcDbBlockTableRecord
  2
SW_CENTERMARKSYMBOL_9
340
0
102
{BLKREFS
331
32E
102
}
  0
ENDTAB
  0
ENDSEC
  0
SECTION
  2
BLOCKS
  0
BLOCK
  5
20
330
1F
100
AcDbEntity
  8
0
100
AcDbBlockBegin
  2
*Model_Space
 70
     0
 10
0.0
 20
0.0
 30
0.0
  3
*Model_Space
  1

  0
ENDBLK
  5
21
330
1F
100
AcDbEntity
  8
0
100
AcDbBlockEnd
  0
BLOCK
  5
1C
330
1B
100
AcDbEntity
 67
     1
  8
0
100
AcDbBlockBegin
  2
*Paper_Space
 70
     0
 10
0.0
 20
0.0
 30
0.0
  3
*Paper_Space
  1

  0
ENDBLK
  5
1D
330
1B
100
AcDbEntity
 67
     1
  8
0
100
AcDbBlockEnd
  0
BLOCK
  5
24
330
23
100
AcDbEntity
  8
0
100
AcDbBlockBegin
  2
*Paper_Space0
 70
     0
 10
0.0
 20
0.0
 30
0.0
  3
*Paper_Space0
  1

  0
ENDBLK
  5
25
330
23
100
AcDbEntity
  8
0
100
AcDbBlockEnd
  0
BLOCK
  5
C2
330
C1
100
AcDbEntity
  8
0
100
AcDbBlockBegin
  2
SW_NOTE_0
 70
     0
 10
0.0
 20
0.0
 30
0.0
  3
SW_NOTE_0
  1

  0
MTEXT
  5
C4
330
C1
100
AcDbEntity
  8
0
  6
Continuous
 62
     0
370
     0
100
AcDbMText
 10
0.0
 20
1.9336016097
 30
0.0
 40
1.5
 41
0.0
 71
     1
 72
     1
  1
ODSTRANIT
  7
SLDTEXTSTYLE0
 73
     1
 44
1.0
  0
MTEXT
  5
C5
330
C1
100
AcDbEntity
  8
0
  6
Continuous
 62
     0
370
     0
100
AcDbMText
 10
0.0
 20
-0.5663983345
 30
0.0
 40
1.5
 41
0.0
 71
     1
 72
     1
  1
OSTRÉ HRANY
  7
SLDTEXTSTYLE0
 73
     1
 44
1.0
  0
ENDBLK
  5
C3
330
C1
100
AcDbEntity
  8
0
100
AcDbBlockEnd
  0
BLOCK
  5
C9
330
C8
100
AcDbEntity
  8
0
100
AcDbBlockBegin
  2
SW_NOTE_0_1
 70
     0
 10
0.0
 20
0.0
 30
0.0
  3
SW_NOTE_0_1
  1

  0
MTEXT
  5
CB
330
C8
100
AcDbEntity
  8
0
  6
Continuous
 62
     0
370
     0
100
AcDbMText
 10
0.0
 20
1.9336016097
 30
0.0
 40
1.5
 41
0.0
 71
     1
 72
     1
  1
POKUD NENÍ UVEDENO JINAK:
  7
SLDTEXTSTYLE0
 73
     1
 44
1.0
  0
MTEXT
  5
CC
330
C8
100
AcDbEntity
  8
0
  6
Continuous
 62
     0
370
     0
100
AcDbMText
 10
0.0
 20
-0.5663983345
 30
0.0
 40
1.5
 41
0.0
 71
     1
 72
     1
  1
JEDNOTKY JSOU V MILIMETRECH
  7
SLDTEXTSTYLE0
 73
     1
 44
1.0
  0
MTEXT
  5
CD
330
C8
100
AcDbEntity
  8
0
  6
Continuous
 62
     0
370
     0
100
AcDbMText
 10
0.0
 20
-3.0663982786
 30
0.0
 40
1.5
 41
0.0
 71
     1
 72
     1
  1
DRSNOST:
  7
SLDTEXTSTYLE0
 73
     1
 44
1.0
  0
MTEXT
  5
CE
330
C8
100
AcDbEntity
  8
0
  6
Continuous
 62
     0
370
     0
100
AcDbMText
 10
0.0
 20
-5.5663982227
 30
0.0
 40
1.5
 41
0.0
 71
     1
 72
     1
  1
TOLERANCE:
  7
SLDTEXTSTYLE0
 73
     1
 44
1.0
  0
MTEXT
  5
CF
330
C8
100
AcDbEntity
  8
0
  6
Continuous
 62
     0
370
     0
100
AcDbMText
 10
1.6875
 20
-8.0663981668
 30
0.0
 40
1.5
 41
0.0
 71
     1
 72
     1
  1
LINEÁRNÍ:
  7
SLDTEXTSTYLE0
 73
     1
 44
1.0
  0
MTEXT
  5
D0
330
C8
100
AcDbEntity
  8
0
  6
Continuous
 62
     0
370
     0
100
AcDbMText
 10
1.6875
 20
-10.5663981109
 30
0.0
 40
1.5
 41
0.0
 71
     1
 72
     1
  1
ÚHLOVÁ:
  7
SLDTEXTSTYLE0
 73
     1
 44
1.0
  0
ENDBLK
  5
CA
330
C8
100
AcDbEntity
  8
0
100
AcDbBlockEnd
  0
BLOCK
  5
12D
330
12C
100
AcDbEntity
  8
0
100
AcDbBlockBegin
  2
_D
 70
     0
 10
0.0
 20
0.0
 30
0.0
  3
_D
  1

  0
SOLID
  5
12F
330
12C
100
AcDbEntity
  8
0
  6
Continuous
 62
     7
370
    18
100
AcDbTrace
 10
97.94
 20
159.06
 30
0.0
 11
101.242
 21
158.552
 31
0.0
 12
101.242
 22
159.568
 32
0.0
 13
101.242
 23
159.568
 33
0.0
  0
SOLID
  5
130
330
12C
100
AcDbEntity
  8
0
  6
Continuous
 62
     7
370
    18
100
AcDbTrace
 10
173.94
 20
159.06
 30
0.0
 11
170.638
 21
159.568
 31
0.0
 12
170.638
 22
158.552
 32
0.0
 13
170.638
 23
158.552
 33
0.0
  0
LINE
  5
131
330
12C
100
AcDbEntity
  8
0
  6
Continuous
 62
     7
370
     0
100
AcDbLine
 10
97.94
 20
174.06
 30
0.0
 11
97.94
 21
158.06
 31
0.0
  0
LINE
  5
132
330
12C
100
AcDbEntity
  8
0
  6
Continuous
 62
     7
370
     0
100
AcDbLine
 10
173.94
 20
174.06
 30
0.0
 11
173.94
 21
158.06
 31
0.0
  0
LINE
  5
133
330
12C
100
AcDbEntity
  8
0
  6
Continuous
 62
     7
370
     0
100
AcDbLine
 10
97.94
 20
159.06
 30
0.0
 11
173.94
 21
159.06
 31
0.0
  0
MTEXT
  5
134
330
12C
100
AcDbEntity
  8
0
  6
Continuous
 62
     7
370
    18
100
AcDbMText
 10
133.3538888065
 20
163.5717369146
 30
0.0
 40
3.5
 41
0.0
 71
     1
 72
     1
  1
76
  7
SLDTEXTSTYLE0
 73
     1
 44
1.0
  0
ENDBLK
  5
12E
330
12C
100
AcDbEntity
  8
0
100
AcDbBlockEnd
  0
BLOCK
  5
138
330
137
100
AcDbEntity
  8
0
100
AcDbBlockBegin
  2
_D_1
 70
     0
 10
0.0
 20
0.0
 30
0.0
  3
_D_1
  1

  0
SOLID
  5
13A
330
137
100
AcDbEntity
  8
0
  6
Continuous
 62
     7
370
    18
100
AcDbTrace
 10
185.94
 20
153.06
 30
0.0
 11
182.638
 21
153.568
 31
0.0
 12
182.638
 22
152.552
 32
0.0
 13
182.638
 23
152.552
 33
0.0
  0
SOLID
  5
13B
330
137
100
AcDbEntity
  8
0
  6
Continuous
 62
     7
370
    18
100
AcDbTrace
 10
85.94
 20
153.06
 30
0.0
 11
89.242
 21
152.552
 31
0.0
 12
89.242
 22
153.568
 32
0.0
 13
89.242
 23
153.568
 33
0.0
  0
LINE
  5
13C
330
137
100
AcDbEntity
  8
0
  6
Continuous
 62
     7
370
     0
100
AcDbLine
 10
185.94
 20
171.06
 30
0.0
 11
185.94
 21
152.06
 31
0.0
  0
LINE
  5
13D
330
137
100
AcDbEntity
  8
0
  6
Continuous
 62
     7
370
     0
100
AcDbLine
 10
85.94
 20
171.06
 30
0.0
 11
85.94
 21
152.06
 31
0.0
  0
LINE
  5
13E
330
137
100
AcDbEntity
  8
0
  6
Continuous
 62
     7
370
     0
100
AcDbLine
 10
185.94
 20
153.06
 30
0.0
 11
85.94
 21
153.06
 31
0.0
  0
MTEXT
  5
13F
330
137
100
AcDbEntity
  8
0
  6
Continuous
 62
     7
370
    18
100
AcDbMText
 10
132.0608333262
 20
157.5717369146
 30
0.0
 40
3.5
 41
0.0
 71
     1
 72
     1
  1
100
  7
SLDTEXTSTYLE0
 73
     1
 44
1.0
  0
ENDBLK
  5
139
330
137
100
AcDbEntity
  8
0
100
AcDbBlockEnd
  0
BLOCK
  5
142
330
141
100
AcDbEntity
  8
0
100
AcDbBlockBegin
  2
_D_2
 70
     0
 10
0.0
 20
0.0
 30
0.0
  3
_D_2
  1

  0
SOLID
  5
144
330
141
100
AcDbEntity
  8
0
  6
Continuous
 62
     7
370
    18
100
AcDbTrace
 10
195.9400000001
 20
184.06
 30
0.0
 11
196.4480000001
 21
187.362
 31
0.0
 12
195.4320000001
 22
187.362
 32
0.0
 13
195.4320000001
 23
187.362
 33
0.0
  0
SOLID
  5
145
330
141
100
AcDbEntity
  8
0
  6
Continuous
 62
     7
370
    18
100
AcDbTrace
 10
195.9400000001
 20
229.06
 30
0.0
 11
195.4320000001
 21
225.758
 31
0.0
 12
196.4480000001
 22
225.758
 32
0.0
 13
196.4480000001
 23
225.758
 33
0.0
  0
LINE
  5
146
330
141
100
AcDbEntity
  8
0
  6
Continuous
 62
     7
370
     0
100
AcDbLine
 10
183.94
 20
184.06
 30
0.0
 11
196.9400000001
 21
184.06
 31
0.0
  0
LINE
  5
147
330
141
100
AcDbEntity
  8
0
  6
Continuous
 62
     7
370
     0
100
AcDbLine
 10
183.94
 20
229.06
 30
0.0
 11
196.9400000001
 21
229.06
 31
0.0
  0
LINE
  5
148
330
141
100
AcDbEntity
  8
0
  6
Continuous
 62
     7
370
     0
100
AcDbLine
 10
195.9400000001
 20
184.06
 30
0.0
 11
195.9400000001
 21
229.06
 31
0.0
  0
MTEXT
  5
149
330
141
100
AcDbEntity
  8
0
  6
Continuous
 62
     7
370
    18
100
AcDbMText
 10
191.4282630855
 20
203.9738888065
 30
0.0
 40
3.5
 41
0.0
 71
     1
 72
     1
  1
45
  7
SLDTEXTSTYLE0
 11
6.123233995736766E-17
 21
1.0
 31
0.0
 73
     1
 44
1.0
  0
ENDBLK
  5
143
330
141
100
AcDbEntity
  8
0
100
AcDbBlockEnd
  0
BLOCK
  5
14C
330
14B
100
AcDbEntity
  8
0
100
AcDbBlockBegin
  2
_D_3
 70
     0
 10
0.0
 20
0.0
 30
0.0
  3
_D_3
  1

  0
SOLID
  5
14E
330
14B
100
AcDbEntity
  8
0
  6
Continuous
 62
     7
370
    18
100
AcDbTrace
 10
201.94
 20
169.06
 30
0.0
 11
202.448
 21
172.362
 31
0.0
 12
201.432
 22
172.362
 32
0.0
 13
201.432
 23
172.362
 33
0.0
  0
SOLID
  5
14F
330
14B
100
AcDbEntity
  8
0
  6
Continuous
 62
     7
370
    18
100
AcDbTrace
 10
201.94
 20
244.06
 30
0.0
 11
201.432
 21
240.758
 31
0.0
 12
202.448
 22
240.758
 32
0.0
 13
202.448
 23
240.758
 33
0.0
  0
LINE
  5
150
330
14B
100
AcDbEntity
  8
0
  6
Continuous
 62
     7
370
     0
100
AcDbLine
 10
183.94
 20
169.06
 30
0.0
 11
202.94
 21
169.06
 31
0.0
  0
LINE
  5
151
330
14B
100
AcDbEntity
  8
0
  6
Continuous
 62
     7
370
     0
100
AcDbLine
 10
183.94
 20
244.06
 30
0.0
 11
202.94
 21
244.06
 31
0.0
  0
LINE
  5
152
330
14B
100
AcDbEntity
  8
0
  6
Continuous
 62
     7
370
     0
100
AcDbLine
 10
201.94
 20
169.06
 30
0.0
 11
201.94
 21
244.06
 31
0.0
  0
MTEXT
  5
153
330
14B
100
AcDbEntity
  8
0
  6
Continuous
 62
     7
370
    18
100
AcDbMText
 10
197.4282630855
 20
203.9738888065
 30
0.0
 40
3.5
 41
0.0
 71
     1
 72
     1
  1
75
  7
SLDTEXTSTYLE0
 11
6.123233995736766E-17
 21
1.0
 31
0.0
 73
     1
 44
1.0
  0
ENDBLK
  5
14D
330
14B
100
AcDbEntity
  8
0
100
AcDbBlockEnd
  0
BLOCK
  5
157
330
156
100
AcDbEntity
  8
0
100
AcDbBlockBegin
  2
_None
 70
     0
 10
0.0
 20
0.0
 30
0.0
  3
_None
  1

  0
ENDBLK
  5
158
330
156
100
AcDbEntity
  8
0
100
AcDbBlockEnd
  0
BLOCK
  5
15A
330
159
100
AcDbEntity
  8
0
100
AcDbBlockBegin
  2
_D_4
 70
     0
 10
0.0
 20
0.0
 30
0.0
  3
_D_4
  1

  0
SOLID
  5
15C
330
159
100
AcDbEntity
  8
0
  6
Continuous
 62
     7
370
    18
100
AcDbTrace
 10
129.1871302397
 20
213.3128697603
 30
0.0
 11
127.2114738931
 21
216.0069465966
 31
0.0
 12
126.4930534034
 22
215.288526107
 32
0.0
 13
126.4930534034
 23
215.288526107
 33
0.0
  0
LINE
  5
15D
330
159
100
AcDbEntity
  8
0
  6
Continuous
 62
     7
370
     0
100
AcDbLine
 10
129.1871302397
 20
213.3128697603
 30
0.0
 11
84.7864861295
 21
257.7135138705
 31
0.0
  0
LINE
  5
15E
330
159
100
AcDbEntity
  8
0
  6
Continuous
 62
     7
370
     0
100
AcDbLine
 10
129.1871302397
 20
213.3128697603
 30
0.0
 11
142.6928697604
 21
199.8071302397
 31
0.0
  0
MTEXT
  5
15F
330
159
100
AcDbEntity
  8
0
  6
Continuous
 62
     7
370
    18
100
AcDbMText
 10
87.9750393696
 20
260.9020671105
 30
0.0
 40
3.5
 41
0.0
 71
     1
 72
     1
  1
%%c
  7
SLDTEXTSTYLE0
 11
0.7071067811865426
 21
-0.7071067811865526
 31
0.0
 73
     1
 44
1.0
  0
MTEXT
  5
160
330
159
100
AcDbEntity
  8
0
  6
Continuous
 62
     7
370
    18
100
AcDbMText
 10
91.7452687868
 20
257.2074587708
 30
0.0
 40
3.5
 41
0.0
 71
     1
 72
     1
  1
19
  7
SLDTEXTSTYLE0
 11
0.7071067811865426
 21
-0.7071067811865526
 31
0.0
 73
     1
 44
1.0
  0
ENDBLK
  5
15B
330
159
100
AcDbEntity
  8
0
100
AcDbBlockEnd
  0
BLOCK
  5
163
330
162
100
AcDbEntity
  8
0
100
AcDbBlockBegin
  2
_D_5
 70
     0
 10
0.0
 20
0.0
 30
0.0
  3
_D_5
  1

  0
SOLID
  5
165
330
162
100
AcDbEntity
  8
0
  6
Continuous
 62
     7
370
    18
100
AcDbTrace
 10
126.0405050634
 20
196.6605050634
 30
0.0
 11
123.3464282271
 21
194.6848487168
 31
0.0
 12
124.0648487168
 22
193.9664282271
 32
0.0
 13
124.0648487168
 23
193.9664282271
 33
0.0
  0
LINE
  5
166
330
162
100
AcDbEntity
  8
0
  6
Continuous
 62
     7
370
     0
100
AcDbLine
 10
126.0405050634
 20
196.6605050634
 30
0.0
 11
98.4788153673
 21
169.0988153673
 31
0.0
  0
LINE
  5
167
330
162
100
AcDbEntity
  8
0
  6
Continuous
 62
     7
370
     0
100
AcDbLine
 10
97.4011846328
 20
168.0211846327
 30
0.0
 11
86.4788153673
 21
157.0988153673
 31
0.0
  0
LINE
  5
168
330
162
100
AcDbEntity
  8
0
  6
Continuous
 62
     7
370
     0
100
AcDbLine
 10
85.4011846328
 20
156.0211846327
 30
0.0
 11
84.7864861295
 21
155.4064861295
 31
0.0
  0
LINE
  5
169
330
162
100
AcDbEntity
  8
0
  6
Continuous
 62
     7
370
     0
100
AcDbLine
 10
126.0405050634
 20
196.6605050634
 30
0.0
 11
145.8394949366
 21
216.4594949366
 31
0.0
  0
MTEXT
  5
16A
330
162
100
AcDbEntity
  8
0
  6
Continuous
 62
     7
370
    18
100
AcDbMText
 10
81.5979328895
 20
158.5950393695
 30
0.0
 40
3.5
 41
0.0
 71
     1
 72
     1
  1
%%c
  7
SLDTEXTSTYLE0
 11
0.7071067811865426
 21
0.7071067811865526
 31
0.0
 73
     1
 44
1.0
  0
MTEXT
  5
16B
330
162
100
AcDbEntity
  8
0
  6
Continuous
 62
     7
370
    18
100
AcDbMText
 10
85.2925412293
 20
162.3652687867
 30
0.0
 40
3.5
 41
0.0
 71
     1
 72
     1
  1
28
  7
SLDTEXTSTYLE0
 11
0.7071067811865426
 21
0.7071067811865526
 31
0.0
 73
     1
 44
1.0
  0
ENDBLK
  5
164
330
162
100
AcDbEntity
  8
0
100
AcDbBlockEnd
  0
BLOCK
  5
16D
330
16C
100
AcDbEntity
  8
0
100
AcDbBlockBegin
  2
SW_CENTERMARKSYMBOL_0
 70
     0
 10
0.0
 20
0.0
 30
0.0
  3
SW_CENTERMARKSYMBOL_0
  1

  0
LINE
  5
16F
330
16C
100
AcDbEntity
  8
0
  6
Continuous
 62
     0
370
    18
100
AcDbLine
 10
0.0
 20
0.0
 30
0.0
 11
0.0
 21
2.5
 31
0.0
  0
LINE
  5
170
330
16C
100
AcDbEntity
  8
0
  6
Continuous
 62
     0
370
    18
100
AcDbLine
 10
0.0
 20
0.0
 30
0.0
 11
-2.5
 21
0.0
 31
0.0
  0
LINE
  5
171
330
16C
100
AcDbEntity
  8
0
  6
Continuous
 62
     0
370
    18
100
AcDbLine
 10
0.0
 20
0.0
 30
0.0
 11
0.0
 21
-2.5
 31
0.0
  0
LINE
  5
172
330
16C
100
AcDbEntity
  8
0
  6
Continuous
 62
     0
370
    18
100
AcDbLine
 10
0.0
 20
0.0
 30
0.0
 11
2.5
 21
0.0
 31
0.0
  0
LINE
  5
173
330
16C
100
AcDbEntity
  8
0
  6
Continuous
 62
     0
370
    18
100
AcDbLine
 10
0.0
 20
5.0
 30
0.0
 11
0.0
 21
34.0
 31
0.0
  0
LINE
  5
174
330
16C
100
AcDbEntity
  8
0
  6
Continuous
 62
     0
370
    18
100
AcDbLine
 10
-5.0
 20
0.0
 30
0.0
 11
-34.0
 21
0.0
 31
0.0
  0
LINE
  5
175
330
16C
100
AcDbEntity
  8
0
  6
Continuous
 62
     0
370
    18
100
AcDbLine
 10
0.0
 20
-5.0
 30
0.0
 11
0.0
 21
-34.0
 31
0.0
  0
LINE
  5
176
330
16C
100
AcDbEntity
  8
0
  6
Continuous
 62
     0
370
    18
100
AcDbLine
 10
5.0
 20
0.0
 30
0.0
 11
34.0
 21
0.0
 31
0.0
  0
ENDBLK
  5
16E
330
16C
100
AcDbEntity
  8
0
100
AcDbBlockEnd
  0
BLOCK
  5
179
330
178
100
AcDbEntity
  8
0
100
AcDbBlockBegin
  2
SW_CENTERMARKSYMBOL_1
 70
     0
 10
0.0
 20
0.0
 30
0.0
  3
SW_CENTERMARKSYMBOL_1
  1

  0
LINE
  5
17B
330
178
100
AcDbEntity
  8
0
  6
Continuous
 62
     0
370
    18
100
AcDbLine
 10
0.0
 20
0.0
 30
0.0
 11
0.0
 21
2.5
 31
0.0
  0
LINE
  5
17C
330
178
100
AcDbEntity
  8
0
  6
Continuous
 62
     0
370
    18
100
AcDbLine
 10
0.0
 20
0.0
 30
0.0
 11
-2.5
 21
0.0
 31
0.0
  0
LINE
  5
17D
330
178
100
AcDbEntity
  8
0
  6
Continuous
 62
     0
370
    18
100
AcDbLine
 10
0.0
 20
0.0
 30
0.0
 11
0.0
 21
-2.5
 31
0.0
  0
LINE
  5
17E
330
178
100
AcDbEntity
  8
0
  6
Continuous
 62
     0
370
    18
100
AcDbLine
 10
0.0
 20
0.0
 30
0.0
 11
2.5
 21
0.0
 31
0.0
  0
LINE
  5
17F
330
178
100
AcDbEntity
  8
0
  6
Continuous
 62
     0
370
    18
100
AcDbLine
 10
0.0
 20
5.0
 30
0.0
 11
0.0
 21
9.0
 31
0.0
  0
LINE
  5
180
330
178
100
AcDbEntity
  8
0
  6
Continuous
 62
     0
370
    18
100
AcDbLine
 10
-5.0
 20
0.0
 30
0.0
 11
-9.0
 21
0.0
 31
0.0
  0
LINE
  5
181
330
178
100
AcDbEntity
  8
0
  6
Continuous
 62
     0
370
    18
100
AcDbLine
 10
0.0
 20
-5.0
 30
0.0
 11
0.0
 21
-9.0
 31
0.0
  0
LINE
  5
182
330
178
100
AcDbEntity
  8
0
  6
Continuous
 62
     0
370
    18
100
AcDbLine
 10
5.0
 20
0.0
 30
0.0
 11
9.0
 21
0.0
 31
0.0
  0
ENDBLK
  5
17A
330
178
100
AcDbEntity
  8
0
100
AcDbBlockEnd
  0
BLOCK
  5
185
330
184
100
AcDbEntity
  8
0
100
AcDbBlockBegin
  2
SW_CENTERMARKSYMBOL_2
 70
     0
 10
0.0
 20
0.0
 30
0.0
  3
SW_CENTERMARKSYMBOL_2
  1

  0
LINE
  5
187
330
184
100
AcDbEntity
  8
0
  6
Continuous
 62
     0
370
    18
100
AcDbLine
 10
0.0
 20
0.0
 30
0.0
 11
0.0
 21
2.5
 31
0.0
  0
LINE
  5
188
330
184
100
AcDbEntity
  8
0
  6
Continuous
 62
     0
370
    18
100
AcDbLine
 10
0.0
 20
0.0
 30
0.0
 11
-2.5
 21
0.0
 31
0.0
  0
LINE
  5
189
330
184
100
AcDbEntity
  8
0
  6
Continuous
 62
     0
370
    18
100
AcDbLine
 10
0.0
 20
0.0
 30
0.0
 11
0.0
 21
-2.5
 31
0.0
  0
LINE
  5
18A
330
184
100
AcDbEntity
  8
0
  6
Continuous
 62
     0
370
    18
100
AcDbLine
 10
0.0
 20
0.0
 30
0.0
 11
2.5
 21
0.0
 31
0.0
  0
LINE
  5
18B
330
184
100
AcDbEntity
  8
0
  6
Continuous
 62
     0
370
    18
100
AcDbLine
 10
0.0
 20
5.0
 30
0.0
 11
0.0
 21
9.0
 31
0.0
  0
LINE
  5
18C
330
184
100
AcDbEntity
  8
0
  6
Continuous
 62
     0
370
    18
100
AcDbLine
 10
-5.0
 20
0.0
 30
0.0
 11
-9.0
 21
0.0
 31
0.0
  0
LINE
  5
18D
330
184
100
AcDbEntity
  8
0
  6
Continuous
 62
     0
370
    18
100
AcDbLine
 10
0.0
 20
-5.0
 30
0.0
 11
0.0
 21
-9.0
 31
0.0
  0
LINE
  5
18E
330
184
100
AcDbEntity
  8
0
  6
Continuous
 62
     0
370
    18
100
AcDbLine
 10
5.0
 20
0.0
 30
0.0
 11
9.0
 21
0.0
 31
0.0
  0
ENDBLK
  5
186
330
184
100
AcDbEntity
  8
0
100
AcDbBlockEnd
  0
BLOCK
  5
191
330
190
100
AcDbEntity
  8
0
100
AcDbBlockBegin
  2
SW_CENTERMARKSYMBOL_3
 70
     0
 10
0.0
 20
0.0
 30
0.0
  3
SW_CENTERMARKSYMBOL_3
  1

  0
LINE
  5
193
330
190
100
AcDbEntity
  8
0
  6
Continuous
 62
     0
370
    18
100
AcDbLine
 10
0.0
 20
0.0
 30
0.0
 11
0.0
 21
2.5
 31
0.0
  0
LINE
  5
194
330
190
100
AcDbEntity
  8
0
  6
Continuous
 62
     0
370
    18
100
AcDbLine
 10
0.0
 20
0.0
 30
0.0
 11
-2.5
 21
0.0
 31
0.0
  0
LINE
  5
195
330
190
100
AcDbEntity
  8
0
  6
Continuous
 62
     0
370
    18
100
AcDbLine
 10
0.0
 20
0.0
 30
0.0
 11
0.0
 21
-2.5
 31
0.0
  0
LINE
  5
196
330
190
100
AcDbEntity
  8
0
  6
Continuous
 62
     0
370
    18
100
AcDbLine
 10
0.0
 20
0.0
 30
0.0
 11
2.5
 21
0.0
 31
0.0
  0
LINE
  5
197
330
190
100
AcDbEntity
  8
0
  6
Continuous
 62
     0
370
    18
100
AcDbLine
 10
0.0
 20
5.0
 30
0.0
 11
0.0
 21
9.0
 31
0.0
  0
LINE
  5
198
330
190
100
AcDbEntity
  8
0
  6
Continuous
 62
     0
370
    18
100
AcDbLine
 10
-5.0
 20
0.0
 30
0.0
 11
-9.0
 21
0.0
 31
0.0
  0
LINE
  5
199
330
190
100
AcDbEntity
  8
0
  6
Continuous
 62
     0
370
    18
100
AcDbLine
 10
0.0
 20
-5.0
 30
0.0
 11
0.0
 21
-9.0
 31
0.0
  0
LINE
  5
19A
330
190
100
AcDbEntity
  8
0
  6
Continuous
 62
     0
370
    18
100
AcDbLine
 10
5.0
 20
0.0
 30
0.0
 11
9.0
 21
0.0
 31
0.0
  0
ENDBLK
  5
192
330
190
100
AcDbEntity
  8
0
100
AcDbBlockEnd
  0
BLOCK
  5
19D
330
19C
100
AcDbEntity
  8
0
100
AcDbBlockBegin
  2
SW_CENTERMARKSYMBOL_4
 70
     0
 10
0.0
 20
0.0
 30
0.0
  3
SW_CENTERMARKSYMBOL_4
  1

  0
LINE
  5
19F
330
19C
100
AcDbEntity
  8
0
  6
Continuous
 62
     0
370
    18
100
AcDbLine
 10
0.0
 20
0.0
 30
0.0
 11
0.0
 21
2.5
 31
0.0
  0
LINE
  5
1A0
330
19C
100
AcDbEntity
  8
0
  6
Continuous
 62
     0
370
    18
100
AcDbLine
 10
0.0
 20
0.0
 30
0.0
 11
-2.5
 21
0.0
 31
0.0
  0
LINE
  5
1A1
330
19C
100
AcDbEntity
  8
0
  6
Continuous
 62
     0
370
    18
100
AcDbLine
 10
0.0
 20
0.0
 30
0.0
 11
0.0
 21
-2.5
 31
0.0
  0
LINE
  5
1A2
330
19C
100
AcDbEntity
  8
0
  6
Continuous
 62
     0
370
    18
100
AcDbLine
 10
0.0
 20
0.0
 30
0.0
 11
2.5
 21
0.0
 31
0.0
  0
LINE
  5
1A3
330
19C
100
AcDbEntity
  8
0
  6
Continuous
 62
     0
370
    18
100
AcDbLine
 10
0.0
 20
5.0
 30
0.0
 11
0.0
 21
9.0
 31
0.0
  0
LINE
  5
1A4
330
19C
100
AcDbEntity
  8
0
  6
Continuous
 62
     0
370
    18
100
AcDbLine
 10
-5.0
 20
0.0
 30
0.0
 11
-9.0
 21
0.0
 31
0.0
  0
LINE
  5
1A5
330
19C
100
AcDbEntity
  8
0
  6
Continuous
 62
     0
370
    18
100
AcDbLine
 10
0.0
 20
-5.0
 30
0.0
 11
0.0
 21
-9.0
 31
0.0
  0
LINE
  5
1A6
330
19C
100
AcDbEntity
  8
0
  6
Continuous
 62
     0
370
    18
100
AcDbLine
 10
5.0
 20
0.0
 30
0.0
 11
9.0
 21
0.0
 31
0.0
  0
ENDBLK
  5
19E
330
19C
100
AcDbEntity
  8
0
100
AcDbBlockEnd
  0
BLOCK
  5
1C7
330
1C6
100
AcDbEntity
  8
0
100
AcDbBlockBegin
  2
SW_CENTERMARKSYMBOL_5
 70
     0
 10
0.0
 20
0.0
 30
0.0
  3
SW_CENTERMARKSYMBOL_5
  1

  0
LINE
  5
1C9
330
1C6
100
AcDbEntity
  8
0
  6
Continuous
 62
     0
370
    18
100
AcDbLine
 10
0.0
 20
0.0
 30
0.0
 11
0.0
 21
2.3020257827
 31
0.0
  0
LINE
  5
1CA
330
1C6
100
AcDbEntity
  8
0
  6
Continuous
 62
     0
370
    18
100
AcDbLine
 10
0.0
 20
0.0
 30
0.0
 11
-2.3020257827
 21
0.0
 31
0.0
  0
LINE
  5
1CB
330
1C6
100
AcDbEntity
  8
0
  6
Continuous
 62
     0
370
    18
100
AcDbLine
 10
0.0
 20
0.0
 30
0.0
 11
0.0
 21
-2.3020257827
 31
0.0
  0
LINE
  5
1CC
330
1C6
100
AcDbEntity
  8
0
  6
Continuous
 62
     0
370
    18
100
AcDbLine
 10
0.0
 20
0.0
 30
0.0
 11
2.3020257827
 21
0.0
 31
0.0
  0
LINE
  5
1CD
330
1C6
100
AcDbEntity
  8
0
  6
Continuous
 62
     0
370
    18
100
AcDbLine
 10
0.0
 20
4.6040515654
 30
0.0
 11
0.0
 21
8.2872928177
 31
0.0
  0
LINE
  5
1CE
330
1C6
100
AcDbEntity
  8
0
  6
Continuous
 62
     0
370
    18
100
AcDbLine
 10
-4.6040515654
 20
0.0
 30
0.0
 11
-8.2872928177
 21
0.0
 31
0.0
  0
LINE
  5
1CF
330
1C6
100
AcDbEntity
  8
0
  6
Continuous
 62
     0
370
    18
100
AcDbLine
 10
0.0
 20
-4.6040515654
 30
0.0
 11
0.0
 21
-8.2872928177
 31
0.0
  0
LINE
  5
1D0
330
1C6
100
AcDbEntity
  8
0
  6
Continuous
 62
     0
370
    18
100
AcDbLine
 10
4.6040515654
 20
0.0
 30
0.0
 11
8.2872928177
 21
0.0
 31
0.0
  0
ENDBLK
  5
1C8
330
1C6
100
AcDbEntity
  8
0
100
AcDbBlockEnd
  0
BLOCK
  5
1D3
330
1D2
100
AcDbEntity
  8
0
100
AcDbBlockBegin
  2
SW_CENTERMARKSYMBOL_6
 70
     0
 10
0.0
 20
0.0
 30
0.0
  3
SW_CENTERMARKSYMBOL_6
  1

  0
LINE
  5
1D5
330
1D2
100
AcDbEntity
  8
0
  6
Continuous
 62
     0
370
    18
100
AcDbLine
 10
0.0
 20
0.0
 30
0.0
 11
0.0
 21
2.3020257827
 31
0.0
  0
LINE
  5
1D6
330
1D2
100
AcDbEntity
  8
0
  6
Continuous
 62
     0
370
    18
100
AcDbLine
 10
0.0
 20
0.0
 30
0.0
 11
-2.3020257827
 21
0.0
 31
0.0
  0
LINE
  5
1D7
330
1D2
100
AcDbEntity
  8
0
  6
Continuous
 62
     0
370
    18
100
AcDbLine
 10
0.0
 20
0.0
 30
0.0
 11
0.0
 21
-2.3020257827
 31
0.0
  0
LINE
  5
1D8
330
1D2
100
AcDbEntity
  8
0
  6
Continuous
 62
     0
370
    18
100
AcDbLine
 10
0.0
 20
0.0
 30
0.0
 11
2.3020257827
 21
0.0
 31
0.0
  0
LINE
  5
1D9
330
1D2
100
AcDbEntity
  8
0
  6
Continuous
 62
     0
370
    18
100
AcDbLine
 10
0.0
 20
4.6040515654
 30
0.0
 11
0.0
 21
8.2872928177
 31
0.0
  0
LINE
  5
1DA
330
1D2
100
AcDbEntity
  8
0
  6
Continuous
 62
     0
370
    18
100
AcDbLine
 10
-4.6040515654
 20
0.0
 30
0.0
 11
-8.2872928177
 21
0.0
 31
0.0
  0
LINE
  5
1DB
330
1D2
100
AcDbEntity
  8
0
  6
Continuous
 62
     0
370
    18
100
AcDbLine
 10
0.0
 20
-4.6040515654
 30
0.0
 11
0.0
 21
-8.2872928177
 31
0.0
  0
LINE
  5
1DC
330
1D2
100
AcDbEntity
  8
0
  6
Continuous
 62
     0
370
    18
100
AcDbLine
 10
4.6040515654
 20
0.0
 30
0.0
 11
8.2872928177
 21
0.0
 31
0.0
  0
ENDBLK
  5
1D4
330
1D2
100
AcDbEntity
  8
0
100
AcDbBlockEnd
  0
BLOCK
  5
1DF
330
1DE
100
AcDbEntity
  8
0
100
AcDbBlockBegin
  2
SW_CENTERMARKSYMBOL_7
 70
     0
 10
0.0
 20
0.0
 30
0.0
  3
SW_CENTERMARKSYMBOL_7
  1

  0
LINE
  5
1E1
330
1DE
100
AcDbEntity
  8
0
  6
Continuous
 62
     0
370
    18
100
AcDbLine
 10
0.0
 20
0.0
 30
0.0
 11
0.0
 21
2.3020257827
 31
0.0
  0
LINE
  5
1E2
330
1DE
100
AcDbEntity
  8
0
  6
Continuous
 62
     0
370
    18
100
AcDbLine
 10
0.0
 20
0.0
 30
0.0
 11
-2.3020257827
 21
0.0
 31
0.0
  0
LINE
  5
1E3
330
1DE
100
AcDbEntity
  8
0
  6
Continuous
 62
     0
370
    18
100
AcDbLine
 10
0.0
 20
0.0
 30
0.0
 11
0.0
 21
-2.3020257827
 31
0.0
  0
LINE
  5
1E4
330
1DE
100
AcDbEntity
  8
0
  6
Continuous
 62
     0
370
    18
100
AcDbLine
 10
0.0
 20
0.0
 30
0.0
 11
2.3020257827
 21
0.0
 31
0.0
  0
LINE
  5
1E5
330
1DE
100
AcDbEntity
  8
0
  6
Continuous
 62
     0
370
    18
100
AcDbLine
 10
0.0
 20
4.6040515654
 30
0.0
 11
0.0
 21
8.2872928177
 31
0.0
  0
LINE
  5
1E6
330
1DE
100
AcDbEntity
  8
0
  6
Continuous
 62
     0
370
    18
100
AcDbLine
 10
-4.6040515654
 20
0.0
 30
0.0
 11
-8.2872928177
 21
0.0
 31
0.0
  0
LINE
  5
1E7
330
1DE
100
AcDbEntity
  8
0
  6
Continuous
 62
     0
370
    18
100
AcDbLine
 10
0.0
 20
-4.6040515654
 30
0.0
 11
0.0
 21
-8.2872928177
 31
0.0
  0
LINE
  5
1E8
330
1DE
100
AcDbEntity
  8
0
  6
Continuous
 62
     0
370
    18
100
AcDbLine
 10
4.6040515654
 20
0.0
 30
0.0
 11
8.2872928177
 21
0.0
 31
0.0
  0
ENDBLK
  5
1E0
330
1DE
100
AcDbEntity
  8
0
100
AcDbBlockEnd
  0
BLOCK
  5
1EB
330
1EA
100
AcDbEntity
  8
0
100
AcDbBlockBegin
  2
SW_CENTERMARKSYMBOL_8
 70
     0
 10
0.0
 20
0.0
 30
0.0
  3
SW_CENTERMARKSYMBOL_8
  1

  0
LINE
  5
1ED
330
1EA
100
AcDbEntity
  8
0
  6
Continuous
 62
     0
370
    18
100
AcDbLine
 10
0.0
 20
0.0
 30
0.0
 11
0.0
 21
2.3020257827
 31
0.0
  0
LINE
  5
1EE
330
1EA
100
AcDbEntity
  8
0
  6
Continuous
 62
     0
370
    18
100
AcDbLine
 10
0.0
 20
0.0
 30
0.0
 11
-2.3020257827
 21
0.0
 31
0.0
  0
LINE
  5
1EF
330
1EA
100
AcDbEntity
  8
0
  6
Continuous
 62
     0
370
    18
100
AcDbLine
 10
0.0
 20
0.0
 30
0.0
 11
0.0
 21
-2.3020257827
 31
0.0
  0
LINE
  5
1F0
330
1EA
100
AcDbEntity
  8
0
  6
Continuous
 62
     0
370
    18
100
AcDbLine
 10
0.0
 20
0.0
 30
0.0
 11
2.3020257827
 21
0.0
 31
0.0
  0
LINE
  5
1F1
330
1EA
100
AcDbEntity
  8
0
  6
Continuous
 62
     0
370
    18
100
AcDbLine
 10
0.0
 20
4.6040515654
 30
0.0
 11
0.0
 21
8.2872928177
 31
0.0
  0
LINE
  5
1F2
330
1EA
100
AcDbEntity
  8
0
  6
Continuous
 62
     0
370
    18
100
AcDbLine
 10
-4.6040515654
 20
0.0
 30
0.0
 11
-8.2872928177
 21
0.0
 31
0.0
  0
LINE
  5
1F3
330
1EA
100
AcDbEntity
  8
0
  6
Continuous
 62
     0
370
    18
100
AcDbLine
 10
0.0
 20
-4.6040515654
 30
0.0
 11
0.0
 21
-8.2872928177
 31
0.0
  0
LINE
  5
1F4
330
1EA
100
AcDbEntity
  8
0
  6
Continuous
 62
     0
370
    18
100
AcDbLine
 10
4.6040515654
 20
0.0
 30
0.0
 11
8.2872928177
 21
0.0
 31
0.0
  0
ENDBLK
  5
1EC
330
1EA
100
AcDbEntity
  8
0
100
AcDbBlockEnd
  0
BLOCK
  5
2EC
330
2EB
100
AcDbEntity
  8
0
100
AcDbBlockBegin
  2
_D_6
 70
     0
 10
0.0
 20
0.0
 30
0.0
  3
_D_6
  1

  0
SOLID
  5
2EE
330
2EB
100
AcDbEntity
  8
0
  6
Continuous
 62
     7
370
    18
100
AcDbTrace
 10
323.94
 20
160.6109374552
 30
0.0
 11
327.242
 21
160.1029374552
 31
0.0
 12
327.242
 22
161.1189374552
 32
0.0
 13
327.242
 23
161.1189374552
 33
0.0
  0
SOLID
  5
2EF
330
2EB
100
AcDbEntity
  8
0
  6
Continuous
 62
     7
370
    18
100
AcDbTrace
 10
348.94
 20
160.6109374552
 30
0.0
 11
345.638
 21
161.1189374552
 31
0.0
 12
345.638
 22
160.1029374552
 32
0.0
 13
345.638
 23
160.1029374552
 33
0.0
  0
LINE
  5
2F0
330
2EB
100
AcDbEntity
  8
0
  6
Continuous
 62
     7
370
     0
100
AcDbLine
 10
323.94
 20
205.56
 30
0.0
 11
323.94
 21
159.6109374552
 31
0.0
  0
LINE
  5
2F1
330
2EB
100
AcDbEntity
  8
0
  6
Continuous
 62
     7
370
     0
100
AcDbLine
 10
348.94
 20
240.06
 30
0.0
 11
348.94
 21
159.6109374552
 31
0.0
  0
LINE
  5
2F2
330
2EB
100
AcDbEntity
  8
0
  6
Continuous
 62
     7
370
     0
100
AcDbLine
 10
323.94
 20
160.6109374552
 30
0.0
 11
348.94
 21
160.6109374552
 31
0.0
  0
MTEXT
  5
2F3
330
2EB
100
AcDbEntity
  8
0
  6
Continuous
 62
     7
370
    18
100
AcDbMText
 10
335.1416952213
 20
165.1226743698
 30
0.0
 40
3.5
 41
0.0
 71
     1
 72
     1
  1
25
  7
SLDTEXTSTYLE0
 73
     1
 44
1.0
  0
ENDBLK
  5
2ED
330
2EB
100
AcDbEntity
  8
0
100
AcDbBlockEnd
  0
BLOCK
  5
2F6
330
2F5
100
AcDbEntity
  8
0
100
AcDbBlockBegin
  2
_D_7
 70
     0
 10
0.0
 20
0.0
 30
0.0
  3
_D_7
  1

  0
SOLID
  5
2F8
330
2F5
100
AcDbEntity
  8
0
  6
Continuous
 62
     7
370
    18
100
AcDbTrace
 10
271.94
 20
153.06
 30
0.0
 11
275.242
 21
152.552
 31
0.0
 12
275.242
 22
153.568
 32
0.0
 13
275.242
 23
153.568
 33
0.0
  0
SOLID
  5
2F9
330
2F5
100
AcDbEntity
  8
0
  6
Continuous
 62
     7
370
    18
100
AcDbTrace
 10
348.94
 20
153.06
 30
0.0
 11
345.638
 21
153.568
 31
0.0
 12
345.638
 22
152.552
 32
0.0
 13
345.638
 23
152.552
 33
0.0
  0
LINE
  5
2FA
330
2F5
100
AcDbEntity
  8
0
  6
Continuous
 62
     7
370
     0
100
AcDbLine
 10
271.94
 20
168.06
 30
0.0
 11
271.94
 21
152.06
 31
0.0
  0
LINE
  5
2FB
330
2F5
100
AcDbEntity
  8
0
  6
Continuous
 62
     7
370
     0
100
AcDbLine
 10
348.94
 20
243.06
 30
0.0
 11
348.94
 21
152.06
 31
0.0
  0
LINE
  5
2FC
330
2F5
100
AcDbEntity
  8
0
  6
Continuous
 62
     7
370
     0
100
AcDbLine
 10
271.94
 20
153.06
 30
0.0
 11
348.94
 21
153.06
 31
0.0
  0
MTEXT
  5
2FD
330
2F5
100
AcDbEntity
  8
0
  6
Continuous
 62
     7
370
    18
100
AcDbMText
 10
313.1142409467
 20
157.5717369146
 30
0.0
 40
3.5
 41
0.0
 71
     1
 72
     1
  1
77
  7
SLDTEXTSTYLE0
 73
     1
 44
1.0
  0
ENDBLK
  5
2F7
330
2F5
100
AcDbEntity
  8
0
100
AcDbBlockEnd
  0
BLOCK
  5
301
330
300
100
AcDbEntity
  8
0
100
AcDbBlockBegin
  2
_D_8
 70
     0
 10
0.0
 20
0.0
 30
0.0
  3
_D_8
  1

  0
SOLID
  5
303
330
300
100
AcDbEntity
  8
0
  6
Continuous
 62
     7
370
    18
100
AcDbTrace
 10
356.94
 20
242.5328525337
 30
0.0
 11
360.242
 21
242.0248525337
 31
0.0
 12
360.242
 22
243.0408525337
 32
0.0
 13
360.242
 23
243.0408525337
 33
0.0
  0
SOLID
  5
304
330
300
100
AcDbEntity
  8
0
  6
Continuous
 62
     7
370
    18
100
AcDbTrace
 10
348.94
 20
242.5328525337
 30
0.0
 11
345.638
 21
243.0408525337
 31
0.0
 12
345.638
 22
242.0248525337
 32
0.0
 13
345.638
 23
242.0248525337
 33
0.0
  0
LINE
  5
305
330
300
100
AcDbEntity
  8
0
  6
Continuous
 62
     7
370
     0
100
AcDbLine
 10
356.94
 20
228.06
 30
0.0
 11
356.94
 21
243.5328525337
 31
0.0
  0
LINE
  5
306
330
300
100
AcDbEntity
  8
0
  6
Continuous
 62
     7
370
     0
100
AcDbLine
 10
356.94
 20
242.5328525337
 30
0.0
 11
363.29
 21
242.5328525337
 31
0.0
  0
LINE
  5
307
330
300
100
AcDbEntity
  8
0
  6
Continuous
 62
     7
370
     0
100
AcDbLine
 10
356.94
 20
242.5328525337
 30
0.0
 11
348.94
 21
242.5328525337
 31
0.0
  0
LINE
  5
308
330
300
100
AcDbEntity
  8
0
  6
Continuous
 62
     7
370
     0
100
AcDbLine
 10
348.94
 20
242.5328525337
 30
0.0
 11
342.59
 21
242.5328525337
 31
0.0
  0
MTEXT
  5
309
330
300
100
AcDbEntity
  8
0
  6
Continuous
 62
     7
370
    18
100
AcDbMText
 10
349.6670296087
 20
247.0445894483
 30
0.0
 40
3.5
 41
0.0
 71
     1
 72
     1
  1
8,0
  7
SLDTEXTSTYLE0
 73
     1
 44
1.0
  0
ENDBLK
  5
302
330
300
100
AcDbEntity
  8
0
100
AcDbBlockEnd
  0
BLOCK
  5
30D
330
30C
100
AcDbEntity
  8
0
100
AcDbBlockBegin
  2
_D_9
 70
     0
 10
0.0
 20
0.0
 30
0.0
  3
_D_9
  1

  0
SOLID
  5
30F
330
30C
100
AcDbEntity
  8
0
  6
Continuous
 62
     7
370
    18
100
AcDbTrace
 10
314.4035969304
 20
213.56
 30
0.0
 11
314.9115969304
 21
216.862
 31
0.0
 12
313.8955969304
 22
216.862
 32
0.0
 13
313.8955969304
 23
216.862
 33
0.0
  0
SOLID
  5
310
330
30C
100
AcDbEntity
  8
0
  6
Continuous
 62
     7
370
    18
100
AcDbTrace
 10
314.4035969304
 20
199.56
 30
0.0
 11
313.8955969304
 21
196.258
 31
0.0
 12
314.9115969304
 22
196.258
 32
0.0
 13
314.9115969304
 23
196.258
 33
0.0
  0
LINE
  5
311
330
30C
100
AcDbEntity
  8
0
  6
Continuous
 62
     7
370
     0
100
AcDbLine
 10
322.94
 20
213.56
 30
0.0
 11
313.4035969304
 21
213.56
 31
0.0
  0
LINE
  5
312
330
30C
100
AcDbEntity
  8
0
  6
Continuous
 62
     7
370
     0
100
AcDbLine
 10
322.94
 20
199.56
 30
0.0
 11
313.4035969304
 21
199.56
 31
0.0
  0
LINE
  5
313
330
30C
100
AcDbEntity
  8
0
  6
Continuous
 62
     7
370
     0
100
AcDbLine
 10
314.4035969304
 20
213.56
 30
0.0
 11
314.4035969304
 21
219.91
 31
0.0
  0
LINE
  5
314
330
30C
100
AcDbEntity
  8
0
  6
Continuous
 62
     7
370
     0
100
AcDbLine
 10
314.4035969304
 20
213.56
 30
0.0
 11
314.4035969304
 21
199.56
 31
0.0
  0
LINE
  5
315
330
30C
100
AcDbEntity
  8
0
  6
Continuous
 62
     7
370
     0
100
AcDbLine
 10
314.4035969304
 20
199.56
 30
0.0
 11
314.4035969304
 21
193.21
 31
0.0
  0
MTEXT
  5
316
330
30C
100
AcDbEntity
  8
0
  6
Continuous
 62
     7
370
    18
100
AcDbMText
 10
309.8918598412
 20
206.659342241
 30
0.0
 40
3.5
 41
0.0
 71
     1
 72
     1
  1
%%c
  7
SLDTEXTSTYLE0
 11
-7.044195017643634E-15
 21
1.0
 31
0.0
 73
     1
 44
1.0
  0
MTEXT
  5
317
330
30C
100
AcDbEntity
  8
0
  6
Continuous
 62
     7
370
    18
100
AcDbMText
 10
309.8383876646
 20
211.9377796394
 30
0.0
 40
3.5
 41
0.0
 71
     1
 72
     1
  1
14
  7
SLDTEXTSTYLE0
 11
-7.044195017643634E-15
 21
1.0
 31
0.0
 73
     1
 44
1.0
  0
ENDBLK
  5
30E
330
30C
100
AcDbEntity
  8
0
100
AcDbBlockEnd
  0
BLOCK
  5
31B
330
31A
100
AcDbEntity
  8
0
100
AcDbBlockBegin
  2
_D_10
 70
     0
 10
0.0
 20
0.0
 30
0.0
  3
_D_10
  1

  0
SOLID
  5
31D
330
31A
100
AcDbEntity
  8
0
  6
Continuous
 62
     7
370
    18
100
AcDbTrace
 10
368.1957549495
 20
206.56
 30
0.0
 11
368.7037549495
 21
209.862
 31
0.0
 12
367.6877549495
 22
209.862
 32
0.0
 13
367.6877549495
 23
209.862
 33
0.0
  0
SOLID
  5
31E
330
31A
100
AcDbEntity
  8
0
  6
Continuous
 62
     7
370
    18
100
AcDbTrace
 10
368.1957549495
 20
244.06
 30
0.0
 11
367.6877549495
 21
240.758
 31
0.0
 12
368.7037549495
 22
240.758
 32
0.0
 13
368.7037549495
 23
240.758
 33
0.0
  0
LINE
  5
31F
330
31A
100
AcDbEntity
  8
0
  6
Continuous
 62
     7
370
     0
100
AcDbLine
 10
324.94
 20
206.56
 30
0.0
 11
369.1957549495
 21
206.56
 31
0.0
  0
LINE
  5
320
330
31A
100
AcDbEntity
  8
0
  6
Continuous
 62
     7
370
     0
100
AcDbLine
 10
349.94
 20
244.06
 30
0.0
 11
369.1957549495
 21
244.06
 31
0.0
  0
LINE
  5
321
330
31A
100
AcDbEntity
  8
0
  6
Continuous
 62
     7
370
     0
100
AcDbLine
 10
368.1957549495
 20
206.56
 30
0.0
 11
368.1957549495
 21
244.06
 31
0.0
  0
MTEXT
  5
322
330
31A
100
AcDbEntity
  8
0
  6
Continuous
 62
     7
370
    18
100
AcDbMText
 10
363.684018035
 20
223.0624803478
 30
0.0
 40
3.5
 41
0.0
 71
     1
 72
     1
  1
37,5
  7
SLDTEXTSTYLE0
 11
6.123233995736766E-17
 21
1.0
 31
0.0
 73
     1
 44
1.0
  0
ENDBLK
  5
31C
330
31A
100
AcDbEntity
  8
0
100
AcDbBlockEnd
  0
BLOCK
  5
324
330
323
100
AcDbEntity
  8
0
100
AcDbBlockBegin
  2
SW_CENTERMARKSYMBOL_9
 70
     0
 10
0.0
 20
0.0
 30
0.0
  3
SW_CENTERMARKSYMBOL_9
  1

  0
LINE
  5
326
330
323
100
AcDbEntity
  8
0
  6
Continuous
 62
     0
370
    18
100
AcDbLine
 10
0.0
 20
0.0
 30
0.0
 11
0.0
 21
2.5
 31
0.0
  0
LINE
  5
327
330
323
100
AcDbEntity
  8
0
  6
Continuous
 62
     0
370
    18
100
AcDbLine
 10
0.0
 20
0.0
 30
0.0
 11
-2.5
 21
0.0
 31
0.0
  0
LINE
  5
328
330
323
100
AcDbEntity
  8
0
  6
Continuous
 62
     0
370
    18
100
AcDbLine
 10
0.0
 20
0.0
 30
0.0
 11
0.0
 21
-2.5
 31
0.0
  0
LINE
  5
329
330
323
100
AcDbEntity
  8
0
  6
Continuous
 62
     0
370
    18
100
AcDbLine
 10
0.0
 20
0.0
 30
0.0
 11
2.5
 21
0.0
 31
0.0
  0
LINE
  5
32A
330
323
100
AcDbEntity
  8
0
  6
Continuous
 62
     0
370
    18
100
AcDbLine
 10
0.0
 20
5.0
 30
0.0
 11
0.0
 21
9.5
 31
0.0
  0
LINE
  5
32B
330
323
100
AcDbEntity
  8
0
  6
Continuous
 62
     0
370
    18
100
AcDbLine
 10
-5.0
 20
0.0
 30
0.0
 11
-9.5
 21
0.0
 31
0.0
  0
LINE
  5
32C
330
323
100
AcDbEntity
  8
0
  6
Continuous
 62
     0
370
    18
100
AcDbLine
 10
0.0
 20
-5.0
 30
0.0
 11
0.0
 21
-9.5
 31
0.0
  0
LINE
  5
32D
330
323
100
AcDbEntity
  8
0
  6
Continuous
 62
     0
370
    18
100
AcDbLine
 10
5.0
 20
0.0
 30
0.0
 11
9.5
 21
0.0
 31
0.0
  0
ENDBLK
  5
325
330
323
100
AcDbEntity
  8
0
100
AcDbBlockEnd
  0
ENDSEC
  0
SECTION
  2
ENTITIES
  0
LINE
  5
74
330
1F
100
AcDbEntity
  8
0
  6
Continuous
 62
     7
370
    50
100
AcDbLine
 10
230.0
 20
14.25
 30
0.0
 11
410.0
 21
14.25
 31
0.0
  0
LINE
  5
75
330
1F
100
AcDbEntity
  8
0
  6
Continuous
 62
     7
370
    50
100
AcDbLine
 10
410.0
 20
48.25
 30
0.0
 11
230.0
 21
48.25
 31
0.0
  0
LINE
  5
76
330
1F
100
AcDbEntity
  8
0
  6
Continuous
 62
     7
370
    50
100
AcDbLine
 10
230.0
 20
65.25
 30
0.0
 11
410.0
 21
65.25
 31
0.0
  0
LINE
  5
77
330
1F
100
AcDbEntity
  8
0
  6
Continuous
 62
     7
370
    50
100
AcDbLine
 10
256.9909524338
 20
48.25
 30
0.0
 11
256.9909524338
 21
10.0
 31
0.0
  0
LINE
  5
78
330
1F
100
AcDbEntity
  8
0
  6
Continuous
 62
     7
370
    50
100
AcDbLine
 10
328.8
 20
31.25
 30
0.0
 11
230.0
 21
31.25
 31
0.0
  0
LINE
  5
79
330
1F
100
AcDbEntity
  8
0
  6
Continuous
 62
     7
370
    50
100
AcDbLine
 10
328.8
 20
35.5
 30
0.0
 11
230.0
 21
35.5
 31
0.0
  0
LINE
  5
7A
330
1F
100
AcDbEntity
  8
0
  6
Continuous
 62
     7
370
    50
100
AcDbLine
 10
328.8
 20
39.75
 30
0.0
 11
230.0
 21
39.75
 31
0.0
  0
LINE
  5
7B
330
1F
100
AcDbEntity
  8
0
  6
Continuous
 62
     7
370
    50
100
AcDbLine
 10
328.8
 20
44.0
 30
0.0
 11
230.0
 21
44.0
 31
0.0
  0
LINE
  5
7C
330
1F
100
AcDbEntity
  8
0
  6
Continuous
 62
     7
370
    50
100
AcDbLine
 10
284.6
 20
10.0
 30
0.0
 11
284.6
 21
48.25
 31
0.0
  0
LINE
  5
7D
330
1F
100
AcDbEntity
  8
0
  6
Continuous
 62
     7
370
    50
100
AcDbLine
 10
230.0
 20
65.25
 30
0.0
 11
230.0
 21
10.0
 31
0.0
  0
LINE
  5
7E
330
1F
100
AcDbEntity
  8
0
  6
Continuous
 62
     7
370
    50
100
AcDbLine
 10
242.0703737145
 20
48.25
 30
0.0
 11
242.0703737145
 21
10.0
 31
0.0
  0
LINE
  5
7F
330
1F
100
AcDbEntity
  8
0
  6
Continuous
 62
     7
370
    50
100
AcDbLine
 10
263.8
 20
48.25
 30
0.0
 11
263.8
 21
65.25
 31
0.0
  0
LINE
  5
80
330
1F
100
AcDbEntity
  8
0
  6
Continuous
 62
     7
370
    50
100
AcDbLine
 10
274.3989261635
 20
48.25
 30
0.0
 11
274.3989261635
 21
10.0
 31
0.0
  0
LINE
  5
81
330
1F
100
AcDbEntity
  8
0
  6
Continuous
 62
     7
370
    50
100
AcDbLine
 10
295.0
 20
31.25
 30
0.0
 11
295.0
 21
48.25
 31
0.0
  0
LINE
  5
82
330
1F
100
AcDbEntity
  8
0
  6
Continuous
 62
     7
370
    50
100
AcDbLine
 10
284.6
 20
18.5
 30
0.0
 11
230.0
 21
18.5
 31
0.0
  0
LINE
  5
83
330
1F
100
AcDbEntity
  8
0
  6
Continuous
 62
     7
370
    50
100
AcDbLine
 10
310.6
 20
65.25
 30
0.0
 11
310.6
 21
27.0
 31
0.0
  0
LINE
  5
84
330
1F
100
AcDbEntity
  8
0
  6
Continuous
 62
     7
370
    50
100
AcDbLine
 10
284.6
 20
22.749928
 30
0.0
 11
230.0
 21
22.749928
 31
0.0
  0
LINE
  5
85
330
1F
100
AcDbEntity
  8
0
  6
Continuous
 62
     7
370
    50
100
AcDbLine
 10
284.6
 20
27.0
 30
0.0
 11
230.0
 21
27.0
 31
0.0
  0
LINE
  5
86
330
1F
100
AcDbEntity
  8
0
  6
Continuous
 62
     7
370
    50
100
AcDbLine
 10
284.6
 20
27.0
 30
0.0
 11
410.0
 21
27.0
 31
0.0
  0
LINE
  5
87
330
1F
100
AcDbEntity
  8
0
  6
Continuous
 62
     7
370
    50
100
AcDbLine
 10
328.8
 20
65.25
 30
0.0
 11
328.8
 21
10.0
 31
0.0
  0
LINE
  5
88
330
1F
100
AcDbEntity
  8
0
  6
Continuous
 62
     7
370
    50
100
AcDbLine
 10
373.0
 20
10.0
 30
0.0
 11
373.0
 21
14.25
 31
0.0
  0
LINE
  5
89
330
1F
100
AcDbEntity
  8
0
  6
Continuous
 62
     7
370
    50
100
AcDbLine
 10
380.8
 20
58.875
 30
0.0
 11
380.8
 21
65.25
 31
0.0
  0
LINE
  5
8A
330
1F
100
AcDbEntity
  8
0
  6
Continuous
 62
     7
370
    50
100
AcDbLine
 10
397.0
 20
14.25
 30
0.0
 11
397.0
 21
27.0
 31
0.0
  0
LINE
  5
8B
330
1F
100
AcDbEntity
  8
0
  6
Continuous
 62
     7
370
    50
100
AcDbLine
 10
410.0
 20
58.875
 30
0.0
 11
328.8
 21
58.875
 31
0.0
  0
LINE
  5
8C
330
1F
100
AcDbEntity
  8
0
  6
Continuous
 62
     7
370
    50
100
AcDbLine
 10
410.0
 20
18.5
 30
0.0
 11
397.0
 21
18.5
 31
0.0
  0
LINE
  5
8D
330
1F
100
AcDbEntity
  8
0
  6
Continuous
 62
     7
370
    35
100
AcDbLine
 10
20.0
 20
48.5
 30
0.0
 11
15.0
 21
48.5
 31
0.0
  0
LINE
  5
8E
330
1F
100
AcDbEntity
  8
0
  6
Continuous
 62
     7
370
    35
100
AcDbLine
 10
410.0
 20
48.5
 30
0.0
 11
415.0
 21
48.5
 31
0.0
  0
LINE
  5
8F
330
1F
100
AcDbEntity
  8
0
  6
Continuous
 62
     7
370
    35
100
AcDbLine
 10
20.0
 20
98.5
 30
0.0
 11
15.0
 21
98.5
 31
0.0
  0
LINE
  5
90
330
1F
100
AcDbEntity
  8
0
  6
Continuous
 62
     7
370
    35
100
AcDbLine
 10
410.0
 20
98.5
 30
0.0
 11
415.0
 21
98.5
 31
0.0
  0
LINE
  5
91
330
1F
100
AcDbEntity
  8
0
  6
Continuous
 62
     7
370
    35
100
AcDbLine
 10
20.0
 20
148.5
 30
0.0
 11
15.0
 21
148.5
 31
0.0
  0
LINE
  5
92
330
1F
100
AcDbEntity
  8
0
  6
Continuous
 62
     7
370
    35
100
AcDbLine
 10
410.0
 20
148.5
 30
0.0
 11
415.0
 21
148.5
 31
0.0
  0
LINE
  5
93
330
1F
100
AcDbEntity
  8
0
  6
Continuous
 62
     7
370
    35
100
AcDbLine
 10
20.0
 20
198.5
 30
0.0
 11
15.0
 21
198.5
 31
0.0
  0
LINE
  5
94
330
1F
100
AcDbEntity
  8
0
  6
Continuous
 62
     7
370
    35
100
AcDbLine
 10
410.0
 20
198.5
 30
0.0
 11
415.0
 21
198.5
 31
0.0
  0
LINE
  5
95
330
1F
100
AcDbEntity
  8
0
  6
Continuous
 62
     7
370
    35
100
AcDbLine
 10
20.0
 20
248.5
 30
0.0
 11
15.0
 21
248.5
 31
0.0
  0
LINE
  5
96
330
1F
100
AcDbEntity
  8
0
  6
Continuous
 62
     7
370
    35
100
AcDbLine
 10
410.0
 20
248.5
 30
0.0
 11
415.0
 21
248.5
 31
0.0
  0
LINE
  5
97
330
1F
100
AcDbEntity
  8
0
  6
Continuous
 62
     7
370
    35
100
AcDbLine
 10
65.0
 20
287.0
 30
0.0
 11
65.0
 21
292.0
 31
0.0
  0
LINE
  5
98
330
1F
100
AcDbEntity
  8
0
  6
Continuous
 62
     7
370
    35
100
AcDbLine
 10
65.0
 20
10.0
 30
0.0
 11
65.0
 21
5.0
 31
0.0
  0
LINE
  5
99
330
1F
100
AcDbEntity
  8
0
  6
Continuous
 62
     7
370
    35
100
AcDbLine
 10
115.0
 20
287.0
 30
0.0
 11
115.0
 21
292.0
 31
0.0
  0
LINE
  5
9A
330
1F
100
AcDbEntity
  8
0
  6
Continuous
 62
     7
370
    35
100
AcDbLine
 10
115.0
 20
10.0
 30
0.0
 11
115.0
 21
5.0
 31
0.0
  0
LINE
  5
9B
330
1F
100
AcDbEntity
  8
0
  6
Continuous
 62
     7
370
    35
100
AcDbLine
 10
165.0
 20
287.0
 30
0.0
 11
165.0
 21
292.0
 31
0.0
  0
LINE
  5
9C
330
1F
100
AcDbEntity
  8
0
  6
Continuous
 62
     7
370
    35
100
AcDbLine
 10
165.0
 20
10.0
 30
0.0
 11
165.0
 21
5.0
 31
0.0
  0
LINE
  5
9D
330
1F
100
AcDbEntity
  8
0
  6
Continuous
 62
     7
370
    35
100
AcDbLine
 10
215.0
 20
287.0
 30
0.0
 11
215.0
 21
292.0
 31
0.0
  0
LINE
  5
9E
330
1F
100
AcDbEntity
  8
0
  6
Continuous
 62
     7
370
    35
100
AcDbLine
 10
215.0
 20
10.0
 30
0.0
 11
215.0
 21
5.0
 31
0.0
  0
LINE
  5
9F
330
1F
100
AcDbEntity
  8
0
  6
Continuous
 62
     7
370
    35
100
AcDbLine
 10
265.0
 20
287.0
 30
0.0
 11
265.0
 21
292.0
 31
0.0
  0
LINE
  5
A0
330
1F
100
AcDbEntity
  8
0
  6
Continuous
 62
     7
370
    35
100
AcDbLine
 10
265.0
 20
10.0
 30
0.0
 11
265.0
 21
5.0
 31
0.0
  0
LINE
  5
A1
330
1F
100
AcDbEntity
  8
0
  6
Continuous
 62
     7
370
    35
100
AcDbLine
 10
315.0
 20
287.0
 30
0.0
 11
315.0
 21
292.0
 31
0.0
  0
LINE
  5
A2
330
1F
100
AcDbEntity
  8
0
  6
Continuous
 62
     7
370
    35
100
AcDbLine
 10
315.0
 20
10.0
 30
0.0
 11
315.0
 21
5.0
 31
0.0
  0
LINE
  5
A3
330
1F
100
AcDbEntity
  8
0
  6
Continuous
 62
     7
370
    35
100
AcDbLine
 10
365.0
 20
287.0
 30
0.0
 11
365.0
 21
292.0
 31
0.0
  0
LINE
  5
A4
330
1F
100
AcDbEntity
  8
0
  6
Continuous
 62
     7
370
    35
100
AcDbLine
 10
365.0
 20
10.0
 30
0.0
 11
365.0
 21
5.0
 31
0.0
  0
LINE
  5
A5
330
1F
100
AcDbEntity
  8
0
  6
Continuous
 62
     7
370
    70
100
AcDbLine
 10
20.0
 20
10.0
 30
0.0
 11
20.0
 21
287.0
 31
0.0
  0
LINE
  5
A6
330
1F
100
AcDbEntity
  8
0
  6
Continuous
 62
     7
370
    70
100
AcDbLine
 10
20.0
 20
287.0
 30
0.0
 11
410.0
 21
287.0
 31
0.0
  0
LINE
  5
A7
330
1F
100
AcDbEntity
  8
0
  6
Continuous
 62
     7
370
    70
100
AcDbLine
 10
410.0
 20
287.0
 30
0.0
 11
410.0
 21
10.0
 31
0.0
  0
LINE
  5
A8
330
1F
100
AcDbEntity
  8
0
  6
Continuous
 62
     7
370
    70
100
AcDbLine
 10
410.0
 20
10.0
 30
0.0
 11
20.0
 21
10.0
 31
0.0
  0
LINE
  5
A9
330
1F
100
AcDbEntity
  8
0
  6
Continuous
 62
     7
370
    70
100
AcDbLine
 10
15.0
 20
5.0
 30
0.0
 11
15.0
 21
292.0
 31
0.0
  0
LINE
  5
AA
330
1F
100
AcDbEntity
  8
0
  6
Continuous
 62
     7
370
    70
100
AcDbLine
 10
15.0
 20
292.0
 30
0.0
 11
415.0
 21
292.0
 31
0.0
  0
LINE
  5
AB
330
1F
100
AcDbEntity
  8
0
  6
Continuous
 62
     7
370
    70
100
AcDbLine
 10
415.0
 20
292.0
 30
0.0
 11
415.0
 21
5.0
 31
0.0
  0
LINE
  5
AC
330
1F
100
AcDbEntity
  8
0
  6
Continuous
 62
     7
370
    70
100
AcDbLine
 10
415.0
 20
5.0
 30
0.0
 11
15.0
 21
5.0
 31
0.0
  0
LINE
  5
AD
330
1F
100
AcDbEntity
  8
0
  6
Continuous
 62
     7
370
    35
100
AcDbLine
 10
14.999
 20
148.5
 30
0.0
 11
25.001
 21
148.5
 31
0.0
  0
LINE
  5
AE
330
1F
100
AcDbEntity
  8
0
  6
Continuous
 62
     7
370
    35
100
AcDbLine
 10
215.0
 20
292.001
 30
0.0
 11
215.0
 21
281.999
 31
0.0
  0
LINE
  5
AF
330
1F
100
AcDbEntity
  8
0
  6
Continuous
 62
     7
370
    35
100
AcDbLine
 10
415.001
 20
148.5
 30
0.0
 11
404.999
 21
148.5
 31
0.0
  0
LINE
  5
B0
330
1F
100
AcDbEntity
  8
0
  6
Continuous
 62
     7
370
    35
100
AcDbLine
 10
215.0
 20
4.999
 30
0.0
 11
215.0
 21
15.001
 31
0.0
  0
MTEXT
  5
B2
330
1F
100
AcDbEntity
  8
0
  6
Continuous
 62
     7
370
     0
100
AcDbMText
 10
364.8322881504
 20
23.6069112001
 30
0.0
 40
6.35
 41
0.0
 71
     2
 72
     1
  1
CE050CCOOFFGM020_#_##Svoboda
  7
SLDTEXTSTYLE0
 73
     1
 44
1.0
  0
MTEXT
  5
B3
330
1F
100
AcDbEntity
  8
0
  6
Continuous
 62
     7
370
     0
100
AcDbMText
 10
285.6178111281
 20
12.9493119036
 30
0.0
 40
1.4986
 41
0.0
 71
     1
 72
     1
  1
HMOTNOST:
  7
SLDTEXTSTYLE0
 73
     1
 44
1.0
  0
MTEXT
  5
B4
330
1F
100
AcDbEntity
  8
0
  6
Continuous
 62
     7
370
     0
100
AcDbMText
 10
400.8711564346
 20
24.406388569
 30
0.0
 40
2.9104166667
 41
0.0
 71
     1
 72
     1
  1
A3
  7
SLDTEXTSTYLE0
 73
     1
 44
1.0
  0
MTEXT
  5
B6
330
1F
100
AcDbEntity
  8
0
  6
Continuous
 62
     7
370
     0
100
AcDbMText
 10
374.4782944278
 20
12.9000872745
 30
0.0
 40
1.5
 41
0.0
 71
     1
 72
     1
  1
LIST 1 Z 1 LISTŮ
  7
SLDTEXTSTYLE1
 73
     1
 44
1.0
  0
MTEXT
  5
B8
330
1F
100
AcDbEntity
  8
0
  6
Continuous
 62
     7
370
     0
100
AcDbMText
 10
330.0739661175
 20
12.9000872745
 30
0.0
 40
1.5
 41
0.0
 71
     1
 72
     1
  1
MĚŘÍTKO:1:1
  7
SLDTEXTSTYLE2
 73
     1
 44
1.0
  0
MTEXT
  5
B9
330
1F
100
AcDbEntity
  8
0
  6
Continuous
 62
     7
370
     0
100
AcDbMText
 10
330.2786531243
 20
25.9860562892
 30
0.0
 40
1.5
 41
0.0
 71
     1
 72
     1
  1
Č. VÝKRESU
  7
SLDTEXTSTYLE2
 73
     1
 44
1.0
  0
MTEXT
  5
BA
330
1F
100
AcDbEntity
  8
0
  6
Continuous
 62
     7
370
     0
100
AcDbMText
 10
329.9561869366
 20
46.5761792212
 30
0.0
 40
1.5
 41
0.0
 71
     1
 72
     1
  1
NÁZEV:
  7
SLDTEXTSTYLE0
 73
     1
 44
1.0
  0
MTEXT
  5
BB
330
1F
100
AcDbEntity
  8
0
  6
Continuous
 62
     7
370
     0
100
AcDbMText
 10
383.3275816993
 20
62.3349086805
 30
0.0
 40
1.5
 41
0.0
 71
     1
 72
     1
  1
ZMĚNA
  7
SLDTEXTSTYLE2
 73
     1
 44
1.0
  0
MTEXT
  5
BC
330
1F
100
AcDbEntity
  8
0
  6
Continuous
 62
     7
370
     0
100
AcDbMText
 10
342.6146405229
 20
62.5329935751
 30
0.0
 40
1.5
 41
0.0
 71
     1
 72
     1
  1
NEUPRAVOVAT MĚŘÍTKO VÝKRESU
  7
SLDTEXTSTYLE2
 73
     1
 44
1.0
  0
MTEXT
  5
BD
330
1F
100
AcDbEntity
  8
0
  6
Continuous
 62
     7
370
     0
100
AcDbMText
 10
285.6458623088
 20
25.9860562892
 30
0.0
 40
1.5
 41
0.0
 71
     1
 72
     1
  1
MATERIÁL:
  7
SLDTEXTSTYLE0
 73
     1
 44
1.0
  0
MTEXT
  5
BE
330
1F
100
AcDbEntity
  8
0
  6
Continuous
 62
     7
370
     0
100
AcDbMText
 10
277.2147019657
 20
46.5761792212
 30
0.0
 40
1.5
 41
0.0
 71
     1
 72
     1
  1
DATUM
  7
SLDTEXTSTYLE0
 73
     1
 44
1.0
  0
MTEXT
  5
BF
330
1F
100
AcDbEntity
  8
0
  6
Continuous
 62
     7
370
     0
100
AcDbMText
 10
260.0335875632
 20
46.5617563795
 30
0.0
 40
1.5
 41
0.0
 71
     1
 72
     1
  1
PODPIS
  7
SLDTEXTSTYLE0
 73
     1
 44
1.0
  0
MTEXT
  5
C0
330
1F
100
AcDbEntity
  8
0
  6
Continuous
 62
     7
370
     0
100
AcDbMText
 10
244.3222392177
 20
46.5014826335
 30
0.0
 40
1.5
 41
0.0
 71
     1
 72
     1
  1
JMÉNO
  7
SLDTEXTSTYLE0
 73
     1
 44
1.0
  0
INSERT
  5
C6
330
1F
100
AcDbEntity
  8
0
  6
Continuous
 62
     7
370
     0
100
AcDbBlockReference
  2
SW_NOTE_0
 10
311.3092156863
 20
62.069489643
 30
0.0
  0
MTEXT
  5
C7
330
1F
100
AcDbEntity
  8
0
  6
Continuous
 62
     7
370
     0
100
AcDbMText
 10
264.3712921668
 20
63.9192719951
 30
0.0
 40
1.5
 41
0.0
 71
     1
 72
     1
  1
OPRACOVÁNÍ:
  7
SLDTEXTSTYLE0
 73
     1
 44
1.0
  0
INSERT
  5
D1
330
1F
100
AcDbEntity
  8
0
  6
Continuous
 62
     7
370
     0
100
AcDbBlockReference
  2
SW_NOTE_0_1
 10
230.5936687456
 20
61.9873698743
 30
0.0
  0
MTEXT
  5
D2
330
1F
100
AcDbEntity
  8
0
  6
Continuous
 62
     7
370
     0
100
AcDbMText
 10
230.6690428622
 20
25.3496492073
 30
0.0
 40
1.5
 41
0.0
 71
     1
 72
     1
  1
Z. JAKOSTI
  7
SLDTEXTSTYLE0
 73
     1
 44
1.0
  0
MTEXT
  5
D3
330
1F
100
AcDbEntity
  8
0
  6
Continuous
 62
     7
370
     0
100
AcDbMText
 10
230.4551864991
 20
29.7337046506
 30
0.0
 40
1.5
 41
0.0
 71
     1
 72
     1
  1
VÝROBA
  7
SLDTEXTSTYLE0
 73
     1
 44
1.0
  0
MTEXT
  5
D4
330
1F
100
AcDbEntity
  8
0
  6
Continuous
 62
     7
370
     0
100
AcDbMText
 10
230.4017224083
 20
34.0642960031
 30
0.0
 40
1.5
 41
0.0
 71
     1
 72
     1
  1
SCHVÁLIL
  7
SLDTEXTSTYLE0
 73
     1
 44
1.0
  0
MTEXT
  5
D5
330
1F
100
AcDbEntity
  8
0
  6
Continuous
 62
     7
370
     0
100
AcDbMText
 10
230.4104688676
 20
38.15440716
 30
0.0
 40
1.5
 41
0.0
 71
     1
 72
     1
  1
PŘEZKOUŠEL
  7
SLDTEXTSTYLE2
 73
     1
 44
1.0
  0
MTEXT
  5
D6
330
1F
100
AcDbEntity
  8
0
  6
Continuous
 62
     7
370
     0
100
AcDbMText
 10
230.2121492441
 20
42.4297148859
 30
0.0
 40
1.5
 41
0.0
 71
     1
 72
     1
  1
NAVRHL
  7
SLDTEXTSTYLE0
 73
     1
 44
1.0
  0
MTEXT
  5
D7
330
1F
100
AcDbEntity
  8
0
  6
Continuous
 62
     7
370
     0
100
AcDbMText
 10
17.3396881428
 20
31.81015409
 30
0.0
 40
3.96875
 41
0.0
 71
     2
 72
     1
  1
A
  7
SLDTEXTSTYLE0
 73
     1
 44
1.0
  0
MTEXT
  5
D8
330
1F
100
AcDbEntity
  8
0
  6
Continuous
 62
     7
370
     0
100
AcDbMText
 10
412.3396881428
 20
31.81015409
 30
0.0
 40
3.96875
 41
0.0
 71
     2
 72
     1
  1
A
  7
SLDTEXTSTYLE0
 73
     1
 44
1.0
  0
MTEXT
  5
D9
330
1F
100
AcDbEntity
  8
0
  6
Continuous
 62
     7
370
     0
100
AcDbMText
 10
17.4706018241
 20
76.06015409
 30
0.0
 40
3.96875
 41
0.0
 71
     2
 72
     1
  1
B
  7
SLDTEXTSTYLE0
 73
     1
 44
1.0
  0
MTEXT
  5
DA
330
1F
100
AcDbEntity
  8
0
  6
Continuous
 62
     7
370
     0
100
AcDbMText
 10
412.4706018241
 20
76.06015409
 30
0.0
 40
3.96875
 41
0.0
 71
     2
 72
     1
  1
B
  7
SLDTEXTSTYLE0
 73
     1
 44
1.0
  0
MTEXT
  5
DB
330
1F
100
AcDbEntity
  8
0
  6
Continuous
 62
     7
370
     0
100
AcDbMText
 10
17.458658902
 20
126.06015409
 30
0.0
 40
3.96875
 41
0.0
 71
     2
 72
     1
  1
C
  7
SLDTEXTSTYLE0
 73
     1
 44
1.0
  0
MTEXT
  5
DC
330
1F
100
AcDbEntity
  8
0
  6
Continuous
 62
     7
370
     0
100
AcDbMText
 10
412.458658902
 20
126.06015409
 30
0.0
 40
3.96875
 41
0.0
 71
     2
 72
     1
  1
C
  7
SLDTEXTSTYLE0
 73
     1
 44
1.0
  0
MTEXT
  5
DD
330
1F
100
AcDbEntity
  8
0
  6
Continuous
 62
     7
370
     0
100
AcDbMText
 10
17.4526872821
 20
176.06015409
 30
0.0
 40
3.96875
 41
0.0
 71
     2
 72
     1
  1
D
  7
SLDTEXTSTYLE0
 73
     1
 44
1.0
  0
MTEXT
  5
DE
330
1F
100
AcDbEntity
  8
0
  6
Continuous
 62
     7
370
     0
100
AcDbMText
 10
412.4526872821
 20
176.06015409
 30
0.0
 40
3.96875
 41
0.0
 71
     2
 72
     1
  1
D
  7
SLDTEXTSTYLE0
 73
     1
 44
1.0
  0
MTEXT
  5
DF
330
1F
100
AcDbEntity
  8
0
  6
Continuous
 62
     7
370
     0
100
AcDbMText
 10
17.5078089051
 20
226.06015409
 30
0.0
 40
3.96875
 41
0.0
 71
     2
 72
     1
  1
E
  7
SLDTEXTSTYLE0
 73
     1
 44
1.0
  0
MTEXT
  5
E0
330
1F
100
AcDbEntity
  8
0
  6
Continuous
 62
     7
370
     0
100
AcDbMText
 10
412.5078089051
 20
226.06015409
 30
0.0
 40
3.96875
 41
0.0
 71
     2
 72
     1
  1
E
  7
SLDTEXTSTYLE0
 73
     1
 44
1.0
  0
MTEXT
  5
E1
330
1F
100
AcDbEntity
  8
0
  6
Continuous
 62
     7
370
     0
100
AcDbMText
 10
17.4577402091
 20
270.31015409
 30
0.0
 40
3.96875
 41
0.0
 71
     2
 72
     1
  1
F
  7
SLDTEXTSTYLE0
 73
     1
 44
1.0
  0
MTEXT
  5
E2
330
1F
100
AcDbEntity
  8
0
  6
Continuous
 62
     7
370
     0
100
AcDbMText
 10
412.4577402091
 20
270.31015409
 30
0.0
 40
3.96875
 41
0.0
 71
     2
 72
     1
  1
F
  7
SLDTEXTSTYLE0
 73
     1
 44
1.0
  0
MTEXT
  5
E3
330
1F
100
AcDbEntity
  8
0
  6
Continuous
 62
     7
370
     0
100
AcDbMText
 10
42.4600369465
 20
10.06015409
 30
0.0
 40
3.96875
 41
0.0
 71
     2
 72
     1
  1
8
  7
SLDTEXTSTYLE0
 73
     1
 44
1.0
  0
MTEXT
  5
E4
330
1F
100
AcDbEntity
  8
0
  6
Continuous
 62
     7
370
     0
100
AcDbMText
 10
42.4600369465
 20
292.06015409
 30
0.0
 40
3.96875
 41
0.0
 71
     2
 72
     1
  1
8
  7
SLDTEXTSTYLE0
 73
     1
 44
1.0
  0
MTEXT
  5
E5
330
1F
100
AcDbEntity
  8
0
  6
Continuous
 62
     7
370
     0
100
AcDbMText
 10
89.9600369465
 20
10.06015409
 30
0.0
 40
3.96875
 41
0.0
 71
     2
 72
     1
  1
7
  7
SLDTEXTSTYLE0
 73
     1
 44
1.0
  0
MTEXT
  5
E6
330
1F
100
AcDbEntity
  8
0
  6
Continuous
 62
     7
370
     0
100
AcDbMText
 10
89.9600369465
 20
292.06015409
 30
0.0
 40
3.96875
 41
0.0
 71
     2
 72
     1
  1
7
  7
SLDTEXTSTYLE0
 73
     1
 44
1.0
  0
MTEXT
  5
E7
330
1F
100
AcDbEntity
  8
0
  6
Continuous
 62
     7
370
     0
100
AcDbMText
 10
139.9600369465
 20
10.06015409
 30
0.0
 40
3.96875
 41
0.0
 71
     2
 72
     1
  1
6
  7
SLDTEXTSTYLE0
 73
     1
 44
1.0
  0
MTEXT
  5
E8
330
1F
100
AcDbEntity
  8
0
  6
Continuous
 62
     7
370
     0
100
AcDbMText
 10
139.9600369465
 20
292.06015409
 30
0.0
 40
3.96875
 41
0.0
 71
     2
 72
     1
  1
6
  7
SLDTEXTSTYLE0
 73
     1
 44
1.0
  0
MTEXT
  5
E9
330
1F
100
AcDbEntity
  8
0
  6
Continuous
 62
     7
370
     0
100
AcDbMText
 10
189.9600369465
 20
10.06015409
 30
0.0
 40
3.96875
 41
0.0
 71
     2
 72
     1
  1
5
  7
SLDTEXTSTYLE0
 73
     1
 44
1.0
  0
MTEXT
  5
EA
330
1F
100
AcDbEntity
  8
0
  6
Continuous
 62
     7
370
     0
100
AcDbMText
 10
189.9600369465
 20
292.06015409
 30
0.0
 40
3.96875
 41
0.0
 71
     2
 72
     1
  1
5
  7
SLDTEXTSTYLE0
 73
     1
 44
1.0
  0
MTEXT
  5
EB
330
1F
100
AcDbEntity
  8
0
  6
Continuous
 62
     7
370
     0
100
AcDbMText
 10
239.9600369465
 20
10.06015409
 30
0.0
 40
3.96875
 41
0.0
 71
     2
 72
     1
  1
4
  7
SLDTEXTSTYLE0
 73
     1
 44
1.0
  0
MTEXT
  5
EC
330
1F
100
AcDbEntity
  8
0
  6
Continuous
 62
     7
370
     0
100
AcDbMText
 10
239.9600369465
 20
292.06015409
 30
0.0
 40
3.96875
 41
0.0
 71
     2
 72
     1
  1
4
  7
SLDTEXTSTYLE0
 73
     1
 44
1.0
  0
MTEXT
  5
ED
330
1F
100
AcDbEntity
  8
0
  6
Continuous
 62
     7
370
     0
100
AcDbMText
 10
289.9600369465
 20
10.06015409
 30
0.0
 40
3.96875
 41
0.0
 71
     2
 72
     1
  1
3
  7
SLDTEXTSTYLE0
 73
     1
 44
1.0
  0
MTEXT
  5
EE
330
1F
100
AcDbEntity
  8
0
  6
Continuous
 62
     7
370
     0
100
AcDbMText
 10
289.9600369465
 20
292.06015409
 30
0.0
 40
3.96875
 41
0.0
 71
     2
 72
     1
  1
3
  7
SLDTEXTSTYLE0
 73
     1
 44
1.0
  0
MTEXT
  5
EF
330
1F
100
AcDbEntity
  8
0
  6
Continuous
 62
     7
370
     0
100
AcDbMText
 10
339.9600369465
 20
10.06015409
 30
0.0
 40
3.96875
 41
0.0
 71
     2
 72
     1
  1
2
  7
SLDTEXTSTYLE0
 73
     1
 44
1.0
  0
MTEXT
  5
F0
330
1F
100
AcDbEntity
  8
0
  6
Continuous
 62
     7
370
     0
100
AcDbMText
 10
339.9600369465
 20
292.06015409
 30
0.0
 40
3.96875
 41
0.0
 71
     2
 72
     1
  1
2
  7
SLDTEXTSTYLE0
 73
     1
 44
1.0
  0
MTEXT
  5
F1
330
1F
100
AcDbEntity
  8
0
  6
Continuous
 62
     7
370
     0
100
AcDbMText
 10
387.4600369465
 20
10.06015409
 30
0.0
 40
3.96875
 41
0.0
 71
     2
 72
     1
  1
1
  7
SLDTEXTSTYLE0
 73
     1
 44
1.0
  0
MTEXT
  5
F2
330
1F
100
AcDbEntity
  8
0
  6
Continuous
 62
     7
370
     0
100
AcDbMText
 10
387.4600369465
 20
292.06015409
 30
0.0
 40
3.96875
 41
0.0
 71
     2
 72
     1
  1
1
  7
SLDTEXTSTYLE0
 73
     1
 44
1.0
  0
ARC
  5
F3
330
1F
100
AcDbEntity
  8
0
  6
Continuous
 62
     7
370
    25
100
AcDbCircle
 10
135.94
 20
206.56
 30
0.0
 40
13.50000000000002
100
AcDbArc
 50
297.2660444507
 51
332.7339555493
  0
ARC
  5
F4
330
1F
100
AcDbEntity
  8
0
  6
Continuous
 62
     7
370
    25
100
AcDbCircle
 10
135.94
 20
206.56
 30
0.0
 40
13.00000000000003
100
AcDbArc
 50
292.619864948
 51
337.380135052
  0
SPLINE
  5
F5
330
1F
100
AcDbEntity
  8
0
  6
Continuous
 62
     7
370
    25
100
AcDbSpline
210
0.0
220
0.0
230
1.0
 70
    24
 71
     3
 72
    13
 73
     9
 74
     0
 42
0.000000001
 43
0.00000001
 40
0.0
 40
0.0
 40
0.0
 40
0.0
 40
0.4799499424353234
 40
0.6340774134268105
 40
0.8347923727805275
 40
0.9075511259476879
 40
0.9810151286892566
 40
1.0
 40
1.0
 40
1.0
 40
1.0
 10
147.9400000000293
 20
201.5599999999976
 30
0.0
 10
147.9400000000293
 20
201.3374336977087
 30
0.0
 10
147.9400000000294
 20
201.0433941473437
 30
0.0
 10
147.9400000000293
 20
200.6794054714868
 30
0.0
 10
147.9400000000294
 20
200.5037737607537
 30
0.0
 10
147.9400000000293
 20
200.4038255333994
 30
0.0
 10
147.9400000000294
 20
200.3771570423298
 30
0.0
 10
147.9400000000293
 20
200.3756508634658
 30
0.0
 10
147.9400000000293
 20
200.3753415615711
 30
0.0
  0
SPLINE
  5
F6
330
1F
100
AcDbEntity
  8
0
  6
Continuous
 62
     7
370
    25
100
AcDbSpline
210
0.0
220
0.0
230
1.0
 70
    24
 71
     3
 72
    12
 73
     8
 74
     0
 42
0.000000001
 43
0.00000001
 40
0.0
 40
0.0
 40
0.0
 40
0.0
 40
0.0601535335807874
 40
0.1340692207311654
 40
0.2500205483418491
 40
0.4730509958511251
 40
0.9999999999999999
 40
0.9999999999999999
 40
0.9999999999999999
 40
0.9999999999999999
 10
142.1246584384558
 20
194.5599999999976
 30
0.0
 10
142.1215797691601
 20
194.5599999999976
 30
0.0
 10
142.1147180809299
 20
194.5599999999976
 30
0.0
 10
142.0516373538842
 20
194.5599999999976
 30
0.0
 10
141.9052096400422
 20
194.5599999999976
 30
0.0
 10
141.5312145665498
 20
194.5599999999976
 30
0.0
 10
141.1839760236268
 20
194.5599999999976
 30
0.0
 10
140.9400000000293
 20
194.5599999999976
 30
0.0
  0
ARC
  5
F7
330
1F
100
AcDbEntity
  8
0
  6
Continuous
 62
     7
370
    25
100
AcDbCircle
 10
135.94
 20
206.56
 30
0.0
 40
13.5
100
AcDbArc
 50
27.2660444507
 51
62.7339555493
  0
SPLINE
  5
F8
330
1F
100
AcDbEntity
  8
0
  6
Continuous
 62
     7
370
    25
100
AcDbSpline
210
0.0
220
0.0
230
1.0
 70
    24
 71
     3
 72
    12
 73
     8
 74
     0
 42
0.000000001
 43
0.00000001
 40
0.0
 40
0.0
 40
0.0
 40
0.0
 40
0.0601535335807879
 40
0.1340692207311652
 40
0.2500205483418729
 40
0.4730509958511686
 40
0.9999999999999999
 40
0.9999999999999999
 40
0.9999999999999999
 40
0.9999999999999999
 10
147.9400000000293
 20
212.7446584384241
 30
0.0
 10
147.9400000000293
 20
212.7415797691283
 30
0.0
 10
147.9400000000293
 20
212.7347180808982
 30
0.0
 10
147.9400000000293
 20
212.6716373538525
 30
0.0
 10
147.9400000000293
 20
212.5252096400105
 30
0.0
 10
147.9400000000293
 20
212.1512145665181
 30
0.0
 10
147.9400000000293
 20
211.8039760235951
 30
0.0
 10
147.9400000000293
 20
211.5599999999976
 30
0.0
  0
ARC
  5
F9
330
1F
100
AcDbEntity
  8
0
  6
Continuous
 62
     7
370
    25
100
AcDbCircle
 10
135.94
 20
206.56
 30
0.0
 40
13.00000000000001
100
AcDbArc
 50
22.619864948
 51
67.380135052
  0
SPLINE
  5
FA
330
1F
100
AcDbEntity
  8
0
  6
Continuous
 62
     7
370
    25
100
AcDbSpline
210
0.0
220
0.0
230
1.0
 70
    24
 71
     3
 72
    13
 73
     9
 74
     0
 42
0.000000001
 43
0.00000001
 40
0.0
 40
0.0
 40
0.0
 40
0.0
 40
0.4799499424353231
 40
0.6340774134268193
 40
0.8347923727805264
 40
0.907551125947688
 40
0.9810151286892568
 40
1.0
 40
1.0
 40
1.0
 40
1.0
 10
140.9400000000294
 20
218.5599999999976
 30
0.0
 10
141.1625663023183
 20
218.5599999999976
 30
0.0
 10
141.4566058526833
 20
218.5599999999976
 30
0.0
 10
141.8205945285401
 20
218.5599999999976
 30
0.0
 10
141.9962262392732
 20
218.5599999999976
 30
0.0
 10
142.0961744666276
 20
218.5599999999976
 30
0.0
 10
142.1228429576971
 20
218.5599999999976
 30
0.0
 10
142.1243491365612
 20
218.5599999999976
 30
0.0
 10
142.1246584384558
 20
218.5599999999976
 30
0.0
  0
ARC
  5
FB
330
1F
100
AcDbEntity
  8
0
  6
Continuous
 62
     7
370
    25
100
AcDbCircle
 10
135.94
 20
206.56
 30
0.0
 40
13.5
100
AcDbArc
 50
117.2660444507
 51
152.7339555493
  0
SPLINE
  5
FC
330
1F
100
AcDbEntity
  8
0
  6
Continuous
 62
     7
370
    25
100
AcDbSpline
210
0.0
220
0.0
230
1.0
 70
    24
 71
     3
 72
    12
 73
     8
 74
     0
 42
0.000000001
 43
0.00000001
 40
0.0
 40
0.0
 40
0.0
 40
0.0
 40
0.0601535335807873
 40
0.1340692207311768
 40
0.2500205483418878
 40
0.4730509958511996
 40
1.0
 40
1.0
 40
1.0
 40
1.0
 10
129.7553415616028
 20
218.5599999999976
 30
0.0
 10
129.7584202308986
 20
218.5599999999976
 30
0.0
 10
129.7652819191288
 20
218.5599999999976
 30
0.0
 10
129.8283626461744
 20
218.5599999999976
 30
0.0
 10
129.9747903600165
 20
218.5599999999976
 30
0.0
 10
130.3487854335089
 20
218.5599999999976
 30
0.0
 10
130.6960239764319
 20
218.5599999999976
 30
0.0
 10
130.9400000000293
 20
218.5599999999976
 30
0.0
  0
ARC
  5
FD
330
1F
100
AcDbEntity
  8
0
  6
Continuous
 62
     7
370
    25
100
AcDbCircle
 10
135.94
 20
206.56
 30
0.0
 40
13.0
100
AcDbArc
 50
112.619864948
 51
157.380135052
  0
SPLINE
  5
FE
330
1F
100
AcDbEntity
  8
0
  6
Continuous
 62
     7
370
    25
100
AcDbSpline
210
0.0
220
0.0
230
1.0
 70
    24
 71
     3
 72
    13
 73
     9
 74
     0
 42
0.000000001
 43
0.00000001
 40
0.0
 40
0.0
 40
0.0
 40
0.0
 40
0.4799499424353245
 40
0.6340774134268224
 40
0.8347923727805383
 40
0.9075511259477
 40
0.9810151286892872
 40
1.0
 40
1.0
 40
1.0
 40
1.0
 10
123.9400000000293
 20
211.5599999999976
 30
0.0
 10
123.9400000000293
 20
211.7825663022866
 30
0.0
 10
123.9400000000293
 20
212.0766058526515
 30
0.0
 10
123.9400000000293
 20
212.4405945285084
 30
0.0
 10
123.9400000000293
 20
212.6162262392415
 30
0.0
 10
123.9400000000293
 20
212.7161744665959
 30
0.0
 10
123.9400000000293
 20
212.7428429576654
 30
0.0
 10
123.9400000000293
 20
212.7443491365294
 30
0.0
 10
123.9400000000293
 20
212.7446584384241
 30
0.0
  0
ARC
  5
FF
330
1F
100
AcDbEntity
  8
0
  6
Continuous
 62
     7
370
    25
100
AcDbCircle
 10
135.94
 20
206.56
 30
0.0
 40
13.50000000000002
100
AcDbArc
 50
207.2660444507
 51
242.7339555493
  0
ARC
  5
100
330
1F
100
AcDbEntity
  8
0
  6
Continuous
 62
     7
370
    25
100
AcDbCircle
 10
135.94
 20
206.56
 30
0.0
 40
13.00000000000003
100
AcDbArc
 50
202.619864948
 51
247.380135052
  0
SPLINE
  5
101
330
1F
100
AcDbEntity
  8
0
  6
Continuous
 62
     7
370
    25
100
AcDbSpline
210
0.0
220
0.0
230
1.0
 70
    24
 71
     3
 72
    12
 73
     8
 74
     0
 42
0.000000001
 43
0.00000001
 40
0.0
 40
0.0
 40
0.0
 40
0.0
 40
0.0601535335807862
 40
0.1340692207311751
 40
0.2500205483418907
 40
0.4730509958512012
 40
0.9999999999999999
 40
0.9999999999999999
 40
0.9999999999999999
 40
0.9999999999999999
 10
123.9400000000293
 20
200.3753415615711
 30
0.0
 10
123.9400000000293
 20
200.3784202308669
 30
0.0
 10
123.9400000000293
 20
200.385281919097
 30
0.0
 10
123.9400000000293
 20
200.4483626461427
 30
0.0
 10
123.9400000000293
 20
200.5947903599848
 30
0.0
 10
123.9400000000293
 20
200.9687854334772
 30
0.0
 10
123.9400000000293
 20
201.3160239764001
 30
0.0
 10
123.9400000000293
 20
201.5599999999976
 30
0.0
  0
SPLINE
  5
102
330
1F
100
AcDbEntity
  8
0
  6
Continuous
 62
     7
370
    25
100
AcDbSpline
210
0.0
220
0.0
230
1.0
 70
    24
 71
     3
 72
    13
 73
     9
 74
     0
 42
0.000000001
 43
0.00000001
 40
0.0
 40
0.0
 40
0.0
 40
0.0
 40
0.4799499424353256
 40
0.6340774134268203
 40
0.8347923727805272
 40
0.9075511259476877
 40
0.9810151286892665
 40
1.0
 40
1.0
 40
1.0
 40
1.0
 10
130.9400000000293
 20
194.5599999999976
 30
0.0
 10
130.7174336977403
 20
194.5599999999976
 30
0.0
 10
130.4233941473754
 20
194.5599999999976
 30
0.0
 10
130.0594054715186
 20
194.5599999999976
 30
0.0
 10
129.8837737607854
 20
194.5599999999976
 30
0.0
 10
129.7838255334311
 20
194.5599999999976
 30
0.0
 10
129.7571570423615
 20
194.5599999999976
 30
0.0
 10
129.7556508634975
 20
194.5599999999976
 30
0.0
 10
129.7553415616028
 20
194.5599999999976
 30
0.0
  0
CIRCLE
  5
103
330
1F
100
AcDbEntity
  8
0
  6
Continuous
 62
     7
370
    25
100
AcDbCircle
 10
135.94
 20
206.56
 30
0.0
 40
9.550000000000011
  0
LINE
  5
104
330
1F
100
AcDbEntity
  8
0
  6
Continuous
 62
     7
370
    25
100
AcDbLine
 10
140.94
 20
218.56
 30
0.0
 11
130.94
 21
218.56
 31
0.0
  0
LINE
  5
105
330
1F
100
AcDbEntity
  8
0
  6
Continuous
 62
     7
370
    25
100
AcDbLine
 10
123.94
 20
211.56
 30
0.0
 11
123.94
 21
201.56
 31
0.0
  0
LINE
  5
106
330
1F
100
AcDbEntity
  8
0
  6
Continuous
 62
     7
370
    25
100
AcDbLine
 10
147.94
 20
201.56
 30
0.0
 11
147.94
 21
211.56
 31
0.0
  0
LINE
  5
107
330
1F
100
AcDbEntity
  8
0
  6
Continuous
 62
     7
370
    25
100
AcDbLine
 10
130.94
 20
194.56
 30
0.0
 11
140.94
 21
194.56
 31
0.0
  0
CIRCLE
  5
108
330
1F
100
AcDbEntity
  8
0
  6
Continuous
 62
     7
370
    25
100
AcDbCircle
 10
135.94
 20
206.56
 30
0.0
 40
9.25
  0
ARC
  5
109
330
1F
100
AcDbEntity
  8
0
  6
Continuous
 62
     7
370
    25
100
AcDbCircle
 10
135.94
 20
206.56
 30
0.0
 40
13.50000000000001
100
AcDbArc
 50
152.7339555493
 51
207.2660444507
  0
CIRCLE
  5
10A
330
1F
100
AcDbEntity
  8
0
  6
Continuous
 62
     7
370
    25
100
AcDbCircle
 10
135.94
 20
206.56
 30
0.0
 40
14.0
  0
ARC
  5
10B
330
1F
100
AcDbEntity
  8
0
  6
Continuous
 62
     7
370
    25
100
AcDbCircle
 10
135.94
 20
206.56
 30
0.0
 40
13.50000000000002
100
AcDbArc
 50
242.7339555493
 51
297.2660444507
  0
ARC
  5
10C
330
1F
100
AcDbEntity
  8
0
  6
Continuous
 62
     7
370
    25
100
AcDbCircle
 10
135.94
 20
206.56
 30
0.0
 40
13.50000000000001
100
AcDbArc
 50
332.7339555493
 51
27.2660444507
  0
ARC
  5
10D
330
1F
100
AcDbEntity
  8
0
  6
Continuous
 62
     7
370
    25
100
AcDbCircle
 10
135.94
 20
206.56
 30
0.0
 40
13.5
100
AcDbArc
 50
62.7339555493
 51
117.2660444507
  0
LINE
  5
10E
330
1F
100
AcDbEntity
  8
0
  6
Continuous
 62
     7
370
    25
100
AcDbLine
 10
153.94
 20
216.3707084352
 30
0.0
 11
153.94
 21
196.7492915648
 31
0.0
  0
ARC
  5
10F
330
1F
100
AcDbEntity
  8
0
  6
Continuous
 62
     7
370
    25
100
AcDbCircle
 10
135.94
 20
206.56
 30
0.0
 40
20.50000000000003
100
AcDbArc
 50
208.5921226409
 51
331.4078773591
  0
LINE
  5
110
330
1F
100
AcDbEntity
  8
0
  6
Continuous
 62
     7
370
    25
100
AcDbLine
 10
117.94
 20
216.3707084352
 30
0.0
 11
117.94
 21
196.7492915648
 31
0.0
  0
ARC
  5
111
330
1F
100
AcDbEntity
  8
0
  6
Continuous
 62
     7
370
    25
100
AcDbCircle
 10
135.94
 20
206.56
 30
0.0
 40
20.50000000000003
100
AcDbArc
 50
28.5921226409
 51
151.4078773591
  0
CIRCLE
  5
112
330
1F
100
AcDbEntity
  8
0
  6
Continuous
 62
     7
370
    25
100
AcDbCircle
 10
135.94
 20
206.56
 30
0.0
 40
14.5
  0
LINE
  5
113
330
1F
100
AcDbEntity
  8
0
  6
Continuous
 62
     7
370
    25
100
AcDbLine
 10
117.94
 20
217.3766538264
 30
0.0
 11
117.94
 21
216.3707084352
 31
0.0
  0
ARC
  5
114
330
1F
100
AcDbEntity
  8
0
  6
Continuous
 62
     7
370
    25
100
AcDbCircle
 10
135.94
 20
206.56
 30
0.0
 40
20.99999999999999
100
AcDbArc
 50
31.0027191339
 51
148.9972808661
  0
LINE
  5
115
330
1F
100
AcDbEntity
  8
0
  6
Continuous
 62
     7
370
    25
100
AcDbLine
 10
153.94
 20
217.3766538264
 30
0.0
 11
153.94
 21
216.3707084352
 31
0.0
  0
ARC
  5
116
330
1F
100
AcDbEntity
  8
0
  6
Continuous
 62
     7
370
    25
100
AcDbCircle
 10
135.94
 20
206.56
 30
0.0
 40
21.00000000000001
100
AcDbArc
 50
211.0027191339
 51
328.9972808661
  0
LINE
  5
117
330
1F
100
AcDbEntity
  8
0
  6
Continuous
 62
     7
370
    25
100
AcDbLine
 10
117.94
 20
196.7492915648
 30
0.0
 11
117.94
 21
195.7433461736
 31
0.0
  0
LINE
  5
118
330
1F
100
AcDbEntity
  8
0
  6
Continuous
 62
     7
370
    25
100
AcDbLine
 10
153.94
 20
196.7492915648
 30
0.0
 11
153.94
 21
195.7433461736
 31
0.0
  0
ARC
  5
119
330
1F
100
AcDbEntity
  8
0
  6
Continuous
 62
     7
370
    25
100
AcDbCircle
 10
135.94
 20
206.56
 30
0.0
 40
21.00000000000001
100
AcDbArc
 50
328.9972808661
 51
31.0027191339
  0
ARC
  5
11A
330
1F
100
AcDbEntity
  8
0
  6
Continuous
 62
     7
370
    25
100
AcDbCircle
 10
135.94
 20
206.56
 30
0.0
 40
21.00000000000001
100
AcDbArc
 50
148.9972808661
 51
211.0027191339
  0
CIRCLE
  5
11B
330
1F
100
AcDbEntity
  8
0
  6
Continuous
 62
     7
370
    25
100
AcDbCircle
 10
135.94
 20
206.56
 30
0.0
 40
21.5
  0
CIRCLE
  5
11C
330
1F
100
AcDbEntity
  8
0
  6
Continuous
 62
     7
370
    25
100
AcDbCircle
 10
135.94
 20
206.56
 30
0.0
 40
29.99999999999999
  0
LINE
  5
11D
330
1F
100
AcDbEntity
  8
0
  6
Continuous
 62
     7
370
    25
100
AcDbLine
 10
88.94
 20
244.06
 30
0.0
 11
85.94
 21
241.06
 31
0.0
  0
CIRCLE
  5
11E
330
1F
100
AcDbEntity
  8
0
  6
Continuous
 62
     7
370
    25
100
AcDbCircle
 10
97.94
 20
229.06
 30
0.0
 40
6.5
  0
CIRCLE
  5
11F
330
1F
100
AcDbEntity
  8
0
  6
Continuous
 62
     7
370
    25
100
AcDbCircle
 10
173.94
 20
184.06
 30
0.0
 40
6.5
  0
CIRCLE
  5
120
330
1F
100
AcDbEntity
  8
0
  6
Continuous
 62
     7
370
    25
100
AcDbCircle
 10
135.94
 20
206.56
 30
0.0
 40
31.5
  0
CIRCLE
  5
121
330
1F
100
AcDbEntity
  8
0
  6
Continuous
 62
     7
370
    25
100
AcDbCircle
 10
173.94
 20
229.06
 30
0.0
 40
6.5
  0
LINE
  5
122
330
1F
100
AcDbEntity
  8
0
  6
Continuous
 62
     7
370
    25
100
AcDbLine
 10
182.94
 20
244.06
 30
0.0
 11
88.94
 21
244.06
 31
0.0
  0
CIRCLE
  5
123
330
1F
100
AcDbEntity
  8
0
  6
Continuous
 62
     7
370
    25
100
AcDbCircle
 10
97.94
 20
184.06
 30
0.0
 40
6.5
  0
LINE
  5
124
330
1F
100
AcDbEntity
  8
0
  6
Continuous
 62
     7
370
    25
100
AcDbLine
 10
85.94
 20
172.06
 30
0.0
 11
88.94
 21
169.06
 31
0.0
  0
LINE
  5
125
330
1F
100
AcDbEntity
  8
0
  6
Continuous
 62
     7
370
    25
100
AcDbLine
 10
182.94
 20
169.06
 30
0.0
 11
185.94
 21
172.06
 31
0.0
  0
LINE
  5
126
330
1F
100
AcDbEntity
  8
0
  6
Continuous
 62
     7
370
    25
100
AcDbLine
 10
185.94
 20
241.06
 30
0.0
 11
182.94
 21
244.06
 31
0.0
  0
LINE
  5
127
330
1F
100
AcDbEntity
  8
0
  6
Continuous
 62
     7
370
    25
100
AcDbLine
 10
185.94
 20
172.06
 30
0.0
 11
185.94
 21
241.06
 31
0.0
  0
LINE
  5
128
330
1F
100
AcDbEntity
  8
0
  6
Continuous
 62
     7
370
    25
100
AcDbLine
 10
85.94
 20
241.06
 30
0.0
 11
85.94
 21
172.06
 31
0.0
  0
LINE
  5
129
330
1F
100
AcDbEntity
  8
0
  6
Continuous
 62
     7
370
    25
100
AcDbLine
 10
88.94
 20
169.06
 30
0.0
 11
182.94
 21
169.06
 31
0.0
  0
DIMENSION
  5
12A
330
1F
100
AcDbEntity
  8
0
  6
Continuous
 62
     7
370
    18
100
AcDbDimension
  2
_D
 10
173.94
 20
159.06
 30
0.0
 11
135.94
 21
159.06
 31
0.0
 70
   160
  1
<>
 71
     2
 42
-1.0
  3
SLDDIMSTYLE0
100
AcDbAlignedDimension
 13
97.94
 23
175.06
 33
0.0
 14
173.94
 24
175.06
 34
0.0
100
AcDbRotatedDimension
  0
DIMENSION
  5
135
330
1F
100
AcDbEntity
  8
0
  6
Continuous
 62
     7
370
    18
100
AcDbDimension
  2
_D_1
 10
85.94
 20
153.06
 30
0.0
 11
135.94
 21
153.06
 31
0.0
 70
   160
  1
<>
 71
     2
 42
-1.0
  3
SLDDIMSTYLE1
100
AcDbAlignedDimension
 13
185.94
 23
172.06
 33
0.0
 14
85.94
 24
172.06
 34
0.0
100
AcDbRotatedDimension
  0
DIMENSION
  5
140
330
1F
100
AcDbEntity
  8
0
  6
Continuous
 62
     7
370
    18
100
AcDbDimension
  2
_D_2
 10
195.9400000001
 20
229.06
 30
0.0
 11
195.9400000001
 21
206.56
 31
0.0
 70
   160
  1
<>
 71
     2
 42
-1.0
  3
SLDDIMSTYLE0
100
AcDbAlignedDimension
 13
182.94
 23
184.06
 33
0.0
 14
182.94
 24
229.06
 34
0.0
 50
90.0
100
AcDbRotatedDimension
  0
DIMENSION
  5
14A
330
1F
100
AcDbEntity
  8
0
  6
Continuous
 62
     7
370
    18
100
AcDbDimension
  2
_D_3
 10
201.94
 20
244.06
 30
0.0
 11
201.94
 21
206.56
 31
0.0
 70
   160
  1
<>
 71
     2
 42
-1.0
  3
SLDDIMSTYLE0
100
AcDbAlignedDimension
 13
182.94
 23
169.06
 33
0.0
 14
182.94
 24
244.06
 34
0.0
 50
90.0
100
AcDbRotatedDimension
  0
DIMENSION
  5
154
330
1F
100
AcDbEntity
  8
0
  6
Continuous
 62
     7
370
    18
100
AcDbDimension
  2
_D_4
 10
142.6928697604
 20
199.8071302397
 30
0.0
 11
88.44001
 21
254.06001
 31
0.0
 70
   163
  1
<>
 71
     1
 42
-1.0
  3
SLDDIMSTYLE2
100
AcDbDiametricDimension
 15
129.1871302397
 25
213.3128697603
 35
0.0
 40
0.0
  0
DIMENSION
  5
161
330
1F
100
AcDbEntity
  8
0
  6
Continuous
 62
     7
370
    18
100
AcDbDimension
  2
_D_5
 10
145.8394949366
 20
216.4594949366
 30
0.0
 11
88.44001
 21
159.06001
 31
0.0
 70
   163
  1
<>
 71
     1
 42
-1.0
  3
SLDDIMSTYLE2
100
AcDbDiametricDimension
 15
126.0405050634
 25
196.6605050634
 35
0.0
 40
0.0
  0
INSERT
  5
177
330
1F
100
AcDbEntity
  8
0
  6
Continuous
 62
     7
370
     0
100
AcDbBlockReference
  2
SW_CENTERMARKSYMBOL_0
 10
135.94
 20
206.56
 30
0.0
  0
INSERT
  5
183
330
1F
100
AcDbEntity
  8
0
  6
Continuous
 62
     7
370
     0
100
AcDbBlockReference
  2
SW_CENTERMARKSYMBOL_1
 10
173.94
 20
184.06
 30
0.0
  0
INSERT
  5
18F
330
1F
100
AcDbEntity
  8
0
  6
Continuous
 62
     7
370
     0
100
AcDbBlockReference
  2
SW_CENTERMARKSYMBOL_2
 10
173.94
 20
229.06
 30
0.0
  0
INSERT
  5
19B
330
1F
100
AcDbEntity
  8
0
  6
Continuous
 62
     7
370
     0
100
AcDbBlockReference
  2
SW_CENTERMARKSYMBOL_3
 10
97.94
 20
229.06
 30
0.0
  0
INSERT
  5
1A7
330
1F
100
AcDbEntity
  8
0
  6
Continuous
 62
     7
370
     0
100
AcDbBlockReference
  2
SW_CENTERMARKSYMBOL_4
 10
97.94
 20
184.06
 30
0.0
  0
CIRCLE
  5
1A8
330
1F
100
AcDbEntity
  8
0
  6
Continuous
 62
     7
370
    25
100
AcDbCircle
 10
140.5440515654
 20
113.4706813996
 30
0.0
 40
1.565377532228268
  0
CIRCLE
  5
1A9
330
1F
100
AcDbEntity
  8
0
  6
Continuous
 62
     7
370
    25
100
AcDbCircle
 10
140.5440515654
 20
113.4706813996
 30
0.0
 40
1.841620626150899
  0
CIRCLE
  5
1AA
330
1F
100
AcDbEntity
  8
0
  6
Continuous
 62
     7
370
    25
100
AcDbCircle
 10
140.5440515654
 20
113.4706813996
 30
0.0
 40
2.99263351749525
  0
LINE
  5
1AB
330
1F
100
AcDbEntity
  8
0
  6
Continuous
 62
     7
370
    25
100
AcDbLine
 10
143.6748066299
 20
114.8518968692
 30
0.0
 11
143.1988772087
 21
114.8518968692
 31
0.0
  0
LINE
  5
1AC
330
1F
100
AcDbEntity
  8
0
  6
Continuous
 62
     7
370
    25
100
AcDbLine
 10
143.6748066299
 20
112.08946593
 30
0.0
 11
143.6748066299
 21
114.8518968692
 31
0.0
  0
LINE
  5
1AD
330
1F
100
AcDbEntity
  8
0
  6
Continuous
 62
     7
370
    25
100
AcDbLine
 10
143.1988772087
 20
112.08946593
 30
0.0
 11
143.6748066299
 21
112.08946593
 31
0.0
  0
LINE
  5
1AE
330
1F
100
AcDbEntity
  8
0
  6
Continuous
 62
     7
370
    25
100
AcDbLine
 10
137.413296501
 20
112.08946593
 30
0.0
 11
137.8892259221
 21
112.08946593
 31
0.0
  0
LINE
  5
1AF
330
1F
100
AcDbEntity
  8
0
  6
Continuous
 62
     7
370
    25
100
AcDbLine
 10
137.413296501
 20
114.8518968692
 30
0.0
 11
137.413296501
 21
112.08946593
 31
0.0
  0
LINE
  5
1B0
330
1F
100
AcDbEntity
  8
0
  6
Continuous
 62
     7
370
    25
100
AcDbLine
 10
137.8892259221
 20
114.8518968692
 30
0.0
 11
137.413296501
 21
114.8518968692
 31
0.0
  0
CIRCLE
  5
1B1
330
1F
100
AcDbEntity
  8
0
  6
Continuous
 62
     7
370
    25
100
AcDbCircle
 10
131.3359484347
 20
113.4706813996
 30
0.0
 40
1.565377532228297
  0
CIRCLE
  5
1B2
330
1F
100
AcDbEntity
  8
0
  6
Continuous
 62
     7
370
    25
100
AcDbCircle
 10
131.3359484347
 20
113.4706813996
 30
0.0
 40
1.841620626150927
  0
CIRCLE
  5
1B3
330
1F
100
AcDbEntity
  8
0
  6
Continuous
 62
     7
370
    25
100
AcDbCircle
 10
131.3359484347
 20
113.4706813996
 30
0.0
 40
2.992633517495221
  0
LINE
  5
1B4
330
1F
100
AcDbEntity
  8
0
  6
Continuous
 62
     7
370
    25
100
AcDbLine
 10
128.2051933702
 20
112.08946593
 30
0.0
 11
128.6811227913
 21
112.08946593
 31
0.0
  0
LINE
  5
1B5
330
1F
100
AcDbEntity
  8
0
  6
Continuous
 62
     7
370
    25
100
AcDbLine
 10
128.2051933702
 20
114.8518968692
 30
0.0
 11
128.2051933702
 21
112.08946593
 31
0.0
  0
LINE
  5
1B6
330
1F
100
AcDbEntity
  8
0
  6
Continuous
 62
     7
370
    25
100
AcDbLine
 10
128.6811227913
 20
114.8518968692
 30
0.0
 11
128.2051933702
 21
114.8518968692
 31
0.0
  0
LINE
  5
1B7
330
1F
100
AcDbEntity
  8
0
  6
Continuous
 62
     7
370
    25
100
AcDbLine
 10
134.4667034991
 20
112.08946593
 30
0.0
 11
134.4667034991
 21
114.8518968692
 31
0.0
  0
LINE
  5
1B8
330
1F
100
AcDbEntity
  8
0
  6
Continuous
 62
     7
370
    25
100
AcDbLine
 10
133.990774078
 20
112.08946593
 30
0.0
 11
134.4667034991
 21
112.08946593
 31
0.0
  0
LINE
  5
1B9
330
1F
100
AcDbEntity
  8
0
  6
Continuous
 62
     7
370
    25
100
AcDbLine
 10
134.4667034991
 20
114.8518968692
 30
0.0
 11
133.990774078
 21
114.8518968692
 31
0.0
  0
CIRCLE
  5
1BA
330
1F
100
AcDbEntity
  8
0
  6
Continuous
 62
     7
370
    25
100
AcDbCircle
 10
100.9492081032
 20
110.2478453039
 30
0.0
 40
5.985267034990457
  0
CIRCLE
  5
1BB
330
1F
100
AcDbEntity
  8
0
  6
Continuous
 62
     7
370
    25
100
AcDbCircle
 10
170.9307918969
 20
110.2478453039
 30
0.0
 40
5.985267034990443
  0
CIRCLE
  5
1BC
330
1F
100
AcDbEntity
  8
0
  6
Continuous
 62
     7
370
    25
100
AcDbCircle
 10
100.9492081032
 20
68.8113812155
 30
0.0
 40
5.985267034990457
  0
LINE
  5
1BD
330
1F
100
AcDbEntity
  8
0
  6
Continuous
 62
     7
370
    25
100
AcDbLine
 10
181.9805156538
 20
57.7616574586
 30
0.0
 11
179.2180847146
 21
54.9992265193
 31
0.0
  0
LINE
  5
1BE
330
1F
100
AcDbEntity
  8
0
  6
Continuous
 62
     7
370
    25
100
AcDbLine
 10
92.6619152855
 20
54.9992265193
 30
0.0
 11
89.8994843463
 21
57.7616574586
 31
0.0
  0
LINE
  5
1BF
330
1F
100
AcDbEntity
  8
0
  6
Continuous
 62
     7
370
    25
100
AcDbLine
 10
89.8994843463
 20
121.2975690608
 30
0.0
 11
92.6619152855
 21
124.06
 31
0.0
  0
LINE
  5
1C0
330
1F
100
AcDbEntity
  8
0
  6
Continuous
 62
     7
370
    25
100
AcDbLine
 10
181.9805156538
 20
121.2975690608
 30
0.0
 11
181.9805156538
 21
57.7616574586
 31
0.0
  0
LINE
  5
1C1
330
1F
100
AcDbEntity
  8
0
  6
Continuous
 62
     7
370
    25
100
AcDbLine
 10
89.8994843463
 20
57.7616574586
 30
0.0
 11
89.8994843463
 21
121.2975690608
 31
0.0
  0
CIRCLE
  5
1C2
330
1F
100
AcDbEntity
  8
0
  6
Continuous
 62
     7
370
    25
100
AcDbCircle
 10
170.9307918969
 20
68.8113812155
 30
0.0
 40
5.985267034990443
  0
LINE
  5
1C3
330
1F
100
AcDbEntity
  8
0
  6
Continuous
 62
     7
370
    25
100
AcDbLine
 10
92.6619152855
 20
124.06
 30
0.0
 11
179.2180847146
 21
124.06
 31
0.0
  0
LINE
  5
1C4
330
1F
100
AcDbEntity
  8
0
  6
Continuous
 62
     7
370
    25
100
AcDbLine
 10
179.2180847146
 20
54.9992265193
 30
0.0
 11
92.6619152855
 21
54.9992265193
 31
0.0
  0
LINE
  5
1C5
330
1F
100
AcDbEntity
  8
0
  6
Continuous
 62
     7
370
    25
100
AcDbLine
 10
179.2180847146
 20
124.06
 30
0.0
 11
181.9805156538
 21
121.2975690608
 31
0.0
  0
INSERT
  5
1D1
330
1F
100
AcDbEntity
  8
0
  6
Continuous
 62
     7
370
     0
100
AcDbBlockReference
  2
SW_CENTERMARKSYMBOL_5
 10
100.9492081032
 20
110.2478453039
 30
0.0
  0
INSERT
  5
1DD
330
1F
100
AcDbEntity
  8
0
  6
Continuous
 62
     7
370
     0
100
AcDbBlockReference
  2
SW_CENTERMARKSYMBOL_6
 10
170.9307918969
 20
110.2478453039
 30
0.0
  0
INSERT
  5
1E9
330
1F
100
AcDbEntity
  8
0
  6
Continuous
 62
     7
370
     0
100
AcDbBlockReference
  2
SW_CENTERMARKSYMBOL_7
 10
170.9307918969
 20
68.8113812155
 30
0.0
  0
INSERT
  5
1F5
330
1F
100
AcDbEntity
  8
0
  6
Continuous
 62
     7
370
     0
100
AcDbBlockReference
  2
SW_CENTERMARKSYMBOL_8
 10
100.9492081032
 20
68.8113812155
 30
0.0
  0
LINE
  5
1F6
330
1F
100
AcDbEntity
  8
0
  6
Continuous
 62
     7
370
    25
100
AcDbLine
 10
249.94
 20
235.81
 30
0.0
 11
248.69
 21
234.56
 31
0.0
  0
LINE
  5
1F7
330
1F
100
AcDbEntity
  8
0
  6
Continuous
 62
     7
370
    25
100
AcDbLine
 10
248.69
 20
230.56
 30
0.0
 11
249.94
 21
229.31
 31
0.0
  0
LINE
  5
1F8
330
1F
100
AcDbEntity
  8
0
  6
Continuous
 62
     7
370
    25
100
AcDbLine
 10
263.94
 20
235.81
 30
0.0
 11
249.94
 21
235.81
 31
0.0
  0
LINE
  5
1F9
330
1F
100
AcDbEntity
  8
0
  6
Continuous
 62
     7
370
    25
100
AcDbLine
 10
249.94
 20
229.31
 30
0.0
 11
263.94
 21
229.31
 31
0.0
  0
ARC
  5
1FA
330
1F
100
AcDbEntity
  8
0
  6
Continuous
 62
     7
370
    25
100
AcDbCircle
 10
236.24
 20
230.86
 30
0.0
 40
0.3000000000000398
100
AcDbArc
 50
180.0
 51
270.0
  0
ARC
  5
1FB
330
1F
100
AcDbEntity
  8
0
  6
Continuous
 62
     7
370
    25
100
AcDbCircle
 10
236.24
 20
234.26
 30
0.0
 40
0.3000000000000398
100
AcDbArc
 50
90.0
 51
180.0
  0
LINE
  5
1FC
330
1F
100
AcDbEntity
  8
0
  6
Continuous
 62
     7
370
    25
100
AcDbLine
 10
248.69
 20
234.56
 30
0.0
 11
236.24
 21
234.56
 31
0.0
  0
LINE
  5
1FD
330
1F
100
AcDbEntity
  8
0
  6
Continuous
 62
     7
370
    25
100
AcDbLine
 10
236.24
 20
230.56
 30
0.0
 11
248.69
 21
230.56
 31
0.0
  0
LINE
  5
1FE
330
1F
100
AcDbEntity
  8
0
  6
Continuous
 62
     7
370
    25
100
AcDbLine
 10
356.94
 20
192.56
 30
0.0
 11
381.44
 21
192.56
 31
0.0
  0
LINE
  5
1FF
330
1F
100
AcDbEntity
  8
0
  6
Continuous
 62
     7
370
    25
100
AcDbLine
 10
381.44
 20
220.56
 30
0.0
 11
356.94
 21
220.56
 31
0.0
  0
LINE
  5
200
330
1F
100
AcDbEntity
  8
0
  6
Continuous
 62
     7
370
    25
100
AcDbLine
 10
381.44
 20
192.56
 30
0.0
 11
381.94
 21
193.06
 31
0.0
  0
LINE
  5
201
330
1F
100
AcDbEntity
  8
0
  6
Continuous
 62
     7
370
    25
100
AcDbLine
 10
381.94
 20
220.06
 30
0.0
 11
381.44
 21
220.56
 31
0.0
  0
ARC
  5
202
330
1F
100
AcDbEntity
  8
0
  6
Continuous
 62
     7
370
    25
100
AcDbCircle
 10
349.44
 20
185.06
 30
0.0
 40
0.5
100
AcDbArc
 50
90.0
 51
180.0
  0
ARC
  5
203
330
1F
100
AcDbEntity
  8
0
  6
Continuous
 62
     7
370
    25
100
AcDbCircle
 10
349.44
 20
228.06
 30
0.0
 40
0.5
100
AcDbArc
 50
180.0
 51
270.0
  0
LINE
  5
204
330
1F
100
AcDbEntity
  8
0
  6
Continuous
 62
     7
370
    25
100
AcDbLine
 10
349.44
 20
185.56
 30
0.0
 11
356.44
 21
185.56
 31
0.0
  0
LINE
  5
205
330
1F
100
AcDbEntity
  8
0
  6
Continuous
 62
     7
370
    25
100
AcDbLine
 10
356.44
 20
227.56
 30
0.0
 11
349.44
 21
227.56
 31
0.0
  0
LINE
  5
206
330
1F
100
AcDbEntity
  8
0
  6
Continuous
 62
     7
370
    25
100
AcDbLine
 10
356.94
 20
227.06
 30
0.0
 11
356.44
 21
227.56
 31
0.0
  0
LINE
  5
207
330
1F
100
AcDbEntity
  8
0
  6
Continuous
 62
     7
370
    25
100
AcDbLine
 10
356.44
 20
185.56
 30
0.0
 11
356.94
 21
186.06
 31
0.0
  0
LINE
  5
208
330
1F
100
AcDbEntity
  8
0
  6
Continuous
 62
     7
370
    25
100
AcDbLine
 10
263.94
 20
234.06
 30
0.0
 11
271.94
 21
234.06
 31
0.0
  0
LINE
  5
209
330
1F
100
AcDbEntity
  8
0
  6
Continuous
 62
     7
370
    25
100
AcDbLine
 10
263.94
 20
231.06
 30
0.0
 11
263.94
 21
234.06
 31
0.0
  0
LINE
  5
20A
330
1F
100
AcDbEntity
  8
0
  6
Continuous
 62
     7
370
    25
100
AcDbLine
 10
263.94
 20
231.06
 30
0.0
 11
271.94
 21
231.06
 31
0.0
  0
LINE
  5
20B
330
1F
100
AcDbEntity
  8
0
  6
Continuous
 62
     7
370
    25
100
AcDbLine
 10
248.69
 20
232.56
 30
0.0
 11
248.69
 21
234.56
 31
0.0
  0
LINE
  5
20C
330
1F
100
AcDbEntity
  8
0
  6
Continuous
 62
     7
370
    25
100
AcDbLine
 10
248.69
 20
230.56
 30
0.0
 11
248.69
 21
232.56
 31
0.0
  0
LINE
  5
20D
330
1F
100
AcDbEntity
  8
0
  6
Continuous
 62
     7
370
    25
100
AcDbLine
 10
249.94
 20
235.81
 30
0.0
 11
249.94
 21
229.31
 31
0.0
  0
LINE
  5
20E
330
1F
100
AcDbEntity
  8
0
  6
Continuous
 62
     7
370
    25
100
AcDbLine
 10
263.94
 20
234.06
 30
0.0
 11
263.94
 21
235.81
 31
0.0
  0
LINE
  5
20F
330
1F
100
AcDbEntity
  8
0
  6
Continuous
 62
     7
370
    25
100
AcDbLine
 10
263.94
 20
229.31
 30
0.0
 11
263.94
 21
231.06
 31
0.0
  0
LINE
  5
210
330
1F
100
AcDbEntity
  8
0
  6
Continuous
 62
     7
370
    25
100
AcDbLine
 10
235.94
 20
230.86
 30
0.0
 11
235.94
 21
234.26
 31
0.0
  0
LINE
  5
211
330
1F
100
AcDbEntity
  8
0
  6
Continuous
 62
     7
370
    25
100
AcDbLine
 10
381.44
 20
192.56
 30
0.0
 11
381.44
 21
220.56
 31
0.0
  0
LINE
  5
212
330
1F
100
AcDbEntity
  8
0
  6
Continuous
 62
     7
370
    25
100
AcDbLine
 10
381.94
 20
218.56
 30
0.0
 11
381.94
 21
212.7446584384
 31
0.0
  0
LINE
  5
213
330
1F
100
AcDbEntity
  8
0
  6
Continuous
 62
     7
370
    25
100
AcDbLine
 10
381.94
 20
212.7446584384
 30
0.0
 11
381.94
 21
200.3753415616
 31
0.0
  0
LINE
  5
214
330
1F
100
AcDbEntity
  8
0
  6
Continuous
 62
     7
370
    25
100
AcDbLine
 10
381.94
 20
200.3753415616
 30
0.0
 11
381.94
 21
194.56
 31
0.0
  0
LINE
  5
215
330
1F
100
AcDbEntity
  8
0
  6
Continuous
 62
     7
370
    25
100
AcDbLine
 10
381.94
 20
194.56
 30
0.0
 11
381.94
 21
193.06
 31
0.0
  0
LINE
  5
216
330
1F
100
AcDbEntity
  8
0
  6
Continuous
 62
     7
370
    25
100
AcDbLine
 10
381.94
 20
220.06
 30
0.0
 11
381.94
 21
218.56
 31
0.0
  0
LINE
  5
217
330
1F
100
AcDbEntity
  8
0
  6
Continuous
 62
     7
370
    25
100
AcDbLine
 10
381.94
 20
212.7446584384
 30
0.0
 11
389.44
 21
212.7446584384
 31
0.0
  0
SPLINE
  5
218
330
1F
100
AcDbEntity
  8
0
  6
Continuous
 62
     7
370
    25
100
AcDbSpline
210
0.0
220
0.0
230
1.0
 70
     8
 71
     3
 72
    13
 73
     9
 74
     0
 42
0.000000001
 43
0.00000001
 40
0.0
 40
0.0
 40
0.0
 40
0.0
 40
0.4799499424353245
 40
0.6340774134268224
 40
0.8347923727805383
 40
0.9075511259477
 40
0.9810151286892872
 40
1.0
 40
1.0
 40
1.0
 40
1.0
 10
389.94
 20
211.5599999999976
 30
0.0
 10
389.9295283491022
 20
211.7825663022866
 30
0.0
 10
389.9156939119486
 20
212.0766058526515
 30
0.0
 10
389.7923827938024
 20
212.4405945285084
 30
0.0
 10
389.6913846261406
 20
212.6162262392415
 30
0.0
 10
389.5651543276589
 20
212.7161744665959
 30
0.0
 10
389.491258539979
 20
212.7428429576654
 30
0.0
 10
389.4487328733491
 20
212.7443491365294
 30
0.0
 10
389.4399999999999
 20
212.7446584384241
 30
0.0
  0
LINE
  5
219
330
1F
100
AcDbEntity
  8
0
  6
Continuous
 62
     7
370
    25
100
AcDbLine
 10
389.94
 20
211.56
 30
0.0
 11
389.94
 21
201.56
 31
0.0
  0
SPLINE
  5
21A
330
1F
100
AcDbEntity
  8
0
  6
Continuous
 62
     7
370
    25
100
AcDbSpline
210
0.0
220
0.0
230
1.0
 70
     8
 71
     3
 72
    12
 73
     8
 74
     0
 42
0.000000001
 43
0.00000001
 40
0.0
 40
0.0
 40
0.0
 40
0.0
 40
0.0601535335807862
 40
0.1340692207311751
 40
0.2500205483418907
 40
0.4730509958512012
 40
0.9999999999999999
 40
0.9999999999999999
 40
0.9999999999999999
 40
0.9999999999999999
 10
389.4399999999999
 20
200.3753415615711
 30
0.0
 10
389.4677627037715
 20
200.3784202308669
 30
0.0
 10
389.5296397679848
 20
200.385281919097
 30
0.0
 10
389.6298528091056
 20
200.4483626461427
 30
0.0
 10
389.7534492879164
 20
200.5947903599848
 30
0.0
 10
389.9100145518232
 20
200.9687854334772
 30
0.0
 10
389.9276259300324
 20
201.3160239764001
 30
0.0
 10
389.94
 20
201.5599999999976
 30
0.0
  0
LINE
  5
21B
330
1F
100
AcDbEntity
  8
0
  6
Continuous
 62
     7
370
    25
100
AcDbLine
 10
381.94
 20
200.3753415616
 30
0.0
 11
389.44
 21
200.3753415616
 31
0.0
  0
LINE
  5
21C
330
1F
100
AcDbEntity
  8
0
  6
Continuous
 62
     7
370
    25
100
AcDbLine
 10
389.44
 20
194.56
 30
0.0
 11
389.44
 21
200.3753415616
 31
0.0
  0
LINE
  5
21D
330
1F
100
AcDbEntity
  8
0
  6
Continuous
 62
     7
370
    25
100
AcDbLine
 10
389.94
 20
201.56
 30
0.0
 11
389.94
 21
194.56
 31
0.0
  0
SPLINE
  5
21E
330
1F
100
AcDbEntity
  8
0
  6
Continuous
 62
     7
370
    25
100
AcDbSpline
210
0.0
220
0.0
230
1.0
 70
    24
 71
     3
 72
    13
 73
     9
 74
     0
 42
0.000000001
 43
0.00000001
 40
0.0
 40
0.0
 40
0.0
 40
0.0
 40
0.4799499424353256
 40
0.6340774134268203
 40
0.8347923727805272
 40
0.9075511259476877
 40
0.9810151286892665
 40
1.0
 40
1.0
 40
1.0
 40
1.0
 10
389.94
 20
194.5599999999976
 30
0.0
 10
389.9295283491022
 20
194.5599999999976
 30
0.0
 10
389.9156939119486
 20
194.5599999999976
 30
0.0
 10
389.7923827938024
 20
194.5599999999976
 30
0.0
 10
389.6913846261406
 20
194.5599999999976
 30
0.0
 10
389.5651543276589
 20
194.5599999999976
 30
0.0
 10
389.4912585399791
 20
194.5599999999976
 30
0.0
 10
389.4487328733491
 20
194.5599999999976
 30
0.0
 10
389.4399999999999
 20
194.5599999999976
 30
0.0
  0
LINE
  5
21F
330
1F
100
AcDbEntity
  8
0
  6
Continuous
 62
     7
370
    25
100
AcDbLine
 10
381.94
 20
194.56
 30
0.0
 11
389.44
 21
194.56
 31
0.0
  0
LINE
  5
220
330
1F
100
AcDbEntity
  8
0
  6
Continuous
 62
     7
370
    25
100
AcDbLine
 10
389.44
 20
212.7446584384
 30
0.0
 11
389.44
 21
218.56
 31
0.0
  0
SPLINE
  5
221
330
1F
100
AcDbEntity
  8
0
  6
Continuous
 62
     7
370
    25
100
AcDbSpline
210
0.0
220
0.0
230
1.0
 70
    24
 71
     3
 72
    12
 73
     8
 74
     0
 42
0.000000001
 43
0.00000001
 40
0.0
 40
0.0
 40
0.0
 40
0.0
 40
0.0601535335807873
 40
0.1340692207311768
 40
0.2500205483418878
 40
0.4730509958511996
 40
1.0
 40
1.0
 40
1.0
 40
1.0
 10
389.4399999999999
 20
218.5599999999976
 30
0.0
 10
389.4677627037715
 20
218.5599999999976
 30
0.0
 10
389.5296397679849
 20
218.5599999999976
 30
0.0
 10
389.6298528091055
 20
218.5599999999976
 30
0.0
 10
389.7534492879165
 20
218.5599999999976
 30
0.0
 10
389.9100145518232
 20
218.5599999999976
 30
0.0
 10
389.9276259300324
 20
218.5599999999976
 30
0.0
 10
389.94
 20
218.5599999999976
 30
0.0
  0
LINE
  5
222
330
1F
100
AcDbEntity
  8
0
  6
Continuous
 62
     7
370
    25
100
AcDbLine
 10
389.94
 20
218.56
 30
0.0
 11
389.94
 21
211.56
 31
0.0
  0
LINE
  5
223
330
1F
100
AcDbEntity
  8
0
  6
Continuous
 62
     7
370
    25
100
AcDbLine
 10
381.94
 20
218.56
 30
0.0
 11
389.44
 21
218.56
 31
0.0
  0
LINE
  5
224
330
1F
100
AcDbEntity
  8
0
  6
Continuous
 62
     7
370
    25
100
AcDbLine
 10
323.84
 20
204.5625015645
 30
0.0
 11
323.84
 21
208.5574984355
 31
0.0
  0
LINE
  5
225
330
1F
100
AcDbEntity
  8
0
  6
Continuous
 62
     7
370
    25
100
AcDbLine
 10
350.94
 20
217.3766538264
 30
0.0
 11
350.94
 21
195.7433461736
 31
0.0
  0
LINE
  5
226
330
1F
100
AcDbEntity
  8
0
  6
Continuous
 62
     7
370
    25
100
AcDbLine
 10
350.94
 20
195.7433461736
 30
0.0
 11
356.44
 21
195.7433461736
 31
0.0
  0
LINE
  5
227
330
1F
100
AcDbEntity
  8
0
  6
Continuous
 62
     7
370
    25
100
AcDbLine
 10
356.44
 20
185.56
 30
0.0
 11
356.44
 21
195.7433461736
 31
0.0
  0
LINE
  5
228
330
1F
100
AcDbEntity
  8
0
  6
Continuous
 62
     7
370
    25
100
AcDbLine
 10
356.44
 20
217.3766538264
 30
0.0
 11
356.44
 21
227.56
 31
0.0
  0
LINE
  5
229
330
1F
100
AcDbEntity
  8
0
  6
Continuous
 62
     7
370
    25
100
AcDbLine
 10
356.44
 20
217.3766538264
 30
0.0
 11
350.94
 21
217.3766538264
 31
0.0
  0
LINE
  5
22A
330
1F
100
AcDbEntity
  8
0
  6
Continuous
 62
     7
370
    25
100
AcDbLine
 10
356.44
 20
217.3766538264
 30
0.0
 11
356.94
 21
216.3707084352
 31
0.0
  0
LINE
  5
22B
330
1F
100
AcDbEntity
  8
0
  6
Continuous
 62
     7
370
    25
100
AcDbLine
 10
356.94
 20
216.3707084352
 30
0.0
 11
356.94
 21
196.7492915648
 31
0.0
  0
LINE
  5
22C
330
1F
100
AcDbEntity
  8
0
  6
Continuous
 62
     7
370
    25
100
AcDbLine
 10
356.94
 20
196.7492915648
 30
0.0
 11
356.44
 21
195.7433461736
 31
0.0
  0
LINE
  5
22D
330
1F
100
AcDbEntity
  8
0
  6
Continuous
 62
     7
370
    25
100
AcDbLine
 10
356.94
 20
227.06
 30
0.0
 11
356.94
 21
216.3707084352
 31
0.0
  0
LINE
  5
22E
330
1F
100
AcDbEntity
  8
0
  6
Continuous
 62
     7
370
    25
100
AcDbLine
 10
356.94
 20
196.7492915648
 30
0.0
 11
356.94
 21
186.06
 31
0.0
  0
SPLINE
  5
22F
330
1F
100
AcDbEntity
  8
0
  6
Continuous
 62
     7
370
    25
100
AcDbSpline
210
0.0
220
0.0
230
1.0
 70
     8
 71
     3
 72
    23
 73
    19
 74
     0
 42
0.000000001
 43
0.00000001
 40
0.0
 40
0.0
 40
0.0
 40
0.0
 40
0.0881782879354023
 40
0.1703962258014997
 40
0.2478554589180528
 40
0.322311962823366
 40
0.3939861698943323
 40
0.4626934939826061
 40
0.5304592248215032
 40
0.5989497110176122
 40
0.634998049735925
 40
0.6748411946041459
 40
0.7189748316776
 40
0.7666373843242438
 40
0.8184614652166468
 40
0.8745656704273167
 40
0.9350741581065667
 40
1.0
 40
1.0
 40
1.0
 40
1.0
 10
320.2581818181818
 20
175.0848579545431
 30
0.0
 10
320.2573761012493
 20
175.1173655902464
 30
0.0
 10
320.2558191292603
 20
175.1801835306177
 30
0.0
 10
320.239679452325
 20
175.2703528504562
 30
0.0
 10
320.2145647392074
 20
175.3531170363161
 30
0.0
 10
320.1779814372338
 20
175.4273159814059
 30
0.0
 10
320.1330288516282
 20
175.4926542583598
 30
0.0
 10
320.0817581257692
 20
175.5501095632034
 30
0.0
 10
320.0217233073531
 20
175.5964166976004
 30
0.0
 10
319.9662969677427
 20
175.627922819331
 30
0.0
 10
319.9168078172211
 20
175.6474956855101
 30
0.0
 10
319.8747870066518
 20
175.6614287942063
 30
0.0
 10
319.8272407317626
 20
175.6712179868705
 30
0.0
 10
319.7752249144938
 20
175.6808144077721
 30
0.0
 10
319.7182986016385
 20
175.6877496819018
 30
0.0
 10
319.6564351903111
 20
175.6923590393982
 30
0.0
 10
319.5896721937835
 20
175.6964106442353
 30
0.0
 10
319.5434634703216
 20
175.6963796692623
 30
0.0
 10
319.5195454545454
 20
175.6963636363612
 30
0.0
  0
SPLINE
  5
230
330
1F
100
AcDbEntity
  8
0
  6
Continuous
 62
     7
370
    25
100
AcDbSpline
210
0.0
220
0.0
230
1.0
 70
     8
 71
     3
 72
    15
 73
    11
 74
     0
 42
0.000000001
 43
0.00000001
 40
0.0
 40
0.0
 40
0.0
 40
0.0
 40
0.1210409259551158
 40
0.2361565684961481
 40
0.3502598871584559
 40
0.4667719731857846
 40
0.5882478153244259
 40
0.7153606937404192
 40
0.852450230251907
 40
1.0
 40
1.0
 40
1.0
 40
1.0
 10
319.9229545454546
 20
174.5131249999976
 30
0.0
 10
319.9492530789303
 20
174.5245223388673
 30
0.0
 10
320.0005627609501
 20
174.5467590857877
 30
0.0
 10
320.068303178086
 20
174.5952083077154
 30
0.0
 10
320.1269850412658
 20
174.6525007226891
 30
0.0
 10
320.1747902536494
 20
174.7211277712817
 30
0.0
 10
320.2123798972196
 20
174.7990837034957
 30
0.0
 10
320.2396579214854
 20
174.8863469804249
 30
0.0
 10
320.2547941215921
 20
174.9827696935827
 30
0.0
 10
320.2570252552802
 20
175.0500049232313
 30
0.0
 10
320.2581818181818
 20
175.0848579545431
 30
0.0
  0
SPLINE
  5
231
330
1F
100
AcDbEntity
  8
0
  6
Continuous
 62
     7
370
    25
100
AcDbSpline
210
0.0
220
0.0
230
1.0
 70
     8
 71
     3
 72
    11
 73
     7
 74
     0
 42
0.000000001
 43
0.00000001
 40
0.0
 40
0.0
 40
0.0
 40
0.0
 40
0.3127941251982886
 40
0.5827301107661244
 40
0.8109483712724643
 40
1.0
 40
1.0
 40
1.0
 40
1.0
 10
319.5706818181818
 20
174.4690909090885
 30
0.0
 10
319.6078814778436
 20
174.4695019433147
 30
0.0
 10
319.6771838081908
 20
174.470267693055
 30
0.0
 10
319.7731768247647
 20
174.4790989780565
 30
0.0
 10
319.8543022910308
 20
174.490816967761
 30
0.0
 10
319.9015487069182
 20
174.5061693342277
 30
0.0
 10
319.9229545454546
 20
174.5131249999976
 30
0.0
  0
LINE
  5
232
330
1F
100
AcDbEntity
  8
0
  6
Continuous
 62
     7
370
    25
100
AcDbLine
 10
318.8490909091
 20
174.4690909091
 30
0.0
 11
319.5706818182
 21
174.4690909091
 31
0.0
  0
LINE
  5
233
330
1F
100
AcDbEntity
  8
0
  6
Continuous
 62
     7
370
    25
100
AcDbLine
 10
318.8490909091
 20
175.6963636364
 30
0.0
 11
318.8490909091
 21
174.4690909091
 31
0.0
  0
LINE
  5
234
330
1F
100
AcDbEntity
  8
0
  6
Continuous
 62
     7
370
    25
100
AcDbLine
 10
319.5195454545
 20
175.6963636364
 30
0.0
 11
318.8490909091
 21
175.6963636364
 31
0.0
  0
SPLINE
  5
235
330
1F
100
AcDbEntity
  8
0
  6
Continuous
 62
     7
370
    25
100
AcDbSpline
210
0.0
220
0.0
230
1.0
 70
     8
 71
     3
 72
    23
 73
    19
 74
     0
 42
0.000000001
 43
0.00000001
 40
0.0
 40
0.0
 40
0.0
 40
0.0
 40
0.0859477677671288
 40
0.1646612895918337
 40
0.2391822142960222
 40
0.3092369848563664
 40
0.3766943517160651
 40
0.4407479895346264
 40
0.5032957377886659
 40
0.5666613310136052
 40
0.6011212985389539
 40
0.6409394331421703
 40
0.6866273269858715
 40
0.7373982524124169
 40
0.7941894459313105
 40
0.8569408067006916
 40
0.9257597107636948
 40
1.0
 40
1.0
 40
1.0
 40
1.0
 10
320.1672727272727
 20
176.6224999999976
 30
0.0
 10
320.1662575196111
 20
176.6523737252968
 30
0.0
 10
320.1643125545804
 20
176.7096066966755
 30
0.0
 10
320.1512190147605
 20
176.7920350137999
 30
0.0
 10
320.126941930892
 20
176.8660850494517
 30
0.0
 10
320.0939677299466
 20
176.9322732326659
 30
0.0
 10
320.0537250922737
 20
176.9899699999376
 30
0.0
 10
320.0063451556197
 20
177.0384693762104
 30
0.0
 10
319.9520695590324
 20
177.0767255486719
 30
0.0
 10
319.9013994472507
 20
177.100525742438
 30
0.0
 10
319.8560256303977
 20
177.115950573071
 30
0.0
 10
319.8151412813125
 20
177.1244221330044
 30
0.0
 10
319.7686172454522
 20
177.133404802572
 30
0.0
 10
319.7156126672793
 20
177.1390690139969
 30
0.0
 10
319.65673453675
 20
177.1452837781439
 30
0.0
 10
319.5913030167029
 20
177.1483225256996
 30
0.0
 10
319.5197990187104
 20
177.15056685195
 30
0.0
 10
319.4700687760402
 20
177.1507921650915
 30
0.0
 10
319.4442613636364
 20
177.1509090909067
 30
0.0
  0
SPLINE
  5
236
330
1F
100
AcDbEntity
  8
0
  6
Continuous
 62
     7
370
    25
100
AcDbSpline
210
0.0
220
0.0
230
1.0
 70
     8
 71
     3
 72
    15
 73
    11
 74
     0
 42
0.000000001
 43
0.00000001
 40
0.0
 40
0.0
 40
0.0
 40
0.0
 40
0.123211507667511
 40
0.2406990252533388
 40
0.3542612932167228
 40
0.4669536443969421
 40
0.5842822876469592
 40
0.710551541030695
 40
0.8478091896452462
 40
1.0
 40
1.0
 40
1.0
 40
1.0
 10
319.8490909090909
 20
176.1388352272703
 30
0.0
 10
319.8733747696944
 20
176.147485564406
 30
0.0
 10
319.9208143448387
 20
176.1643843732598
 30
0.0
 10
319.9843528036281
 20
176.2030628215691
 30
0.0
 10
320.0401200443824
 20
176.2486192269378
 30
0.0
 10
320.0865811459561
 20
176.3038376386271
 30
0.0
 10
320.1232861388067
 20
176.3690077778992
 30
0.0
 10
320.1492629470829
 20
176.4445090458308
 30
0.0
 10
320.1649930361524
 20
176.530231991852
 30
0.0
 10
320.1664871358114
 20
176.5907040436485
 30
0.0
 10
320.1672727272727
 20
176.6224999999976
 30
0.0
  0
SPLINE
  5
237
330
1F
100
AcDbEntity
  8
0
  6
Continuous
 62
     7
370
    25
100
AcDbSpline
210
0.0
220
0.0
230
1.0
 70
     8
 71
     3
 72
    11
 73
     7
 74
     0
 42
0.000000001
 43
0.00000001
 40
0.0
 40
0.0
 40
0.0
 40
0.0
 40
0.3231090798450186
 40
0.5974912675160305
 40
0.8217859227818819
 40
0.9999999999999999
 40
0.9999999999999999
 40
0.9999999999999999
 40
0.9999999999999999
 10
319.4911363636364
 20
176.1054545454521
 30
0.0
 10
319.5299837563811
 20
176.105735517427
 30
0.0
 10
319.601820109423
 20
176.1062550890264
 30
0.0
 10
319.7003181380715
 20
176.1130263041626
 30
0.0
 10
319.7815105715656
 20
176.1210170008745
 30
0.0
 10
319.8283516384976
 20
176.1333671128416
 30
0.0
 10
319.8490909090909
 20
176.1388352272703
 30
0.0
  0
LINE
  5
238
330
1F
100
AcDbEntity
  8
0
  6
Continuous
 62
     7
370
    25
100
AcDbLine
 10
318.8490909091
 20
176.1054545455
 30
0.0
 11
319.4911363636
 21
176.1054545455
 31
0.0
  0
LINE
  5
239
330
1F
100
AcDbEntity
  8
0
  6
Continuous
 62
     7
370
    25
100
AcDbLine
 10
318.8490909091
 20
177.1509090909
 30
0.0
 11
318.8490909091
 21
176.1054545455
 31
0.0
  0
LINE
  5
23A
330
1F
100
AcDbEntity
  8
0
  6
Continuous
 62
     7
370
    25
100
AcDbLine
 10
319.4442613636
 20
177.1509090909
 30
0.0
 11
318.8490909091
 21
177.1509090909
 31
0.0
  0
SPLINE
  5
23B
330
1F
100
AcDbEntity
  8
0
  6
Continuous
 62
     7
370
    25
100
AcDbSpline
210
0.0
220
0.0
230
1.0
 70
     8
 71
     3
 72
    23
 73
    19
 74
     0
 42
0.000000001
 43
0.00000001
 40
0.0
 40
0.0
 40
0.0
 40
0.0
 40
0.0485861341348799
 40
0.0962602058660295
 40
0.1431674606468381
 40
0.1913492648606357
 40
0.2403169073324696
 40
0.291669029314281
 40
0.3455098677312241
 40
0.402852600630857
 40
0.4630768848996499
 40
0.5263885353005562
 40
0.5935261726947726
 40
0.6645681194727812
 40
0.74012131896361
 40
0.8214824859429294
 40
0.9080398943911001
 40
0.9999999999999999
 40
0.9999999999999999
 40
0.9999999999999999
 40
0.9999999999999999
 10
337.4265056818182
 20
174.3781818181794
 30
0.0
 10
337.4469222597302
 20
174.378787256216
 30
0.0
 10
337.4873721540854
 20
174.3799867669628
 30
0.0
 10
337.5465395730885
 20
174.3918987416199
 30
0.0
 10
337.6036245981363
 20
174.4105144124419
 30
0.0
 10
337.6582826791983
 20
174.4368584479849
 30
0.0
 10
337.7105569289832
 20
174.4710138932992
 30
0.0
 10
337.7613311555613
 20
174.5113477489762
 30
0.0
 10
337.8089688677446
 20
174.5604078918926
 30
0.0
 10
337.8542433872899
 20
174.6164135721907
 30
0.0
 10
337.8965855422969
 20
174.6796262188409
 30
0.0
 10
337.9326650983892
 20
174.7512686335515
 30
0.0
 10
337.9630926074561
 20
174.8303187315055
 30
0.0
 10
337.9875311103807
 20
174.9167213536697
 30
0.0
 10
338.0079644608109
 20
175.0103039814084
 30
0.0
 10
338.0204674585642
 20
175.1118206904234
 30
0.0
 10
338.0294939966961
 20
175.2205858453682
 30
0.0
 10
338.0304279708319
 20
175.2955376468291
 30
0.0
 10
338.0309090909091
 20
175.3341477272704
 30
0.0
  0
SPLINE
  5
23C
330
1F
100
AcDbEntity
  8
0
  6
Continuous
 62
     7
370
    25
100
AcDbSpline
210
0.0
220
0.0
230
1.0
 70
     8
 71
     3
 72
    23
 73
    19
 74
     0
 42
0.000000001
 43
0.00000001
 40
0.0
 40
0.0
 40
0.0
 40
0.0
 40
0.0918285138918143
 40
0.1777696820448206
 40
0.2580302212286008
 40
0.3331055348685698
 40
0.4031864489552386
 40
0.4696188742250243
 40
0.53157894374372
 40
0.5909885331931827
 40
0.6474788880247799
 40
0.7009891280720504
 40
0.7520816197681395
 40
0.8017984570188564
 40
0.850607305573298
 40
0.8995301788482176
 40
0.9492936912810971
 40
1.0
 40
1.0
 40
1.0
 40
1.0
 10
336.8036363636364
 20
175.3341477272704
 30
0.0
 10
336.8041158359702
 20
175.295064533838
 30
0.0
 10
336.8050440405193
 20
175.2194038640165
 30
0.0
 10
336.8140204212793
 20
175.1099211507902
 30
0.0
 10
336.8266595377162
 20
175.0079506782838
 30
0.0
 10
336.8469646419802
 20
174.914115342852
 30
0.0
 10
336.8712889151603
 20
174.8273246471149
 30
0.0
 10
336.9025475808482
 20
174.7487113650633
 30
0.0
 10
336.9388822987178
 20
174.6773849951326
 30
0.0
 10
336.9807972025985
 20
174.6141708073312
 30
0.0
 10
337.0269985435334
 20
174.5586550325307
 30
0.0
 10
337.0763020873076
 20
174.5108685181248
 30
0.0
 10
337.1277158207434
 20
174.4698437403251
 30
0.0
 10
337.1818753629552
 20
174.4360392925005
 30
0.0
 10
337.2393265848128
 20
174.4103452806796
 30
0.0
 10
337.2994205637325
 20
174.3918881189892
 30
0.0
 10
337.3621166860843
 20
174.3799894158534
 30
0.0
 10
337.4049088311872
 20
174.3787881083773
 30
0.0
 10
337.4265056818182
 20
174.3781818181794
 30
0.0
  0
SPLINE
  5
23D
330
1F
100
AcDbEntity
  8
0
  6
Continuous
 62
     7
370
    25
100
AcDbSpline
210
0.0
220
0.0
230
1.0
 70
     8
 71
     3
 72
    23
 73
    19
 74
     0
 42
0.000000001
 43
0.00000001
 40
0.0
 40
0.0
 40
0.0
 40
0.0
 40
0.0492081114433093
 40
0.0969393295480919
 40
0.1444395158836682
 40
0.1924372048271326
 40
0.2419392722209244
 40
0.293272261514356
 40
0.3471776383388049
 40
0.4041514519133189
 40
0.4641377667933039
 40
0.5270227956702959
 40
0.5937146723299063
 40
0.6648417762905727
 40
0.7403695305280299
 40
0.8212684990064687
 40
0.9079296628467064
 40
1.0
 40
1.0
 40
1.0
 40
1.0
 10
337.4080397727272
 20
176.2872727272704
 30
0.0
 10
337.3873843181788
 20
176.2866846458666
 30
0.0
 10
337.3466933455584
 20
176.2855261332691
 30
0.0
 10
337.2870849620221
 20
176.2734673180389
 30
0.0
 10
337.2298411522988
 20
176.2549833191338
 30
0.0
 10
337.1746081772818
 20
176.2291793824322
 30
0.0
 10
337.1217841878998
 20
176.1956182740574
 30
0.0
 10
337.0719868096781
 20
176.1537974481939
 30
0.0
 10
337.0243721970274
 20
176.1051459801878
 30
0.0
 10
336.97855077056
 20
176.0499107180318
 30
0.0
 10
336.9376069879871
 20
175.9864087121501
 30
0.0
 10
336.9010716690183
 20
175.9156845544829
 30
0.0
 10
336.8706938535039
 20
175.8370503202113
 30
0.0
 10
336.8460924486596
 20
175.7509578563499
 30
0.0
 10
336.8269146866324
 20
175.6574036068229
 30
0.0
 10
336.8139399681039
 20
175.5562625877403
 30
0.0
 10
336.8050841800197
 20
175.4477035947173
 30
0.0
 10
336.8041286089751
 20
175.3727557628477
 30
0.0
 10
336.8036363636364
 20
175.3341477272704
 30
0.0
  0
SPLINE
  5
23E
330
1F
100
AcDbEntity
  8
0
  6
Continuous
 62
     7
370
    25
100
AcDbSpline
210
0.0
220
0.0
230
1.0
 70
     8
 71
     3
 72
    23
 73
    19
 74
     0
 42
0.000000001
 43
0.00000001
 40
0.0
 40
0.0
 40
0.0
 40
0.0
 40
0.0914820109348281
 40
0.1770646809617236
 40
0.2569568658574883
 40
0.3322046711927941
 40
0.401911083141715
 40
0.4679780540384922
 40
0.530576740647313
 40
0.5896588361577457
 40
0.6462789822163443
 40
0.7003021260507273
 40
0.7515120069402041
 40
0.801343072705305
 40
0.8502640635955725
 40
0.8992993411874725
 40
0.9491771893747981
 40
1.0
 40
1.0
 40
1.0
 40
1.0
 10
338.0309090909091
 20
175.3341477272703
 30
0.0
 10
338.0304282874315
 20
175.3729940380805
 30
0.0
 10
338.0294976857373
 20
175.4481816029345
 30
0.0
 10
338.0205442314593
 20
175.556958838156
 30
0.0
 10
338.0078029625865
 20
175.6584394030739
 30
0.0
 10
337.9876714999294
 20
175.7518319779353
 30
0.0
 10
337.9633185170467
 20
175.8381768415297
 30
0.0
 10
337.9316024874343
 20
175.9163156146836
 30
0.0
 10
337.8960996679664
 20
175.9878484344979
 30
0.0
 10
337.8535276257252
 20
176.0506814751934
 30
0.0
 10
337.8073325285386
 20
176.1060931042679
 30
0.0
 10
337.7584836404383
 20
176.1545987625331
 30
0.0
 10
337.7068015095991
 20
176.1955812791369
 30
0.0
 10
337.6526773878134
 20
176.2294229128356
 30
0.0
 10
337.595216926771
 20
176.2551072249661
 30
0.0
 10
337.5351254190799
 20
176.2735669810578
 30
0.0
 10
337.4724286325164
 20
176.2854649868758
 30
0.0
 10
337.4296365777607
 20
176.2866663892022
 30
0.0
 10
337.4080397727272
 20
176.2872727272704
 30
0.0
  0
SPLINE
  5
23F
330
1F
100
AcDbEntity
  8
0
  6
Continuous
 62
     7
370
    25
100
AcDbSpline
210
0.0
220
0.0
230
1.0
 70
     8
 71
     3
 72
    23
 73
    19
 74
     0
 42
0.000000001
 43
0.00000001
 40
0.0
 40
0.0
 40
0.0
 40
0.0
 40
0.0962668487102102
 40
0.1851887142498576
 40
0.2670522646414192
 40
0.3425535158095235
 40
0.4116298860129103
 40
0.4751854140306041
 40
0.5336270929387998
 40
0.5873801801951999
 40
0.6383796135347357
 40
0.688094083423488
 40
0.7375708011894997
 40
0.7869390713018622
 40
0.8371140147138912
 40
0.8890450561406114
 40
0.9429881641617254
 40
1.0
 40
1.0
 40
1.0
 40
1.0
 10
302.5763636363636
 20
175.1842897727249
 30
0.0
 10
302.5755922062543
 20
175.1326690594885
 30
0.0
 10
302.5741082047315
 20
175.033366198317
 30
0.0
 10
302.5653677529158
 20
174.8903399754263
 30
0.0
 10
302.54902338507
 20
174.7592056380157
 30
0.0
 10
302.5267814334495
 20
174.6397262208783
 30
0.0
 10
302.4977158715351
 20
174.5318512822461
 30
0.0
 10
302.4628154158334
 20
174.4353165723717
 30
0.0
 10
302.4201242456459
 20
174.3510174030466
 30
0.0
 10
302.3713019818028
 20
174.2781242635533
 30
0.0
 10
302.3166854223766
 20
174.2155439737217
 30
0.0
 10
302.2564212973615
 20
174.1618298020468
 30
0.0
 10
302.1909389540098
 20
174.1160813101618
 30
0.0
 10
302.1198913663973
 20
174.0790995092321
 30
0.0
 10
302.0440330495643
 20
174.0495320280175
 30
0.0
 10
301.9626615682013
 20
174.0292135859022
 30
0.0
 10
301.8759776139908
 20
174.0169902127634
 30
0.0
 10
301.816461678345
 20
174.0153752624049
 30
0.0
 10
301.7858806818182
 20
174.0145454545431
 30
0.0
  0
LINE
  5
240
330
1F
100
AcDbEntity
  8
0
  6
Continuous
 62
     7
370
    25
100
AcDbLine
 10
302.5763636364
 20
177.56
 30
0.0
 11
302.5763636364
 21
175.1842897727
 31
0.0
  0
LINE
  5
241
330
1F
100
AcDbEntity
  8
0
  6
Continuous
 62
     7
370
    25
100
AcDbLine
 10
302.2127272727
 20
177.56
 30
0.0
 11
302.5763636364
 21
177.56
 31
0.0
  0
LINE
  5
242
330
1F
100
AcDbEntity
  8
0
  6
Continuous
 62
     7
370
    25
100
AcDbLine
 10
302.2127272727
 20
175.1565909091
 30
0.0
 11
302.2127272727
 21
177.56
 31
0.0
  0
SPLINE
  5
243
330
1F
100
AcDbEntity
  8
0
  6
Continuous
 62
     7
370
    25
100
AcDbSpline
210
0.0
220
0.0
230
1.0
 70
     8
 71
     3
 72
    11
 73
     7
 74
     0
 42
0.000000001
 43
0.00000001
 40
0.0
 40
0.0
 40
0.0
 40
0.0
 40
0.1899378633491985
 40
0.4190751882676144
 40
0.6888208399565413
 40
1.0
 40
1.0
 40
1.0
 40
1.0
 10
302.1651420454545
 20
174.6878409090885
 30
0.0
 10
302.1725798299436
 20
174.7168468622723
 30
0.0
 10
302.1889904122262
 20
174.780845030289
 30
0.0
 10
302.2022271821181
 20
174.8887581200241
 30
0.0
 10
302.2116867813178
 20
175.0160263257841
 30
0.0
 10
302.2123643338176
 20
175.1075598876511
 30
0.0
 10
302.2127272727272
 20
175.1565909090885
 30
0.0
  0
SPLINE
  5
244
330
1F
100
AcDbEntity
  8
0
  6
Continuous
 62
     7
370
    25
100
AcDbSpline
210
0.0
220
0.0
230
1.0
 70
     8
 71
     3
 72
    15
 73
    11
 74
     0
 42
0.000000001
 43
0.00000001
 40
0.0
 40
0.0
 40
0.0
 40
0.0
 40
0.131875342635834
 40
0.2576529831924842
 40
0.3827609181757842
 40
0.5089715295156516
 40
0.6345929352780074
 40
0.7573414601716861
 40
0.8779288610425091
 40
1.0
 40
1.0
 40
1.0
 40
1.0
 10
301.8022159090909
 20
174.423636363634
 30
0.0
 10
301.8233556537713
 20
174.4246634666738
 30
0.0
 10
301.8646576756048
 20
174.4266701811739
 30
0.0
 10
301.924829408492
 20
174.4403704846885
 30
0.0
 10
301.9807635264258
 20
174.4640812388695
 30
0.0
 10
302.0316676852303
 20
174.4970294187649
 30
0.0
 10
302.0772896535844
 20
174.5364590538397
 30
0.0
 10
302.1148175487663
 20
174.5823899062279
 30
0.0
 10
302.145896027503
 20
174.6324733344995
 30
0.0
 10
302.1587006082248
 20
174.6693099715627
 30
0.0
 10
302.1651420454545
 20
174.6878409090885
 30
0.0
  0
SPLINE
  5
245
330
1F
100
AcDbEntity
  8
0
  6
Continuous
 62
     7
370
    25
100
AcDbSpline
210
0.0
220
0.0
230
1.0
 70
     8
 71
     3
 72
    23
 73
    19
 74
     0
 42
0.000000001
 43
0.00000001
 40
0.0
 40
0.0
 40
0.0
 40
0.0
 40
0.1073559733815354
 40
0.2065681780405403
 40
0.2976862275996253
 40
0.3795789659120629
 40
0.4539091456714828
 40
0.5210059557000681
 40
0.580321315252816
 40
0.6331440915541451
 40
0.6819673272516001
 40
0.7282238973232217
 40
0.7731164143293686
 40
0.8172095941165238
 40
0.8611451100622687
 40
0.9056495000405612
 40
0.9520371530241253
 40
1.0
 40
1.0
 40
1.0
 40
1.0
 10
301.3945454545455
 20
175.1509090909067
 30
0.0
 10
301.3959291095131
 20
175.1175104538988
 30
0.0
 10
301.3985914586744
 20
175.0532467210253
 30
0.0
 10
301.406806576409
 20
174.9609233947182
 30
0.0
 10
301.4158960321453
 20
174.8766255664428
 30
0.0
 10
301.4296627824259
 20
174.8008144050649
 30
0.0
 10
301.4456473495993
 20
174.7330937375118
 30
0.0
 10
301.4648316440761
 20
174.6735788098745
 30
0.0
 10
301.4854991783599
 20
174.6216172947436
 30
0.0
 10
301.5109207747249
 20
174.5782074043504
 30
0.0
 10
301.5390791580602
 20
174.5416971655085
 30
0.0
 10
301.5689337596483
 20
174.5097714826346
 30
0.0
 10
301.6020825417003
 20
174.4836703809297
 30
0.0
 10
301.6367962861946
 20
174.460890528828
 30
0.0
 10
301.6750434438387
 20
174.444928806878
 30
0.0
 10
301.7152249738389
 20
174.4327435796385
 30
0.0
 10
301.7578444094911
 20
174.424436675037
 30
0.0
 10
301.7872617007104
 20
174.4239060868481
 30
0.0
 10
301.8022159090909
 20
174.423636363634
 30
0.0
  0
LINE
  5
246
330
1F
100
AcDbEntity
  8
0
  6
Continuous
 62
     7
370
    25
100
AcDbLine
 10
301.0309090909
 20
175.1054545455
 30
0.0
 11
301.3945454545
 21
175.1509090909
 31
0.0
  0
SPLINE
  5
247
330
1F
100
AcDbEntity
  8
0
  6
Continuous
 62
     7
370
    25
100
AcDbSpline
210
0.0
220
0.0
230
1.0
 70
     8
 71
     3
 72
    15
 73
    11
 74
     0
 42
0.000000001
 43
0.00000001
 40
0.0
 40
0.0
 40
0.0
 40
0.0
 40
0.101049005357757
 40
0.2071533109936836
 40
0.3194648646185365
 40
0.4391077011200643
 40
0.5656092495404463
 40
0.7011883501996666
 40
0.8455298974050598
 40
0.9999999999999999
 40
0.9999999999999999
 40
0.9999999999999999
 40
0.9999999999999999
 10
301.2390056818182
 20
174.2617045454521
 30
0.0
 10
301.2220047308964
 20
174.2861660525087
 30
0.0
 10
301.1871523020079
 20
174.3363128318928
 30
0.0
 10
301.1463479884456
 20
174.4213557934026
 30
0.0
 10
301.1094372318528
 20
174.5138527852967
 30
0.0
 10
301.0810918460984
 20
174.6156741760514
 30
0.0
 10
301.0582678484986
 20
174.7257547027516
 30
0.0
 10
301.0420728536397
 20
174.8443910685458
 30
0.0
 10
301.0331721335975
 20
174.9720313757983
 30
0.0
 10
301.031680294326
 20
175.0599863778146
 30
0.0
 10
301.0309090909091
 20
175.1054545454521
 30
0.0
  0
SPLINE
  5
248
330
1F
100
AcDbEntity
  8
0
  6
Continuous
 62
     7
370
    25
100
AcDbSpline
210
0.0
220
0.0
230
1.0
 70
     8
 71
     3
 72
    15
 73
    11
 74
     0
 42
0.000000001
 43
0.00000001
 40
0.0
 40
0.0
 40
0.0
 40
0.0
 40
0.1422756403703534
 40
0.2767365039298884
 40
0.4044482731598695
 40
0.5261123324890584
 40
0.6446586979514564
 40
0.7620593432334989
 40
0.87957011014682
 40
0.9999999999999999
 40
0.9999999999999999
 40
0.9999999999999999
 40
0.9999999999999999
 10
301.7858806818182
 20
174.0145454545431
 30
0.0
 10
301.7562362742316
 20
174.0150433520515
 30
0.0
 10
301.6985757379992
 20
174.0160117990425
 30
0.0
 10
301.6151613151829
 20
174.0288033535137
 30
0.0
 10
301.5373132117377
 20
174.0473642001341
 30
0.0
 10
301.4655294942609
 20
174.0746620045436
 30
0.0
 10
301.3995121092584
 20
174.1095626602443
 30
0.0
 10
301.339760670121
 20
174.1527333831342
 30
0.0
 10
301.2844686301694
 20
174.2023725717184
 30
0.0
 10
301.2542834380791
 20
174.2417661238131
 30
0.0
 10
301.2390056818182
 20
174.2617045454521
 30
0.0
  0
LINE
  5
249
330
1F
100
AcDbEntity
  8
0
  6
Continuous
 62
     7
370
    25
100
AcDbLine
 10
304.8469602273
 20
175.1054545455
 30
0.0
 11
303.6239488636
 21
175.1054545455
 31
0.0
  0
LINE
  5
24A
330
1F
100
AcDbEntity
  8
0
  6
Continuous
 62
     7
370
    25
100
AcDbLine
 10
305.1530681818
 20
174.06
 30
0.0
 11
304.8469602273
 21
175.1054545455
 31
0.0
  0
LINE
  5
24B
330
1F
100
AcDbEntity
  8
0
  6
Continuous
 62
     7
370
    25
100
AcDbLine
 10
305.5309090909
 20
174.06
 30
0.0
 11
305.1530681818
 21
174.06
 31
0.0
  0
LINE
  5
24C
330
1F
100
AcDbEntity
  8
0
  6
Continuous
 62
     7
370
    25
100
AcDbLine
 10
304.4123011364
 20
177.56
 30
0.0
 11
305.5309090909
 21
174.06
 31
0.0
  0
LINE
  5
24D
330
1F
100
AcDbEntity
  8
0
  6
Continuous
 62
     7
370
    25
100
AcDbLine
 10
304.0578977273
 20
177.56
 30
0.0
 11
304.4123011364
 21
177.56
 31
0.0
  0
LINE
  5
24E
330
1F
100
AcDbEntity
  8
0
  6
Continuous
 62
     7
370
    25
100
AcDbLine
 10
302.94
 20
174.06
 30
0.0
 11
304.0578977273
 21
177.56
 31
0.0
  0
LINE
  5
24F
330
1F
100
AcDbEntity
  8
0
  6
Continuous
 62
     7
370
    25
100
AcDbLine
 10
303.3185511364
 20
174.06
 30
0.0
 11
302.94
 21
174.06
 31
0.0
  0
LINE
  5
250
330
1F
100
AcDbEntity
  8
0
  6
Continuous
 62
     7
370
    25
100
AcDbLine
 10
303.6239488636
 20
175.1054545455
 30
0.0
 11
303.3185511364
 21
174.06
 31
0.0
  0
SPLINE
  5
251
330
1F
100
AcDbEntity
  8
0
  6
Continuous
 62
     7
370
    25
100
AcDbSpline
210
0.0
220
0.0
230
1.0
 70
     8
 71
     3
 72
    15
 73
    11
 74
     0
 42
0.000000001
 43
0.00000001
 40
0.0
 40
0.0
 40
0.0
 40
0.0
 40
0.1134955418346449
 40
0.2259989297760195
 40
0.339269098522388
 40
0.4584033987388592
 40
0.5828288938708722
 40
0.7128865688815834
 40
0.8512114562531158
 40
1.0
 40
1.0
 40
1.0
 40
1.0
 10
320.1402840909091
 20
175.9463636363612
 30
0.0
 10
320.1762548351085
 20
175.929591471202
 30
0.0
 10
320.2478818749103
 20
175.8961937595849
 30
0.0
 10
320.3429773949283
 20
175.8242667286519
 30
0.0
 10
320.4261532818444
 20
175.7366527055163
 30
0.0
 10
320.496078800082
 20
175.6330444964586
 30
0.0
 10
320.5533608329183
 20
175.5154099878656
 30
0.0
 10
320.5934247495617
 20
175.3838727876029
 30
0.0
 10
320.6179459129983
 20
175.239895679475
 30
0.0
 10
320.6204964414455
 20
175.1396489439219
 30
0.0
 10
320.6218181818182
 20
175.087698863634
 30
0.0
  0
SPLINE
  5
252
330
1F
100
AcDbEntity
  8
0
  6
Continuous
 62
     7
370
    25
100
AcDbSpline
210
0.0
220
0.0
230
1.0
 70
     8
 71
     3
 72
    15
 73
    11
 74
     0
 42
0.000000001
 43
0.00000001
 40
0.0
 40
0.0
 40
0.0
 40
0.0
 40
0.1333786706066401
 40
0.2619252341554814
 40
0.3867490650401661
 40
0.5114364515435104
 40
0.6336363288425925
 40
0.7543578055143837
 40
0.87576851040339
 40
1.0
 40
1.0
 40
1.0
 40
1.0
 10
320.5309090909091
 20
176.6800284090885
 30
0.0
 10
320.5297261580104
 20
176.6413586234923
 30
0.0
 10
320.5274031480786
 20
176.5654200000155
 30
0.0
 10
320.5077830202412
 20
176.4546716239952
 30
0.0
 10
320.4755420046919
 20
176.3497194235028
 30
0.0
 10
320.4310461931959
 20
176.2512995208417
 30
0.0
 10
320.3747119401945
 20
176.1605067747187
 30
0.0
 10
320.3072811989292
 20
176.0789445092409
 30
0.0
 10
320.2294814915017
 20
176.0060442950062
 30
0.0
 10
320.1702433078544
 20
175.9664089043612
 30
0.0
 10
320.1402840909091
 20
175.9463636363612
 30
0.0
  0
SPLINE
  5
253
330
1F
100
AcDbEntity
  8
0
  6
Continuous
 62
     7
370
    25
100
AcDbSpline
210
0.0
220
0.0
230
1.0
 70
     8
 71
     3
 72
    23
 73
    19
 74
     0
 42
0.000000001
 43
0.00000001
 40
0.0
 40
0.0
 40
0.0
 40
0.0
 40
0.0544199008451914
 40
0.106052316256518
 40
0.1549730787461434
 40
0.2012838652153513
 40
0.2452075788106312
 40
0.2863483776398002
 40
0.3259675705682549
 40
0.3636675859428595
 40
0.4367582574700977
 40
0.511236288536633
 40
0.5876989460161557
 40
0.668228913409065
 40
0.7504893743805794
 40
0.8322579304600503
 40
0.9146071290589903
 40
1.0
 40
1.0
 40
1.0
 40
1.0
 10
319.5706818181818
 20
177.5599999999976
 30
0.0
 10
319.597442826255
 20
177.5598084197599
 30
0.0
 10
319.6495940953209
 20
177.5594350723696
 30
0.0
 10
319.7256504298406
 20
177.5541961386216
 30
0.0
 10
319.7974533234451
 20
177.5464809176522
 30
0.0
 10
319.8651297374769
 20
177.5361342919898
 30
0.0
 10
319.9281696018424
 20
177.5218626132243
 30
0.0
 10
319.9871278481704
 20
177.5048940754931
 30
0.0
 10
320.0416615056585
 20
177.4842792650913
 30
0.0
 10
320.108886147159
 20
177.4532899269571
 30
0.0
 10
320.1863518768965
 20
177.4046684046381
 30
0.0
 10
320.2710297915957
 20
177.3335422805004
 30
0.0
 10
320.3449481919083
 20
177.2464787504157
 30
0.0
 10
320.4106827755135
 20
177.148657692644
 30
0.0
 10
320.4645685597415
 20
177.0407047347312
 30
0.0
 10
320.5029695036181
 20
176.9254736421628
 30
0.0
 10
320.5264880552478
 20
176.8045614610986
 30
0.0
 10
320.5294176929735
 20
176.7220385512601
 30
0.0
 10
320.5309090909091
 20
176.6800284090885
 30
0.0
  0
LINE
  5
254
330
1F
100
AcDbEntity
  8
0
  6
Continuous
 62
     7
370
    25
100
AcDbLine
 10
318.4854545455
 20
177.56
 30
0.0
 11
319.5706818182
 21
177.56
 31
0.0
  0
LINE
  5
255
330
1F
100
AcDbEntity
  8
0
  6
Continuous
 62
     7
370
    25
100
AcDbLine
 10
318.4854545455
 20
174.06
 30
0.0
 11
318.4854545455
 21
177.56
 31
0.0
  0
LINE
  5
256
330
1F
100
AcDbEntity
  8
0
  6
Continuous
 62
     7
370
    25
100
AcDbLine
 10
319.5628693182
 20
174.06
 30
0.0
 11
318.4854545455
 21
174.06
 31
0.0
  0
SPLINE
  5
257
330
1F
100
AcDbEntity
  8
0
  6
Continuous
 62
     7
370
    25
100
AcDbSpline
210
0.0
220
0.0
230
1.0
 70
     8
 71
     3
 72
    23
 73
    19
 74
     0
 42
0.000000001
 43
0.00000001
 40
0.0
 40
0.0
 40
0.0
 40
0.0
 40
0.0927167590882826
 40
0.1801828503269502
 40
0.2644844746646989
 40
0.3464547069403135
 40
0.4250710312591262
 40
0.4992283855822982
 40
0.5714123754260495
 40
0.64230858865765
 40
0.6788506151926702
 40
0.7174739186893372
 40
0.7581199166695005
 40
0.8008069053587524
 40
0.8468253388439301
 40
0.8950746429128079
 40
0.9461164316244265
 40
1.0
 40
1.0
 40
1.0
 40
1.0
 10
320.6218181818182
 20
175.087698863634
 30
0.0
 10
320.6204743463868
 20
175.0355153563496
 30
0.0
 10
320.6178627786316
 20
174.9341035600895
 30
0.0
 10
320.5930687734494
 20
174.7869105158172
 30
0.0
 10
320.5526801380662
 20
174.6497024878072
 30
0.0
 10
320.4968896593149
 20
174.523277796227
 30
0.0
 10
320.4273728744486
 20
174.4106283047158
 30
0.0
 10
320.3474774661273
 20
174.3118696827531
 30
0.0
 10
320.2549624392912
 20
174.2312286599317
 30
0.0
 10
320.1690259931622
 20
174.1771029854502
 30
0.0
 10
320.0939867742783
 20
174.1434999535546
 30
0.0
 10
320.0330121521346
 20
174.1203653220524
 30
0.0
 10
319.9666824285887
 20
174.1026158591507
 30
0.0
 10
319.8957197940443
 20
174.086471451387
 30
0.0
 10
319.8195120751789
 20
174.0747891675299
 30
0.0
 10
319.7381921555769
 20
174.0665697851368
 30
0.0
 10
319.652215788828
 20
174.0603523433928
 30
0.0
 10
319.5931844068719
 20
174.0601195494459
 30
0.0
 10
319.5628693181818
 20
174.0599999999976
 30
0.0
  0
SPLINE
  5
258
330
1F
100
AcDbEntity
  8
0
  6
Continuous
 62
     7
370
    25
100
AcDbSpline
210
0.0
220
0.0
230
1.0
 70
     8
 71
     3
 72
    19
 73
    15
 74
     0
 42
0.000000001
 43
0.00000001
 40
0.0
 40
0.0
 40
0.0
 40
0.0
 40
0.0661297850621439
 40
0.1323063145957533
 40
0.2001432470913928
 40
0.2709948764223983
 40
0.3452317459811029
 40
0.4227459821809255
 40
0.5042032756070183
 40
0.5908175642441986
 40
0.683012705979694
 40
0.7812662377116579
 40
0.8868843908001318
 40
1.0
 40
1.0
 40
1.0
 40
1.0
 10
325.8469602272727
 20
177.4953693181794
 30
0.0
 10
325.8877687150483
 20
177.4797701712139
 30
0.0
 10
325.9694145364695
 20
177.4485608508766
 30
0.0
 10
326.0827082747326
 20
177.3793772738955
 30
0.0
 10
326.1870543299758
 20
177.2930163008076
 30
0.0
 10
326.2832436914218
 20
177.1901485382091
 30
0.0
 10
326.3694847657359
 20
177.0709449143921
 30
0.0
 10
326.4464864502715
 20
176.9374808712711
 30
0.0
 10
326.5123469059121
 20
176.7892248896023
 30
0.0
 10
326.5684855284392
 20
176.6268059627851
 30
0.0
 10
326.6131789102348
 20
176.4493725040579
 30
0.0
 10
326.6446369606178
 20
176.2564741067075
 30
0.0
 10
326.663925889764
 20
176.0480835209129
 30
0.0
 10
326.6661319097928
 20
175.9037938523776
 30
0.0
 10
326.6672727272727
 20
175.8291761363612
 30
0.0
  0
SPLINE
  5
259
330
1F
100
AcDbEntity
  8
0
  6
Continuous
 62
     7
370
    25
100
AcDbSpline
210
0.0
220
0.0
230
1.0
 70
     8
 71
     3
 72
    15
 73
    11
 74
     0
 42
0.000000001
 43
0.00000001
 40
0.0
 40
0.0
 40
0.0
 40
0.0
 40
0.157768981263723
 40
0.3068317722095679
 40
0.4446853154065932
 40
0.5740378871988587
 40
0.6938055486786892
 40
0.8052293349315878
 40
0.9065525990511042
 40
1.0
 40
1.0
 40
1.0
 40
1.0
 10
325.2901420454546
 20
177.5599999999976
 30
0.0
 10
325.3197402674725
 20
177.5600090348671
 30
0.0
 10
325.377303388203
 20
177.5600266060335
 30
0.0
 10
325.4606393840036
 20
177.55601028957
 30
0.0
 10
325.5385813572518
 20
177.5513346273595
 30
0.0
 10
325.6108692903335
 20
177.5444192620907
 30
0.0
 10
325.6778198461704
 20
177.5348455367026
 30
0.0
 10
325.7394441337408
 20
177.5249862623351
 30
0.0
 10
325.7952477736634
 20
177.5111412687529
 30
0.0
 10
325.8301937752135
 20
177.5004829732995
 30
0.0
 10
325.8469602272727
 20
177.4953693181794
 30
0.0
  0
LINE
  5
25A
330
1F
100
AcDbEntity
  8
0
  6
Continuous
 62
     7
370
    25
100
AcDbLine
 10
324.3036363636
 20
177.56
 30
0.0
 11
325.2901420455
 21
177.56
 31
0.0
  0
LINE
  5
25B
330
1F
100
AcDbEntity
  8
0
  6
Continuous
 62
     7
370
    25
100
AcDbLine
 10
324.3036363636
 20
174.06
 30
0.0
 11
324.3036363636
 21
177.56
 31
0.0
  0
LINE
  5
25C
330
1F
100
AcDbEntity
  8
0
  6
Continuous
 62
     7
370
    25
100
AcDbLine
 10
325.3355965909
 20
174.06
 30
0.0
 11
324.3036363636
 21
174.06
 31
0.0
  0
SPLINE
  5
25D
330
1F
100
AcDbEntity
  8
0
  6
Continuous
 62
     7
370
    25
100
AcDbSpline
210
0.0
220
0.0
230
1.0
 70
     8
 71
     3
 72
    31
 73
    27
 74
     0
 42
0.000000001
 43
0.00000001
 40
0.0
 40
0.0
 40
0.0
 40
0.0
 40
0.0577553347540334
 40
0.1136139226023751
 40
0.1671197257755569
 40
0.2189464986391528
 40
0.2686643663353129
 40
0.3168966216208758
 40
0.3635773347188822
 40
0.4087770573903791
 40
0.4520210878651942
 40
0.4933464890352595
 40
0.5327655511252257
 40
0.5699643422747785
 40
0.6057775680813429
 40
0.6402404808462623
 40
0.6733902473124876
 40
0.7057429754128419
 40
0.7379211084107885
 40
0.7710708748770118
 40
0.8052923530984052
 40
0.840966842713646
 40
0.8780909052648258
 40
0.9167713881419294
 40
0.9574514408635615
 40
1.0
 40
1.0
 40
1.0
 40
1.0
 10
326.6672727272727
 20
175.8291761363612
 30
0.0
 10
326.6666748914354
 20
175.7806348373263
 30
0.0
 10
326.6654988533285
 20
175.6851463873836
 30
0.0
 10
326.6578070176972
 20
175.5448436486468
 30
0.0
 10
326.6442895372389
 20
175.4100048204204
 30
0.0
 10
326.6254469073416
 20
175.280994804618
 30
0.0
 10
326.6002139371089
 20
175.1576191616247
 30
0.0
 10
326.5708460955104
 20
175.0396028610246
 30
0.0
 10
326.5351375629801
 20
174.9273103698308
 30
0.0
 10
326.4949451570946
 20
174.8210316204831
 30
0.0
 10
326.4501863273795
 20
174.7214916337851
 30
0.0
 10
326.4018038217659
 20
174.6291412101855
 30
0.0
 10
326.3511370441405
 20
174.5438614276366
 30
0.0
 10
326.2967825715121
 20
174.4664395873272
 30
0.0
 10
326.2391585143045
 20
174.3967661519489
 30
0.0
 10
326.1788924453797
 20
174.3340072161659
 30
0.0
 10
326.1154563782218
 20
174.2786822757569
 30
0.0
 10
326.0479684917172
 20
174.2317197643662
 30
0.0
 10
325.976845944603
 20
174.1904747397542
 30
0.0
 10
325.9004586764211
 20
174.1560860677456
 30
0.0
 10
325.8192182826496
 20
174.1258269409842
 30
0.0
 10
325.7323392589457
 20
174.1021803965416
 30
0.0
 10
325.6406150440516
 20
174.0827978255411
 30
0.0
 10
325.5435478423406
 20
174.0694599361913
 30
0.0
 10
325.4413107898209
 20
174.0617377834892
 30
0.0
 10
325.3713581429332
 20
174.0605878664846
 30
0.0
 10
325.3355965909091
 20
174.0599999999976
 30
0.0
  0
SPLINE
  5
25E
330
1F
100
AcDbEntity
  8
0
  6
Continuous
 62
     7
370
    25
100
AcDbSpline
210
0.0
220
0.0
230
1.0
 70
     8
 71
     3
 72
    23
 73
    19
 74
     0
 42
0.000000001
 43
0.00000001
 40
0.0
 40
0.0
 40
0.0
 40
0.0
 40
0.0888020249989601
 40
0.1690438221939711
 40
0.241298438470551
 40
0.3055987735467968
 40
0.3614602812014794
 40
0.4094933830719608
 40
0.449546459493896
 40
0.4818678640812734
 40
0.5389057168513106
 40
0.5962116047656716
 40
0.6552844744227105
 40
0.7171583883965937
 40
0.7819971740158731
 40
0.8500813053860575
 40
0.9224248055745163
 40
0.9999999999999999
 40
0.9999999999999999
 40
0.9999999999999999
 40
0.9999999999999999
 10
331.7354545454546
 20
175.618948863634
 30
0.0
 10
331.770533570455
 20
175.608428375346
 30
0.0
 10
331.8373101159785
 20
175.5884015397917
 30
0.0
 10
331.9319905479321
 20
175.5577519738558
 30
0.0
 10
332.0165633833014
 20
175.5287328181956
 30
0.0
 10
332.0910168949077
 20
175.5012731335445
 30
0.0
 10
332.1553018935139
 20
175.4751283093475
 30
0.0
 10
332.2091012800653
 20
175.4500727223265
 30
0.0
 10
332.2537960552469
 20
175.4282438600201
 30
0.0
 10
332.2982434643996
 20
175.3985055464748
 30
0.0
 10
332.3445687868321
 20
175.3593420437461
 30
0.0
 10
332.3927913828545
 20
175.3062199433566
 30
0.0
 10
332.4341105602629
 20
175.2451567837227
 30
0.0
 10
332.4689738137563
 20
175.1767030151516
 30
0.0
 10
332.4963159034905
 20
175.1010093471458
 30
0.0
 10
332.5175154768137
 20
175.0188655433714
 30
0.0
 10
332.5281990444668
 20
174.9293609922734
 30
0.0
 10
332.5299849677137
 20
174.8675514387625
 30
0.0
 10
332.5309090909091
 20
174.8355681818158
 30
0.0
  0
SPLINE
  5
25F
330
1F
100
AcDbEntity
  8
0
  6
Continuous
 62
     7
370
    25
100
AcDbSpline
210
0.0
220
0.0
230
1.0
 70
     8
 71
     3
 72
    15
 73
    11
 74
     0
 42
0.000000001
 43
0.00000001
 40
0.0
 40
0.0
 40
0.0
 40
0.0
 40
0.0564719285384476
 40
0.1326570773564946
 40
0.2281521911408201
 40
0.3431668580366659
 40
0.4767998177852612
 40
0.6316582076712588
 40
0.8051723455879789
 40
1.0
 40
1.0
 40
1.0
 40
1.0
 10
331.3277840909091
 20
175.7645454545431
 30
0.0
 10
331.3348340017758
 20
175.7604228445421
 30
0.0
 10
331.3513948063279
 20
175.7507385038802
 30
0.0
 10
331.3813679685512
 20
175.7368726432054
 30
0.0
 10
331.4197894072462
 20
175.721321666624
 30
0.0
 10
331.4666980508872
 20
175.7047327428688
 30
0.0
 10
331.5216031213872
 20
175.685027295959
 30
0.0
 10
331.5853657267973
 20
175.6651265598753
 30
0.0
 10
331.6573209680756
 20
175.6418284286906
 30
0.0
 10
331.708424347528
 20
175.6268640160268
 30
0.0
 10
331.7354545454546
 20
175.618948863634
 30
0.0
  0
SPLINE
  5
260
330
1F
100
AcDbEntity
  8
0
  6
Continuous
 62
     7
370
    25
100
AcDbSpline
210
0.0
220
0.0
230
1.0
 70
     8
 71
     3
 72
    11
 73
     7
 74
     0
 42
0.000000001
 43
0.00000001
 40
0.0
 40
0.0
 40
0.0
 40
0.0
 40
0.2533345299835125
 40
0.4960226624459858
 40
0.7370566853077676
 40
1.0
 40
1.0
 40
1.0
 40
1.0
 10
331.2127272727272
 20
175.9761931818158
 30
0.0
 10
331.2139314829416
 20
175.9548968691872
 30
0.0
 10
331.2162892963699
 20
175.9131992226366
 30
0.0
 10
331.2396718495208
 20
175.8551056174551
 30
0.0
 10
331.2763736531596
 20
175.8035492416764
 30
0.0
 10
331.3101577160396
 20
175.7779181353339
 30
0.0
 10
331.3277840909091
 20
175.7645454545431
 30
0.0
  0
SPLINE
  5
261
330
1F
100
AcDbEntity
  8
0
  6
Continuous
 62
     7
370
    25
100
AcDbSpline
210
0.0
220
0.0
230
1.0
 70
     8
 71
     3
 72
    15
 73
    11
 74
     0
 42
0.000000001
 43
0.00000001
 40
0.0
 40
0.0
 40
0.0
 40
0.0
 40
0.1744475096522793
 40
0.3268824124617934
 40
0.4613472122667945
 40
0.5816380267185478
 40
0.6910705666047827
 40
0.7927892955004712
 40
0.8939382396375752
 40
0.9999999999999999
 40
0.9999999999999999
 40
0.9999999999999999
 40
0.9999999999999999
 10
331.6686931818182
 20
176.2872727272704
 30
0.0
 10
331.6326308537975
 20
176.2863004643199
 30
0.0
 10
331.5650567118341
 20
176.2844786231287
 30
0.0
 10
331.4708374470826
 20
176.2682051785698
 30
0.0
 10
331.3903499895213
 20
176.2422000610995
 30
0.0
 10
331.3251121553768
 20
176.2034045627816
 30
0.0
 10
331.27508593676
 20
176.1558206742096
 30
0.0
 10
331.2390490938322
 20
176.101770066732
 30
0.0
 10
331.2164424238775
 20
176.0411039053042
 30
0.0
 10
331.2139850770836
 20
175.9981694049818
 30
0.0
 10
331.2127272727272
 20
175.9761931818158
 30
0.0
  0
SPLINE
  5
262
330
1F
100
AcDbEntity
  8
0
  6
Continuous
 62
     7
370
    25
100
AcDbSpline
210
0.0
220
0.0
230
1.0
 70
     8
 71
     3
 72
    15
 73
    11
 74
     0
 42
0.000000001
 43
0.00000001
 40
0.0
 40
0.0
 40
0.0
 40
0.0
 40
0.1428901499986546
 40
0.2715775881364902
 40
0.3904693795008494
 40
0.5025712980780856
 40
0.6152081973574496
 40
0.7321896610795405
 40
0.8591868078244163
 40
1.0
 40
1.0
 40
1.0
 40
1.0
 10
332.1218181818182
 20
175.8781818181794
 30
0.0
 10
332.1168350182736
 20
175.910334141327
 30
0.0
 10
332.1073639977957
 20
175.9714429747456
 30
0.0
 10
332.079172237426
 20
176.0563110967541
 30
0.0
 10
332.0380847999169
 20
176.1275987526093
 30
0.0
 10
331.9868208956376
 20
176.1874342165964
 30
0.0
 10
331.9226639778456
 20
176.2326304663757
 30
0.0
 10
331.8477373522193
 20
176.2648775787564
 30
0.0
 10
331.7617401306686
 20
176.284117756539
 30
0.0
 10
331.7007575072736
 20
176.2861855125945
 30
0.0
 10
331.6686931818182
 20
176.2872727272704
 30
0.0
  0
LINE
  5
263
330
1F
100
AcDbEntity
  8
0
  6
Continuous
 62
     7
370
    25
100
AcDbLine
 10
332.4854545455
 20
175.9236363636
 30
0.0
 11
332.1218181818
 21
175.8781818182
 31
0.0
  0
SPLINE
  5
264
330
1F
100
AcDbEntity
  8
0
  6
Continuous
 62
     7
370
    25
100
AcDbSpline
210
0.0
220
0.0
230
1.0
 70
     8
 71
     3
 72
    19
 73
    15
 74
     0
 42
0.000000001
 43
0.00000001
 40
0.0
 40
0.0
 40
0.0
 40
0.0
 40
0.0940979807465284
 40
0.1832242239908924
 40
0.2679816082040667
 40
0.3505333049061091
 40
0.4292230974138175
 40
0.5039604698815175
 40
0.5757366039802719
 40
0.6459794083478014
 40
0.719792472975991
 40
0.8026697393828577
 40
0.895821381044566
 40
1.0
 40
1.0
 40
1.0
 40
1.0
 10
331.6559090909091
 20
176.6509090909067
 30
0.0
 10
331.6945457115036
 20
176.6497387362517
 30
0.0
 10
331.7697775578186
 20
176.6474598635091
 30
0.0
 10
331.8790188133652
 20
176.632089265825
 30
0.0
 10
331.9809776059156
 20
176.6048270888214
 30
0.0
 10
332.074997500803
 20
176.5673364753975
 30
0.0
 10
332.1606088578914
 20
176.5214550180099
 30
0.0
 10
332.23582640146
 20
176.4671796223946
 30
0.0
 10
332.3004851487244
 20
176.4056361415649
 30
0.0
 10
332.3555416122565
 20
176.3357232305782
 30
0.0
 10
332.4002526586133
 20
176.2535246869782
 30
0.0
 10
332.4366109119679
 20
176.1573867492067
 30
0.0
 10
332.4665605518112
 20
176.0460598730728
 30
0.0
 10
332.4789262131311
 20
175.9659366506407
 30
0.0
 10
332.4854545454545
 20
175.923636363634
 30
0.0
  0
SPLINE
  5
265
330
1F
100
AcDbEntity
  8
0
  6
Continuous
 62
     7
370
    25
100
AcDbSpline
210
0.0
220
0.0
230
1.0
 70
     8
 71
     3
 72
    23
 73
    19
 74
     0
 42
0.000000001
 43
0.00000001
 40
0.0
 40
0.0
 40
0.0
 40
0.0
 40
0.0644363268042908
 40
0.1258667377151238
 40
0.185938102662909
 40
0.2442596602086013
 40
0.3015808136688501
 40
0.3585695142859089
 40
0.4164511649581965
 40
0.4759233063302463
 40
0.5359946712780327
 40
0.5958276290276501
 40
0.657301821083218
 40
0.7202998620236514
 40
0.78546020064473
 40
0.8533603183878388
 40
0.9245747987912778
 40
1.0
 40
1.0
 40
1.0
 40
1.0
 10
330.8490909090909
 20
175.9250568181794
 30
0.0
 10
330.8497782891741
 20
175.951370601066
 30
0.0
 10
330.8511209834731
 20
176.0027706446926
 30
0.0
 10
330.8614973814131
 20
176.0781037925026
 30
0.0
 10
330.8773918145832
 20
176.1498681389928
 30
0.0
 10
330.900843968539
 20
176.2178733896071
 30
0.0
 10
330.9319869255772
 20
176.281222077938
 30
0.0
 10
330.968147429317
 20
176.3416333682318
 30
0.0
 10
331.0119090620095
 20
176.3979875506924
 30
0.0
 10
331.0622450899909
 20
176.4502064703184
 30
0.0
 10
331.1179498657193
 20
176.4979945613485
 30
0.0
 10
331.1800221301343
 20
176.5386722326926
 30
0.0
 10
331.2468203319345
 20
176.5735648522064
 30
0.0
 10
331.3189855214339
 20
176.6019553123568
 30
0.0
 10
331.3960556369155
 20
176.6240357117225
 30
0.0
 10
331.4781291846083
 20
176.6391855505218
 30
0.0
 10
331.5651961938253
 20
176.6498224207942
 30
0.0
 10
331.6250981025715
 20
176.6505399991762
 30
0.0
 10
331.6559090909091
 20
176.6509090909067
 30
0.0
  0
SPLINE
  5
266
330
1F
100
AcDbEntity
  8
0
  6
Continuous
 62
     7
370
    25
100
AcDbSpline
210
0.0
220
0.0
230
1.0
 70
     8
 71
     3
 72
    23
 73
    19
 74
     0
 42
0.000000001
 43
0.00000001
 40
0.0
 40
0.0
 40
0.0
 40
0.0
 40
0.0803479529685892
 40
0.1540857697659233
 40
0.2217463782410241
 40
0.2830078046298355
 40
0.3384292434626356
 40
0.3876370850929214
 40
0.4310890015474594
 40
0.4683951320205006
 40
0.5353469519551289
 40
0.6011012441541747
 40
0.6656147996428067
 40
0.730435542112137
 40
0.7957028268409424
 40
0.8616285479192455
 40
0.9296396743680707
 40
1.0
 40
1.0
 40
1.0
 40
1.0
 10
331.7411363636363
 20
175.1445170454521
 30
0.0
 10
331.7079631512179
 20
175.1546033185092
 30
0.0
 10
331.6443458494417
 20
175.1739460782268
 30
0.0
 10
331.553258343374
 20
175.2032694139605
 30
0.0
 10
331.4701874510289
 20
175.2306120586792
 30
0.0
 10
331.3953225152882
 20
175.2575578025455
 30
0.0
 10
331.3288500241783
 20
175.2841385578333
 30
0.0
 10
331.2695309822825
 20
175.3079054330724
 30
0.0
 10
331.2184112348733
 20
175.3310551616736
 30
0.0
 10
331.1621097294665
 20
175.3610135588374
 30
0.0
 10
331.1005577054372
 20
175.4012735960966
 30
0.0
 10
331.0355630279308
 20
175.456632959847
 30
0.0
 10
330.9797158329931
 20
175.5199538960827
 30
0.0
 10
330.9324101753724
 20
175.5896678064161
 30
0.0
 10
330.8956816016455
 20
175.6661501179047
 30
0.0
 10
330.8680570987855
 20
175.7478091546068
 30
0.0
 10
330.8526418056472
 20
175.8349916463693
 30
0.0
 10
330.8502878626201
 20
175.8946972108111
 30
0.0
 10
330.8490909090909
 20
175.9250568181794
 30
0.0
  0
SPLINE
  5
267
330
1F
100
AcDbEntity
  8
0
  6
Continuous
 62
     7
370
    25
100
AcDbSpline
210
0.0
220
0.0
230
1.0
 70
     8
 71
     3
 72
    15
 73
    11
 74
     0
 42
0.000000001
 43
0.00000001
 40
0.0
 40
0.0
 40
0.0
 40
0.0
 40
0.0610041680348467
 40
0.1413951950876474
 40
0.2376911451785605
 40
0.3520340277813437
 40
0.4865134538123962
 40
0.6384006556078339
 40
0.8107359489770134
 40
1.0
 40
1.0
 40
1.0
 40
1.0
 10
332.0841761363636
 20
175.0038920454522
 30
0.0
 10
332.0783711603779
 20
175.0087845304172
 30
0.0
 10
332.0649164123102
 20
175.0201243107697
 30
0.0
 10
332.0392211297179
 20
175.0349161741762
 30
0.0
 10
332.0070576683651
 20
175.0513978978348
 30
0.0
 10
331.9676614782657
 20
175.0684416661071
 30
0.0
 10
331.9209236279173
 20
175.0856002571261
 30
0.0
 10
331.8674254072308
 20
175.1052646845361
 30
0.0
 10
331.806651774109
 20
175.1247231299856
 30
0.0
 10
331.7636459587441
 20
175.137716309266
 30
0.0
 10
331.7411363636363
 20
175.1445170454521
 30
0.0
  0
SPLINE
  5
268
330
1F
100
AcDbEntity
  8
0
  6
Continuous
 62
     7
370
    25
100
AcDbSpline
210
0.0
220
0.0
230
1.0
 70
     8
 71
     3
 72
    11
 73
     7
 74
     0
 42
0.000000001
 43
0.00000001
 40
0.0
 40
0.0
 40
0.0
 40
0.0
 40
0.2800024894960349
 40
0.5331785436641109
 40
0.7691212689052842
 40
1.0
 40
1.0
 40
1.0
 40
1.0
 10
332.1672727272727
 20
174.7730681818158
 30
0.0
 10
332.1664925328025
 20
174.7966112247081
 30
0.0
 10
332.1650068926136
 20
174.8414417022703
 30
0.0
 10
332.1491023250168
 20
174.9044544813446
 30
0.0
 10
332.1228416768476
 20
174.9596191301365
 30
0.0
 10
332.0969711034352
 20
174.9892415197764
 30
0.0
 10
332.0841761363636
 20
175.0038920454522
 30
0.0
  0
SPLINE
  5
269
330
1F
100
AcDbEntity
  8
0
  6
Continuous
 62
     7
370
    25
100
AcDbSpline
210
0.0
220
0.0
230
1.0
 70
     8
 71
     3
 72
    15
 73
    11
 74
     0
 42
0.000000001
 43
0.00000001
 40
0.0
 40
0.0
 40
0.0
 40
0.0
 40
0.1542702648641897
 40
0.2919558213672675
 40
0.419290313497261
 40
0.5397792421130188
 40
0.6560244828035189
 40
0.767785065783795
 40
0.8804278840528461
 40
1.0
 40
1.0
 40
1.0
 40
1.0
 10
331.6956818181818
 20
174.3781818181794
 30
0.0
 10
331.7313098256789
 20
174.3794220927762
 30
0.0
 10
331.7987356786238
 20
174.3817693071856
 30
0.0
 10
331.8937689368932
 20
174.4025330767553
 30
0.0
 10
331.9765142209372
 20
174.4369028042389
 30
0.0
 10
332.0448530087633
 20
174.4869935885999
 30
0.0
 10
332.0991505789003
 20
174.5469325637695
 30
0.0
 10
332.139702004347
 20
174.6149639412714
 30
0.0
 10
332.1629501402102
 20
174.6918184382097
 30
0.0
 10
332.165803483646
 20
174.745451463808
 30
0.0
 10
332.1672727272727
 20
174.7730681818158
 30
0.0
  0
SPLINE
  5
26A
330
1F
100
AcDbEntity
  8
0
  6
Continuous
 62
     7
370
    25
100
AcDbSpline
210
0.0
220
0.0
230
1.0
 70
     8
 71
     3
 72
    15
 73
    11
 74
     0
 42
0.000000001
 43
0.00000001
 40
0.0
 40
0.0
 40
0.0
 40
0.0
 40
0.1486602329898427
 40
0.2817900771618545
 40
0.4040342802842961
 40
0.5181502331779355
 40
0.6308884781878081
 40
0.7460601547521013
 40
0.8674901524067966
 40
1.0
 40
1.0
 40
1.0
 40
1.0
 10
331.1672727272727
 20
174.8781818181794
 30
0.0
 10
331.1734261229698
 20
174.8383856798423
 30
0.0
 10
331.1850900751475
 20
174.7629508667305
 30
0.0
 10
331.2201380260893
 20
174.658812182556
 30
0.0
 10
331.2682069150628
 20
174.5704700037548
 30
0.0
 10
331.3308614253406
 20
174.4987466899425
 30
0.0
 10
331.4062913113966
 20
174.4438932226182
 30
0.0
 10
331.4931997863784
 20
174.4053463222781
 30
0.0
 10
331.5910445304355
 20
174.382293692365
 30
0.0
 10
331.6598027081484
 20
174.379591739915
 30
0.0
 10
331.6956818181818
 20
174.3781818181794
 30
0.0
  0
LINE
  5
26B
330
1F
100
AcDbEntity
  8
0
  6
Continuous
 62
     7
370
    25
100
AcDbLine
 10
330.8036363636
 20
174.8327272727
 30
0.0
 11
331.1672727273
 21
174.8781818182
 31
0.0
  0
SPLINE
  5
26C
330
1F
100
AcDbEntity
  8
0
  6
Continuous
 62
     7
370
    25
100
AcDbSpline
210
0.0
220
0.0
230
1.0
 70
     8
 71
     3
 72
    23
 73
    19
 74
     0
 42
0.000000001
 43
0.00000001
 40
0.0
 40
0.0
 40
0.0
 40
0.0
 40
0.068598200010893
 40
0.133768420734133
 40
0.196572256992914
 40
0.2562287272301808
 40
0.314602321697386
 40
0.3708951153036783
 40
0.4271879089099694
 40
0.4830691009199749
 40
0.5398892390028442
 40
0.597518718014749
 40
0.6574054859212516
 40
0.7191942671091409
 40
0.784329274958959
 40
0.8522468537509188
 40
0.9244620033624421
 40
1.0
 40
1.0
 40
1.0
 40
1.0
 10
331.6708238636364
 20
174.0145454545431
 30
0.0
 10
331.6405025021684
 20
174.0153296299243
 30
0.0
 10
331.5813749939038
 20
174.0168587939885
 30
0.0
 10
331.4947946131848
 20
174.0258036367459
 30
0.0
 10
331.4134243223899
 20
174.0423597274063
 30
0.0
 10
331.3363587772063
 20
174.0640839279561
 30
0.0
 10
331.2649284312006
 20
174.0933729471454
 30
0.0
 10
331.1977417246519
 20
174.1283019132049
 30
0.0
 10
331.1362091232536
 20
174.170504793393
 30
0.0
 10
331.0785168972054
 20
174.2182104294203
 30
0.0
 10
331.0269911309172
 20
174.2733354618713
 30
0.0
 10
330.9793969038139
 20
174.3341130813328
 30
0.0
 10
330.937933007437
 20
174.401835491109
 30
0.0
 10
330.9005448452431
 20
174.4755756058052
 30
0.0
 10
330.868955714921
 20
174.5558409636649
 30
0.0
 10
330.8420549506561
 20
174.6425498777129
 30
0.0
 10
330.8189729673347
 20
174.7351693493615
 30
0.0
 10
330.8088246407154
 20
174.7997240376134
 30
0.0
 10
330.8036363636364
 20
174.8327272727249
 30
0.0
  0
SPLINE
  5
26D
330
1F
100
AcDbEntity
  8
0
  6
Continuous
 62
     7
370
    25
100
AcDbSpline
210
0.0
220
0.0
230
1.0
 70
     8
 71
     3
 72
    23
 73
    19
 74
     0
 42
0.000000001
 43
0.00000001
 40
0.0
 40
0.0
 40
0.0
 40
0.0
 40
0.0667365676275906
 40
0.1307394576781688
 40
0.1926219323102818
 40
0.2527062673934903
 40
0.3114422337405068
 40
0.3702615929787222
 40
0.4289021079482201
 40
0.4884620470024298
 40
0.5484554105456723
 40
0.6080717555211865
 40
0.6677538400275188
 40
0.7291865847145693
 40
0.7928053990892739
 40
0.8587142205001841
 40
0.9274460170065547
 40
1.0
 40
1.0
 40
1.0
 40
1.0
 10
332.5309090909091
 20
174.8355681818158
 30
0.0
 10
332.5302331919862
 20
174.805711484941
 30
0.0
 10
332.5289090804569
 20
174.7472210876036
 30
0.0
 10
332.5183441313762
 20
174.6615061971667
 30
0.0
 10
332.4994384294533
 20
174.5804067850655
 30
0.0
 10
332.4752150151902
 20
174.5031220681508
 30
0.0
 10
332.4417342724437
 20
174.4308684261207
 30
0.0
 10
332.4022830768753
 20
174.3624832590668
 30
0.0
 10
332.3548012037405
 20
174.2989059773269
 30
0.0
 10
332.3009692021574
 20
174.2399335024062
 30
0.0
 10
332.2407140236199
 20
174.1868636822933
 30
0.0
 10
332.1752261909563
 20
174.1402456419497
 30
0.0
 10
332.1039032074477
 20
174.1018277225822
 30
0.0
 10
332.027661644783
 20
174.0696193030505
 30
0.0
 10
331.945713838912
 20
174.0449508456345
 30
0.0
 10
331.8587016289499
 20
174.027327793261
 30
0.0
 10
331.7665075760542
 20
174.0164323872503
 30
0.0
 10
331.7032885201744
 20
174.0151856745001
 30
0.0
 10
331.6708238636364
 20
174.0145454545431
 30
0.0
  0
LINE
  5
26E
330
1F
100
AcDbEntity
  8
0
  6
Continuous
 62
     7
370
    25
100
AcDbLine
 10
333.0763636364
 20
174.56
 30
0.0
 11
333.44
 21
174.56
 31
0.0
  0
LINE
  5
26F
330
1F
100
AcDbEntity
  8
0
  6
Continuous
 62
     7
370
    25
100
AcDbLine
 10
333.0763636364
 20
174.06
 30
0.0
 11
333.0763636364
 21
174.56
 31
0.0
  0
LINE
  5
270
330
1F
100
AcDbEntity
  8
0
  6
Continuous
 62
     7
370
    25
100
AcDbLine
 10
333.44
 20
174.06
 30
0.0
 11
333.0763636364
 21
174.06
 31
0.0
  0
LINE
  5
271
330
1F
100
AcDbEntity
  8
0
  6
Continuous
 62
     7
370
    25
100
AcDbLine
 10
333.44
 20
174.56
 30
0.0
 11
333.44
 21
174.06
 31
0.0
  0
SPLINE
  5
272
330
1F
100
AcDbEntity
  8
0
  6
Continuous
 62
     7
370
    25
100
AcDbSpline
210
0.0
220
0.0
230
1.0
 70
     8
 71
     3
 72
    11
 73
     7
 74
     0
 42
0.000000001
 43
0.00000001
 40
0.0
 40
0.0
 40
0.0
 40
0.0
 40
0.2427338836200175
 40
0.4890531082323479
 40
0.7416065579580067
 40
1.0
 40
1.0
 40
1.0
 40
1.0
 10
334.5500852272727
 20
175.8994886363612
 30
0.0
 10
334.5399774373192
 20
175.8581881581648
 30
0.0
 10
334.519612558628
 20
175.7749771662249
 30
0.0
 10
334.5005144807501
 20
175.6464044795602
 30
0.0
 10
334.4879540632193
 20
175.5143239121807
 30
0.0
 10
334.4862940425799
 20
175.4248503724367
 30
0.0
 10
334.4854545454546
 20
175.3796022727249
 30
0.0
  0
SPLINE
  5
273
330
1F
100
AcDbEntity
  8
0
  6
Continuous
 62
     7
370
    25
100
AcDbSpline
210
0.0
220
0.0
230
1.0
 70
     8
 71
     3
 72
    15
 73
    11
 74
     0
 42
0.000000001
 43
0.00000001
 40
0.0
 40
0.0
 40
0.0
 40
0.0
 40
0.1128482450535508
 40
0.2237707476587508
 40
0.3390101317530222
 40
0.4609584624010871
 40
0.585978471184484
 40
0.7164536607227071
 40
0.8531371885918309
 40
1.0
 40
1.0
 40
1.0
 40
1.0
 10
334.8753693181819
 20
176.1963636363612
 30
0.0
 10
334.8574892879462
 20
176.1954681406123
 30
0.0
 10
334.8220343481543
 20
176.1936924306474
 30
0.0
 10
334.7705427428326
 20
176.1773899262824
 30
0.0
 10
334.720725705627
 20
176.1534816087087
 30
0.0
 10
334.6752610835128
 20
176.1181713737456
 30
0.0
 10
334.63326866007
 20
176.0754686576211
 30
0.0
 10
334.598848615211
 20
176.0235914574644
 30
0.0
 10
334.5697746792877
 20
175.9647037349926
 30
0.0
 10
334.5568035980913
 20
175.9217411203431
 30
0.0
 10
334.5500852272727
 20
175.8994886363612
 30
0.0
  0
SPLINE
  5
274
330
1F
100
AcDbEntity
  8
0
  6
Continuous
 62
     7
370
    25
100
AcDbSpline
210
0.0
220
0.0
230
1.0
 70
     8
 71
     3
 72
    11
 73
     7
 74
     0
 42
0.000000001
 43
0.00000001
 40
0.0
 40
0.0
 40
0.0
 40
0.0
 40
0.263191415891498
 40
0.5150108514500557
 40
0.7599583482797369
 40
1.0
 40
1.0
 40
1.0
 40
1.0
 10
335.1218181818182
 20
176.1509090909067
 30
0.0
 10
335.1008506956409
 20
176.157894950601
 30
0.0
 10
335.059821686878
 20
176.1715648248143
 30
0.0
 10
334.9975396668901
 20
176.1856837461607
 30
0.0
 10
334.9362411695253
 20
176.194689053397
 30
0.0
 10
334.895522640957
 20
176.1958092190034
 30
0.0
 10
334.8753693181819
 20
176.1963636363612
 30
0.0
  0
LINE
  5
275
330
1F
100
AcDbEntity
  8
0
  6
Continuous
 62
     7
370
    25
100
AcDbLine
 10
335.2581818182
 20
176.5145454545
 30
0.0
 11
335.1218181818
 21
176.1509090909
 31
0.0
  0
SPLINE
  5
276
330
1F
100
AcDbEntity
  8
0
  6
Continuous
 62
     7
370
    25
100
AcDbSpline
210
0.0
220
0.0
230
1.0
 70
     8
 71
     3
 72
    11
 73
     7
 74
     0
 42
0.000000001
 43
0.00000001
 40
0.0
 40
0.0
 40
0.0
 40
0.0
 40
0.2261087100499864
 40
0.4629556926786645
 40
0.7199783096476556
 40
1.0
 40
1.0
 40
1.0
 40
1.0
 10
334.9151420454545
 20
176.6509090909067
 30
0.0
 10
334.9435080379948
 20
176.6492174799705
 30
0.0
 10
335.0015871704709
 20
176.6457539207271
 30
0.0
 10
335.0881230604633
 20
176.6178884072177
 30
0.0
 10
335.1756082643478
 20
176.5753242929101
 30
0.0
 10
335.2298825300107
 20
176.5353753423436
 30
0.0
 10
335.2581818181819
 20
176.5145454545431
 30
0.0
  0
SPLINE
  5
277
330
1F
100
AcDbEntity
  8
0
  6
Continuous
 62
     7
370
    25
100
AcDbSpline
210
0.0
220
0.0
230
1.0
 70
     8
 71
     3
 72
    19
 73
    15
 74
     0
 42
0.000000001
 43
0.00000001
 40
0.0
 40
0.0
 40
0.0
 40
0.0
 40
0.1074641575763819
 40
0.2071278442969117
 40
0.2981499594408138
 40
0.3815951115316691
 40
0.4571065637987443
 40
0.5239784429531169
 40
0.5848779813153278
 40
0.6371486459391846
 40
0.7325112188499223
 40
0.8235648458920003
 40
0.9106767658710344
 40
1.0
 40
1.0
 40
1.0
 40
1.0
 10
334.4854545454546
 20
176.1992045454521
 30
0.0
 10
334.4947327864327
 20
176.2210721186276
 30
0.0
 10
334.5126157912969
 20
176.2632199695389
 30
0.0
 10
334.5414288625792
 20
176.3224896338417
 30
0.0
 10
334.5679667822714
 20
176.376968953094
 30
0.0
 10
334.595120133165
 20
176.4251063244164
 30
0.0
 10
334.6210322956843
 20
176.4677847716544
 30
0.0
 10
334.6469198815675
 20
176.5045444298267
 30
0.0
 10
334.6719885614831
 20
176.5354969231727
 30
0.0
 10
334.7040451430665
 20
176.5686883934075
 30
0.0
 10
334.7457881644997
 20
176.6014025795412
 30
0.0
 10
334.7991566845993
 20
176.6304243715373
 30
0.0
 10
334.8563460854815
 20
176.6475931650796
 30
0.0
 10
334.8953803162638
 20
176.6497945852801
 30
0.0
 10
334.9151420454545
 20
176.6509090909067
 30
0.0
  0
LINE
  5
278
330
1F
100
AcDbEntity
  8
0
  6
Continuous
 62
     7
370
    25
100
AcDbLine
 10
334.4854545455
 20
176.6054545455
 30
0.0
 11
334.4854545455
 21
176.1992045455
 31
0.0
  0
LINE
  5
279
330
1F
100
AcDbEntity
  8
0
  6
Continuous
 62
     7
370
    25
100
AcDbLine
 10
334.1218181818
 20
176.6054545455
 30
0.0
 11
334.4854545455
 21
176.6054545455
 31
0.0
  0
LINE
  5
27A
330
1F
100
AcDbEntity
  8
0
  6
Continuous
 62
     7
370
    25
100
AcDbLine
 10
334.1218181818
 20
174.06
 30
0.0
 11
334.1218181818
 21
176.6054545455
 31
0.0
  0
LINE
  5
27B
330
1F
100
AcDbEntity
  8
0
  6
Continuous
 62
     7
370
    25
100
AcDbLine
 10
334.4854545455
 20
174.06
 30
0.0
 11
334.1218181818
 21
174.06
 31
0.0
  0
LINE
  5
27C
330
1F
100
AcDbEntity
  8
0
  6
Continuous
 62
     7
370
    25
100
AcDbLine
 10
334.4854545455
 20
175.3796022727
 30
0.0
 11
334.4854545455
 21
174.06
 31
0.0
  0
LINE
  5
27D
330
1F
100
AcDbEntity
  8
0
  6
Continuous
 62
     7
370
    25
100
AcDbLine
 10
335.5309090909
 20
174.56
 30
0.0
 11
335.8945454545
 21
174.56
 31
0.0
  0
LINE
  5
27E
330
1F
100
AcDbEntity
  8
0
  6
Continuous
 62
     7
370
    25
100
AcDbLine
 10
335.5309090909
 20
174.06
 30
0.0
 11
335.5309090909
 21
174.56
 31
0.0
  0
LINE
  5
27F
330
1F
100
AcDbEntity
  8
0
  6
Continuous
 62
     7
370
    25
100
AcDbLine
 10
335.8945454545
 20
174.06
 30
0.0
 11
335.5309090909
 21
174.06
 31
0.0
  0
LINE
  5
280
330
1F
100
AcDbEntity
  8
0
  6
Continuous
 62
     7
370
    25
100
AcDbLine
 10
335.8945454545
 20
174.56
 30
0.0
 11
335.8945454545
 21
174.06
 31
0.0
  0
SPLINE
  5
281
330
1F
100
AcDbEntity
  8
0
  6
Continuous
 62
     7
370
    25
100
AcDbSpline
210
0.0
220
0.0
230
1.0
 70
     8
 71
     3
 72
    23
 73
    19
 74
     0
 42
0.000000001
 43
0.00000001
 40
0.0
 40
0.0
 40
0.0
 40
0.0
 40
0.0562994607896006
 40
0.1104843795282412
 40
0.164018081626719
 40
0.2170997971745961
 40
0.2702389387310961
 40
0.3246247121116271
 40
0.3805013890915526
 40
0.4390826992767441
 40
0.4992993896742463
 40
0.5612523696947651
 40
0.6252109899383524
 40
0.6923896064580334
 40
0.7627611560156049
 40
0.8371679241845502
 40
0.9163985854960467
 40
0.9999999999999999
 40
0.9999999999999999
 40
0.9999999999999999
 40
0.9999999999999999
 10
337.4172727272727
 20
176.6509090909067
 30
0.0
 10
337.4514257940174
 20
176.6500512715379
 30
0.0
 10
337.5184491781732
 20
176.6483678514948
 30
0.0
 10
337.616881725683
 20
176.6321581245458
 30
0.0
 10
337.7108702701091
 20
176.6057576904606
 30
0.0
 10
337.8010509111127
 20
176.5697263253303
 30
0.0
 10
337.8860620099001
 20
176.5218369724334
 30
0.0
 10
337.9675755950342
 20
176.4652047611901
 30
0.0
 10
338.0438502129257
 20
176.3966020062164
 30
0.0
 10
338.1159334535028
 20
176.3188859948429
 30
0.0
 10
338.1826847345987
 20
176.231640809598
 30
0.0
 10
338.238963076426
 20
176.1335591995345
 30
0.0
 10
338.2879612020785
 20
176.027042680787
 30
0.0
 10
338.3263461469109
 20
175.9108486842446
 30
0.0
 10
338.356998862076
 20
175.7859357425214
 30
0.0
 10
338.3786373252021
 20
175.6517532807504
 30
0.0
 10
338.392458079338
 20
175.5084439894546
 30
0.0
 10
338.3938373222226
 20
175.4097019320839
 30
0.0
 10
338.3945454545454
 20
175.3590056818158
 30
0.0
  0
SPLINE
  5
282
330
1F
100
AcDbEntity
  8
0
  6
Continuous
 62
     7
370
    25
100
AcDbSpline
210
0.0
220
0.0
230
1.0
 70
     8
 71
     3
 72
    23
 73
    19
 74
     0
 42
0.000000001
 43
0.00000001
 40
0.0
 40
0.0
 40
0.0
 40
0.0
 40
0.0857884597734095
 40
0.1664595412497266
 40
0.2420111369601068
 40
0.313466315729113
 40
0.3807163806375297
 40
0.4449486700082224
 40
0.5060989352931609
 40
0.5652478392428202
 40
0.6226765458477636
 40
0.6777025803252644
 40
0.7312604080786557
 40
0.783927213752756
 40
0.8362008360891697
 40
0.8892899562354007
 40
0.9437893878328156
 40
1.0
 40
1.0
 40
1.0
 40
1.0
 10
336.44
 20
175.3327272727249
 30
0.0
 10
336.4407973245227
 20
175.3855428814919
 30
0.0
 10
336.4423444122619
 20
175.488023588447
 30
0.0
 10
336.4548262879198
 20
175.6366555260655
 30
0.0
 10
336.4772546371306
 20
175.7750951918241
 30
0.0
 10
336.5061100321878
 20
175.9039589591404
 30
0.0
 10
336.5456560345975
 20
176.0226660597337
 30
0.0
 10
336.592772949882
 20
176.1316890311369
 30
0.0
 10
336.6491969451648
 20
176.2305743110527
 30
0.0
 10
336.7140544851661
 20
176.3189968702525
 30
0.0
 10
336.7858041714243
 20
176.3967676850949
 30
0.0
 10
336.8620235899037
 20
176.4651618380315
 30
0.0
 10
336.9436205638928
 20
176.5220677940372
 30
0.0
 10
337.0291081925011
 20
176.5695224649813
 30
0.0
 10
337.1195959321357
 20
176.6059096145414
 30
0.0
 10
337.2145758026271
 20
176.6323153206957
 30
0.0
 10
337.3144573906273
 20
176.6483048980361
 30
0.0
 10
337.3826496125914
 20
176.6500321276894
 30
0.0
 10
337.4172727272727
 20
176.6509090909067
 30
0.0
  0
SPLINE
  5
283
330
1F
100
AcDbEntity
  8
0
  6
Continuous
 62
     7
370
    25
100
AcDbSpline
210
0.0
220
0.0
230
1.0
 70
     8
 71
     3
 72
    23
 73
    19
 74
     0
 42
0.000000001
 43
0.00000001
 40
0.0
 40
0.0
 40
0.0
 40
0.0
 40
0.0555165611084294
 40
0.1097085344297017
 40
0.1624977974568802
 40
0.2149870510369024
 40
0.2677243222305578
 40
0.321039059185454
 40
0.3766823477563168
 40
0.4341878910631718
 40
0.4936445727982238
 40
0.5554023230430167
 40
0.6193680003177882
 40
0.6871951297332722
 40
0.7584593421547647
 40
0.834052216413189
 40
0.9144816966427136
 40
0.9999999999999999
 40
0.9999999999999999
 40
0.9999999999999999
 40
0.9999999999999999
 10
337.4172727272727
 20
174.0145454545431
 30
0.0
 10
337.3831217512974
 20
174.0154293977085
 30
0.0
 10
337.3156346186508
 20
174.0171761937504
 30
0.0
 10
337.2167165210129
 20
174.0331814563377
 30
0.0
 10
337.1220565340797
 20
174.0594754378666
 30
0.0
 10
337.0321400627462
 20
174.0968453393723
 30
0.0
 10
336.9465179096547
 20
174.1438194242691
 30
0.0
 10
336.8652515359983
 20
174.2014632880622
 30
0.0
 10
336.7888308815612
 20
174.2698187334042
 30
0.0
 10
336.7169483863162
 20
174.3480968658155
 30
0.0
 10
336.6511060128818
 20
174.4363558032518
 30
0.0
 10
336.5944695281785
 20
174.5354309534574
 30
0.0
 10
336.5468555141287
 20
174.6446779293602
 30
0.0
 10
336.5071686829372
 20
174.7632033050836
 30
0.0
 10
336.4766448669762
 20
174.8918094631622
 30
0.0
 10
336.4561739660882
 20
175.0301278081745
 30
0.0
 10
336.4419777863134
 20
175.1780777419585
 30
0.0
 10
336.4406726033398
 20
175.2801342346462
 30
0.0
 10
336.44
 20
175.3327272727249
 30
0.0
  0
SPLINE
  5
284
330
1F
100
AcDbEntity
  8
0
  6
Continuous
 62
     7
370
    25
100
AcDbSpline
210
0.0
220
0.0
230
1.0
 70
     8
 71
     3
 72
    23
 73
    19
 74
     0
 42
0.000000001
 43
0.00000001
 40
0.0
 40
0.0
 40
0.0
 40
0.0
 40
0.0880029041958849
 40
0.1701931607871289
 40
0.2473127300446633
 40
0.3196189682101196
 40
0.3873720857078105
 40
0.4512539639810181
 40
0.5122102485833143
 40
0.5708398966999916
 40
0.6272114454665141
 40
0.6814696201629229
 40
0.734280076198816
 40
0.7862119439065531
 40
0.8381078045548318
 40
0.8904560935552053
 40
0.9441950138416841
 40
0.9999999999999999
 40
0.9999999999999999
 40
0.9999999999999999
 40
0.9999999999999999
 10
338.3945454545454
 20
175.3590056818158
 30
0.0
 10
338.3937598621389
 20
175.3040594204635
 30
0.0
 10
338.3922405662021
 20
175.1977961331502
 30
0.0
 10
338.3796815237855
 20
175.0437408129791
 30
0.0
 10
338.3574101142308
 20
174.9007832637409
 30
0.0
 10
338.3285368357965
 20
174.7681322995159
 30
0.0
 10
338.2889772039882
 20
174.6469247096386
 30
0.0
 10
338.2425875778378
 20
174.5357947510916
 30
0.0
 10
338.1862334875961
 20
174.4357405786826
 30
0.0
 10
338.121364843771
 20
174.3467957450947
 30
0.0
 10
338.050159538911
 20
174.2684709088646
 30
0.0
 10
337.9739147181735
 20
174.2003148220652
 30
0.0
 10
337.8923441858392
 20
174.1434019016927
 30
0.0
 10
337.8066961949515
 20
174.0957446843351
 30
0.0
 10
337.7158327165972
 20
174.0597019578173
 30
0.0
 10
337.6206906468805
 20
174.0331123266757
 30
0.0
 10
337.5205610240931
 20
174.0171188305748
 30
0.0
 10
337.4521323618529
 20
174.015413964828
 30
0.0
 10
337.4172727272727
 20
174.0145454545431
 30
0.0
  0
CIRCLE
  5
285
330
1F
100
AcDbEntity
  8
0
  6
Continuous
 62
     7
370
    25
100
AcDbCircle
 10
323.94
 20
206.56
 30
0.0
 40
7.0
  0
LINE
  5
286
330
1F
100
AcDbEntity
  8
0
  6
Continuous
 62
     7
370
    25
100
AcDbLine
 10
271.94
 20
172.06
 30
0.0
 11
348.94
 21
172.06
 31
0.0
  0
LINE
  5
287
330
1F
100
AcDbEntity
  8
0
  6
Continuous
 62
     7
370
    25
100
AcDbLine
 10
271.94
 20
241.06
 30
0.0
 11
271.94
 21
172.06
 31
0.0
  0
LINE
  5
288
330
1F
100
AcDbEntity
  8
0
  6
Continuous
 62
     7
370
    25
100
AcDbLine
 10
271.94
 20
241.06
 30
0.0
 11
348.94
 21
241.06
 31
0.0
  0
LINE
  5
289
330
1F
100
AcDbEntity
  8
0
  6
Continuous
 62
     7
370
    25
100
AcDbLine
 10
348.94
 20
241.06
 30
0.0
 11
348.94
 21
172.06
 31
0.0
  0
LINE
  5
28A
330
1F
100
AcDbEntity
  8
0
  6
Continuous
 62
     7
370
    25
100
AcDbLine
 10
338.8945454545
 20
174.56
 30
0.0
 11
339.2581818182
 21
174.56
 31
0.0
  0
LINE
  5
28B
330
1F
100
AcDbEntity
  8
0
  6
Continuous
 62
     7
370
    25
100
AcDbLine
 10
338.8945454545
 20
174.06
 30
0.0
 11
338.8945454545
 21
174.56
 31
0.0
  0
LINE
  5
28C
330
1F
100
AcDbEntity
  8
0
  6
Continuous
 62
     7
370
    25
100
AcDbLine
 10
339.2581818182
 20
174.06
 30
0.0
 11
338.8945454545
 21
174.06
 31
0.0
  0
LINE
  5
28D
330
1F
100
AcDbEntity
  8
0
  6
Continuous
 62
     7
370
    25
100
AcDbLine
 10
339.2581818182
 20
174.56
 30
0.0
 11
339.2581818182
 21
174.06
 31
0.0
  0
LINE
  5
28E
330
1F
100
AcDbEntity
  8
0
  6
Continuous
 62
     7
370
    25
100
AcDbLine
 10
328.8015056818
 20
175.1054545455
 30
0.0
 11
327.5784943182
 21
175.1054545455
 31
0.0
  0
LINE
  5
28F
330
1F
100
AcDbEntity
  8
0
  6
Continuous
 62
     7
370
    25
100
AcDbLine
 10
329.1076136364
 20
174.06
 30
0.0
 11
328.8015056818
 21
175.1054545455
 31
0.0
  0
LINE
  5
290
330
1F
100
AcDbEntity
  8
0
  6
Continuous
 62
     7
370
    25
100
AcDbLine
 10
329.4854545455
 20
174.06
 30
0.0
 11
329.1076136364
 21
174.06
 31
0.0
  0
LINE
  5
291
330
1F
100
AcDbEntity
  8
0
  6
Continuous
 62
     7
370
    25
100
AcDbLine
 10
328.3668465909
 20
177.56
 30
0.0
 11
329.4854545455
 21
174.06
 31
0.0
  0
LINE
  5
292
330
1F
100
AcDbEntity
  8
0
  6
Continuous
 62
     7
370
    25
100
AcDbLine
 10
328.0124431818
 20
177.56
 30
0.0
 11
328.3668465909
 21
177.56
 31
0.0
  0
LINE
  5
293
330
1F
100
AcDbEntity
  8
0
  6
Continuous
 62
     7
370
    25
100
AcDbLine
 10
326.8945454545
 20
174.06
 30
0.0
 11
328.0124431818
 21
177.56
 31
0.0
  0
LINE
  5
294
330
1F
100
AcDbEntity
  8
0
  6
Continuous
 62
     7
370
    25
100
AcDbLine
 10
327.2730965909
 20
174.06
 30
0.0
 11
326.8945454545
 21
174.06
 31
0.0
  0
LINE
  5
295
330
1F
100
AcDbEntity
  8
0
  6
Continuous
 62
     7
370
    25
100
AcDbLine
 10
327.5784943182
 20
175.1054545455
 30
0.0
 11
327.2730965909
 21
174.06
 31
0.0
  0
SPLINE
  5
296
330
1F
100
AcDbEntity
  8
0
  6
Continuous
 62
     7
370
    25
100
AcDbSpline
210
0.0
220
0.0
230
1.0
 70
     8
 71
     3
 72
    15
 73
    11
 74
     0
 42
0.000000001
 43
0.00000001
 40
0.0
 40
0.0
 40
0.0
 40
0.0
 40
0.133764907042688
 40
0.2614594112704879
 40
0.3854851197582181
 40
0.5058365689440533
 40
0.6259462731828815
 40
0.7469128434188632
 40
0.8709845759429888
 40
1.0
 40
1.0
 40
1.0
 40
1.0
 10
323.4925568181818
 20
174.5493465909067
 30
0.0
 10
323.459336292551
 20
174.5069333408454
 30
0.0
 10
323.394402826326
 20
174.4240316019942
 30
0.0
 10
323.2839593696101
 20
174.3144208079582
 30
0.0
 10
323.1658761940573
 20
174.2218590394583
 30
0.0
 10
323.0403635447123
 20
174.1451237016423
 30
0.0
 10
322.9065518068521
 20
174.0870051684909
 30
0.0
 10
322.7655051312212
 20
174.0446817916064
 30
0.0
 10
322.6165695489033
 20
174.0193936613747
 30
0.0
 10
322.5146715083972
 20
174.0161824323914
 30
0.0
 10
322.4627272727273
 20
174.0145454545431
 30
0.0
  0
SPLINE
  5
297
330
1F
100
AcDbEntity
  8
0
  6
Continuous
 62
     7
370
    25
100
AcDbSpline
210
0.0
220
0.0
230
1.0
 70
     8
 71
     3
 72
    15
 73
    11
 74
     0
 42
0.000000001
 43
0.00000001
 40
0.0
 40
0.0
 40
0.0
 40
0.0
 40
0.1416907485135362
 40
0.2774612942222747
 40
0.4074958162297556
 40
0.5327187817376446
 40
0.6537263486818017
 40
0.7710596611015751
 40
0.8863102006438568
 40
1.0
 40
1.0
 40
1.0
 40
1.0
 10
323.8490909090909
 20
175.806448863634
 30
0.0
 10
323.8479481272679
 20
175.7436830758167
 30
0.0
 10
323.8457103119769
 20
175.620774015745
 30
0.0
 10
323.8297327543877
 20
175.4407533400941
 30
0.0
 10
323.8006769654478
 20
175.2698786224364
 30
0.0
 10
323.7633195173235
 20
175.1072759806723
 30
0.0
 10
323.7124455926594
 20
174.9542181971259
 30
0.0
 10
323.6511968410622
 20
174.8099316655732
 30
0.0
 10
323.5793445575866
 20
174.6740028788427
 30
0.0
 10
323.5213542868743
 20
174.5907094098231
 30
0.0
 10
323.4925568181818
 20
174.5493465909067
 30
0.0
  0
SPLINE
  5
298
330
1F
100
AcDbEntity
  8
0
  6
Continuous
 62
     7
370
    25
100
AcDbSpline
210
0.0
220
0.0
230
1.0
 70
     8
 71
     3
 72
    31
 73
    27
 74
     0
 42
0.000000001
 43
0.00000001
 40
0.0
 40
0.0
 40
0.0
 40
0.0
 40
0.0374926737782896
 40
0.0740510373152984
 40
0.1104132093353027
 40
0.1462905595615538
 40
0.182366737986501
 40
0.2186772744483296
 40
0.2550749034222166
 40
0.2922408739317047
 40
0.3296542289704675
 40
0.3675327509850838
 40
0.4056909293123588
 40
0.4445404480785448
 40
0.4840761393264901
 40
0.5247146563554201
 40
0.5664015424377792
 40
0.6096675591076345
 40
0.653909139995328
 40
0.6991821398204042
 40
0.7455791418302294
 40
0.7934048941475277
 40
0.8424054055292817
 40
0.8933527573913604
 40
0.9457457808148021
 40
0.9999999999999999
 40
0.9999999999999999
 40
0.9999999999999999
 40
0.9999999999999999
 10
322.4648579545454
 20
177.6054545454521
 30
0.0
 10
322.4966104320794
 20
177.6047514606972
 30
0.0
 10
322.5593241214958
 20
177.6033628119246
 30
0.0
 10
322.6523269634596
 20
177.5929056169385
 30
0.0
 10
322.743172194359
 20
177.5770998367777
 30
0.0
 10
322.8317804340801
 20
177.5530530057517
 30
0.0
 10
322.9186364268805
 20
177.5235124953602
 30
0.0
 10
323.003093622313
 20
177.4864576888709
 30
0.0
 10
323.0852097410101
 20
177.4426015643764
 30
0.0
 10
323.1653192308863
 20
177.3933385191093
 30
0.0
 10
323.2421938025044
 20
177.3369700320225
 30
0.0
 10
323.3152341802469
 20
177.2744608244578
 30
0.0
 10
323.3845454145921
 20
177.2060673334882
 30
0.0
 10
323.4490223630803
 20
177.1312489606184
 30
0.0
 10
323.5097393728429
 20
177.0507167769362
 30
0.0
 10
323.5656846112587
 20
176.9639149632884
 30
0.0
 10
323.617623052583
 20
176.8710602693033
 30
0.0
 10
323.6657865141828
 20
176.7727753358626
 30
0.0
 10
323.7091356207114
 20
176.668973323097
 30
0.0
 10
323.7470226420819
 20
176.5602085237586
 30
0.0
 10
323.7777259137316
 20
176.4460936556062
 30
0.0
 10
323.8044619789452
 20
176.3277472717952
 30
0.0
 10
323.823811741666
 20
176.204064035188
 30
0.0
 10
323.8390394903024
 20
176.0759435656723
 30
0.0
 10
323.8474657766327
 20
175.9426897815081
 30
0.0
 10
323.848542932139
 20
175.8523878161949
 30
0.0
 10
323.8490909090909
 20
175.806448863634
 30
0.0
  0
SPLINE
  5
299
330
1F
100
AcDbEntity
  8
0
  6
Continuous
 62
     7
370
    25
100
AcDbSpline
210
0.0
220
0.0
230
1.0
 70
     8
 71
     3
 72
    23
 73
    19
 74
     0
 42
0.000000001
 43
0.00000001
 40
0.0
 40
0.0
 40
0.0
 40
0.0
 40
0.083191928033321
 40
0.162005375893768
 40
0.2362691051123542
 40
0.3066253171786706
 40
0.3736257302631198
 40
0.4377442844797704
 40
0.4997342717197015
 40
0.5601671328288006
 40
0.6188356570355553
 40
0.6750154308347249
 40
0.7296971697697443
 40
0.7830091722210549
 40
0.8359127345022762
 40
0.8894446742174571
 40
0.9439470604285818
 40
1.0
 40
1.0
 40
1.0
 40
1.0
 10
321.0763636363636
 20
175.7638352272704
 30
0.0
 10
321.0775998935567
 20
175.8356060313544
 30
0.0
 10
321.0800073424041
 20
175.9753702653216
 30
0.0
 10
321.0983585464667
 20
176.1785748307407
 30
0.0
 10
321.1295316911432
 20
176.3689297746718
 30
0.0
 10
321.1723455731912
 20
176.5466178262386
 30
0.0
 10
321.2285985154331
 20
176.7113194819182
 30
0.0
 10
321.2966181480763
 20
176.8636741713705
 30
0.0
 10
321.37787315243
 20
177.0029723791459
 30
0.0
 10
321.4711756313287
 20
177.1286033847257
 30
0.0
 10
321.5729526378142
 20
177.2407972532469
 30
0.0
 10
321.6825107356773
 20
177.3380388947492
 30
0.0
 10
321.7975430635354
 20
177.4211964939712
 30
0.0
 10
321.9194755429308
 20
177.4880778314426
 30
0.0
 10
322.0467382387306
 20
177.5418771389045
 30
0.0
 10
322.1811104422483
 20
177.5778856700323
 30
0.0
 10
322.3210001635654
 20
177.6019574839707
 30
0.0
 10
322.4164590828115
 20
177.6042780097294
 30
0.0
 10
322.4648579545454
 20
177.6054545454521
 30
0.0
  0
SPLINE
  5
29A
330
1F
100
AcDbEntity
  8
0
  6
Continuous
 62
     7
370
    25
100
AcDbSpline
210
0.0
220
0.0
230
1.0
 70
     8
 71
     3
 72
    15
 73
    11
 74
     0
 42
0.000000001
 43
0.00000001
 40
0.0
 40
0.0
 40
0.0
 40
0.0
 40
0.1198666267285387
 40
0.2390237457231741
 40
0.3595530360203504
 40
0.4815592024525984
 40
0.6054681757402873
 40
0.7329681629362566
 40
0.864249592720876
 40
1.0
 40
1.0
 40
1.0
 40
1.0
 10
321.4307670454546
 20
174.5635511363612
 30
0.0
 10
321.4023002359797
 20
174.6056923544675
 30
0.0
 10
321.3455351161533
 20
174.6897253507735
 30
0.0
 10
321.2739261321234
 20
174.8246097935794
 30
0.0
 10
321.2125034433573
 20
174.9653020595531
 30
0.0
 10
321.1631439434967
 20
175.1128115828336
 30
0.0
 10
321.1235906173393
 20
175.2662806708062
 30
0.0
 10
321.0962680258896
 20
175.4263871678541
 30
0.0
 10
321.0796729443888
 20
175.5930285520361
 30
0.0
 10
321.07747897826
 20
175.7062679535022
 30
0.0
 10
321.0763636363636
 20
175.7638352272704
 30
0.0
  0
SPLINE
  5
29B
330
1F
100
AcDbEntity
  8
0
  6
Continuous
 62
     7
370
    25
100
AcDbSpline
210
0.0
220
0.0
230
1.0
 70
     8
 71
     3
 72
    15
 73
    11
 74
     0
 42
0.000000001
 43
0.00000001
 40
0.0
 40
0.0
 40
0.0
 40
0.0
 40
0.1284641182900637
 40
0.2521184410080552
 40
0.3734764128786716
 40
0.4930039365319285
 40
0.6137088487223177
 40
0.7372765388034542
 40
0.8655035905742522
 40
1.0
 40
1.0
 40
1.0
 40
1.0
 10
322.4627272727273
 20
174.0145454545431
 30
0.0
 10
322.410539125461
 20
174.016125273401
 30
0.0
 10
322.3081167953737
 20
174.0192257614815
 30
0.0
 10
322.1581872584837
 20
174.0454046467937
 30
0.0
 10
322.016368624021
 20
174.0888945096992
 30
0.0
 10
321.8818955949245
 20
174.1488720695968
 30
0.0
 10
321.7561351101491
 20
174.2272165353216
 30
0.0
 10
321.6384046646795
 20
174.3226357651812
 30
0.0
 10
321.5279553505375
 20
174.434660002871
 30
0.0
 10
321.4636744577936
 20
174.5199093250035
 30
0.0
 10
321.4307670454546
 20
174.5635511363612
 30
0.0
  0
SPLINE
  5
29C
330
1F
100
AcDbEntity
  8
0
  6
Continuous
 62
     7
370
    25
100
AcDbSpline
210
0.0
220
0.0
230
1.0
 70
     8
 71
     3
 72
    15
 73
    11
 74
     0
 42
0.000000001
 43
0.00000001
 40
0.0
 40
0.0
 40
0.0
 40
0.0
 40
0.1337649070426899
 40
0.26145941127049
 40
0.3854851197582203
 40
0.5058365689440556
 40
0.6259462731828839
 40
0.746912843418863
 40
0.8709845759429888
 40
1.0
 40
1.0
 40
1.0
 40
1.0
 10
317.674375
 20
174.5493465909067
 30
0.0
 10
317.6411544743692
 20
174.5069333408454
 30
0.0
 10
317.5762210081442
 20
174.4240316019942
 30
0.0
 10
317.4657775514282
 20
174.3144208079582
 30
0.0
 10
317.3476943758754
 20
174.2218590394583
 30
0.0
 10
317.2221817265305
 20
174.1451237016423
 30
0.0
 10
317.0883699886704
 20
174.0870051684909
 30
0.0
 10
316.9473233130394
 20
174.0446817916064
 30
0.0
 10
316.7983877307215
 20
174.0193936613747
 30
0.0
 10
316.6964896902153
 20
174.0161824323914
 30
0.0
 10
316.6445454545454
 20
174.0145454545431
 30
0.0
  0
SPLINE
  5
29D
330
1F
100
AcDbEntity
  8
0
  6
Continuous
 62
     7
370
    25
100
AcDbSpline
210
0.0
220
0.0
230
1.0
 70
     8
 71
     3
 72
    15
 73
    11
 74
     0
 42
0.000000001
 43
0.00000001
 40
0.0
 40
0.0
 40
0.0
 40
0.0
 40
0.1416907485135365
 40
0.2774612942222751
 40
0.4074958162297562
 40
0.5327187817376454
 40
0.6537263486818027
 40
0.7710596611015762
 40
0.8863102006438581
 40
1.0
 40
1.0
 40
1.0
 40
1.0
 10
318.0309090909091
 20
175.806448863634
 30
0.0
 10
318.0297663090861
 20
175.7436830758167
 30
0.0
 10
318.0275284937951
 20
175.620774015745
 30
0.0
 10
318.0115509362059
 20
175.4407533400941
 30
0.0
 10
317.982495147266
 20
175.2698786224364
 30
0.0
 10
317.9451376991416
 20
175.1072759806723
 30
0.0
 10
317.8942637744776
 20
174.9542181971259
 30
0.0
 10
317.8330150228804
 20
174.8099316655731
 30
0.0
 10
317.7611627394048
 20
174.6740028788427
 30
0.0
 10
317.7031724686925
 20
174.5907094098231
 30
0.0
 10
317.674375
 20
174.5493465909067
 30
0.0
  0
SPLINE
  5
29E
330
1F
100
AcDbEntity
  8
0
  6
Continuous
 62
     7
370
    25
100
AcDbSpline
210
0.0
220
0.0
230
1.0
 70
     8
 71
     3
 72
    31
 73
    27
 74
     0
 42
0.000000001
 43
0.00000001
 40
0.0
 40
0.0
 40
0.0
 40
0.0
 40
0.0374926737782909
 40
0.0740510373152984
 40
0.1104132093353041
 40
0.1462905595615525
 40
0.182366737986501
 40
0.2186772744483308
 40
0.2550749034222165
 40
0.2922408739317058
 40
0.3296542289704664
 40
0.3675327509850848
 40
0.4056909293123588
 40
0.4445404480785448
 40
0.4840761393264901
 40
0.5247146563554208
 40
0.5664015424377792
 40
0.6096675591076345
 40
0.6539091399953285
 40
0.6991821398204043
 40
0.7455791418302294
 40
0.7934048941475278
 40
0.8424054055292818
 40
0.8933527573913606
 40
0.9457457808148021
 40
1.0
 40
1.0
 40
1.0
 40
1.0
 10
316.6466761363637
 20
177.6054545454521
 30
0.0
 10
316.6784286138976
 20
177.6047514606972
 30
0.0
 10
316.7411423033139
 20
177.6033628119246
 30
0.0
 10
316.8341451452778
 20
177.5929056169385
 30
0.0
 10
316.9249903761772
 20
177.5770998367777
 30
0.0
 10
317.0135986158983
 20
177.5530530057517
 30
0.0
 10
317.1004546086986
 20
177.5235124953602
 30
0.0
 10
317.1849118041313
 20
177.4864576888709
 30
0.0
 10
317.2670279228282
 20
177.4426015643764
 30
0.0
 10
317.3471374127045
 20
177.3933385191093
 30
0.0
 10
317.4240119843226
 20
177.3369700320225
 30
0.0
 10
317.4970523620651
 20
177.2744608244579
 30
0.0
 10
317.5663635964103
 20
177.2060673334883
 30
0.0
 10
317.6308405448985
 20
177.1312489606183
 30
0.0
 10
317.6915575546611
 20
177.0507167769362
 30
0.0
 10
317.7475027930768
 20
176.9639149632884
 30
0.0
 10
317.7994412344012
 20
176.8710602693033
 30
0.0
 10
317.847604696001
 20
176.7727753358626
 30
0.0
 10
317.8909538025296
 20
176.668973323097
 30
0.0
 10
317.9288408239
 20
176.5602085237586
 30
0.0
 10
317.9595440955497
 20
176.4460936556062
 30
0.0
 10
317.9862801607634
 20
176.3277472717952
 30
0.0
 10
318.0056299234842
 20
176.204064035188
 30
0.0
 10
318.0208576721205
 20
176.0759435656723
 30
0.0
 10
318.0292839584509
 20
175.9426897815081
 30
0.0
 10
318.0303611139572
 20
175.8523878161949
 30
0.0
 10
318.0309090909091
 20
175.806448863634
 30
0.0
  0
SPLINE
  5
29F
330
1F
100
AcDbEntity
  8
0
  6
Continuous
 62
     7
370
    25
100
AcDbSpline
210
0.0
220
0.0
230
1.0
 70
     8
 71
     3
 72
    23
 73
    19
 74
     0
 42
0.000000001
 43
0.00000001
 40
0.0
 40
0.0
 40
0.0
 40
0.0
 40
0.083191928033321
 40
0.162005375893768
 40
0.2362691051123545
 40
0.3066253171786706
 40
0.3736257302631202
 40
0.4377442844797703
 40
0.4997342717197014
 40
0.5601671328288006
 40
0.6188356570355561
 40
0.6750154308347248
 40
0.7296971697697442
 40
0.7830091722210547
 40
0.8359127345022747
 40
0.8894446742174583
 40
0.9439470604285805
 40
1.0
 40
1.0
 40
1.0
 40
1.0
 10
315.2581818181818
 20
175.7638352272704
 30
0.0
 10
315.2594180753749
 20
175.8356060313544
 30
0.0
 10
315.2618255242223
 20
175.9753702653216
 30
0.0
 10
315.2801767282849
 20
176.1785748307407
 30
0.0
 10
315.3113498729614
 20
176.3689297746718
 30
0.0
 10
315.3541637550094
 20
176.5466178262386
 30
0.0
 10
315.4104166972513
 20
176.7113194819182
 30
0.0
 10
315.4784363298944
 20
176.8636741713705
 30
0.0
 10
315.5596913342483
 20
177.0029723791459
 30
0.0
 10
315.6529938131468
 20
177.1286033847257
 30
0.0
 10
315.7547708196324
 20
177.2407972532469
 30
0.0
 10
315.8643289174954
 20
177.3380388947492
 30
0.0
 10
315.9793612453536
 20
177.4211964939712
 30
0.0
 10
316.101293724749
 20
177.4880778314426
 30
0.0
 10
316.2285564205488
 20
177.5418771389045
 30
0.0
 10
316.3629286240665
 20
177.5778856700323
 30
0.0
 10
316.5028183453836
 20
177.6019574839707
 30
0.0
 10
316.5982772646297
 20
177.6042780097294
 30
0.0
 10
316.6466761363637
 20
177.6054545454521
 30
0.0
  0
SPLINE
  5
2A0
330
1F
100
AcDbEntity
  8
0
  6
Continuous
 62
     7
370
    25
100
AcDbSpline
210
0.0
220
0.0
230
1.0
 70
     8
 71
     3
 72
    15
 73
    11
 74
     0
 42
0.000000001
 43
0.00000001
 40
0.0
 40
0.0
 40
0.0
 40
0.0
 40
0.1198666267285386
 40
0.2390237457231737
 40
0.3595530360203508
 40
0.4815592024525996
 40
0.6054681757402882
 40
0.7329681629362572
 40
0.8642495927208763
 40
1.0
 40
1.0
 40
1.0
 40
1.0
 10
315.6125852272727
 20
174.5635511363612
 30
0.0
 10
315.584118417798
 20
174.6056923544675
 30
0.0
 10
315.5273532979715
 20
174.6897253507735
 30
0.0
 10
315.4557443139416
 20
174.8246097935794
 30
0.0
 10
315.3943216251756
 20
174.9653020595531
 30
0.0
 10
315.3449621253148
 20
175.1128115828336
 30
0.0
 10
315.3054087991575
 20
175.2662806708062
 30
0.0
 10
315.2780862077078
 20
175.4263871678541
 30
0.0
 10
315.2614911262069
 20
175.5930285520361
 30
0.0
 10
315.2592971600782
 20
175.7062679535022
 30
0.0
 10
315.2581818181818
 20
175.7638352272704
 30
0.0
  0
SPLINE
  5
2A1
330
1F
100
AcDbEntity
  8
0
  6
Continuous
 62
     7
370
    25
100
AcDbSpline
210
0.0
220
0.0
230
1.0
 70
     8
 71
     3
 72
    15
 73
    11
 74
     0
 42
0.000000001
 43
0.00000001
 40
0.0
 40
0.0
 40
0.0
 40
0.0
 40
0.1284641182900692
 40
0.2521184410080607
 40
0.3734764128786769
 40
0.4930039365319311
 40
0.6137088487223201
 40
0.7372765388034543
 40
0.8655035905742541
 40
1.0
 40
1.0
 40
1.0
 40
1.0
 10
316.6445454545454
 20
174.0145454545431
 30
0.0
 10
316.5923573072792
 20
174.016125273401
 30
0.0
 10
316.4899349771919
 20
174.0192257614815
 30
0.0
 10
316.3400054403019
 20
174.0454046467937
 30
0.0
 10
316.1981868058392
 20
174.0888945096992
 30
0.0
 10
316.0637137767427
 20
174.1488720695969
 30
0.0
 10
315.9379532919673
 20
174.2272165353216
 30
0.0
 10
315.8202228464977
 20
174.3226357651812
 30
0.0
 10
315.7097735323557
 20
174.434660002871
 30
0.0
 10
315.6454926396118
 20
174.5199093250035
 30
0.0
 10
315.6125852272727
 20
174.5635511363612
 30
0.0
  0
LINE
  5
2A2
330
1F
100
AcDbEntity
  8
0
  6
Continuous
 62
     7
370
    25
100
AcDbLine
 10
314.6218181818
 20
177.56
 30
0.0
 11
314.9996590909
 21
177.56
 31
0.0
  0
LINE
  5
2A3
330
1F
100
AcDbEntity
  8
0
  6
Continuous
 62
     7
370
    25
100
AcDbLine
 10
313.8434090909
 20
175.0209375
 30
0.0
 11
314.6218181818
 21
177.56
 31
0.0
  0
SPLINE
  5
2A4
330
1F
100
AcDbEntity
  8
0
  6
Continuous
 62
     7
370
    25
100
AcDbSpline
210
0.0
220
0.0
230
1.0
 70
     8
 71
     3
 72
     9
 73
     5
 74
     0
 42
0.000000001
 43
0.00000001
 40
0.0
 40
0.0
 40
0.0
 40
0.0
 40
0.4899113765140223
 40
0.9999999999999999
 40
0.9999999999999999
 40
0.9999999999999999
 40
0.9999999999999999
 10
313.6899999999999
 20
174.4690909090885
 30
0.0
 10
313.7133629069862
 20
174.5596787286918
 30
0.0
 10
313.7610509340585
 20
174.7445852729078
 30
0.0
 10
313.8155895588582
 20
174.9275892521391
 30
0.0
 10
313.8434090909091
 20
175.0209374999976
 30
0.0
  0
SPLINE
  5
2A5
330
1F
100
AcDbEntity
  8
0
  6
Continuous
 62
     7
370
    25
100
AcDbSpline
210
0.0
220
0.0
230
1.0
 70
     8
 71
     3
 72
    11
 73
     7
 74
     0
 42
0.000000001
 43
0.00000001
 40
0.0
 40
0.0
 40
0.0
 40
0.0
 40
0.2646946039773267
 40
0.5196779431309924
 40
0.7652786362812265
 40
1.0
 40
1.0
 40
1.0
 40
1.0
 10
313.5493749999999
 20
175.0209374999976
 30
0.0
 10
313.5625169825946
 20
174.97243717504
 30
0.0
 10
313.5883187873192
 20
174.8772159323835
 30
0.0
 10
313.6242515386489
 20
174.7364502227943
 30
0.0
 10
313.6585901139782
 20
174.6011498791788
 30
0.0
 10
313.6796893376415
 20
174.5124408101693
 30
0.0
 10
313.6899999999999
 20
174.4690909090885
 30
0.0
  0
LINE
  5
2A6
330
1F
100
AcDbEntity
  8
0
  6
Continuous
 62
     7
370
    25
100
AcDbLine
 10
312.8490909091
 20
177.56
 30
0.0
 11
313.549375
 21
175.0209375
 31
0.0
  0
LINE
  5
2A7
330
1F
100
AcDbEntity
  8
0
  6
Continuous
 62
     7
370
    25
100
AcDbLine
 10
312.4748011364
 20
177.56
 30
0.0
 11
312.8490909091
 21
177.56
 31
0.0
  0
LINE
  5
2A8
330
1F
100
AcDbEntity
  8
0
  6
Continuous
 62
     7
370
    25
100
AcDbLine
 10
313.5216761364
 20
174.06
 30
0.0
 11
312.4748011364
 21
177.56
 31
0.0
  0
LINE
  5
2A9
330
1F
100
AcDbEntity
  8
0
  6
Continuous
 62
     7
370
    25
100
AcDbLine
 10
313.8973863636
 20
174.06
 30
0.0
 11
313.5216761364
 21
174.06
 31
0.0
  0
LINE
  5
2AA
330
1F
100
AcDbEntity
  8
0
  6
Continuous
 62
     7
370
    25
100
AcDbLine
 10
314.9996590909
 20
177.56
 30
0.0
 11
313.8973863636
 21
174.06
 31
0.0
  0
SPLINE
  5
2AB
330
1F
100
AcDbEntity
  8
0
  6
Continuous
 62
     7
370
    25
100
AcDbSpline
210
0.0
220
0.0
230
1.0
 70
     8
 71
     3
 72
    15
 73
    11
 74
     0
 42
0.000000001
 43
0.00000001
 40
0.0
 40
0.0
 40
0.0
 40
0.0
 40
0.1337850715093845
 40
0.2593853989987151
 40
0.3808217004101808
 40
0.4995309368699234
 40
0.618357574144123
 40
0.7398956903217191
 40
0.8662956414442505
 40
1.0
 40
1.0
 40
1.0
 40
1.0
 10
311.6275
 20
175.8696590909067
 30
0.0
 10
311.6700771097312
 20
175.8490652733889
 30
0.0
 10
311.7526265337532
 20
175.8091375332195
 30
0.0
 10
311.8626688270066
 20
175.7308725911252
 30
0.0
 10
311.9569167718541
 20
175.6419419411997
 30
0.0
 10
312.033608132437
 20
175.5403735123253
 30
0.0
 10
312.0941367551071
 20
175.4284048025277
 30
0.0
 10
312.1365350070284
 20
175.305593006796
 30
0.0
 10
312.1627734767218
 20
175.172853208255
 30
0.0
 10
312.1657451595541
 20
175.080959006314
 30
0.0
 10
312.1672727272727
 20
175.0337215909067
 30
0.0
  0
SPLINE
  5
2AC
330
1F
100
AcDbEntity
  8
0
  6
Continuous
 62
     7
370
    25
100
AcDbSpline
210
0.0
220
0.0
230
1.0
 70
     8
 71
     3
 72
    15
 73
    11
 74
     0
 42
0.000000001
 43
0.00000001
 40
0.0
 40
0.0
 40
0.0
 40
0.0
 40
0.1693237986142586
 40
0.3253554330118969
 40
0.4689155231524372
 40
0.600311546885104
 40
0.7188463901177572
 40
0.8249851745593388
 40
0.9187577878191818
 40
1.0
 40
1.0
 40
1.0
 40
1.0
 10
311.0195454545454
 20
176.0500568181794
 30
0.0
 10
311.0543766165092
 20
176.0416538348554
 30
0.0
 10
311.1213046436133
 20
176.0255075146077
 30
0.0
 10
311.2172847221605
 20
176.0003252034818
 30
0.0
 10
311.3054595543736
 20
175.9770484298359
 30
0.0
 10
311.3856981736325
 20
175.9547558201008
 30
0.0
 10
311.4574434264635
 20
175.9316901062052
 30
0.0
 10
311.5213289529101
 20
175.9103055645693
 30
0.0
 10
311.5777180445734
 20
175.8912091728413
 30
0.0
 10
311.6117174239463
 20
175.8764912011399
 30
0.0
 10
311.6275
 20
175.8696590909067
 30
0.0
  0
SPLINE
  5
2AD
330
1F
100
AcDbEntity
  8
0
  6
Continuous
 62
     7
370
    25
100
AcDbSpline
210
0.0
220
0.0
230
1.0
 70
     8
 71
     3
 72
    15
 73
    11
 74
     0
 42
0.000000001
 43
0.00000001
 40
0.0
 40
0.0
 40
0.0
 40
0.0
 40
0.0750156946076107
 40
0.1629301842777534
 40
0.2646744147797512
 40
0.3809699752964674
 40
0.5123091530377066
 40
0.658221012586962
 40
0.8208323791787843
 40
1.0
 40
1.0
 40
1.0
 40
1.0
 10
310.4634375
 20
176.283011363634
 30
0.0
 10
310.4742562289327
 20
176.2722231176883
 30
0.0
 10
310.4977539450824
 20
176.2487916089999
 30
0.0
 10
310.5430097425329
 20
176.2192703793925
 30
0.0
 10
310.5968796847157
 20
176.1882130715631
 30
0.0
 10
310.6621628129968
 20
176.160045166616
 30
0.0
 10
310.7364798799346
 20
176.1305103272903
 30
0.0
 10
310.8217072722514
 20
176.1034325227035
 30
0.0
 10
310.9167640485439
 20
176.0754159506674
 30
0.0
 10
310.9841961506305
 20
176.0587785093512
 30
0.0
 10
311.0195454545454
 20
176.0500568181794
 30
0.0
  0
SPLINE
  5
2AE
330
1F
100
AcDbEntity
  8
0
  6
Continuous
 62
     7
370
    25
100
AcDbSpline
210
0.0
220
0.0
230
1.0
 70
     8
 71
     3
 72
    11
 73
     7
 74
     0
 42
0.000000001
 43
0.00000001
 40
0.0
 40
0.0
 40
0.0
 40
0.0
 40
0.2837744943495288
 40
0.5395840214497823
 40
0.7756449623277185
 40
1.0
 40
1.0
 40
1.0
 40
1.0
 10
310.3490909090909
 20
176.6381249999976
 30
0.0
 10
310.3502958145288
 20
176.6020134398659
 30
0.0
 10
310.3525868862588
 20
176.5333489854322
 30
0.0
 10
310.3740060467071
 20
176.4366203958809
 30
0.0
 10
310.4096582518102
 20
176.351836915507
 30
0.0
 10
310.4458175292831
 20
176.3055610319427
 30
0.0
 10
310.4634375
 20
176.283011363634
 30
0.0
  0
SPLINE
  5
2AF
330
1F
100
AcDbEntity
  8
0
  6
Continuous
 62
     7
370
    25
100
AcDbSpline
210
0.0
220
0.0
230
1.0
 70
     8
 71
     3
 72
    23
 73
    19
 74
     0
 42
0.000000001
 43
0.00000001
 40
0.0
 40
0.0
 40
0.0
 40
0.0
 40
0.0804235931284734
 40
0.1554478660209125
 40
0.2274865779056504
 40
0.2949489652405864
 40
0.3597986509905153
 40
0.4210200219417459
 40
0.4819019994984944
 40
0.5406082872412742
 40
0.5984821386513641
 40
0.655151536337546
 40
0.7102010032718219
 40
0.765597189572355
 40
0.8217224591483805
 40
0.8791641554936599
 40
0.9383687171181115
 40
1.0
 40
1.0
 40
1.0
 40
1.0
 10
311.0131534090909
 20
177.1963636363612
 30
0.0
 10
310.9868471074134
 20
177.1961383189506
 30
0.0
 10
310.9360006045454
 20
177.1957028110443
 30
0.0
 10
310.8620479601474
 20
177.1871120213446
 30
0.0
 10
310.7927985642262
 20
177.1757663891804
 30
0.0
 10
310.7281584279239
 20
177.1584891877864
 30
0.0
 10
310.6686845885121
 20
177.1366849331548
 30
0.0
 10
310.6135496288485
 20
177.110062104237
 30
0.0
 10
310.5635023409667
 20
177.0783760803994
 30
0.0
 10
310.5182717120006
 20
177.0418411679103
 30
0.0
 10
310.4786605741266
 20
177.0012160460329
 30
0.0
 10
310.4438137579244
 20
176.9580108426888
 30
0.0
 10
310.4140133078652
 20
176.9120585303766
 30
0.0
 10
310.3907868181922
 20
176.8626657907843
 30
0.0
 10
310.3722376525428
 20
176.81056707338
 30
0.0
 10
310.3586051701405
 20
176.7556573897346
 30
0.0
 10
310.3508410519851
 20
176.6977692528133
 30
0.0
 10
310.3496820487298
 20
176.6582708304832
 30
0.0
 10
310.3490909090909
 20
176.6381249999976
 30
0.0
  0
SPLINE
  5
2B0
330
1F
100
AcDbEntity
  8
0
  6
Continuous
 62
     7
370
    25
100
AcDbSpline
210
0.0
220
0.0
230
1.0
 70
     8
 71
     3
 72
    23
 73
    19
 74
     0
 42
0.000000001
 43
0.00000001
 40
0.0
 40
0.0
 40
0.0
 40
0.0
 40
0.0765728135290738
 40
0.1493228985313964
 40
0.217218674941607
 40
0.2820872493082827
 40
0.3432655771108243
 40
0.4022310899227216
 40
0.4584773865507824
 40
0.5141512058041717
 40
0.569072641564326
 40
0.6243527363272727
 40
0.6811913672928034
 40
0.7394041584491233
 40
0.7998297883091651
 40
0.8628307336450729
 40
0.9296455439554808
 40
1.0
 40
1.0
 40
1.0
 40
1.0
 10
311.7127272727272
 20
176.5145454545431
 30
0.0
 10
311.7100597164479
 20
176.5425341429412
 30
0.0
 10
311.7048577757425
 20
176.5971142463105
 30
0.0
 10
311.6904847413202
 20
176.6756304922271
 30
0.0
 10
311.6721141905495
 20
176.7488367207648
 30
0.0
 10
311.6490822144357
 20
176.8163326716169
 30
0.0
 10
311.6201411287409
 20
176.8778683751855
 30
0.0
 10
311.5879188172262
 20
176.9341437669957
 30
0.0
 10
311.5503869023222
 20
176.9845773509864
 30
0.0
 10
311.5085127264541
 20
177.0294459818368
 30
0.0
 10
311.4618366515852
 20
177.0687380082363
 30
0.0
 10
311.4109834603017
 20
177.103176293246
 30
0.0
 10
311.3555207876096
 20
177.1323464803696
 30
0.0
 10
311.2953500193465
 20
177.1555960982032
 30
0.0
 10
311.2312542678497
 20
177.1743034402852
 30
0.0
 10
311.1624535029248
 20
177.1867451288042
 30
0.0
 10
311.0893339979614
 20
177.1946937551768
 30
0.0
 10
311.038980065577
 20
177.1957975151437
 30
0.0
 10
311.0131534090909
 20
177.1963636363612
 30
0.0
  0
LINE
  5
2B1
330
1F
100
AcDbEntity
  8
0
  6
Continuous
 62
     7
370
    25
100
AcDbLine
 10
312.0763636364
 20
176.56
 30
0.0
 11
311.7127272727
 21
176.5145454545
 31
0.0
  0
SPLINE
  5
2B2
330
1F
100
AcDbEntity
  8
0
  6
Continuous
 62
     7
370
    25
100
AcDbSpline
210
0.0
220
0.0
230
1.0
 70
     8
 71
     3
 72
    19
 73
    15
 74
     0
 42
0.000000001
 43
0.00000001
 40
0.0
 40
0.0
 40
0.0
 40
0.0
 40
0.0919148450095059
 40
0.179350013698549
 40
0.2627602509497611
 40
0.3438245629315462
 40
0.4230536694981486
 40
0.5001537638566693
 40
0.5774020559630038
 40
0.6564709802344395
 40
0.7376500484536368
 40
0.8208783262149119
 40
0.9079232481193391
 40
1.0
 40
1.0
 40
1.0
 40
1.0
 10
311.0010795454545
 20
177.6054545454521
 30
0.0
 10
311.0527768170416
 20
177.6040112795683
 30
0.0
 10
311.1536517776245
 20
177.6011950886035
 30
0.0
 10
311.2999776386166
 20
177.5776421557608
 30
0.0
 10
311.4362451434016
 20
177.5377405745919
 30
0.0
 10
311.5619362614378
 20
177.4822168237011
 30
0.0
 10
311.6760696564492
 20
177.4121219100336
 30
0.0
 10
311.7766877354348
 20
177.3270307449838
 30
0.0
 10
311.8644677465896
 20
177.2288463798892
 30
0.0
 10
311.9374923192906
 20
177.1165123895903
 30
0.0
 10
311.9965956950098
 20
176.992597132743
 30
0.0
 10
312.0398745135101
 20
176.8576489489482
 30
0.0
 10
312.0680896661913
 20
176.7123924160652
 30
0.0
 10
312.0735544744123
 20
176.6117399710107
 30
0.0
 10
312.0763636363636
 20
176.5599999999976
 30
0.0
  0
SPLINE
  5
2B3
330
1F
100
AcDbEntity
  8
0
  6
Continuous
 62
     7
370
    25
100
AcDbSpline
210
0.0
220
0.0
230
1.0
 70
     8
 71
     3
 72
    23
 73
    19
 74
     0
 42
0.000000001
 43
0.00000001
 40
0.0
 40
0.0
 40
0.0
 40
0.0
 40
0.0655342124430493
 40
0.128827055929716
 40
0.1899548512024734
 40
0.2496480368191134
 40
0.3082483091336509
 40
0.3667963607881986
 40
0.4255009350642036
 40
0.4858920521208365
 40
0.5466819835686081
 40
0.6066869295489958
 40
0.6675221296550201
 40
0.729425613680581
 40
0.7931375186351546
 40
0.8590270504025664
 40
0.9276974320877978
 40
1.0
 40
1.0
 40
1.0
 40
1.0
 10
309.9854545454546
 20
176.6466477272703
 30
0.0
 10
309.9862383907144
 20
176.6810183281677
 30
0.0
 10
309.9877792725433
 20
176.7485840035467
 30
0.0
 10
310.0009334656037
 20
176.8474750799752
 30
0.0
 10
310.0217838060325
 20
176.9418960708698
 30
0.0
 10
310.0528966518717
 20
177.0308385004791
 30
0.0
 10
310.0909617982705
 20
177.1155690880089
 30
0.0
 10
310.1391675476908
 20
177.1943871603579
 30
0.0
 10
310.1949095156143
 20
177.2691815271727
 30
0.0
 10
310.259445867813
 20
177.3381744341338
 30
0.0
 10
310.3305274465918
 20
177.401448161902
 30
0.0
 10
310.4089673986745
 20
177.4558322407029
 30
0.0
 10
310.4931098940822
 20
177.5019173686888
 30
0.0
 10
310.5829725212305
 20
177.5408551427604
 30
0.0
 10
310.6793814441714
 20
177.5696473794739
 30
0.0
 10
310.7814202256976
 20
177.5899140872649
 30
0.0
 10
310.8892251138122
 20
177.6032319977384
 30
0.0
 10
310.9631597563736
 20
177.6047010791899
 30
0.0
 10
311.0010795454545
 20
177.6054545454521
 30
0.0
  0
SPLINE
  5
2B4
330
1F
100
AcDbEntity
  8
0
  6
Continuous
 62
     7
370
    25
100
AcDbSpline
210
0.0
220
0.0
230
1.0
 70
     8
 71
     3
 72
    23
 73
    19
 74
     0
 42
0.000000001
 43
0.00000001
 40
0.0
 40
0.0
 40
0.0
 40
0.0
 40
0.0696134502891531
 40
0.1341558467413842
 40
0.1941216639751319
 40
0.2492702399547629
 40
0.30039752381687
 40
0.3464602541181255
 40
0.3882517207597332
 40
0.4259028191906369
 40
0.4961060560373051
 40
0.5655345875935792
 40
0.634846250070749
 40
0.7047585289073908
 40
0.7756659742820955
 40
0.84772538157848
 40
0.9224175839219326
 40
1.0
 40
1.0
 40
1.0
 40
1.0
 10
310.9293465909091
 20
175.6849999999976
 30
0.0
 10
310.8963883376328
 20
175.694299176758
 30
0.0
 10
310.8328727044178
 20
175.7122201234588
 30
0.0
 10
310.7417895863331
 20
175.7409006111718
 30
0.0
 10
310.6578891350438
 20
175.7687402606331
 30
0.0
 10
310.5816885089716
 20
175.7984420938141
 30
0.0
 10
310.5122307152052
 20
175.8266501736629
 30
0.0
 10
310.4508831324047
 20
175.8569216731975
 30
0.0
 10
310.3967062731759
 20
175.8865624415479
 30
0.0
 10
310.33440040177
 20
175.9258845880377
 30
0.0
 10
310.2663472692989
 20
175.9808803133677
 30
0.0
 10
310.1942203813983
 20
176.0543675140246
 30
0.0
 10
310.1312128846975
 20
176.1357398211362
 30
0.0
 10
310.0786444274924
 20
176.2249901249859
 30
0.0
 10
310.0360089545186
 20
176.3210225471469
 30
0.0
 10
310.0077770487519
 20
176.4245385533013
 30
0.0
 10
309.9880863734883
 20
176.5334477247793
 30
0.0
 10
309.9863428523015
 20
176.6084399355775
 30
0.0
 10
309.9854545454546
 20
176.6466477272703
 30
0.0
  0
SPLINE
  5
2B5
330
1F
100
AcDbEntity
  8
0
  6
Continuous
 62
     7
370
    25
100
AcDbSpline
210
0.0
220
0.0
230
1.0
 70
     8
 71
     3
 72
    23
 73
    19
 74
     0
 42
0.000000001
 43
0.00000001
 40
0.0
 40
0.0
 40
0.0
 40
0.0
 40
0.062827491381357
 40
0.1223726895779756
 40
0.1803837658619566
 40
0.2364891989894662
 40
0.2926289502320332
 40
0.3503980605968365
 40
0.4101926792197928
 40
0.4734229773823758
 40
0.5102124852509649
 40
0.5552799601987763
 40
0.6084730122619796
 40
0.6698570376582506
 40
0.7400379641843842
 40
0.8179174674906484
 40
0.9048122599055278
 40
1.0
 40
1.0
 40
1.0
 40
1.0
 10
311.8036363636363
 20
175.0230681818158
 30
0.0
 10
311.8028546326004
 20
175.0482163606965
 30
0.0
 10
311.80133201046
 20
175.0971989035287
 30
0.0
 10
311.7883719811125
 20
175.16850449773
 30
0.0
 10
311.7662744953764
 20
175.2345839531371
 30
0.0
 10
311.7361918922035
 20
175.2959431118086
 30
0.0
 10
311.697339534654
 20
175.3520892232477
 30
0.0
 10
311.6493581013716
 20
175.4027475502559
 30
0.0
 10
311.5923435915044
 20
175.4475269382718
 30
0.0
 10
311.5379407980766
 20
175.4814869120762
 30
0.0
 10
311.4853868068685
 20
175.5062219828775
 30
0.0
 10
311.4357348738578
 20
175.5275433068775
 30
0.0
 10
311.3759381568364
 20
175.550033766114
 30
0.0
 10
311.3060935407515
 20
175.5742406221362
 30
0.0
 10
311.2261789100527
 20
175.5994589478936
 30
0.0
 10
311.1361502262876
 20
175.6264795514556
 30
0.0
 10
311.0363221693086
 20
175.6556566751504
 30
0.0
 10
310.9660716370437
 20
175.6749263460396
 30
0.0
 10
310.9293465909091
 20
175.6849999999976
 30
0.0
  0
SPLINE
  5
2B6
330
1F
100
AcDbEntity
  8
0
  6
Continuous
 62
     7
370
    25
100
AcDbSpline
210
0.0
220
0.0
230
1.0
 70
     8
 71
     3
 72
    23
 73
    19
 74
     0
 42
0.000000001
 43
0.00000001
 40
0.0
 40
0.0
 40
0.0
 40
0.0
 40
0.0781252968918888
 40
0.1518301493922329
 40
0.2221520613979003
 40
0.2890233266244048
 40
0.3525976224640652
 40
0.4148420026739674
 40
0.474934890029544
 40
0.5348433958080099
 40
0.5934135167521
 40
0.65078694544389
 40
0.7072859995271762
 40
0.7634577572775807
 40
0.8197238077213124
 40
0.8778515259498443
 40
0.937478525171102
 40
1.0
 40
1.0
 40
1.0
 40
1.0
 10
311.09625
 20
174.423636363634
 30
0.0
 10
311.1234978846358
 20
174.4241900888673
 30
0.0
 10
311.1764519284535
 20
174.4252662087445
 30
0.0
 10
311.2535591438088
 20
174.4333601648959
 30
0.0
 10
311.3261861920129
 20
174.4455527600943
 30
0.0
 10
311.3936501127397
 20
174.4645208788246
 30
0.0
 10
311.4572050680935
 20
174.4867021190271
 30
0.0
 10
311.5150619019023
 20
174.5162740214917
 30
0.0
 10
311.5692034849894
 20
174.5496945470585
 30
0.0
 10
311.6180573946873
 20
174.5886049128085
 30
0.0
 10
311.6611358224173
 20
174.6323388899116
 30
0.0
 10
311.7001834379621
 20
174.6782375999133
 30
0.0
 10
311.7319321099304
 20
174.7284853952257
 30
0.0
 10
311.758703528519
 20
174.7811010494813
 30
0.0
 10
311.7783360279201
 20
174.8373798669778
 30
0.0
 10
311.7935635377944
 20
174.8962011909884
 30
0.0
 10
311.8020528294921
 20
174.958664180105
 30
0.0
 10
311.8031002456012
 20
175.0012636965908
 30
0.0
 10
311.8036363636363
 20
175.0230681818158
 30
0.0
  0
SPLINE
  5
2B7
330
1F
100
AcDbEntity
  8
0
  6
Continuous
 62
     7
370
    25
100
AcDbSpline
210
0.0
220
0.0
230
1.0
 70
     8
 71
     3
 72
    19
 73
    15
 74
     0
 42
0.000000001
 43
0.00000001
 40
0.0
 40
0.0
 40
0.0
 40
0.0
 40
0.1067133849811987
 40
0.2023827530813228
 40
0.2879881362754622
 40
0.3651321209973969
 40
0.4381553218526794
 40
0.5114419818683934
 40
0.5870934926508667
 40
0.6659855935524687
 40
0.7468394073744399
 40
0.8288800136248051
 40
0.9125295864996436
 40
1.0
 40
1.0
 40
1.0
 40
1.0
 10
310.2581818181818
 20
175.2418181818158
 30
0.0
 10
310.2634765758427
 20
175.1955243317447
 30
0.0
 10
310.273518124356
 20
175.107727690023
 30
0.0
 10
310.301020241332
 20
174.9847760619319
 30
0.0
 10
310.3378044093797
 20
174.8779563690476
 30
0.0
 10
310.3832488463161
 20
174.7851166437035
 30
0.0
 10
310.4414853798907
 20
174.7064199814886
 30
0.0
 10
310.5080065128609
 20
174.6356454850112
 30
0.0
 10
310.5863588620391
 20
174.573900786794
 30
0.0
 10
310.6740668498122
 20
174.5199972885569
 30
0.0
 10
310.7706036343559
 20
174.4764927798365
 30
0.0
 10
310.8741764128563
 20
174.4464323953588
 30
0.0
 10
310.9833231401978
 20
174.4271928052234
 30
0.0
 10
311.058051524237
 20
174.4248393604063
 30
0.0
 10
311.09625
 20
174.423636363634
 30
0.0
  0
LINE
  5
2B8
330
1F
100
AcDbEntity
  8
0
  6
Continuous
 62
     7
370
    25
100
AcDbLine
 10
309.8945454545
 20
175.1963636364
 30
0.0
 11
310.2581818182
 21
175.2418181818
 31
0.0
  0
SPLINE
  5
2B9
330
1F
100
AcDbEntity
  8
0
  6
Continuous
 62
     7
370
    25
100
AcDbSpline
210
0.0
220
0.0
230
1.0
 70
     8
 71
     3
 72
    23
 73
    19
 74
     0
 42
0.000000001
 43
0.00000001
 40
0.0
 40
0.0
 40
0.0
 40
0.0
 40
0.0690622114285177
 40
0.1347658792836456
 40
0.1976107057024341
 40
0.2585282108425832
 40
0.3181274252810133
 40
0.3770582660618964
 40
0.4356857915191244
 40
0.4947336263914071
 40
0.5540911070636498
 40
0.6133334186580057
 40
0.6729241889746487
 40
0.7340655047106271
 40
0.7962987887860598
 40
0.861240891684605
 40
0.9289703310657805
 40
1.0
 40
1.0
 40
1.0
 40
1.0
 10
311.065
 20
174.0145454545431
 30
0.0
 10
311.0218678115767
 20
174.0154498922989
 30
0.0
 10
310.9377009831758
 20
174.017214784371
 30
0.0
 10
310.8150398821531
 20
174.0324118698782
 30
0.0
 10
310.6992070638632
 20
174.0571383816954
 30
0.0
 10
310.589944532401
 20
174.0919846392885
 30
0.0
 10
310.4870877252811
 20
174.1369018612965
 30
0.0
 10
310.390749308108
 20
174.1916862116882
 30
0.0
 10
310.3014074524178
 20
174.2567184610171
 30
0.0
 10
310.2197656328723
 20
174.3315429273704
 30
0.0
 10
310.1459337777589
 20
174.414561764754
 30
0.0
 10
310.0808762129583
 20
174.5050817657914
 30
0.0
 10
310.0258451052256
 20
174.603320610534
 30
0.0
 10
309.9807790773945
 20
174.7084772168186
 30
0.0
 10
309.9441252424393
 20
174.8203631012385
 30
0.0
 10
309.9173222922587
 20
174.9392305126883
 30
0.0
 10
309.9001891345249
 20
175.0654511300337
 30
0.0
 10
309.8964562751611
 20
175.1520396639081
 30
0.0
 10
309.8945454545454
 20
175.1963636363613
 30
0.0
  0
SPLINE
  5
2BA
330
1F
100
AcDbEntity
  8
0
  6
Continuous
 62
     7
370
    25
100
AcDbSpline
210
0.0
220
0.0
230
1.0
 70
     8
 71
     3
 72
    19
 73
    15
 74
     0
 42
0.000000001
 43
0.00000001
 40
0.0
 40
0.0
 40
0.0
 40
0.0
 40
0.0842734715608913
 40
0.1665166244253412
 40
0.2473877598069612
 40
0.3288365457123087
 40
0.4090983268496177
 40
0.4877267016055311
 40
0.5657077880693233
 40
0.6449848608508586
 40
0.7265584459444157
 40
0.8120697979385844
 40
0.9027287756276017
 40
1.0
 40
1.0
 40
1.0
 40
1.0
 10
312.1672727272727
 20
175.0337215909067
 30
0.0
 10
312.1657280253012
 20
174.9862494078862
 30
0.0
 10
312.1626758363588
 20
174.8924487429289
 30
0.0
 10
312.1355859526006
 20
174.7552449459971
 30
0.0
 10
312.0913238594918
 20
174.6244939364414
 30
0.0
 10
312.0294131950877
 20
174.5023182183162
 30
0.0
 10
311.9536479840464
 20
174.3898339969943
 30
0.0
 10
311.8644887915438
 20
174.290052187098
 30
0.0
 10
311.7615377978405
 20
174.205413204579
 30
0.0
 10
311.6462401611901
 20
174.1355242610641
 30
0.0
 10
311.5185876704928
 20
174.0800708983726
 30
0.0
 10
311.3780314430827
 20
174.0427038235198
 30
0.0
 10
311.2256359358013
 20
174.0185119130418
 30
0.0
 10
311.1197867321316
 20
174.0158982608015
 30
0.0
 10
311.065
 20
174.0145454545431
 30
0.0
  0
LINE
  5
2BB
330
1F
100
AcDbEntity
  8
0
  6
Continuous
 62
     7
370
    25
100
AcDbLine
 10
307.7780681818
 20
174.06
 30
0.0
 11
306.3036363636
 21
176.8462215909
 31
0.0
  0
LINE
  5
2BC
330
1F
100
AcDbEntity
  8
0
  6
Continuous
 62
     7
370
    25
100
AcDbLine
 10
308.1672727273
 20
174.06
 30
0.0
 11
307.7780681818
 21
174.06
 31
0.0
  0
LINE
  5
2BD
330
1F
100
AcDbEntity
  8
0
  6
Continuous
 62
     7
370
    25
100
AcDbLine
 10
308.1672727273
 20
177.56
 30
0.0
 11
308.1672727273
 21
174.06
 31
0.0
  0
LINE
  5
2BE
330
1F
100
AcDbEntity
  8
0
  6
Continuous
 62
     7
370
    25
100
AcDbLine
 10
307.8036363636
 20
177.56
 30
0.0
 11
308.1672727273
 21
177.56
 31
0.0
  0
LINE
  5
2BF
330
1F
100
AcDbEntity
  8
0
  6
Continuous
 62
     7
370
    25
100
AcDbLine
 10
307.8036363636
 20
174.7702272727
 30
0.0
 11
307.8036363636
 21
177.56
 31
0.0
  0
LINE
  5
2C0
330
1F
100
AcDbEntity
  8
0
  6
Continuous
 62
     7
370
    25
100
AcDbLine
 10
306.3270738636
 20
177.56
 30
0.0
 11
307.8036363636
 21
174.7702272727
 31
0.0
  0
LINE
  5
2C1
330
1F
100
AcDbEntity
  8
0
  6
Continuous
 62
     7
370
    25
100
AcDbLine
 10
305.94
 20
177.56
 30
0.0
 11
306.3270738636
 21
177.56
 31
0.0
  0
LINE
  5
2C2
330
1F
100
AcDbEntity
  8
0
  6
Continuous
 62
     7
370
    25
100
AcDbLine
 10
305.94
 20
174.06
 30
0.0
 11
305.94
 21
177.56
 31
0.0
  0
LINE
  5
2C3
330
1F
100
AcDbEntity
  8
0
  6
Continuous
 62
     7
370
    25
100
AcDbLine
 10
306.3036363636
 20
174.06
 30
0.0
 11
305.94
 21
174.06
 31
0.0
  0
LINE
  5
2C4
330
1F
100
AcDbEntity
  8
0
  6
Continuous
 62
     7
370
    25
100
AcDbLine
 10
306.3036363636
 20
176.8462215909
 30
0.0
 11
306.3036363636
 21
174.06
 31
0.0
  0
SPLINE
  5
2C5
330
1F
100
AcDbEntity
  8
0
  6
Continuous
 62
     7
370
    25
100
AcDbSpline
210
0.0
220
0.0
230
1.0
 70
     8
 71
     3
 72
    15
 73
    11
 74
     0
 42
0.000000001
 43
0.00000001
 40
0.0
 40
0.0
 40
0.0
 40
0.0
 40
0.1510739700527817
 40
0.2949499051911151
 40
0.4307193228074222
 40
0.5599595334307874
 40
0.6813573798428302
 40
0.7944179911337563
 40
0.9012434198188539
 40
1.0
 40
1.0
 40
1.0
 40
1.0
 10
304.4343181818182
 20
176.4761931818158
 30
0.0
 10
304.4233714323839
 20
176.5121612333488
 30
0.0
 10
304.4019994997693
 20
176.5823836110745
 30
0.0
 10
304.371734894314
 20
176.6852107844467
 30
0.0
 10
304.34268775007
 20
176.7827404363422
 30
0.0
 10
304.3178758920334
 20
176.8756528882221
 30
0.0
 10
304.2932034591187
 20
176.9627392579724
 30
0.0
 10
304.2719251647972
 20
177.0449686739679
 30
0.0
 10
304.2528243498238
 20
177.1219330391862
 30
0.0
 10
304.2410909732348
 20
177.1717314620097
 30
0.0
 10
304.2354545454546
 20
177.1956534090885
 30
0.0
  0
LINE
  5
2C6
330
1F
100
AcDbEntity
  8
0
  6
Continuous
 62
     7
370
    25
100
AcDbLine
 10
304.7269318182
 20
175.5145454545
 30
0.0
 11
304.4343181818
 21
176.4761931818
 31
0.0
  0
LINE
  5
2C7
330
1F
100
AcDbEntity
  8
0
  6
Continuous
 62
     7
370
    25
100
AcDbLine
 10
303.7432670455
 20
175.5145454545
 30
0.0
 11
304.7269318182
 21
175.5145454545
 31
0.0
  0
LINE
  5
2C8
330
1F
100
AcDbEntity
  8
0
  6
Continuous
 62
     7
370
    25
100
AcDbLine
 10
304.0728125
 20
176.5330113636
 30
0.0
 11
303.7432670455
 21
175.5145454545
 31
0.0
  0
SPLINE
  5
2C9
330
1F
100
AcDbEntity
  8
0
  6
Continuous
 62
     7
370
    25
100
AcDbSpline
210
0.0
220
0.0
230
1.0
 70
     8
 71
     3
 72
    11
 73
     7
 74
     0
 42
0.000000001
 43
0.00000001
 40
0.0
 40
0.0
 40
0.0
 40
0.0
 40
0.2488751571872421
 40
0.497419710300233
 40
0.7479413436558451
 40
1.0
 40
1.0
 40
1.0
 40
1.0
 10
304.2354545454546
 20
177.1956534090885
 30
0.0
 10
304.2252219963891
 20
177.139932680968
 30
0.0
 10
304.2047704911073
 20
177.0285652437651
 30
0.0
 10
304.1664349503754
 20
176.8626628034084
 30
0.0
 10
304.1237854982281
 20
176.6970597399771
 30
0.0
 10
304.0898381061002
 20
176.5878055318031
 30
0.0
 10
304.0728125
 20
176.533011363634
 30
0.0
  0
SPLINE
  5
2CA
330
1F
100
AcDbEntity
  8
0
  6
Continuous
 62
     7
370
    25
100
AcDbSpline
210
0.0
220
0.0
230
1.0
 70
     8
 71
     3
 72
    23
 73
    19
 74
     0
 42
0.000000001
 43
0.00000001
 40
0.0
 40
0.0
 40
0.0
 40
0.0
 40
0.0549231502919699
 40
0.1086030052064189
 40
0.1610368556519761
 40
0.2129852978324811
 40
0.2656874514313834
 40
0.3191576965915254
 40
0.3745727672960886
 40
0.4325440293275171
 40
0.4924378488244366
 40
0.5542084725852027
 40
0.6185456342266044
 40
0.6863015999283232
 40
0.757779207571292
 40
0.8336420180410762
 40
0.9144133612381076
 40
1.0
 40
1.0
 40
1.0
 40
1.0
 10
322.4598863636364
 20
174.423636363634
 30
0.0
 10
322.4954585138188
 20
174.4247684960137
 30
0.0
 10
322.5657975674043
 20
174.4270071326919
 30
0.0
 10
322.6690392553041
 20
174.4435767907821
 30
0.0
 10
322.7678437646987
 20
174.4711815333826
 30
0.0
 10
322.8616689707505
 20
174.5110561903157
 30
0.0
 10
322.9514270644918
 20
174.560697593949
 30
0.0
 10
323.036680528225
 20
174.6217686751007
 30
0.0
 10
323.1171252297169
 20
174.6941493246443
 30
0.0
 10
323.1931366777874
 20
174.7769461025571
 30
0.0
 10
323.2619622835268
 20
174.870983018586
 30
0.0
 10
323.3228753312446
 20
174.9751591746394
 30
0.0
 10
323.3731433878136
 20
175.0904729978476
 30
0.0
 10
323.4138504814533
 20
175.2159775433283
 30
0.0
 10
323.4469767399248
 20
175.3514335567613
 30
0.0
 10
323.4686870570066
 20
175.4976549050394
 30
0.0
 10
323.4836233227968
 20
175.6539130034679
 30
0.0
 10
323.4848324714779
 20
175.7616661971391
 30
0.0
 10
323.4854545454545
 20
175.8171022727249
 30
0.0
  0
SPLINE
  5
2CB
330
1F
100
AcDbEntity
  8
0
  6
Continuous
 62
     7
370
    25
100
AcDbSpline
210
0.0
220
0.0
230
1.0
 70
     8
 71
     3
 72
    23
 73
    19
 74
     0
 42
0.000000001
 43
0.00000001
 40
0.0
 40
0.0
 40
0.0
 40
0.0
 40
0.0820167094769214
 40
0.1594134130609961
 40
0.2330069745226145
 40
0.3031891773589388
 40
0.3699716694339423
 40
0.4341909870753228
 40
0.496708954997672
 40
0.5582085812881024
 40
0.6180809696446102
 40
0.6750827924608133
 40
0.7301076280391948
 40
0.7838984160543077
 40
0.8370755298410715
 40
0.8904187639022302
 40
0.9443870054531993
 40
0.9999999999999999
 40
0.9999999999999999
 40
0.9999999999999999
 40
0.9999999999999999
 10
321.44
 20
175.7581534090885
 30
0.0
 10
321.441032454504
 20
175.706753038541
 30
0.0
 10
321.4430392052911
 20
175.6068476832319
 30
0.0
 10
321.4563216867335
 20
175.4612724513488
 30
0.0
 10
321.4796747015902
 20
175.3244923166743
 30
0.0
 10
321.5123511621057
 20
175.1965203811278
 30
0.0
 10
321.5530557956107
 20
175.0769818245839
 30
0.0
 10
321.6046734782498
 20
174.9669787636506
 30
0.0
 10
321.6651563568883
 20
174.8654657975571
 30
0.0
 10
321.7346820662962
 20
174.7732483275907
 30
0.0
 10
321.8111530894589
 20
174.6915023377962
 30
0.0
 10
321.8915502402577
 20
174.6194784667262
 30
0.0
 10
321.976880257475
 20
174.5598314537199
 30
0.0
 10
322.0651148877537
 20
174.5092608306642
 30
0.0
 10
322.158190082915
 20
174.470624135458
 30
0.0
 10
322.2553363148723
 20
174.4439017666516
 30
0.0
 10
322.3563098119031
 20
174.4268970339417
 30
0.0
 10
322.4250170937821
 20
174.4247340753357
 30
0.0
 10
322.4598863636364
 20
174.423636363634
 30
0.0
  0
SPLINE
  5
2CC
330
1F
100
AcDbEntity
  8
0
  6
Continuous
 62
     7
370
    25
100
AcDbSpline
210
0.0
220
0.0
230
1.0
 70
     8
 71
     3
 72
    23
 73
    19
 74
     0
 42
0.000000001
 43
0.00000001
 40
0.0
 40
0.0
 40
0.0
 40
0.0
 40
0.0549693010255955
 40
0.1083590609100887
 40
0.1601640429853775
 40
0.2113322971038444
 40
0.262853205233624
 40
0.3149821664487522
 40
0.3690071678834772
 40
0.4247807921276356
 40
0.4829618213623589
 40
0.5435867127152624
 40
0.607944796635504
 40
0.6759283484733849
 40
0.7490032351523546
 40
0.8271410002771977
 40
0.9105022622530016
 40
1.0
 40
1.0
 40
1.0
 40
1.0
 10
322.4676988636364
 20
177.1963636363612
 30
0.0
 10
322.4311830448186
 20
177.1952323690421
 30
0.0
 10
322.3592006880917
 20
177.1930023413346
 30
0.0
 10
322.2537950868027
 20
177.1765645473047
 30
0.0
 10
322.1535344455967
 20
177.1486567346676
 30
0.0
 10
322.0583384445802
 20
177.1098471455808
 30
0.0
 10
321.9675724896072
 20
177.0609960876145
 30
0.0
 10
321.8824605508751
 20
176.9995566610226
 30
0.0
 10
321.8021265835091
 20
176.9277623834811
 30
0.0
 10
321.7273368609483
 20
176.844752719462
 30
0.0
 10
321.6583320873668
 20
176.7511829455368
 30
0.0
 10
321.6006740071071
 20
176.6437443624657
 30
0.0
 10
321.5497933938805
 20
176.5259174858785
 30
0.0
 10
321.5099170825272
 20
176.3952268394131
 30
0.0
 10
321.4776532964669
 20
176.2531074395294
 30
0.0
 10
321.4569719772799
 20
176.0985777876901
 30
0.0
 10
321.4417036823311
 20
175.9324628127766
 30
0.0
 10
321.4405811770491
 20
175.8176155652678
 30
0.0
 10
321.44
 20
175.7581534090885
 30
0.0
  0
SPLINE
  5
2CD
330
1F
100
AcDbEntity
  8
0
  6
Continuous
 62
     7
370
    25
100
AcDbSpline
210
0.0
220
0.0
230
1.0
 70
     8
 71
     3
 72
    15
 73
    11
 74
     0
 42
0.000000001
 43
0.00000001
 40
0.0
 40
0.0
 40
0.0
 40
0.0
 40
0.12908935923948
 40
0.2551000161804353
 40
0.3798655055392184
 40
0.5068907155239877
 40
0.6325188027370865
 40
0.7548417051891563
 40
0.8765222138546879
 40
1.0
 40
1.0
 40
1.0
 40
1.0
 10
323.3334659090909
 20
176.6082954545431
 30
0.0
 10
323.3129748147792
 20
176.6514094406294
 30
0.0
 10
323.2724813262276
 20
176.7366091705918
 30
0.0
 10
323.1896923457808
 20
176.850619915651
 30
0.0
 10
323.0938572451827
 20
176.9524886185113
 30
0.0
 10
322.983212260543
 20
177.0379251139171
 30
0.0
 10
322.8638332062241
 20
177.1087810358509
 30
0.0
 10
322.7367703488698
 20
177.1598071954621
 30
0.0
 10
322.6038849073506
 20
177.1907311655944
 30
0.0
 10
322.5133155356075
 20
177.1944769924413
 30
0.0
 10
322.4676988636364
 20
177.1963636363612
 30
0.0
  0
SPLINE
  5
2CE
330
1F
100
AcDbEntity
  8
0
  6
Continuous
 62
     7
370
    25
100
AcDbSpline
210
0.0
220
0.0
230
1.0
 70
     8
 71
     3
 72
    15
 73
    11
 74
     0
 42
0.000000001
 43
0.00000001
 40
0.0
 40
0.0
 40
0.0
 40
0.0
 40
0.13483061287192
 40
0.265552276692804
 40
0.3942179015238053
 40
0.5192745831226593
 40
0.6422303607107088
 40
0.7628424106338261
 40
0.8821514059548563
 40
1.0
 40
1.0
 40
1.0
 40
1.0
 10
323.4854545454545
 20
175.8171022727249
 30
0.0
 10
323.4851074761702
 20
175.8535716752902
 30
0.0
 10
323.4844239145024
 20
175.925399079131
 30
0.0
 10
323.4771354173507
 20
176.0318371339315
 30
0.0
 10
323.4649167161551
 20
176.1351044818249
 30
0.0
 10
323.4491676192137
 20
176.2358263838712
 30
0.0
 10
323.4263469852491
 20
176.3329228743195
 30
0.0
 10
323.4015060268336
 20
176.4279048957581
 30
0.0
 10
323.3699957020605
 20
176.5194953310642
 30
0.0
 10
323.3455924154545
 20
176.5788171801016
 30
0.0
 10
323.3334659090909
 20
176.6082954545431
 30
0.0
  0
SPLINE
  5
2CF
330
1F
100
AcDbEntity
  8
0
  6
Continuous
 62
     7
370
    25
100
AcDbSpline
210
0.0
220
0.0
230
1.0
 70
     8
 71
     3
 72
    15
 73
    11
 74
     0
 42
0.000000001
 43
0.00000001
 40
0.0
 40
0.0
 40
0.0
 40
0.0
 40
0.0894057494543693
 40
0.1881253252222321
 40
0.2967013461921434
 40
0.4155414955740405
 40
0.5447946592898607
 40
0.6850249410151803
 40
0.8376109392146743
 40
1.0
 40
1.0
 40
1.0
 40
1.0
 10
325.7766477272727
 20
177.0813068181794
 30
0.0
 10
325.7627667598597
 20
177.0869935277913
 30
0.0
 10
325.7335587779917
 20
177.098959358867
 30
0.0
 10
325.6856743950893
 20
177.1127693210364
 30
0.0
 10
325.6323040877699
 20
177.1247307273083
 30
0.0
 10
325.5733061181159
 20
177.1348270675062
 30
0.0
 10
325.5084896053875
 20
177.1412581149308
 30
0.0
 10
325.4379768856509
 20
177.1474963115683
 30
0.0
 10
325.3616498612585
 20
177.1497101558275
 30
0.0
 10
325.3088439967576
 20
177.1505012388428
 30
0.0
 10
325.2816193181818
 20
177.1509090909067
 30
0.0
  0
SPLINE
  5
2D0
330
1F
100
AcDbEntity
  8
0
  6
Continuous
 62
     7
370
    25
100
AcDbSpline
210
0.0
220
0.0
230
1.0
 70
     8
 71
     3
 72
    23
 73
    19
 74
     0
 42
0.000000001
 43
0.00000001
 40
0.0
 40
0.0
 40
0.0
 40
0.0
 40
0.0910576925841968
 40
0.177271661161427
 40
0.2587565480870236
 40
0.3352398500869442
 40
0.4078328982379346
 40
0.475903583730933
 40
0.5405672899847742
 40
0.6013885147851541
 40
0.6592481696579668
 40
0.7139410164568255
 40
0.7659927171453379
 40
0.8161259581187276
 40
0.8639755313063062
 40
0.9102873125800777
 40
0.9552760909847243
 40
1.0
 40
1.0
 40
1.0
 40
1.0
 10
326.3036363636364
 20
175.8341477272703
 30
0.0
 10
326.3033260432433
 20
175.8774841565372
 30
0.0
 10
326.3027219096438
 20
175.9618517765253
 30
0.0
 10
326.2952029923167
 20
176.0847913630893
 30
0.0
 10
326.2844595684983
 20
176.2005331941243
 30
0.0
 10
326.2677344871561
 20
176.3090055221292
 30
0.0
 10
326.2478445825643
 20
176.4104721060137
 30
0.0
 10
326.2217896076174
 20
176.5047027315728
 30
0.0
 10
326.1926956782439
 20
176.5921804680678
 30
0.0
 10
326.1573901469239
 20
176.6720919136386
 30
0.0
 10
326.1189387030608
 20
176.7451178408752
 30
0.0
 10
326.0786715820246
 20
176.8123903754642
 30
0.0
 10
326.0349672712107
 20
176.8729845843274
 30
0.0
 10
325.9893056694391
 20
176.9280193373819
 30
0.0
 10
325.939622575281
 20
176.9755522726761
 30
0.0
 10
325.8887719671751
 20
177.0180948933027
 30
0.0
 10
325.8341689146899
 20
177.0532371200734
 30
0.0
 10
325.7957836799873
 20
177.071968686618
 30
0.0
 10
325.7766477272727
 20
177.0813068181794
 30
0.0
  0
SPLINE
  5
2D1
330
1F
100
AcDbEntity
  8
0
  6
Continuous
 62
     7
370
    25
100
AcDbSpline
210
0.0
220
0.0
230
1.0
 70
     8
 71
     3
 72
    15
 73
    11
 74
     0
 42
0.000000001
 43
0.00000001
 40
0.0
 40
0.0
 40
0.0
 40
0.0
 40
0.1116456946495705
 40
0.2264258713479474
 40
0.3444741085554762
 40
0.4664619175398273
 40
0.5931634275125076
 40
0.724244794121692
 40
0.8597655265817253
 40
1.0
 40
1.0
 40
1.0
 40
1.0
 10
326.1644318181818
 20
174.9790340909067
 30
0.0
 10
326.1756556784774
 20
175.0094588828444
 30
0.0
 10
326.1984185118791
 20
175.0711626507031
 30
0.0
 10
326.2267843434335
 20
175.1671944462071
 30
0.0
 10
326.2497069803085
 20
175.2676814726156
 30
0.0
 10
326.2702185078099
 20
175.3722420263836
 30
0.0
 10
326.2843529632917
 20
175.4816700109593
 30
0.0
 10
326.2962125069507
 20
175.595291436224
 30
0.0
 10
326.3023885060899
 20
175.7133397743268
 30
0.0
 10
326.303215697801
 20
175.7934221023115
 30
0.0
 10
326.3036363636364
 20
175.8341477272704
 30
0.0
  0
SPLINE
  5
2D2
330
1F
100
AcDbEntity
  8
0
  6
Continuous
 62
     7
370
    25
100
AcDbSpline
210
0.0
220
0.0
230
1.0
 70
     8
 71
     3
 72
    23
 73
    19
 74
     0
 42
0.000000001
 43
0.00000001
 40
0.0
 40
0.0
 40
0.0
 40
0.0
 40
0.0838757011713843
 40
0.1627002619072093
 40
0.2366373969403643
 40
0.3059982833359136
 40
0.3707988108096669
 40
0.4312335182308226
 40
0.4883357779416788
 40
0.5424441322884366
 40
0.5952722887951956
 40
0.6483716879973135
 40
0.7021510655130979
 40
0.7579963679795582
 40
0.8148204673977175
 40
0.8740154473088951
 40
0.9356443925564378
 40
1.0
 40
1.0
 40
1.0
 40
1.0
 10
325.2915625
 20
174.4690909090885
 30
0.0
 10
325.3221133928546
 20
174.4695176485934
 30
0.0
 10
325.3813753507224
 20
174.4703454286088
 30
0.0
 10
325.4673856068505
 20
174.476203688548
 30
0.0
 10
325.5478869148563
 20
174.4848631255091
 30
0.0
 10
325.6223759744744
 20
174.4989480042607
 30
0.0
 10
325.6917089672228
 20
174.5141486440261
 30
0.0
 10
325.7543709393973
 20
174.5364195935396
 30
0.0
 10
325.8123903727312
 20
174.5598487513233
 30
0.0
 10
325.8648563126111
 20
174.5887466485118
 30
0.0
 10
325.912827825507
 20
174.6219510636121
 30
0.0
 10
325.9580009028573
 20
174.6587559108272
 30
0.0
 10
325.9993202627032
 20
174.701391838185
 30
0.0
 10
326.0380710637106
 20
174.7480615724623
 30
0.0
 10
326.074717074425
 20
174.7988767368465
 30
0.0
 10
326.1081996182871
 20
174.8543421220141
 30
0.0
 10
326.1377542878241
 20
174.9150445028965
 30
0.0
 10
326.1554119210143
 20
174.9573986735384
 30
0.0
 10
326.1644318181818
 20
174.9790340909067
 30
0.0
  0
LINE
  5
2D3
330
1F
100
AcDbEntity
  8
0
  6
Continuous
 62
     7
370
    25
100
AcDbLine
 10
324.6672727273
 20
174.4690909091
 30
0.0
 11
325.2915625
 21
174.4690909091
 31
0.0
  0
LINE
  5
2D4
330
1F
100
AcDbEntity
  8
0
  6
Continuous
 62
     7
370
    25
100
AcDbLine
 10
324.6672727273
 20
177.1509090909
 30
0.0
 11
324.6672727273
 21
174.4690909091
 31
0.0
  0
LINE
  5
2D5
330
1F
100
AcDbEntity
  8
0
  6
Continuous
 62
     7
370
    25
100
AcDbLine
 10
325.2816193182
 20
177.1509090909
 30
0.0
 11
324.6672727273
 21
177.1509090909
 31
0.0
  0
SPLINE
  5
2D6
330
1F
100
AcDbEntity
  8
0
  6
Continuous
 62
     7
370
    25
100
AcDbSpline
210
0.0
220
0.0
230
1.0
 70
     8
 71
     3
 72
    23
 73
    19
 74
     0
 42
0.000000001
 43
0.00000001
 40
0.0
 40
0.0
 40
0.0
 40
0.0
 40
0.0549231502919699
 40
0.1086030052064171
 40
0.161036855651976
 40
0.2129852978324811
 40
0.2656874514313834
 40
0.3191576965915268
 40
0.3745727672960886
 40
0.4325440293275171
 40
0.4924378488244355
 40
0.5542084725852016
 40
0.6185456342266032
 40
0.6863015999283232
 40
0.757779207571292
 40
0.8336420180410762
 40
0.9144133612381076
 40
1.0
 40
1.0
 40
1.0
 40
1.0
 10
316.6417045454546
 20
174.423636363634
 30
0.0
 10
316.677276695637
 20
174.4247684960137
 30
0.0
 10
316.7476157492225
 20
174.4270071326919
 30
0.0
 10
316.8508574371222
 20
174.4435767907821
 30
0.0
 10
316.9496619465169
 20
174.4711815333826
 30
0.0
 10
317.0434871525686
 20
174.5110561903157
 30
0.0
 10
317.1332452463099
 20
174.560697593949
 30
0.0
 10
317.2184987100432
 20
174.6217686751007
 30
0.0
 10
317.298943411535
 20
174.6941493246443
 30
0.0
 10
317.3749548596056
 20
174.7769461025571
 30
0.0
 10
317.443780465345
 20
174.870983018586
 30
0.0
 10
317.5046935130628
 20
174.9751591746394
 30
0.0
 10
317.5549615696318
 20
175.0904729978476
 30
0.0
 10
317.5956686632715
 20
175.2159775433283
 30
0.0
 10
317.628794921743
 20
175.3514335567613
 30
0.0
 10
317.6505052388248
 20
175.4976549050394
 30
0.0
 10
317.6654415046149
 20
175.6539130034679
 30
0.0
 10
317.6666506532961
 20
175.7616661971391
 30
0.0
 10
317.6672727272727
 20
175.8171022727249
 30
0.0
  0
SPLINE
  5
2D7
330
1F
100
AcDbEntity
  8
0
  6
Continuous
 62
     7
370
    25
100
AcDbSpline
210
0.0
220
0.0
230
1.0
 70
     8
 71
     3
 72
    23
 73
    19
 74
     0
 42
0.000000001
 43
0.00000001
 40
0.0
 40
0.0
 40
0.0
 40
0.0
 40
0.0820167094769215
 40
0.1594134130609962
 40
0.2330069745226147
 40
0.3031891773589381
 40
0.3699716694339429
 40
0.4341909870753234
 40
0.4967089549976708
 40
0.5582085812881012
 40
0.6180809696446103
 40
0.6750827924608148
 40
0.7301076280391949
 40
0.7838984160543079
 40
0.8370755298410716
 40
0.8904187639022285
 40
0.9443870054531994
 40
1.0
 40
1.0
 40
1.0
 40
1.0
 10
315.6218181818182
 20
175.7581534090885
 30
0.0
 10
315.6228506363221
 20
175.706753038541
 30
0.0
 10
315.6248573871093
 20
175.6068476832319
 30
0.0
 10
315.6381398685518
 20
175.4612724513488
 30
0.0
 10
315.6614928834084
 20
175.3244923166743
 30
0.0
 10
315.6941693439239
 20
175.1965203811278
 30
0.0
 10
315.7348739774289
 20
175.0769818245839
 30
0.0
 10
315.786491660068
 20
174.9669787636506
 30
0.0
 10
315.8469745387065
 20
174.8654657975571
 30
0.0
 10
315.9165002481144
 20
174.7732483275907
 30
0.0
 10
315.992971271277
 20
174.6915023377962
 30
0.0
 10
316.0733684220759
 20
174.6194784667262
 30
0.0
 10
316.1586984392932
 20
174.5598314537199
 30
0.0
 10
316.2469330695719
 20
174.5092608306642
 30
0.0
 10
316.3400082647332
 20
174.470624135458
 30
0.0
 10
316.4371544966905
 20
174.4439017666516
 30
0.0
 10
316.5381279937213
 20
174.4268970339417
 30
0.0
 10
316.6068352756002
 20
174.4247340753357
 30
0.0
 10
316.6417045454546
 20
174.423636363634
 30
0.0
  0
SPLINE
  5
2D8
330
1F
100
AcDbEntity
  8
0
  6
Continuous
 62
     7
370
    25
100
AcDbSpline
210
0.0
220
0.0
230
1.0
 70
     8
 71
     3
 72
    23
 73
    19
 74
     0
 42
0.000000001
 43
0.00000001
 40
0.0
 40
0.0
 40
0.0
 40
0.0
 40
0.0549693010255971
 40
0.108359060910092
 40
0.1601640429853789
 40
0.2113322971038458
 40
0.2628532052336253
 40
0.314982166448752
 40
0.3690071678834782
 40
0.4247807921276376
 40
0.4829618213623598
 40
0.5435867127152632
 40
0.6079447966355047
 40
0.675928348473386
 40
0.7490032351523551
 40
0.827141000277198
 40
0.9105022622530019
 40
1.0
 40
1.0
 40
1.0
 40
1.0
 10
316.6495170454545
 20
177.1963636363612
 30
0.0
 10
316.6130012266368
 20
177.1952323690421
 30
0.0
 10
316.5410188699099
 20
177.1930023413346
 30
0.0
 10
316.4356132686208
 20
177.1765645473047
 30
0.0
 10
316.335352627415
 20
177.1486567346676
 30
0.0
 10
316.2401566263983
 20
177.1098471455808
 30
0.0
 10
316.1493906714254
 20
177.0609960876145
 30
0.0
 10
316.0642787326933
 20
176.9995566610226
 30
0.0
 10
315.9839447653272
 20
176.927762383481
 30
0.0
 10
315.9091550427665
 20
176.844752719462
 30
0.0
 10
315.840150269185
 20
176.7511829455368
 30
0.0
 10
315.7824921889253
 20
176.6437443624657
 30
0.0
 10
315.7316115756987
 20
176.5259174858785
 30
0.0
 10
315.6917352643454
 20
176.3952268394131
 30
0.0
 10
315.6594714782851
 20
176.2531074395294
 30
0.0
 10
315.638790159098
 20
176.0985777876901
 30
0.0
 10
315.6235218641494
 20
175.9324628127767
 30
0.0
 10
315.6223993588672
 20
175.8176155652678
 30
0.0
 10
315.6218181818182
 20
175.7581534090885
 30
0.0
  0
SPLINE
  5
2D9
330
1F
100
AcDbEntity
  8
0
  6
Continuous
 62
     7
370
    25
100
AcDbSpline
210
0.0
220
0.0
230
1.0
 70
     8
 71
     3
 72
    15
 73
    11
 74
     0
 42
0.000000001
 43
0.00000001
 40
0.0
 40
0.0
 40
0.0
 40
0.0
 40
0.1290893592394776
 40
0.2551000161804333
 40
0.3798655055392189
 40
0.5068907155239861
 40
0.6325188027370855
 40
0.7548417051891586
 40
0.8765222138546875
 40
1.0
 40
1.0
 40
1.0
 40
1.0
 10
317.5152840909091
 20
176.6082954545431
 30
0.0
 10
317.4947929965973
 20
176.6514094406294
 30
0.0
 10
317.4542995080458
 20
176.7366091705918
 30
0.0
 10
317.371510527599
 20
176.850619915651
 30
0.0
 10
317.2756754270009
 20
176.9524886185113
 30
0.0
 10
317.1650304423612
 20
177.0379251139171
 30
0.0
 10
317.0456513880423
 20
177.1087810358509
 30
0.0
 10
316.918588530688
 20
177.1598071954621
 30
0.0
 10
316.7857030891687
 20
177.1907311655944
 30
0.0
 10
316.6951337174257
 20
177.1944769924413
 30
0.0
 10
316.6495170454545
 20
177.1963636363612
 30
0.0
  0
SPLINE
  5
2DA
330
1F
100
AcDbEntity
  8
0
  6
Continuous
 62
     7
370
    25
100
AcDbSpline
210
0.0
220
0.0
230
1.0
 70
     8
 71
     3
 72
    15
 73
    11
 74
     0
 42
0.000000001
 43
0.00000001
 40
0.0
 40
0.0
 40
0.0
 40
0.0
 40
0.1348306128719196
 40
0.2655522766928032
 40
0.3942179015238048
 40
0.5192745831226584
 40
0.6422303607107067
 40
0.7628424106338237
 40
0.8821514059548551
 40
1.0
 40
1.0
 40
1.0
 40
1.0
 10
317.6672727272727
 20
175.8171022727249
 30
0.0
 10
317.6669256579884
 20
175.8535716752902
 30
0.0
 10
317.6662420963206
 20
175.925399079131
 30
0.0
 10
317.658953599169
 20
176.0318371339315
 30
0.0
 10
317.6467348979733
 20
176.1351044818249
 30
0.0
 10
317.6309858010319
 20
176.2358263838712
 30
0.0
 10
317.6081651670672
 20
176.3329228743195
 30
0.0
 10
317.5833242086518
 20
176.4279048957581
 30
0.0
 10
317.5518138838787
 20
176.5194953310642
 30
0.0
 10
317.5274105972726
 20
176.5788171801016
 30
0.0
 10
317.5152840909091
 20
176.6082954545431
 30
0.0
  0
SPLINE
  5
2DB
330
1F
100
AcDbEntity
  8
0
  6
Continuous
 62
     7
370
    25
100
AcDbSpline
210
0.0
220
0.0
230
1.0
 70
     8
 71
     3
 72
    15
 73
    11
 74
     0
 42
0.000000001
 43
0.00000001
 40
0.0
 40
0.0
 40
0.0
 40
0.0
 40
0.1510739700527815
 40
0.2949499051911174
 40
0.4307193228074229
 40
0.559959533430788
 40
0.6813573798428294
 40
0.7944179911337578
 40
0.901243419818854
 40
1.0
 40
1.0
 40
1.0
 40
1.0
 10
328.3888636363637
 20
176.4761931818158
 30
0.0
 10
328.3779168869294
 20
176.5121612333488
 30
0.0
 10
328.3565449543148
 20
176.5823836110745
 30
0.0
 10
328.3262803488595
 20
176.6852107844467
 30
0.0
 10
328.2972332046155
 20
176.7827404363422
 30
0.0
 10
328.272421346579
 20
176.8756528882221
 30
0.0
 10
328.2477489136641
 20
176.9627392579724
 30
0.0
 10
328.2264706193427
 20
177.0449686739679
 30
0.0
 10
328.2073698043693
 20
177.1219330391861
 30
0.0
 10
328.1956364277803
 20
177.1717314620097
 30
0.0
 10
328.19
 20
177.1956534090885
 30
0.0
  0
LINE
  5
2DC
330
1F
100
AcDbEntity
  8
0
  6
Continuous
 62
     7
370
    25
100
AcDbLine
 10
328.6814772727
 20
175.5145454545
 30
0.0
 11
328.3888636364
 21
176.4761931818
 31
0.0
  0
LINE
  5
2DD
330
1F
100
AcDbEntity
  8
0
  6
Continuous
 62
     7
370
    25
100
AcDbLine
 10
327.6978125
 20
175.5145454545
 30
0.0
 11
328.6814772727
 21
175.5145454545
 31
0.0
  0
LINE
  5
2DE
330
1F
100
AcDbEntity
  8
0
  6
Continuous
 62
     7
370
    25
100
AcDbLine
 10
328.0273579545
 20
176.5330113636
 30
0.0
 11
327.6978125
 21
175.5145454545
 31
0.0
  0
SPLINE
  5
2DF
330
1F
100
AcDbEntity
  8
0
  6
Continuous
 62
     7
370
    25
100
AcDbSpline
210
0.0
220
0.0
230
1.0
 70
     8
 71
     3
 72
    11
 73
     7
 74
     0
 42
0.000000001
 43
0.00000001
 40
0.0
 40
0.0
 40
0.0
 40
0.0
 40
0.2488751571872423
 40
0.4974197103002324
 40
0.7479413436558462
 40
1.0
 40
1.0
 40
1.0
 40
1.0
 10
328.19
 20
177.1956534090885
 30
0.0
 10
328.1797674509346
 20
177.139932680968
 30
0.0
 10
328.1593159456527
 20
177.0285652437651
 30
0.0
 10
328.1209804049209
 20
176.8626628034084
 30
0.0
 10
328.0783309527736
 20
176.6970597399771
 30
0.0
 10
328.0443835606457
 20
176.5878055318031
 30
0.0
 10
328.0273579545454
 20
176.533011363634
 30
0.0
  0
LINE
  5
2E0
330
1F
100
AcDbEntity
  8
0
  6
Continuous
 62
     7
370
    25
100
AcDbLine
 10
271.94
 20
244.06
 30
0.0
 11
271.94
 21
241.06
 31
0.0
  0
LINE
  5
2E1
330
1F
100
AcDbEntity
  8
0
  6
Continuous
 62
     7
370
    25
100
AcDbLine
 10
271.94
 20
244.06
 30
0.0
 11
348.94
 21
244.06
 31
0.0
  0
LINE
  5
2E2
330
1F
100
AcDbEntity
  8
0
  6
Continuous
 62
     7
370
    25
100
AcDbLine
 10
348.94
 20
244.06
 30
0.0
 11
348.94
 21
241.06
 31
0.0
  0
LINE
  5
2E3
330
1F
100
AcDbEntity
  8
0
  6
Continuous
 62
     7
370
    25
100
AcDbLine
 10
271.94
 20
169.06
 30
0.0
 11
348.94
 21
169.06
 31
0.0
  0
LINE
  5
2E4
330
1F
100
AcDbEntity
  8
0
  6
Continuous
 62
     7
370
    25
100
AcDbLine
 10
271.94
 20
172.06
 30
0.0
 11
271.94
 21
169.06
 31
0.0
  0
LINE
  5
2E5
330
1F
100
AcDbEntity
  8
0
  6
Continuous
 62
     7
370
    25
100
AcDbLine
 10
348.94
 20
172.06
 30
0.0
 11
348.94
 21
169.06
 31
0.0
  0
CIRCLE
  5
2E6
330
1F
100
AcDbEntity
  8
0
  6
Continuous
 62
     7
370
    25
100
AcDbCircle
 10
323.94
 20
206.56
 30
0.0
 40
2.0
  0
LINE
  5
2E7
330
1F
100
AcDbEntity
  8
0
  6
Continuous
 62
     8
370
    25
100
AcDbLine
 10
236.24
 20
234.56
 30
0.0
 11
236.24
 21
230.56
 31
0.0
  0
LINE
  5
2E8
330
1F
100
AcDbEntity
  8
0
  6
Continuous
 62
     8
370
    25
100
AcDbLine
 10
349.44
 20
206.56
 30
0.0
 11
349.44
 21
185.56
 31
0.0
  0
LINE
  5
2E9
330
1F
100
AcDbEntity
  8
0
  6
Continuous
 62
     8
370
    25
100
AcDbLine
 10
349.44
 20
227.56
 30
0.0
 11
349.44
 21
206.56
 31
0.0
  0
DIMENSION
  5
2EA
330
1F
100
AcDbEntity
  8
0
  6
Continuous
 62
     7
370
    18
100
AcDbDimension
  2
_D_6
 10
348.94
 20
160.6109374552
 30
0.0
 11
337.7278064148
 21
160.6109374552
 31
0.0
 70
   160
  1
<>
 71
     2
 42
-1.0
  3
SLDDIMSTYLE0
100
AcDbAlignedDimension
 13
323.94
 23
206.56
 33
0.0
 14
348.94
 24
241.06
 34
0.0
100
AcDbRotatedDimension
  0
DIMENSION
  5
2F4
330
1F
100
AcDbEntity
  8
0
  6
Continuous
 62
     7
370
    18
100
AcDbDimension
  2
_D_7
 10
348.94
 20
153.06
 30
0.0
 11
315.7003521402
 21
153.06
 31
0.0
 70
   160
  1
<>
 71
     2
 42
-1.0
  3
SLDDIMSTYLE0
100
AcDbAlignedDimension
 13
271.94
 23
169.06
 33
0.0
 14
348.94
 24
244.06
 34
0.0
100
AcDbRotatedDimension
  0
DIMENSION
  5
2FE
330
1F
100
AcDbEntity
  8
0
  6
Continuous
 62
     7
370
    18
100
AcDbDimension
  2
_D_8
 10
348.94
 20
242.5328525337
 30
0.0
 11
352.899668426
 21
242.5328525337
 31
0.0
 70
   160
  1
<>
 71
     2
 42
-1.0
  3
SLDDIMSTYLE3
100
AcDbAlignedDimension
 13
356.94
 23
227.06
 33
0.0
 14
348.94
 24
241.06
 34
0.0
100
AcDbRotatedDimension
  0
DIMENSION
  5
30A
330
1F
100
AcDbEntity
  8
0
  6
Continuous
 62
     7
370
    18
100
AcDbDimension
  2
_D_9
 10
314.4035969304
 20
199.56
 30
0.0
 11
314.4035969304
 21
211.8846723665
 31
0.0
 70
   160
  1
%%c<>
 71
     2
 42
-1.0
  3
SLDDIMSTYLE4
100
AcDbAlignedDimension
 13
323.94
 23
213.56
 33
0.0
 14
323.94
 24
199.56
 34
0.0
 50
90.0
100
AcDbRotatedDimension
  0
DIMENSION
  5
318
330
1F
100
AcDbEntity
  8
0
  6
Continuous
 62
     7
370
    18
100
AcDbDimension
  2
_D_10
 10
368.1957549495
 20
244.06
 30
0.0
 11
368.1957549495
 21
227.5881748783
 31
0.0
 70
   160
  1
<>
 71
     2
 42
-1.0
  3
SLDDIMSTYLE5
100
AcDbAlignedDimension
 13
323.94
 23
206.56
 33
0.0
 14
348.94
 24
244.06
 34
0.0
 50
90.0
100
AcDbRotatedDimension
  0
INSERT
  5
32E
330
1F
100
AcDbEntity
  8
0
  6
Continuous
 62
     7
370
     0
100
AcDbBlockReference
  2
SW_CENTERMARKSYMBOL_9
 10
323.94
 20
206.56
 30
0.0
  0
LINE
  5
32F
330
1F
100
AcDbEntity
  8
0
  6
CENTERX2
 62
     7
370
    18
100
AcDbLine
 10
284.94
 20
227.06
 30
0.0
 11
284.94
 21
236.06
 31
0.0
  0
LINE
  5
330
330
1F
100
AcDbEntity
  8
0
  6
CENTERX2
 62
     7
370
    18
100
AcDbLine
 10
298.54
 20
227.06
 30
0.0
 11
298.54
 21
236.06
 31
0.0
  0
LINE
  5
331
330
1F
100
AcDbEntity
  8
0
  6
CENTERX2
 62
     7
370
    18
100
AcDbLine
 10
269.94
 20
206.56
 30
0.0
 11
350.94
 21
206.56
 31
0.0
  0
LINE
  5
332
330
1F
100
AcDbEntity
  8
0
  6
CENTERX2
 62
     7
370
    18
100
AcDbLine
 10
358.44
 20
206.56
 30
0.0
 11
347.44
 21
206.56
 31
0.0
  0
LINE
  5
333
330
1F
100
AcDbEntity
  8
0
  6
CENTERX2
 62
     7
370
    18
100
AcDbLine
 10
379.94
 20
206.56
 30
0.0
 11
391.44
 21
206.56
 31
0.0
  0
ENDSEC
  0
SECTION
  2
OBJECTS
  0
DICTIONARY
  5
C
330
0
100
AcDbDictionary
281
     1
  3
ACAD_GROUP
350
D
  3
ACAD_LAYOUT
350
1A
  3
ACAD_MLINESTYLE
350
17
  3
ACAD_PLOTSETTINGS
350
19
  3
ACAD_PLOTSTYLENAME
350
E
  3
ACAD_SCALELIST
350
47
  0
DICTIONARY
  5
D
102
{ACAD_REACTORS
330
C
102
}
330
C
100
AcDbDictionary
281
     1
  0
DICTIONARY
  5
1A
102
{ACAD_REACTORS
330
C
102
}
330
C
100
AcDbDictionary
281
     1
  3
Layout1
350
1E
  3
Layout2
350
26
  3
Model
350
22
  0
DICTIONARY
  5
17
102
{ACAD_REACTORS
330
C
102
}
330
C
100
AcDbDictionary
281
     1
  3
Standard
350
18
  0
DICTIONARY
  5
19
102
{ACAD_REACTORS
330
C
102
}
330
C
100
AcDbDictionary
281
     1
  0
ACDBDICTIONARYWDFLT
  5
E
102
{ACAD_REACTORS
330
C
102
}
330
C
100
AcDbDictionary
281
     1
  3
Normal
350
F
100
AcDbDictionaryWithDefault
340
F
  0
DICTIONARY
  5
47
102
{ACAD_REACTORS
330
C
102
}
330
C
100
AcDbDictionary
281
     1
  3
A0
350
48
  3
A1
350
49
  3
A2
350
4A
  3
A3
350
4B
  3
A4
350
4C
  3
A5
350
4D
  3
A6
350
4E
  3
A7
350
4F
  3
A8
350
50
  3
A9
350
51
  3
B0
350
52
  3
B1
350
53
  3
B2
350
54
  3
B3
350
55
  3
B4
350
56
  3
B5
350
57
  3
B6
350
58
  3
B7
350
59
  3
B8
350
5A
  3
B9
350
5B
  3
C0
350
5C
  3
C1
350
5D
  3
C2
350
5E
  3
C3
350
5F
  3
C4
350
60
  3
C5
350
61
  3
C6
350
62
  3
C7
350
63
  3
C8
350
64
  3
C9
350
65
  3
D0
350
66
  3
D1
350
67
  3
D2
350
68
  0
LAYOUT
  5
1E
102
{ACAD_REACTORS
330
1A
102
}
330
1A
100
AcDbPlotSettings
  1

  2
none_device
  4

  6

 40
0.0
 41
0.0
 42
0.0
 43
0.0
 44
0.0
 45
0.0
 46
0.0
 47
0.0
 48
0.0
 49
0.0
140
0.0
141
0.0
142
1.0
143
1.0
 70
   688
 72
     1
 73
     0
 74
     5
  7

 75
    16
147
1.0
148
0.0
149
0.0
100
AcDbLayout
  1
Layout1
 70
     1
 71
     1
 10
0.0
 20
0.0
 11
420.0
 21
297.0
 12
0.0
 22
0.0
 32
0.0
 14
1.0000000000E+20
 24
1.0000000000E+20
 34
1.0000000000E+20
 15
-1.0000000000E+20
 25
-1.0000000000E+20
 35
-1.0000000000E+20
146
0.0
 13
0.0
 23
0.0
 33
0.0
 16
1.0
 26
0.0
 36
0.0
 17
0.0
 27
1.0
 37
0.0
 76
     0
330
1B
  0
LAYOUT
  5
26
102
{ACAD_REACTORS
330
1A
102
}
330
1A
100
AcDbPlotSettings
  1

  2
none_device
  4

  6

 40
0.0
 41
0.0
 42
0.0
 43
0.0
 44
0.0
 45
0.0
 46
0.0
 47
0.0
 48
0.0
 49
0.0
140
0.0
141
0.0
142
1.0
143
1.0
 70
   688
 72
     1
 73
     0
 74
     5
  7

 75
    16
147
1.0
148
0.0
149
0.0
100
AcDbLayout
  1
Layout2
 70
     1
 71
     2
 10
0.0
 20
0.0
 11
0.0
 21
0.0
 12
0.0
 22
0.0
 32
0.0
 14
0.0
 24
0.0
 34
0.0
 15
0.0
 25
0.0
 35
0.0
146
0.0
 13
0.0
 23
0.0
 33
0.0
 16
1.0
 26
0.0
 36
0.0
 17
0.0
 27
1.0
 37
0.0
 76
     0
330
23
  0
LAYOUT
  5
22
102
{ACAD_REACTORS
330
1A
102
}
330
1A
100
AcDbPlotSettings
  1

  2
none_device
  4
Letter_(8.50_x_11.00_Inches)
  6

 40
6.35
 41
6.35
 42
6.35000508
 43
6.35000508
 44
215.9
 45
279.4
 46
0.0
 47
0.0
 48
0.0
 49
0.0
140
0.0
141
0.0
142
1.0
143
1.0
 70
  1712
 72
     1
 73
     0
 74
     0
  7

 75
     0
147
1.0
148
0.0
149
0.0
100
AcDbLayout
  1
Model
 70
     1
 71
     0
 10
0.0
 20
0.0
 11
420.0
 21
297.0
 12
0.0
 22
0.0
 32
0.0
 14
0.0
 24
0.0
 34
0.0
 15
420.0
 25
297.0
 35
0.0
146
0.0
 13
0.0
 23
0.0
 33
0.0
 16
1.0
 26
0.0
 36
0.0
 17
0.0
 27
1.0
 37
0.0
 76
     0
330
1F
331
29
  0
MLINESTYLE
  5
18
102
{ACAD_REACTORS
330
17
102
}
330
17
100
AcDbMlineStyle
  2
Standard
 70
     0
  3

 62
   256
 51
90.0
 52
90.0
 71
     2
 49
0.5
 62
   256
  6
BYLAYER
 49
-0.5
 62
   256
  6
BYLAYER
  0
ACDBPLACEHOLDER
  5
F
102
{ACAD_REACTORS
330
E
102
}
330
E
  0
SCALE
  5
48
102
{ACAD_REACTORS
330
47
102
}
330
47
100
AcDbScale
 70
     0
300
1:1
140
1.0
141
1.0
290
     1
  0
SCALE
  5
49
102
{ACAD_REACTORS
330
47
102
}
330
47
100
AcDbScale
 70
     0
300
1:2
140
1.0
141
2.0
290
     0
  0
SCALE
  5
4A
102
{ACAD_REACTORS
330
47
102
}
330
47
100
AcDbScale
 70
     0
300
1:4
140
1.0
141
4.0
290
     0
  0
SCALE
  5
4B
102
{ACAD_REACTORS
330
47
102
}
330
47
100
AcDbScale
 70
     0
300
1:5
140
1.0
141
5.0
290
     0
  0
SCALE
  5
4C
102
{ACAD_REACTORS
330
47
102
}
330
47
100
AcDbScale
 70
     0
300
1:8
140
1.0
141
8.0
290
     0
  0
SCALE
  5
4D
102
{ACAD_REACTORS
330
47
102
}
330
47
100
AcDbScale
 70
     0
300
1:10
140
1.0
141
10.0
290
     0
  0
SCALE
  5
4E
102
{ACAD_REACTORS
330
47
102
}
330
47
100
AcDbScale
 70
     0
300
1:16
140
1.0
141
16.0
290
     0
  0
SCALE
  5
4F
102
{ACAD_REACTORS
330
47
102
}
330
47
100
AcDbScale
 70
     0
300
1:20
140
1.0
141
20.0
290
     0
  0
SCALE
  5
50
102
{ACAD_REACTORS
330
47
102
}
330
47
100
AcDbScale
 70
     0
300
1:30
140
1.0
141
30.0
290
     0
  0
SCALE
  5
51
102
{ACAD_REACTORS
330
47
102
}
330
47
100
AcDbScale
 70
     0
300
1:40
140
1.0
141
40.0
290
     0
  0
SCALE
  5
52
102
{ACAD_REACTORS
330
47
102
}
330
47
100
AcDbScale
 70
     0
300
1:50
140
1.0
141
50.0
290
     0
  0
SCALE
  5
53
102
{ACAD_REACTORS
330
47
102
}
330
47
100
AcDbScale
 70
     0
300
1:100
140
1.0
141
100.0
290
     0
  0
SCALE
  5
54
102
{ACAD_REACTORS
330
47
102
}
330
47
100
AcDbScale
 70
     0
300
2:1
140
2.0
141
1.0
290
     0
  0
SCALE
  5
55
102
{ACAD_REACTORS
330
47
102
}
330
47
100
AcDbScale
 70
     0
300
4:1
140
4.0
141
1.0
290
     0
  0
SCALE
  5
56
102
{ACAD_REACTORS
330
47
102
}
330
47
100
AcDbScale
 70
     0
300
8:1
140
8.0
141
1.0
290
     0
  0
SCALE
  5
57
102
{ACAD_REACTORS
330
47
102
}
330
47
100
AcDbScale
 70
     0
300
10:1
140
10.0
141
1.0
290
     0
  0
SCALE
  5
58
102
{ACAD_REACTORS
330
47
102
}
330
47
100
AcDbScale
 70
     0
300
100:1
140
100.0
141
1.0
290
     0
  0
SCALE
  5
59
102
{ACAD_REACTORS
330
47
102
}
330
47
100
AcDbScale
 70
     0
300
1/128" = 1'-0"
140
0.0078125
141
12.0
290
     0
  0
SCALE
  5
5A
102
{ACAD_REACTORS
330
47
102
}
330
47
100
AcDbScale
 70
     0
300
1/64" = 1'-0"
140
0.015625
141
12.0
290
     0
  0
SCALE
  5
5B
102
{ACAD_REACTORS
330
47
102
}
330
47
100
AcDbScale
 70
     0
300
1/32" = 1'-0"
140
0.03125
141
12.0
290
     0
  0
SCALE
  5
5C
102
{ACAD_REACTORS
330
47
102
}
330
47
100
AcDbScale
 70
     0
300
1/16" = 1'-0"
140
0.0625
141
12.0
290
     0
  0
SCALE
  5
5D
102
{ACAD_REACTORS
330
47
102
}
330
47
100
AcDbScale
 70
     0
300
3/32" = 1'-0"
140
0.09375
141
12.0
290
     0
  0
SCALE
  5
5E
102
{ACAD_REACTORS
330
47
102
}
330
47
100
AcDbScale
 70
     0
300
1/8" = 1'-0"
140
0.125
141
12.0
290
     0
  0
SCALE
  5
5F
102
{ACAD_REACTORS
330
47
102
}
330
47
100
AcDbScale
 70
     0
300
3/16" = 1'-0"
140
0.1875
141
12.0
290
     0
  0
SCALE
  5
60
102
{ACAD_REACTORS
330
47
102
}
330
47
100
AcDbScale
 70
     0
300
1/4" = 1'-0"
140
0.25
141
12.0
290
     0
  0
SCALE
  5
61
102
{ACAD_REACTORS
330
47
102
}
330
47
100
AcDbScale
 70
     0
300
3/8" = 1'-0"
140
0.375
141
12.0
290
     0
  0
SCALE
  5
62
102
{ACAD_REACTORS
330
47
102
}
330
47
100
AcDbScale
 70
     0
300
1/2" = 1'-0"
140
0.5
141
12.0
290
     0
  0
SCALE
  5
63
102
{ACAD_REACTORS
330
47
102
}
330
47
100
AcDbScale
 70
     0
300
3/4" = 1'-0"
140
0.75
141
12.0
290
     0
  0
SCALE
  5
64
102
{ACAD_REACTORS
330
47
102
}
330
47
100
AcDbScale
 70
     0
300
1" = 1'-0"
140
1.0
141
12.0
290
     0
  0
SCALE
  5
65
102
{ACAD_REACTORS
330
47
102
}
330
47
100
AcDbScale
 70
     0
300
1-1/2" = 1'-0"
140
1.5
141
12.0
290
     0
  0
SCALE
  5
66
102
{ACAD_REACTORS
330
47
102
}
330
47
100
AcDbScale
 70
     0
300
3" = 1'-0"
140
3.0
141
12.0
290
     0
  0
SCALE
  5
67
102
{ACAD_REACTORS
330
47
102
}
330
47
100
AcDbScale
 70
     0
300
6" = 1'-0"
140
6.0
141
12.0
290
     0
  0
SCALE
  5
68
102
{ACAD_REACTORS
330
47
102
}
330
47
100
AcDbScale
 70
     0
300
1'-0" = 1'-0"
140
12.0
141
12.0
290
     0
  0
ENDSEC
  0
EOF
