  0
SECTION
  2
HEADER
  9
$ACADVER
  1
AC1015
  9
$ACADMAINTVER
 70
     6
  9
$DWGCODEPAGE
  3
ANSI_1250
  9
$INSBASE
 10
0.0
 20
0.0
 30
0.0
  9
$EXTMIN
 10
0.0
 20
0.0
 30
0.0
  9
$EXTMAX
 10
420.0
 20
297.0
 30
0.0
  9
$LIMMIN
 10
0.0
 20
0.0
  9
$LIMMAX
 10
420.0
 20
297.0
  9
$ORTHOMODE
 70
     0
  9
$REGENMODE
 70
     1
  9
$FILLMODE
 70
     1
  9
$QTEXTMODE
 70
     0
  9
$MIRRTEXT
 70
     1
  9
$LTSCALE
 40
1.0
  9
$ATTMODE
 70
     1
  9
$TEXTSIZE
 40
3.5
  9
$TRACEWID
 40
1.0
  9
$TEXTSTYLE
  7
Standard
  9
$CLAYER
  8
0
  9
$CELTYPE
  6
ByLayer
  9
$CECOLOR
 62
   256
  9
$CELTSCALE
 40
1.0
  9
$DISPSILH
 70
     0
  9
$DIMSCALE
 40
1.0
  9
$DIMASZ
 40
3.302
  9
$DIMEXO
 40
1.0
  9
$DIMDLI
 40
3.75
  9
$DIMRND
 40
0.0
  9
$DIMDLE
 40
0.0
  9
$DIMEXE
 40
1.0
  9
$DIMTP
 40
0.0
  9
$DIMTM
 40
0.0
  9
$DIMTXT
 40
3.5
  9
$DIMCEN
 40
2.5
  9
$DIMTSZ
 40
0.0
  9
$DIMTOL
 70
     0
  9
$DIMLIM
 70
     0
  9
$DIMTIH
 70
     1
  9
$DIMTOH
 70
     1
  9
$DIMSE1
 70
     0
  9
$DIMSE2
 70
     0
  9
$DIMTAD
 70
     1
  9
$DIMZIN
 70
     1
  9
$DIMBLK
  1

  9
$DIMASO
 70
     1
  9
$DIMSHO
 70
     1
  9
$DIMPOST
  1

  9
$DIMAPOST
  1

  9
$DIMALT
 70
     0
  9
$DIMALTD
 70
     3
  9
$DIMALTF
 40
0.0393700787
  9
$DIMLFAC
 40
1.0
  9
$DIMTOFL
 70
     1
  9
$DIMTVP
 40
0.0
  9
$DIMTIX
 70
     0
  9
$DIMSOXD
 70
     0
  9
$DIMSAH
 70
     0
  9
$DIMBLK1
  1

  9
$DIMBLK2
  1

  9
$DIMSTYLE
  2
ISO-25
  9
$DIMCLRD
 70
     0
  9
$DIMCLRE
 70
     0
  9
$DIMCLRT
 70
     0
  9
$DIMTFAC
 40
1.0
  9
$DIMGAP
 40
1.524
  9
$DIMJUST
 70
     0
  9
$DIMSD1
 70
     0
  9
$DIMSD2
 70
     0
  9
$DIMTOLJ
 70
     0
  9
$DIMTZIN
 70
     1
  9
$DIMALTZ
 70
     0
  9
$DIMALTTZ
 70
     0
  9
$DIMUPT
 70
     0
  9
$DIMDEC
 70
     2
  9
$DIMTDEC
 70
     2
  9
$DIMALTU
 70
     2
  9
$DIMALTTD
 70
     3
  9
$DIMTXSTY
  7
Standard
  9
$DIMAUNIT
 70
     0
  9
$DIMADEC
 70
     2
  9
$DIMALTRND
 40
0.0
  9
$DIMAZIN
 70
     0
  9
$DIMDSEP
 70
    44
  9
$DIMATFIT
 70
     3
  9
$DIMFRAC
 70
     0
  9
$DIMLDRBLK
  1

  9
$DIMLUNIT
 70
     2
  9
$DIMLWD
 70
    -2
  9
$DIMLWE
 70
    -2
  9
$DIMTMOVE
 70
     0
  9
$LUNITS
 70
     2
  9
$LUPREC
 70
     2
  9
$SKETCHINC
 40
1.0
  9
$FILLETRAD
 40
10.0
  9
$AUNITS
 70
     0
  9
$AUPREC
 70
     2
  9
$MENU
  1
.
  9
$ELEVATION
 40
0.0
  9
$PELEVATION
 40
0.0
  9
$THICKNESS
 40
0.0
  9
$LIMCHECK
 70
     0
  9
$CHAMFERA
 40
0.0
  9
$CHAMFERB
 40
0.0
  9
$CHAMFERC
 40
0.0
  9
$CHAMFERD
 40
0.0
  9
$SKPOLY
 70
     0
  9
$TDCREATE
 40
2461007.403066377
  9
$TDUCREATE
 40
2461007.361399711
  9
$TDUPDATE
 40
2461007.40306963
  9
$TDUUPDATE
 40
2461007.361402963
  9
$TDINDWG
 40
0.0000000116
  9
$TDUSRTIMER
 40
0.0000000116
  9
$USRTIMER
 70
     1
  9
$ANGBASE
 50
0.0
  9
$ANGDIR
 70
     0
  9
$PDMODE
 70
     0
  9
$PDSIZE
 40
-1.0
  9
$PLINEWID
 40
0.0
  9
$SPLFRAME
 70
     0
  9
$SPLINETYPE
 70
     6
  9
$SPLINESEGS
 70
     8
  9
$HANDSEED
  5
435
  9
$SURFTAB1
 70
     6
  9
$SURFTAB2
 70
     6
  9
$SURFTYPE
 70
     6
  9
$SURFU
 70
     6
  9
$SURFV
 70
     6
  9
$UCSBASE
  2

  9
$UCSNAME
  2

  9
$UCSORG
 10
0.0
 20
0.0
 30
0.0
  9
$UCSXDIR
 10
1.0
 20
0.0
 30
0.0
  9
$UCSYDIR
 10
0.0
 20
1.0
 30
0.0
  9
$UCSORTHOREF
  2

  9
$UCSORTHOVIEW
 70
     0
  9
$UCSORGTOP
 10
0.0
 20
0.0
 30
0.0
  9
$UCSORGBOTTOM
 10
0.0
 20
0.0
 30
0.0
  9
$UCSORGLEFT
 10
0.0
 20
0.0
 30
0.0
  9
$UCSORGRIGHT
 10
0.0
 20
0.0
 30
0.0
  9
$UCSORGFRONT
 10
0.0
 20
0.0
 30
0.0
  9
$UCSORGBACK
 10
0.0
 20
0.0
 30
0.0
  9
$PUCSBASE
  2

  9
$PUCSNAME
  2

  9
$PUCSORG
 10
0.0
 20
0.0
 30
0.0
  9
$PUCSXDIR
 10
1.0
 20
0.0
 30
0.0
  9
$PUCSYDIR
 10
0.0
 20
1.0
 30
0.0
  9
$PUCSORTHOREF
  2

  9
$PUCSORTHOVIEW
 70
     0
  9
$PUCSORGTOP
 10
0.0
 20
0.0
 30
0.0
  9
$PUCSORGBOTTOM
 10
0.0
 20
0.0
 30
0.0
  9
$PUCSORGLEFT
 10
0.0
 20
0.0
 30
0.0
  9
$PUCSORGRIGHT
 10
0.0
 20
0.0
 30
0.0
  9
$PUCSORGFRONT
 10
0.0
 20
0.0
 30
0.0
  9
$PUCSORGBACK
 10
0.0
 20
0.0
 30
0.0
  9
$USERI1
 70
     0
  9
$USERI2
 70
     0
  9
$USERI3
 70
     0
  9
$USERI4
 70
     0
  9
$USERI5
 70
     0
  9
$USERR1
 40
0.0
  9
$USERR2
 40
0.0
  9
$USERR3
 40
0.0
  9
$USERR4
 40
0.0
  9
$USERR5
 40
0.0
  9
$WORLDVIEW
 70
     1
  9
$SHADEDGE
 70
     3
  9
$SHADEDIF
 70
    70
  9
$TILEMODE
 70
     1
  9
$MAXACTVP
 70
    64
  9
$PINSBASE
 10
0.0
 20
0.0
 30
0.0
  9
$PLIMCHECK
 70
     0
  9
$PEXTMIN
 10
1.0000000000E+20
 20
1.0000000000E+20
 30
1.0000000000E+20
  9
$PEXTMAX
 10
-1.0000000000E+20
 20
-1.0000000000E+20
 30
-1.0000000000E+20
  9
$PLIMMIN
 10
0.0
 20
0.0
  9
$PLIMMAX
 10
420.0
 20
297.0
  9
$UNITMODE
 70
     0
  9
$VISRETAIN
 70
     1
  9
$PLINEGEN
 70
     0
  9
$PSLTSCALE
 70
     1
  9
$TREEDEPTH
 70
  3020
  9
$CMLSTYLE
  2
Standard
  9
$CMLJUST
 70
     0
  9
$CMLSCALE
 40
20.0
  9
$PROXYGRAPHICS
 70
     1
  9
$MEASUREMENT
 70
     1
  9
$CELWEIGHT
370
    -1
  9
$ENDCAPS
280
     0
  9
$JOINSTYLE
280
     0
  9
$LWDISPLAY
290
     1
  9
$INSUNITS
 70
     4
  9
$HYPERLINKBASE
  1

  9
$STYLESHEET
  1

  9
$XEDIT
290
     1
  9
$CEPSNTYPE
380
     0
  9
$PSTYLEMODE
290
     1
  9
$FINGERPRINTGUID
  2
{58da16ca-c68d-43c8-ad54-6b8de872286d}
  9
$VERSIONGUID
  2
{FAEB1C32-E019-11D5-929B-00C0DF256EC4}
  9
$EXTNAMES
290
     1
  9
$PSVPSCALE
 40
0.0
  9
$OLESTARTUP
290
     0
  0
ENDSEC
  0
SECTION
  2
CLASSES
  0
CLASS
  1
ACDBDICTIONARYWDFLT
  2
AcDbDictionaryWithDefault
  3
ObjectDBX Classes
 90
        0
280
     0
281
     0
  0
CLASS
  1
VISUALSTYLE
  2
AcDbVisualStyle
  3
ObjectDBX Classes
 90
     4095
280
     0
281
     0
  0
CLASS
  1
MATERIAL
  2
AcDbMaterial
  3
ObjectDBX Classes
 90
     1153
280
     0
281
     0
  0
CLASS
  1
SCALE
  2
AcDbScale
  3
ObjectDBX Classes
 90
     1153
280
     0
281
     0
  0
CLASS
  1
TABLESTYLE
  2
AcDbTableStyle
  3
ObjectDBX Classes
 90
     4095
280
     0
281
     0
  0
CLASS
  1
MLEADERSTYLE
  2
AcDbMLeaderStyle
  3
ACDB_MLEADERSTYLE_CLASS
 90
     4095
280
     0
281
     0
  0
CLASS
  1
SUN
  2
AcDbSun
  3
SCENEOE
 90
     1153
280
     0
281
     0
  0
CLASS
  1
ACDBPLACEHOLDER
  2
AcDbPlaceHolder
  3
ObjectDBX Classes
 90
        0
280
     0
281
     0
  0
CLASS
  1
LAYOUT
  2
AcDbLayout
  3
ObjectDBX Classes
 90
        0
280
     0
281
     0
  0
ENDSEC
  0
SECTION
  2
TABLES
  0
TABLE
  2
VPORT
  5
8
330
0
100
AcDbSymbolTable
 70
     1
  0
VPORT
  5
29
330
8
100
AcDbSymbolTableRecord
100
AcDbViewportTableRecord
  2
*Active
 70
     0
 10
0.0
 20
0.0
 11
1.0
 21
1.0
 12
210.0
 22
148.5
 13
0.0
 23
0.0
 14
10.0
 24
10.0
 15
10.0
 25
10.0
 16
0.0
 26
0.0
 36
1.0
 17
0.0
 27
0.0
 37
0.0
 40
297.0
 41
1.4141414141
 42
50.0
 43
0.0
 44
0.0
 50
0.0
 51
0.0
 71
     0
 72
  2000
 73
     1
 74
     3
 75
     0
 76
     0
 77
     0
 78
     0
281
     0
 65
     1
110
0.0
120
0.0
130
0.0
111
1.0
121
0.0
131
0.0
112
0.0
122
1.0
132
0.0
 79
     0
146
0.0
  0
ENDTAB
  0
TABLE
  2
LTYPE
  5
5
330
0
100
AcDbSymbolTable
 70
     6
  0
LTYPE
  5
14
330
5
100
AcDbSymbolTableRecord
100
AcDbLinetypeTableRecord
  2
ByBlock
 70
     0
  3

 72
    65
 73
     0
 40
0.0
  0
LTYPE
  5
15
330
5
100
AcDbSymbolTableRecord
100
AcDbLinetypeTableRecord
  2
ByLayer
 70
     0
  3

 72
    65
 73
     0
 40
0.0
  0
LTYPE
  5
16
330
5
100
AcDbSymbolTableRecord
100
AcDbLinetypeTableRecord
  2
Continuous
 70
     0
  3
Solid line
 72
    65
 73
     0
 40
0.0
  0
LTYPE
  5
6E
330
5
100
AcDbSymbolTableRecord
100
AcDbLinetypeTableRecord
  2
HIDDEN
 70
     0
  3
Hidden __ __ __ __ __ __ __ __ __ __ __ __ __ __
 72
    65
 73
     2
 40
1.905
 49
1.27
 74
     0
 49
-0.635
 74
     0
  0
LTYPE
  5
6F
330
5
100
AcDbSymbolTableRecord
100
AcDbLinetypeTableRecord
  2
PHANTOM
 70
     0
  3
Phantom ______  __  __  ______  __  __  ______
 72
    65
 73
     6
 40
12.7
 49
6.35
 74
     0
 49
-1.27
 74
     0
 49
1.27
 74
     0
 49
-1.27
 74
     0
 49
1.27
 74
     0
 49
-1.27
 74
     0
  0
LTYPE
  5
70
330
5
100
AcDbSymbolTableRecord
100
AcDbLinetypeTableRecord
  2
CENTER
 70
     0
  3
Center ____ _ ____ _ ____ _ ____ _ ____ _ ____
 72
    65
 73
     4
 40
10.16
 49
6.35
 74
     0
 49
-1.27
 74
     0
 49
1.27
 74
     0
 49
-1.27
 74
     0
  0
LTYPE
  5
71
330
5
100
AcDbSymbolTableRecord
100
AcDbLinetypeTableRecord
  2
CENTERX2
 70
     0
  3
Center (2x) ________  __  ________  __  _____
 72
    65
 73
     4
 40
20.32
 49
12.7
 74
     0
 49
-2.54
 74
     0
 49
2.54
 74
     0
 49
-2.54
 74
     0
  0
LTYPE
  5
72
330
5
100
AcDbSymbolTableRecord
100
AcDbLinetypeTableRecord
  2
DOT2
 70
     0
  3
Dot (.5x) ........................................
 72
    65
 73
     2
 40
0.635
 49
0.0
 74
     0
 49
-0.635
 74
     0
  0
ENDTAB
  0
TABLE
  2
LAYER
  5
2
330
0
100
AcDbSymbolTable
 70
     2
  0
LAYER
  5
10
330
2
100
AcDbSymbolTableRecord
100
AcDbLayerTableRecord
  2
0
 70
     0
 62
     7
  6
Continuous
370
    -3
390
F
  0
LAYER
  5
73
330
2
100
AcDbSymbolTableRecord
100
AcDbLayerTableRecord
  2
FORMAT
 70
     0
 62
     7
  6
Continuous
370
    -3
390
F
  0
ENDTAB
  0
TABLE
  2
STYLE
  5
3
330
0
100
AcDbSymbolTable
 70
     4
  0
STYLE
  5
11
330
3
100
AcDbSymbolTableRecord
100
AcDbTextStyleTableRecord
  2
Standard
 70
     0
 40
0.0
 41
1.0
 50
0.0
 71
     0
 42
3.5
  3
txt
  4

  0
STYLE
  5
B1
330
3
100
AcDbSymbolTableRecord
100
AcDbTextStyleTableRecord
  2
SLDTEXTSTYLE0
 70
     0
 40
0.0
 41
0.75
 50
0.0
 71
     0
 42
3.5
  3
TXT
  4

  0
STYLE
  5
B5
330
3
100
AcDbSymbolTableRecord
100
AcDbTextStyleTableRecord
  2
SLDTEXTSTYLE1
 70
     0
 40
0.0
 41
0.6875
 50
0.0
 71
     0
 42
3.5
  3
TXT
  4
bigfont
  0
STYLE
  5
B7
330
3
100
AcDbSymbolTableRecord
100
AcDbTextStyleTableRecord
  2
SLDTEXTSTYLE2
 70
     0
 40
0.0
 41
0.75
 50
0.0
 71
     0
 42
3.5
  3
TXT
  4
bigfont
  0
ENDTAB
  0
TABLE
  2
VIEW
  5
6
330
0
100
AcDbSymbolTable
 70
     0
  0
ENDTAB
  0
TABLE
  2
UCS
  5
7
330
0
100
AcDbSymbolTable
 70
     0
  0
ENDTAB
  0
TABLE
  2
APPID
  5
9
330
0
100
AcDbSymbolTable
 70
     1
  0
APPID
  5
12
330
9
100
AcDbSymbolTableRecord
100
AcDbRegAppTableRecord
  2
ACAD
 70
     0
  0
ENDTAB
  0
TABLE
  2
DIMSTYLE
  5
A
330
0
100
AcDbSymbolTable
 70
    10
100
AcDbDimStyleTable
  0
DIMSTYLE
105
27
330
A
100
AcDbSymbolTableRecord
100
AcDbDimStyleTableRecord
  2
ISO-25
 70
     0
 41
2.5
 42
0.625
 43
3.75
 44
1.25
 73
     0
 74
     0
 77
     1
 78
     8
140
2.5
141
2.5
143
0.0393700787
147
0.625
171
     3
172
     1
178
     0
271
     2
272
     2
274
     3
278
    44
283
     0
284
     8
340
11
  0
DIMSTYLE
105
170
102
{ACAD_REACTORS
330
16F
330
185
330
18F
330
3EA
330
3F4
102
}
330
A
100
AcDbSymbolTableRecord
100
AcDbDimStyleTableRecord
  2
SLDDIMSTYLE0
 70
     0
 41
3.302
 44
0.0
 45
0.000000001
 73
     0
 74
     0
 77
     1
 78
    12
 79
     3
140
3.5
147
0.875
173
     1
178
     0
271
     0
272
     0
276
     2
284
    12
340
B1
  0
DIMSTYLE
105
17B
102
{ACAD_REACTORS
330
17A
102
}
330
A
100
AcDbSymbolTableRecord
100
AcDbDimStyleTableRecord
  2
SLDDIMSTYLE1
 70
     0
 41
3.302
 44
0.0
 45
0.000000001
 73
     0
 74
     0
 77
     1
 78
    12
 79
     3
140
3.5
147
0.875
173
     1
178
     0
271
     0
272
     2
276
     2
284
    12
340
B1
  0
DIMSTYLE
105
19A
102
{ACAD_REACTORS
330
199
102
}
330
A
100
AcDbSymbolTableRecord
100
AcDbDimStyleTableRecord
  2
SLDDIMSTYLE2
 70
     0
  3
<>
 41
3.302
 44
0.0
 45
0.000000001
 73
     0
 74
     0
 77
     1
 78
    12
 79
     3
140
3.5
141
0.0
147
0.875
172
     1
173
     1
178
     0
271
     0
272
     0
276
     2
284
    12
340
B1
341
19B
343
19B
  0
DIMSTYLE
105
1A6
102
{ACAD_REACTORS
330
1A5
330
40C
102
}
330
A
100
AcDbSymbolTableRecord
100
AcDbDimStyleTableRecord
  2
SLDDIMSTYLE3
 70
     0
 41
3.302
 44
0.0
 45
0.000000001
 73
     0
 74
     0
 77
     1
 78
    12
 79
     3
140
3.5
147
0.875
172
     1
173
     1
178
     0
271
     0
272
     0
276
     2
284
    12
289
     0
340
B1
  0
DIMSTYLE
105
1B3
102
{ACAD_REACTORS
330
1B2
102
}
330
A
100
AcDbSymbolTableRecord
100
AcDbDimStyleTableRecord
  2
SLDDIMSTYLE4
 70
     0
 41
3.302
 44
0.0
 45
0.000000001
 73
     0
 74
     0
 77
     1
 78
    12
 79
     3
140
3.5
141
0.0
147
0.875
172
     1
173
     1
178
     0
271
     0
272
     0
276
     2
284
    12
340
B1
341
19B
343
19B
  0
DIMSTYLE
105
264
102
{ACAD_REACTORS
330
263
330
278
102
}
330
A
100
AcDbSymbolTableRecord
100
AcDbDimStyleTableRecord
  2
SLDDIMSTYLE5
 70
     0
 41
3.302
 44
0.0
 45
0.000000001
 73
     0
 74
     0
 77
     1
 78
    12
 79
     3
140
3.5
144
0.9515935922
147
0.875
173
     1
178
     0
271
     1
272
     1
276
     2
284
    12
340
B1
  0
DIMSTYLE
105
26F
102
{ACAD_REACTORS
330
26E
102
}
330
A
100
AcDbSymbolTableRecord
100
AcDbDimStyleTableRecord
  2
SLDDIMSTYLE6
 70
     0
 41
3.302
 44
0.0
 45
0.000000001
 73
     0
 74
     0
 77
     1
 78
    12
 79
     3
140
3.5
141
0.0
144
0.9515935922
147
0.875
172
     1
173
     1
178
     0
271
     0
272
     0
276
     2
284
    12
340
B1
341
19B
343
19B
  0
DIMSTYLE
105
3FF
102
{ACAD_REACTORS
330
3FE
102
}
330
A
100
AcDbSymbolTableRecord
100
AcDbDimStyleTableRecord
  2
SLDDIMSTYLE7
 70
     0
 41
3.302
 44
0.0
 45
0.000000001
 73
     0
 74
     0
 77
     1
 78
    12
 79
     3
140
3.5
147
0.875
172
     1
173
     1
178
     0
271
     1
272
     1
276
     2
284
    12
289
     0
340
B1
  0
DIMSTYLE
105
41A
102
{ACAD_REACTORS
330
419
102
}
330
A
100
AcDbSymbolTableRecord
100
AcDbDimStyleTableRecord
  2
SLDDIMSTYLE8
 70
     0
 41
3.302
 44
0.0
 45
0.000000001
 73
     0
 74
     0
 77
     1
 78
    12
 79
     3
140
3.5
147
0.875
173
     1
178
     0
271
     1
272
     1
276
     2
284
    12
340
B1
  0
ENDTAB
  0
TABLE
  2
BLOCK_RECORD
  5
1
330
0
100
AcDbSymbolTable
 70
    31
  0
BLOCK_RECORD
  5
1F
330
1
100
AcDbSymbolTableRecord
100
AcDbBlockTableRecord
  2
*Model_Space
340
22
  0
BLOCK_RECORD
  5
1B
330
1
100
AcDbSymbolTableRecord
100
AcDbBlockTableRecord
  2
*Paper_Space
340
1E
  0
BLOCK_RECORD
  5
23
330
1
100
AcDbSymbolTableRecord
100
AcDbBlockTableRecord
  2
*Paper_Space0
340
26
  0
BLOCK_RECORD
  5
C1
330
1
100
AcDbSymbolTableRecord
100
AcDbBlockTableRecord
  2
SW_NOTE_0
340
0
102
{BLKREFS
331
C6
102
}
  0
BLOCK_RECORD
  5
C8
330
1
100
AcDbSymbolTableRecord
100
AcDbBlockTableRecord
  2
SW_NOTE_0_1
340
0
102
{BLKREFS
331
D1
102
}
  0
BLOCK_RECORD
  5
171
330
1
100
AcDbSymbolTableRecord
100
AcDbBlockTableRecord
  2
_D
340
0
  0
BLOCK_RECORD
  5
17C
330
1
100
AcDbSymbolTableRecord
100
AcDbBlockTableRecord
  2
_D_1
340
0
  0
BLOCK_RECORD
  5
186
330
1
100
AcDbSymbolTableRecord
100
AcDbBlockTableRecord
  2
_D_2
340
0
  0
BLOCK_RECORD
  5
190
330
1
100
AcDbSymbolTableRecord
100
AcDbBlockTableRecord
  2
_D_3
340
0
  0
BLOCK_RECORD
  5
19B
330
1
100
AcDbSymbolTableRecord
100
AcDbBlockTableRecord
  2
_None
340
0
  0
BLOCK_RECORD
  5
19E
330
1
100
AcDbSymbolTableRecord
100
AcDbBlockTableRecord
  2
_D_4
340
0
  0
BLOCK_RECORD
  5
1A7
330
1
100
AcDbSymbolTableRecord
100
AcDbBlockTableRecord
  2
_D_5
340
0
  0
BLOCK_RECORD
  5
1B4
330
1
100
AcDbSymbolTableRecord
100
AcDbBlockTableRecord
  2
_D_6
340
0
  0
BLOCK_RECORD
  5
1BE
330
1
100
AcDbSymbolTableRecord
100
AcDbBlockTableRecord
  2
SW_CENTERMARKSYMBOL_0
340
0
102
{BLKREFS
331
1C9
102
}
  0
BLOCK_RECORD
  5
1CA
330
1
100
AcDbSymbolTableRecord
100
AcDbBlockTableRecord
  2
SW_CENTERMARKSYMBOL_1
340
0
102
{BLKREFS
331
1D5
102
}
  0
BLOCK_RECORD
  5
1D6
330
1
100
AcDbSymbolTableRecord
100
AcDbBlockTableRecord
  2
SW_CENTERMARKSYMBOL_2
340
0
102
{BLKREFS
331
1E1
102
}
  0
BLOCK_RECORD
  5
1E2
330
1
100
AcDbSymbolTableRecord
100
AcDbBlockTableRecord
  2
SW_CENTERMARKSYMBOL_3
340
0
102
{BLKREFS
331
1ED
102
}
  0
BLOCK_RECORD
  5
1EE
330
1
100
AcDbSymbolTableRecord
100
AcDbBlockTableRecord
  2
SW_CENTERMARKSYMBOL_4
340
0
102
{BLKREFS
331
1F9
102
}
  0
BLOCK_RECORD
  5
265
330
1
100
AcDbSymbolTableRecord
100
AcDbBlockTableRecord
  2
_D_7
340
0
  0
BLOCK_RECORD
  5
270
330
1
100
AcDbSymbolTableRecord
100
AcDbBlockTableRecord
  2
_D_8
340
0
  0
BLOCK_RECORD
  5
279
330
1
100
AcDbSymbolTableRecord
100
AcDbBlockTableRecord
  2
_D_9
340
0
  0
BLOCK_RECORD
  5
282
330
1
100
AcDbSymbolTableRecord
100
AcDbBlockTableRecord
  2
SW_CENTERMARKSYMBOL_5
340
0
102
{BLKREFS
331
28D
102
}
  0
BLOCK_RECORD
  5
28E
330
1
100
AcDbSymbolTableRecord
100
AcDbBlockTableRecord
  2
SW_CENTERMARKSYMBOL_6
340
0
102
{BLKREFS
331
299
102
}
  0
BLOCK_RECORD
  5
29A
330
1
100
AcDbSymbolTableRecord
100
AcDbBlockTableRecord
  2
SW_CENTERMARKSYMBOL_7
340
0
102
{BLKREFS
331
2A5
102
}
  0
BLOCK_RECORD
  5
2A6
330
1
100
AcDbSymbolTableRecord
100
AcDbBlockTableRecord
  2
SW_CENTERMARKSYMBOL_8
340
0
102
{BLKREFS
331
2B1
102
}
  0
BLOCK_RECORD
  5
2B2
330
1
100
AcDbSymbolTableRecord
100
AcDbBlockTableRecord
  2
SW_CENTERMARKSYMBOL_9
340
0
102
{BLKREFS
331
2BD
102
}
  0
BLOCK_RECORD
  5
2BE
330
1
100
AcDbSymbolTableRecord
100
AcDbBlockTableRecord
  2
SW_CENTERMARKSYMBOL_10
340
0
102
{BLKREFS
331
2C9
102
}
  0
BLOCK_RECORD
  5
3EB
330
1
100
AcDbSymbolTableRecord
100
AcDbBlockTableRecord
  2
_D_10
340
0
  0
BLOCK_RECORD
  5
3F5
330
1
100
AcDbSymbolTableRecord
100
AcDbBlockTableRecord
  2
_D_11
340
0
  0
BLOCK_RECORD
  5
400
330
1
100
AcDbSymbolTableRecord
100
AcDbBlockTableRecord
  2
_D_12
340
0
  0
BLOCK_RECORD
  5
40D
330
1
100
AcDbSymbolTableRecord
100
AcDbBlockTableRecord
  2
_D_13
340
0
  0
BLOCK_RECORD
  5
41B
330
1
100
AcDbSymbolTableRecord
100
AcDbBlockTableRecord
  2
_D_14
340
0
  0
BLOCK_RECORD
  5
424
330
1
100
AcDbSymbolTableRecord
100
AcDbBlockTableRecord
  2
SW_CENTERMARKSYMBOL_11
340
0
102
{BLKREFS
331
42F
102
}
  0
ENDTAB
  0
ENDSEC
  0
SECTION
  2
BLOCKS
  0
BLOCK
  5
20
330
1F
100
AcDbEntity
  8
0
100
AcDbBlockBegin
  2
*Model_Space
 70
     0
 10
0.0
 20
0.0
 30
0.0
  3
*Model_Space
  1

  0
ENDBLK
  5
21
330
1F
100
AcDbEntity
  8
0
100
AcDbBlockEnd
  0
BLOCK
  5
1C
330
1B
100
AcDbEntity
 67
     1
  8
0
100
AcDbBlockBegin
  2
*Paper_Space
 70
     0
 10
0.0
 20
0.0
 30
0.0
  3
*Paper_Space
  1

  0
ENDBLK
  5
1D
330
1B
100
AcDbEntity
 67
     1
  8
0
100
AcDbBlockEnd
  0
BLOCK
  5
24
330
23
100
AcDbEntity
  8
0
100
AcDbBlockBegin
  2
*Paper_Space0
 70
     0
 10
0.0
 20
0.0
 30
0.0
  3
*Paper_Space0
  1

  0
ENDBLK
  5
25
330
23
100
AcDbEntity
  8
0
100
AcDbBlockEnd
  0
BLOCK
  5
C2
330
C1
100
AcDbEntity
  8
0
100
AcDbBlockBegin
  2
SW_NOTE_0
 70
     0
 10
0.0
 20
0.0
 30
0.0
  3
SW_NOTE_0
  1

  0
MTEXT
  5
C4
330
C1
100
AcDbEntity
  8
0
  6
Continuous
 62
     0
370
     0
100
AcDbMText
 10
0.0
 20
1.9336016097
 30
0.0
 40
1.5
 41
0.0
 71
     1
 72
     1
  1
ODSTRANIT
  7
SLDTEXTSTYLE0
 73
     1
 44
1.0
  0
MTEXT
  5
C5
330
C1
100
AcDbEntity
  8
0
  6
Continuous
 62
     0
370
     0
100
AcDbMText
 10
0.0
 20
-0.5663983345
 30
0.0
 40
1.5
 41
0.0
 71
     1
 72
     1
  1
OSTRÉ HRANY
  7
SLDTEXTSTYLE0
 73
     1
 44
1.0
  0
ENDBLK
  5
C3
330
C1
100
AcDbEntity
  8
0
100
AcDbBlockEnd
  0
BLOCK
  5
C9
330
C8
100
AcDbEntity
  8
0
100
AcDbBlockBegin
  2
SW_NOTE_0_1
 70
     0
 10
0.0
 20
0.0
 30
0.0
  3
SW_NOTE_0_1
  1

  0
MTEXT
  5
CB
330
C8
100
AcDbEntity
  8
0
  6
Continuous
 62
     0
370
     0
100
AcDbMText
 10
0.0
 20
1.9336016097
 30
0.0
 40
1.5
 41
0.0
 71
     1
 72
     1
  1
POKUD NENÍ UVEDENO JINAK:
  7
SLDTEXTSTYLE0
 73
     1
 44
1.0
  0
MTEXT
  5
CC
330
C8
100
AcDbEntity
  8
0
  6
Continuous
 62
     0
370
     0
100
AcDbMText
 10
0.0
 20
-0.5663983345
 30
0.0
 40
1.5
 41
0.0
 71
     1
 72
     1
  1
JEDNOTKY JSOU V MILIMETRECH
  7
SLDTEXTSTYLE0
 73
     1
 44
1.0
  0
MTEXT
  5
CD
330
C8
100
AcDbEntity
  8
0
  6
Continuous
 62
     0
370
     0
100
AcDbMText
 10
0.0
 20
-3.0663982786
 30
0.0
 40
1.5
 41
0.0
 71
     1
 72
     1
  1
DRSNOST:
  7
SLDTEXTSTYLE0
 73
     1
 44
1.0
  0
MTEXT
  5
CE
330
C8
100
AcDbEntity
  8
0
  6
Continuous
 62
     0
370
     0
100
AcDbMText
 10
0.0
 20
-5.5663982227
 30
0.0
 40
1.5
 41
0.0
 71
     1
 72
     1
  1
TOLERANCE:
  7
SLDTEXTSTYLE0
 73
     1
 44
1.0
  0
MTEXT
  5
CF
330
C8
100
AcDbEntity
  8
0
  6
Continuous
 62
     0
370
     0
100
AcDbMText
 10
1.6875
 20
-8.0663981668
 30
0.0
 40
1.5
 41
0.0
 71
     1
 72
     1
  1
LINEÁRNÍ:
  7
SLDTEXTSTYLE0
 73
     1
 44
1.0
  0
MTEXT
  5
D0
330
C8
100
AcDbEntity
  8
0
  6
Continuous
 62
     0
370
     0
100
AcDbMText
 10
1.6875
 20
-10.5663981109
 30
0.0
 40
1.5
 41
0.0
 71
     1
 72
     1
  1
ÚHLOVÁ:
  7
SLDTEXTSTYLE0
 73
     1
 44
1.0
  0
ENDBLK
  5
CA
330
C8
100
AcDbEntity
  8
0
100
AcDbBlockEnd
  0
BLOCK
  5
172
330
171
100
AcDbEntity
  8
0
100
AcDbBlockBegin
  2
_D
 70
     0
 10
0.0
 20
0.0
 30
0.0
  3
_D
  1

  0
SOLID
  5
174
330
171
100
AcDbEntity
  8
0
  6
Continuous
 62
     7
370
    18
100
AcDbTrace
 10
95.94
 20
169.8125126266
 30
0.0
 11
99.242
 21
169.3045126266
 31
0.0
 12
99.242
 22
170.3205126266
 32
0.0
 13
99.242
 23
170.3205126266
 33
0.0
  0
SOLID
  5
175
330
171
100
AcDbEntity
  8
0
  6
Continuous
 62
     7
370
    18
100
AcDbTrace
 10
150.94
 20
169.8125126266
 30
0.0
 11
147.638
 21
170.3205126266
 31
0.0
 12
147.638
 22
169.3045126266
 32
0.0
 13
147.638
 23
169.3045126266
 33
0.0
  0
LINE
  5
176
330
171
100
AcDbEntity
  8
0
  6
Continuous
 62
     7
370
     0
100
AcDbLine
 10
95.94
 20
181.0625126266
 30
0.0
 11
95.94
 21
168.8125126266
 31
0.0
  0
LINE
  5
177
330
171
100
AcDbEntity
  8
0
  6
Continuous
 62
     7
370
     0
100
AcDbLine
 10
150.94
 20
181.0625126266
 30
0.0
 11
150.94
 21
168.8125126266
 31
0.0
  0
LINE
  5
178
330
171
100
AcDbEntity
  8
0
  6
Continuous
 62
     7
370
     0
100
AcDbLine
 10
95.94
 20
169.8125126266
 30
0.0
 11
150.94
 21
169.8125126266
 31
0.0
  0
MTEXT
  5
179
330
171
100
AcDbEntity
  8
0
  6
Continuous
 62
     7
370
    18
100
AcDbMText
 10
120.8538888065
 20
174.3242495412
 30
0.0
 40
3.5
 41
0.0
 71
     1
 72
     1
  1
55
  7
SLDTEXTSTYLE0
 73
     1
 44
1.0
  0
ENDBLK
  5
173
330
171
100
AcDbEntity
  8
0
100
AcDbBlockEnd
  0
BLOCK
  5
17D
330
17C
100
AcDbEntity
  8
0
100
AcDbBlockBegin
  2
_D_1
 70
     0
 10
0.0
 20
0.0
 30
0.0
  3
_D_1
  1

  0
SOLID
  5
17F
330
17C
100
AcDbEntity
  8
0
  6
Continuous
 62
     7
370
    18
100
AcDbTrace
 10
160.94
 20
163.8125126266
 30
0.0
 11
157.638
 21
164.3205126266
 31
0.0
 12
157.638
 22
163.3045126266
 32
0.0
 13
157.638
 23
163.3045126266
 33
0.0
  0
SOLID
  5
180
330
17C
100
AcDbEntity
  8
0
  6
Continuous
 62
     7
370
    18
100
AcDbTrace
 10
85.94
 20
163.8125126266
 30
0.0
 11
89.242
 21
163.3045126266
 31
0.0
 12
89.242
 22
164.3205126266
 32
0.0
 13
89.242
 23
164.3205126266
 33
0.0
  0
LINE
  5
181
330
17C
100
AcDbEntity
  8
0
  6
Continuous
 62
     7
370
     0
100
AcDbLine
 10
160.94
 20
181.8125126266
 30
0.0
 11
160.94
 21
162.8125126266
 31
0.0
  0
LINE
  5
182
330
17C
100
AcDbEntity
  8
0
  6
Continuous
 62
     7
370
     0
100
AcDbLine
 10
85.94
 20
181.8125126266
 30
0.0
 11
85.94
 21
162.8125126266
 31
0.0
  0
LINE
  5
183
330
17C
100
AcDbEntity
  8
0
  6
Continuous
 62
     7
370
     0
100
AcDbLine
 10
160.94
 20
163.8125126266
 30
0.0
 11
85.94
 21
163.8125126266
 31
0.0
  0
MTEXT
  5
184
330
17C
100
AcDbEntity
  8
0
  6
Continuous
 62
     7
370
    18
100
AcDbMText
 10
120.8538888065
 20
168.3242495412
 30
0.0
 40
3.5
 41
0.0
 71
     1
 72
     1
  1
75
  7
SLDTEXTSTYLE0
 73
     1
 44
1.0
  0
ENDBLK
  5
17E
330
17C
100
AcDbEntity
  8
0
100
AcDbBlockEnd
  0
BLOCK
  5
187
330
186
100
AcDbEntity
  8
0
100
AcDbBlockBegin
  2
_D_2
 70
     0
 10
0.0
 20
0.0
 30
0.0
  3
_D_2
  1

  0
SOLID
  5
189
330
186
100
AcDbEntity
  8
0
  6
Continuous
 62
     7
370
    18
100
AcDbTrace
 10
170.94
 20
189.8125126266
 30
0.0
 11
171.448
 21
193.1145126266
 31
0.0
 12
170.432
 22
193.1145126266
 32
0.0
 13
170.432
 23
193.1145126266
 33
0.0
  0
SOLID
  5
18A
330
186
100
AcDbEntity
  8
0
  6
Continuous
 62
     7
370
    18
100
AcDbTrace
 10
170.94
 20
224.8125126266
 30
0.0
 11
170.432
 21
221.5105126266
 31
0.0
 12
171.448
 22
221.5105126266
 32
0.0
 13
171.448
 23
221.5105126266
 33
0.0
  0
LINE
  5
18B
330
186
100
AcDbEntity
  8
0
  6
Continuous
 62
     7
370
     0
100
AcDbLine
 10
159.69
 20
189.8125126266
 30
0.0
 11
171.94
 21
189.8125126266
 31
0.0
  0
LINE
  5
18C
330
186
100
AcDbEntity
  8
0
  6
Continuous
 62
     7
370
     0
100
AcDbLine
 10
159.69
 20
224.8125126266
 30
0.0
 11
171.94
 21
224.8125126266
 31
0.0
  0
LINE
  5
18D
330
186
100
AcDbEntity
  8
0
  6
Continuous
 62
     7
370
     0
100
AcDbLine
 10
170.94
 20
189.8125126266
 30
0.0
 11
170.94
 21
224.8125126266
 31
0.0
  0
MTEXT
  5
18E
330
186
100
AcDbEntity
  8
0
  6
Continuous
 62
     7
370
    18
100
AcDbMText
 10
166.4282630855
 20
204.7264014331
 30
0.0
 40
3.5
 41
0.0
 71
     1
 72
     1
  1
35
  7
SLDTEXTSTYLE0
 11
6.123233995736766E-17
 21
1.0
 31
0.0
 73
     1
 44
1.0
  0
ENDBLK
  5
188
330
186
100
AcDbEntity
  8
0
100
AcDbBlockEnd
  0
BLOCK
  5
191
330
190
100
AcDbEntity
  8
0
100
AcDbBlockBegin
  2
_D_3
 70
     0
 10
0.0
 20
0.0
 30
0.0
  3
_D_3
  1

  0
SOLID
  5
193
330
190
100
AcDbEntity
  8
0
  6
Continuous
 62
     7
370
    18
100
AcDbTrace
 10
176.94
 20
179.8125126266
 30
0.0
 11
177.448
 21
183.1145126266
 31
0.0
 12
176.432
 22
183.1145126266
 32
0.0
 13
176.432
 23
183.1145126266
 33
0.0
  0
SOLID
  5
194
330
190
100
AcDbEntity
  8
0
  6
Continuous
 62
     7
370
    18
100
AcDbTrace
 10
176.94
 20
234.8125126266
 30
0.0
 11
176.432
 21
231.5105126266
 31
0.0
 12
177.448
 22
231.5105126266
 32
0.0
 13
177.448
 23
231.5105126266
 33
0.0
  0
LINE
  5
195
330
190
100
AcDbEntity
  8
0
  6
Continuous
 62
     7
370
     0
100
AcDbLine
 10
158.94
 20
179.8125126266
 30
0.0
 11
177.94
 21
179.8125126266
 31
0.0
  0
LINE
  5
196
330
190
100
AcDbEntity
  8
0
  6
Continuous
 62
     7
370
     0
100
AcDbLine
 10
158.94
 20
234.8125126266
 30
0.0
 11
177.94
 21
234.8125126266
 31
0.0
  0
LINE
  5
197
330
190
100
AcDbEntity
  8
0
  6
Continuous
 62
     7
370
     0
100
AcDbLine
 10
176.94
 20
179.8125126266
 30
0.0
 11
176.94
 21
234.8125126266
 31
0.0
  0
MTEXT
  5
198
330
190
100
AcDbEntity
  8
0
  6
Continuous
 62
     7
370
    18
100
AcDbMText
 10
172.4282630855
 20
204.7264014331
 30
0.0
 40
3.5
 41
0.0
 71
     1
 72
     1
  1
55
  7
SLDTEXTSTYLE0
 11
6.123233995736766E-17
 21
1.0
 31
0.0
 73
     1
 44
1.0
  0
ENDBLK
  5
192
330
190
100
AcDbEntity
  8
0
100
AcDbBlockEnd
  0
BLOCK
  5
19C
330
19B
100
AcDbEntity
  8
0
100
AcDbBlockBegin
  2
_None
 70
     0
 10
0.0
 20
0.0
 30
0.0
  3
_None
  1

  0
ENDBLK
  5
19D
330
19B
100
AcDbEntity
  8
0
100
AcDbBlockEnd
  0
BLOCK
  5
19F
330
19E
100
AcDbEntity
  8
0
100
AcDbBlockBegin
  2
_D_4
 70
     0
 10
0.0
 20
0.0
 30
0.0
  3
_D_4
  1

  0
SOLID
  5
1A1
330
19E
100
AcDbEntity
  8
0
  6
Continuous
 62
     7
370
    18
100
AcDbTrace
 10
119.5155573644
 20
211.2369552622
 30
0.0
 11
117.5399010178
 21
213.9310320985
 31
0.0
 12
116.8214805281
 22
213.2126116088
 32
0.0
 13
116.8214805281
 23
213.2126116088
 33
0.0
  0
LINE
  5
1A2
330
19E
100
AcDbEntity
  8
0
  6
Continuous
 62
     7
370
     0
100
AcDbLine
 10
119.5155573644
 20
211.2369552622
 30
0.0
 11
69.3967627279
 21
261.3557498988
 31
0.0
  0
LINE
  5
1A3
330
19E
100
AcDbEntity
  8
0
  6
Continuous
 62
     7
370
     0
100
AcDbLine
 10
119.5155573644
 20
211.2369552622
 30
0.0
 11
127.3644426356
 21
203.388069991
 31
0.0
  0
MTEXT
  5
1A4
330
19E
100
AcDbEntity
  8
0
  6
Continuous
 62
     7
370
    18
100
AcDbMText
 10
72.5853103307
 20
264.5442975017
 30
0.0
 40
3.5
 41
0.0
 71
     1
 72
     1
  1
M12x1.75
  7
SLDTEXTSTYLE0
 11
0.7071067811865426
 21
-0.7071067811865526
 31
0.0
 73
     1
 44
1.0
  0
ENDBLK
  5
1A0
330
19E
100
AcDbEntity
  8
0
100
AcDbBlockEnd
  0
BLOCK
  5
1A8
330
1A7
100
AcDbEntity
  8
0
100
AcDbBlockBegin
  2
_D_5
 70
     0
 10
0.0
 20
0.0
 30
0.0
  3
_D_5
  1

  0
SOLID
  5
1AA
330
1A7
100
AcDbEntity
  8
0
  6
Continuous
 62
     7
370
    18
100
AcDbTrace
 10
170.94
 20
234.8125126266
 30
0.0
 11
170.432
 21
231.5105126266
 31
0.0
 12
171.448
 22
231.5105126266
 32
0.0
 13
171.448
 23
231.5105126266
 33
0.0
  0
SOLID
  5
1AB
330
1A7
100
AcDbEntity
  8
0
  6
Continuous
 62
     7
370
    18
100
AcDbTrace
 10
170.94
 20
242.8125126266
 30
0.0
 11
171.448
 21
246.1145126266
 31
0.0
 12
170.432
 22
246.1145126266
 32
0.0
 13
170.432
 23
246.1145126266
 33
0.0
  0
LINE
  5
1AC
330
1A7
100
AcDbEntity
  8
0
  6
Continuous
 62
     7
370
     0
100
AcDbLine
 10
158.94
 20
234.8125126266
 30
0.0
 11
171.94
 21
234.8125126266
 31
0.0
  0
LINE
  5
1AD
330
1A7
100
AcDbEntity
  8
0
  6
Continuous
 62
     7
370
     0
100
AcDbLine
 10
126.79
 20
242.8125126266
 30
0.0
 11
171.94
 21
242.8125126266
 31
0.0
  0
LINE
  5
1AE
330
1A7
100
AcDbEntity
  8
0
  6
Continuous
 62
     7
370
     0
100
AcDbLine
 10
170.94
 20
234.8125126266
 30
0.0
 11
170.94
 21
228.4625126266
 31
0.0
  0
LINE
  5
1AF
330
1A7
100
AcDbEntity
  8
0
  6
Continuous
 62
     7
370
     0
100
AcDbLine
 10
170.94
 20
234.8125126266
 30
0.0
 11
170.94
 21
242.8125126266
 31
0.0
  0
LINE
  5
1B0
330
1A7
100
AcDbEntity
  8
0
  6
Continuous
 62
     7
370
     0
100
AcDbLine
 10
170.94
 20
242.8125126266
 30
0.0
 11
170.94
 21
249.1625126266
 31
0.0
  0
MTEXT
  5
1B1
330
1A7
100
AcDbEntity
  8
0
  6
Continuous
 62
     7
370
    18
100
AcDbMText
 10
166.4282630855
 20
237.5194570299
 30
0.0
 40
3.5
 41
0.0
 71
     1
 72
     1
  1
8
  7
SLDTEXTSTYLE0
 11
6.123233995736766E-17
 21
1.0
 31
0.0
 73
     1
 44
1.0
  0
ENDBLK
  5
1A9
330
1A7
100
AcDbEntity
  8
0
100
AcDbBlockEnd
  0
BLOCK
  5
1B5
330
1B4
100
AcDbEntity
  8
0
100
AcDbBlockBegin
  2
_D_6
 70
     0
 10
0.0
 20
0.0
 30
0.0
  3
_D_6
  1

  0
SOLID
  5
1B7
330
1B4
100
AcDbEntity
  8
0
  6
Continuous
 62
     7
370
    18
100
AcDbTrace
 10
115.661825407
 20
199.5343380336
 30
0.0
 11
112.9677485706
 21
197.5586816869
 31
0.0
 12
113.6861690603
 22
196.8402611973
 32
0.0
 13
113.6861690603
 23
196.8402611973
 33
0.0
  0
LINE
  5
1B8
330
1B4
100
AcDbEntity
  8
0
  6
Continuous
 62
     7
370
     0
100
AcDbLine
 10
115.661825407
 20
199.5343380336
 30
0.0
 11
96.4788153673
 21
180.3513279939
 31
0.0
  0
LINE
  5
1B9
330
1B4
100
AcDbEntity
  8
0
  6
Continuous
 62
     7
370
     0
100
AcDbLine
 10
95.4011846328
 20
179.2736972594
 30
0.0
 11
86.4788153673
 21
170.3513279939
 31
0.0
  0
LINE
  5
1BA
330
1B4
100
AcDbEntity
  8
0
  6
Continuous
 62
     7
370
     0
100
AcDbLine
 10
85.4011846328
 20
169.2736972594
 30
0.0
 11
82.2974721651
 21
166.1699847917
 31
0.0
  0
LINE
  5
1BB
330
1B4
100
AcDbEntity
  8
0
  6
Continuous
 62
     7
370
     0
100
AcDbLine
 10
115.661825407
 20
199.5343380336
 30
0.0
 11
131.2181745931
 21
215.0906872197
 31
0.0
  0
MTEXT
  5
1BC
330
1B4
100
AcDbEntity
  8
0
  6
Continuous
 62
     7
370
    18
100
AcDbMText
 10
79.1099604054
 20
169.3574965515
 30
0.0
 40
3.5
 41
0.0
 71
     1
 72
     1
  1
%%c
  7
SLDTEXTSTYLE0
 11
0.7071067811865426
 21
0.7071067811865526
 31
0.0
 73
     1
 44
1.0
  0
MTEXT
  5
1BD
330
1B4
100
AcDbEntity
  8
0
  6
Continuous
 62
     7
370
    18
100
AcDbMText
 10
82.8045687451
 20
173.1277259686
 30
0.0
 40
3.5
 41
0.0
 71
     1
 72
     1
  1
22
  7
SLDTEXTSTYLE0
 11
0.7071067811865426
 21
0.7071067811865526
 31
0.0
 73
     1
 44
1.0
  0
ENDBLK
  5
1B6
330
1B4
100
AcDbEntity
  8
0
100
AcDbBlockEnd
  0
BLOCK
  5
1BF
330
1BE
100
AcDbEntity
  8
0
100
AcDbBlockBegin
  2
SW_CENTERMARKSYMBOL_0
 70
     0
 10
0.0
 20
0.0
 30
0.0
  3
SW_CENTERMARKSYMBOL_0
  1

  0
LINE
  5
1C1
330
1BE
100
AcDbEntity
  8
0
  6
Continuous
 62
     0
370
    18
100
AcDbLine
 10
0.0
 20
0.0
 30
0.0
 11
0.0
 21
2.5
 31
0.0
  0
LINE
  5
1C2
330
1BE
100
AcDbEntity
  8
0
  6
Continuous
 62
     0
370
    18
100
AcDbLine
 10
0.0
 20
0.0
 30
0.0
 11
-2.5
 21
0.0
 31
0.0
  0
LINE
  5
1C3
330
1BE
100
AcDbEntity
  8
0
  6
Continuous
 62
     0
370
    18
100
AcDbLine
 10
0.0
 20
0.0
 30
0.0
 11
0.0
 21
-2.5
 31
0.0
  0
LINE
  5
1C4
330
1BE
100
AcDbEntity
  8
0
  6
Continuous
 62
     0
370
    18
100
AcDbLine
 10
0.0
 20
0.0
 30
0.0
 11
2.5
 21
0.0
 31
0.0
  0
LINE
  5
1C5
330
1BE
100
AcDbEntity
  8
0
  6
Continuous
 62
     0
370
    18
100
AcDbLine
 10
0.0
 20
5.0
 30
0.0
 11
0.0
 21
25.0
 31
0.0
  0
LINE
  5
1C6
330
1BE
100
AcDbEntity
  8
0
  6
Continuous
 62
     0
370
    18
100
AcDbLine
 10
-5.0
 20
0.0
 30
0.0
 11
-25.0
 21
0.0
 31
0.0
  0
LINE
  5
1C7
330
1BE
100
AcDbEntity
  8
0
  6
Continuous
 62
     0
370
    18
100
AcDbLine
 10
0.0
 20
-5.0
 30
0.0
 11
0.0
 21
-25.0
 31
0.0
  0
LINE
  5
1C8
330
1BE
100
AcDbEntity
  8
0
  6
Continuous
 62
     0
370
    18
100
AcDbLine
 10
5.0
 20
0.0
 30
0.0
 11
25.0
 21
0.0
 31
0.0
  0
ENDBLK
  5
1C0
330
1BE
100
AcDbEntity
  8
0
100
AcDbBlockEnd
  0
BLOCK
  5
1CB
330
1CA
100
AcDbEntity
  8
0
100
AcDbBlockBegin
  2
SW_CENTERMARKSYMBOL_1
 70
     0
 10
0.0
 20
0.0
 30
0.0
  3
SW_CENTERMARKSYMBOL_1
  1

  0
LINE
  5
1CD
330
1CA
100
AcDbEntity
  8
0
  6
Continuous
 62
     0
370
    18
100
AcDbLine
 10
0.0
 20
0.0
 30
0.0
 11
0.0
 21
2.5
 31
0.0
  0
LINE
  5
1CE
330
1CA
100
AcDbEntity
  8
0
  6
Continuous
 62
     0
370
    18
100
AcDbLine
 10
0.0
 20
0.0
 30
0.0
 11
-2.5
 21
0.0
 31
0.0
  0
LINE
  5
1CF
330
1CA
100
AcDbEntity
  8
0
  6
Continuous
 62
     0
370
    18
100
AcDbLine
 10
0.0
 20
0.0
 30
0.0
 11
0.0
 21
-2.5
 31
0.0
  0
LINE
  5
1D0
330
1CA
100
AcDbEntity
  8
0
  6
Continuous
 62
     0
370
    18
100
AcDbLine
 10
0.0
 20
0.0
 30
0.0
 11
2.5
 21
0.0
 31
0.0
  0
LINE
  5
1D1
330
1CA
100
AcDbEntity
  8
0
  6
Continuous
 62
     0
370
    18
100
AcDbLine
 10
0.0
 20
5.0
 30
0.0
 11
0.0
 21
7.75
 31
0.0
  0
LINE
  5
1D2
330
1CA
100
AcDbEntity
  8
0
  6
Continuous
 62
     0
370
    18
100
AcDbLine
 10
-5.0
 20
0.0
 30
0.0
 11
-7.75
 21
0.0
 31
0.0
  0
LINE
  5
1D3
330
1CA
100
AcDbEntity
  8
0
  6
Continuous
 62
     0
370
    18
100
AcDbLine
 10
0.0
 20
-5.0
 30
0.0
 11
0.0
 21
-7.75
 31
0.0
  0
LINE
  5
1D4
330
1CA
100
AcDbEntity
  8
0
  6
Continuous
 62
     0
370
    18
100
AcDbLine
 10
5.0
 20
0.0
 30
0.0
 11
7.75
 21
0.0
 31
0.0
  0
ENDBLK
  5
1CC
330
1CA
100
AcDbEntity
  8
0
100
AcDbBlockEnd
  0
BLOCK
  5
1D7
330
1D6
100
AcDbEntity
  8
0
100
AcDbBlockBegin
  2
SW_CENTERMARKSYMBOL_2
 70
     0
 10
0.0
 20
0.0
 30
0.0
  3
SW_CENTERMARKSYMBOL_2
  1

  0
LINE
  5
1D9
330
1D6
100
AcDbEntity
  8
0
  6
Continuous
 62
     0
370
    18
100
AcDbLine
 10
0.0
 20
0.0
 30
0.0
 11
0.0
 21
2.5
 31
0.0
  0
LINE
  5
1DA
330
1D6
100
AcDbEntity
  8
0
  6
Continuous
 62
     0
370
    18
100
AcDbLine
 10
0.0
 20
0.0
 30
0.0
 11
-2.5
 21
0.0
 31
0.0
  0
LINE
  5
1DB
330
1D6
100
AcDbEntity
  8
0
  6
Continuous
 62
     0
370
    18
100
AcDbLine
 10
0.0
 20
0.0
 30
0.0
 11
0.0
 21
-2.5
 31
0.0
  0
LINE
  5
1DC
330
1D6
100
AcDbEntity
  8
0
  6
Continuous
 62
     0
370
    18
100
AcDbLine
 10
0.0
 20
0.0
 30
0.0
 11
2.5
 21
0.0
 31
0.0
  0
LINE
  5
1DD
330
1D6
100
AcDbEntity
  8
0
  6
Continuous
 62
     0
370
    18
100
AcDbLine
 10
0.0
 20
5.0
 30
0.0
 11
0.0
 21
7.75
 31
0.0
  0
LINE
  5
1DE
330
1D6
100
AcDbEntity
  8
0
  6
Continuous
 62
     0
370
    18
100
AcDbLine
 10
-5.0
 20
0.0
 30
0.0
 11
-7.75
 21
0.0
 31
0.0
  0
LINE
  5
1DF
330
1D6
100
AcDbEntity
  8
0
  6
Continuous
 62
     0
370
    18
100
AcDbLine
 10
0.0
 20
-5.0
 30
0.0
 11
0.0
 21
-7.75
 31
0.0
  0
LINE
  5
1E0
330
1D6
100
AcDbEntity
  8
0
  6
Continuous
 62
     0
370
    18
100
AcDbLine
 10
5.0
 20
0.0
 30
0.0
 11
7.75
 21
0.0
 31
0.0
  0
ENDBLK
  5
1D8
330
1D6
100
AcDbEntity
  8
0
100
AcDbBlockEnd
  0
BLOCK
  5
1E3
330
1E2
100
AcDbEntity
  8
0
100
AcDbBlockBegin
  2
SW_CENTERMARKSYMBOL_3
 70
     0
 10
0.0
 20
0.0
 30
0.0
  3
SW_CENTERMARKSYMBOL_3
  1

  0
LINE
  5
1E5
330
1E2
100
AcDbEntity
  8
0
  6
Continuous
 62
     0
370
    18
100
AcDbLine
 10
0.0
 20
0.0
 30
0.0
 11
0.0
 21
2.5
 31
0.0
  0
LINE
  5
1E6
330
1E2
100
AcDbEntity
  8
0
  6
Continuous
 62
     0
370
    18
100
AcDbLine
 10
0.0
 20
0.0
 30
0.0
 11
-2.5
 21
0.0
 31
0.0
  0
LINE
  5
1E7
330
1E2
100
AcDbEntity
  8
0
  6
Continuous
 62
     0
370
    18
100
AcDbLine
 10
0.0
 20
0.0
 30
0.0
 11
0.0
 21
-2.5
 31
0.0
  0
LINE
  5
1E8
330
1E2
100
AcDbEntity
  8
0
  6
Continuous
 62
     0
370
    18
100
AcDbLine
 10
0.0
 20
0.0
 30
0.0
 11
2.5
 21
0.0
 31
0.0
  0
LINE
  5
1E9
330
1E2
100
AcDbEntity
  8
0
  6
Continuous
 62
     0
370
    18
100
AcDbLine
 10
0.0
 20
5.0
 30
0.0
 11
0.0
 21
7.75
 31
0.0
  0
LINE
  5
1EA
330
1E2
100
AcDbEntity
  8
0
  6
Continuous
 62
     0
370
    18
100
AcDbLine
 10
-5.0
 20
0.0
 30
0.0
 11
-7.75
 21
0.0
 31
0.0
  0
LINE
  5
1EB
330
1E2
100
AcDbEntity
  8
0
  6
Continuous
 62
     0
370
    18
100
AcDbLine
 10
0.0
 20
-5.0
 30
0.0
 11
0.0
 21
-7.75
 31
0.0
  0
LINE
  5
1EC
330
1E2
100
AcDbEntity
  8
0
  6
Continuous
 62
     0
370
    18
100
AcDbLine
 10
5.0
 20
0.0
 30
0.0
 11
7.75
 21
0.0
 31
0.0
  0
ENDBLK
  5
1E4
330
1E2
100
AcDbEntity
  8
0
100
AcDbBlockEnd
  0
BLOCK
  5
1EF
330
1EE
100
AcDbEntity
  8
0
100
AcDbBlockBegin
  2
SW_CENTERMARKSYMBOL_4
 70
     0
 10
0.0
 20
0.0
 30
0.0
  3
SW_CENTERMARKSYMBOL_4
  1

  0
LINE
  5
1F1
330
1EE
100
AcDbEntity
  8
0
  6
Continuous
 62
     0
370
    18
100
AcDbLine
 10
0.0
 20
0.0
 30
0.0
 11
0.0
 21
2.5
 31
0.0
  0
LINE
  5
1F2
330
1EE
100
AcDbEntity
  8
0
  6
Continuous
 62
     0
370
    18
100
AcDbLine
 10
0.0
 20
0.0
 30
0.0
 11
-2.5
 21
0.0
 31
0.0
  0
LINE
  5
1F3
330
1EE
100
AcDbEntity
  8
0
  6
Continuous
 62
     0
370
    18
100
AcDbLine
 10
0.0
 20
0.0
 30
0.0
 11
0.0
 21
-2.5
 31
0.0
  0
LINE
  5
1F4
330
1EE
100
AcDbEntity
  8
0
  6
Continuous
 62
     0
370
    18
100
AcDbLine
 10
0.0
 20
0.0
 30
0.0
 11
2.5
 21
0.0
 31
0.0
  0
LINE
  5
1F5
330
1EE
100
AcDbEntity
  8
0
  6
Continuous
 62
     0
370
    18
100
AcDbLine
 10
0.0
 20
5.0
 30
0.0
 11
0.0
 21
7.75
 31
0.0
  0
LINE
  5
1F6
330
1EE
100
AcDbEntity
  8
0
  6
Continuous
 62
     0
370
    18
100
AcDbLine
 10
-5.0
 20
0.0
 30
0.0
 11
-7.75
 21
0.0
 31
0.0
  0
LINE
  5
1F7
330
1EE
100
AcDbEntity
  8
0
  6
Continuous
 62
     0
370
    18
100
AcDbLine
 10
0.0
 20
-5.0
 30
0.0
 11
0.0
 21
-7.75
 31
0.0
  0
LINE
  5
1F8
330
1EE
100
AcDbEntity
  8
0
  6
Continuous
 62
     0
370
    18
100
AcDbLine
 10
5.0
 20
0.0
 30
0.0
 11
7.75
 21
0.0
 31
0.0
  0
ENDBLK
  5
1F0
330
1EE
100
AcDbEntity
  8
0
100
AcDbBlockEnd
  0
BLOCK
  5
266
330
265
100
AcDbEntity
  8
0
100
AcDbBlockBegin
  2
_D_7
 70
     0
 10
0.0
 20
0.0
 30
0.0
  3
_D_7
  1

  0
SOLID
  5
268
330
265
100
AcDbEntity
  8
0
  6
Continuous
 62
     7
370
    18
100
AcDbTrace
 10
123.44
 20
129.8059512243
 30
0.0
 11
126.742
 21
129.2979512243
 31
0.0
 12
126.742
 22
130.3139512243
 32
0.0
 13
126.742
 23
130.3139512243
 33
0.0
  0
SOLID
  5
269
330
265
100
AcDbEntity
  8
0
  6
Continuous
 62
     7
370
    18
100
AcDbTrace
 10
162.8475793581
 20
129.8059512243
 30
0.0
 11
159.5455793581
 21
130.3139512243
 31
0.0
 12
159.5455793581
 22
129.2979512243
 32
0.0
 13
159.5455793581
 23
129.2979512243
 33
0.0
  0
LINE
  5
26A
330
265
100
AcDbEntity
  8
0
  6
Continuous
 62
     7
370
     0
100
AcDbLine
 10
123.44
 20
94.3247285416
 30
0.0
 11
123.44
 21
130.8059512243
 31
0.0
  0
LINE
  5
26B
330
265
100
AcDbEntity
  8
0
  6
Continuous
 62
     7
370
     0
100
AcDbLine
 10
162.8475793581
 20
112.1894978506
 30
0.0
 11
162.8475793581
 21
130.8059512243
 31
0.0
  0
LINE
  5
26C
330
265
100
AcDbEntity
  8
0
  6
Continuous
 62
     7
370
     0
100
AcDbLine
 10
123.44
 20
129.8059512243
 30
0.0
 11
162.8475793581
 21
129.8059512243
 31
0.0
  0
MTEXT
  5
26D
330
265
100
AcDbEntity
  8
0
  6
Continuous
 62
     7
370
    18
100
AcDbMText
 10
134.8697374705
 20
134.3176881389
 30
0.0
 40
3.5
 41
0.0
 71
     1
 72
     1
  1
37,5
  7
SLDTEXTSTYLE0
 73
     1
 44
1.0
  0
ENDBLK
  5
267
330
265
100
AcDbEntity
  8
0
100
AcDbBlockEnd
  0
BLOCK
  5
271
330
270
100
AcDbEntity
  8
0
100
AcDbBlockBegin
  2
_D_8
 70
     0
 10
0.0
 20
0.0
 30
0.0
  3
_D_8
  1

  0
SOLID
  5
273
330
270
100
AcDbEntity
  8
0
  6
Continuous
 62
     7
370
    18
100
AcDbTrace
 10
153.1675702792
 20
86.5307433493
 30
0.0
 11
150.6048530908
 21
88.6740465505
 31
0.0
 12
150.0791303801
 22
87.8046377678
 32
0.0
 13
150.0791303801
 23
87.8046377678
 33
0.0
  0
LINE
  5
274
330
270
100
AcDbEntity
  8
0
  6
Continuous
 62
     7
370
     0
100
AcDbLine
 10
153.1675702792
 20
86.5307433493
 30
0.0
 11
140.7560016312
 21
94.0358935659
 31
0.0
  0
LINE
  5
275
330
270
100
AcDbEntity
  8
0
  6
Continuous
 62
     7
370
     0
100
AcDbLine
 10
153.1675702792
 20
86.5307433493
 30
0.0
 11
156.7645566938
 21
84.3556819905
 31
0.0
  0
MTEXT
  5
276
330
270
100
AcDbEntity
  8
0
  6
Continuous
 62
     7
370
    18
100
AcDbMText
 10
143.0577635823
 20
97.8424098439
 30
0.0
 40
3.5
 41
0.0
 71
     1
 72
     1
  1
%%c
  7
SLDTEXTSTYLE0
 11
0.8557173058128865
 21
-0.517443612901285
 31
0.0
 73
     1
 44
1.0
  0
MTEXT
  5
277
330
270
100
AcDbEntity
  8
0
  6
Continuous
 62
     7
370
    18
100
AcDbMText
 10
147.6022826481
 20
95.156873193
 30
0.0
 40
3.5
 41
0.0
 71
     1
 72
     1
  1
4
  7
SLDTEXTSTYLE0
 11
0.8557173058128865
 21
-0.517443612901285
 31
0.0
 73
     1
 44
1.0
  0
ENDBLK
  5
272
330
270
100
AcDbEntity
  8
0
100
AcDbBlockEnd
  0
BLOCK
  5
27A
330
279
100
AcDbEntity
  8
0
100
AcDbBlockBegin
  2
_D_9
 70
     0
 10
0.0
 20
0.0
 30
0.0
  3
_D_9
  1

  0
SOLID
  5
27C
330
279
100
AcDbEntity
  8
0
  6
Continuous
 62
     7
370
    18
100
AcDbTrace
 10
123.44
 20
48.6173560211
 30
0.0
 11
126.742
 21
48.1093560211
 31
0.0
 12
126.742
 22
49.1253560211
 32
0.0
 13
126.742
 23
49.1253560211
 33
0.0
  0
SOLID
  5
27D
330
279
100
AcDbEntity
  8
0
  6
Continuous
 62
     7
370
    18
100
AcDbTrace
 10
154.9660634865
 20
48.6173560211
 30
0.0
 11
151.6640634865
 21
49.1253560211
 31
0.0
 12
151.6640634865
 22
48.1093560211
 32
0.0
 13
151.6640634865
 23
48.1093560211
 33
0.0
  0
LINE
  5
27E
330
279
100
AcDbEntity
  8
0
  6
Continuous
 62
     7
370
     0
100
AcDbLine
 10
123.44
 20
76.5616967983
 30
0.0
 11
123.44
 21
47.6173560211
 31
0.0
  0
LINE
  5
27F
330
279
100
AcDbEntity
  8
0
  6
Continuous
 62
     7
370
     0
100
AcDbLine
 10
154.9660634865
 20
76.5616967983
 30
0.0
 11
154.9660634865
 21
47.6173560211
 31
0.0
  0
LINE
  5
280
330
279
100
AcDbEntity
  8
0
  6
Continuous
 62
     7
370
     0
100
AcDbLine
 10
123.44
 20
48.6173560211
 30
0.0
 11
154.9660634865
 21
48.6173560211
 31
0.0
  0
MTEXT
  5
281
330
279
100
AcDbEntity
  8
0
  6
Continuous
 62
     7
370
    18
100
AcDbMText
 10
133.5829985378
 20
53.1290929357
 30
0.0
 40
3.5
 41
0.0
 71
     1
 72
     1
  1
30,0
  7
SLDTEXTSTYLE0
 73
     1
 44
1.0
  0
ENDBLK
  5
27B
330
279
100
AcDbEntity
  8
0
100
AcDbBlockEnd
  0
BLOCK
  5
283
330
282
100
AcDbEntity
  8
0
100
AcDbBlockBegin
  2
SW_CENTERMARKSYMBOL_5
 70
     0
 10
0.0
 20
0.0
 30
0.0
  3
SW_CENTERMARKSYMBOL_5
  1

  0
LINE
  5
285
330
282
100
AcDbEntity
  8
0
  6
Continuous
 62
     0
370
    18
100
AcDbLine
 10
0.0
 20
0.0
 30
0.0
 11
0.0
 21
2.6271719572
 31
0.0
  0
LINE
  5
286
330
282
100
AcDbEntity
  8
0
  6
Continuous
 62
     0
370
    18
100
AcDbLine
 10
0.0
 20
0.0
 30
0.0
 11
-2.6271719572
 21
0.0
 31
0.0
  0
LINE
  5
287
330
282
100
AcDbEntity
  8
0
  6
Continuous
 62
     0
370
    18
100
AcDbLine
 10
0.0
 20
0.0
 30
0.0
 11
0.0
 21
-2.6271719572
 31
0.0
  0
LINE
  5
288
330
282
100
AcDbEntity
  8
0
  6
Continuous
 62
     0
370
    18
100
AcDbLine
 10
0.0
 20
0.0
 30
0.0
 11
2.6271719572
 21
0.0
 31
0.0
  0
LINE
  5
289
330
282
100
AcDbEntity
  8
0
  6
Continuous
 62
     0
370
    18
100
AcDbLine
 10
0.0
 20
5.2543439144
 30
0.0
 11
0.0
 21
7.8815158716
 31
0.0
  0
LINE
  5
28A
330
282
100
AcDbEntity
  8
0
  6
Continuous
 62
     0
370
    18
100
AcDbLine
 10
-5.2543439144
 20
0.0
 30
0.0
 11
-7.8815158716
 21
0.0
 31
0.0
  0
LINE
  5
28B
330
282
100
AcDbEntity
  8
0
  6
Continuous
 62
     0
370
    18
100
AcDbLine
 10
0.0
 20
-5.2543439144
 30
0.0
 11
0.0
 21
-7.8815158716
 31
0.0
  0
LINE
  5
28C
330
282
100
AcDbEntity
  8
0
  6
Continuous
 62
     0
370
    18
100
AcDbLine
 10
5.2543439144
 20
0.0
 30
0.0
 11
7.8815158716
 21
0.0
 31
0.0
  0
ENDBLK
  5
284
330
282
100
AcDbEntity
  8
0
100
AcDbBlockEnd
  0
BLOCK
  5
28F
330
28E
100
AcDbEntity
  8
0
100
AcDbBlockBegin
  2
SW_CENTERMARKSYMBOL_6
 70
     0
 10
0.0
 20
0.0
 30
0.0
  3
SW_CENTERMARKSYMBOL_6
  1

  0
LINE
  5
291
330
28E
100
AcDbEntity
  8
0
  6
Continuous
 62
     0
370
    18
100
AcDbLine
 10
0.0
 20
0.0
 30
0.0
 11
0.0
 21
2.6271719572
 31
0.0
  0
LINE
  5
292
330
28E
100
AcDbEntity
  8
0
  6
Continuous
 62
     0
370
    18
100
AcDbLine
 10
0.0
 20
0.0
 30
0.0
 11
-2.6271719572
 21
0.0
 31
0.0
  0
LINE
  5
293
330
28E
100
AcDbEntity
  8
0
  6
Continuous
 62
     0
370
    18
100
AcDbLine
 10
0.0
 20
0.0
 30
0.0
 11
0.0
 21
-2.6271719572
 31
0.0
  0
LINE
  5
294
330
28E
100
AcDbEntity
  8
0
  6
Continuous
 62
     0
370
    18
100
AcDbLine
 10
0.0
 20
0.0
 30
0.0
 11
2.6271719572
 21
0.0
 31
0.0
  0
LINE
  5
295
330
28E
100
AcDbEntity
  8
0
  6
Continuous
 62
     0
370
    18
100
AcDbLine
 10
0.0
 20
5.2543439144
 30
0.0
 11
0.0
 21
7.8815158716
 31
0.0
  0
LINE
  5
296
330
28E
100
AcDbEntity
  8
0
  6
Continuous
 62
     0
370
    18
100
AcDbLine
 10
-5.2543439144
 20
0.0
 30
0.0
 11
-7.8815158716
 21
0.0
 31
0.0
  0
LINE
  5
297
330
28E
100
AcDbEntity
  8
0
  6
Continuous
 62
     0
370
    18
100
AcDbLine
 10
0.0
 20
-5.2543439144
 30
0.0
 11
0.0
 21
-7.8815158716
 31
0.0
  0
LINE
  5
298
330
28E
100
AcDbEntity
  8
0
  6
Continuous
 62
     0
370
    18
100
AcDbLine
 10
5.2543439144
 20
0.0
 30
0.0
 11
7.8815158716
 21
0.0
 31
0.0
  0
ENDBLK
  5
290
330
28E
100
AcDbEntity
  8
0
100
AcDbBlockEnd
  0
BLOCK
  5
29B
330
29A
100
AcDbEntity
  8
0
100
AcDbBlockBegin
  2
SW_CENTERMARKSYMBOL_7
 70
     0
 10
0.0
 20
0.0
 30
0.0
  3
SW_CENTERMARKSYMBOL_7
  1

  0
LINE
  5
29D
330
29A
100
AcDbEntity
  8
0
  6
Continuous
 62
     0
370
    18
100
AcDbLine
 10
0.0
 20
0.0
 30
0.0
 11
0.0
 21
2.6271719572
 31
0.0
  0
LINE
  5
29E
330
29A
100
AcDbEntity
  8
0
  6
Continuous
 62
     0
370
    18
100
AcDbLine
 10
0.0
 20
0.0
 30
0.0
 11
-2.6271719572
 21
0.0
 31
0.0
  0
LINE
  5
29F
330
29A
100
AcDbEntity
  8
0
  6
Continuous
 62
     0
370
    18
100
AcDbLine
 10
0.0
 20
0.0
 30
0.0
 11
0.0
 21
-2.6271719572
 31
0.0
  0
LINE
  5
2A0
330
29A
100
AcDbEntity
  8
0
  6
Continuous
 62
     0
370
    18
100
AcDbLine
 10
0.0
 20
0.0
 30
0.0
 11
2.6271719572
 21
0.0
 31
0.0
  0
LINE
  5
2A1
330
29A
100
AcDbEntity
  8
0
  6
Continuous
 62
     0
370
    18
100
AcDbLine
 10
0.0
 20
5.2543439144
 30
0.0
 11
0.0
 21
8.1442330673
 31
0.0
  0
LINE
  5
2A2
330
29A
100
AcDbEntity
  8
0
  6
Continuous
 62
     0
370
    18
100
AcDbLine
 10
-5.2543439144
 20
0.0
 30
0.0
 11
-8.1442330673
 21
0.0
 31
0.0
  0
LINE
  5
2A3
330
29A
100
AcDbEntity
  8
0
  6
Continuous
 62
     0
370
    18
100
AcDbLine
 10
0.0
 20
-5.2543439144
 30
0.0
 11
0.0
 21
-8.1442330673
 31
0.0
  0
LINE
  5
2A4
330
29A
100
AcDbEntity
  8
0
  6
Continuous
 62
     0
370
    18
100
AcDbLine
 10
5.2543439144
 20
0.0
 30
0.0
 11
8.1442330673
 21
0.0
 31
0.0
  0
ENDBLK
  5
29C
330
29A
100
AcDbEntity
  8
0
100
AcDbBlockEnd
  0
BLOCK
  5
2A7
330
2A6
100
AcDbEntity
  8
0
100
AcDbBlockBegin
  2
SW_CENTERMARKSYMBOL_8
 70
     0
 10
0.0
 20
0.0
 30
0.0
  3
SW_CENTERMARKSYMBOL_8
  1

  0
LINE
  5
2A9
330
2A6
100
AcDbEntity
  8
0
  6
Continuous
 62
     0
370
    18
100
AcDbLine
 10
0.0
 20
0.0
 30
0.0
 11
0.0
 21
2.6271719572
 31
0.0
  0
LINE
  5
2AA
330
2A6
100
AcDbEntity
  8
0
  6
Continuous
 62
     0
370
    18
100
AcDbLine
 10
0.0
 20
0.0
 30
0.0
 11
-2.6271719572
 21
0.0
 31
0.0
  0
LINE
  5
2AB
330
2A6
100
AcDbEntity
  8
0
  6
Continuous
 62
     0
370
    18
100
AcDbLine
 10
0.0
 20
0.0
 30
0.0
 11
0.0
 21
-2.6271719572
 31
0.0
  0
LINE
  5
2AC
330
2A6
100
AcDbEntity
  8
0
  6
Continuous
 62
     0
370
    18
100
AcDbLine
 10
0.0
 20
0.0
 30
0.0
 11
2.6271719572
 21
0.0
 31
0.0
  0
LINE
  5
2AD
330
2A6
100
AcDbEntity
  8
0
  6
Continuous
 62
     0
370
    18
100
AcDbLine
 10
0.0
 20
5.2543439144
 30
0.0
 11
0.0
 21
8.1442330673
 31
0.0
  0
LINE
  5
2AE
330
2A6
100
AcDbEntity
  8
0
  6
Continuous
 62
     0
370
    18
100
AcDbLine
 10
-5.2543439144
 20
0.0
 30
0.0
 11
-8.1442330673
 21
0.0
 31
0.0
  0
LINE
  5
2AF
330
2A6
100
AcDbEntity
  8
0
  6
Continuous
 62
     0
370
    18
100
AcDbLine
 10
0.0
 20
-5.2543439144
 30
0.0
 11
0.0
 21
-8.1442330673
 31
0.0
  0
LINE
  5
2B0
330
2A6
100
AcDbEntity
  8
0
  6
Continuous
 62
     0
370
    18
100
AcDbLine
 10
5.2543439144
 20
0.0
 30
0.0
 11
8.1442330673
 21
0.0
 31
0.0
  0
ENDBLK
  5
2A8
330
2A6
100
AcDbEntity
  8
0
100
AcDbBlockEnd
  0
BLOCK
  5
2B3
330
2B2
100
AcDbEntity
  8
0
100
AcDbBlockBegin
  2
SW_CENTERMARKSYMBOL_9
 70
     0
 10
0.0
 20
0.0
 30
0.0
  3
SW_CENTERMARKSYMBOL_9
  1

  0
LINE
  5
2B5
330
2B2
100
AcDbEntity
  8
0
  6
Continuous
 62
     0
370
    18
100
AcDbLine
 10
0.0
 20
0.0
 30
0.0
 11
0.0
 21
2.6271719572
 31
0.0
  0
LINE
  5
2B6
330
2B2
100
AcDbEntity
  8
0
  6
Continuous
 62
     0
370
    18
100
AcDbLine
 10
0.0
 20
0.0
 30
0.0
 11
-2.6271719572
 21
0.0
 31
0.0
  0
LINE
  5
2B7
330
2B2
100
AcDbEntity
  8
0
  6
Continuous
 62
     0
370
    18
100
AcDbLine
 10
0.0
 20
0.0
 30
0.0
 11
0.0
 21
-2.6271719572
 31
0.0
  0
LINE
  5
2B8
330
2B2
100
AcDbEntity
  8
0
  6
Continuous
 62
     0
370
    18
100
AcDbLine
 10
0.0
 20
0.0
 30
0.0
 11
2.6271719572
 21
0.0
 31
0.0
  0
LINE
  5
2B9
330
2B2
100
AcDbEntity
  8
0
  6
Continuous
 62
     0
370
    18
100
AcDbLine
 10
0.0
 20
5.2543439144
 30
0.0
 11
0.0
 21
8.1442330673
 31
0.0
  0
LINE
  5
2BA
330
2B2
100
AcDbEntity
  8
0
  6
Continuous
 62
     0
370
    18
100
AcDbLine
 10
-5.2543439144
 20
0.0
 30
0.0
 11
-8.1442330673
 21
0.0
 31
0.0
  0
LINE
  5
2BB
330
2B2
100
AcDbEntity
  8
0
  6
Continuous
 62
     0
370
    18
100
AcDbLine
 10
0.0
 20
-5.2543439144
 30
0.0
 11
0.0
 21
-8.1442330673
 31
0.0
  0
LINE
  5
2BC
330
2B2
100
AcDbEntity
  8
0
  6
Continuous
 62
     0
370
    18
100
AcDbLine
 10
5.2543439144
 20
0.0
 30
0.0
 11
8.1442330673
 21
0.0
 31
0.0
  0
ENDBLK
  5
2B4
330
2B2
100
AcDbEntity
  8
0
100
AcDbBlockEnd
  0
BLOCK
  5
2BF
330
2BE
100
AcDbEntity
  8
0
100
AcDbBlockBegin
  2
SW_CENTERMARKSYMBOL_10
 70
     0
 10
0.0
 20
0.0
 30
0.0
  3
SW_CENTERMARKSYMBOL_10
  1

  0
LINE
  5
2C1
330
2BE
100
AcDbEntity
  8
0
  6
Continuous
 62
     0
370
    18
100
AcDbLine
 10
0.0
 20
0.0
 30
0.0
 11
0.0
 21
2.6271719572
 31
0.0
  0
LINE
  5
2C2
330
2BE
100
AcDbEntity
  8
0
  6
Continuous
 62
     0
370
    18
100
AcDbLine
 10
0.0
 20
0.0
 30
0.0
 11
-2.6271719572
 21
0.0
 31
0.0
  0
LINE
  5
2C3
330
2BE
100
AcDbEntity
  8
0
  6
Continuous
 62
     0
370
    18
100
AcDbLine
 10
0.0
 20
0.0
 30
0.0
 11
0.0
 21
-2.6271719572
 31
0.0
  0
LINE
  5
2C4
330
2BE
100
AcDbEntity
  8
0
  6
Continuous
 62
     0
370
    18
100
AcDbLine
 10
0.0
 20
0.0
 30
0.0
 11
2.6271719572
 21
0.0
 31
0.0
  0
LINE
  5
2C5
330
2BE
100
AcDbEntity
  8
0
  6
Continuous
 62
     0
370
    18
100
AcDbLine
 10
0.0
 20
5.2543439144
 30
0.0
 11
0.0
 21
8.1442330673
 31
0.0
  0
LINE
  5
2C6
330
2BE
100
AcDbEntity
  8
0
  6
Continuous
 62
     0
370
    18
100
AcDbLine
 10
-5.2543439144
 20
0.0
 30
0.0
 11
-8.1442330673
 21
0.0
 31
0.0
  0
LINE
  5
2C7
330
2BE
100
AcDbEntity
  8
0
  6
Continuous
 62
     0
370
    18
100
AcDbLine
 10
0.0
 20
-5.2543439144
 30
0.0
 11
0.0
 21
-8.1442330673
 31
0.0
  0
LINE
  5
2C8
330
2BE
100
AcDbEntity
  8
0
  6
Continuous
 62
     0
370
    18
100
AcDbLine
 10
5.2543439144
 20
0.0
 30
0.0
 11
8.1442330673
 21
0.0
 31
0.0
  0
ENDBLK
  5
2C0
330
2BE
100
AcDbEntity
  8
0
100
AcDbBlockEnd
  0
BLOCK
  5
3EC
330
3EB
100
AcDbEntity
  8
0
100
AcDbBlockBegin
  2
_D_10
 70
     0
 10
0.0
 20
0.0
 30
0.0
  3
_D_10
  1

  0
SOLID
  5
3EE
330
3EB
100
AcDbEntity
  8
0
  6
Continuous
 62
     7
370
    18
100
AcDbTrace
 10
326.94
 20
171.3634500818
 30
0.0
 11
330.242
 21
170.8554500818
 31
0.0
 12
330.242
 22
171.8714500818
 32
0.0
 13
330.242
 23
171.8714500818
 33
0.0
  0
SOLID
  5
3EF
330
3EB
100
AcDbEntity
  8
0
  6
Continuous
 62
     7
370
    18
100
AcDbTrace
 10
348.94
 20
171.3634500818
 30
0.0
 11
345.638
 21
171.8714500818
 31
0.0
 12
345.638
 22
170.8554500818
 32
0.0
 13
345.638
 23
170.8554500818
 33
0.0
  0
LINE
  5
3F0
330
3EB
100
AcDbEntity
  8
0
  6
Continuous
 62
     7
370
     0
100
AcDbLine
 10
326.94
 20
206.3125126266
 30
0.0
 11
326.94
 21
170.3634500818
 31
0.0
  0
LINE
  5
3F1
330
3EB
100
AcDbEntity
  8
0
  6
Continuous
 62
     7
370
     0
100
AcDbLine
 10
348.94
 20
230.8125126266
 30
0.0
 11
348.94
 21
170.3634500818
 31
0.0
  0
LINE
  5
3F2
330
3EB
100
AcDbEntity
  8
0
  6
Continuous
 62
     7
370
     0
100
AcDbLine
 10
326.94
 20
171.3634500818
 30
0.0
 11
348.94
 21
171.3634500818
 31
0.0
  0
MTEXT
  5
3F3
330
3EB
100
AcDbEntity
  8
0
  6
Continuous
 62
     7
370
    18
100
AcDbMText
 10
336.4871584515
 20
175.8751869964
 30
0.0
 40
3.5
 41
0.0
 71
     1
 72
     1
  1
22
  7
SLDTEXTSTYLE0
 73
     1
 44
1.0
  0
ENDBLK
  5
3ED
330
3EB
100
AcDbEntity
  8
0
100
AcDbBlockEnd
  0
BLOCK
  5
3F6
330
3F5
100
AcDbEntity
  8
0
100
AcDbBlockBegin
  2
_D_11
 70
     0
 10
0.0
 20
0.0
 30
0.0
  3
_D_11
  1

  0
SOLID
  5
3F8
330
3F5
100
AcDbEntity
  8
0
  6
Continuous
 62
     7
370
    18
100
AcDbTrace
 10
271.94
 20
163.8125126266
 30
0.0
 11
275.242
 21
163.3045126266
 31
0.0
 12
275.242
 22
164.3205126266
 32
0.0
 13
275.242
 23
164.3205126266
 33
0.0
  0
SOLID
  5
3F9
330
3F5
100
AcDbEntity
  8
0
  6
Continuous
 62
     7
370
    18
100
AcDbTrace
 10
348.94
 20
163.8125126266
 30
0.0
 11
345.638
 21
164.3205126266
 31
0.0
 12
345.638
 22
163.3045126266
 32
0.0
 13
345.638
 23
163.3045126266
 33
0.0
  0
LINE
  5
3FA
330
3F5
100
AcDbEntity
  8
0
  6
Continuous
 62
     7
370
     0
100
AcDbLine
 10
271.94
 20
178.8125126266
 30
0.0
 11
271.94
 21
162.8125126266
 31
0.0
  0
LINE
  5
3FB
330
3F5
100
AcDbEntity
  8
0
  6
Continuous
 62
     7
370
     0
100
AcDbLine
 10
348.94
 20
233.8125126266
 30
0.0
 11
348.94
 21
162.8125126266
 31
0.0
  0
LINE
  5
3FC
330
3F5
100
AcDbEntity
  8
0
  6
Continuous
 62
     7
370
     0
100
AcDbLine
 10
271.94
 20
163.8125126266
 30
0.0
 11
348.94
 21
163.8125126266
 31
0.0
  0
MTEXT
  5
3FD
330
3F5
100
AcDbEntity
  8
0
  6
Continuous
 62
     7
370
    18
100
AcDbMText
 10
313.1142409467
 20
168.3242495412
 30
0.0
 40
3.5
 41
0.0
 71
     1
 72
     1
  1
77
  7
SLDTEXTSTYLE0
 73
     1
 44
1.0
  0
ENDBLK
  5
3F7
330
3F5
100
AcDbEntity
  8
0
100
AcDbBlockEnd
  0
BLOCK
  5
401
330
400
100
AcDbEntity
  8
0
100
AcDbBlockBegin
  2
_D_12
 70
     0
 10
0.0
 20
0.0
 30
0.0
  3
_D_12
  1

  0
SOLID
  5
403
330
400
100
AcDbEntity
  8
0
  6
Continuous
 62
     7
370
    18
100
AcDbTrace
 10
356.94
 20
242.5328525337
 30
0.0
 11
360.242
 21
242.0248525337
 31
0.0
 12
360.242
 22
243.0408525337
 32
0.0
 13
360.242
 23
243.0408525337
 33
0.0
  0
SOLID
  5
404
330
400
100
AcDbEntity
  8
0
  6
Continuous
 62
     7
370
    18
100
AcDbTrace
 10
348.94
 20
242.5328525337
 30
0.0
 11
345.638
 21
243.0408525337
 31
0.0
 12
345.638
 22
242.0248525337
 32
0.0
 13
345.638
 23
242.0248525337
 33
0.0
  0
LINE
  5
405
330
400
100
AcDbEntity
  8
0
  6
Continuous
 62
     7
370
     0
100
AcDbLine
 10
356.94
 20
224.8125126266
 30
0.0
 11
356.94
 21
234.0505126266
 31
0.0
  0
LINE
  5
406
330
400
100
AcDbEntity
  8
0
  6
Continuous
 62
     7
370
     0
100
AcDbLine
 10
356.94
 20
235.5745126266
 30
0.0
 11
356.94
 21
243.5328525337
 31
0.0
  0
LINE
  5
407
330
400
100
AcDbEntity
  8
0
  6
Continuous
 62
     7
370
     0
100
AcDbLine
 10
348.94
 20
235.8125126266
 30
0.0
 11
348.94
 21
243.5328525337
 31
0.0
  0
LINE
  5
408
330
400
100
AcDbEntity
  8
0
  6
Continuous
 62
     7
370
     0
100
AcDbLine
 10
356.94
 20
242.5328525337
 30
0.0
 11
363.29
 21
242.5328525337
 31
0.0
  0
LINE
  5
409
330
400
100
AcDbEntity
  8
0
  6
Continuous
 62
     7
370
     0
100
AcDbLine
 10
356.94
 20
242.5328525337
 30
0.0
 11
348.94
 21
242.5328525337
 31
0.0
  0
LINE
  5
40A
330
400
100
AcDbEntity
  8
0
  6
Continuous
 62
     7
370
     0
100
AcDbLine
 10
348.94
 20
242.5328525337
 30
0.0
 11
342.59
 21
242.5328525337
 31
0.0
  0
MTEXT
  5
40B
330
400
100
AcDbEntity
  8
0
  6
Continuous
 62
     7
370
    18
100
AcDbMText
 10
349.6670296087
 20
247.0445894483
 30
0.0
 40
3.5
 41
0.0
 71
     1
 72
     1
  1
8,0
  7
SLDTEXTSTYLE0
 73
     1
 44
1.0
  0
ENDBLK
  5
402
330
400
100
AcDbEntity
  8
0
100
AcDbBlockEnd
  0
BLOCK
  5
40E
330
40D
100
AcDbEntity
  8
0
100
AcDbBlockBegin
  2
_D_13
 70
     0
 10
0.0
 20
0.0
 30
0.0
  3
_D_13
  1

  0
SOLID
  5
410
330
40D
100
AcDbEntity
  8
0
  6
Continuous
 62
     7
370
    18
100
AcDbTrace
 10
317.4035969304
 20
214.3125126266
 30
0.0
 11
317.9115969304
 21
217.6145126266
 31
0.0
 12
316.8955969304
 22
217.6145126266
 32
0.0
 13
316.8955969304
 23
217.6145126266
 33
0.0
  0
SOLID
  5
411
330
40D
100
AcDbEntity
  8
0
  6
Continuous
 62
     7
370
    18
100
AcDbTrace
 10
317.4035969304
 20
200.3125126266
 30
0.0
 11
316.8955969304
 21
197.0105126266
 31
0.0
 12
317.9115969304
 22
197.0105126266
 32
0.0
 13
317.9115969304
 23
197.0105126266
 33
0.0
  0
LINE
  5
412
330
40D
100
AcDbEntity
  8
0
  6
Continuous
 62
     7
370
     0
100
AcDbLine
 10
325.94
 20
214.3125126266
 30
0.0
 11
316.4035969304
 21
214.3125126266
 31
0.0
  0
LINE
  5
413
330
40D
100
AcDbEntity
  8
0
  6
Continuous
 62
     7
370
     0
100
AcDbLine
 10
325.94
 20
200.3125126266
 30
0.0
 11
316.4035969304
 21
200.3125126266
 31
0.0
  0
LINE
  5
414
330
40D
100
AcDbEntity
  8
0
  6
Continuous
 62
     7
370
     0
100
AcDbLine
 10
317.4035969304
 20
214.3125126266
 30
0.0
 11
317.4035969304
 21
220.6625126266
 31
0.0
  0
LINE
  5
415
330
40D
100
AcDbEntity
  8
0
  6
Continuous
 62
     7
370
     0
100
AcDbLine
 10
317.4035969304
 20
214.3125126266
 30
0.0
 11
317.4035969304
 21
200.3125126266
 31
0.0
  0
LINE
  5
416
330
40D
100
AcDbEntity
  8
0
  6
Continuous
 62
     7
370
     0
100
AcDbLine
 10
317.4035969304
 20
200.3125126266
 30
0.0
 11
317.4035969304
 21
193.9625126266
 31
0.0
  0
MTEXT
  5
417
330
40D
100
AcDbEntity
  8
0
  6
Continuous
 62
     7
370
    18
100
AcDbMText
 10
312.8918598412
 20
206.659342241
 30
0.0
 40
3.5
 41
0.0
 71
     1
 72
     1
  1
%%c
  7
SLDTEXTSTYLE0
 11
-7.044195017643634E-15
 21
1.0
 31
0.0
 73
     1
 44
1.0
  0
MTEXT
  5
418
330
40D
100
AcDbEntity
  8
0
  6
Continuous
 62
     7
370
    18
100
AcDbMText
 10
312.8383876646
 20
211.9377796394
 30
0.0
 40
3.5
 41
0.0
 71
     1
 72
     1
  1
14
  7
SLDTEXTSTYLE0
 11
-7.044195017643634E-15
 21
1.0
 31
0.0
 73
     1
 44
1.0
  0
ENDBLK
  5
40F
330
40D
100
AcDbEntity
  8
0
100
AcDbBlockEnd
  0
BLOCK
  5
41C
330
41B
100
AcDbEntity
  8
0
100
AcDbBlockBegin
  2
_D_14
 70
     0
 10
0.0
 20
0.0
 30
0.0
  3
_D_14
  1

  0
SOLID
  5
41E
330
41B
100
AcDbEntity
  8
0
  6
Continuous
 62
     7
370
    18
100
AcDbTrace
 10
365.731757475
 20
207.3125126266
 30
0.0
 11
366.239757475
 21
210.6145126266
 31
0.0
 12
365.223757475
 22
210.6145126266
 32
0.0
 13
365.223757475
 23
210.6145126266
 33
0.0
  0
SOLID
  5
41F
330
41B
100
AcDbEntity
  8
0
  6
Continuous
 62
     7
370
    18
100
AcDbTrace
 10
365.731757475
 20
234.8125126266
 30
0.0
 11
365.223757475
 21
231.5105126266
 31
0.0
 12
366.239757475
 22
231.5105126266
 32
0.0
 13
366.239757475
 23
231.5105126266
 33
0.0
  0
LINE
  5
420
330
41B
100
AcDbEntity
  8
0
  6
Continuous
 62
     7
370
     0
100
AcDbLine
 10
327.94
 20
207.3125126266
 30
0.0
 11
366.731757475
 21
207.3125126266
 31
0.0
  0
LINE
  5
421
330
41B
100
AcDbEntity
  8
0
  6
Continuous
 62
     7
370
     0
100
AcDbLine
 10
349.94
 20
234.8125126266
 30
0.0
 11
366.731757475
 21
234.8125126266
 31
0.0
  0
LINE
  5
422
330
41B
100
AcDbEntity
  8
0
  6
Continuous
 62
     7
370
     0
100
AcDbLine
 10
365.731757475
 20
207.3125126266
 30
0.0
 11
365.731757475
 21
234.8125126266
 31
0.0
  0
MTEXT
  5
423
330
41B
100
AcDbEntity
  8
0
  6
Continuous
 62
     7
370
    18
100
AcDbMText
 10
361.2200205604
 20
218.2074796736
 30
0.0
 40
3.5
 41
0.0
 71
     1
 72
     1
  1
27,5
  7
SLDTEXTSTYLE0
 11
6.123233995736766E-17
 21
1.0
 31
0.0
 73
     1
 44
1.0
  0
ENDBLK
  5
41D
330
41B
100
AcDbEntity
  8
0
100
AcDbBlockEnd
  0
BLOCK
  5
425
330
424
100
AcDbEntity
  8
0
100
AcDbBlockBegin
  2
SW_CENTERMARKSYMBOL_11
 70
     0
 10
0.0
 20
0.0
 30
0.0
  3
SW_CENTERMARKSYMBOL_11
  1

  0
LINE
  5
427
330
424
100
AcDbEntity
  8
0
  6
Continuous
 62
     0
370
    18
100
AcDbLine
 10
0.0
 20
0.0
 30
0.0
 11
0.0
 21
2.5
 31
0.0
  0
LINE
  5
428
330
424
100
AcDbEntity
  8
0
  6
Continuous
 62
     0
370
    18
100
AcDbLine
 10
0.0
 20
0.0
 30
0.0
 11
-2.5
 21
0.0
 31
0.0
  0
LINE
  5
429
330
424
100
AcDbEntity
  8
0
  6
Continuous
 62
     0
370
    18
100
AcDbLine
 10
0.0
 20
0.0
 30
0.0
 11
0.0
 21
-2.5
 31
0.0
  0
LINE
  5
42A
330
424
100
AcDbEntity
  8
0
  6
Continuous
 62
     0
370
    18
100
AcDbLine
 10
0.0
 20
0.0
 30
0.0
 11
2.5
 21
0.0
 31
0.0
  0
LINE
  5
42B
330
424
100
AcDbEntity
  8
0
  6
Continuous
 62
     0
370
    18
100
AcDbLine
 10
0.0
 20
5.0
 30
0.0
 11
0.0
 21
9.5
 31
0.0
  0
LINE
  5
42C
330
424
100
AcDbEntity
  8
0
  6
Continuous
 62
     0
370
    18
100
AcDbLine
 10
-5.0
 20
0.0
 30
0.0
 11
-9.5
 21
0.0
 31
0.0
  0
LINE
  5
42D
330
424
100
AcDbEntity
  8
0
  6
Continuous
 62
     0
370
    18
100
AcDbLine
 10
0.0
 20
-5.0
 30
0.0
 11
0.0
 21
-9.5
 31
0.0
  0
LINE
  5
42E
330
424
100
AcDbEntity
  8
0
  6
Continuous
 62
     0
370
    18
100
AcDbLine
 10
5.0
 20
0.0
 30
0.0
 11
9.5
 21
0.0
 31
0.0
  0
ENDBLK
  5
426
330
424
100
AcDbEntity
  8
0
100
AcDbBlockEnd
  0
ENDSEC
  0
SECTION
  2
ENTITIES
  0
LINE
  5
74
330
1F
100
AcDbEntity
  8
0
  6
Continuous
 62
     7
370
    50
100
AcDbLine
 10
230.0
 20
14.25
 30
0.0
 11
410.0
 21
14.25
 31
0.0
  0
LINE
  5
75
330
1F
100
AcDbEntity
  8
0
  6
Continuous
 62
     7
370
    50
100
AcDbLine
 10
410.0
 20
48.25
 30
0.0
 11
230.0
 21
48.25
 31
0.0
  0
LINE
  5
76
330
1F
100
AcDbEntity
  8
0
  6
Continuous
 62
     7
370
    50
100
AcDbLine
 10
230.0
 20
65.25
 30
0.0
 11
410.0
 21
65.25
 31
0.0
  0
LINE
  5
77
330
1F
100
AcDbEntity
  8
0
  6
Continuous
 62
     7
370
    50
100
AcDbLine
 10
256.9909524338
 20
48.25
 30
0.0
 11
256.9909524338
 21
10.0
 31
0.0
  0
LINE
  5
78
330
1F
100
AcDbEntity
  8
0
  6
Continuous
 62
     7
370
    50
100
AcDbLine
 10
328.8
 20
31.25
 30
0.0
 11
230.0
 21
31.25
 31
0.0
  0
LINE
  5
79
330
1F
100
AcDbEntity
  8
0
  6
Continuous
 62
     7
370
    50
100
AcDbLine
 10
328.8
 20
35.5
 30
0.0
 11
230.0
 21
35.5
 31
0.0
  0
LINE
  5
7A
330
1F
100
AcDbEntity
  8
0
  6
Continuous
 62
     7
370
    50
100
AcDbLine
 10
328.8
 20
39.75
 30
0.0
 11
230.0
 21
39.75
 31
0.0
  0
LINE
  5
7B
330
1F
100
AcDbEntity
  8
0
  6
Continuous
 62
     7
370
    50
100
AcDbLine
 10
328.8
 20
44.0
 30
0.0
 11
230.0
 21
44.0
 31
0.0
  0
LINE
  5
7C
330
1F
100
AcDbEntity
  8
0
  6
Continuous
 62
     7
370
    50
100
AcDbLine
 10
284.6
 20
10.0
 30
0.0
 11
284.6
 21
48.25
 31
0.0
  0
LINE
  5
7D
330
1F
100
AcDbEntity
  8
0
  6
Continuous
 62
     7
370
    50
100
AcDbLine
 10
230.0
 20
65.25
 30
0.0
 11
230.0
 21
10.0
 31
0.0
  0
LINE
  5
7E
330
1F
100
AcDbEntity
  8
0
  6
Continuous
 62
     7
370
    50
100
AcDbLine
 10
242.0703737145
 20
48.25
 30
0.0
 11
242.0703737145
 21
10.0
 31
0.0
  0
LINE
  5
7F
330
1F
100
AcDbEntity
  8
0
  6
Continuous
 62
     7
370
    50
100
AcDbLine
 10
263.8
 20
48.25
 30
0.0
 11
263.8
 21
65.25
 31
0.0
  0
LINE
  5
80
330
1F
100
AcDbEntity
  8
0
  6
Continuous
 62
     7
370
    50
100
AcDbLine
 10
274.3989261635
 20
48.25
 30
0.0
 11
274.3989261635
 21
10.0
 31
0.0
  0
LINE
  5
81
330
1F
100
AcDbEntity
  8
0
  6
Continuous
 62
     7
370
    50
100
AcDbLine
 10
295.0
 20
31.25
 30
0.0
 11
295.0
 21
48.25
 31
0.0
  0
LINE
  5
82
330
1F
100
AcDbEntity
  8
0
  6
Continuous
 62
     7
370
    50
100
AcDbLine
 10
284.6
 20
18.5
 30
0.0
 11
230.0
 21
18.5
 31
0.0
  0
LINE
  5
83
330
1F
100
AcDbEntity
  8
0
  6
Continuous
 62
     7
370
    50
100
AcDbLine
 10
310.6
 20
65.25
 30
0.0
 11
310.6
 21
27.0
 31
0.0
  0
LINE
  5
84
330
1F
100
AcDbEntity
  8
0
  6
Continuous
 62
     7
370
    50
100
AcDbLine
 10
284.6
 20
22.749928
 30
0.0
 11
230.0
 21
22.749928
 31
0.0
  0
LINE
  5
85
330
1F
100
AcDbEntity
  8
0
  6
Continuous
 62
     7
370
    50
100
AcDbLine
 10
284.6
 20
27.0
 30
0.0
 11
230.0
 21
27.0
 31
0.0
  0
LINE
  5
86
330
1F
100
AcDbEntity
  8
0
  6
Continuous
 62
     7
370
    50
100
AcDbLine
 10
284.6
 20
27.0
 30
0.0
 11
410.0
 21
27.0
 31
0.0
  0
LINE
  5
87
330
1F
100
AcDbEntity
  8
0
  6
Continuous
 62
     7
370
    50
100
AcDbLine
 10
328.8
 20
65.25
 30
0.0
 11
328.8
 21
10.0
 31
0.0
  0
LINE
  5
88
330
1F
100
AcDbEntity
  8
0
  6
Continuous
 62
     7
370
    50
100
AcDbLine
 10
373.0
 20
10.0
 30
0.0
 11
373.0
 21
14.25
 31
0.0
  0
LINE
  5
89
330
1F
100
AcDbEntity
  8
0
  6
Continuous
 62
     7
370
    50
100
AcDbLine
 10
380.8
 20
58.875
 30
0.0
 11
380.8
 21
65.25
 31
0.0
  0
LINE
  5
8A
330
1F
100
AcDbEntity
  8
0
  6
Continuous
 62
     7
370
    50
100
AcDbLine
 10
397.0
 20
14.25
 30
0.0
 11
397.0
 21
27.0
 31
0.0
  0
LINE
  5
8B
330
1F
100
AcDbEntity
  8
0
  6
Continuous
 62
     7
370
    50
100
AcDbLine
 10
410.0
 20
58.875
 30
0.0
 11
328.8
 21
58.875
 31
0.0
  0
LINE
  5
8C
330
1F
100
AcDbEntity
  8
0
  6
Continuous
 62
     7
370
    50
100
AcDbLine
 10
410.0
 20
18.5
 30
0.0
 11
397.0
 21
18.5
 31
0.0
  0
LINE
  5
8D
330
1F
100
AcDbEntity
  8
0
  6
Continuous
 62
     7
370
    35
100
AcDbLine
 10
20.0
 20
48.5
 30
0.0
 11
15.0
 21
48.5
 31
0.0
  0
LINE
  5
8E
330
1F
100
AcDbEntity
  8
0
  6
Continuous
 62
     7
370
    35
100
AcDbLine
 10
410.0
 20
48.5
 30
0.0
 11
415.0
 21
48.5
 31
0.0
  0
LINE
  5
8F
330
1F
100
AcDbEntity
  8
0
  6
Continuous
 62
     7
370
    35
100
AcDbLine
 10
20.0
 20
98.5
 30
0.0
 11
15.0
 21
98.5
 31
0.0
  0
LINE
  5
90
330
1F
100
AcDbEntity
  8
0
  6
Continuous
 62
     7
370
    35
100
AcDbLine
 10
410.0
 20
98.5
 30
0.0
 11
415.0
 21
98.5
 31
0.0
  0
LINE
  5
91
330
1F
100
AcDbEntity
  8
0
  6
Continuous
 62
     7
370
    35
100
AcDbLine
 10
20.0
 20
148.5
 30
0.0
 11
15.0
 21
148.5
 31
0.0
  0
LINE
  5
92
330
1F
100
AcDbEntity
  8
0
  6
Continuous
 62
     7
370
    35
100
AcDbLine
 10
410.0
 20
148.5
 30
0.0
 11
415.0
 21
148.5
 31
0.0
  0
LINE
  5
93
330
1F
100
AcDbEntity
  8
0
  6
Continuous
 62
     7
370
    35
100
AcDbLine
 10
20.0
 20
198.5
 30
0.0
 11
15.0
 21
198.5
 31
0.0
  0
LINE
  5
94
330
1F
100
AcDbEntity
  8
0
  6
Continuous
 62
     7
370
    35
100
AcDbLine
 10
410.0
 20
198.5
 30
0.0
 11
415.0
 21
198.5
 31
0.0
  0
LINE
  5
95
330
1F
100
AcDbEntity
  8
0
  6
Continuous
 62
     7
370
    35
100
AcDbLine
 10
20.0
 20
248.5
 30
0.0
 11
15.0
 21
248.5
 31
0.0
  0
LINE
  5
96
330
1F
100
AcDbEntity
  8
0
  6
Continuous
 62
     7
370
    35
100
AcDbLine
 10
410.0
 20
248.5
 30
0.0
 11
415.0
 21
248.5
 31
0.0
  0
LINE
  5
97
330
1F
100
AcDbEntity
  8
0
  6
Continuous
 62
     7
370
    35
100
AcDbLine
 10
65.0
 20
287.0
 30
0.0
 11
65.0
 21
292.0
 31
0.0
  0
LINE
  5
98
330
1F
100
AcDbEntity
  8
0
  6
Continuous
 62
     7
370
    35
100
AcDbLine
 10
65.0
 20
10.0
 30
0.0
 11
65.0
 21
5.0
 31
0.0
  0
LINE
  5
99
330
1F
100
AcDbEntity
  8
0
  6
Continuous
 62
     7
370
    35
100
AcDbLine
 10
115.0
 20
287.0
 30
0.0
 11
115.0
 21
292.0
 31
0.0
  0
LINE
  5
9A
330
1F
100
AcDbEntity
  8
0
  6
Continuous
 62
     7
370
    35
100
AcDbLine
 10
115.0
 20
10.0
 30
0.0
 11
115.0
 21
5.0
 31
0.0
  0
LINE
  5
9B
330
1F
100
AcDbEntity
  8
0
  6
Continuous
 62
     7
370
    35
100
AcDbLine
 10
165.0
 20
287.0
 30
0.0
 11
165.0
 21
292.0
 31
0.0
  0
LINE
  5
9C
330
1F
100
AcDbEntity
  8
0
  6
Continuous
 62
     7
370
    35
100
AcDbLine
 10
165.0
 20
10.0
 30
0.0
 11
165.0
 21
5.0
 31
0.0
  0
LINE
  5
9D
330
1F
100
AcDbEntity
  8
0
  6
Continuous
 62
     7
370
    35
100
AcDbLine
 10
215.0
 20
287.0
 30
0.0
 11
215.0
 21
292.0
 31
0.0
  0
LINE
  5
9E
330
1F
100
AcDbEntity
  8
0
  6
Continuous
 62
     7
370
    35
100
AcDbLine
 10
215.0
 20
10.0
 30
0.0
 11
215.0
 21
5.0
 31
0.0
  0
LINE
  5
9F
330
1F
100
AcDbEntity
  8
0
  6
Continuous
 62
     7
370
    35
100
AcDbLine
 10
265.0
 20
287.0
 30
0.0
 11
265.0
 21
292.0
 31
0.0
  0
LINE
  5
A0
330
1F
100
AcDbEntity
  8
0
  6
Continuous
 62
     7
370
    35
100
AcDbLine
 10
265.0
 20
10.0
 30
0.0
 11
265.0
 21
5.0
 31
0.0
  0
LINE
  5
A1
330
1F
100
AcDbEntity
  8
0
  6
Continuous
 62
     7
370
    35
100
AcDbLine
 10
315.0
 20
287.0
 30
0.0
 11
315.0
 21
292.0
 31
0.0
  0
LINE
  5
A2
330
1F
100
AcDbEntity
  8
0
  6
Continuous
 62
     7
370
    35
100
AcDbLine
 10
315.0
 20
10.0
 30
0.0
 11
315.0
 21
5.0
 31
0.0
  0
LINE
  5
A3
330
1F
100
AcDbEntity
  8
0
  6
Continuous
 62
     7
370
    35
100
AcDbLine
 10
365.0
 20
287.0
 30
0.0
 11
365.0
 21
292.0
 31
0.0
  0
LINE
  5
A4
330
1F
100
AcDbEntity
  8
0
  6
Continuous
 62
     7
370
    35
100
AcDbLine
 10
365.0
 20
10.0
 30
0.0
 11
365.0
 21
5.0
 31
0.0
  0
LINE
  5
A5
330
1F
100
AcDbEntity
  8
0
  6
Continuous
 62
     7
370
    70
100
AcDbLine
 10
20.0
 20
10.0
 30
0.0
 11
20.0
 21
287.0
 31
0.0
  0
LINE
  5
A6
330
1F
100
AcDbEntity
  8
0
  6
Continuous
 62
     7
370
    70
100
AcDbLine
 10
20.0
 20
287.0
 30
0.0
 11
410.0
 21
287.0
 31
0.0
  0
LINE
  5
A7
330
1F
100
AcDbEntity
  8
0
  6
Continuous
 62
     7
370
    70
100
AcDbLine
 10
410.0
 20
287.0
 30
0.0
 11
410.0
 21
10.0
 31
0.0
  0
LINE
  5
A8
330
1F
100
AcDbEntity
  8
0
  6
Continuous
 62
     7
370
    70
100
AcDbLine
 10
410.0
 20
10.0
 30
0.0
 11
20.0
 21
10.0
 31
0.0
  0
LINE
  5
A9
330
1F
100
AcDbEntity
  8
0
  6
Continuous
 62
     7
370
    70
100
AcDbLine
 10
15.0
 20
5.0
 30
0.0
 11
15.0
 21
292.0
 31
0.0
  0
LINE
  5
AA
330
1F
100
AcDbEntity
  8
0
  6
Continuous
 62
     7
370
    70
100
AcDbLine
 10
15.0
 20
292.0
 30
0.0
 11
415.0
 21
292.0
 31
0.0
  0
LINE
  5
AB
330
1F
100
AcDbEntity
  8
0
  6
Continuous
 62
     7
370
    70
100
AcDbLine
 10
415.0
 20
292.0
 30
0.0
 11
415.0
 21
5.0
 31
0.0
  0
LINE
  5
AC
330
1F
100
AcDbEntity
  8
0
  6
Continuous
 62
     7
370
    70
100
AcDbLine
 10
415.0
 20
5.0
 30
0.0
 11
15.0
 21
5.0
 31
0.0
  0
LINE
  5
AD
330
1F
100
AcDbEntity
  8
0
  6
Continuous
 62
     7
370
    35
100
AcDbLine
 10
14.999
 20
148.5
 30
0.0
 11
25.001
 21
148.5
 31
0.0
  0
LINE
  5
AE
330
1F
100
AcDbEntity
  8
0
  6
Continuous
 62
     7
370
    35
100
AcDbLine
 10
215.0
 20
292.001
 30
0.0
 11
215.0
 21
281.999
 31
0.0
  0
LINE
  5
AF
330
1F
100
AcDbEntity
  8
0
  6
Continuous
 62
     7
370
    35
100
AcDbLine
 10
415.001
 20
148.5
 30
0.0
 11
404.999
 21
148.5
 31
0.0
  0
LINE
  5
B0
330
1F
100
AcDbEntity
  8
0
  6
Continuous
 62
     7
370
    35
100
AcDbLine
 10
215.0
 20
4.999
 30
0.0
 11
215.0
 21
15.001
 31
0.0
  0
MTEXT
  5
B2
330
1F
100
AcDbEntity
  8
0
  6
Continuous
 62
     7
370
     0
100
AcDbMText
 10
364.860389088
 20
23.6069112001
 30
0.0
 40
6.35
 41
0.0
 71
     2
 72
     1
  1
CE032CORGM_#_##Svoboda
  7
SLDTEXTSTYLE0
 73
     1
 44
1.0
  0
MTEXT
  5
B3
330
1F
100
AcDbEntity
  8
0
  6
Continuous
 62
     7
370
     0
100
AcDbMText
 10
285.6178111281
 20
12.9493119036
 30
0.0
 40
1.4986
 41
0.0
 71
     1
 72
     1
  1
HMOTNOST:
  7
SLDTEXTSTYLE0
 73
     1
 44
1.0
  0
MTEXT
  5
B4
330
1F
100
AcDbEntity
  8
0
  6
Continuous
 62
     7
370
     0
100
AcDbMText
 10
400.8711564346
 20
24.406388569
 30
0.0
 40
2.9104166667
 41
0.0
 71
     1
 72
     1
  1
A3
  7
SLDTEXTSTYLE0
 73
     1
 44
1.0
  0
MTEXT
  5
B6
330
1F
100
AcDbEntity
  8
0
  6
Continuous
 62
     7
370
     0
100
AcDbMText
 10
374.4782944278
 20
12.9000872745
 30
0.0
 40
1.5
 41
0.0
 71
     1
 72
     1
  1
LIST 1 Z 1 LISTŮ
  7
SLDTEXTSTYLE1
 73
     1
 44
1.0
  0
MTEXT
  5
B8
330
1F
100
AcDbEntity
  8
0
  6
Continuous
 62
     7
370
     0
100
AcDbMText
 10
330.0739661175
 20
12.9000872745
 30
0.0
 40
1.5
 41
0.0
 71
     1
 72
     1
  1
MĚŘÍTKO:1:1
  7
SLDTEXTSTYLE2
 73
     1
 44
1.0
  0
MTEXT
  5
B9
330
1F
100
AcDbEntity
  8
0
  6
Continuous
 62
     7
370
     0
100
AcDbMText
 10
330.2786531243
 20
25.9860562892
 30
0.0
 40
1.5
 41
0.0
 71
     1
 72
     1
  1
Č. VÝKRESU
  7
SLDTEXTSTYLE2
 73
     1
 44
1.0
  0
MTEXT
  5
BA
330
1F
100
AcDbEntity
  8
0
  6
Continuous
 62
     7
370
     0
100
AcDbMText
 10
329.9561869366
 20
46.5761792212
 30
0.0
 40
1.5
 41
0.0
 71
     1
 72
     1
  1
NÁZEV:
  7
SLDTEXTSTYLE0
 73
     1
 44
1.0
  0
MTEXT
  5
BB
330
1F
100
AcDbEntity
  8
0
  6
Continuous
 62
     7
370
     0
100
AcDbMText
 10
383.3275816993
 20
62.3349086805
 30
0.0
 40
1.5
 41
0.0
 71
     1
 72
     1
  1
ZMĚNA
  7
SLDTEXTSTYLE2
 73
     1
 44
1.0
  0
MTEXT
  5
BC
330
1F
100
AcDbEntity
  8
0
  6
Continuous
 62
     7
370
     0
100
AcDbMText
 10
342.6146405229
 20
62.5329935751
 30
0.0
 40
1.5
 41
0.0
 71
     1
 72
     1
  1
NEUPRAVOVAT MĚŘÍTKO VÝKRESU
  7
SLDTEXTSTYLE2
 73
     1
 44
1.0
  0
MTEXT
  5
BD
330
1F
100
AcDbEntity
  8
0
  6
Continuous
 62
     7
370
     0
100
AcDbMText
 10
285.6458623088
 20
25.9860562892
 30
0.0
 40
1.5
 41
0.0
 71
     1
 72
     1
  1
MATERIÁL:
  7
SLDTEXTSTYLE0
 73
     1
 44
1.0
  0
MTEXT
  5
BE
330
1F
100
AcDbEntity
  8
0
  6
Continuous
 62
     7
370
     0
100
AcDbMText
 10
277.2147019657
 20
46.5761792212
 30
0.0
 40
1.5
 41
0.0
 71
     1
 72
     1
  1
DATUM
  7
SLDTEXTSTYLE0
 73
     1
 44
1.0
  0
MTEXT
  5
BF
330
1F
100
AcDbEntity
  8
0
  6
Continuous
 62
     7
370
     0
100
AcDbMText
 10
260.0335875632
 20
46.5617563795
 30
0.0
 40
1.5
 41
0.0
 71
     1
 72
     1
  1
PODPIS
  7
SLDTEXTSTYLE0
 73
     1
 44
1.0
  0
MTEXT
  5
C0
330
1F
100
AcDbEntity
  8
0
  6
Continuous
 62
     7
370
     0
100
AcDbMText
 10
244.3222392177
 20
46.5014826335
 30
0.0
 40
1.5
 41
0.0
 71
     1
 72
     1
  1
JMÉNO
  7
SLDTEXTSTYLE0
 73
     1
 44
1.0
  0
INSERT
  5
C6
330
1F
100
AcDbEntity
  8
0
  6
Continuous
 62
     7
370
     0
100
AcDbBlockReference
  2
SW_NOTE_0
 10
311.3092156863
 20
62.069489643
 30
0.0
  0
MTEXT
  5
C7
330
1F
100
AcDbEntity
  8
0
  6
Continuous
 62
     7
370
     0
100
AcDbMText
 10
264.3712921668
 20
63.9192719951
 30
0.0
 40
1.5
 41
0.0
 71
     1
 72
     1
  1
OPRACOVÁNÍ:
  7
SLDTEXTSTYLE0
 73
     1
 44
1.0
  0
INSERT
  5
D1
330
1F
100
AcDbEntity
  8
0
  6
Continuous
 62
     7
370
     0
100
AcDbBlockReference
  2
SW_NOTE_0_1
 10
230.5936687456
 20
61.9873698743
 30
0.0
  0
MTEXT
  5
D2
330
1F
100
AcDbEntity
  8
0
  6
Continuous
 62
     7
370
     0
100
AcDbMText
 10
230.6690428622
 20
25.3496492073
 30
0.0
 40
1.5
 41
0.0
 71
     1
 72
     1
  1
Z. JAKOSTI
  7
SLDTEXTSTYLE0
 73
     1
 44
1.0
  0
MTEXT
  5
D3
330
1F
100
AcDbEntity
  8
0
  6
Continuous
 62
     7
370
     0
100
AcDbMText
 10
230.4551864991
 20
29.7337046506
 30
0.0
 40
1.5
 41
0.0
 71
     1
 72
     1
  1
VÝROBA
  7
SLDTEXTSTYLE0
 73
     1
 44
1.0
  0
MTEXT
  5
D4
330
1F
100
AcDbEntity
  8
0
  6
Continuous
 62
     7
370
     0
100
AcDbMText
 10
230.4017224083
 20
34.0642960031
 30
0.0
 40
1.5
 41
0.0
 71
     1
 72
     1
  1
SCHVÁLIL
  7
SLDTEXTSTYLE0
 73
     1
 44
1.0
  0
MTEXT
  5
D5
330
1F
100
AcDbEntity
  8
0
  6
Continuous
 62
     7
370
     0
100
AcDbMText
 10
230.4104688676
 20
38.15440716
 30
0.0
 40
1.5
 41
0.0
 71
     1
 72
     1
  1
PŘEZKOUŠEL
  7
SLDTEXTSTYLE2
 73
     1
 44
1.0
  0
MTEXT
  5
D6
330
1F
100
AcDbEntity
  8
0
  6
Continuous
 62
     7
370
     0
100
AcDbMText
 10
230.2121492441
 20
42.4297148859
 30
0.0
 40
1.5
 41
0.0
 71
     1
 72
     1
  1
NAVRHL
  7
SLDTEXTSTYLE0
 73
     1
 44
1.0
  0
MTEXT
  5
D7
330
1F
100
AcDbEntity
  8
0
  6
Continuous
 62
     7
370
     0
100
AcDbMText
 10
17.3396881428
 20
31.81015409
 30
0.0
 40
3.96875
 41
0.0
 71
     2
 72
     1
  1
A
  7
SLDTEXTSTYLE0
 73
     1
 44
1.0
  0
MTEXT
  5
D8
330
1F
100
AcDbEntity
  8
0
  6
Continuous
 62
     7
370
     0
100
AcDbMText
 10
412.3396881428
 20
31.81015409
 30
0.0
 40
3.96875
 41
0.0
 71
     2
 72
     1
  1
A
  7
SLDTEXTSTYLE0
 73
     1
 44
1.0
  0
MTEXT
  5
D9
330
1F
100
AcDbEntity
  8
0
  6
Continuous
 62
     7
370
     0
100
AcDbMText
 10
17.4706018241
 20
76.06015409
 30
0.0
 40
3.96875
 41
0.0
 71
     2
 72
     1
  1
B
  7
SLDTEXTSTYLE0
 73
     1
 44
1.0
  0
MTEXT
  5
DA
330
1F
100
AcDbEntity
  8
0
  6
Continuous
 62
     7
370
     0
100
AcDbMText
 10
412.4706018241
 20
76.06015409
 30
0.0
 40
3.96875
 41
0.0
 71
     2
 72
     1
  1
B
  7
SLDTEXTSTYLE0
 73
     1
 44
1.0
  0
MTEXT
  5
DB
330
1F
100
AcDbEntity
  8
0
  6
Continuous
 62
     7
370
     0
100
AcDbMText
 10
17.458658902
 20
126.06015409
 30
0.0
 40
3.96875
 41
0.0
 71
     2
 72
     1
  1
C
  7
SLDTEXTSTYLE0
 73
     1
 44
1.0
  0
MTEXT
  5
DC
330
1F
100
AcDbEntity
  8
0
  6
Continuous
 62
     7
370
     0
100
AcDbMText
 10
412.458658902
 20
126.06015409
 30
0.0
 40
3.96875
 41
0.0
 71
     2
 72
     1
  1
C
  7
SLDTEXTSTYLE0
 73
     1
 44
1.0
  0
MTEXT
  5
DD
330
1F
100
AcDbEntity
  8
0
  6
Continuous
 62
     7
370
     0
100
AcDbMText
 10
17.4526872821
 20
176.06015409
 30
0.0
 40
3.96875
 41
0.0
 71
     2
 72
     1
  1
D
  7
SLDTEXTSTYLE0
 73
     1
 44
1.0
  0
MTEXT
  5
DE
330
1F
100
AcDbEntity
  8
0
  6
Continuous
 62
     7
370
     0
100
AcDbMText
 10
412.4526872821
 20
176.06015409
 30
0.0
 40
3.96875
 41
0.0
 71
     2
 72
     1
  1
D
  7
SLDTEXTSTYLE0
 73
     1
 44
1.0
  0
MTEXT
  5
DF
330
1F
100
AcDbEntity
  8
0
  6
Continuous
 62
     7
370
     0
100
AcDbMText
 10
17.5078089051
 20
226.06015409
 30
0.0
 40
3.96875
 41
0.0
 71
     2
 72
     1
  1
E
  7
SLDTEXTSTYLE0
 73
     1
 44
1.0
  0
MTEXT
  5
E0
330
1F
100
AcDbEntity
  8
0
  6
Continuous
 62
     7
370
     0
100
AcDbMText
 10
412.5078089051
 20
226.06015409
 30
0.0
 40
3.96875
 41
0.0
 71
     2
 72
     1
  1
E
  7
SLDTEXTSTYLE0
 73
     1
 44
1.0
  0
MTEXT
  5
E1
330
1F
100
AcDbEntity
  8
0
  6
Continuous
 62
     7
370
     0
100
AcDbMText
 10
17.4577402091
 20
270.31015409
 30
0.0
 40
3.96875
 41
0.0
 71
     2
 72
     1
  1
F
  7
SLDTEXTSTYLE0
 73
     1
 44
1.0
  0
MTEXT
  5
E2
330
1F
100
AcDbEntity
  8
0
  6
Continuous
 62
     7
370
     0
100
AcDbMText
 10
412.4577402091
 20
270.31015409
 30
0.0
 40
3.96875
 41
0.0
 71
     2
 72
     1
  1
F
  7
SLDTEXTSTYLE0
 73
     1
 44
1.0
  0
MTEXT
  5
E3
330
1F
100
AcDbEntity
  8
0
  6
Continuous
 62
     7
370
     0
100
AcDbMText
 10
42.4600369465
 20
10.06015409
 30
0.0
 40
3.96875
 41
0.0
 71
     2
 72
     1
  1
8
  7
SLDTEXTSTYLE0
 73
     1
 44
1.0
  0
MTEXT
  5
E4
330
1F
100
AcDbEntity
  8
0
  6
Continuous
 62
     7
370
     0
100
AcDbMText
 10
42.4600369465
 20
292.06015409
 30
0.0
 40
3.96875
 41
0.0
 71
     2
 72
     1
  1
8
  7
SLDTEXTSTYLE0
 73
     1
 44
1.0
  0
MTEXT
  5
E5
330
1F
100
AcDbEntity
  8
0
  6
Continuous
 62
     7
370
     0
100
AcDbMText
 10
89.9600369465
 20
10.06015409
 30
0.0
 40
3.96875
 41
0.0
 71
     2
 72
     1
  1
7
  7
SLDTEXTSTYLE0
 73
     1
 44
1.0
  0
MTEXT
  5
E6
330
1F
100
AcDbEntity
  8
0
  6
Continuous
 62
     7
370
     0
100
AcDbMText
 10
89.9600369465
 20
292.06015409
 30
0.0
 40
3.96875
 41
0.0
 71
     2
 72
     1
  1
7
  7
SLDTEXTSTYLE0
 73
     1
 44
1.0
  0
MTEXT
  5
E7
330
1F
100
AcDbEntity
  8
0
  6
Continuous
 62
     7
370
     0
100
AcDbMText
 10
139.9600369465
 20
10.06015409
 30
0.0
 40
3.96875
 41
0.0
 71
     2
 72
     1
  1
6
  7
SLDTEXTSTYLE0
 73
     1
 44
1.0
  0
MTEXT
  5
E8
330
1F
100
AcDbEntity
  8
0
  6
Continuous
 62
     7
370
     0
100
AcDbMText
 10
139.9600369465
 20
292.06015409
 30
0.0
 40
3.96875
 41
0.0
 71
     2
 72
     1
  1
6
  7
SLDTEXTSTYLE0
 73
     1
 44
1.0
  0
MTEXT
  5
E9
330
1F
100
AcDbEntity
  8
0
  6
Continuous
 62
     7
370
     0
100
AcDbMText
 10
189.9600369465
 20
10.06015409
 30
0.0
 40
3.96875
 41
0.0
 71
     2
 72
     1
  1
5
  7
SLDTEXTSTYLE0
 73
     1
 44
1.0
  0
MTEXT
  5
EA
330
1F
100
AcDbEntity
  8
0
  6
Continuous
 62
     7
370
     0
100
AcDbMText
 10
189.9600369465
 20
292.06015409
 30
0.0
 40
3.96875
 41
0.0
 71
     2
 72
     1
  1
5
  7
SLDTEXTSTYLE0
 73
     1
 44
1.0
  0
MTEXT
  5
EB
330
1F
100
AcDbEntity
  8
0
  6
Continuous
 62
     7
370
     0
100
AcDbMText
 10
239.9600369465
 20
10.06015409
 30
0.0
 40
3.96875
 41
0.0
 71
     2
 72
     1
  1
4
  7
SLDTEXTSTYLE0
 73
     1
 44
1.0
  0
MTEXT
  5
EC
330
1F
100
AcDbEntity
  8
0
  6
Continuous
 62
     7
370
     0
100
AcDbMText
 10
239.9600369465
 20
292.06015409
 30
0.0
 40
3.96875
 41
0.0
 71
     2
 72
     1
  1
4
  7
SLDTEXTSTYLE0
 73
     1
 44
1.0
  0
MTEXT
  5
ED
330
1F
100
AcDbEntity
  8
0
  6
Continuous
 62
     7
370
     0
100
AcDbMText
 10
289.9600369465
 20
10.06015409
 30
0.0
 40
3.96875
 41
0.0
 71
     2
 72
     1
  1
3
  7
SLDTEXTSTYLE0
 73
     1
 44
1.0
  0
MTEXT
  5
EE
330
1F
100
AcDbEntity
  8
0
  6
Continuous
 62
     7
370
     0
100
AcDbMText
 10
289.9600369465
 20
292.06015409
 30
0.0
 40
3.96875
 41
0.0
 71
     2
 72
     1
  1
3
  7
SLDTEXTSTYLE0
 73
     1
 44
1.0
  0
MTEXT
  5
EF
330
1F
100
AcDbEntity
  8
0
  6
Continuous
 62
     7
370
     0
100
AcDbMText
 10
339.9600369465
 20
10.06015409
 30
0.0
 40
3.96875
 41
0.0
 71
     2
 72
     1
  1
2
  7
SLDTEXTSTYLE0
 73
     1
 44
1.0
  0
MTEXT
  5
F0
330
1F
100
AcDbEntity
  8
0
  6
Continuous
 62
     7
370
     0
100
AcDbMText
 10
339.9600369465
 20
292.06015409
 30
0.0
 40
3.96875
 41
0.0
 71
     2
 72
     1
  1
2
  7
SLDTEXTSTYLE0
 73
     1
 44
1.0
  0
MTEXT
  5
F1
330
1F
100
AcDbEntity
  8
0
  6
Continuous
 62
     7
370
     0
100
AcDbMText
 10
387.4600369465
 20
10.06015409
 30
0.0
 40
3.96875
 41
0.0
 71
     2
 72
     1
  1
1
  7
SLDTEXTSTYLE0
 73
     1
 44
1.0
  0
MTEXT
  5
F2
330
1F
100
AcDbEntity
  8
0
  6
Continuous
 62
     7
370
     0
100
AcDbMText
 10
387.4600369465
 20
292.06015409
 30
0.0
 40
3.96875
 41
0.0
 71
     2
 72
     1
  1
1
  7
SLDTEXTSTYLE0
 73
     1
 44
1.0
  0
ARC
  5
F3
330
1F
100
AcDbEntity
  8
0
  6
Continuous
 62
     7
370
    25
100
AcDbCircle
 10
144.14
 20
243.0125126266
 30
0.0
 40
0.8000000000000114
100
AcDbArc
 50
0.0
 51
90.0
  0
ARC
  5
F4
330
1F
100
AcDbEntity
  8
0
  6
Continuous
 62
     7
370
    25
100
AcDbCircle
 10
138.74
 20
243.0125126266
 30
0.0
 40
0.8000000000000114
100
AcDbArc
 50
90.0
 51
180.0
  0
LINE
  5
F5
330
1F
100
AcDbEntity
  8
0
  6
Continuous
 62
     7
370
    25
100
AcDbLine
 10
137.94
 20
243.0125126266
 30
0.0
 11
137.94
 21
240.1525126266
 31
0.0
  0
LINE
  5
F6
330
1F
100
AcDbEntity
  8
0
  6
Continuous
 62
     7
370
    25
100
AcDbLine
 10
144.94
 20
240.1525126266
 30
0.0
 11
144.94
 21
243.0125126266
 31
0.0
  0
LINE
  5
F7
330
1F
100
AcDbEntity
  8
0
  6
Continuous
 62
     7
370
    25
100
AcDbLine
 10
137.94
 20
240.1525126266
 30
0.0
 11
138.28
 21
239.8125126266
 31
0.0
  0
LINE
  5
F8
330
1F
100
AcDbEntity
  8
0
  6
Continuous
 62
     7
370
    25
100
AcDbLine
 10
144.6
 20
239.8125126266
 30
0.0
 11
144.94
 21
240.1525126266
 31
0.0
  0
LINE
  5
F9
330
1F
100
AcDbEntity
  8
0
  6
Continuous
 62
     7
370
    25
100
AcDbLine
 10
101.94
 20
243.0125126266
 30
0.0
 11
101.94
 21
240.1525126266
 31
0.0
  0
LINE
  5
FA
330
1F
100
AcDbEntity
  8
0
  6
Continuous
 62
     7
370
    25
100
AcDbLine
 10
108.94
 20
240.1525126266
 30
0.0
 11
108.94
 21
243.0125126266
 31
0.0
  0
ARC
  5
FB
330
1F
100
AcDbEntity
  8
0
  6
Continuous
 62
     7
370
    25
100
AcDbCircle
 10
108.14
 20
243.0125126266
 30
0.0
 40
0.8000000000000114
100
AcDbArc
 50
0.0
 51
90.0
  0
ARC
  5
FC
330
1F
100
AcDbEntity
  8
0
  6
Continuous
 62
     7
370
    25
100
AcDbCircle
 10
102.74
 20
243.0125126266
 30
0.0
 40
0.8000000000000114
100
AcDbArc
 50
90.0
 51
180.0
  0
LINE
  5
FD
330
1F
100
AcDbEntity
  8
0
  6
Continuous
 62
     7
370
    25
100
AcDbLine
 10
101.94
 20
240.1525126266
 30
0.0
 11
102.28
 21
239.8125126266
 31
0.0
  0
LINE
  5
FE
330
1F
100
AcDbEntity
  8
0
  6
Continuous
 62
     7
370
    25
100
AcDbLine
 10
108.6
 20
239.8125126266
 30
0.0
 11
108.94
 21
240.1525126266
 31
0.0
  0
LINE
  5
FF
330
1F
100
AcDbEntity
  8
0
  6
Continuous
 62
     7
370
    25
100
AcDbLine
 10
99.64
 20
239.8125126266
 30
0.0
 11
99.64
 21
234.8125126266
 31
0.0
  0
LINE
  5
100
330
1F
100
AcDbEntity
  8
0
  6
Continuous
 62
     7
370
    25
100
AcDbLine
 10
111.24
 20
237.3125126266
 30
0.0
 11
111.24
 21
239.8125126266
 31
0.0
  0
LINE
  5
101
330
1F
100
AcDbEntity
  8
0
  6
Continuous
 62
     7
370
    25
100
AcDbLine
 10
135.64
 20
239.8125126266
 30
0.0
 11
135.64
 21
237.3125126266
 31
0.0
  0
LINE
  5
102
330
1F
100
AcDbEntity
  8
0
  6
Continuous
 62
     7
370
    25
100
AcDbLine
 10
147.24
 20
234.8125126266
 30
0.0
 11
147.24
 21
239.8125126266
 31
0.0
  0
ARC
  5
103
330
1F
100
AcDbEntity
  8
0
  6
Continuous
 62
     7
370
    25
100
AcDbCircle
 10
118.44
 20
238.3125126266
 30
0.0
 40
3.400000000000019
100
AcDbArc
 50
333.821031296
 51
0.0
  0
ARC
  5
104
330
1F
100
AcDbEntity
  8
0
  6
Continuous
 62
     7
370
    25
100
AcDbCircle
 10
118.44
 20
238.3125126266
 30
0.0
 40
3.400000000000007
100
AcDbArc
 50
0.0
 51
206.178968704
  0
LINE
  5
105
330
1F
100
AcDbEntity
  8
0
  6
Continuous
 62
     7
370
    25
100
AcDbLine
 10
121.4912292605
 20
239.8125126266
 30
0.0
 11
121.84
 21
239.8125126266
 31
0.0
  0
LINE
  5
106
330
1F
100
AcDbEntity
  8
0
  6
Continuous
 62
     7
370
    25
100
AcDbLine
 10
115.04
 20
239.8125126266
 30
0.0
 11
115.3887707395
 21
239.8125126266
 31
0.0
  0
ARC
  5
107
330
1F
100
AcDbEntity
  8
0
  6
Continuous
 62
     7
370
    25
100
AcDbCircle
 10
128.44
 20
238.3125126266
 30
0.0
 40
3.400000000000007
100
AcDbArc
 50
333.821031296
 51
0.0
  0
ARC
  5
108
330
1F
100
AcDbEntity
  8
0
  6
Continuous
 62
     7
370
    25
100
AcDbCircle
 10
128.44
 20
238.3125126266
 30
0.0
 40
3.400000000000019
100
AcDbArc
 50
0.0
 51
206.178968704
  0
LINE
  5
109
330
1F
100
AcDbEntity
  8
0
  6
Continuous
 62
     7
370
    25
100
AcDbLine
 10
131.4912292605
 20
239.8125126266
 30
0.0
 11
131.84
 21
239.8125126266
 31
0.0
  0
LINE
  5
10A
330
1F
100
AcDbEntity
  8
0
  6
Continuous
 62
     7
370
    25
100
AcDbLine
 10
125.04
 20
239.8125126266
 30
0.0
 11
125.3887707395
 21
239.8125126266
 31
0.0
  0
ARC
  5
10B
330
1F
100
AcDbEntity
  8
0
  6
Continuous
 62
     7
370
    25
100
AcDbCircle
 10
123.44
 20
207.3125126266
 30
0.0
 40
10.50000000000004
100
AcDbArc
 50
211.0027191339
 51
238.9972808661
  0
SPLINE
  5
10C
330
1F
100
AcDbEntity
  8
0
  6
Continuous
 62
     7
370
    25
100
AcDbSpline
210
0.0
220
0.0
230
1.0
 70
    24
 71
     3
 72
    12
 73
     8
 74
     0
 42
0.000000001
 43
0.00000001
 40
0.0
 40
0.0
 40
0.0
 40
0.0
 40
0.0731848774251172
 40
0.1620505111611484
 40
0.2959673735888773
 40
0.536507627688271
 40
1.0
 40
1.0
 40
1.0
 40
1.0
 10
114.4400000000208
 20
201.9041857134277
 30
0.0
 10
114.4400000000208
 20
201.9075361149097
 30
0.0
 10
114.4400000000208
 20
201.9149547824249
 30
0.0
 10
114.4400000000208
 20
201.9823416106379
 30
0.0
 10
114.4400000000208
 20
202.1317080637456
 30
0.0
 10
114.4400000000208
 20
202.4618604347012
 30
0.0
 10
114.4400000000208
 20
202.7583939833474
 30
0.0
 10
114.4400000000208
 20
202.953613683083
 30
0.0
  0
ARC
  5
10D
330
1F
100
AcDbEntity
  8
0
  6
Continuous
 62
     7
370
    25
100
AcDbCircle
 10
123.44
 20
207.3125126266
 30
0.0
 40
10.00000000000003
100
AcDbArc
 50
205.8419327632
 51
244.1580672368
  0
SPLINE
  5
10E
330
1F
100
AcDbEntity
  8
0
  6
Continuous
 62
     7
370
    25
100
AcDbSpline
210
0.0
220
0.0
230
1.0
 70
    24
 71
     3
 72
    12
 73
     8
 74
     0
 42
0.000000001
 43
0.00000001
 40
0.0
 40
0.0
 40
0.0
 40
0.0
 40
0.5662294249840584
 40
0.7007855875161976
 40
0.8361712205629496
 40
0.918364590891635
 40
1.0
 40
1.0
 40
1.0
 40
1.0
 10
119.0811010564801
 20
198.3125126266237
 30
0.0
 10
118.8400740988036
 20
198.3125126266237
 30
0.0
 10
118.5417706008048
 20
198.3125126266237
 30
0.0
 10
118.2274014811806
 20
198.3125126266237
 30
0.0
 10
118.113766228066
 20
198.3125126266237
 30
0.0
 10
118.0441362188121
 20
198.3125126266237
 30
0.0
 10
118.0358180208968
 20
198.3125126266237
 30
0.0
 10
118.0316730868248
 20
198.3125126266237
 30
0.0
  0
ARC
  5
10F
330
1F
100
AcDbEntity
  8
0
  6
Continuous
 62
     7
370
    25
100
AcDbCircle
 10
123.44
 20
207.3125126266
 30
0.0
 40
10.50000000000001
100
AcDbArc
 50
121.0027191339
 51
148.9972808661
  0
SPLINE
  5
110
330
1F
100
AcDbEntity
  8
0
  6
Continuous
 62
     7
370
    25
100
AcDbSpline
210
0.0
220
0.0
230
1.0
 70
    24
 71
     3
 72
    12
 73
     8
 74
     0
 42
0.000000001
 43
0.00000001
 40
0.0
 40
0.0
 40
0.0
 40
0.0
 40
0.0731848774251186
 40
0.1620505111611483
 40
0.2959673735888765
 40
0.5365076276882782
 40
1.0
 40
1.0
 40
1.0
 40
1.0
 10
118.0316730868248
 20
216.3125126266237
 30
0.0
 10
118.0350234883068
 20
216.3125126266237
 30
0.0
 10
118.042442155822
 20
216.3125126266237
 30
0.0
 10
118.109828984035
 20
216.3125126266237
 30
0.0
 10
118.2591954371427
 20
216.3125126266237
 30
0.0
 10
118.5893478080983
 20
216.3125126266237
 30
0.0
 10
118.8858813567445
 20
216.3125126266237
 30
0.0
 10
119.0811010564801
 20
216.3125126266237
 30
0.0
  0
ARC
  5
111
330
1F
100
AcDbEntity
  8
0
  6
Continuous
 62
     7
370
    25
100
AcDbCircle
 10
123.44
 20
207.3125126266
 30
0.0
 40
10.0
100
AcDbArc
 50
115.8419327632
 51
154.1580672368
  0
SPLINE
  5
112
330
1F
100
AcDbEntity
  8
0
  6
Continuous
 62
     7
370
    25
100
AcDbSpline
210
0.0
220
0.0
230
1.0
 70
    24
 71
     3
 72
    12
 73
     8
 74
     0
 42
0.000000001
 43
0.00000001
 40
0.0
 40
0.0
 40
0.0
 40
0.0
 40
0.5662294249840589
 40
0.7007855875161989
 40
0.8361712205629506
 40
0.9183645908916357
 40
1.0
 40
1.0
 40
1.0
 40
1.0
 10
114.4400000000208
 20
211.6714115701644
 30
0.0
 10
114.4400000000208
 20
211.9124385278409
 30
0.0
 10
114.4400000000208
 20
212.2107420258397
 30
0.0
 10
114.4400000000208
 20
212.5251111454639
 30
0.0
 10
114.4400000000208
 20
212.6387463985785
 30
0.0
 10
114.4400000000208
 20
212.7083764078324
 30
0.0
 10
114.4400000000208
 20
212.7166946057477
 30
0.0
 10
114.4400000000208
 20
212.7208395398197
 30
0.0
  0
ARC
  5
113
330
1F
100
AcDbEntity
  8
0
  6
Continuous
 62
     7
370
    25
100
AcDbCircle
 10
123.44
 20
207.3125126266
 30
0.0
 40
10.5
100
AcDbArc
 50
31.0027191339
 51
58.9972808661
  0
SPLINE
  5
114
330
1F
100
AcDbEntity
  8
0
  6
Continuous
 62
     7
370
    25
100
AcDbSpline
210
0.0
220
0.0
230
1.0
 70
    24
 71
     3
 72
    12
 73
     8
 74
     0
 42
0.000000001
 43
0.00000001
 40
0.0
 40
0.0
 40
0.0
 40
0.0
 40
0.0731848774251183
 40
0.1620505111611511
 40
0.29596737358888
 40
0.5365076276882756
 40
1.0
 40
1.0
 40
1.0
 40
1.0
 10
132.4400000000208
 20
212.7208395398197
 30
0.0
 10
132.4400000000208
 20
212.7174891383377
 30
0.0
 10
132.4400000000208
 20
212.7100704708225
 30
0.0
 10
132.4400000000208
 20
212.6426836426095
 30
0.0
 10
132.4400000000208
 20
212.4933171895018
 30
0.0
 10
132.4400000000208
 20
212.1631648185462
 30
0.0
 10
132.4400000000208
 20
211.8666312699
 30
0.0
 10
132.4400000000208
 20
211.6714115701644
 30
0.0
  0
ARC
  5
115
330
1F
100
AcDbEntity
  8
0
  6
Continuous
 62
     7
370
    25
100
AcDbCircle
 10
123.44
 20
207.3125126266
 30
0.0
 40
10.0
100
AcDbArc
 50
25.8419327632
 51
64.1580672368
  0
SPLINE
  5
116
330
1F
100
AcDbEntity
  8
0
  6
Continuous
 62
     7
370
    25
100
AcDbSpline
210
0.0
220
0.0
230
1.0
 70
    24
 71
     3
 72
    12
 73
     8
 74
     0
 42
0.000000001
 43
0.00000001
 40
0.0
 40
0.0
 40
0.0
 40
0.0
 40
0.566229424984056
 40
0.7007855875161974
 40
0.8361712205629496
 40
0.9183645908916355
 40
1.0
 40
1.0
 40
1.0
 40
1.0
 10
127.7988989435615
 20
216.3125126266237
 30
0.0
 10
128.039925901238
 20
216.3125126266237
 30
0.0
 10
128.3382293992368
 20
216.3125126266237
 30
0.0
 10
128.652598518861
 20
216.3125126266237
 30
0.0
 10
128.7662337719756
 20
216.3125126266237
 30
0.0
 10
128.8358637812295
 20
216.3125126266237
 30
0.0
 10
128.8441819791448
 20
216.3125126266237
 30
0.0
 10
128.8483269132168
 20
216.3125126266237
 30
0.0
  0
ARC
  5
117
330
1F
100
AcDbEntity
  8
0
  6
Continuous
 62
     7
370
    25
100
AcDbCircle
 10
123.44
 20
207.3125126266
 30
0.0
 40
10.50000000000003
100
AcDbArc
 50
301.0027191339
 51
328.9972808661
  0
ARC
  5
118
330
1F
100
AcDbEntity
  8
0
  6
Continuous
 62
     7
370
    25
100
AcDbCircle
 10
123.44
 20
207.3125126266
 30
0.0
 40
10.00000000000002
100
AcDbArc
 50
295.8419327632
 51
334.1580672368
  0
SPLINE
  5
119
330
1F
100
AcDbEntity
  8
0
  6
Continuous
 62
     7
370
    25
100
AcDbSpline
210
0.0
220
0.0
230
1.0
 70
    24
 71
     3
 72
    12
 73
     8
 74
     0
 42
0.000000001
 43
0.00000001
 40
0.0
 40
0.0
 40
0.0
 40
0.0
 40
0.5662294249840553
 40
0.7007855875161961
 40
0.8361712205629485
 40
0.9183645908916345
 40
1.0
 40
1.0
 40
1.0
 40
1.0
 10
132.4400000000208
 20
202.953613683083
 30
0.0
 10
132.4400000000208
 20
202.7125867254065
 30
0.0
 10
132.4400000000208
 20
202.4142832274078
 30
0.0
 10
132.4400000000208
 20
202.0999141077835
 30
0.0
 10
132.4400000000208
 20
201.9862788546689
 30
0.0
 10
132.4400000000208
 20
201.916648845415
 30
0.0
 10
132.4400000000208
 20
201.9083306474997
 30
0.0
 10
132.4400000000208
 20
201.9041857134277
 30
0.0
  0
SPLINE
  5
11A
330
1F
100
AcDbEntity
  8
0
  6
Continuous
 62
     7
370
    25
100
AcDbSpline
210
0.0
220
0.0
230
1.0
 70
    24
 71
     3
 72
    12
 73
     8
 74
     0
 42
0.000000001
 43
0.00000001
 40
0.0
 40
0.0
 40
0.0
 40
0.0
 40
0.0731848774251186
 40
0.1620505111611372
 40
0.2959673735888403
 40
0.5365076276882015
 40
1.0
 40
1.0
 40
1.0
 40
1.0
 10
128.8483269132168
 20
198.3125126266237
 30
0.0
 10
128.8449765117348
 20
198.3125126266237
 30
0.0
 10
128.8375578442196
 20
198.3125126266237
 30
0.0
 10
128.7701710160066
 20
198.3125126266237
 30
0.0
 10
128.6208045628989
 20
198.3125126266237
 30
0.0
 10
128.2906521919434
 20
198.3125126266237
 30
0.0
 10
127.9941186432971
 20
198.3125126266237
 30
0.0
 10
127.7988989435615
 20
198.3125126266237
 30
0.0
  0
CIRCLE
  5
11B
330
1F
100
AcDbEntity
  8
0
  6
Continuous
 62
     7
370
    25
100
AcDbCircle
 10
123.44
 20
207.3125126266
 30
0.0
 40
5.249999999999972
  0
CIRCLE
  5
11C
330
1F
100
AcDbEntity
  8
0
  6
Continuous
 62
     7
370
    25
100
AcDbCircle
 10
123.44
 20
207.3125126266
 30
0.0
 40
5.550000000000011
  0
LINE
  5
11D
330
1F
100
AcDbEntity
  8
0
  6
Continuous
 62
     7
370
    25
100
AcDbLine
 10
132.44
 20
202.9536136831
 30
0.0
 11
132.44
 21
211.6714115702
 31
0.0
  0
LINE
  5
11E
330
1F
100
AcDbEntity
  8
0
  6
Continuous
 62
     7
370
    25
100
AcDbLine
 10
127.7988989436
 20
216.3125126266
 30
0.0
 11
119.0811010565
 21
216.3125126266
 31
0.0
  0
LINE
  5
11F
330
1F
100
AcDbEntity
  8
0
  6
Continuous
 62
     7
370
    25
100
AcDbLine
 10
119.0811010565
 20
198.3125126266
 30
0.0
 11
127.7988989436
 21
198.3125126266
 31
0.0
  0
LINE
  5
120
330
1F
100
AcDbEntity
  8
0
  6
Continuous
 62
     7
370
    25
100
AcDbLine
 10
114.44
 20
211.6714115702
 30
0.0
 11
114.44
 21
202.9536136831
 31
0.0
  0
ARC
  5
121
330
1F
100
AcDbEntity
  8
0
  6
Continuous
 62
     7
370
    25
100
AcDbCircle
 10
123.44
 20
207.3125126266
 30
0.0
 40
10.5
100
AcDbArc
 50
58.9972808661
 51
121.0027191339
  0
ARC
  5
122
330
1F
100
AcDbEntity
  8
0
  6
Continuous
 62
     7
370
    25
100
AcDbCircle
 10
123.44
 20
207.3125126266
 30
0.0
 40
10.5
100
AcDbArc
 50
148.9972808661
 51
211.0027191339
  0
CIRCLE
  5
123
330
1F
100
AcDbEntity
  8
0
  6
Continuous
 62
     7
370
    25
100
AcDbCircle
 10
123.44
 20
207.3125126266
 30
0.0
 40
11.0
  0
ARC
  5
124
330
1F
100
AcDbEntity
  8
0
  6
Continuous
 62
     7
370
    25
100
AcDbCircle
 10
123.44
 20
207.3125126266
 30
0.0
 40
10.50000000000004
100
AcDbArc
 50
238.9972808661
 51
301.0027191339
  0
ARC
  5
125
330
1F
100
AcDbEntity
  8
0
  6
Continuous
 62
     7
370
    25
100
AcDbCircle
 10
123.44
 20
207.3125126266
 30
0.0
 40
10.5
100
AcDbArc
 50
328.9972808661
 51
31.0027191339
  0
ARC
  5
126
330
1F
100
AcDbEntity
  8
0
  6
Continuous
 62
     7
370
    25
100
AcDbCircle
 10
123.44
 20
207.3125126266
 30
0.0
 40
16.5
100
AcDbArc
 50
24.6199773287
 51
155.3800226713
  0
LINE
  5
127
330
1F
100
AcDbEntity
  8
0
  6
Continuous
 62
     7
370
    25
100
AcDbLine
 10
108.44
 20
215.3125126266
 30
0.0
 11
108.44
 21
214.1863761691
 31
0.0
  0
ARC
  5
128
330
1F
100
AcDbEntity
  8
0
  6
Continuous
 62
     7
370
    25
100
AcDbCircle
 10
123.44
 20
207.3125126266
 30
0.0
 40
17.0
100
AcDbArc
 50
28.0724869359
 51
151.9275130641
  0
LINE
  5
129
330
1F
100
AcDbEntity
  8
0
  6
Continuous
 62
     7
370
    25
100
AcDbLine
 10
138.44
 20
215.3125126266
 30
0.0
 11
138.44
 21
214.1863761691
 31
0.0
  0
ARC
  5
12A
330
1F
100
AcDbEntity
  8
0
  6
Continuous
 62
     7
370
    25
100
AcDbCircle
 10
123.44
 20
207.3125126266
 30
0.0
 40
16.50000000000002
100
AcDbArc
 50
204.6199773287
 51
335.3800226713
  0
LINE
  5
12B
330
1F
100
AcDbEntity
  8
0
  6
Continuous
 62
     7
370
    25
100
AcDbLine
 10
108.44
 20
214.1863761691
 30
0.0
 11
108.44
 21
200.4386490842
 31
0.0
  0
CIRCLE
  5
12C
330
1F
100
AcDbEntity
  8
0
  6
Continuous
 62
     7
370
    25
100
AcDbCircle
 10
123.44
 20
207.3125126266
 30
0.0
 40
11.5
  0
LINE
  5
12D
330
1F
100
AcDbEntity
  8
0
  6
Continuous
 62
     7
370
    25
100
AcDbLine
 10
138.44
 20
214.1863761691
 30
0.0
 11
138.44
 21
200.4386490842
 31
0.0
  0
ARC
  5
12E
330
1F
100
AcDbEntity
  8
0
  6
Continuous
 62
     7
370
    25
100
AcDbCircle
 10
123.44
 20
207.3125126266
 30
0.0
 40
17.00000000000001
100
AcDbArc
 50
208.0724869359
 51
331.9275130641
  0
LINE
  5
12F
330
1F
100
AcDbEntity
  8
0
  6
Continuous
 62
     7
370
    25
100
AcDbLine
 10
108.44
 20
200.4386490842
 30
0.0
 11
108.44
 21
199.3125126266
 31
0.0
  0
LINE
  5
130
330
1F
100
AcDbEntity
  8
0
  6
Continuous
 62
     7
370
    25
100
AcDbLine
 10
138.44
 20
200.4386490842
 30
0.0
 11
138.44
 21
199.3125126266
 31
0.0
  0
ARC
  5
131
330
1F
100
AcDbEntity
  8
0
  6
Continuous
 62
     7
370
    25
100
AcDbCircle
 10
123.44
 20
207.3125126266
 30
0.0
 40
17.00000000000001
100
AcDbArc
 50
331.9275130641
 51
28.0724869359
  0
ARC
  5
132
330
1F
100
AcDbEntity
  8
0
  6
Continuous
 62
     7
370
    25
100
AcDbCircle
 10
123.44
 20
207.3125126266
 30
0.0
 40
17.00000000000001
100
AcDbArc
 50
151.9275130641
 51
208.0724869359
  0
CIRCLE
  5
133
330
1F
100
AcDbEntity
  8
0
  6
Continuous
 62
     7
370
    25
100
AcDbCircle
 10
123.44
 20
207.3125126266
 30
0.0
 40
17.5
  0
CIRCLE
  5
134
330
1F
100
AcDbEntity
  8
0
  6
Continuous
 62
     7
370
    25
100
AcDbCircle
 10
123.44
 20
207.3125126266
 30
0.0
 40
21.00000000000001
  0
LINE
  5
135
330
1F
100
AcDbEntity
  8
0
  6
Continuous
 62
     7
370
    25
100
AcDbLine
 10
138.74
 20
243.8125126266
 30
0.0
 11
144.14
 21
243.8125126266
 31
0.0
  0
LINE
  5
136
330
1F
100
AcDbEntity
  8
0
  6
Continuous
 62
     7
370
    25
100
AcDbLine
 10
137.94
 20
240.1525126266
 30
0.0
 11
144.94
 21
240.1525126266
 31
0.0
  0
LINE
  5
137
330
1F
100
AcDbEntity
  8
0
  6
Continuous
 62
     7
370
    25
100
AcDbLine
 10
101.94
 20
240.1525126266
 30
0.0
 11
108.94
 21
240.1525126266
 31
0.0
  0
LINE
  5
138
330
1F
100
AcDbEntity
  8
0
  6
Continuous
 62
     7
370
    25
100
AcDbLine
 10
102.74
 20
243.8125126266
 30
0.0
 11
108.14
 21
243.8125126266
 31
0.0
  0
LINE
  5
139
330
1F
100
AcDbEntity
  8
0
  6
Continuous
 62
     7
370
    25
100
AcDbLine
 10
88.94
 20
179.8125126266
 30
0.0
 11
157.94
 21
179.8125126266
 31
0.0
  0
LINE
  5
13A
330
1F
100
AcDbEntity
  8
0
  6
Continuous
 62
     7
370
    25
100
AcDbLine
 10
85.94
 20
231.8125126266
 30
0.0
 11
85.94
 21
182.8125126266
 31
0.0
  0
LINE
  5
13B
330
1F
100
AcDbEntity
  8
0
  6
Continuous
 62
     7
370
    25
100
AcDbLine
 10
157.94
 20
234.8125126266
 30
0.0
 11
88.94
 21
234.8125126266
 31
0.0
  0
CIRCLE
  5
13C
330
1F
100
AcDbEntity
  8
0
  6
Continuous
 62
     7
370
    25
100
AcDbCircle
 10
123.44
 20
207.3125126266
 30
0.0
 40
22.5
  0
CIRCLE
  5
13D
330
1F
100
AcDbEntity
  8
0
  6
Continuous
 62
     7
370
    25
100
AcDbCircle
 10
95.94
 20
189.8125126266
 30
0.0
 40
5.25
  0
LINE
  5
13E
330
1F
100
AcDbEntity
  8
0
  6
Continuous
 62
     7
370
    25
100
AcDbLine
 10
157.94
 20
179.8125126266
 30
0.0
 11
160.94
 21
182.8125126266
 31
0.0
  0
LINE
  5
13F
330
1F
100
AcDbEntity
  8
0
  6
Continuous
 62
     7
370
    25
100
AcDbLine
 10
160.94
 20
231.8125126266
 30
0.0
 11
157.94
 21
234.8125126266
 31
0.0
  0
CIRCLE
  5
140
330
1F
100
AcDbEntity
  8
0
  6
Continuous
 62
     7
370
    25
100
AcDbCircle
 10
95.94
 20
224.8125126266
 30
0.0
 40
5.249999999999986
  0
CIRCLE
  5
141
330
1F
100
AcDbEntity
  8
0
  6
Continuous
 62
     7
370
    25
100
AcDbCircle
 10
150.94
 20
224.8125126266
 30
0.0
 40
5.250000000000028
  0
LINE
  5
142
330
1F
100
AcDbEntity
  8
0
  6
Continuous
 62
     7
370
    25
100
AcDbLine
 10
160.94
 20
182.8125126266
 30
0.0
 11
160.94
 21
231.8125126266
 31
0.0
  0
CIRCLE
  5
143
330
1F
100
AcDbEntity
  8
0
  6
Continuous
 62
     7
370
    25
100
AcDbCircle
 10
150.94
 20
189.8125126266
 30
0.0
 40
5.25
  0
LINE
  5
144
330
1F
100
AcDbEntity
  8
0
  6
Continuous
 62
     7
370
    25
100
AcDbLine
 10
85.94
 20
182.8125126266
 30
0.0
 11
88.94
 21
179.8125126266
 31
0.0
  0
LINE
  5
145
330
1F
100
AcDbEntity
  8
0
  6
Continuous
 62
     7
370
    25
100
AcDbLine
 10
88.94
 20
234.8125126266
 30
0.0
 11
85.94
 21
231.8125126266
 31
0.0
  0
LINE
  5
146
330
1F
100
AcDbEntity
  8
0
  6
Continuous
 62
     7
370
    25
100
AcDbLine
 10
105.44
 20
239.8125126266
 30
0.0
 11
111.24
 21
239.8125126266
 31
0.0
  0
LINE
  5
147
330
1F
100
AcDbEntity
  8
0
  6
Continuous
 62
     7
370
    25
100
AcDbLine
 10
99.64
 20
239.8125126266
 30
0.0
 11
105.44
 21
239.8125126266
 31
0.0
  0
LINE
  5
148
330
1F
100
AcDbEntity
  8
0
  6
Continuous
 62
     7
370
    25
100
AcDbLine
 10
141.44
 20
239.8125126266
 30
0.0
 11
135.64
 21
239.8125126266
 31
0.0
  0
LINE
  5
149
330
1F
100
AcDbEntity
  8
0
  6
Continuous
 62
     7
370
    25
100
AcDbLine
 10
147.24
 20
239.8125126266
 30
0.0
 11
141.44
 21
239.8125126266
 31
0.0
  0
ARC
  5
14A
330
1F
100
AcDbEntity
  8
0
  6
Continuous
 62
     7
370
    25
100
AcDbCircle
 10
111.24
 20
237.5125126266
 30
0.0
 40
0.2000000000000028
100
AcDbArc
 50
270.0
 51
0.0
  0
LINE
  5
14B
330
1F
100
AcDbEntity
  8
0
  6
Continuous
 62
     7
370
    25
100
AcDbLine
 10
111.44
 20
240.8125126266
 30
0.0
 11
111.44
 21
237.5125126266
 31
0.0
  0
LINE
  5
14C
330
1F
100
AcDbEntity
  8
0
  6
Continuous
 62
     7
370
    25
100
AcDbLine
 10
115.04
 20
237.0125126266
 30
0.0
 11
115.04
 21
240.2125126266
 31
0.0
  0
ARC
  5
14D
330
1F
100
AcDbEntity
  8
0
  6
Continuous
 62
     7
370
    25
100
AcDbCircle
 10
115.24
 20
237.0125126266
 30
0.0
 40
0.2000000000000171
100
AcDbArc
 50
180.0
 51
270.0
  0
LINE
  5
14E
330
1F
100
AcDbEntity
  8
0
  6
Continuous
 62
     7
370
    25
100
AcDbLine
 10
121.64
 20
236.8125126266
 30
0.0
 11
115.24
 21
236.8125126266
 31
0.0
  0
ARC
  5
14F
330
1F
100
AcDbEntity
  8
0
  6
Continuous
 62
     7
370
    25
100
AcDbCircle
 10
121.64
 20
237.0125126266
 30
0.0
 40
0.2000000000000171
100
AcDbArc
 50
270.0
 51
0.0
  0
LINE
  5
150
330
1F
100
AcDbEntity
  8
0
  6
Continuous
 62
     7
370
    25
100
AcDbLine
 10
121.84
 20
240.2125126266
 30
0.0
 11
121.84
 21
237.0125126266
 31
0.0
  0
LINE
  5
151
330
1F
100
AcDbEntity
  8
0
  6
Continuous
 62
     7
370
    25
100
AcDbLine
 10
121.09
 20
242.8125126266
 30
0.0
 11
121.09
 21
240.4125126266
 31
0.0
  0
LINE
  5
152
330
1F
100
AcDbEntity
  8
0
  6
Continuous
 62
     7
370
    25
100
AcDbLine
 10
121.09
 20
242.8125126266
 30
0.0
 11
125.79
 21
242.8125126266
 31
0.0
  0
LINE
  5
153
330
1F
100
AcDbEntity
  8
0
  6
Continuous
 62
     7
370
    25
100
AcDbLine
 10
125.24
 20
240.4125126266
 30
0.0
 11
125.79
 21
240.4125126266
 31
0.0
  0
LINE
  5
154
330
1F
100
AcDbEntity
  8
0
  6
Continuous
 62
     7
370
    25
100
AcDbLine
 10
131.64
 20
236.8125126266
 30
0.0
 11
125.24
 21
236.8125126266
 31
0.0
  0
ARC
  5
155
330
1F
100
AcDbEntity
  8
0
  6
Continuous
 62
     7
370
    25
100
AcDbCircle
 10
131.64
 20
237.0125126266
 30
0.0
 40
0.2000000000000171
100
AcDbArc
 50
270.0
 51
0.0
  0
LINE
  5
156
330
1F
100
AcDbEntity
  8
0
  6
Continuous
 62
     7
370
    25
100
AcDbLine
 10
131.84
 20
240.2125126266
 30
0.0
 11
131.84
 21
237.0125126266
 31
0.0
  0
ARC
  5
157
330
1F
100
AcDbEntity
  8
0
  6
Continuous
 62
     7
370
    25
100
AcDbCircle
 10
131.64
 20
240.2125126266
 30
0.0
 40
0.2000000000000171
100
AcDbArc
 50
0.0
 51
90.0
  0
LINE
  5
158
330
1F
100
AcDbEntity
  8
0
  6
Continuous
 62
     7
370
    25
100
AcDbLine
 10
131.09
 20
240.4125126266
 30
0.0
 11
131.64
 21
240.4125126266
 31
0.0
  0
LINE
  5
159
330
1F
100
AcDbEntity
  8
0
  6
Continuous
 62
     7
370
    25
100
AcDbLine
 10
131.09
 20
242.8125126266
 30
0.0
 11
131.09
 21
240.4125126266
 31
0.0
  0
LINE
  5
15A
330
1F
100
AcDbEntity
  8
0
  6
Continuous
 62
     7
370
    25
100
AcDbLine
 10
135.44
 20
240.8125126266
 30
0.0
 11
133.44
 21
242.8125126266
 31
0.0
  0
ARC
  5
15B
330
1F
100
AcDbEntity
  8
0
  6
Continuous
 62
     7
370
    25
100
AcDbCircle
 10
135.64
 20
237.5125126266
 30
0.0
 40
0.2000000000000171
100
AcDbArc
 50
180.0
 51
270.0
  0
LINE
  5
15C
330
1F
100
AcDbEntity
  8
0
  6
Continuous
 62
     7
370
    25
100
AcDbLine
 10
137.94
 20
237.3125126266
 30
0.0
 11
135.64
 21
237.3125126266
 31
0.0
  0
LINE
  5
15D
330
1F
100
AcDbEntity
  8
0
  6
Continuous
 62
     7
370
    25
100
AcDbLine
 10
137.94
 20
234.8125126266
 30
0.0
 11
137.94
 21
237.3125126266
 31
0.0
  0
LINE
  5
15E
330
1F
100
AcDbEntity
  8
0
  6
Continuous
 62
     7
370
    25
100
AcDbLine
 10
113.44
 20
242.8125126266
 30
0.0
 11
111.44
 21
240.8125126266
 31
0.0
  0
LINE
  5
15F
330
1F
100
AcDbEntity
  8
0
  6
Continuous
 62
     7
370
    25
100
AcDbLine
 10
125.04
 20
237.0125126266
 30
0.0
 11
125.04
 21
240.2125126266
 31
0.0
  0
LINE
  5
160
330
1F
100
AcDbEntity
  8
0
  6
Continuous
 62
     7
370
    25
100
AcDbLine
 10
115.24
 20
240.4125126266
 30
0.0
 11
115.79
 21
240.4125126266
 31
0.0
  0
LINE
  5
161
330
1F
100
AcDbEntity
  8
0
  6
Continuous
 62
     7
370
    25
100
AcDbLine
 10
133.44
 20
242.8125126266
 30
0.0
 11
131.09
 21
242.8125126266
 31
0.0
  0
LINE
  5
162
330
1F
100
AcDbEntity
  8
0
  6
Continuous
 62
     7
370
    25
100
AcDbLine
 10
121.09
 20
240.4125126266
 30
0.0
 11
121.64
 21
240.4125126266
 31
0.0
  0
LINE
  5
163
330
1F
100
AcDbEntity
  8
0
  6
Continuous
 62
     7
370
    25
100
AcDbLine
 10
125.79
 20
240.4125126266
 30
0.0
 11
125.79
 21
242.8125126266
 31
0.0
  0
LINE
  5
164
330
1F
100
AcDbEntity
  8
0
  6
Continuous
 62
     7
370
    25
100
AcDbLine
 10
115.79
 20
242.8125126266
 30
0.0
 11
113.44
 21
242.8125126266
 31
0.0
  0
LINE
  5
165
330
1F
100
AcDbEntity
  8
0
  6
Continuous
 62
     7
370
    25
100
AcDbLine
 10
111.24
 20
237.3125126266
 30
0.0
 11
108.94
 21
237.3125126266
 31
0.0
  0
LINE
  5
166
330
1F
100
AcDbEntity
  8
0
  6
Continuous
 62
     7
370
    25
100
AcDbLine
 10
135.44
 20
237.5125126266
 30
0.0
 11
135.44
 21
240.8125126266
 31
0.0
  0
LINE
  5
167
330
1F
100
AcDbEntity
  8
0
  6
Continuous
 62
     7
370
    25
100
AcDbLine
 10
108.94
 20
237.3125126266
 30
0.0
 11
108.94
 21
234.8125126266
 31
0.0
  0
ARC
  5
168
330
1F
100
AcDbEntity
  8
0
  6
Continuous
 62
     7
370
    25
100
AcDbCircle
 10
125.24
 20
237.0125126266
 30
0.0
 40
0.2000000000000171
100
AcDbArc
 50
180.0
 51
270.0
  0
ARC
  5
169
330
1F
100
AcDbEntity
  8
0
  6
Continuous
 62
     7
370
    25
100
AcDbCircle
 10
125.24
 20
240.2125126266
 30
0.0
 40
0.1999999999999886
100
AcDbArc
 50
90.0
 51
180.0
  0
LINE
  5
16A
330
1F
100
AcDbEntity
  8
0
  6
Continuous
 62
     7
370
    25
100
AcDbLine
 10
115.79
 20
240.4125126266
 30
0.0
 11
115.79
 21
242.8125126266
 31
0.0
  0
ARC
  5
16B
330
1F
100
AcDbEntity
  8
0
  6
Continuous
 62
     7
370
    25
100
AcDbCircle
 10
115.24
 20
240.2125126266
 30
0.0
 40
0.2000000000000028
100
AcDbArc
 50
90.0
 51
180.0
  0
ARC
  5
16C
330
1F
100
AcDbEntity
  8
0
  6
Continuous
 62
     7
370
    25
100
AcDbCircle
 10
121.64
 20
240.2125126266
 30
0.0
 40
0.1999999999999886
100
AcDbArc
 50
0.0
 51
90.0
  0
LINE
  5
16D
330
1F
100
AcDbEntity
  8
0
  6
Continuous
 62
     8
370
    25
100
AcDbLine
 10
144.94
 20
243.0125126266
 30
0.0
 11
137.94
 21
243.0125126266
 31
0.0
  0
LINE
  5
16E
330
1F
100
AcDbEntity
  8
0
  6
Continuous
 62
     8
370
    25
100
AcDbLine
 10
108.94
 20
243.0125126266
 30
0.0
 11
101.94
 21
243.0125126266
 31
0.0
  0
DIMENSION
  5
16F
330
1F
100
AcDbEntity
  8
0
  6
Continuous
 62
     7
370
    18
100
AcDbDimension
  2
_D
 10
150.94
 20
169.8125126266
 30
0.0
 11
123.44
 21
169.8125126266
 31
0.0
 70
   160
  1
<>
 71
     2
 42
-1.0
  3
SLDDIMSTYLE0
100
AcDbAlignedDimension
 13
95.94
 23
182.0625126266
 33
0.0
 14
150.94
 24
182.0625126266
 34
0.0
100
AcDbRotatedDimension
  0
DIMENSION
  5
17A
330
1F
100
AcDbEntity
  8
0
  6
Continuous
 62
     7
370
    18
100
AcDbDimension
  2
_D_1
 10
85.94
 20
163.8125126266
 30
0.0
 11
123.44
 21
163.8125126266
 31
0.0
 70
   160
  1
<>
 71
     2
 42
-1.0
  3
SLDDIMSTYLE1
100
AcDbAlignedDimension
 13
160.94
 23
182.8125126266
 33
0.0
 14
85.94
 24
182.8125126266
 34
0.0
100
AcDbRotatedDimension
  0
DIMENSION
  5
185
330
1F
100
AcDbEntity
  8
0
  6
Continuous
 62
     7
370
    18
100
AcDbDimension
  2
_D_2
 10
170.94
 20
224.8125126266
 30
0.0
 11
170.94
 21
207.3125126266
 31
0.0
 70
   160
  1
<>
 71
     2
 42
-1.0
  3
SLDDIMSTYLE0
100
AcDbAlignedDimension
 13
158.69
 23
189.8125126266
 33
0.0
 14
158.69
 24
224.8125126266
 34
0.0
 50
90.0
100
AcDbRotatedDimension
  0
DIMENSION
  5
18F
330
1F
100
AcDbEntity
  8
0
  6
Continuous
 62
     7
370
    18
100
AcDbDimension
  2
_D_3
 10
176.94
 20
234.8125126266
 30
0.0
 11
176.94
 21
207.3125126266
 31
0.0
 70
   160
  1
<>
 71
     2
 42
-1.0
  3
SLDDIMSTYLE0
100
AcDbAlignedDimension
 13
157.94
 23
179.8125126266
 33
0.0
 14
157.94
 24
234.8125126266
 34
0.0
 50
90.0
100
AcDbRotatedDimension
  0
DIMENSION
  5
199
330
1F
100
AcDbEntity
  8
0
  6
Continuous
 62
     7
370
    18
100
AcDbDimension
  2
_D_4
 10
127.3644426356
 20
203.388069991
 30
0.0
 11
76.6925226266
 21
254.06001
 31
0.0
 70
   163
  1
M12x1.75
 71
     1
 42
-1.0
  3
SLDDIMSTYLE2
100
AcDbDiametricDimension
 15
119.5155573644
 25
211.2369552622
 35
0.0
 40
0.0
  0
DIMENSION
  5
1A5
330
1F
100
AcDbEntity
  8
0
  6
Continuous
 62
     7
370
    18
100
AcDbDimension
  2
_D_5
 10
170.94
 20
242.8125126266
 30
0.0
 11
170.94
 21
238.8125126266
 31
0.0
 70
   160
  1
<>
 71
     2
 42
-1.0
  3
SLDDIMSTYLE3
100
AcDbAlignedDimension
 13
157.94
 23
234.8125126266
 33
0.0
 14
125.79
 24
242.8125126266
 34
0.0
 50
90.0
100
AcDbRotatedDimension
  0
DIMENSION
  5
1B2
330
1F
100
AcDbEntity
  8
0
  6
Continuous
 62
     7
370
    18
100
AcDbDimension
  2
_D_6
 10
131.2181745931
 20
215.0906872197
 30
0.0
 11
85.94001
 21
169.8125226266
 31
0.0
 70
   163
  1
<>
 71
     1
 42
-1.0
  3
SLDDIMSTYLE4
100
AcDbDiametricDimension
 15
115.661825407
 25
199.5343380336
 35
0.0
 40
0.0
  0
INSERT
  5
1C9
330
1F
100
AcDbEntity
  8
0
  6
Continuous
 62
     7
370
     0
100
AcDbBlockReference
  2
SW_CENTERMARKSYMBOL_0
 10
123.44
 20
207.3125126266
 30
0.0
  0
INSERT
  5
1D5
330
1F
100
AcDbEntity
  8
0
  6
Continuous
 62
     7
370
     0
100
AcDbBlockReference
  2
SW_CENTERMARKSYMBOL_1
 10
150.94
 20
189.8125126266
 30
0.0
  0
INSERT
  5
1E1
330
1F
100
AcDbEntity
  8
0
  6
Continuous
 62
     7
370
     0
100
AcDbBlockReference
  2
SW_CENTERMARKSYMBOL_2
 10
150.94
 20
224.8125126266
 30
0.0
  0
INSERT
  5
1ED
330
1F
100
AcDbEntity
  8
0
  6
Continuous
 62
     7
370
     0
100
AcDbBlockReference
  2
SW_CENTERMARKSYMBOL_3
 10
95.94
 20
224.8125126266
 30
0.0
  0
INSERT
  5
1F9
330
1F
100
AcDbEntity
  8
0
  6
Continuous
 62
     7
370
     0
100
AcDbBlockReference
  2
SW_CENTERMARKSYMBOL_4
 10
95.94
 20
189.8125126266
 30
0.0
  0
LINE
  5
1FA
330
1F
100
AcDbEntity
  8
0
  6
CENTERX2
 62
     7
370
    18
100
AcDbLine
 10
105.44
 20
240.1525126266
 30
0.0
 11
105.44
 21
245.8125126266
 31
0.0
  0
LINE
  5
1FB
330
1F
100
AcDbEntity
  8
0
  6
CENTERX2
 62
     7
370
    18
100
AcDbLine
 10
105.44
 20
240.1525126266
 30
0.0
 11
105.44
 21
239.8125126266
 31
0.0
  0
LINE
  5
1FC
330
1F
100
AcDbEntity
  8
0
  6
CENTERX2
 62
     7
370
    18
100
AcDbLine
 10
141.44
 20
240.1525126266
 30
0.0
 11
141.44
 21
245.8125126266
 31
0.0
  0
LINE
  5
1FD
330
1F
100
AcDbEntity
  8
0
  6
CENTERX2
 62
     7
370
    18
100
AcDbLine
 10
141.44
 20
240.1525126266
 30
0.0
 11
141.44
 21
239.8125126266
 31
0.0
  0
LINE
  5
1FE
330
1F
100
AcDbEntity
  8
0
  6
CENTERX2
 62
     7
370
    18
100
AcDbLine
 10
105.44
 20
232.8125126266
 30
0.0
 11
105.44
 21
239.8125126266
 31
0.0
  0
LINE
  5
1FF
330
1F
100
AcDbEntity
  8
0
  6
CENTERX2
 62
     7
370
    18
100
AcDbLine
 10
141.44
 20
232.8125126266
 30
0.0
 11
141.44
 21
239.8125126266
 31
0.0
  0
LINE
  5
200
330
1F
100
AcDbEntity
  8
0
  6
Continuous
 62
     7
370
    25
100
AcDbLine
 10
100.846321168
 20
122.9592282188
 30
0.0
 11
100.846321168
 21
119.9537434998
 31
0.0
  0
LINE
  5
201
330
1F
100
AcDbEntity
  8
0
  6
Continuous
 62
     7
370
    25
100
AcDbLine
 10
108.2024026482
 20
119.9537434998
 30
0.0
 11
108.2024026482
 21
122.9592282188
 31
0.0
  0
ARC
  5
202
330
1F
100
AcDbEntity
  8
0
  6
Continuous
 62
     7
370
    25
100
AcDbCircle
 10
107.3617076219
 20
122.9592282188
 30
0.0
 40
0.8406950263063209
100
AcDbArc
 50
0.0
 51
90.0
  0
ARC
  5
203
330
1F
100
AcDbEntity
  8
0
  6
Continuous
 62
     7
370
    25
100
AcDbCircle
 10
101.6870161943
 20
122.9592282188
 30
0.0
 40
0.8406950263063067
100
AcDbArc
 50
90.0
 51
180.0
  0
LINE
  5
204
330
1F
100
AcDbEntity
  8
0
  6
Continuous
 62
     7
370
    25
100
AcDbLine
 10
100.846321168
 20
119.9537434998
 30
0.0
 11
101.2036165542
 21
119.5964481136
 31
0.0
  0
LINE
  5
205
330
1F
100
AcDbEntity
  8
0
  6
Continuous
 62
     7
370
    25
100
AcDbLine
 10
107.845107262
 20
119.5964481136
 30
0.0
 11
108.2024026482
 21
119.9537434998
 31
0.0
  0
LINE
  5
206
330
1F
100
AcDbEntity
  8
0
  6
Continuous
 62
     7
370
    25
100
AcDbLine
 10
138.6775973518
 20
122.9592282188
 30
0.0
 11
138.6775973518
 21
119.9537434998
 31
0.0
  0
LINE
  5
207
330
1F
100
AcDbEntity
  8
0
  6
Continuous
 62
     7
370
    25
100
AcDbLine
 10
146.033678832
 20
119.9537434998
 30
0.0
 11
146.033678832
 21
122.9592282188
 31
0.0
  0
ARC
  5
208
330
1F
100
AcDbEntity
  8
0
  6
Continuous
 62
     7
370
    25
100
AcDbCircle
 10
145.1929838057
 20
122.9592282188
 30
0.0
 40
0.8406950263063209
100
AcDbArc
 50
0.0
 51
90.0
  0
ARC
  5
209
330
1F
100
AcDbEntity
  8
0
  6
Continuous
 62
     7
370
    25
100
AcDbCircle
 10
139.5182923781
 20
122.9592282188
 30
0.0
 40
0.8406950263063067
100
AcDbArc
 50
90.0
 51
180.0
  0
LINE
  5
20A
330
1F
100
AcDbEntity
  8
0
  6
Continuous
 62
     7
370
    25
100
AcDbLine
 10
138.6775973518
 20
119.9537434998
 30
0.0
 11
139.034892738
 21
119.5964481136
 31
0.0
  0
LINE
  5
20B
330
1F
100
AcDbEntity
  8
0
  6
Continuous
 62
     7
370
    25
100
AcDbLine
 10
145.6763834458
 20
119.5964481136
 30
0.0
 11
146.033678832
 21
119.9537434998
 31
0.0
  0
LINE
  5
20C
330
1F
100
AcDbEntity
  8
0
  6
Continuous
 62
     7
370
    25
100
AcDbLine
 10
136.2605991512
 20
119.5964481136
 30
0.0
 11
136.2605991512
 21
116.9692761564
 31
0.0
  0
LINE
  5
20D
330
1F
100
AcDbEntity
  8
0
  6
Continuous
 62
     7
370
    25
100
AcDbLine
 10
148.4506770326
 20
114.3421041992
 30
0.0
 11
148.4506770326
 21
119.5964481136
 31
0.0
  0
LINE
  5
20E
330
1F
100
AcDbEntity
  8
0
  6
Continuous
 62
     7
370
    25
100
AcDbLine
 10
98.4293229674
 20
119.5964481136
 30
0.0
 11
98.4293229674
 21
114.3421041992
 31
0.0
  0
LINE
  5
20F
330
1F
100
AcDbEntity
  8
0
  6
Continuous
 62
     7
370
    25
100
AcDbLine
 10
110.6194008488
 20
116.9692761564
 30
0.0
 11
110.6194008488
 21
119.5964481136
 31
0.0
  0
CIRCLE
  5
210
330
1F
100
AcDbEntity
  8
0
  6
Continuous
 62
     7
370
    25
100
AcDbCircle
 10
128.6943439144
 20
118.0201449393
 30
0.0
 40
1.786476930900903
  0
CIRCLE
  5
211
330
1F
100
AcDbEntity
  8
0
  6
Continuous
 62
     7
370
    25
100
AcDbCircle
 10
128.6943439144
 20
118.0201449393
 30
0.0
 40
2.101737565765774
  0
CIRCLE
  5
212
330
1F
100
AcDbEntity
  8
0
  6
Continuous
 62
     7
370
    25
100
AcDbCircle
 10
128.6943439144
 20
118.0201449393
 30
0.0
 40
3.4153235443694
  0
LINE
  5
213
330
1F
100
AcDbEntity
  8
0
  6
Continuous
 62
     7
370
    25
100
AcDbLine
 10
125.1213900526
 20
116.443841765
 30
0.0
 11
125.6645414101
 21
116.443841765
 31
0.0
  0
LINE
  5
214
330
1F
100
AcDbEntity
  8
0
  6
Continuous
 62
     7
370
    25
100
AcDbLine
 10
125.1213900526
 20
119.5964481136
 30
0.0
 11
125.1213900526
 21
116.443841765
 31
0.0
  0
LINE
  5
215
330
1F
100
AcDbEntity
  8
0
  6
Continuous
 62
     7
370
    25
100
AcDbLine
 10
125.6645414101
 20
119.5964481136
 30
0.0
 11
125.1213900526
 21
119.5964481136
 31
0.0
  0
LINE
  5
216
330
1F
100
AcDbEntity
  8
0
  6
Continuous
 62
     7
370
    25
100
AcDbLine
 10
132.2672977762
 20
119.5964481136
 30
0.0
 11
131.7241464188
 21
119.5964481136
 31
0.0
  0
LINE
  5
217
330
1F
100
AcDbEntity
  8
0
  6
Continuous
 62
     7
370
    25
100
AcDbLine
 10
132.2672977762
 20
116.443841765
 30
0.0
 11
132.2672977762
 21
119.5964481136
 31
0.0
  0
LINE
  5
218
330
1F
100
AcDbEntity
  8
0
  6
Continuous
 62
     7
370
    25
100
AcDbLine
 10
131.7241464188
 20
116.443841765
 30
0.0
 11
132.2672977762
 21
116.443841765
 31
0.0
  0
ARC
  5
219
330
1F
100
AcDbEntity
  8
0
  6
Continuous
 62
     7
370
    25
100
AcDbCircle
 10
128.6943439144
 20
118.0201449393
 30
0.0
 40
3.572953861801836
100
AcDbArc
 50
26.178968704
 51
153.821031296
  0
CIRCLE
  5
21A
330
1F
100
AcDbEntity
  8
0
  6
Continuous
 62
     7
370
    25
100
AcDbCircle
 10
118.1856560856
 20
118.0201449393
 30
0.0
 40
1.786476930900903
  0
CIRCLE
  5
21B
330
1F
100
AcDbEntity
  8
0
  6
Continuous
 62
     7
370
    25
100
AcDbCircle
 10
118.1856560856
 20
118.0201449393
 30
0.0
 40
2.101737565765788
  0
CIRCLE
  5
21C
330
1F
100
AcDbEntity
  8
0
  6
Continuous
 62
     7
370
    25
100
AcDbCircle
 10
118.1856560856
 20
118.0201449393
 30
0.0
 40
3.415323544369386
  0
LINE
  5
21D
330
1F
100
AcDbEntity
  8
0
  6
Continuous
 62
     7
370
    25
100
AcDbLine
 10
121.7586099474
 20
119.5964481136
 30
0.0
 11
121.21545859
 21
119.5964481136
 31
0.0
  0
LINE
  5
21E
330
1F
100
AcDbEntity
  8
0
  6
Continuous
 62
     7
370
    25
100
AcDbLine
 10
121.7586099474
 20
116.443841765
 30
0.0
 11
121.7586099474
 21
119.5964481136
 31
0.0
  0
LINE
  5
21F
330
1F
100
AcDbEntity
  8
0
  6
Continuous
 62
     7
370
    25
100
AcDbLine
 10
121.21545859
 20
116.443841765
 30
0.0
 11
121.7586099474
 21
116.443841765
 31
0.0
  0
LINE
  5
220
330
1F
100
AcDbEntity
  8
0
  6
Continuous
 62
     7
370
    25
100
AcDbLine
 10
114.6127022238
 20
119.5964481136
 30
0.0
 11
114.6127022238
 21
116.443841765
 31
0.0
  0
LINE
  5
221
330
1F
100
AcDbEntity
  8
0
  6
Continuous
 62
     7
370
    25
100
AcDbLine
 10
115.1558535813
 20
119.5964481136
 30
0.0
 11
114.6127022238
 21
119.5964481136
 31
0.0
  0
LINE
  5
222
330
1F
100
AcDbEntity
  8
0
  6
Continuous
 62
     7
370
    25
100
AcDbLine
 10
114.6127022238
 20
116.443841765
 30
0.0
 11
115.1558535813
 21
116.443841765
 31
0.0
  0
ARC
  5
223
330
1F
100
AcDbEntity
  8
0
  6
Continuous
 62
     7
370
    25
100
AcDbCircle
 10
118.1856560856
 20
118.0201449393
 30
0.0
 40
3.572953861801836
100
AcDbArc
 50
26.178968704
 51
153.821031296
  0
LINE
  5
224
330
1F
100
AcDbEntity
  8
0
  6
Continuous
 62
     7
370
    25
100
AcDbLine
 10
102.7266727278
 20
119.9537434998
 30
0.0
 11
108.2024026482
 21
119.9537434998
 31
0.0
  0
LINE
  5
225
330
1F
100
AcDbEntity
  8
0
  6
Continuous
 62
     7
370
    25
100
AcDbLine
 10
100.846321168
 20
119.9537434998
 30
0.0
 11
102.7266727278
 21
119.9537434998
 31
0.0
  0
LINE
  5
226
330
1F
100
AcDbEntity
  8
0
  6
Continuous
 62
     7
370
    25
100
AcDbLine
 10
103.1375731119
 20
123.7999232451
 30
0.0
 11
107.3617076219
 21
123.7999232451
 31
0.0
  0
LINE
  5
227
330
1F
100
AcDbEntity
  8
0
  6
Continuous
 62
     7
370
    25
100
AcDbLine
 10
101.6870161943
 20
123.7999232451
 30
0.0
 11
103.1375731119
 21
123.7999232451
 31
0.0
  0
LINE
  5
228
330
1F
100
AcDbEntity
  8
0
  6
Continuous
 62
     7
370
    25
100
AcDbLine
 10
140.5579489116
 20
119.9537434998
 30
0.0
 11
146.033678832
 21
119.9537434998
 31
0.0
  0
LINE
  5
229
330
1F
100
AcDbEntity
  8
0
  6
Continuous
 62
     7
370
    25
100
AcDbLine
 10
138.6775973518
 20
119.9537434998
 30
0.0
 11
140.5579489116
 21
119.9537434998
 31
0.0
  0
LINE
  5
22A
330
1F
100
AcDbEntity
  8
0
  6
Continuous
 62
     7
370
    25
100
AcDbLine
 10
140.9688492957
 20
123.7999232451
 30
0.0
 11
145.1929838057
 21
123.7999232451
 31
0.0
  0
LINE
  5
22B
330
1F
100
AcDbEntity
  8
0
  6
Continuous
 62
     7
370
    25
100
AcDbLine
 10
139.5182923781
 20
123.7999232451
 30
0.0
 11
140.9688492957
 21
123.7999232451
 31
0.0
  0
LINE
  5
22C
330
1F
100
AcDbEntity
  8
0
  6
Continuous
 62
     7
370
    25
100
AcDbLine
 10
159.6949730095
 20
114.3421041992
 30
0.0
 11
162.8475793581
 21
111.1894978506
 31
0.0
  0
LINE
  5
22D
330
1F
100
AcDbEntity
  8
0
  6
Continuous
 62
     7
370
    25
100
AcDbLine
 10
162.8475793581
 20
59.6969274893
 30
0.0
 11
159.6949730095
 21
56.5443211407
 31
0.0
  0
LINE
  5
22E
330
1F
100
AcDbEntity
  8
0
  6
Continuous
 62
     7
370
    25
100
AcDbLine
 10
87.1850269906
 20
56.5443211407
 30
0.0
 11
84.0324206419
 21
59.6969274893
 31
0.0
  0
CIRCLE
  5
22F
330
1F
100
AcDbEntity
  8
0
  6
Continuous
 62
     7
370
    25
100
AcDbCircle
 10
152.3388915293
 20
103.8334163704
 30
0.0
 40
5.51706111013516
  0
CIRCLE
  5
230
330
1F
100
AcDbEntity
  8
0
  6
Continuous
 62
     7
370
    25
100
AcDbCircle
 10
94.5411084707
 20
103.8334163704
 30
0.0
 40
5.517061110135202
  0
CIRCLE
  5
231
330
1F
100
AcDbEntity
  8
0
  6
Continuous
 62
     7
370
    25
100
AcDbCircle
 10
94.5411084707
 20
67.0530089695
 30
0.0
 40
5.517061110135174
  0
CIRCLE
  5
232
330
1F
100
AcDbEntity
  8
0
  6
Continuous
 62
     7
370
    25
100
AcDbCircle
 10
152.3388915293
 20
67.0530089695
 30
0.0
 40
5.517061110135188
  0
CIRCLE
  5
233
330
1F
100
AcDbEntity
  8
0
  6
Continuous
 62
     7
370
    25
100
AcDbCircle
 10
123.44
 20
85.4432126699
 30
0.0
 40
5.254343914414449
  0
LINE
  5
234
330
1F
100
AcDbEntity
  8
0
  6
Continuous
 62
     7
370
    25
100
AcDbLine
 10
84.0324206419
 20
111.1894978506
 30
0.0
 11
87.1850269906
 21
114.3421041992
 31
0.0
  0
LINE
  5
235
330
1F
100
AcDbEntity
  8
0
  6
Continuous
 62
     7
370
    25
100
AcDbLine
 10
162.8475793581
 20
111.1894978506
 30
0.0
 11
162.8475793581
 21
59.6969274893
 31
0.0
  0
LINE
  5
236
330
1F
100
AcDbEntity
  8
0
  6
Continuous
 62
     7
370
    25
100
AcDbLine
 10
84.0324206419
 20
59.6969274893
 30
0.0
 11
84.0324206419
 21
111.1894978506
 31
0.0
  0
LINE
  5
237
330
1F
100
AcDbEntity
  8
0
  6
Continuous
 62
     7
370
    25
100
AcDbLine
 10
87.1850269906
 20
114.3421041992
 30
0.0
 11
159.6949730095
 21
114.3421041992
 31
0.0
  0
LINE
  5
238
330
1F
100
AcDbEntity
  8
0
  6
Continuous
 62
     7
370
    25
100
AcDbLine
 10
159.6949730095
 20
56.5443211407
 30
0.0
 11
87.1850269906
 21
56.5443211407
 31
0.0
  0
CIRCLE
  5
239
330
1F
100
AcDbEntity
  8
0
  6
Continuous
 62
     7
370
    25
100
AcDbCircle
 10
154.9660634865
 20
85.4432126699
 30
0.0
 40
5.254343914414449
  0
CIRCLE
  5
23A
330
1F
100
AcDbEntity
  8
0
  6
Continuous
 62
     7
370
    25
100
AcDbCircle
 10
123.44
 20
85.4432126699
 30
0.0
 40
2.101737565765774
  0
CIRCLE
  5
23B
330
1F
100
AcDbEntity
  8
0
  6
Continuous
 62
     7
370
    25
100
AcDbCircle
 10
154.9660634865
 20
85.4432126699
 30
0.0
 40
2.101737565765802
  0
CIRCLE
  5
23C
330
1F
100
AcDbEntity
  8
0
  6
Continuous
 62
     7
370
    25
100
AcDbCircle
 10
123.44
 20
85.4432126699
 30
0.0
 40
0.5254343914414363
  0
LINE
  5
23D
330
1F
100
AcDbEntity
  8
0
  6
Continuous
 62
     7
370
    25
100
AcDbLine
 10
142.3556380919
 20
119.5964481136
 30
0.0
 11
136.2605991512
 21
119.5964481136
 31
0.0
  0
LINE
  5
23E
330
1F
100
AcDbEntity
  8
0
  6
Continuous
 62
     7
370
    25
100
AcDbLine
 10
148.4506770326
 20
119.5964481136
 30
0.0
 11
142.3556380919
 21
119.5964481136
 31
0.0
  0
LINE
  5
23F
330
1F
100
AcDbEntity
  8
0
  6
Continuous
 62
     7
370
    25
100
AcDbLine
 10
104.5243619081
 20
119.5964481136
 30
0.0
 11
110.6194008488
 21
119.5964481136
 31
0.0
  0
LINE
  5
240
330
1F
100
AcDbEntity
  8
0
  6
Continuous
 62
     7
370
    25
100
AcDbLine
 10
98.4293229674
 20
119.5964481136
 30
0.0
 11
104.5243619081
 21
119.5964481136
 31
0.0
  0
LINE
  5
241
330
1F
100
AcDbEntity
  8
0
  6
Continuous
 62
     7
370
    25
100
AcDbLine
 10
138.6775973518
 20
114.3421041992
 30
0.0
 11
108.2024026482
 21
114.3421041992
 31
0.0
  0
LINE
  5
242
330
1F
100
AcDbEntity
  8
0
  6
Continuous
 62
     7
370
    25
100
AcDbLine
 10
108.2024026482
 20
114.3421041992
 30
0.0
 11
108.2024026482
 21
116.9692761564
 31
0.0
  0
LINE
  5
243
330
1F
100
AcDbEntity
  8
0
  6
Continuous
 62
     7
370
    25
100
AcDbLine
 10
108.2024026482
 20
116.9692761564
 30
0.0
 11
110.6194008488
 21
116.9692761564
 31
0.0
  0
ARC
  5
244
330
1F
100
AcDbEntity
  8
0
  6
Continuous
 62
     7
370
    25
100
AcDbCircle
 10
110.6194008488
 20
117.179449913
 30
0.0
 40
0.2101737565765944
100
AcDbArc
 50
270.0
 51
0.0
  0
LINE
  5
245
330
1F
100
AcDbEntity
  8
0
  6
Continuous
 62
     7
370
    25
100
AcDbLine
 10
110.8295746054
 20
117.179449913
 30
0.0
 11
110.8295746054
 21
120.6473168965
 31
0.0
  0
LINE
  5
246
330
1F
100
AcDbEntity
  8
0
  6
Continuous
 62
     7
370
    25
100
AcDbLine
 10
110.8295746054
 20
120.6473168965
 30
0.0
 11
112.9313121712
 21
122.7490544623
 31
0.0
  0
LINE
  5
247
330
1F
100
AcDbEntity
  8
0
  6
Continuous
 62
     7
370
    25
100
AcDbLine
 10
112.9313121712
 20
122.7490544623
 30
0.0
 11
115.400853811
 21
122.7490544623
 31
0.0
  0
ARC
  5
248
330
1F
100
AcDbEntity
  8
0
  6
Continuous
 62
     7
370
    25
100
AcDbCircle
 10
114.8228759804
 20
120.0167956268
 30
0.0
 40
0.2101737565765802
100
AcDbArc
 50
90.0
 51
180.0
  0
LINE
  5
249
330
1F
100
AcDbEntity
  8
0
  6
Continuous
 62
     7
370
    25
100
AcDbLine
 10
114.6127022238
 20
120.0167956268
 30
0.0
 11
114.6127022238
 21
119.5964481136
 31
0.0
  0
LINE
  5
24A
330
1F
100
AcDbEntity
  8
0
  6
Continuous
 62
     7
370
    25
100
AcDbLine
 10
121.7586099474
 20
119.5964481136
 30
0.0
 11
121.7586099474
 21
120.0167956268
 31
0.0
  0
ARC
  5
24B
330
1F
100
AcDbEntity
  8
0
  6
Continuous
 62
     7
370
    25
100
AcDbCircle
 10
121.5484361908
 20
120.0167956268
 30
0.0
 40
0.2101737565765802
100
AcDbArc
 50
0.0
 51
90.0
  0
LINE
  5
24C
330
1F
100
AcDbEntity
  8
0
  6
Continuous
 62
     7
370
    25
100
AcDbLine
 10
121.5484361908
 20
120.2269693834
 30
0.0
 11
120.9704583602
 21
120.2269693834
 31
0.0
  0
LINE
  5
24D
330
1F
100
AcDbEntity
  8
0
  6
Continuous
 62
     7
370
    25
100
AcDbLine
 10
120.9704583602
 20
120.2269693834
 30
0.0
 11
120.9704583602
 21
122.7490544623
 31
0.0
  0
LINE
  5
24E
330
1F
100
AcDbEntity
  8
0
  6
Continuous
 62
     7
370
    25
100
AcDbLine
 10
125.9095416398
 20
122.7490544623
 30
0.0
 11
120.9704583602
 21
122.7490544623
 31
0.0
  0
LINE
  5
24F
330
1F
100
AcDbEntity
  8
0
  6
Continuous
 62
     7
370
    25
100
AcDbLine
 10
125.9095416398
 20
122.7490544623
 30
0.0
 11
125.9095416398
 21
120.2269693834
 31
0.0
  0
LINE
  5
250
330
1F
100
AcDbEntity
  8
0
  6
Continuous
 62
     7
370
    25
100
AcDbLine
 10
125.9095416398
 20
120.2269693834
 30
0.0
 11
125.3315638092
 21
120.2269693834
 31
0.0
  0
ARC
  5
251
330
1F
100
AcDbEntity
  8
0
  6
Continuous
 62
     7
370
    25
100
AcDbCircle
 10
125.3315638092
 20
120.0167956268
 30
0.0
 40
0.2101737565765802
100
AcDbArc
 50
90.0
 51
180.0
  0
LINE
  5
252
330
1F
100
AcDbEntity
  8
0
  6
Continuous
 62
     7
370
    25
100
AcDbLine
 10
125.1213900526
 20
120.0167956268
 30
0.0
 11
125.1213900526
 21
119.5964481136
 31
0.0
  0
LINE
  5
253
330
1F
100
AcDbEntity
  8
0
  6
Continuous
 62
     7
370
    25
100
AcDbLine
 10
132.2672977762
 20
119.5964481136
 30
0.0
 11
132.2672977762
 21
120.0167956268
 31
0.0
  0
ARC
  5
254
330
1F
100
AcDbEntity
  8
0
  6
Continuous
 62
     7
370
    25
100
AcDbCircle
 10
132.0571240197
 20
120.0167956268
 30
0.0
 40
0.2101737565765802
100
AcDbArc
 50
0.0
 51
90.0
  0
LINE
  5
255
330
1F
100
AcDbEntity
  8
0
  6
Continuous
 62
     7
370
    25
100
AcDbLine
 10
132.0571240197
 20
120.2269693834
 30
0.0
 11
131.4791461891
 21
120.2269693834
 31
0.0
  0
LINE
  5
256
330
1F
100
AcDbEntity
  8
0
  6
Continuous
 62
     7
370
    25
100
AcDbLine
 10
131.4791461891
 20
120.2269693834
 30
0.0
 11
131.4791461891
 21
122.7490544623
 31
0.0
  0
LINE
  5
257
330
1F
100
AcDbEntity
  8
0
  6
Continuous
 62
     7
370
    25
100
AcDbLine
 10
131.4791461891
 20
122.7490544623
 30
0.0
 11
133.9486878288
 21
122.7490544623
 31
0.0
  0
LINE
  5
258
330
1F
100
AcDbEntity
  8
0
  6
Continuous
 62
     7
370
    25
100
AcDbLine
 10
136.0504253946
 20
120.6473168965
 30
0.0
 11
136.0504253946
 21
117.179449913
 31
0.0
  0
LINE
  5
259
330
1F
100
AcDbEntity
  8
0
  6
Continuous
 62
     7
370
    25
100
AcDbLine
 10
136.2605991512
 20
116.9692761564
 30
0.0
 11
138.6775973518
 21
116.9692761564
 31
0.0
  0
LINE
  5
25A
330
1F
100
AcDbEntity
  8
0
  6
Continuous
 62
     7
370
    25
100
AcDbLine
 10
138.6775973518
 20
116.9692761564
 30
0.0
 11
138.6775973518
 21
114.3421041992
 31
0.0
  0
LINE
  5
25B
330
1F
100
AcDbEntity
  8
0
  6
Continuous
 62
     7
370
    25
100
AcDbLine
 10
115.400853811
 20
122.7490544623
 30
0.0
 11
115.400853811
 21
120.2269693834
 31
0.0
  0
LINE
  5
25C
330
1F
100
AcDbEntity
  8
0
  6
Continuous
 62
     7
370
    25
100
AcDbLine
 10
133.9486878288
 20
122.7490544623
 30
0.0
 11
136.0504253946
 21
120.6473168965
 31
0.0
  0
ARC
  5
25D
330
1F
100
AcDbEntity
  8
0
  6
Continuous
 62
     7
370
    25
100
AcDbCircle
 10
136.2605991512
 20
117.179449913
 30
0.0
 40
0.2101737565765944
100
AcDbArc
 50
180.0
 51
270.0
  0
LINE
  5
25E
330
1F
100
AcDbEntity
  8
0
  6
Continuous
 62
     7
370
    25
100
AcDbLine
 10
115.400853811
 20
120.2269693834
 30
0.0
 11
114.8228759804
 21
120.2269693834
 31
0.0
  0
LINE
  5
25F
330
1F
100
AcDbEntity
  8
0
  6
Continuous
 62
     8
370
    25
100
AcDbLine
 10
102.7266727278
 20
122.9592282188
 30
0.0
 11
100.846321168
 21
122.9592282188
 31
0.0
  0
LINE
  5
260
330
1F
100
AcDbEntity
  8
0
  6
Continuous
 62
     8
370
    25
100
AcDbLine
 10
108.2024026482
 20
122.9592282188
 30
0.0
 11
102.7266727278
 21
122.9592282188
 31
0.0
  0
LINE
  5
261
330
1F
100
AcDbEntity
  8
0
  6
Continuous
 62
     8
370
    25
100
AcDbLine
 10
140.5579489116
 20
122.9592282188
 30
0.0
 11
138.6775973518
 21
122.9592282188
 31
0.0
  0
LINE
  5
262
330
1F
100
AcDbEntity
  8
0
  6
Continuous
 62
     8
370
    25
100
AcDbLine
 10
146.033678832
 20
122.9592282188
 30
0.0
 11
140.5579489116
 21
122.9592282188
 31
0.0
  0
DIMENSION
  5
263
330
1F
100
AcDbEntity
  8
0
  6
Continuous
 62
     7
370
    18
100
AcDbDimension
  2
_D_7
 10
162.8475793581
 20
129.8059512243
 30
0.0
 11
139.395432001
 21
129.8059512243
 31
0.0
 70
   160
  1
<>
 71
     2
 42
-1.0
  3
SLDDIMSTYLE5
100
AcDbAlignedDimension
 13
123.44
 23
93.3247285416
 33
0.0
 14
162.8475793581
 24
111.1894978506
 34
0.0
100
AcDbRotatedDimension
  0
DIMENSION
  5
26E
330
1F
100
AcDbEntity
  8
0
  6
Continuous
 62
     7
370
    18
100
AcDbDimension
  2
_D_8
 10
156.7645566938
 20
84.3556819905
 30
0.0
 11
143.8701051905
 21
92.1528426399
 31
0.0
 70
   163
  1
<>
 71
     1
 42
-1.0
  3
SLDDIMSTYLE6
100
AcDbDiametricDimension
 15
153.1675702792
 25
86.5307433493
 35
0.0
 40
0.0
  0
DIMENSION
  5
278
330
1F
100
AcDbEntity
  8
0
  6
Continuous
 62
     7
370
    18
100
AcDbDimension
  2
_D_9
 10
154.9660634865
 20
48.6173560211
 30
0.0
 11
138.1086930683
 21
48.6173560211
 31
0.0
 70
   160
  1
<>
 71
     2
 42
-1.0
  3
SLDDIMSTYLE5
100
AcDbAlignedDimension
 13
123.44
 23
77.5616967983
 33
0.0
 14
154.9660634865
 24
77.5616967983
 34
0.0
100
AcDbRotatedDimension
  0
INSERT
  5
28D
330
1F
100
AcDbEntity
  8
0
  6
Continuous
 62
     7
370
     0
100
AcDbBlockReference
  2
SW_CENTERMARKSYMBOL_5
 10
123.44
 20
85.4432126699
 30
0.0
  0
INSERT
  5
299
330
1F
100
AcDbEntity
  8
0
  6
Continuous
 62
     7
370
     0
100
AcDbBlockReference
  2
SW_CENTERMARKSYMBOL_6
 10
154.9660634865
 20
85.4432126699
 30
0.0
  0
INSERT
  5
2A5
330
1F
100
AcDbEntity
  8
0
  6
Continuous
 62
     7
370
     0
100
AcDbBlockReference
  2
SW_CENTERMARKSYMBOL_7
 10
94.5411084707
 20
103.8334163704
 30
0.0
  0
INSERT
  5
2B1
330
1F
100
AcDbEntity
  8
0
  6
Continuous
 62
     7
370
     0
100
AcDbBlockReference
  2
SW_CENTERMARKSYMBOL_8
 10
152.3388915293
 20
103.8334163704
 30
0.0
  0
INSERT
  5
2BD
330
1F
100
AcDbEntity
  8
0
  6
Continuous
 62
     7
370
     0
100
AcDbBlockReference
  2
SW_CENTERMARKSYMBOL_9
 10
152.3388915293
 20
67.0530089695
 30
0.0
  0
INSERT
  5
2C9
330
1F
100
AcDbEntity
  8
0
  6
Continuous
 62
     7
370
     0
100
AcDbBlockReference
  2
SW_CENTERMARKSYMBOL_10
 10
94.5411084707
 20
67.0530089695
 30
0.0
  0
LINE
  5
2CA
330
1F
100
AcDbEntity
  8
0
  6
CENTERX2
 62
     7
370
    18
100
AcDbLine
 10
142.3556380919
 20
117.9537434998
 30
0.0
 11
142.3556380919
 21
124.9592282188
 31
0.0
  0
LINE
  5
2CB
330
1F
100
AcDbEntity
  8
0
  6
Continuous
 62
     7
370
    25
100
AcDbLine
 10
249.94
 20
241.5625126266
 30
0.0
 11
248.69
 21
240.3125126266
 31
0.0
  0
LINE
  5
2CC
330
1F
100
AcDbEntity
  8
0
  6
Continuous
 62
     7
370
    25
100
AcDbLine
 10
248.69
 20
236.3125126266
 30
0.0
 11
249.94
 21
235.0625126266
 31
0.0
  0
LINE
  5
2CD
330
1F
100
AcDbEntity
  8
0
  6
Continuous
 62
     7
370
    25
100
AcDbLine
 10
263.94
 20
241.5625126266
 30
0.0
 11
249.94
 21
241.5625126266
 31
0.0
  0
LINE
  5
2CE
330
1F
100
AcDbEntity
  8
0
  6
Continuous
 62
     7
370
    25
100
AcDbLine
 10
249.94
 20
235.0625126266
 30
0.0
 11
263.94
 21
235.0625126266
 31
0.0
  0
LINE
  5
2CF
330
1F
100
AcDbEntity
  8
0
  6
Continuous
 62
     7
370
    25
100
AcDbLine
 10
248.69
 20
240.3125126266
 30
0.0
 11
236.24
 21
240.3125126266
 31
0.0
  0
LINE
  5
2D0
330
1F
100
AcDbEntity
  8
0
  6
Continuous
 62
     7
370
    25
100
AcDbLine
 10
236.24
 20
236.3125126266
 30
0.0
 11
248.69
 21
236.3125126266
 31
0.0
  0
ARC
  5
2D1
330
1F
100
AcDbEntity
  8
0
  6
Continuous
 62
     7
370
    25
100
AcDbCircle
 10
236.24
 20
236.6125126266
 30
0.0
 40
0.3000000000000114
100
AcDbArc
 50
180.0
 51
270.0
  0
ARC
  5
2D2
330
1F
100
AcDbEntity
  8
0
  6
Continuous
 62
     7
370
    25
100
AcDbCircle
 10
236.24
 20
240.0125126266
 30
0.0
 40
0.3000000000000114
100
AcDbArc
 50
90.0
 51
180.0
  0
LINE
  5
2D3
330
1F
100
AcDbEntity
  8
0
  6
Continuous
 62
     7
370
    25
100
AcDbLine
 10
381.44
 20
196.3125126266
 30
0.0
 11
381.94
 21
196.8125126266
 31
0.0
  0
LINE
  5
2D4
330
1F
100
AcDbEntity
  8
0
  6
Continuous
 62
     7
370
    25
100
AcDbLine
 10
381.94
 20
217.8125126266
 30
0.0
 11
381.44
 21
218.3125126266
 31
0.0
  0
LINE
  5
2D5
330
1F
100
AcDbEntity
  8
0
  6
Continuous
 62
     7
370
    25
100
AcDbLine
 10
356.94
 20
196.3125126266
 30
0.0
 11
381.44
 21
196.3125126266
 31
0.0
  0
LINE
  5
2D6
330
1F
100
AcDbEntity
  8
0
  6
Continuous
 62
     7
370
    25
100
AcDbLine
 10
381.44
 20
218.3125126266
 30
0.0
 11
356.94
 21
218.3125126266
 31
0.0
  0
ARC
  5
2D7
330
1F
100
AcDbEntity
  8
0
  6
Continuous
 62
     7
370
    25
100
AcDbCircle
 10
349.44
 20
189.8125126266
 30
0.0
 40
0.5
100
AcDbArc
 50
90.0
 51
180.0
  0
ARC
  5
2D8
330
1F
100
AcDbEntity
  8
0
  6
Continuous
 62
     7
370
    25
100
AcDbCircle
 10
349.44
 20
224.8125126266
 30
0.0
 40
0.5
100
AcDbArc
 50
180.0
 51
270.0
  0
LINE
  5
2D9
330
1F
100
AcDbEntity
  8
0
  6
Continuous
 62
     7
370
    25
100
AcDbLine
 10
349.44
 20
190.3125126266
 30
0.0
 11
356.44
 21
190.3125126266
 31
0.0
  0
LINE
  5
2DA
330
1F
100
AcDbEntity
  8
0
  6
Continuous
 62
     7
370
    25
100
AcDbLine
 10
356.44
 20
224.3125126266
 30
0.0
 11
349.44
 21
224.3125126266
 31
0.0
  0
LINE
  5
2DB
330
1F
100
AcDbEntity
  8
0
  6
Continuous
 62
     7
370
    25
100
AcDbLine
 10
356.94
 20
223.8125126266
 30
0.0
 11
356.44
 21
224.3125126266
 31
0.0
  0
LINE
  5
2DC
330
1F
100
AcDbEntity
  8
0
  6
Continuous
 62
     7
370
    25
100
AcDbLine
 10
356.44
 20
190.3125126266
 30
0.0
 11
356.94
 21
190.8125126266
 31
0.0
  0
LINE
  5
2DD
330
1F
100
AcDbEntity
  8
0
  6
Continuous
 62
     7
370
    25
100
AcDbLine
 10
281.44
 20
243.0125126266
 30
0.0
 11
281.44
 21
240.1525126266
 31
0.0
  0
LINE
  5
2DE
330
1F
100
AcDbEntity
  8
0
  6
Continuous
 62
     7
370
    25
100
AcDbLine
 10
288.44
 20
240.1525126266
 30
0.0
 11
288.44
 21
243.0125126266
 31
0.0
  0
LINE
  5
2DF
330
1F
100
AcDbEntity
  8
0
  6
Continuous
 62
     7
370
    25
100
AcDbLine
 10
281.44
 20
240.1525126266
 30
0.0
 11
281.78
 21
239.8125126266
 31
0.0
  0
LINE
  5
2E0
330
1F
100
AcDbEntity
  8
0
  6
Continuous
 62
     7
370
    25
100
AcDbLine
 10
288.1
 20
239.8125126266
 30
0.0
 11
288.44
 21
240.1525126266
 31
0.0
  0
ARC
  5
2E1
330
1F
100
AcDbEntity
  8
0
  6
Continuous
 62
     7
370
    25
100
AcDbCircle
 10
287.64
 20
243.0125126266
 30
0.0
 40
0.8000000000000682
100
AcDbArc
 50
0.0
 51
90.0
  0
ARC
  5
2E2
330
1F
100
AcDbEntity
  8
0
  6
Continuous
 62
     7
370
    25
100
AcDbCircle
 10
282.24
 20
243.0125126266
 30
0.0
 40
0.8000000000000114
100
AcDbArc
 50
90.0
 51
180.0
  0
LINE
  5
2E3
330
1F
100
AcDbEntity
  8
0
  6
Continuous
 62
     7
370
    25
100
AcDbLine
 10
295.04
 20
240.1525126266
 30
0.0
 11
295.38
 21
239.8125126266
 31
0.0
  0
LINE
  5
2E4
330
1F
100
AcDbEntity
  8
0
  6
Continuous
 62
     7
370
    25
100
AcDbLine
 10
301.7
 20
239.8125126266
 30
0.0
 11
302.04
 21
240.1525126266
 31
0.0
  0
ARC
  5
2E5
330
1F
100
AcDbEntity
  8
0
  6
Continuous
 62
     7
370
    25
100
AcDbCircle
 10
301.24
 20
243.0125126266
 30
0.0
 40
0.8000000000000114
100
AcDbArc
 50
0.0
 51
90.0
  0
ARC
  5
2E6
330
1F
100
AcDbEntity
  8
0
  6
Continuous
 62
     7
370
    25
100
AcDbCircle
 10
295.84
 20
243.0125126266
 30
0.0
 40
0.8000000000000114
100
AcDbArc
 50
90.0
 51
180.0
  0
LINE
  5
2E7
330
1F
100
AcDbEntity
  8
0
  6
Continuous
 62
     7
370
    25
100
AcDbLine
 10
295.04
 20
243.0125126266
 30
0.0
 11
295.04
 21
240.1525126266
 31
0.0
  0
LINE
  5
2E8
330
1F
100
AcDbEntity
  8
0
  6
Continuous
 62
     7
370
    25
100
AcDbLine
 10
302.04
 20
240.1525126266
 30
0.0
 11
302.04
 21
243.0125126266
 31
0.0
  0
LINE
  5
2E9
330
1F
100
AcDbEntity
  8
0
  6
Continuous
 62
     7
370
    25
100
AcDbLine
 10
279.14
 20
239.8125126266
 30
0.0
 11
279.14
 21
234.8125126266
 31
0.0
  0
LINE
  5
2EA
330
1F
100
AcDbEntity
  8
0
  6
Continuous
 62
     7
370
    25
100
AcDbLine
 10
290.74
 20
234.8125126266
 30
0.0
 11
290.74
 21
239.8125126266
 31
0.0
  0
LINE
  5
2EB
330
1F
100
AcDbEntity
  8
0
  6
Continuous
 62
     7
370
    25
100
AcDbLine
 10
292.74
 20
239.8125126266
 30
0.0
 11
292.74
 21
234.8125126266
 31
0.0
  0
LINE
  5
2EC
330
1F
100
AcDbEntity
  8
0
  6
Continuous
 62
     7
370
    25
100
AcDbLine
 10
304.34
 20
234.8125126266
 30
0.0
 11
304.34
 21
239.8125126266
 31
0.0
  0
LINE
  5
2ED
330
1F
100
AcDbEntity
  8
0
  6
Continuous
 62
     7
370
    25
100
AcDbLine
 10
263.94
 20
239.8125126266
 30
0.0
 11
271.94
 21
239.8125126266
 31
0.0
  0
LINE
  5
2EE
330
1F
100
AcDbEntity
  8
0
  6
Continuous
 62
     7
370
    25
100
AcDbLine
 10
263.94
 20
236.8125126266
 30
0.0
 11
271.94
 21
236.8125126266
 31
0.0
  0
LINE
  5
2EF
330
1F
100
AcDbEntity
  8
0
  6
Continuous
 62
     7
370
    25
100
AcDbLine
 10
263.94
 20
236.8125126266
 30
0.0
 11
263.94
 21
239.8125126266
 31
0.0
  0
LINE
  5
2F0
330
1F
100
AcDbEntity
  8
0
  6
Continuous
 62
     7
370
    25
100
AcDbLine
 10
248.69
 20
238.3125126266
 30
0.0
 11
248.69
 21
240.3125126266
 31
0.0
  0
LINE
  5
2F1
330
1F
100
AcDbEntity
  8
0
  6
Continuous
 62
     7
370
    25
100
AcDbLine
 10
248.69
 20
236.3125126266
 30
0.0
 11
248.69
 21
238.3125126266
 31
0.0
  0
LINE
  5
2F2
330
1F
100
AcDbEntity
  8
0
  6
Continuous
 62
     7
370
    25
100
AcDbLine
 10
249.94
 20
241.5625126266
 30
0.0
 11
249.94
 21
235.0625126266
 31
0.0
  0
LINE
  5
2F3
330
1F
100
AcDbEntity
  8
0
  6
Continuous
 62
     7
370
    25
100
AcDbLine
 10
263.94
 20
239.8125126266
 30
0.0
 11
263.94
 21
241.5625126266
 31
0.0
  0
LINE
  5
2F4
330
1F
100
AcDbEntity
  8
0
  6
Continuous
 62
     7
370
    25
100
AcDbLine
 10
263.94
 20
235.0625126266
 30
0.0
 11
263.94
 21
236.8125126266
 31
0.0
  0
LINE
  5
2F5
330
1F
100
AcDbEntity
  8
0
  6
Continuous
 62
     7
370
    25
100
AcDbLine
 10
235.94
 20
236.6125126266
 30
0.0
 11
235.94
 21
240.0125126266
 31
0.0
  0
LINE
  5
2F6
330
1F
100
AcDbEntity
  8
0
  6
Continuous
 62
     7
370
    25
100
AcDbLine
 10
381.44
 20
196.3125126266
 30
0.0
 11
381.44
 21
218.3125126266
 31
0.0
  0
LINE
  5
2F7
330
1F
100
AcDbEntity
  8
0
  6
Continuous
 62
     7
370
    25
100
AcDbLine
 10
381.94
 20
216.3125126266
 30
0.0
 11
381.94
 21
212.7208395398
 31
0.0
  0
LINE
  5
2F8
330
1F
100
AcDbEntity
  8
0
  6
Continuous
 62
     7
370
    25
100
AcDbLine
 10
381.94
 20
212.7208395398
 30
0.0
 11
381.94
 21
201.9041857134
 31
0.0
  0
LINE
  5
2F9
330
1F
100
AcDbEntity
  8
0
  6
Continuous
 62
     7
370
    25
100
AcDbLine
 10
381.94
 20
201.9041857134
 30
0.0
 11
381.94
 21
198.3125126266
 31
0.0
  0
LINE
  5
2FA
330
1F
100
AcDbEntity
  8
0
  6
Continuous
 62
     7
370
    25
100
AcDbLine
 10
381.94
 20
198.3125126266
 30
0.0
 11
381.94
 21
196.8125126266
 31
0.0
  0
LINE
  5
2FB
330
1F
100
AcDbEntity
  8
0
  6
Continuous
 62
     7
370
    25
100
AcDbLine
 10
381.94
 20
217.8125126266
 30
0.0
 11
381.94
 21
216.3125126266
 31
0.0
  0
LINE
  5
2FC
330
1F
100
AcDbEntity
  8
0
  6
Continuous
 62
     7
370
    25
100
AcDbLine
 10
381.94
 20
212.7208395398
 30
0.0
 11
386.94
 21
212.7208395398
 31
0.0
  0
SPLINE
  5
2FD
330
1F
100
AcDbEntity
  8
0
  6
Continuous
 62
     7
370
    25
100
AcDbSpline
210
0.0
220
0.0
230
1.0
 70
     8
 71
     3
 72
    12
 73
     8
 74
     0
 42
0.000000001
 43
0.00000001
 40
0.0
 40
0.0
 40
0.0
 40
0.0
 40
0.5662294249840589
 40
0.7007855875161989
 40
0.8361712205629506
 40
0.9183645908916357
 40
1.0
 40
1.0
 40
1.0
 40
1.0
 10
387.44
 20
211.6714115701644
 30
0.0
 10
387.4254087646432
 20
211.9124385278409
 30
0.0
 10
387.4073501350651
 20
212.2107420258397
 30
0.0
 10
387.2471628247103
 20
212.5251111454639
 30
0.0
 10
387.1510745504219
 20
212.6387463985785
 30
0.0
 10
387.0431503446633
 20
212.7083764078324
 30
0.0
 10
386.974305291685
 20
212.7166946057477
 30
0.0
 10
386.94
 20
212.7208395398197
 30
0.0
  0
LINE
  5
2FE
330
1F
100
AcDbEntity
  8
0
  6
Continuous
 62
     7
370
    25
100
AcDbLine
 10
387.44
 20
211.6714115702
 30
0.0
 11
387.44
 21
202.9536136831
 31
0.0
  0
SPLINE
  5
2FF
330
1F
100
AcDbEntity
  8
0
  6
Continuous
 62
     7
370
    25
100
AcDbSpline
210
0.0
220
0.0
230
1.0
 70
     8
 71
     3
 72
    12
 73
     8
 74
     0
 42
0.000000001
 43
0.00000001
 40
0.0
 40
0.0
 40
0.0
 40
0.0
 40
0.0731848774251172
 40
0.1620505111611484
 40
0.2959673735888773
 40
0.536507627688271
 40
1.0
 40
1.0
 40
1.0
 40
1.0
 10
386.94
 20
201.9041857134277
 30
0.0
 10
386.9707730091479
 20
201.9075361149097
 30
0.0
 10
387.0389125215421
 20
201.9149547824249
 30
0.0
 10
387.1473856778461
 20
201.9823416106379
 30
0.0
 10
387.2742623722085
 20
202.1317080637456
 30
0.0
 10
387.4125174096029
 20
202.4618604347012
 30
0.0
 10
387.4290897659285
 20
202.7583939833474
 30
0.0
 10
387.44
 20
202.953613683083
 30
0.0
  0
LINE
  5
300
330
1F
100
AcDbEntity
  8
0
  6
Continuous
 62
     7
370
    25
100
AcDbLine
 10
381.94
 20
201.9041857134
 30
0.0
 11
386.94
 21
201.9041857134
 31
0.0
  0
LINE
  5
301
330
1F
100
AcDbEntity
  8
0
  6
Continuous
 62
     7
370
    25
100
AcDbLine
 10
386.94
 20
198.3125126266
 30
0.0
 11
386.94
 21
201.9041857134
 31
0.0
  0
LINE
  5
302
330
1F
100
AcDbEntity
  8
0
  6
Continuous
 62
     7
370
    25
100
AcDbLine
 10
381.94
 20
198.3125126266
 30
0.0
 11
386.94
 21
198.3125126266
 31
0.0
  0
LINE
  5
303
330
1F
100
AcDbEntity
  8
0
  6
Continuous
 62
     7
370
    25
100
AcDbLine
 10
387.44
 20
202.9536136831
 30
0.0
 11
387.44
 21
198.3125126266
 31
0.0
  0
SPLINE
  5
304
330
1F
100
AcDbEntity
  8
0
  6
Continuous
 62
     7
370
    25
100
AcDbSpline
210
0.0
220
0.0
230
1.0
 70
    24
 71
     3
 72
    12
 73
     8
 74
     0
 42
0.000000001
 43
0.00000001
 40
0.0
 40
0.0
 40
0.0
 40
0.0
 40
0.5662294249840584
 40
0.7007855875161976
 40
0.8361712205629496
 40
0.918364590891635
 40
1.0
 40
1.0
 40
1.0
 40
1.0
 10
387.44
 20
198.3125126266237
 30
0.0
 10
387.4254087646432
 20
198.3125126266237
 30
0.0
 10
387.4073501350651
 20
198.3125126266237
 30
0.0
 10
387.2471628247103
 20
198.3125126266237
 30
0.0
 10
387.1510745504218
 20
198.3125126266237
 30
0.0
 10
387.0431503446633
 20
198.3125126266237
 30
0.0
 10
386.9743052916849
 20
198.3125126266237
 30
0.0
 10
386.94
 20
198.3125126266237
 30
0.0
  0
LINE
  5
305
330
1F
100
AcDbEntity
  8
0
  6
Continuous
 62
     7
370
    25
100
AcDbLine
 10
386.94
 20
212.7208395398
 30
0.0
 11
386.94
 21
216.3125126266
 31
0.0
  0
SPLINE
  5
306
330
1F
100
AcDbEntity
  8
0
  6
Continuous
 62
     7
370
    25
100
AcDbSpline
210
0.0
220
0.0
230
1.0
 70
    24
 71
     3
 72
    12
 73
     8
 74
     0
 42
0.000000001
 43
0.00000001
 40
0.0
 40
0.0
 40
0.0
 40
0.0
 40
0.0731848774251186
 40
0.1620505111611483
 40
0.2959673735888765
 40
0.5365076276882782
 40
1.0
 40
1.0
 40
1.0
 40
1.0
 10
386.94
 20
216.3125126266237
 30
0.0
 10
386.9707730091478
 20
216.3125126266237
 30
0.0
 10
387.0389125215421
 20
216.3125126266237
 30
0.0
 10
387.1473856778461
 20
216.3125126266237
 30
0.0
 10
387.2742623722085
 20
216.3125126266237
 30
0.0
 10
387.4125174096029
 20
216.3125126266237
 30
0.0
 10
387.4290897659285
 20
216.3125126266237
 30
0.0
 10
387.44
 20
216.3125126266237
 30
0.0
  0
LINE
  5
307
330
1F
100
AcDbEntity
  8
0
  6
Continuous
 62
     7
370
    25
100
AcDbLine
 10
387.44
 20
216.3125126266
 30
0.0
 11
387.44
 21
211.6714115702
 31
0.0
  0
LINE
  5
308
330
1F
100
AcDbEntity
  8
0
  6
Continuous
 62
     7
370
    25
100
AcDbLine
 10
381.94
 20
216.3125126266
 30
0.0
 11
386.94
 21
216.3125126266
 31
0.0
  0
LINE
  5
309
330
1F
100
AcDbEntity
  8
0
  6
Continuous
 62
     7
370
    25
100
AcDbLine
 10
350.94
 20
215.3125126266
 30
0.0
 11
350.94
 21
199.3125126266
 31
0.0
  0
LINE
  5
30A
330
1F
100
AcDbEntity
  8
0
  6
Continuous
 62
     7
370
    25
100
AcDbLine
 10
350.94
 20
199.3125126266
 30
0.0
 11
356.44
 21
199.3125126266
 31
0.0
  0
LINE
  5
30B
330
1F
100
AcDbEntity
  8
0
  6
Continuous
 62
     7
370
    25
100
AcDbLine
 10
356.44
 20
190.3125126266
 30
0.0
 11
356.44
 21
199.3125126266
 31
0.0
  0
LINE
  5
30C
330
1F
100
AcDbEntity
  8
0
  6
Continuous
 62
     7
370
    25
100
AcDbLine
 10
356.44
 20
215.3125126266
 30
0.0
 11
356.44
 21
224.3125126266
 31
0.0
  0
LINE
  5
30D
330
1F
100
AcDbEntity
  8
0
  6
Continuous
 62
     7
370
    25
100
AcDbLine
 10
356.44
 20
215.3125126266
 30
0.0
 11
350.94
 21
215.3125126266
 31
0.0
  0
LINE
  5
30E
330
1F
100
AcDbEntity
  8
0
  6
Continuous
 62
     7
370
    25
100
AcDbLine
 10
356.94
 20
223.8125126266
 30
0.0
 11
356.94
 21
214.1863761691
 31
0.0
  0
LINE
  5
30F
330
1F
100
AcDbEntity
  8
0
  6
Continuous
 62
     7
370
    25
100
AcDbLine
 10
356.44
 20
215.3125126266
 30
0.0
 11
356.94
 21
214.1863761691
 31
0.0
  0
LINE
  5
310
330
1F
100
AcDbEntity
  8
0
  6
Continuous
 62
     7
370
    25
100
AcDbLine
 10
356.94
 20
214.1863761691
 30
0.0
 11
356.94
 21
200.4386490842
 31
0.0
  0
LINE
  5
311
330
1F
100
AcDbEntity
  8
0
  6
Continuous
 62
     7
370
    25
100
AcDbLine
 10
356.94
 20
200.4386490842
 30
0.0
 11
356.44
 21
199.3125126266
 31
0.0
  0
LINE
  5
312
330
1F
100
AcDbEntity
  8
0
  6
Continuous
 62
     7
370
    25
100
AcDbLine
 10
356.94
 20
200.4386490842
 30
0.0
 11
356.94
 21
190.8125126266
 31
0.0
  0
LINE
  5
313
330
1F
100
AcDbEntity
  8
0
  6
Continuous
 62
     7
370
    25
100
AcDbLine
 10
281.44
 20
240.1525126266
 30
0.0
 11
288.44
 21
240.1525126266
 31
0.0
  0
LINE
  5
314
330
1F
100
AcDbEntity
  8
0
  6
Continuous
 62
     7
370
    25
100
AcDbLine
 10
282.24
 20
243.8125126266
 30
0.0
 11
287.64
 21
243.8125126266
 31
0.0
  0
LINE
  5
315
330
1F
100
AcDbEntity
  8
0
  6
Continuous
 62
     7
370
    25
100
AcDbLine
 10
295.04
 20
240.1525126266
 30
0.0
 11
302.04
 21
240.1525126266
 31
0.0
  0
LINE
  5
316
330
1F
100
AcDbEntity
  8
0
  6
Continuous
 62
     7
370
    25
100
AcDbLine
 10
295.84
 20
243.8125126266
 30
0.0
 11
301.24
 21
243.8125126266
 31
0.0
  0
SPLINE
  5
317
330
1F
100
AcDbEntity
  8
0
  6
Continuous
 62
     7
370
    25
100
AcDbSpline
210
0.0
220
0.0
230
1.0
 70
     8
 71
     3
 72
    23
 73
    19
 74
     0
 42
0.000000001
 43
0.00000001
 40
0.0
 40
0.0
 40
0.0
 40
0.0
 40
0.0881782879354021
 40
0.1703962258015023
 40
0.2478554589180552
 40
0.3223119628233682
 40
0.3939861698943342
 40
0.4626934939826078
 40
0.5304592248215046
 40
0.5989497110176135
 40
0.6349980497359262
 40
0.674841194604147
 40
0.718974831677601
 40
0.7666373843242446
 40
0.8184614652166474
 40
0.8745656704273173
 40
0.935074158106567
 40
1.0
 40
1.0
 40
1.0
 40
1.0
 10
320.2581818181818
 20
185.8373705811692
 30
0.0
 10
320.2573761012493
 20
185.8698782168724
 30
0.0
 10
320.2558191292603
 20
185.9326961572437
 30
0.0
 10
320.239679452325
 20
186.0228654770823
 30
0.0
 10
320.2145647392074
 20
186.1056296629422
 30
0.0
 10
320.1779814372338
 20
186.179828608032
 30
0.0
 10
320.1330288516282
 20
186.2451668849859
 30
0.0
 10
320.0817581257691
 20
186.3026221898295
 30
0.0
 10
320.0217233073531
 20
186.3489293242265
 30
0.0
 10
319.9662969677427
 20
186.3804354459571
 30
0.0
 10
319.9168078172211
 20
186.4000083121362
 30
0.0
 10
319.8747870066518
 20
186.4139414208323
 30
0.0
 10
319.8272407317626
 20
186.4237306134966
 30
0.0
 10
319.7752249144938
 20
186.4333270343982
 30
0.0
 10
319.7182986016385
 20
186.4402623085279
 30
0.0
 10
319.6564351903111
 20
186.4448716660243
 30
0.0
 10
319.5896721937835
 20
186.4489232708614
 30
0.0
 10
319.5434634703216
 20
186.4488922958884
 30
0.0
 10
319.5195454545454
 20
186.4488762629873
 30
0.0
  0
SPLINE
  5
318
330
1F
100
AcDbEntity
  8
0
  6
Continuous
 62
     7
370
    25
100
AcDbSpline
210
0.0
220
0.0
230
1.0
 70
     8
 71
     3
 72
    15
 73
    11
 74
     0
 42
0.000000001
 43
0.00000001
 40
0.0
 40
0.0
 40
0.0
 40
0.0
 40
0.1210409259551159
 40
0.2361565684961482
 40
0.3502598871584596
 40
0.4667719731857883
 40
0.5882478153244254
 40
0.715360693740414
 40
0.8524502302519068
 40
1.0
 40
1.0
 40
1.0
 40
1.0
 10
319.9229545454546
 20
185.2656376266237
 30
0.0
 10
319.9492530789303
 20
185.2770349654934
 30
0.0
 10
320.0005627609501
 20
185.2992717124137
 30
0.0
 10
320.068303178086
 20
185.3477209343415
 30
0.0
 10
320.1269850412658
 20
185.4050133493152
 30
0.0
 10
320.1747902536493
 20
185.4736403979077
 30
0.0
 10
320.2123798972196
 20
185.5515963301218
 30
0.0
 10
320.2396579214854
 20
185.638859607051
 30
0.0
 10
320.2547941215921
 20
185.7352823202088
 30
0.0
 10
320.2570252552802
 20
185.8025175498574
 30
0.0
 10
320.2581818181818
 20
185.8373705811692
 30
0.0
  0
SPLINE
  5
319
330
1F
100
AcDbEntity
  8
0
  6
Continuous
 62
     7
370
    25
100
AcDbSpline
210
0.0
220
0.0
230
1.0
 70
     8
 71
     3
 72
    11
 73
     7
 74
     0
 42
0.000000001
 43
0.00000001
 40
0.0
 40
0.0
 40
0.0
 40
0.0
 40
0.3127941251982892
 40
0.5827301107661262
 40
0.8109483712724667
 40
1.0
 40
1.0
 40
1.0
 40
1.0
 10
319.5706818181818
 20
185.2216035357146
 30
0.0
 10
319.6078814778436
 20
185.2220145699408
 30
0.0
 10
319.6771838081908
 20
185.2227803196811
 30
0.0
 10
319.7731768247647
 20
185.2316116046826
 30
0.0
 10
319.8543022910308
 20
185.2433295943871
 30
0.0
 10
319.9015487069182
 20
185.2586819608538
 30
0.0
 10
319.9229545454546
 20
185.2656376266237
 30
0.0
  0
LINE
  5
31A
330
1F
100
AcDbEntity
  8
0
  6
Continuous
 62
     7
370
    25
100
AcDbLine
 10
318.8490909091
 20
185.2216035357
 30
0.0
 11
319.5706818182
 21
185.2216035357
 31
0.0
  0
LINE
  5
31B
330
1F
100
AcDbEntity
  8
0
  6
Continuous
 62
     7
370
    25
100
AcDbLine
 10
318.8490909091
 20
186.448876263
 30
0.0
 11
318.8490909091
 21
185.2216035357
 31
0.0
  0
LINE
  5
31C
330
1F
100
AcDbEntity
  8
0
  6
Continuous
 62
     7
370
    25
100
AcDbLine
 10
319.5195454545
 20
186.448876263
 30
0.0
 11
318.8490909091
 21
186.448876263
 31
0.0
  0
SPLINE
  5
31D
330
1F
100
AcDbEntity
  8
0
  6
Continuous
 62
     7
370
    25
100
AcDbSpline
210
0.0
220
0.0
230
1.0
 70
     8
 71
     3
 72
    23
 73
    19
 74
     0
 42
0.000000001
 43
0.00000001
 40
0.0
 40
0.0
 40
0.0
 40
0.0
 40
0.0859477677671288
 40
0.1646612895918337
 40
0.2391822142960222
 40
0.3092369848563664
 40
0.3766943517160651
 40
0.4407479895346264
 40
0.5032957377886659
 40
0.5666613310136052
 40
0.6011212985389539
 40
0.6409394331421703
 40
0.6866273269858715
 40
0.7373982524124169
 40
0.7941894459313105
 40
0.8569408067006916
 40
0.9257597107636948
 40
1.0
 40
1.0
 40
1.0
 40
1.0
 10
320.1672727272727
 20
187.3750126266237
 30
0.0
 10
320.1662575196111
 20
187.4048863519229
 30
0.0
 10
320.1643125545804
 20
187.4621193233016
 30
0.0
 10
320.1512190147605
 20
187.544547640426
 30
0.0
 10
320.126941930892
 20
187.6185976760778
 30
0.0
 10
320.0939677299466
 20
187.684785859292
 30
0.0
 10
320.0537250922737
 20
187.7424826265637
 30
0.0
 10
320.0063451556197
 20
187.7909820028365
 30
0.0
 10
319.9520695590324
 20
187.829238175298
 30
0.0
 10
319.9013994472507
 20
187.8530383690641
 30
0.0
 10
319.8560256303977
 20
187.8684631996971
 30
0.0
 10
319.8151412813125
 20
187.8769347596304
 30
0.0
 10
319.7686172454522
 20
187.8859174291982
 30
0.0
 10
319.7156126672793
 20
187.891581640623
 30
0.0
 10
319.65673453675
 20
187.89779640477
 30
0.0
 10
319.5913030167029
 20
187.9008351523257
 30
0.0
 10
319.5197990187104
 20
187.9030794785761
 30
0.0
 10
319.4700687760402
 20
187.9033047917176
 30
0.0
 10
319.4442613636364
 20
187.9034217175328
 30
0.0
  0
SPLINE
  5
31E
330
1F
100
AcDbEntity
  8
0
  6
Continuous
 62
     7
370
    25
100
AcDbSpline
210
0.0
220
0.0
230
1.0
 70
     8
 71
     3
 72
    15
 73
    11
 74
     0
 42
0.000000001
 43
0.00000001
 40
0.0
 40
0.0
 40
0.0
 40
0.0
 40
0.123211507667511
 40
0.2406990252533388
 40
0.3542612932167228
 40
0.4669536443969421
 40
0.5842822876469592
 40
0.710551541030695
 40
0.8478091896452462
 40
1.0
 40
1.0
 40
1.0
 40
1.0
 10
319.8490909090909
 20
186.8913478538964
 30
0.0
 10
319.8733747696944
 20
186.8999981910321
 30
0.0
 10
319.9208143448387
 20
186.9168969998859
 30
0.0
 10
319.9843528036281
 20
186.9555754481952
 30
0.0
 10
320.0401200443824
 20
187.0011318535639
 30
0.0
 10
320.0865811459561
 20
187.0563502652532
 30
0.0
 10
320.1232861388067
 20
187.1215204045253
 30
0.0
 10
320.1492629470829
 20
187.1970216724569
 30
0.0
 10
320.1649930361524
 20
187.2827446184781
 30
0.0
 10
320.1664871358114
 20
187.3432166702745
 30
0.0
 10
320.1672727272727
 20
187.3750126266237
 30
0.0
  0
SPLINE
  5
31F
330
1F
100
AcDbEntity
  8
0
  6
Continuous
 62
     7
370
    25
100
AcDbSpline
210
0.0
220
0.0
230
1.0
 70
     8
 71
     3
 72
    11
 73
     7
 74
     0
 42
0.000000001
 43
0.00000001
 40
0.0
 40
0.0
 40
0.0
 40
0.0
 40
0.3231090798450186
 40
0.5974912675160305
 40
0.8217859227818819
 40
0.9999999999999999
 40
0.9999999999999999
 40
0.9999999999999999
 40
0.9999999999999999
 10
319.4911363636364
 20
186.8579671720782
 30
0.0
 10
319.5299837563811
 20
186.8582481440531
 30
0.0
 10
319.601820109423
 20
186.8587677156525
 30
0.0
 10
319.7003181380715
 20
186.8655389307887
 30
0.0
 10
319.7815105715656
 20
186.8735296275006
 30
0.0
 10
319.8283516384976
 20
186.8858797394678
 30
0.0
 10
319.8490909090909
 20
186.8913478538964
 30
0.0
  0
LINE
  5
320
330
1F
100
AcDbEntity
  8
0
  6
Continuous
 62
     7
370
    25
100
AcDbLine
 10
318.8490909091
 20
187.9034217175
 30
0.0
 11
318.8490909091
 21
186.8579671721
 31
0.0
  0
LINE
  5
321
330
1F
100
AcDbEntity
  8
0
  6
Continuous
 62
     7
370
    25
100
AcDbLine
 10
319.4442613636
 20
187.9034217175
 30
0.0
 11
318.8490909091
 21
187.9034217175
 31
0.0
  0
LINE
  5
322
330
1F
100
AcDbEntity
  8
0
  6
Continuous
 62
     7
370
    25
100
AcDbLine
 10
318.8490909091
 20
186.8579671721
 30
0.0
 11
319.4911363636
 21
186.8579671721
 31
0.0
  0
SPLINE
  5
323
330
1F
100
AcDbEntity
  8
0
  6
Continuous
 62
     7
370
    25
100
AcDbSpline
210
0.0
220
0.0
230
1.0
 70
     8
 71
     3
 72
    15
 73
    11
 74
     0
 42
0.000000001
 43
0.00000001
 40
0.0
 40
0.0
 40
0.0
 40
0.0
 40
0.1348306128719196
 40
0.265552276692799
 40
0.3942179015238048
 40
0.5192745831226584
 40
0.6422303607107067
 40
0.7628424106338237
 40
0.8821514059548551
 40
1.0
 40
1.0
 40
1.0
 40
1.0
 10
317.6672727272727
 20
186.569614899351
 30
0.0
 10
317.6669256579884
 20
186.6060843019163
 30
0.0
 10
317.6662420963206
 20
186.677911705757
 30
0.0
 10
317.6589535991689
 20
186.7843497605576
 30
0.0
 10
317.6467348979733
 20
186.887617108451
 30
0.0
 10
317.6309858010319
 20
186.9883390104973
 30
0.0
 10
317.6081651670672
 20
187.0854355009456
 30
0.0
 10
317.5833242086518
 20
187.1804175223842
 30
0.0
 10
317.5518138838787
 20
187.2720079576903
 30
0.0
 10
317.5274105972726
 20
187.3313298067277
 30
0.0
 10
317.5152840909091
 20
187.3608080811692
 30
0.0
  0
SPLINE
  5
324
330
1F
100
AcDbEntity
  8
0
  6
Continuous
 62
     7
370
    25
100
AcDbSpline
210
0.0
220
0.0
230
1.0
 70
     8
 71
     3
 72
    23
 73
    19
 74
     0
 42
0.000000001
 43
0.00000001
 40
0.0
 40
0.0
 40
0.0
 40
0.0
 40
0.0549231502919699
 40
0.1086030052064171
 40
0.1610368556519759
 40
0.2129852978324795
 40
0.2656874514313826
 40
0.3191576965915259
 40
0.3745727672960877
 40
0.4325440293275161
 40
0.492437848824433
 40
0.5542084725851989
 40
0.6185456342266038
 40
0.6863015999283235
 40
0.7577792075712924
 40
0.8336420180410764
 40
0.9144133612381078
 40
1.0
 40
1.0
 40
1.0
 40
1.0
 10
316.6417045454546
 20
185.1761489902601
 30
0.0
 10
316.677276695637
 20
185.1772811226398
 30
0.0
 10
316.7476157492225
 20
185.179519759318
 30
0.0
 10
316.8508574371222
 20
185.1960894174082
 30
0.0
 10
316.9496619465169
 20
185.2236941600087
 30
0.0
 10
317.0434871525686
 20
185.2635688169418
 30
0.0
 10
317.1332452463099
 20
185.3132102205751
 30
0.0
 10
317.2184987100432
 20
185.3742813017268
 30
0.0
 10
317.2989434115351
 20
185.4466619512704
 30
0.0
 10
317.3749548596056
 20
185.5294587291832
 30
0.0
 10
317.443780465345
 20
185.623495645212
 30
0.0
 10
317.5046935130628
 20
185.7276718012655
 30
0.0
 10
317.5549615696318
 20
185.8429856244737
 30
0.0
 10
317.5956686632715
 20
185.9684901699544
 30
0.0
 10
317.628794921743
 20
186.1039461833874
 30
0.0
 10
317.6505052388248
 20
186.2501675316655
 30
0.0
 10
317.6654415046149
 20
186.4064256300939
 30
0.0
 10
317.6666506532961
 20
186.5141788237652
 30
0.0
 10
317.6672727272727
 20
186.569614899351
 30
0.0
  0
SPLINE
  5
325
330
1F
100
AcDbEntity
  8
0
  6
Continuous
 62
     7
370
    25
100
AcDbSpline
210
0.0
220
0.0
230
1.0
 70
     8
 71
     3
 72
    23
 73
    19
 74
     0
 42
0.000000001
 43
0.00000001
 40
0.0
 40
0.0
 40
0.0
 40
0.0
 40
0.0820167094769213
 40
0.1594134130609959
 40
0.2330069745226142
 40
0.303189177358941
 40
0.3699716694339439
 40
0.4341909870753243
 40
0.496708954997673
 40
0.5582085812881032
 40
0.618080969644611
 40
0.6750827924608154
 40
0.7301076280391964
 40
0.7838984160543082
 40
0.8370755298410726
 40
0.8904187639022285
 40
0.9443870054531992
 40
0.9999999999999999
 40
0.9999999999999999
 40
0.9999999999999999
 40
0.9999999999999999
 10
315.6218181818182
 20
186.5106660357146
 30
0.0
 10
315.6228506363221
 20
186.4592656651671
 30
0.0
 10
315.6248573871093
 20
186.359360309858
 30
0.0
 10
315.6381398685518
 20
186.2137850779749
 30
0.0
 10
315.6614928834084
 20
186.0770049433004
 30
0.0
 10
315.6941693439239
 20
185.9490330077539
 30
0.0
 10
315.7348739774289
 20
185.8294944512099
 30
0.0
 10
315.786491660068
 20
185.7194913902767
 30
0.0
 10
315.8469745387065
 20
185.6179784241832
 30
0.0
 10
315.9165002481143
 20
185.5257609542168
 30
0.0
 10
315.9929712712771
 20
185.4440149644223
 30
0.0
 10
316.0733684220759
 20
185.3719910933523
 30
0.0
 10
316.1586984392932
 20
185.312344080346
 30
0.0
 10
316.2469330695719
 20
185.2617734572903
 30
0.0
 10
316.3400082647332
 20
185.2231367620841
 30
0.0
 10
316.4371544966905
 20
185.1964143932777
 30
0.0
 10
316.5381279937213
 20
185.1794096605678
 30
0.0
 10
316.6068352756003
 20
185.1772467019618
 30
0.0
 10
316.6417045454546
 20
185.1761489902601
 30
0.0
  0
SPLINE
  5
326
330
1F
100
AcDbEntity
  8
0
  6
Continuous
 62
     7
370
    25
100
AcDbSpline
210
0.0
220
0.0
230
1.0
 70
     8
 71
     3
 72
    23
 73
    19
 74
     0
 42
0.000000001
 43
0.00000001
 40
0.0
 40
0.0
 40
0.0
 40
0.0
 40
0.054969301025597
 40
0.1083590609100916
 40
0.160164042985379
 40
0.2113322971038459
 40
0.2628532052336253
 40
0.314982166448752
 40
0.3690071678834781
 40
0.4247807921276376
 40
0.4829618213623598
 40
0.5435867127152632
 40
0.6079447966355047
 40
0.675928348473386
 40
0.7490032351523551
 40
0.8271410002771978
 40
0.9105022622530018
 40
1.0
 40
1.0
 40
1.0
 40
1.0
 10
316.6495170454545
 20
187.9488762629873
 30
0.0
 10
316.6130012266368
 20
187.9477449956681
 30
0.0
 10
316.5410188699099
 20
187.9455149679607
 30
0.0
 10
316.4356132686208
 20
187.9290771739308
 30
0.0
 10
316.3353526274149
 20
187.9011693612937
 30
0.0
 10
316.2401566263983
 20
187.8623597722069
 30
0.0
 10
316.1493906714254
 20
187.8135087142406
 30
0.0
 10
316.0642787326932
 20
187.7520692876487
 30
0.0
 10
315.9839447653272
 20
187.6802750101071
 30
0.0
 10
315.9091550427664
 20
187.5972653460881
 30
0.0
 10
315.840150269185
 20
187.5036955721629
 30
0.0
 10
315.7824921889253
 20
187.3962569890918
 30
0.0
 10
315.7316115756987
 20
187.2784301125046
 30
0.0
 10
315.6917352643454
 20
187.1477394660392
 30
0.0
 10
315.6594714782851
 20
187.0056200661555
 30
0.0
 10
315.638790159098
 20
186.8510904143162
 30
0.0
 10
315.6235218641493
 20
186.6849754394027
 30
0.0
 10
315.6223993588672
 20
186.5701281918939
 30
0.0
 10
315.6218181818182
 20
186.5106660357146
 30
0.0
  0
SPLINE
  5
327
330
1F
100
AcDbEntity
  8
0
  6
Continuous
 62
     7
370
    25
100
AcDbSpline
210
0.0
220
0.0
230
1.0
 70
     8
 71
     3
 72
    15
 73
    11
 74
     0
 42
0.000000001
 43
0.00000001
 40
0.0
 40
0.0
 40
0.0
 40
0.0
 40
0.1290893592394776
 40
0.2551000161804333
 40
0.379865505539219
 40
0.5068907155239862
 40
0.6325188027370855
 40
0.7548417051891587
 40
0.8765222138546876
 40
1.0
 40
1.0
 40
1.0
 40
1.0
 10
317.5152840909091
 20
187.3608080811692
 30
0.0
 10
317.4947929965973
 20
187.4039220672555
 30
0.0
 10
317.4542995080458
 20
187.4891217972179
 30
0.0
 10
317.371510527599
 20
187.603132542277
 30
0.0
 10
317.2756754270009
 20
187.7050012451374
 30
0.0
 10
317.1650304423612
 20
187.7904377405432
 30
0.0
 10
317.0456513880423
 20
187.861293662477
 30
0.0
 10
316.9185885306879
 20
187.9123198220882
 30
0.0
 10
316.7857030891687
 20
187.9432437922205
 30
0.0
 10
316.6951337174257
 20
187.9469896190674
 30
0.0
 10
316.6495170454545
 20
187.9488762629873
 30
0.0
  0
SPLINE
  5
328
330
1F
100
AcDbEntity
  8
0
  6
Continuous
 62
     7
370
    25
100
AcDbSpline
210
0.0
220
0.0
230
1.0
 70
     8
 71
     3
 72
    15
 73
    11
 74
     0
 42
0.000000001
 43
0.00000001
 40
0.0
 40
0.0
 40
0.0
 40
0.0
 40
0.0894057494543693
 40
0.1881253252222341
 40
0.2967013461921437
 40
0.4155414955740397
 40
0.5447946592898607
 40
0.6850249410151802
 40
0.8376109392146743
 40
1.0
 40
1.0
 40
1.0
 40
1.0
 10
325.7766477272727
 20
187.8338194448055
 30
0.0
 10
325.7627667598597
 20
187.8395061544174
 30
0.0
 10
325.7335587779918
 20
187.8514719854931
 30
0.0
 10
325.6856743950893
 20
187.8652819476625
 30
0.0
 10
325.6323040877699
 20
187.8772433539344
 30
0.0
 10
325.5733061181159
 20
187.8873396941323
 30
0.0
 10
325.5084896053875
 20
187.8937707415569
 30
0.0
 10
325.4379768856509
 20
187.9000089381944
 30
0.0
 10
325.3616498612585
 20
187.9022227824536
 30
0.0
 10
325.3088439967576
 20
187.9030138654689
 30
0.0
 10
325.2816193181818
 20
187.9034217175328
 30
0.0
  0
SPLINE
  5
329
330
1F
100
AcDbEntity
  8
0
  6
Continuous
 62
     7
370
    25
100
AcDbSpline
210
0.0
220
0.0
230
1.0
 70
     8
 71
     3
 72
    23
 73
    19
 74
     0
 42
0.000000001
 43
0.00000001
 40
0.0
 40
0.0
 40
0.0
 40
0.0
 40
0.0910576925841968
 40
0.177271661161427
 40
0.2587565480870236
 40
0.3352398500869442
 40
0.4078328982379346
 40
0.475903583730933
 40
0.5405672899847742
 40
0.6013885147851541
 40
0.6592481696579668
 40
0.7139410164568255
 40
0.7659927171453379
 40
0.8161259581187257
 40
0.8639755313063062
 40
0.9102873125800777
 40
0.9552760909847243
 40
1.0
 40
1.0
 40
1.0
 40
1.0
 10
326.3036363636364
 20
186.5866603538964
 30
0.0
 10
326.3033260432433
 20
186.6299967831633
 30
0.0
 10
326.3027219096438
 20
186.7143644031514
 30
0.0
 10
326.2952029923167
 20
186.8373039897154
 30
0.0
 10
326.2844595684983
 20
186.9530458207504
 30
0.0
 10
326.2677344871561
 20
187.0615181487553
 30
0.0
 10
326.2478445825643
 20
187.1629847326398
 30
0.0
 10
326.2217896076174
 20
187.2572153581988
 30
0.0
 10
326.1926956782439
 20
187.3446930946939
 30
0.0
 10
326.1573901469239
 20
187.4246045402647
 30
0.0
 10
326.1189387030608
 20
187.4976304675013
 30
0.0
 10
326.0786715820246
 20
187.5649030020903
 30
0.0
 10
326.0349672712107
 20
187.6254972109535
 30
0.0
 10
325.9893056694391
 20
187.6805319640079
 30
0.0
 10
325.939622575281
 20
187.7280648993022
 30
0.0
 10
325.8887719671751
 20
187.7706075199288
 30
0.0
 10
325.8341689146899
 20
187.8057497466995
 30
0.0
 10
325.7957836799873
 20
187.8244813132441
 30
0.0
 10
325.7766477272727
 20
187.8338194448055
 30
0.0
  0
SPLINE
  5
32A
330
1F
100
AcDbEntity
  8
0
  6
Continuous
 62
     7
370
    25
100
AcDbSpline
210
0.0
220
0.0
230
1.0
 70
     8
 71
     3
 72
    23
 73
    19
 74
     0
 42
0.000000001
 43
0.00000001
 40
0.0
 40
0.0
 40
0.0
 40
0.0
 40
0.0838757011713844
 40
0.1627002619072092
 40
0.2366373969403642
 40
0.3059982833359136
 40
0.3707988108096669
 40
0.4312335182308226
 40
0.48833577794168
 40
0.5424441322884362
 40
0.5952722887951952
 40
0.6483716879973133
 40
0.7021510655130977
 40
0.7579963679795555
 40
0.8148204673977174
 40
0.8740154473088951
 40
0.9356443925564378
 40
1.0
 40
1.0
 40
1.0
 40
1.0
 10
325.2915625
 20
185.2216035357146
 30
0.0
 10
325.3221133928546
 20
185.2220302752195
 30
0.0
 10
325.3813753507224
 20
185.2228580552348
 30
0.0
 10
325.4673856068505
 20
185.2287163151741
 30
0.0
 10
325.5478869148563
 20
185.2373757521352
 30
0.0
 10
325.6223759744744
 20
185.2514606308868
 30
0.0
 10
325.6917089672228
 20
185.2666612706522
 30
0.0
 10
325.7543709393973
 20
185.2889322201657
 30
0.0
 10
325.8123903727312
 20
185.3123613779494
 30
0.0
 10
325.8648563126111
 20
185.3412592751378
 30
0.0
 10
325.912827825507
 20
185.3744636902383
 30
0.0
 10
325.9580009028573
 20
185.4112685374532
 30
0.0
 10
325.9993202627032
 20
185.4539044648111
 30
0.0
 10
326.0380710637105
 20
185.5005741990883
 30
0.0
 10
326.074717074425
 20
185.5513893634726
 30
0.0
 10
326.1081996182871
 20
185.6068547486402
 30
0.0
 10
326.1377542878241
 20
185.6675571295226
 30
0.0
 10
326.1554119210143
 20
185.7099113001645
 30
0.0
 10
326.1644318181818
 20
185.7315467175328
 30
0.0
  0
LINE
  5
32B
330
1F
100
AcDbEntity
  8
0
  6
Continuous
 62
     7
370
    25
100
AcDbLine
 10
324.6672727273
 20
185.2216035357
 30
0.0
 11
325.2915625
 21
185.2216035357
 31
0.0
  0
LINE
  5
32C
330
1F
100
AcDbEntity
  8
0
  6
Continuous
 62
     7
370
    25
100
AcDbLine
 10
324.6672727273
 20
187.9034217175
 30
0.0
 11
324.6672727273
 21
185.2216035357
 31
0.0
  0
LINE
  5
32D
330
1F
100
AcDbEntity
  8
0
  6
Continuous
 62
     7
370
    25
100
AcDbLine
 10
325.2816193182
 20
187.9034217175
 30
0.0
 11
324.6672727273
 21
187.9034217175
 31
0.0
  0
SPLINE
  5
32E
330
1F
100
AcDbEntity
  8
0
  6
Continuous
 62
     7
370
    25
100
AcDbSpline
210
0.0
220
0.0
230
1.0
 70
     8
 71
     3
 72
    15
 73
    11
 74
     0
 42
0.000000001
 43
0.00000001
 40
0.0
 40
0.0
 40
0.0
 40
0.0
 40
0.1116456946495738
 40
0.2264258713479465
 40
0.3444741085554709
 40
0.4664619175398294
 40
0.5931634275125093
 40
0.7242447941216931
 40
0.8597655265817259
 40
1.0
 40
1.0
 40
1.0
 40
1.0
 10
326.1644318181818
 20
185.7315467175328
 30
0.0
 10
326.1756556784774
 20
185.7619715094705
 30
0.0
 10
326.1984185118791
 20
185.8236752773291
 30
0.0
 10
326.2267843434335
 20
185.9197070728332
 30
0.0
 10
326.2497069803085
 20
186.0201940992417
 30
0.0
 10
326.2702185078098
 20
186.1247546530097
 30
0.0
 10
326.2843529632917
 20
186.2341826375854
 30
0.0
 10
326.2962125069507
 20
186.3478040628501
 30
0.0
 10
326.3023885060899
 20
186.4658524009529
 30
0.0
 10
326.303215697801
 20
186.5459347289376
 30
0.0
 10
326.3036363636364
 20
186.5866603538964
 30
0.0
  0
SPLINE
  5
32F
330
1F
100
AcDbEntity
  8
0
  6
Continuous
 62
     7
370
    25
100
AcDbSpline
210
0.0
220
0.0
230
1.0
 70
     8
 71
     3
 72
    15
 73
    11
 74
     0
 42
0.000000001
 43
0.00000001
 40
0.0
 40
0.0
 40
0.0
 40
0.0
 40
0.1510739700527862
 40
0.2949499051911106
 40
0.4307193228074177
 40
0.5599595334307873
 40
0.6813573798428257
 40
0.7944179911337563
 40
0.9012434198188539
 40
1.0
 40
1.0
 40
1.0
 40
1.0
 10
304.4343181818182
 20
187.2287058084419
 30
0.0
 10
304.4233714323839
 20
187.2646738599749
 30
0.0
 10
304.4019994997693
 20
187.3348962377006
 30
0.0
 10
304.371734894314
 20
187.4377234110727
 30
0.0
 10
304.34268775007
 20
187.5352530629683
 30
0.0
 10
304.3178758920335
 20
187.6281655148482
 30
0.0
 10
304.2932034591187
 20
187.7152518845985
 30
0.0
 10
304.2719251647972
 20
187.797481300594
 30
0.0
 10
304.2528243498238
 20
187.8744456658122
 30
0.0
 10
304.2410909732348
 20
187.9242440886358
 30
0.0
 10
304.2354545454546
 20
187.9481660357146
 30
0.0
  0
LINE
  5
330
330
1F
100
AcDbEntity
  8
0
  6
Continuous
 62
     7
370
    25
100
AcDbLine
 10
304.7269318182
 20
186.2670580812
 30
0.0
 11
304.4343181818
 21
187.2287058084
 31
0.0
  0
LINE
  5
331
330
1F
100
AcDbEntity
  8
0
  6
Continuous
 62
     7
370
    25
100
AcDbLine
 10
303.7432670455
 20
186.2670580812
 30
0.0
 11
304.7269318182
 21
186.2670580812
 31
0.0
  0
LINE
  5
332
330
1F
100
AcDbEntity
  8
0
  6
Continuous
 62
     7
370
    25
100
AcDbLine
 10
304.0728125
 20
187.2855239903
 30
0.0
 11
303.7432670455
 21
186.2670580812
 31
0.0
  0
SPLINE
  5
333
330
1F
100
AcDbEntity
  8
0
  6
Continuous
 62
     7
370
    25
100
AcDbSpline
210
0.0
220
0.0
230
1.0
 70
     8
 71
     3
 72
    11
 73
     7
 74
     0
 42
0.000000001
 43
0.00000001
 40
0.0
 40
0.0
 40
0.0
 40
0.0
 40
0.2488751571872421
 40
0.497419710300233
 40
0.7479413436558451
 40
1.0
 40
1.0
 40
1.0
 40
1.0
 10
304.2354545454546
 20
187.9481660357146
 30
0.0
 10
304.2252219963891
 20
187.8924453075941
 30
0.0
 10
304.2047704911073
 20
187.7810778703911
 30
0.0
 10
304.1664349503754
 20
187.6151754300345
 30
0.0
 10
304.1237854982281
 20
187.4495723666032
 30
0.0
 10
304.0898381061002
 20
187.3403181584292
 30
0.0
 10
304.0728125
 20
187.2855239902601
 30
0.0
  0
LINE
  5
334
330
1F
100
AcDbEntity
  8
0
  6
Continuous
 62
     7
370
    25
100
AcDbLine
 10
302.5763636364
 20
188.3125126266
 30
0.0
 11
302.5763636364
 21
185.9368023994
 31
0.0
  0
LINE
  5
335
330
1F
100
AcDbEntity
  8
0
  6
Continuous
 62
     7
370
    25
100
AcDbLine
 10
302.2127272727
 20
188.3125126266
 30
0.0
 11
302.5763636364
 21
188.3125126266
 31
0.0
  0
LINE
  5
336
330
1F
100
AcDbEntity
  8
0
  6
Continuous
 62
     7
370
    25
100
AcDbLine
 10
302.2127272727
 20
185.9091035357
 30
0.0
 11
302.2127272727
 21
188.3125126266
 31
0.0
  0
SPLINE
  5
337
330
1F
100
AcDbEntity
  8
0
  6
Continuous
 62
     7
370
    25
100
AcDbSpline
210
0.0
220
0.0
230
1.0
 70
     8
 71
     3
 72
    11
 73
     7
 74
     0
 42
0.000000001
 43
0.00000001
 40
0.0
 40
0.0
 40
0.0
 40
0.0
 40
0.1899378633492042
 40
0.4190751882676111
 40
0.6888208399565361
 40
0.9999999999999999
 40
0.9999999999999999
 40
0.9999999999999999
 40
0.9999999999999999
 10
302.1651420454545
 20
185.4403535357146
 30
0.0
 10
302.1725798299436
 20
185.4693594888984
 30
0.0
 10
302.1889904122262
 20
185.5333576569151
 30
0.0
 10
302.2022271821181
 20
185.6412707466502
 30
0.0
 10
302.2116867813178
 20
185.7685389524102
 30
0.0
 10
302.2123643338176
 20
185.8600725142772
 30
0.0
 10
302.2127272727272
 20
185.9091035357146
 30
0.0
  0
SPLINE
  5
338
330
1F
100
AcDbEntity
  8
0
  6
Continuous
 62
     7
370
    25
100
AcDbSpline
210
0.0
220
0.0
230
1.0
 70
     8
 71
     3
 72
    15
 73
    11
 74
     0
 42
0.000000001
 43
0.00000001
 40
0.0
 40
0.0
 40
0.0
 40
0.0
 40
0.1318753426358343
 40
0.2576529831924869
 40
0.3827609181757876
 40
0.5089715295156519
 40
0.6345929352780179
 40
0.7573414601716918
 40
0.8779288610425218
 40
1.0
 40
1.0
 40
1.0
 40
1.0
 10
301.8022159090909
 20
185.1761489902601
 30
0.0
 10
301.8233556537713
 20
185.1771760932999
 30
0.0
 10
301.8646576756048
 20
185.1791828078
 30
0.0
 10
301.924829408492
 20
185.1928831113146
 30
0.0
 10
301.9807635264258
 20
185.2165938654956
 30
0.0
 10
302.0316676852303
 20
185.249542045391
 30
0.0
 10
302.0772896535844
 20
185.2889716804658
 30
0.0
 10
302.1148175487663
 20
185.334902532854
 30
0.0
 10
302.145896027503
 20
185.3849859611257
 30
0.0
 10
302.1587006082248
 20
185.4218225981888
 30
0.0
 10
302.1651420454545
 20
185.4403535357146
 30
0.0
  0
SPLINE
  5
339
330
1F
100
AcDbEntity
  8
0
  6
Continuous
 62
     7
370
    25
100
AcDbSpline
210
0.0
220
0.0
230
1.0
 70
     8
 71
     3
 72
    23
 73
    19
 74
     0
 42
0.000000001
 43
0.00000001
 40
0.0
 40
0.0
 40
0.0
 40
0.0
 40
0.1073559733815323
 40
0.2065681780405376
 40
0.2976862275996194
 40
0.3795789659120611
 40
0.4539091456714813
 40
0.5210059557000669
 40
0.5803213152528152
 40
0.6331440915541412
 40
0.6819673272515994
 40
0.7282238973232185
 40
0.773116414329368
 40
0.8172095941165214
 40
0.8611451100622665
 40
0.9056495000405613
 40
0.952037153024125
 40
0.9999999999999999
 40
0.9999999999999999
 40
0.9999999999999999
 40
0.9999999999999999
 10
301.3945454545455
 20
185.9034217175328
 30
0.0
 10
301.3959291095131
 20
185.8700230805249
 30
0.0
 10
301.3985914586744
 20
185.8057593476514
 30
0.0
 10
301.406806576409
 20
185.7134360213442
 30
0.0
 10
301.4158960321453
 20
185.6291381930689
 30
0.0
 10
301.4296627824259
 20
185.553327031691
 30
0.0
 10
301.4456473495993
 20
185.4856063641379
 30
0.0
 10
301.4648316440761
 20
185.4260914365006
 30
0.0
 10
301.4854991783599
 20
185.3741299213697
 30
0.0
 10
301.5109207747249
 20
185.3307200309765
 30
0.0
 10
301.5390791580602
 20
185.2942097921346
 30
0.0
 10
301.5689337596483
 20
185.2622841092607
 30
0.0
 10
301.6020825417003
 20
185.2361830075558
 30
0.0
 10
301.6367962861946
 20
185.2134031554541
 30
0.0
 10
301.6750434438387
 20
185.1974414335041
 30
0.0
 10
301.7152249738389
 20
185.1852562062646
 30
0.0
 10
301.7578444094911
 20
185.1769493016631
 30
0.0
 10
301.7872617007104
 20
185.1764187134742
 30
0.0
 10
301.8022159090909
 20
185.1761489902601
 30
0.0
  0
LINE
  5
33A
330
1F
100
AcDbEntity
  8
0
  6
Continuous
 62
     7
370
    25
100
AcDbLine
 10
301.0309090909
 20
185.8579671721
 30
0.0
 11
301.3945454545
 21
185.9034217175
 31
0.0
  0
SPLINE
  5
33B
330
1F
100
AcDbEntity
  8
0
  6
Continuous
 62
     7
370
    25
100
AcDbSpline
210
0.0
220
0.0
230
1.0
 70
     8
 71
     3
 72
    15
 73
    11
 74
     0
 42
0.000000001
 43
0.00000001
 40
0.0
 40
0.0
 40
0.0
 40
0.0
 40
0.1010490053577533
 40
0.2071533109936865
 40
0.3194648646185316
 40
0.4391077011200589
 40
0.5656092495404482
 40
0.7011883501996641
 40
0.8455298974050567
 40
1.0
 40
1.0
 40
1.0
 40
1.0
 10
301.2390056818182
 20
185.0142171720782
 30
0.0
 10
301.2220047308964
 20
185.0386786791348
 30
0.0
 10
301.1871523020079
 20
185.0888254585188
 30
0.0
 10
301.1463479884456
 20
185.1738684200286
 30
0.0
 10
301.1094372318528
 20
185.2663654119228
 30
0.0
 10
301.0810918460984
 20
185.3681868026775
 30
0.0
 10
301.0582678484986
 20
185.4782673293777
 30
0.0
 10
301.0420728536397
 20
185.5969036951719
 30
0.0
 10
301.0331721335975
 20
185.7245440024244
 30
0.0
 10
301.031680294326
 20
185.8124990044407
 30
0.0
 10
301.0309090909091
 20
185.8579671720782
 30
0.0
  0
SPLINE
  5
33C
330
1F
100
AcDbEntity
  8
0
  6
Continuous
 62
     7
370
    25
100
AcDbSpline
210
0.0
220
0.0
230
1.0
 70
     8
 71
     3
 72
    15
 73
    11
 74
     0
 42
0.000000001
 43
0.00000001
 40
0.0
 40
0.0
 40
0.0
 40
0.0
 40
0.1422756403703536
 40
0.2767365039298886
 40
0.4044482731598682
 40
0.5261123324890591
 40
0.644658697951457
 40
0.7620593432335027
 40
0.8795701101468201
 40
1.0
 40
1.0
 40
1.0
 40
1.0
 10
301.7858806818182
 20
184.7670580811692
 30
0.0
 10
301.7562362742316
 20
184.7675559786776
 30
0.0
 10
301.6985757379992
 20
184.7685244256686
 30
0.0
 10
301.6151613151829
 20
184.7813159801398
 30
0.0
 10
301.5373132117377
 20
184.7998768267602
 30
0.0
 10
301.4655294942609
 20
184.8271746311697
 30
0.0
 10
301.3995121092583
 20
184.8620752868704
 30
0.0
 10
301.3397606701211
 20
184.9052460097603
 30
0.0
 10
301.2844686301694
 20
184.9548851983445
 30
0.0
 10
301.2542834380791
 20
184.9942787504392
 30
0.0
 10
301.2390056818182
 20
185.0142171720782
 30
0.0
  0
LINE
  5
33D
330
1F
100
AcDbEntity
  8
0
  6
Continuous
 62
     7
370
    25
100
AcDbLine
 10
304.8469602273
 20
185.8579671721
 30
0.0
 11
303.6239488636
 21
185.8579671721
 31
0.0
  0
LINE
  5
33E
330
1F
100
AcDbEntity
  8
0
  6
Continuous
 62
     7
370
    25
100
AcDbLine
 10
305.1530681818
 20
184.8125126266
 30
0.0
 11
304.8469602273
 21
185.8579671721
 31
0.0
  0
LINE
  5
33F
330
1F
100
AcDbEntity
  8
0
  6
Continuous
 62
     7
370
    25
100
AcDbLine
 10
305.5309090909
 20
184.8125126266
 30
0.0
 11
305.1530681818
 21
184.8125126266
 31
0.0
  0
LINE
  5
340
330
1F
100
AcDbEntity
  8
0
  6
Continuous
 62
     7
370
    25
100
AcDbLine
 10
304.4123011364
 20
188.3125126266
 30
0.0
 11
305.5309090909
 21
184.8125126266
 31
0.0
  0
LINE
  5
341
330
1F
100
AcDbEntity
  8
0
  6
Continuous
 62
     7
370
    25
100
AcDbLine
 10
304.0578977273
 20
188.3125126266
 30
0.0
 11
304.4123011364
 21
188.3125126266
 31
0.0
  0
LINE
  5
342
330
1F
100
AcDbEntity
  8
0
  6
Continuous
 62
     7
370
    25
100
AcDbLine
 10
302.94
 20
184.8125126266
 30
0.0
 11
304.0578977273
 21
188.3125126266
 31
0.0
  0
LINE
  5
343
330
1F
100
AcDbEntity
  8
0
  6
Continuous
 62
     7
370
    25
100
AcDbLine
 10
303.3185511364
 20
184.8125126266
 30
0.0
 11
302.94
 21
184.8125126266
 31
0.0
  0
LINE
  5
344
330
1F
100
AcDbEntity
  8
0
  6
Continuous
 62
     7
370
    25
100
AcDbLine
 10
303.6239488636
 20
185.8579671721
 30
0.0
 11
303.3185511364
 21
184.8125126266
 31
0.0
  0
SPLINE
  5
345
330
1F
100
AcDbEntity
  8
0
  6
Continuous
 62
     7
370
    25
100
AcDbSpline
210
0.0
220
0.0
230
1.0
 70
     8
 71
     3
 72
    15
 73
    11
 74
     0
 42
0.000000001
 43
0.00000001
 40
0.0
 40
0.0
 40
0.0
 40
0.0
 40
0.1134955418346445
 40
0.2259989297760188
 40
0.339269098522387
 40
0.4584033987388578
 40
0.5828288938708704
 40
0.7128865688815812
 40
0.8512114562531197
 40
1.0
 40
1.0
 40
1.0
 40
1.0
 10
320.1402840909091
 20
186.6988762629873
 30
0.0
 10
320.1762548351085
 20
186.6821040978281
 30
0.0
 10
320.2478818749103
 20
186.648706386211
 30
0.0
 10
320.3429773949283
 20
186.576779355278
 30
0.0
 10
320.4261532818444
 20
186.4891653321424
 30
0.0
 10
320.496078800082
 20
186.3855571230847
 30
0.0
 10
320.5533608329183
 20
186.2679226144917
 30
0.0
 10
320.5934247495617
 20
186.136385414229
 30
0.0
 10
320.6179459129983
 20
185.9924083061011
 30
0.0
 10
320.6204964414455
 20
185.892161570548
 30
0.0
 10
320.6218181818182
 20
185.8402114902601
 30
0.0
  0
SPLINE
  5
346
330
1F
100
AcDbEntity
  8
0
  6
Continuous
 62
     7
370
    25
100
AcDbSpline
210
0.0
220
0.0
230
1.0
 70
     8
 71
     3
 72
    15
 73
    11
 74
     0
 42
0.000000001
 43
0.00000001
 40
0.0
 40
0.0
 40
0.0
 40
0.0
 40
0.1333786706066401
 40
0.2619252341554814
 40
0.3867490650401661
 40
0.5114364515435104
 40
0.6336363288425925
 40
0.7543578055143837
 40
0.87576851040339
 40
1.0
 40
1.0
 40
1.0
 40
1.0
 10
320.5309090909091
 20
187.4325410357146
 30
0.0
 10
320.5297261580104
 20
187.3938712501184
 30
0.0
 10
320.5274031480786
 20
187.3179326266416
 30
0.0
 10
320.5077830202412
 20
187.2071842506213
 30
0.0
 10
320.4755420046919
 20
187.1022320501288
 30
0.0
 10
320.4310461931959
 20
187.0038121474678
 30
0.0
 10
320.3747119401945
 20
186.9130194013448
 30
0.0
 10
320.3072811989292
 20
186.831457135867
 30
0.0
 10
320.2294814915017
 20
186.7585569216323
 30
0.0
 10
320.1702433078544
 20
186.7189215309873
 30
0.0
 10
320.1402840909091
 20
186.6988762629873
 30
0.0
  0
SPLINE
  5
347
330
1F
100
AcDbEntity
  8
0
  6
Continuous
 62
     7
370
    25
100
AcDbSpline
210
0.0
220
0.0
230
1.0
 70
     8
 71
     3
 72
    23
 73
    19
 74
     0
 42
0.000000001
 43
0.00000001
 40
0.0
 40
0.0
 40
0.0
 40
0.0
 40
0.0544199008451914
 40
0.106052316256518
 40
0.1549730787461434
 40
0.2012838652153513
 40
0.2452075788106312
 40
0.2863483776398002
 40
0.3259675705682549
 40
0.3636675859428595
 40
0.4367582574700977
 40
0.511236288536633
 40
0.5876989460161557
 40
0.668228913409065
 40
0.7504893743805794
 40
0.8322579304600503
 40
0.9146071290589903
 40
1.0
 40
1.0
 40
1.0
 40
1.0
 10
319.5706818181818
 20
188.3125126266237
 30
0.0
 10
319.597442826255
 20
188.312321046386
 30
0.0
 10
319.6495940953209
 20
188.3119476989957
 30
0.0
 10
319.7256504298406
 20
188.3067087652477
 30
0.0
 10
319.7974533234451
 20
188.2989935442783
 30
0.0
 10
319.8651297374769
 20
188.2886469186159
 30
0.0
 10
319.9281696018424
 20
188.2743752398503
 30
0.0
 10
319.9871278481704
 20
188.2574067021192
 30
0.0
 10
320.0416615056585
 20
188.2367918917174
 30
0.0
 10
320.108886147159
 20
188.2058025535832
 30
0.0
 10
320.1863518768965
 20
188.1571810312642
 30
0.0
 10
320.2710297915957
 20
188.0860549071265
 30
0.0
 10
320.3449481919083
 20
187.9989913770418
 30
0.0
 10
320.4106827755135
 20
187.9011703192701
 30
0.0
 10
320.4645685597415
 20
187.7932173613573
 30
0.0
 10
320.5029695036181
 20
187.6779862687889
 30
0.0
 10
320.5264880552478
 20
187.5570740877247
 30
0.0
 10
320.5294176929735
 20
187.4745511778861
 30
0.0
 10
320.5309090909091
 20
187.4325410357146
 30
0.0
  0
LINE
  5
348
330
1F
100
AcDbEntity
  8
0
  6
Continuous
 62
     7
370
    25
100
AcDbLine
 10
318.4854545455
 20
188.3125126266
 30
0.0
 11
319.5706818182
 21
188.3125126266
 31
0.0
  0
LINE
  5
349
330
1F
100
AcDbEntity
  8
0
  6
Continuous
 62
     7
370
    25
100
AcDbLine
 10
318.4854545455
 20
184.8125126266
 30
0.0
 11
318.4854545455
 21
188.3125126266
 31
0.0
  0
LINE
  5
34A
330
1F
100
AcDbEntity
  8
0
  6
Continuous
 62
     7
370
    25
100
AcDbLine
 10
319.5628693182
 20
184.8125126266
 30
0.0
 11
318.4854545455
 21
184.8125126266
 31
0.0
  0
SPLINE
  5
34B
330
1F
100
AcDbEntity
  8
0
  6
Continuous
 62
     7
370
    25
100
AcDbSpline
210
0.0
220
0.0
230
1.0
 70
     8
 71
     3
 72
    23
 73
    19
 74
     0
 42
0.000000001
 43
0.00000001
 40
0.0
 40
0.0
 40
0.0
 40
0.0
 40
0.0927167590882806
 40
0.1801828503269483
 40
0.2644844746646971
 40
0.3464547069403137
 40
0.4250710312591282
 40
0.499228385582297
 40
0.5714123754260498
 40
0.6423085886576492
 40
0.6788506151926694
 40
0.7174739186893365
 40
0.7581199166694998
 40
0.8008069053587523
 40
0.84682533884393
 40
0.8950746429128078
 40
0.9461164316244263
 40
1.0
 40
1.0
 40
1.0
 40
1.0
 10
320.6218181818182
 20
185.8402114902601
 30
0.0
 10
320.6204743463868
 20
185.7880279829757
 30
0.0
 10
320.6178627786316
 20
185.6866161867156
 30
0.0
 10
320.5930687734494
 20
185.5394231424432
 30
0.0
 10
320.5526801380662
 20
185.4022151144333
 30
0.0
 10
320.4968896593149
 20
185.2757904228531
 30
0.0
 10
320.4273728744486
 20
185.1631409313419
 30
0.0
 10
320.3474774661273
 20
185.0643823093792
 30
0.0
 10
320.2549624392912
 20
184.9837412865578
 30
0.0
 10
320.1690259931622
 20
184.9296156120762
 30
0.0
 10
320.0939867742783
 20
184.8960125801806
 30
0.0
 10
320.0330121521346
 20
184.8728779486785
 30
0.0
 10
319.9666824285887
 20
184.8551284857768
 30
0.0
 10
319.8957197940443
 20
184.8389840780131
 30
0.0
 10
319.8195120751789
 20
184.827301794156
 30
0.0
 10
319.7381921555769
 20
184.8190824117629
 30
0.0
 10
319.652215788828
 20
184.8128649700188
 30
0.0
 10
319.5931844068719
 20
184.812632176072
 30
0.0
 10
319.5628693181818
 20
184.8125126266237
 30
0.0
  0
SPLINE
  5
34C
330
1F
100
AcDbEntity
  8
0
  6
Continuous
 62
     7
370
    25
100
AcDbSpline
210
0.0
220
0.0
230
1.0
 70
     8
 71
     3
 72
    19
 73
    15
 74
     0
 42
0.000000001
 43
0.00000001
 40
0.0
 40
0.0
 40
0.0
 40
0.0
 40
0.0661297850621439
 40
0.1323063145957533
 40
0.2001432470913928
 40
0.2709948764223983
 40
0.3452317459811043
 40
0.4227459821809254
 40
0.5042032756070182
 40
0.5908175642441986
 40
0.683012705979694
 40
0.7812662377116579
 40
0.8868843908001318
 40
1.0
 40
1.0
 40
1.0
 40
1.0
 10
325.8469602272727
 20
188.2478819448055
 30
0.0
 10
325.8877687150483
 20
188.23228279784
 30
0.0
 10
325.9694145364695
 20
188.2010734775027
 30
0.0
 10
326.0827082747326
 20
188.1318899005216
 30
0.0
 10
326.1870543299758
 20
188.0455289274337
 30
0.0
 10
326.2832436914218
 20
187.9426611648352
 30
0.0
 10
326.3694847657359
 20
187.8234575410182
 30
0.0
 10
326.4464864502715
 20
187.6899934978972
 30
0.0
 10
326.5123469059121
 20
187.5417375162284
 30
0.0
 10
326.5684855284392
 20
187.3793185894112
 30
0.0
 10
326.6131789102348
 20
187.201885130684
 30
0.0
 10
326.6446369606178
 20
187.0089867333337
 30
0.0
 10
326.663925889764
 20
186.800596147539
 30
0.0
 10
326.6661319097928
 20
186.6563064790037
 30
0.0
 10
326.6672727272727
 20
186.5816887629873
 30
0.0
  0
SPLINE
  5
34D
330
1F
100
AcDbEntity
  8
0
  6
Continuous
 62
     7
370
    25
100
AcDbSpline
210
0.0
220
0.0
230
1.0
 70
     8
 71
     3
 72
    15
 73
    11
 74
     0
 42
0.000000001
 43
0.00000001
 40
0.0
 40
0.0
 40
0.0
 40
0.0
 40
0.157768981263723
 40
0.3068317722095678
 40
0.444685315406593
 40
0.5740378871988585
 40
0.6938055486786888
 40
0.8052293349315863
 40
0.9065525990511043
 40
1.0
 40
1.0
 40
1.0
 40
1.0
 10
325.2901420454546
 20
188.3125126266237
 30
0.0
 10
325.3197402674725
 20
188.3125216614932
 30
0.0
 10
325.377303388203
 20
188.3125392326596
 30
0.0
 10
325.4606393840036
 20
188.3085229161961
 30
0.0
 10
325.5385813572518
 20
188.3038472539856
 30
0.0
 10
325.6108692903335
 20
188.2969318887168
 30
0.0
 10
325.6778198461704
 20
188.2873581633286
 30
0.0
 10
325.7394441337408
 20
188.2774988889612
 30
0.0
 10
325.7952477736634
 20
188.263653895379
 30
0.0
 10
325.8301937752135
 20
188.2529955999256
 30
0.0
 10
325.8469602272727
 20
188.2478819448055
 30
0.0
  0
LINE
  5
34E
330
1F
100
AcDbEntity
  8
0
  6
Continuous
 62
     7
370
    25
100
AcDbLine
 10
324.3036363636
 20
188.3125126266
 30
0.0
 11
325.2901420455
 21
188.3125126266
 31
0.0
  0
LINE
  5
34F
330
1F
100
AcDbEntity
  8
0
  6
Continuous
 62
     7
370
    25
100
AcDbLine
 10
324.3036363636
 20
184.8125126266
 30
0.0
 11
324.3036363636
 21
188.3125126266
 31
0.0
  0
LINE
  5
350
330
1F
100
AcDbEntity
  8
0
  6
Continuous
 62
     7
370
    25
100
AcDbLine
 10
325.3355965909
 20
184.8125126266
 30
0.0
 11
324.3036363636
 21
184.8125126266
 31
0.0
  0
SPLINE
  5
351
330
1F
100
AcDbEntity
  8
0
  6
Continuous
 62
     7
370
    25
100
AcDbSpline
210
0.0
220
0.0
230
1.0
 70
     8
 71
     3
 72
    31
 73
    27
 74
     0
 42
0.000000001
 43
0.00000001
 40
0.0
 40
0.0
 40
0.0
 40
0.0
 40
0.0577553347540333
 40
0.1136139226023749
 40
0.1671197257755566
 40
0.2189464986391538
 40
0.2686643663353139
 40
0.3168966216208767
 40
0.3635773347188843
 40
0.4087770573903811
 40
0.4520210878651962
 40
0.4933464890352591
 40
0.5327655511252253
 40
0.569964342274778
 40
0.6057775680813444
 40
0.6402404808462637
 40
0.6733902473124882
 40
0.7057429754128417
 40
0.737921108410789
 40
0.7710708748770121
 40
0.8052923530984054
 40
0.8409668427136457
 40
0.8780909052648262
 40
0.9167713881419295
 40
0.9574514408635615
 40
1.0
 40
1.0
 40
1.0
 40
1.0
 10
326.6672727272727
 20
186.5816887629873
 30
0.0
 10
326.6666748914354
 20
186.5331474639524
 30
0.0
 10
326.6654988533285
 20
186.4376590140097
 30
0.0
 10
326.6578070176972
 20
186.2973562752729
 30
0.0
 10
326.6442895372389
 20
186.1625174470465
 30
0.0
 10
326.6254469073416
 20
186.033507431244
 30
0.0
 10
326.6002139371089
 20
185.9101317882508
 30
0.0
 10
326.5708460955104
 20
185.7921154876507
 30
0.0
 10
326.5351375629801
 20
185.6798229964569
 30
0.0
 10
326.4949451570946
 20
185.5735442471092
 30
0.0
 10
326.4501863273795
 20
185.4740042604112
 30
0.0
 10
326.4018038217659
 20
185.3816538368115
 30
0.0
 10
326.3511370441405
 20
185.2963740542627
 30
0.0
 10
326.2967825715121
 20
185.2189522139532
 30
0.0
 10
326.2391585143045
 20
185.149278778575
 30
0.0
 10
326.1788924453797
 20
185.086519842792
 30
0.0
 10
326.1154563782218
 20
185.031194902383
 30
0.0
 10
326.0479684917172
 20
184.9842323909923
 30
0.0
 10
325.976845944603
 20
184.9429873663803
 30
0.0
 10
325.9004586764211
 20
184.9085986943717
 30
0.0
 10
325.8192182826496
 20
184.8783395676103
 30
0.0
 10
325.7323392589457
 20
184.8546930231677
 30
0.0
 10
325.6406150440516
 20
184.8353104521672
 30
0.0
 10
325.5435478423406
 20
184.8219725628174
 30
0.0
 10
325.4413107898209
 20
184.8142504101153
 30
0.0
 10
325.3713581429332
 20
184.8131004931107
 30
0.0
 10
325.3355965909091
 20
184.8125126266237
 30
0.0
  0
SPLINE
  5
352
330
1F
100
AcDbEntity
  8
0
  6
Continuous
 62
     7
370
    25
100
AcDbSpline
210
0.0
220
0.0
230
1.0
 70
     8
 71
     3
 72
    23
 73
    19
 74
     0
 42
0.000000001
 43
0.00000001
 40
0.0
 40
0.0
 40
0.0
 40
0.0
 40
0.0888020249989599
 40
0.1690438221939707
 40
0.2412984384705505
 40
0.3055987735467961
 40
0.3614602812014786
 40
0.4094933830719599
 40
0.4495464594938949
 40
0.4818678640812722
 40
0.5389057168513094
 40
0.5962116047656744
 40
0.655284474422711
 40
0.7171583883965916
 40
0.7819971740158735
 40
0.8500813053860578
 40
0.9224248055745138
 40
1.0
 40
1.0
 40
1.0
 40
1.0
 10
331.7354545454546
 20
186.3714614902601
 30
0.0
 10
331.770533570455
 20
186.3609410019721
 30
0.0
 10
331.8373101159785
 20
186.3409141664179
 30
0.0
 10
331.9319905479321
 20
186.3102646004819
 30
0.0
 10
332.0165633833014
 20
186.2812454448217
 30
0.0
 10
332.0910168949077
 20
186.2537857601706
 30
0.0
 10
332.1553018935139
 20
186.2276409359736
 30
0.0
 10
332.2091012800653
 20
186.2025853489526
 30
0.0
 10
332.2537960552469
 20
186.1807564866461
 30
0.0
 10
332.2982434643996
 20
186.1510181731009
 30
0.0
 10
332.3445687868321
 20
186.1118546703722
 30
0.0
 10
332.3927913828545
 20
186.0587325699827
 30
0.0
 10
332.4341105602629
 20
185.9976694103487
 30
0.0
 10
332.4689738137563
 20
185.9292156417777
 30
0.0
 10
332.4963159034905
 20
185.8535219737719
 30
0.0
 10
332.5175154768137
 20
185.7713781699975
 30
0.0
 10
332.5281990444668
 20
185.6818736188995
 30
0.0
 10
332.5299849677137
 20
185.6200640653886
 30
0.0
 10
332.5309090909091
 20
185.5880808084419
 30
0.0
  0
SPLINE
  5
353
330
1F
100
AcDbEntity
  8
0
  6
Continuous
 62
     7
370
    25
100
AcDbSpline
210
0.0
220
0.0
230
1.0
 70
     8
 71
     3
 72
    15
 73
    11
 74
     0
 42
0.000000001
 43
0.00000001
 40
0.0
 40
0.0
 40
0.0
 40
0.0
 40
0.0564719285384476
 40
0.1326570773564946
 40
0.2281521911408201
 40
0.3431668580366659
 40
0.4767998177852612
 40
0.6316582076712588
 40
0.8051723455879789
 40
1.0
 40
1.0
 40
1.0
 40
1.0
 10
331.3277840909091
 20
186.5170580811692
 30
0.0
 10
331.3348340017758
 20
186.5129354711682
 30
0.0
 10
331.3513948063279
 20
186.5032511305062
 30
0.0
 10
331.3813679685512
 20
186.4893852698315
 30
0.0
 10
331.4197894072462
 20
186.47383429325
 30
0.0
 10
331.4666980508872
 20
186.4572453694949
 30
0.0
 10
331.5216031213872
 20
186.4375399225851
 30
0.0
 10
331.5853657267973
 20
186.4176391865014
 30
0.0
 10
331.6573209680756
 20
186.3943410553167
 30
0.0
 10
331.708424347528
 20
186.3793766426529
 30
0.0
 10
331.7354545454546
 20
186.3714614902601
 30
0.0
  0
SPLINE
  5
354
330
1F
100
AcDbEntity
  8
0
  6
Continuous
 62
     7
370
    25
100
AcDbSpline
210
0.0
220
0.0
230
1.0
 70
     8
 71
     3
 72
    11
 73
     7
 74
     0
 42
0.000000001
 43
0.00000001
 40
0.0
 40
0.0
 40
0.0
 40
0.0
 40
0.2533345299835125
 40
0.4960226624459858
 40
0.7370566853077676
 40
1.0
 40
1.0
 40
1.0
 40
1.0
 10
331.2127272727272
 20
186.7287058084419
 30
0.0
 10
331.2139314829416
 20
186.7074094958133
 30
0.0
 10
331.2162892963699
 20
186.6657118492627
 30
0.0
 10
331.2396718495208
 20
186.6076182440812
 30
0.0
 10
331.2763736531596
 20
186.5560618683025
 30
0.0
 10
331.3101577160396
 20
186.53043076196
 30
0.0
 10
331.3277840909091
 20
186.5170580811692
 30
0.0
  0
SPLINE
  5
355
330
1F
100
AcDbEntity
  8
0
  6
Continuous
 62
     7
370
    25
100
AcDbSpline
210
0.0
220
0.0
230
1.0
 70
     8
 71
     3
 72
    15
 73
    11
 74
     0
 42
0.000000001
 43
0.00000001
 40
0.0
 40
0.0
 40
0.0
 40
0.0
 40
0.1744475096522795
 40
0.3268824124617937
 40
0.4613472122667966
 40
0.5816380267185473
 40
0.6910705666047823
 40
0.7927892955004661
 40
0.8939382396375808
 40
0.9999999999999999
 40
0.9999999999999999
 40
0.9999999999999999
 40
0.9999999999999999
 10
331.6686931818182
 20
187.0397853538964
 30
0.0
 10
331.6326308537975
 20
187.038813090946
 30
0.0
 10
331.5650567118341
 20
187.0369912497548
 30
0.0
 10
331.4708374470826
 20
187.0207178051958
 30
0.0
 10
331.3903499895213
 20
186.9947126877256
 30
0.0
 10
331.3251121553768
 20
186.9559171894077
 30
0.0
 10
331.27508593676
 20
186.9083333008357
 30
0.0
 10
331.2390490938322
 20
186.8542826933581
 30
0.0
 10
331.2164424238775
 20
186.7936165319303
 30
0.0
 10
331.2139850770836
 20
186.7506820316079
 30
0.0
 10
331.2127272727272
 20
186.7287058084419
 30
0.0
  0
SPLINE
  5
356
330
1F
100
AcDbEntity
  8
0
  6
Continuous
 62
     7
370
    25
100
AcDbSpline
210
0.0
220
0.0
230
1.0
 70
     8
 71
     3
 72
    15
 73
    11
 74
     0
 42
0.000000001
 43
0.00000001
 40
0.0
 40
0.0
 40
0.0
 40
0.0
 40
0.1428901499986547
 40
0.2715775881364905
 40
0.3904693795008498
 40
0.5025712980780823
 40
0.6152081973574492
 40
0.7321896610795403
 40
0.8591868078244161
 40
0.9999999999999999
 40
0.9999999999999999
 40
0.9999999999999999
 40
0.9999999999999999
 10
332.1218181818182
 20
186.6306944448055
 30
0.0
 10
332.1168350182736
 20
186.6628467679531
 30
0.0
 10
332.1073639977957
 20
186.7239556013716
 30
0.0
 10
332.079172237426
 20
186.8088237233802
 30
0.0
 10
332.0380847999169
 20
186.8801113792354
 30
0.0
 10
331.9868208956376
 20
186.9399468432225
 30
0.0
 10
331.9226639778456
 20
186.9851430930018
 30
0.0
 10
331.8477373522193
 20
187.0173902053825
 30
0.0
 10
331.7617401306686
 20
187.0366303831651
 30
0.0
 10
331.7007575072736
 20
187.0386981392206
 30
0.0
 10
331.6686931818182
 20
187.0397853538964
 30
0.0
  0
LINE
  5
357
330
1F
100
AcDbEntity
  8
0
  6
Continuous
 62
     7
370
    25
100
AcDbLine
 10
332.4854545455
 20
186.6761489903
 30
0.0
 11
332.1218181818
 21
186.6306944448
 31
0.0
  0
SPLINE
  5
358
330
1F
100
AcDbEntity
  8
0
  6
Continuous
 62
     7
370
    25
100
AcDbSpline
210
0.0
220
0.0
230
1.0
 70
     8
 71
     3
 72
    19
 73
    15
 74
     0
 42
0.000000001
 43
0.00000001
 40
0.0
 40
0.0
 40
0.0
 40
0.0
 40
0.0940979807465284
 40
0.1832242239908924
 40
0.2679816082040667
 40
0.3505333049061091
 40
0.4292230974138174
 40
0.5039604698815174
 40
0.5757366039802698
 40
0.6459794083478015
 40
0.7197924729759912
 40
0.8026697393828578
 40
0.895821381044566
 40
1.0
 40
1.0
 40
1.0
 40
1.0
 10
331.6559090909091
 20
187.4034217175328
 30
0.0
 10
331.6945457115036
 20
187.4022513628778
 30
0.0
 10
331.7697775578186
 20
187.3999724901352
 30
0.0
 10
331.8790188133652
 20
187.3846018924511
 30
0.0
 10
331.9809776059156
 20
187.3573397154474
 30
0.0
 10
332.074997500803
 20
187.3198491020236
 30
0.0
 10
332.1606088578914
 20
187.273967644636
 30
0.0
 10
332.23582640146
 20
187.2196922490207
 30
0.0
 10
332.3004851487244
 20
187.1581487681909
 30
0.0
 10
332.3555416122565
 20
187.0882358572042
 30
0.0
 10
332.4002526586133
 20
187.0060373136043
 30
0.0
 10
332.4366109119679
 20
186.9098993758328
 30
0.0
 10
332.4665605518112
 20
186.7985724996989
 30
0.0
 10
332.4789262131311
 20
186.7184492772669
 30
0.0
 10
332.4854545454545
 20
186.6761489902601
 30
0.0
  0
SPLINE
  5
359
330
1F
100
AcDbEntity
  8
0
  6
Continuous
 62
     7
370
    25
100
AcDbSpline
210
0.0
220
0.0
230
1.0
 70
     8
 71
     3
 72
    23
 73
    19
 74
     0
 42
0.000000001
 43
0.00000001
 40
0.0
 40
0.0
 40
0.0
 40
0.0
 40
0.0644363268042908
 40
0.1258667377151238
 40
0.185938102662909
 40
0.2442596602086013
 40
0.3015808136688501
 40
0.3585695142859089
 40
0.4164511649581965
 40
0.4759233063302463
 40
0.5359946712780327
 40
0.5958276290276501
 40
0.657301821083218
 40
0.7202998620236514
 40
0.78546020064473
 40
0.8533603183878388
 40
0.9245747987912778
 40
1.0
 40
1.0
 40
1.0
 40
1.0
 10
330.8490909090909
 20
186.6775694448055
 30
0.0
 10
330.8497782891741
 20
186.7038832276921
 30
0.0
 10
330.8511209834731
 20
186.7552832713187
 30
0.0
 10
330.8614973814131
 20
186.8306164191286
 30
0.0
 10
330.8773918145832
 20
186.9023807656189
 30
0.0
 10
330.900843968539
 20
186.9703860162332
 30
0.0
 10
330.9319869255772
 20
187.0337347045641
 30
0.0
 10
330.968147429317
 20
187.0941459948579
 30
0.0
 10
331.0119090620095
 20
187.1505001773185
 30
0.0
 10
331.0622450899909
 20
187.2027190969445
 30
0.0
 10
331.1179498657193
 20
187.2505071879746
 30
0.0
 10
331.1800221301343
 20
187.2911848593187
 30
0.0
 10
331.2468203319345
 20
187.3260774788325
 30
0.0
 10
331.3189855214339
 20
187.3544679389829
 30
0.0
 10
331.3960556369155
 20
187.3765483383486
 30
0.0
 10
331.4781291846083
 20
187.3916981771479
 30
0.0
 10
331.5651961938253
 20
187.4023350474203
 30
0.0
 10
331.6250981025715
 20
187.4030526258023
 30
0.0
 10
331.6559090909091
 20
187.4034217175328
 30
0.0
  0
SPLINE
  5
35A
330
1F
100
AcDbEntity
  8
0
  6
Continuous
 62
     7
370
    25
100
AcDbSpline
210
0.0
220
0.0
230
1.0
 70
     8
 71
     3
 72
    23
 73
    19
 74
     0
 42
0.000000001
 43
0.00000001
 40
0.0
 40
0.0
 40
0.0
 40
0.0
 40
0.0803479529685884
 40
0.1540857697659217
 40
0.2217463782410224
 40
0.2830078046298348
 40
0.3384292434626339
 40
0.3876370850929206
 40
0.4310890015474597
 40
0.4683951320205009
 40
0.5353469519551292
 40
0.601101244154175
 40
0.6656147996428069
 40
0.7304355421121372
 40
0.7957028268409425
 40
0.8616285479192456
 40
0.9296396743680707
 40
1.0
 40
1.0
 40
1.0
 40
1.0
 10
331.7411363636363
 20
185.8970296720782
 30
0.0
 10
331.7079631512179
 20
185.9071159451353
 30
0.0
 10
331.6443458494417
 20
185.9264587048529
 30
0.0
 10
331.553258343374
 20
185.9557820405865
 30
0.0
 10
331.4701874510289
 20
185.9831246853053
 30
0.0
 10
331.3953225152882
 20
186.0100704291716
 30
0.0
 10
331.3288500241783
 20
186.0366511844594
 30
0.0
 10
331.2695309822825
 20
186.0604180596985
 30
0.0
 10
331.2184112348733
 20
186.0835677882997
 30
0.0
 10
331.1621097294665
 20
186.1135261854635
 30
0.0
 10
331.1005577054372
 20
186.1537862227227
 30
0.0
 10
331.0355630279308
 20
186.2091455864731
 30
0.0
 10
330.9797158329931
 20
186.2724665227087
 30
0.0
 10
330.9324101753724
 20
186.3421804330422
 30
0.0
 10
330.8956816016455
 20
186.4186627445309
 30
0.0
 10
330.8680570987855
 20
186.5003217812329
 30
0.0
 10
330.8526418056472
 20
186.5875042729954
 30
0.0
 10
330.8502878626201
 20
186.6472098374371
 30
0.0
 10
330.8490909090909
 20
186.6775694448055
 30
0.0
  0
SPLINE
  5
35B
330
1F
100
AcDbEntity
  8
0
  6
Continuous
 62
     7
370
    25
100
AcDbSpline
210
0.0
220
0.0
230
1.0
 70
     8
 71
     3
 72
    15
 73
    11
 74
     0
 42
0.000000001
 43
0.00000001
 40
0.0
 40
0.0
 40
0.0
 40
0.0
 40
0.0610041680348465
 40
0.1413951950876469
 40
0.2376911451785598
 40
0.3520340277813426
 40
0.4865134538123948
 40
0.638400655607832
 40
0.810735948977014
 40
1.0
 40
1.0
 40
1.0
 40
1.0
 10
332.0841761363636
 20
185.7564046720782
 30
0.0
 10
332.0783711603779
 20
185.7612971570433
 30
0.0
 10
332.0649164123102
 20
185.7726369373958
 30
0.0
 10
332.0392211297179
 20
185.7874288008023
 30
0.0
 10
332.0070576683651
 20
185.803910524461
 30
0.0
 10
331.9676614782657
 20
185.8209542927331
 30
0.0
 10
331.9209236279173
 20
185.8381128837522
 30
0.0
 10
331.8674254072308
 20
185.8577773111622
 30
0.0
 10
331.806651774109
 20
185.8772357566116
 30
0.0
 10
331.7636459587441
 20
185.8902289358921
 30
0.0
 10
331.7411363636363
 20
185.8970296720782
 30
0.0
  0
SPLINE
  5
35C
330
1F
100
AcDbEntity
  8
0
  6
Continuous
 62
     7
370
    25
100
AcDbSpline
210
0.0
220
0.0
230
1.0
 70
     8
 71
     3
 72
    11
 73
     7
 74
     0
 42
0.000000001
 43
0.00000001
 40
0.0
 40
0.0
 40
0.0
 40
0.0
 40
0.2800024894960485
 40
0.533178543664111
 40
0.7691212689052842
 40
1.0
 40
1.0
 40
1.0
 40
1.0
 10
332.1672727272727
 20
185.5255808084419
 30
0.0
 10
332.1664925328025
 20
185.5491238513341
 30
0.0
 10
332.1650068926136
 20
185.5939543288964
 30
0.0
 10
332.1491023250168
 20
185.6569671079706
 30
0.0
 10
332.1228416768476
 20
185.7121317567625
 30
0.0
 10
332.0969711034352
 20
185.7417541464025
 30
0.0
 10
332.0841761363636
 20
185.7564046720782
 30
0.0
  0
SPLINE
  5
35D
330
1F
100
AcDbEntity
  8
0
  6
Continuous
 62
     7
370
    25
100
AcDbSpline
210
0.0
220
0.0
230
1.0
 70
     8
 71
     3
 72
    15
 73
    11
 74
     0
 42
0.000000001
 43
0.00000001
 40
0.0
 40
0.0
 40
0.0
 40
0.0
 40
0.1542702648641901
 40
0.2919558213672656
 40
0.419290313497259
 40
0.5397792421130223
 40
0.6560244828035149
 40
0.7677850657837908
 40
0.8804278840528513
 40
1.0
 40
1.0
 40
1.0
 40
1.0
 10
331.6956818181818
 20
185.1306944448055
 30
0.0
 10
331.7313098256789
 20
185.1319347194023
 30
0.0
 10
331.7987356786238
 20
185.1342819338117
 30
0.0
 10
331.8937689368932
 20
185.1550457033814
 30
0.0
 10
331.9765142209372
 20
185.189415430865
 30
0.0
 10
332.0448530087633
 20
185.239506215226
 30
0.0
 10
332.0991505789003
 20
185.2994451903956
 30
0.0
 10
332.139702004347
 20
185.3674765678975
 30
0.0
 10
332.1629501402102
 20
185.4443310648358
 30
0.0
 10
332.165803483646
 20
185.4979640904341
 30
0.0
 10
332.1672727272727
 20
185.5255808084419
 30
0.0
  0
SPLINE
  5
35E
330
1F
100
AcDbEntity
  8
0
  6
Continuous
 62
     7
370
    25
100
AcDbSpline
210
0.0
220
0.0
230
1.0
 70
     8
 71
     3
 72
    15
 73
    11
 74
     0
 42
0.000000001
 43
0.00000001
 40
0.0
 40
0.0
 40
0.0
 40
0.0
 40
0.1486602329898506
 40
0.2817900771618579
 40
0.4040342802842953
 40
0.5181502331779344
 40
0.6308884781878117
 40
0.746060154752101
 40
0.8674901524067969
 40
1.0
 40
1.0
 40
1.0
 40
1.0
 10
331.1672727272727
 20
185.6306944448055
 30
0.0
 10
331.1734261229698
 20
185.5908983064684
 30
0.0
 10
331.1850900751475
 20
185.5154634933566
 30
0.0
 10
331.2201380260894
 20
185.4113248091821
 30
0.0
 10
331.2682069150628
 20
185.3229826303809
 30
0.0
 10
331.3308614253406
 20
185.2512593165686
 30
0.0
 10
331.4062913113966
 20
185.1964058492443
 30
0.0
 10
331.4931997863784
 20
185.1578589489042
 30
0.0
 10
331.5910445304355
 20
185.1348063189911
 30
0.0
 10
331.6598027081484
 20
185.1321043665411
 30
0.0
 10
331.6956818181818
 20
185.1306944448055
 30
0.0
  0
LINE
  5
35F
330
1F
100
AcDbEntity
  8
0
  6
Continuous
 62
     7
370
    25
100
AcDbLine
 10
330.8036363636
 20
185.5852398994
 30
0.0
 11
331.1672727273
 21
185.6306944448
 31
0.0
  0
SPLINE
  5
360
330
1F
100
AcDbEntity
  8
0
  6
Continuous
 62
     7
370
    25
100
AcDbSpline
210
0.0
220
0.0
230
1.0
 70
     8
 71
     3
 72
    23
 73
    19
 74
     0
 42
0.000000001
 43
0.00000001
 40
0.0
 40
0.0
 40
0.0
 40
0.0
 40
0.0685982000108931
 40
0.1337684207341331
 40
0.1965722569929141
 40
0.2562287272301801
 40
0.3146023216973862
 40
0.3708951153036785
 40
0.4271879089099697
 40
0.4830691009199767
 40
0.5398892390028422
 40
0.597518718014747
 40
0.6574054859212541
 40
0.719194267109141
 40
0.7843292749589591
 40
0.8522468537509189
 40
0.9244620033624396
 40
1.0
 40
1.0
 40
1.0
 40
1.0
 10
331.6708238636364
 20
184.7670580811692
 30
0.0
 10
331.6405025021684
 20
184.7678422565504
 30
0.0
 10
331.5813749939038
 20
184.7693714206146
 30
0.0
 10
331.4947946131848
 20
184.778316263372
 30
0.0
 10
331.4134243223899
 20
184.7948723540323
 30
0.0
 10
331.3363587772063
 20
184.8165965545822
 30
0.0
 10
331.2649284312006
 20
184.8458855737715
 30
0.0
 10
331.1977417246519
 20
184.880814539831
 30
0.0
 10
331.1362091232536
 20
184.9230174200191
 30
0.0
 10
331.0785168972054
 20
184.9707230560464
 30
0.0
 10
331.0269911309171
 20
185.0258480884974
 30
0.0
 10
330.9793969038139
 20
185.0866257079589
 30
0.0
 10
330.937933007437
 20
185.1543481177351
 30
0.0
 10
330.9005448452431
 20
185.2280882324313
 30
0.0
 10
330.868955714921
 20
185.308353590291
 30
0.0
 10
330.8420549506561
 20
185.395062504339
 30
0.0
 10
330.8189729673347
 20
185.4876819759876
 30
0.0
 10
330.8088246407154
 20
185.5522366642395
 30
0.0
 10
330.8036363636364
 20
185.585239899351
 30
0.0
  0
SPLINE
  5
361
330
1F
100
AcDbEntity
  8
0
  6
Continuous
 62
     7
370
    25
100
AcDbSpline
210
0.0
220
0.0
230
1.0
 70
     8
 71
     3
 72
    23
 73
    19
 74
     0
 42
0.000000001
 43
0.00000001
 40
0.0
 40
0.0
 40
0.0
 40
0.0
 40
0.0667365676275932
 40
0.1307394576781663
 40
0.1926219323102793
 40
0.2527062673934878
 40
0.3114422337405043
 40
0.3702615929787219
 40
0.4289021079482177
 40
0.4884620470024314
 40
0.5484554105456722
 40
0.6080717555211879
 40
0.6677538400275177
 40
0.7291865847145691
 40
0.7928053990892737
 40
0.8587142205001844
 40
0.9274460170065547
 40
1.0
 40
1.0
 40
1.0
 40
1.0
 10
332.5309090909091
 20
185.5880808084419
 30
0.0
 10
332.5302331919862
 20
185.5582241115671
 30
0.0
 10
332.5289090804569
 20
185.4997337142297
 30
0.0
 10
332.5183441313762
 20
185.4140188237928
 30
0.0
 10
332.4994384294533
 20
185.3329194116917
 30
0.0
 10
332.4752150151902
 20
185.2556346947769
 30
0.0
 10
332.4417342724437
 20
185.1833810527468
 30
0.0
 10
332.4022830768753
 20
185.1149958856929
 30
0.0
 10
332.3548012037405
 20
185.051418603953
 30
0.0
 10
332.3009692021574
 20
184.9924461290323
 30
0.0
 10
332.2407140236199
 20
184.9393763089193
 30
0.0
 10
332.1752261909563
 20
184.8927582685758
 30
0.0
 10
332.1039032074477
 20
184.8543403492083
 30
0.0
 10
332.027661644783
 20
184.8221319296766
 30
0.0
 10
331.945713838912
 20
184.7974634722606
 30
0.0
 10
331.8587016289499
 20
184.779840419887
 30
0.0
 10
331.7665075760542
 20
184.7689450138764
 30
0.0
 10
331.7032885201744
 20
184.7676983011262
 30
0.0
 10
331.6708238636364
 20
184.7670580811692
 30
0.0
  0
LINE
  5
362
330
1F
100
AcDbEntity
  8
0
  6
Continuous
 62
     7
370
    25
100
AcDbLine
 10
333.0763636364
 20
185.3125126266
 30
0.0
 11
333.44
 21
185.3125126266
 31
0.0
  0
LINE
  5
363
330
1F
100
AcDbEntity
  8
0
  6
Continuous
 62
     7
370
    25
100
AcDbLine
 10
333.0763636364
 20
184.8125126266
 30
0.0
 11
333.0763636364
 21
185.3125126266
 31
0.0
  0
LINE
  5
364
330
1F
100
AcDbEntity
  8
0
  6
Continuous
 62
     7
370
    25
100
AcDbLine
 10
333.44
 20
184.8125126266
 30
0.0
 11
333.0763636364
 21
184.8125126266
 31
0.0
  0
LINE
  5
365
330
1F
100
AcDbEntity
  8
0
  6
Continuous
 62
     7
370
    25
100
AcDbLine
 10
333.44
 20
185.3125126266
 30
0.0
 11
333.44
 21
184.8125126266
 31
0.0
  0
SPLINE
  5
366
330
1F
100
AcDbEntity
  8
0
  6
Continuous
 62
     7
370
    25
100
AcDbSpline
210
0.0
220
0.0
230
1.0
 70
     8
 71
     3
 72
    11
 73
     7
 74
     0
 42
0.000000001
 43
0.00000001
 40
0.0
 40
0.0
 40
0.0
 40
0.0
 40
0.2427338836200175
 40
0.4890531082323479
 40
0.7416065579580067
 40
1.0
 40
1.0
 40
1.0
 40
1.0
 10
334.5500852272727
 20
186.6520012629873
 30
0.0
 10
334.5399774373192
 20
186.6107007847909
 30
0.0
 10
334.519612558628
 20
186.527489792851
 30
0.0
 10
334.5005144807501
 20
186.3989171061863
 30
0.0
 10
334.4879540632193
 20
186.2668365388068
 30
0.0
 10
334.4862940425799
 20
186.1773629990628
 30
0.0
 10
334.4854545454546
 20
186.132114899351
 30
0.0
  0
SPLINE
  5
367
330
1F
100
AcDbEntity
  8
0
  6
Continuous
 62
     7
370
    25
100
AcDbSpline
210
0.0
220
0.0
230
1.0
 70
     8
 71
     3
 72
    15
 73
    11
 74
     0
 42
0.000000001
 43
0.00000001
 40
0.0
 40
0.0
 40
0.0
 40
0.0
 40
0.1128482450535508
 40
0.2237707476587508
 40
0.3390101317530222
 40
0.4609584624010871
 40
0.585978471184484
 40
0.7164536607227071
 40
0.8531371885918309
 40
1.0
 40
1.0
 40
1.0
 40
1.0
 10
334.8753693181819
 20
186.9488762629873
 30
0.0
 10
334.8574892879462
 20
186.9479807672384
 30
0.0
 10
334.8220343481543
 20
186.9462050572735
 30
0.0
 10
334.7705427428326
 20
186.9299025529086
 30
0.0
 10
334.720725705627
 20
186.9059942353348
 30
0.0
 10
334.6752610835128
 20
186.8706840003717
 30
0.0
 10
334.63326866007
 20
186.8279812842471
 30
0.0
 10
334.598848615211
 20
186.7761040840905
 30
0.0
 10
334.5697746792877
 20
186.7172163616187
 30
0.0
 10
334.5568035980913
 20
186.6742537469692
 30
0.0
 10
334.5500852272727
 20
186.6520012629873
 30
0.0
  0
SPLINE
  5
368
330
1F
100
AcDbEntity
  8
0
  6
Continuous
 62
     7
370
    25
100
AcDbSpline
210
0.0
220
0.0
230
1.0
 70
     8
 71
     3
 72
    11
 73
     7
 74
     0
 42
0.000000001
 43
0.00000001
 40
0.0
 40
0.0
 40
0.0
 40
0.0
 40
0.2631914158914983
 40
0.5150108514500533
 40
0.7599583482797366
 40
1.0
 40
1.0
 40
1.0
 40
1.0
 10
335.1218181818182
 20
186.9034217175328
 30
0.0
 10
335.1008506956409
 20
186.910407577227
 30
0.0
 10
335.059821686878
 20
186.9240774514403
 30
0.0
 10
334.9975396668901
 20
186.9381963727868
 30
0.0
 10
334.9362411695253
 20
186.9472016800231
 30
0.0
 10
334.895522640957
 20
186.9483218456294
 30
0.0
 10
334.8753693181819
 20
186.9488762629873
 30
0.0
  0
LINE
  5
369
330
1F
100
AcDbEntity
  8
0
  6
Continuous
 62
     7
370
    25
100
AcDbLine
 10
335.2581818182
 20
187.2670580812
 30
0.0
 11
335.1218181818
 21
186.9034217175
 31
0.0
  0
SPLINE
  5
36A
330
1F
100
AcDbEntity
  8
0
  6
Continuous
 62
     7
370
    25
100
AcDbSpline
210
0.0
220
0.0
230
1.0
 70
     8
 71
     3
 72
    11
 73
     7
 74
     0
 42
0.000000001
 43
0.00000001
 40
0.0
 40
0.0
 40
0.0
 40
0.0
 40
0.2261087100499864
 40
0.4629556926786645
 40
0.7199783096476556
 40
1.0
 40
1.0
 40
1.0
 40
1.0
 10
334.9151420454545
 20
187.4034217175328
 30
0.0
 10
334.9435080379948
 20
187.4017301065966
 30
0.0
 10
335.0015871704709
 20
187.3982665473532
 30
0.0
 10
335.0881230604633
 20
187.3704010338438
 30
0.0
 10
335.1756082643478
 20
187.3278369195361
 30
0.0
 10
335.2298825300107
 20
187.2878879689697
 30
0.0
 10
335.2581818181819
 20
187.2670580811692
 30
0.0
  0
SPLINE
  5
36B
330
1F
100
AcDbEntity
  8
0
  6
Continuous
 62
     7
370
    25
100
AcDbSpline
210
0.0
220
0.0
230
1.0
 70
     8
 71
     3
 72
    19
 73
    15
 74
     0
 42
0.000000001
 43
0.00000001
 40
0.0
 40
0.0
 40
0.0
 40
0.0
 40
0.1074641575763819
 40
0.2071278442969117
 40
0.2981499594408185
 40
0.3815951115316692
 40
0.4571065637987444
 40
0.523978442953117
 40
0.5848779813153279
 40
0.6371486459391847
 40
0.7325112188499223
 40
0.8235648458920004
 40
0.9106767658710344
 40
1.0
 40
1.0
 40
1.0
 40
1.0
 10
334.4854545454546
 20
186.9517171720782
 30
0.0
 10
334.4947327864327
 20
186.9735847452537
 30
0.0
 10
334.5126157912969
 20
187.015732596165
 30
0.0
 10
334.5414288625792
 20
187.0750022604678
 30
0.0
 10
334.5679667822714
 20
187.1294815797201
 30
0.0
 10
334.595120133165
 20
187.1776189510425
 30
0.0
 10
334.6210322956844
 20
187.2202973982805
 30
0.0
 10
334.6469198815675
 20
187.2570570564528
 30
0.0
 10
334.6719885614831
 20
187.2880095497988
 30
0.0
 10
334.7040451430665
 20
187.3212010200336
 30
0.0
 10
334.7457881644997
 20
187.3539152061673
 30
0.0
 10
334.7991566845993
 20
187.3829369981634
 30
0.0
 10
334.8563460854815
 20
187.4001057917057
 30
0.0
 10
334.8953803162638
 20
187.4023072119062
 30
0.0
 10
334.9151420454545
 20
187.4034217175328
 30
0.0
  0
LINE
  5
36C
330
1F
100
AcDbEntity
  8
0
  6
Continuous
 62
     7
370
    25
100
AcDbLine
 10
334.4854545455
 20
187.3579671721
 30
0.0
 11
334.4854545455
 21
186.9517171721
 31
0.0
  0
LINE
  5
36D
330
1F
100
AcDbEntity
  8
0
  6
Continuous
 62
     7
370
    25
100
AcDbLine
 10
334.1218181818
 20
187.3579671721
 30
0.0
 11
334.4854545455
 21
187.3579671721
 31
0.0
  0
LINE
  5
36E
330
1F
100
AcDbEntity
  8
0
  6
Continuous
 62
     7
370
    25
100
AcDbLine
 10
334.1218181818
 20
184.8125126266
 30
0.0
 11
334.1218181818
 21
187.3579671721
 31
0.0
  0
LINE
  5
36F
330
1F
100
AcDbEntity
  8
0
  6
Continuous
 62
     7
370
    25
100
AcDbLine
 10
334.4854545455
 20
184.8125126266
 30
0.0
 11
334.1218181818
 21
184.8125126266
 31
0.0
  0
LINE
  5
370
330
1F
100
AcDbEntity
  8
0
  6
Continuous
 62
     7
370
    25
100
AcDbLine
 10
334.4854545455
 20
186.1321148994
 30
0.0
 11
334.4854545455
 21
184.8125126266
 31
0.0
  0
LINE
  5
371
330
1F
100
AcDbEntity
  8
0
  6
Continuous
 62
     7
370
    25
100
AcDbLine
 10
335.5309090909
 20
185.3125126266
 30
0.0
 11
335.8945454545
 21
185.3125126266
 31
0.0
  0
LINE
  5
372
330
1F
100
AcDbEntity
  8
0
  6
Continuous
 62
     7
370
    25
100
AcDbLine
 10
335.5309090909
 20
184.8125126266
 30
0.0
 11
335.5309090909
 21
185.3125126266
 31
0.0
  0
LINE
  5
373
330
1F
100
AcDbEntity
  8
0
  6
Continuous
 62
     7
370
    25
100
AcDbLine
 10
335.8945454545
 20
184.8125126266
 30
0.0
 11
335.5309090909
 21
184.8125126266
 31
0.0
  0
LINE
  5
374
330
1F
100
AcDbEntity
  8
0
  6
Continuous
 62
     7
370
    25
100
AcDbLine
 10
335.8945454545
 20
185.3125126266
 30
0.0
 11
335.8945454545
 21
184.8125126266
 31
0.0
  0
SPLINE
  5
375
330
1F
100
AcDbEntity
  8
0
  6
Continuous
 62
     7
370
    25
100
AcDbSpline
210
0.0
220
0.0
230
1.0
 70
     8
 71
     3
 72
    23
 73
    19
 74
     0
 42
0.000000001
 43
0.00000001
 40
0.0
 40
0.0
 40
0.0
 40
0.0
 40
0.0562994607896006
 40
0.1104843795282412
 40
0.164018081626719
 40
0.2170997971745961
 40
0.2702389387310961
 40
0.3246247121116271
 40
0.3805013890915526
 40
0.4390826992767441
 40
0.4992993896742463
 40
0.5612523696947651
 40
0.6252109899383524
 40
0.6923896064580334
 40
0.7627611560156049
 40
0.8371679241845502
 40
0.9163985854960467
 40
0.9999999999999999
 40
0.9999999999999999
 40
0.9999999999999999
 40
0.9999999999999999
 10
337.4172727272727
 20
187.4034217175328
 30
0.0
 10
337.4514257940174
 20
187.402563898164
 30
0.0
 10
337.5184491781732
 20
187.4008804781209
 30
0.0
 10
337.616881725683
 20
187.3846707511719
 30
0.0
 10
337.7108702701091
 20
187.3582703170867
 30
0.0
 10
337.8010509111127
 20
187.3222389519563
 30
0.0
 10
337.8860620099001
 20
187.2743495990595
 30
0.0
 10
337.9675755950342
 20
187.2177173878162
 30
0.0
 10
338.0438502129257
 20
187.1491146328425
 30
0.0
 10
338.1159334535028
 20
187.071398621469
 30
0.0
 10
338.1826847345987
 20
186.984153436224
 30
0.0
 10
338.238963076426
 20
186.8860718261606
 30
0.0
 10
338.2879612020785
 20
186.7795553074131
 30
0.0
 10
338.3263461469109
 20
186.6633613108707
 30
0.0
 10
338.356998862076
 20
186.5384483691475
 30
0.0
 10
338.3786373252021
 20
186.4042659073765
 30
0.0
 10
338.392458079338
 20
186.2609566160807
 30
0.0
 10
338.3938373222226
 20
186.16221455871
 30
0.0
 10
338.3945454545454
 20
186.1115183084419
 30
0.0
  0
SPLINE
  5
376
330
1F
100
AcDbEntity
  8
0
  6
Continuous
 62
     7
370
    25
100
AcDbSpline
210
0.0
220
0.0
230
1.0
 70
     8
 71
     3
 72
    23
 73
    19
 74
     0
 42
0.000000001
 43
0.00000001
 40
0.0
 40
0.0
 40
0.0
 40
0.0
 40
0.0857884597734095
 40
0.1664595412497266
 40
0.2420111369601068
 40
0.313466315729113
 40
0.3807163806375297
 40
0.4449486700082224
 40
0.5060989352931609
 40
0.5652478392428202
 40
0.6226765458477636
 40
0.6777025803252644
 40
0.7312604080786557
 40
0.783927213752756
 40
0.8362008360891697
 40
0.8892899562354007
 40
0.9437893878328156
 40
1.0
 40
1.0
 40
1.0
 40
1.0
 10
336.44
 20
186.085239899351
 30
0.0
 10
336.4407973245227
 20
186.1380555081179
 30
0.0
 10
336.4423444122619
 20
186.2405362150731
 30
0.0
 10
336.4548262879198
 20
186.3891681526916
 30
0.0
 10
336.4772546371306
 20
186.5276078184501
 30
0.0
 10
336.5061100321878
 20
186.6564715857665
 30
0.0
 10
336.5456560345975
 20
186.7751786863598
 30
0.0
 10
336.592772949882
 20
186.884201657763
 30
0.0
 10
336.6491969451648
 20
186.9830869376788
 30
0.0
 10
336.7140544851661
 20
187.0715094968786
 30
0.0
 10
336.7858041714243
 20
187.149280311721
 30
0.0
 10
336.8620235899037
 20
187.2176744646576
 30
0.0
 10
336.9436205638928
 20
187.2745804206633
 30
0.0
 10
337.0291081925011
 20
187.3220350916074
 30
0.0
 10
337.1195959321357
 20
187.3584222411675
 30
0.0
 10
337.2145758026271
 20
187.3848279473218
 30
0.0
 10
337.3144573906273
 20
187.4008175246622
 30
0.0
 10
337.3826496125914
 20
187.4025447543155
 30
0.0
 10
337.4172727272727
 20
187.4034217175328
 30
0.0
  0
SPLINE
  5
377
330
1F
100
AcDbEntity
  8
0
  6
Continuous
 62
     7
370
    25
100
AcDbSpline
210
0.0
220
0.0
230
1.0
 70
     8
 71
     3
 72
    23
 73
    19
 74
     0
 42
0.000000001
 43
0.00000001
 40
0.0
 40
0.0
 40
0.0
 40
0.0
 40
0.0555165611084294
 40
0.1097085344297011
 40
0.1624977974568805
 40
0.2149870510369026
 40
0.267724322230557
 40
0.3210390591854521
 40
0.376682347756316
 40
0.4341878910631724
 40
0.4936445727982243
 40
0.555402323043014
 40
0.6193680003177868
 40
0.6871951297332708
 40
0.7584593421547615
 40
0.8340522164131875
 40
0.914481696642712
 40
1.0
 40
1.0
 40
1.0
 40
1.0
 10
337.4172727272727
 20
184.7670580811692
 30
0.0
 10
337.3831217512974
 20
184.7679420243346
 30
0.0
 10
337.3156346186508
 20
184.7696888203765
 30
0.0
 10
337.2167165210129
 20
184.7856940829638
 30
0.0
 10
337.1220565340797
 20
184.8119880644927
 30
0.0
 10
337.0321400627462
 20
184.8493579659983
 30
0.0
 10
336.9465179096547
 20
184.8963320508952
 30
0.0
 10
336.8652515359983
 20
184.9539759146883
 30
0.0
 10
336.7888308815612
 20
185.0223313600303
 30
0.0
 10
336.7169483863162
 20
185.1006094924416
 30
0.0
 10
336.6511060128818
 20
185.1888684298779
 30
0.0
 10
336.5944695281785
 20
185.2879435800835
 30
0.0
 10
336.5468555141287
 20
185.3971905559863
 30
0.0
 10
336.5071686829372
 20
185.5157159317097
 30
0.0
 10
336.4766448669762
 20
185.6443220897883
 30
0.0
 10
336.4561739660882
 20
185.7826404348006
 30
0.0
 10
336.4419777863134
 20
185.9305903685846
 30
0.0
 10
336.4406726033398
 20
186.0326468612723
 30
0.0
 10
336.44
 20
186.085239899351
 30
0.0
  0
SPLINE
  5
378
330
1F
100
AcDbEntity
  8
0
  6
Continuous
 62
     7
370
    25
100
AcDbSpline
210
0.0
220
0.0
230
1.0
 70
     8
 71
     3
 72
    23
 73
    19
 74
     0
 42
0.000000001
 43
0.00000001
 40
0.0
 40
0.0
 40
0.0
 40
0.0
 40
0.0880029041958866
 40
0.1701931607871305
 40
0.2473127300446648
 40
0.3196189682101209
 40
0.3873720857078116
 40
0.4512539639810209
 40
0.512210248583317
 40
0.5708398966999927
 40
0.6272114454665151
 40
0.6814696201629239
 40
0.7342800761988156
 40
0.7862119439065545
 40
0.8381078045548316
 40
0.8904560935552059
 40
0.9441950138416841
 40
1.0
 40
1.0
 40
1.0
 40
1.0
 10
338.3945454545454
 20
186.1115183084419
 30
0.0
 10
338.3937598621389
 20
186.0565720470896
 30
0.0
 10
338.392240566202
 20
185.9503087597763
 30
0.0
 10
338.3796815237855
 20
185.7962534396052
 30
0.0
 10
338.3574101142308
 20
185.653295890367
 30
0.0
 10
338.3285368357965
 20
185.520644926142
 30
0.0
 10
338.2889772039882
 20
185.3994373362647
 30
0.0
 10
338.2425875778378
 20
185.2883073777177
 30
0.0
 10
338.1862334875961
 20
185.1882532053087
 30
0.0
 10
338.121364843771
 20
185.0993083717208
 30
0.0
 10
338.050159538911
 20
185.0209835354906
 30
0.0
 10
337.9739147181735
 20
184.9528274486912
 30
0.0
 10
337.8923441858392
 20
184.8959145283188
 30
0.0
 10
337.8066961949515
 20
184.8482573109612
 30
0.0
 10
337.7158327165972
 20
184.8122145844434
 30
0.0
 10
337.6206906468805
 20
184.7856249533017
 30
0.0
 10
337.5205610240931
 20
184.7696314572009
 30
0.0
 10
337.4521323618529
 20
184.7679265914541
 30
0.0
 10
337.4172727272727
 20
184.7670580811692
 30
0.0
  0
CIRCLE
  5
379
330
1F
100
AcDbEntity
  8
0
  6
Continuous
 62
     7
370
    25
100
AcDbCircle
 10
326.94
 20
207.3125126266
 30
0.0
 40
7.0
  0
LINE
  5
37A
330
1F
100
AcDbEntity
  8
0
  6
Continuous
 62
     7
370
    25
100
AcDbLine
 10
271.94
 20
182.8125126266
 30
0.0
 11
348.94
 21
182.8125126266
 31
0.0
  0
LINE
  5
37B
330
1F
100
AcDbEntity
  8
0
  6
Continuous
 62
     7
370
    25
100
AcDbLine
 10
271.94
 20
231.8125126266
 30
0.0
 11
271.94
 21
182.8125126266
 31
0.0
  0
LINE
  5
37C
330
1F
100
AcDbEntity
  8
0
  6
Continuous
 62
     7
370
    25
100
AcDbLine
 10
271.94
 20
231.8125126266
 30
0.0
 11
348.94
 21
231.8125126266
 31
0.0
  0
LINE
  5
37D
330
1F
100
AcDbEntity
  8
0
  6
Continuous
 62
     7
370
    25
100
AcDbLine
 10
348.94
 20
231.8125126266
 30
0.0
 11
348.94
 21
182.8125126266
 31
0.0
  0
LINE
  5
37E
330
1F
100
AcDbEntity
  8
0
  6
Continuous
 62
     7
370
    25
100
AcDbLine
 10
338.8945454545
 20
185.3125126266
 30
0.0
 11
339.2581818182
 21
185.3125126266
 31
0.0
  0
LINE
  5
37F
330
1F
100
AcDbEntity
  8
0
  6
Continuous
 62
     7
370
    25
100
AcDbLine
 10
338.8945454545
 20
184.8125126266
 30
0.0
 11
338.8945454545
 21
185.3125126266
 31
0.0
  0
LINE
  5
380
330
1F
100
AcDbEntity
  8
0
  6
Continuous
 62
     7
370
    25
100
AcDbLine
 10
339.2581818182
 20
184.8125126266
 30
0.0
 11
338.8945454545
 21
184.8125126266
 31
0.0
  0
LINE
  5
381
330
1F
100
AcDbEntity
  8
0
  6
Continuous
 62
     7
370
    25
100
AcDbLine
 10
339.2581818182
 20
185.3125126266
 30
0.0
 11
339.2581818182
 21
184.8125126266
 31
0.0
  0
LINE
  5
382
330
1F
100
AcDbEntity
  8
0
  6
Continuous
 62
     7
370
    25
100
AcDbLine
 10
328.8015056818
 20
185.8579671721
 30
0.0
 11
327.5784943182
 21
185.8579671721
 31
0.0
  0
LINE
  5
383
330
1F
100
AcDbEntity
  8
0
  6
Continuous
 62
     7
370
    25
100
AcDbLine
 10
329.1076136364
 20
184.8125126266
 30
0.0
 11
328.8015056818
 21
185.8579671721
 31
0.0
  0
LINE
  5
384
330
1F
100
AcDbEntity
  8
0
  6
Continuous
 62
     7
370
    25
100
AcDbLine
 10
329.4854545455
 20
184.8125126266
 30
0.0
 11
329.1076136364
 21
184.8125126266
 31
0.0
  0
LINE
  5
385
330
1F
100
AcDbEntity
  8
0
  6
Continuous
 62
     7
370
    25
100
AcDbLine
 10
328.3668465909
 20
188.3125126266
 30
0.0
 11
329.4854545455
 21
184.8125126266
 31
0.0
  0
LINE
  5
386
330
1F
100
AcDbEntity
  8
0
  6
Continuous
 62
     7
370
    25
100
AcDbLine
 10
328.0124431818
 20
188.3125126266
 30
0.0
 11
328.3668465909
 21
188.3125126266
 31
0.0
  0
LINE
  5
387
330
1F
100
AcDbEntity
  8
0
  6
Continuous
 62
     7
370
    25
100
AcDbLine
 10
326.8945454545
 20
184.8125126266
 30
0.0
 11
328.0124431818
 21
188.3125126266
 31
0.0
  0
LINE
  5
388
330
1F
100
AcDbEntity
  8
0
  6
Continuous
 62
     7
370
    25
100
AcDbLine
 10
327.2730965909
 20
184.8125126266
 30
0.0
 11
326.8945454545
 21
184.8125126266
 31
0.0
  0
LINE
  5
389
330
1F
100
AcDbEntity
  8
0
  6
Continuous
 62
     7
370
    25
100
AcDbLine
 10
327.5784943182
 20
185.8579671721
 30
0.0
 11
327.2730965909
 21
184.8125126266
 31
0.0
  0
SPLINE
  5
38A
330
1F
100
AcDbEntity
  8
0
  6
Continuous
 62
     7
370
    25
100
AcDbSpline
210
0.0
220
0.0
230
1.0
 70
     8
 71
     3
 72
    15
 73
    11
 74
     0
 42
0.000000001
 43
0.00000001
 40
0.0
 40
0.0
 40
0.0
 40
0.0
 40
0.1337649070426882
 40
0.2614594112704884
 40
0.3854851197582153
 40
0.5058365689440522
 40
0.6259462731828805
 40
0.7469128434188625
 40
0.8709845759429885
 40
1.0
 40
1.0
 40
1.0
 40
1.0
 10
323.4925568181818
 20
185.3018592175328
 30
0.0
 10
323.459336292551
 20
185.2594459674715
 30
0.0
 10
323.394402826326
 20
185.1765442286203
 30
0.0
 10
323.2839593696101
 20
185.0669334345843
 30
0.0
 10
323.1658761940573
 20
184.9743716660843
 30
0.0
 10
323.0403635447123
 20
184.8976363282684
 30
0.0
 10
322.9065518068521
 20
184.839517795117
 30
0.0
 10
322.7655051312212
 20
184.7971944182325
 30
0.0
 10
322.6165695489033
 20
184.7719062880008
 30
0.0
 10
322.5146715083972
 20
184.7686950590175
 30
0.0
 10
322.4627272727273
 20
184.7670580811692
 30
0.0
  0
SPLINE
  5
38B
330
1F
100
AcDbEntity
  8
0
  6
Continuous
 62
     7
370
    25
100
AcDbSpline
210
0.0
220
0.0
230
1.0
 70
     8
 71
     3
 72
    15
 73
    11
 74
     0
 42
0.000000001
 43
0.00000001
 40
0.0
 40
0.0
 40
0.0
 40
0.0
 40
0.1416907485135356
 40
0.2774612942222734
 40
0.4074958162297563
 40
0.5327187817376448
 40
0.6537263486818012
 40
0.7710596611015741
 40
0.8863102006438552
 40
1.0
 40
1.0
 40
1.0
 40
1.0
 10
323.8490909090909
 20
186.5589614902601
 30
0.0
 10
323.8479481272679
 20
186.4961957024428
 30
0.0
 10
323.8457103119769
 20
186.3732866423711
 30
0.0
 10
323.8297327543877
 20
186.1932659667202
 30
0.0
 10
323.8006769654478
 20
186.0223912490625
 30
0.0
 10
323.7633195173235
 20
185.8597886072984
 30
0.0
 10
323.7124455926594
 20
185.706730823752
 30
0.0
 10
323.6511968410622
 20
185.5624442921992
 30
0.0
 10
323.5793445575866
 20
185.4265155054687
 30
0.0
 10
323.5213542868743
 20
185.3432220364492
 30
0.0
 10
323.4925568181818
 20
185.3018592175328
 30
0.0
  0
SPLINE
  5
38C
330
1F
100
AcDbEntity
  8
0
  6
Continuous
 62
     7
370
    25
100
AcDbSpline
210
0.0
220
0.0
230
1.0
 70
     8
 71
     3
 72
    31
 73
    27
 74
     0
 42
0.000000001
 43
0.00000001
 40
0.0
 40
0.0
 40
0.0
 40
0.0
 40
0.0374926737782896
 40
0.0740510373152983
 40
0.1104132093353027
 40
0.1462905595615537
 40
0.182366737986501
 40
0.2186772744483296
 40
0.2550749034222165
 40
0.2922408739317047
 40
0.3296542289704666
 40
0.3675327509850829
 40
0.4056909293123598
 40
0.4445404480785448
 40
0.4840761393264901
 40
0.5247146563554201
 40
0.5664015424377792
 40
0.6096675591076345
 40
0.653909139995328
 40
0.6991821398204042
 40
0.7455791418302293
 40
0.793404894147529
 40
0.8424054055292817
 40
0.8933527573913604
 40
0.945745780814802
 40
1.0
 40
1.0
 40
1.0
 40
1.0
 10
322.4648579545454
 20
188.3579671720782
 30
0.0
 10
322.4966104320794
 20
188.3572640873233
 30
0.0
 10
322.5593241214958
 20
188.3558754385506
 30
0.0
 10
322.6523269634596
 20
188.3454182435646
 30
0.0
 10
322.743172194359
 20
188.3296124634038
 30
0.0
 10
322.8317804340801
 20
188.3055656323778
 30
0.0
 10
322.9186364268805
 20
188.2760251219863
 30
0.0
 10
323.0030936223131
 20
188.238970315497
 30
0.0
 10
323.0852097410101
 20
188.1951141910025
 30
0.0
 10
323.1653192308863
 20
188.1458511457354
 30
0.0
 10
323.2421938025044
 20
188.0894826586486
 30
0.0
 10
323.3152341802469
 20
188.0269734510839
 30
0.0
 10
323.3845454145921
 20
187.9585799601144
 30
0.0
 10
323.4490223630803
 20
187.8837615872444
 30
0.0
 10
323.5097393728429
 20
187.8032294035623
 30
0.0
 10
323.5656846112587
 20
187.7164275899145
 30
0.0
 10
323.617623052583
 20
187.6235728959294
 30
0.0
 10
323.6657865141828
 20
187.5252879624887
 30
0.0
 10
323.7091356207114
 20
187.4214859497231
 30
0.0
 10
323.7470226420819
 20
187.3127211503847
 30
0.0
 10
323.7777259137316
 20
187.1986062822322
 30
0.0
 10
323.8044619789452
 20
187.0802598984213
 30
0.0
 10
323.823811741666
 20
186.9565766618141
 30
0.0
 10
323.8390394903024
 20
186.8284561922984
 30
0.0
 10
323.8474657766327
 20
186.6952024081342
 30
0.0
 10
323.848542932139
 20
186.604900442821
 30
0.0
 10
323.8490909090909
 20
186.5589614902601
 30
0.0
  0
SPLINE
  5
38D
330
1F
100
AcDbEntity
  8
0
  6
Continuous
 62
     7
370
    25
100
AcDbSpline
210
0.0
220
0.0
230
1.0
 70
     8
 71
     3
 72
    23
 73
    19
 74
     0
 42
0.000000001
 43
0.00000001
 40
0.0
 40
0.0
 40
0.0
 40
0.0
 40
0.0831919280333209
 40
0.1620053758937692
 40
0.2362691051123553
 40
0.3066253171786716
 40
0.3736257302631194
 40
0.4377442844797711
 40
0.4997342717197022
 40
0.5601671328288013
 40
0.6188356570355559
 40
0.6750154308347254
 40
0.7296971697697447
 40
0.7830091722210553
 40
0.8359127345022764
 40
0.8894446742174573
 40
0.9439470604285818
 40
1.0
 40
1.0
 40
1.0
 40
1.0
 10
321.0763636363636
 20
186.5163478538964
 30
0.0
 10
321.0775998935567
 20
186.5881186579805
 30
0.0
 10
321.0800073424041
 20
186.7278828919476
 30
0.0
 10
321.0983585464667
 20
186.9310874573667
 30
0.0
 10
321.1295316911432
 20
187.1214424012979
 30
0.0
 10
321.1723455731913
 20
187.2991304528647
 30
0.0
 10
321.2285985154331
 20
187.4638321085443
 30
0.0
 10
321.2966181480763
 20
187.6161867979966
 30
0.0
 10
321.3778731524301
 20
187.755485005772
 30
0.0
 10
321.4711756313287
 20
187.8811160113518
 30
0.0
 10
321.5729526378142
 20
187.993309879873
 30
0.0
 10
321.6825107356772
 20
188.0905515213753
 30
0.0
 10
321.7975430635354
 20
188.1737091205973
 30
0.0
 10
321.9194755429308
 20
188.2405904580687
 30
0.0
 10
322.0467382387306
 20
188.2943897655306
 30
0.0
 10
322.1811104422483
 20
188.3303982966584
 30
0.0
 10
322.3210001635654
 20
188.3544701105968
 30
0.0
 10
322.4164590828115
 20
188.3567906363555
 30
0.0
 10
322.4648579545454
 20
188.3579671720782
 30
0.0
  0
SPLINE
  5
38E
330
1F
100
AcDbEntity
  8
0
  6
Continuous
 62
     7
370
    25
100
AcDbSpline
210
0.0
220
0.0
230
1.0
 70
     8
 71
     3
 72
    15
 73
    11
 74
     0
 42
0.000000001
 43
0.00000001
 40
0.0
 40
0.0
 40
0.0
 40
0.0
 40
0.1198666267285368
 40
0.2390237457231748
 40
0.3595530360203463
 40
0.4815592024525973
 40
0.6054681757402863
 40
0.7329681629362587
 40
0.8642495927208782
 40
1.0
 40
1.0
 40
1.0
 40
1.0
 10
321.4307670454546
 20
185.3160637629873
 30
0.0
 10
321.4023002359798
 20
185.3582049810936
 30
0.0
 10
321.3455351161533
 20
185.4422379773996
 30
0.0
 10
321.2739261321234
 20
185.5771224202055
 30
0.0
 10
321.2125034433573
 20
185.7178146861792
 30
0.0
 10
321.1631439434967
 20
185.8653242094597
 30
0.0
 10
321.1235906173393
 20
186.0187932974323
 30
0.0
 10
321.0962680258896
 20
186.1788997944802
 30
0.0
 10
321.0796729443888
 20
186.3455411786622
 30
0.0
 10
321.07747897826
 20
186.4587805801283
 30
0.0
 10
321.0763636363636
 20
186.5163478538964
 30
0.0
  0
SPLINE
  5
38F
330
1F
100
AcDbEntity
  8
0
  6
Continuous
 62
     7
370
    25
100
AcDbSpline
210
0.0
220
0.0
230
1.0
 70
     8
 71
     3
 72
    15
 73
    11
 74
     0
 42
0.000000001
 43
0.00000001
 40
0.0
 40
0.0
 40
0.0
 40
0.0
 40
0.1284641182900635
 40
0.2521184410080549
 40
0.3734764128786709
 40
0.4930039365319287
 40
0.6137088487223161
 40
0.7372765388034525
 40
0.8655035905742501
 40
1.0
 40
1.0
 40
1.0
 40
1.0
 10
322.4627272727273
 20
184.7670580811692
 30
0.0
 10
322.410539125461
 20
184.7686379000271
 30
0.0
 10
322.3081167953737
 20
184.7717383881076
 30
0.0
 10
322.1581872584837
 20
184.7979172734198
 30
0.0
 10
322.016368624021
 20
184.8414071363253
 30
0.0
 10
321.8818955949245
 20
184.9013846962229
 30
0.0
 10
321.7561351101491
 20
184.9797291619476
 30
0.0
 10
321.6384046646795
 20
185.0751483918073
 30
0.0
 10
321.5279553505375
 20
185.1871726294971
 30
0.0
 10
321.4636744577936
 20
185.2724219516296
 30
0.0
 10
321.4307670454546
 20
185.3160637629873
 30
0.0
  0
SPLINE
  5
390
330
1F
100
AcDbEntity
  8
0
  6
Continuous
 62
     7
370
    25
100
AcDbSpline
210
0.0
220
0.0
230
1.0
 70
     8
 71
     3
 72
    15
 73
    11
 74
     0
 42
0.000000001
 43
0.00000001
 40
0.0
 40
0.0
 40
0.0
 40
0.0
 40
0.1416907485135358
 40
0.2774612942222738
 40
0.4074958162297569
 40
0.5327187817376455
 40
0.6537263486818022
 40
0.7710596611015752
 40
0.8863102006438566
 40
1.0
 40
1.0
 40
1.0
 40
1.0
 10
318.0309090909091
 20
186.5589614902601
 30
0.0
 10
318.0297663090861
 20
186.4961957024428
 30
0.0
 10
318.0275284937951
 20
186.3732866423711
 30
0.0
 10
318.0115509362059
 20
186.1932659667202
 30
0.0
 10
317.982495147266
 20
186.0223912490625
 30
0.0
 10
317.9451376991416
 20
185.8597886072984
 30
0.0
 10
317.8942637744776
 20
185.706730823752
 30
0.0
 10
317.8330150228804
 20
185.5624442921992
 30
0.0
 10
317.7611627394048
 20
185.4265155054687
 30
0.0
 10
317.7031724686925
 20
185.3432220364492
 30
0.0
 10
317.674375
 20
185.3018592175328
 30
0.0
  0
SPLINE
  5
391
330
1F
100
AcDbEntity
  8
0
  6
Continuous
 62
     7
370
    25
100
AcDbSpline
210
0.0
220
0.0
230
1.0
 70
     8
 71
     3
 72
    31
 73
    27
 74
     0
 42
0.000000001
 43
0.00000001
 40
0.0
 40
0.0
 40
0.0
 40
0.0
 40
0.0374926737782909
 40
0.0740510373152984
 40
0.1104132093353041
 40
0.1462905595615525
 40
0.182366737986501
 40
0.2186772744483308
 40
0.2550749034222165
 40
0.2922408739317058
 40
0.3296542289704656
 40
0.3675327509850839
 40
0.4056909293123599
 40
0.4445404480785449
 40
0.4840761393264901
 40
0.5247146563554209
 40
0.5664015424377793
 40
0.6096675591076346
 40
0.6539091399953286
 40
0.6991821398204044
 40
0.7455791418302296
 40
0.7934048941475291
 40
0.8424054055292818
 40
0.8933527573913606
 40
0.9457457808148021
 40
1.0
 40
1.0
 40
1.0
 40
1.0
 10
316.6466761363637
 20
188.3579671720782
 30
0.0
 10
316.6784286138976
 20
188.3572640873233
 30
0.0
 10
316.7411423033139
 20
188.3558754385506
 30
0.0
 10
316.8341451452778
 20
188.3454182435646
 30
0.0
 10
316.9249903761772
 20
188.3296124634038
 30
0.0
 10
317.0135986158983
 20
188.3055656323778
 30
0.0
 10
317.1004546086986
 20
188.2760251219863
 30
0.0
 10
317.1849118041313
 20
188.238970315497
 30
0.0
 10
317.2670279228282
 20
188.1951141910025
 30
0.0
 10
317.3471374127045
 20
188.1458511457354
 30
0.0
 10
317.4240119843226
 20
188.0894826586486
 30
0.0
 10
317.4970523620651
 20
188.0269734510839
 30
0.0
 10
317.5663635964103
 20
187.9585799601144
 30
0.0
 10
317.6308405448985
 20
187.8837615872444
 30
0.0
 10
317.6915575546611
 20
187.8032294035623
 30
0.0
 10
317.7475027930768
 20
187.7164275899145
 30
0.0
 10
317.7994412344013
 20
187.6235728959294
 30
0.0
 10
317.847604696001
 20
187.5252879624887
 30
0.0
 10
317.8909538025296
 20
187.4214859497231
 30
0.0
 10
317.9288408239
 20
187.3127211503847
 30
0.0
 10
317.9595440955497
 20
187.1986062822323
 30
0.0
 10
317.9862801607634
 20
187.0802598984213
 30
0.0
 10
318.0056299234842
 20
186.9565766618141
 30
0.0
 10
318.0208576721205
 20
186.8284561922984
 30
0.0
 10
318.0292839584509
 20
186.6952024081342
 30
0.0
 10
318.0303611139572
 20
186.604900442821
 30
0.0
 10
318.0309090909091
 20
186.5589614902601
 30
0.0
  0
SPLINE
  5
392
330
1F
100
AcDbEntity
  8
0
  6
Continuous
 62
     7
370
    25
100
AcDbSpline
210
0.0
220
0.0
230
1.0
 70
     8
 71
     3
 72
    23
 73
    19
 74
     0
 42
0.000000001
 43
0.00000001
 40
0.0
 40
0.0
 40
0.0
 40
0.0
 40
0.0831919280333209
 40
0.1620053758937692
 40
0.2362691051123555
 40
0.3066253171786715
 40
0.3736257302631198
 40
0.437744284479771
 40
0.4997342717197021
 40
0.5601671328288012
 40
0.6188356570355567
 40
0.6750154308347253
 40
0.7296971697697445
 40
0.783009172221055
 40
0.8359127345022749
 40
0.8894446742174584
 40
0.9439470604285805
 40
1.0
 40
1.0
 40
1.0
 40
1.0
 10
315.2581818181818
 20
186.5163478538964
 30
0.0
 10
315.2594180753749
 20
186.5881186579805
 30
0.0
 10
315.2618255242223
 20
186.7278828919477
 30
0.0
 10
315.2801767282849
 20
186.9310874573667
 30
0.0
 10
315.3113498729614
 20
187.1214424012979
 30
0.0
 10
315.3541637550094
 20
187.2991304528647
 30
0.0
 10
315.4104166972513
 20
187.4638321085443
 30
0.0
 10
315.4784363298944
 20
187.6161867979966
 30
0.0
 10
315.5596913342483
 20
187.755485005772
 30
0.0
 10
315.6529938131468
 20
187.8811160113518
 30
0.0
 10
315.7547708196324
 20
187.993309879873
 30
0.0
 10
315.8643289174954
 20
188.0905515213753
 30
0.0
 10
315.9793612453535
 20
188.1737091205973
 30
0.0
 10
316.101293724749
 20
188.2405904580687
 30
0.0
 10
316.2285564205488
 20
188.2943897655306
 30
0.0
 10
316.3629286240665
 20
188.3303982966584
 30
0.0
 10
316.5028183453836
 20
188.3544701105968
 30
0.0
 10
316.5982772646297
 20
188.3567906363555
 30
0.0
 10
316.6466761363637
 20
188.3579671720782
 30
0.0
  0
SPLINE
  5
393
330
1F
100
AcDbEntity
  8
0
  6
Continuous
 62
     7
370
    25
100
AcDbSpline
210
0.0
220
0.0
230
1.0
 70
     8
 71
     3
 72
    15
 73
    11
 74
     0
 42
0.000000001
 43
0.00000001
 40
0.0
 40
0.0
 40
0.0
 40
0.0
 40
0.1284641182900691
 40
0.2521184410080602
 40
0.3734764128786762
 40
0.4930039365319313
 40
0.6137088487223186
 40
0.7372765388034525
 40
0.865503590574252
 40
0.9999999999999999
 40
0.9999999999999999
 40
0.9999999999999999
 40
0.9999999999999999
 10
316.6445454545454
 20
184.7670580811692
 30
0.0
 10
316.5923573072791
 20
184.7686379000271
 30
0.0
 10
316.4899349771919
 20
184.7717383881076
 30
0.0
 10
316.3400054403019
 20
184.7979172734198
 30
0.0
 10
316.1981868058392
 20
184.8414071363253
 30
0.0
 10
316.0637137767427
 20
184.9013846962229
 30
0.0
 10
315.9379532919673
 20
184.9797291619476
 30
0.0
 10
315.8202228464977
 20
185.0751483918073
 30
0.0
 10
315.7097735323557
 20
185.1871726294971
 30
0.0
 10
315.6454926396118
 20
185.2724219516296
 30
0.0
 10
315.6125852272727
 20
185.3160637629873
 30
0.0
  0
LINE
  5
394
330
1F
100
AcDbEntity
  8
0
  6
Continuous
 62
     7
370
    25
100
AcDbLine
 10
314.6218181818
 20
188.3125126266
 30
0.0
 11
314.9996590909
 21
188.3125126266
 31
0.0
  0
LINE
  5
395
330
1F
100
AcDbEntity
  8
0
  6
Continuous
 62
     7
370
    25
100
AcDbLine
 10
313.8434090909
 20
185.7734501266
 30
0.0
 11
314.6218181818
 21
188.3125126266
 31
0.0
  0
SPLINE
  5
396
330
1F
100
AcDbEntity
  8
0
  6
Continuous
 62
     7
370
    25
100
AcDbSpline
210
0.0
220
0.0
230
1.0
 70
     8
 71
     3
 72
     9
 73
     5
 74
     0
 42
0.000000001
 43
0.00000001
 40
0.0
 40
0.0
 40
0.0
 40
0.0
 40
0.4899113765140223
 40
0.9999999999999999
 40
0.9999999999999999
 40
0.9999999999999999
 40
0.9999999999999999
 10
313.6899999999999
 20
185.2216035357146
 30
0.0
 10
313.7133629069862
 20
185.3121913553179
 30
0.0
 10
313.7610509340585
 20
185.4970978995339
 30
0.0
 10
313.8155895588582
 20
185.6801018787652
 30
0.0
 10
313.8434090909091
 20
185.7734501266237
 30
0.0
  0
SPLINE
  5
397
330
1F
100
AcDbEntity
  8
0
  6
Continuous
 62
     7
370
    25
100
AcDbSpline
210
0.0
220
0.0
230
1.0
 70
     8
 71
     3
 72
    11
 73
     7
 74
     0
 42
0.000000001
 43
0.00000001
 40
0.0
 40
0.0
 40
0.0
 40
0.0
 40
0.2646946039773326
 40
0.5196779431309865
 40
0.7652786362812265
 40
1.0
 40
1.0
 40
1.0
 40
1.0
 10
313.5493749999999
 20
185.7734501266237
 30
0.0
 10
313.5625169825946
 20
185.724949801666
 30
0.0
 10
313.5883187873192
 20
185.6297285590096
 30
0.0
 10
313.6242515386488
 20
185.4889628494203
 30
0.0
 10
313.6585901139782
 20
185.3536625058049
 30
0.0
 10
313.6796893376415
 20
185.2649534367953
 30
0.0
 10
313.6899999999999
 20
185.2216035357146
 30
0.0
  0
LINE
  5
398
330
1F
100
AcDbEntity
  8
0
  6
Continuous
 62
     7
370
    25
100
AcDbLine
 10
312.8490909091
 20
188.3125126266
 30
0.0
 11
313.549375
 21
185.7734501266
 31
0.0
  0
LINE
  5
399
330
1F
100
AcDbEntity
  8
0
  6
Continuous
 62
     7
370
    25
100
AcDbLine
 10
312.4748011364
 20
188.3125126266
 30
0.0
 11
312.8490909091
 21
188.3125126266
 31
0.0
  0
LINE
  5
39A
330
1F
100
AcDbEntity
  8
0
  6
Continuous
 62
     7
370
    25
100
AcDbLine
 10
313.5216761364
 20
184.8125126266
 30
0.0
 11
312.4748011364
 21
188.3125126266
 31
0.0
  0
LINE
  5
39B
330
1F
100
AcDbEntity
  8
0
  6
Continuous
 62
     7
370
    25
100
AcDbLine
 10
313.8973863636
 20
184.8125126266
 30
0.0
 11
313.5216761364
 21
184.8125126266
 31
0.0
  0
LINE
  5
39C
330
1F
100
AcDbEntity
  8
0
  6
Continuous
 62
     7
370
    25
100
AcDbLine
 10
314.9996590909
 20
188.3125126266
 30
0.0
 11
313.8973863636
 21
184.8125126266
 31
0.0
  0
SPLINE
  5
39D
330
1F
100
AcDbEntity
  8
0
  6
Continuous
 62
     7
370
    25
100
AcDbSpline
210
0.0
220
0.0
230
1.0
 70
     8
 71
     3
 72
    15
 73
    11
 74
     0
 42
0.000000001
 43
0.00000001
 40
0.0
 40
0.0
 40
0.0
 40
0.0
 40
0.1337850715093841
 40
0.2593853989987142
 40
0.3808217004101795
 40
0.4995309368699217
 40
0.6183575741441208
 40
0.7398956903217165
 40
0.8662956414442508
 40
1.0
 40
1.0
 40
1.0
 40
1.0
 10
311.6275
 20
186.6221717175328
 30
0.0
 10
311.6700771097312
 20
186.601577900015
 30
0.0
 10
311.7526265337532
 20
186.5616501598456
 30
0.0
 10
311.8626688270066
 20
186.4833852177513
 30
0.0
 10
311.9569167718541
 20
186.3944545678258
 30
0.0
 10
312.033608132437
 20
186.2928861389513
 30
0.0
 10
312.0941367551071
 20
186.1809174291538
 30
0.0
 10
312.1365350070284
 20
186.0581056334221
 30
0.0
 10
312.1627734767218
 20
185.9253658348811
 30
0.0
 10
312.1657451595541
 20
185.8334716329401
 30
0.0
 10
312.1672727272727
 20
185.7862342175328
 30
0.0
  0
SPLINE
  5
39E
330
1F
100
AcDbEntity
  8
0
  6
Continuous
 62
     7
370
    25
100
AcDbSpline
210
0.0
220
0.0
230
1.0
 70
     8
 71
     3
 72
    15
 73
    11
 74
     0
 42
0.000000001
 43
0.00000001
 40
0.0
 40
0.0
 40
0.0
 40
0.0
 40
0.1693237986142586
 40
0.3253554330118969
 40
0.4689155231524372
 40
0.600311546885104
 40
0.7188463901177572
 40
0.8249851745593388
 40
0.9187577878191818
 40
1.0
 40
1.0
 40
1.0
 40
1.0
 10
311.0195454545454
 20
186.8025694448055
 30
0.0
 10
311.0543766165092
 20
186.7941664614815
 30
0.0
 10
311.1213046436133
 20
186.7780201412338
 30
0.0
 10
311.2172847221605
 20
186.7528378301079
 30
0.0
 10
311.3054595543736
 20
186.729561056462
 30
0.0
 10
311.3856981736325
 20
186.7072684467269
 30
0.0
 10
311.4574434264635
 20
186.6842027328313
 30
0.0
 10
311.5213289529101
 20
186.6628181911954
 30
0.0
 10
311.5777180445734
 20
186.6437217994674
 30
0.0
 10
311.6117174239463
 20
186.629003827766
 30
0.0
 10
311.6275
 20
186.6221717175328
 30
0.0
  0
SPLINE
  5
39F
330
1F
100
AcDbEntity
  8
0
  6
Continuous
 62
     7
370
    25
100
AcDbSpline
210
0.0
220
0.0
230
1.0
 70
     8
 71
     3
 72
    15
 73
    11
 74
     0
 42
0.000000001
 43
0.00000001
 40
0.0
 40
0.0
 40
0.0
 40
0.0
 40
0.0750156946076107
 40
0.1629301842777534
 40
0.2646744147797512
 40
0.3809699752964674
 40
0.5123091530377066
 40
0.658221012586962
 40
0.8208323791787843
 40
1.0
 40
1.0
 40
1.0
 40
1.0
 10
310.4634375
 20
187.0355239902601
 30
0.0
 10
310.4742562289327
 20
187.0247357443144
 30
0.0
 10
310.4977539450824
 20
187.001304235626
 30
0.0
 10
310.5430097425329
 20
186.9717830060186
 30
0.0
 10
310.5968796847157
 20
186.9407256981892
 30
0.0
 10
310.6621628129968
 20
186.9125577932421
 30
0.0
 10
310.7364798799346
 20
186.8830229539163
 30
0.0
 10
310.8217072722514
 20
186.8559451493296
 30
0.0
 10
310.9167640485439
 20
186.8279285772936
 30
0.0
 10
310.9841961506305
 20
186.8112911359772
 30
0.0
 10
311.0195454545454
 20
186.8025694448055
 30
0.0
  0
SPLINE
  5
3A0
330
1F
100
AcDbEntity
  8
0
  6
Continuous
 62
     7
370
    25
100
AcDbSpline
210
0.0
220
0.0
230
1.0
 70
     8
 71
     3
 72
    11
 73
     7
 74
     0
 42
0.000000001
 43
0.00000001
 40
0.0
 40
0.0
 40
0.0
 40
0.0
 40
0.2837744943495288
 40
0.5395840214497823
 40
0.7756449623277185
 40
1.0
 40
1.0
 40
1.0
 40
1.0
 10
310.3490909090909
 20
187.3906376266237
 30
0.0
 10
310.3502958145288
 20
187.354526066492
 30
0.0
 10
310.3525868862588
 20
187.2858616120583
 30
0.0
 10
310.3740060467071
 20
187.189133022507
 30
0.0
 10
310.4096582518102
 20
187.1043495421331
 30
0.0
 10
310.4458175292831
 20
187.0580736585688
 30
0.0
 10
310.4634375
 20
187.0355239902601
 30
0.0
  0
SPLINE
  5
3A1
330
1F
100
AcDbEntity
  8
0
  6
Continuous
 62
     7
370
    25
100
AcDbSpline
210
0.0
220
0.0
230
1.0
 70
     8
 71
     3
 72
    23
 73
    19
 74
     0
 42
0.000000001
 43
0.00000001
 40
0.0
 40
0.0
 40
0.0
 40
0.0
 40
0.0804235931284734
 40
0.1554478660209125
 40
0.2274865779056504
 40
0.2949489652405864
 40
0.3597986509905153
 40
0.4210200219417459
 40
0.4819019994984944
 40
0.5406082872412742
 40
0.5984821386513641
 40
0.655151536337546
 40
0.7102010032718219
 40
0.765597189572355
 40
0.8217224591483805
 40
0.8791641554936599
 40
0.9383687171181115
 40
1.0
 40
1.0
 40
1.0
 40
1.0
 10
311.0131534090909
 20
187.9488762629873
 30
0.0
 10
310.9868471074134
 20
187.9486509455767
 30
0.0
 10
310.9360006045454
 20
187.9482154376704
 30
0.0
 10
310.8620479601474
 20
187.9396246479707
 30
0.0
 10
310.7927985642262
 20
187.9282790158066
 30
0.0
 10
310.7281584279239
 20
187.9110018144125
 30
0.0
 10
310.6686845885121
 20
187.8891975597809
 30
0.0
 10
310.6135496288485
 20
187.8625747308631
 30
0.0
 10
310.5635023409667
 20
187.8308887070255
 30
0.0
 10
310.5182717120006
 20
187.7943537945364
 30
0.0
 10
310.4786605741266
 20
187.753728672659
 30
0.0
 10
310.4438137579244
 20
187.7105234693149
 30
0.0
 10
310.4140133078652
 20
187.6645711570027
 30
0.0
 10
310.3907868181922
 20
187.6151784174104
 30
0.0
 10
310.3722376525428
 20
187.5630797000061
 30
0.0
 10
310.3586051701405
 20
187.5081700163607
 30
0.0
 10
310.3508410519851
 20
187.4502818794394
 30
0.0
 10
310.3496820487298
 20
187.4107834571093
 30
0.0
 10
310.3490909090909
 20
187.3906376266237
 30
0.0
  0
SPLINE
  5
3A2
330
1F
100
AcDbEntity
  8
0
  6
Continuous
 62
     7
370
    25
100
AcDbSpline
210
0.0
220
0.0
230
1.0
 70
     8
 71
     3
 72
    23
 73
    19
 74
     0
 42
0.000000001
 43
0.00000001
 40
0.0
 40
0.0
 40
0.0
 40
0.0
 40
0.0765728135290738
 40
0.1493228985313964
 40
0.217218674941607
 40
0.2820872493082827
 40
0.3432655771108243
 40
0.4022310899227216
 40
0.4584773865507824
 40
0.5141512058041717
 40
0.569072641564326
 40
0.6243527363272727
 40
0.6811913672928034
 40
0.7394041584491233
 40
0.7998297883091651
 40
0.8628307336450729
 40
0.9296455439554808
 40
1.0
 40
1.0
 40
1.0
 40
1.0
 10
311.7127272727272
 20
187.2670580811692
 30
0.0
 10
311.7100597164479
 20
187.2950467695673
 30
0.0
 10
311.7048577757425
 20
187.3496268729366
 30
0.0
 10
311.6904847413202
 20
187.4281431188532
 30
0.0
 10
311.6721141905495
 20
187.5013493473909
 30
0.0
 10
311.6490822144357
 20
187.568845298243
 30
0.0
 10
311.6201411287409
 20
187.6303810018116
 30
0.0
 10
311.5879188172262
 20
187.6866563936218
 30
0.0
 10
311.5503869023222
 20
187.7370899776125
 30
0.0
 10
311.5085127264541
 20
187.781958608463
 30
0.0
 10
311.4618366515852
 20
187.8212506348624
 30
0.0
 10
311.4109834603017
 20
187.8556889198721
 30
0.0
 10
311.3555207876096
 20
187.8848591069957
 30
0.0
 10
311.2953500193465
 20
187.9081087248293
 30
0.0
 10
311.2312542678497
 20
187.9268160669113
 30
0.0
 10
311.1624535029248
 20
187.9392577554303
 30
0.0
 10
311.0893339979614
 20
187.9472063818029
 30
0.0
 10
311.038980065577
 20
187.9483101417698
 30
0.0
 10
311.0131534090909
 20
187.9488762629873
 30
0.0
  0
LINE
  5
3A3
330
1F
100
AcDbEntity
  8
0
  6
Continuous
 62
     7
370
    25
100
AcDbLine
 10
312.0763636364
 20
187.3125126266
 30
0.0
 11
311.7127272727
 21
187.2670580812
 31
0.0
  0
SPLINE
  5
3A4
330
1F
100
AcDbEntity
  8
0
  6
Continuous
 62
     7
370
    25
100
AcDbSpline
210
0.0
220
0.0
230
1.0
 70
     8
 71
     3
 72
    19
 73
    15
 74
     0
 42
0.000000001
 43
0.00000001
 40
0.0
 40
0.0
 40
0.0
 40
0.0
 40
0.0919148450095059
 40
0.179350013698549
 40
0.2627602509497611
 40
0.3438245629315462
 40
0.4230536694981486
 40
0.5001537638566693
 40
0.5774020559630038
 40
0.6564709802344395
 40
0.7376500484536368
 40
0.8208783262149119
 40
0.9079232481193391
 40
1.0
 40
1.0
 40
1.0
 40
1.0
 10
311.0010795454545
 20
188.3579671720782
 30
0.0
 10
311.0527768170416
 20
188.3565239061944
 30
0.0
 10
311.1536517776245
 20
188.3537077152296
 30
0.0
 10
311.2999776386166
 20
188.3301547823869
 30
0.0
 10
311.4362451434016
 20
188.290253201218
 30
0.0
 10
311.5619362614378
 20
188.2347294503272
 30
0.0
 10
311.6760696564492
 20
188.1646345366597
 30
0.0
 10
311.7766877354348
 20
188.0795433716099
 30
0.0
 10
311.8644677465896
 20
187.9813590065152
 30
0.0
 10
311.9374923192906
 20
187.8690250162164
 30
0.0
 10
311.9965956950098
 20
187.745109759369
 30
0.0
 10
312.0398745135101
 20
187.6101615755743
 30
0.0
 10
312.0680896661913
 20
187.4649050426913
 30
0.0
 10
312.0735544744123
 20
187.3642525976368
 30
0.0
 10
312.0763636363636
 20
187.3125126266237
 30
0.0
  0
SPLINE
  5
3A5
330
1F
100
AcDbEntity
  8
0
  6
Continuous
 62
     7
370
    25
100
AcDbSpline
210
0.0
220
0.0
230
1.0
 70
     8
 71
     3
 72
    23
 73
    19
 74
     0
 42
0.000000001
 43
0.00000001
 40
0.0
 40
0.0
 40
0.0
 40
0.0
 40
0.0655342124430493
 40
0.128827055929716
 40
0.1899548512024734
 40
0.2496480368191134
 40
0.3082483091336509
 40
0.3667963607881986
 40
0.4255009350642036
 40
0.4858920521208365
 40
0.5466819835686081
 40
0.6066869295489958
 40
0.6675221296550201
 40
0.729425613680581
 40
0.7931375186351546
 40
0.8590270504025664
 40
0.9276974320877978
 40
1.0
 40
1.0
 40
1.0
 40
1.0
 10
309.9854545454546
 20
187.3991603538964
 30
0.0
 10
309.9862383907144
 20
187.4335309547938
 30
0.0
 10
309.9877792725433
 20
187.5010966301728
 30
0.0
 10
310.0009334656037
 20
187.5999877066013
 30
0.0
 10
310.0217838060325
 20
187.6944086974959
 30
0.0
 10
310.0528966518717
 20
187.7833511271051
 30
0.0
 10
310.0909617982705
 20
187.868081714635
 30
0.0
 10
310.1391675476908
 20
187.946899786984
 30
0.0
 10
310.1949095156143
 20
188.0216941537988
 30
0.0
 10
310.259445867813
 20
188.0906870607599
 30
0.0
 10
310.3305274465918
 20
188.1539607885281
 30
0.0
 10
310.4089673986745
 20
188.208344867329
 30
0.0
 10
310.4931098940822
 20
188.2544299953148
 30
0.0
 10
310.5829725212305
 20
188.2933677693865
 30
0.0
 10
310.6793814441714
 20
188.3221600061
 30
0.0
 10
310.7814202256976
 20
188.342426713891
 30
0.0
 10
310.8892251138122
 20
188.3557446243645
 30
0.0
 10
310.9631597563736
 20
188.357213705816
 30
0.0
 10
311.0010795454545
 20
188.3579671720782
 30
0.0
  0
SPLINE
  5
3A6
330
1F
100
AcDbEntity
  8
0
  6
Continuous
 62
     7
370
    25
100
AcDbSpline
210
0.0
220
0.0
230
1.0
 70
     8
 71
     3
 72
    23
 73
    19
 74
     0
 42
0.000000001
 43
0.00000001
 40
0.0
 40
0.0
 40
0.0
 40
0.0
 40
0.0696134502891531
 40
0.1341558467413842
 40
0.1941216639751319
 40
0.2492702399547629
 40
0.30039752381687
 40
0.3464602541181255
 40
0.3882517207597332
 40
0.4259028191906369
 40
0.4961060560373051
 40
0.5655345875935792
 40
0.634846250070749
 40
0.7047585289073908
 40
0.7756659742820955
 40
0.84772538157848
 40
0.9224175839219326
 40
1.0
 40
1.0
 40
1.0
 40
1.0
 10
310.9293465909091
 20
186.4375126266237
 30
0.0
 10
310.8963883376328
 20
186.4468118033841
 30
0.0
 10
310.8328727044178
 20
186.4647327500849
 30
0.0
 10
310.7417895863331
 20
186.4934132377979
 30
0.0
 10
310.6578891350438
 20
186.5212528872592
 30
0.0
 10
310.5816885089716
 20
186.5509547204402
 30
0.0
 10
310.5122307152052
 20
186.579162800289
 30
0.0
 10
310.4508831324047
 20
186.6094342998236
 30
0.0
 10
310.3967062731759
 20
186.639075068174
 30
0.0
 10
310.33440040177
 20
186.6783972146638
 30
0.0
 10
310.2663472692989
 20
186.7333929399938
 30
0.0
 10
310.1942203813983
 20
186.8068801406507
 30
0.0
 10
310.1312128846975
 20
186.8882524477623
 30
0.0
 10
310.0786444274924
 20
186.977502751612
 30
0.0
 10
310.0360089545186
 20
187.073535173773
 30
0.0
 10
310.0077770487519
 20
187.1770511799274
 30
0.0
 10
309.9880863734883
 20
187.2859603514054
 30
0.0
 10
309.9863428523015
 20
187.3609525622036
 30
0.0
 10
309.9854545454546
 20
187.3991603538964
 30
0.0
  0
SPLINE
  5
3A7
330
1F
100
AcDbEntity
  8
0
  6
Continuous
 62
     7
370
    25
100
AcDbSpline
210
0.0
220
0.0
230
1.0
 70
     8
 71
     3
 72
    23
 73
    19
 74
     0
 42
0.000000001
 43
0.00000001
 40
0.0
 40
0.0
 40
0.0
 40
0.0
 40
0.0628274913813597
 40
0.1223726895779753
 40
0.1803837658619589
 40
0.2364891989894683
 40
0.2926289502320352
 40
0.3503980605968383
 40
0.4101926792197944
 40
0.4734229773823773
 40
0.5102124852509662
 40
0.5552799601987776
 40
0.6084730122619807
 40
0.6698570376582514
 40
0.7400379641843849
 40
0.8179174674906489
 40
0.904812259905528
 40
1.0
 40
1.0
 40
1.0
 40
1.0
 10
311.8036363636363
 20
185.7755808084419
 30
0.0
 10
311.8028546326004
 20
185.8007289873226
 30
0.0
 10
311.80133201046
 20
185.8497115301548
 30
0.0
 10
311.7883719811125
 20
185.9210171243561
 30
0.0
 10
311.7662744953764
 20
185.9870965797632
 30
0.0
 10
311.7361918922035
 20
186.0484557384347
 30
0.0
 10
311.697339534654
 20
186.1046018498738
 30
0.0
 10
311.6493581013716
 20
186.1552601768819
 30
0.0
 10
311.5923435915044
 20
186.2000395648979
 30
0.0
 10
311.5379407980766
 20
186.2339995387022
 30
0.0
 10
311.4853868068685
 20
186.2587346095036
 30
0.0
 10
311.4357348738578
 20
186.2800559335036
 30
0.0
 10
311.3759381568364
 20
186.3025463927401
 30
0.0
 10
311.3060935407516
 20
186.3267532487623
 30
0.0
 10
311.2261789100527
 20
186.3519715745197
 30
0.0
 10
311.1361502262876
 20
186.3789921780817
 30
0.0
 10
311.0363221693086
 20
186.4081693017765
 30
0.0
 10
310.9660716370437
 20
186.4274389726657
 30
0.0
 10
310.9293465909091
 20
186.4375126266237
 30
0.0
  0
SPLINE
  5
3A8
330
1F
100
AcDbEntity
  8
0
  6
Continuous
 62
     7
370
    25
100
AcDbSpline
210
0.0
220
0.0
230
1.0
 70
     8
 71
     3
 72
    23
 73
    19
 74
     0
 42
0.000000001
 43
0.00000001
 40
0.0
 40
0.0
 40
0.0
 40
0.0
 40
0.0781252968918887
 40
0.1518301493922335
 40
0.2221520613978998
 40
0.2890233266244052
 40
0.3525976224640656
 40
0.4148420026739694
 40
0.4749348900295443
 40
0.5348433958080103
 40
0.5934135167521026
 40
0.6507869454438927
 40
0.7072859995271761
 40
0.7634577572775806
 40
0.8197238077213124
 40
0.8778515259498443
 40
0.937478525171102
 40
1.0
 40
1.0
 40
1.0
 40
1.0
 10
311.09625
 20
185.1761489902601
 30
0.0
 10
311.1234978846358
 20
185.1767027154934
 30
0.0
 10
311.1764519284535
 20
185.1777788353706
 30
0.0
 10
311.2535591438087
 20
185.185872791522
 30
0.0
 10
311.3261861920129
 20
185.1980653867203
 30
0.0
 10
311.3936501127397
 20
185.2170335054507
 30
0.0
 10
311.4572050680935
 20
185.2392147456532
 30
0.0
 10
311.5150619019023
 20
185.2687866481178
 30
0.0
 10
311.5692034849894
 20
185.3022071736846
 30
0.0
 10
311.6180573946873
 20
185.3411175394346
 30
0.0
 10
311.6611358224173
 20
185.3848515165377
 30
0.0
 10
311.7001834379621
 20
185.4307502265394
 30
0.0
 10
311.7319321099304
 20
185.4809980218518
 30
0.0
 10
311.7587035285191
 20
185.5336136761074
 30
0.0
 10
311.7783360279201
 20
185.5898924936039
 30
0.0
 10
311.7935635377944
 20
185.6487138176145
 30
0.0
 10
311.8020528294921
 20
185.7111768067311
 30
0.0
 10
311.8031002456012
 20
185.7537763232169
 30
0.0
 10
311.8036363636363
 20
185.7755808084419
 30
0.0
  0
SPLINE
  5
3A9
330
1F
100
AcDbEntity
  8
0
  6
Continuous
 62
     7
370
    25
100
AcDbSpline
210
0.0
220
0.0
230
1.0
 70
     8
 71
     3
 72
    19
 73
    15
 74
     0
 42
0.000000001
 43
0.00000001
 40
0.0
 40
0.0
 40
0.0
 40
0.0
 40
0.106713384981201
 40
0.2023827530813248
 40
0.2879881362754664
 40
0.3651321209974009
 40
0.438155321852681
 40
0.5114419818683948
 40
0.587093492650868
 40
0.6659855935524697
 40
0.7468394073744405
 40
0.8288800136248057
 40
0.9125295864996439
 40
1.0
 40
1.0
 40
1.0
 40
1.0
 10
310.2581818181818
 20
185.9943308084419
 30
0.0
 10
310.2634765758427
 20
185.9480369583708
 30
0.0
 10
310.273518124356
 20
185.8602403166491
 30
0.0
 10
310.301020241332
 20
185.737288688558
 30
0.0
 10
310.3378044093797
 20
185.6304689956737
 30
0.0
 10
310.3832488463161
 20
185.5376292703296
 30
0.0
 10
310.4414853798908
 20
185.4589326081147
 30
0.0
 10
310.5080065128609
 20
185.3881581116373
 30
0.0
 10
310.5863588620391
 20
185.3264134134201
 30
0.0
 10
310.6740668498122
 20
185.272509915183
 30
0.0
 10
310.7706036343559
 20
185.2290054064625
 30
0.0
 10
310.8741764128563
 20
185.1989450219849
 30
0.0
 10
310.9833231401978
 20
185.1797054318495
 30
0.0
 10
311.058051524237
 20
185.1773519870324
 30
0.0
 10
311.0962499999999
 20
185.1761489902601
 30
0.0
  0
LINE
  5
3AA
330
1F
100
AcDbEntity
  8
0
  6
Continuous
 62
     7
370
    25
100
AcDbLine
 10
309.8945454545
 20
185.948876263
 30
0.0
 11
310.2581818182
 21
185.9943308084
 31
0.0
  0
SPLINE
  5
3AB
330
1F
100
AcDbEntity
  8
0
  6
Continuous
 62
     7
370
    25
100
AcDbSpline
210
0.0
220
0.0
230
1.0
 70
     8
 71
     3
 72
    23
 73
    19
 74
     0
 42
0.000000001
 43
0.00000001
 40
0.0
 40
0.0
 40
0.0
 40
0.0
 40
0.0690622114285179
 40
0.1347658792836456
 40
0.1976107057024345
 40
0.2585282108425837
 40
0.318127425281013
 40
0.3770582660618971
 40
0.4356857915191251
 40
0.4947336263914066
 40
0.5540911070636493
 40
0.6133334186580068
 40
0.6729241889746481
 40
0.7340655047106267
 40
0.7962987887860594
 40
0.8612408916846029
 40
0.9289703310657822
 40
0.9999999999999999
 40
0.9999999999999999
 40
0.9999999999999999
 40
0.9999999999999999
 10
311.065
 20
184.7670580811692
 30
0.0
 10
311.0218678115767
 20
184.7679625189251
 30
0.0
 10
310.9377009831758
 20
184.7697274109971
 30
0.0
 10
310.8150398821531
 20
184.7849244965043
 30
0.0
 10
310.6992070638632
 20
184.8096510083215
 30
0.0
 10
310.589944532401
 20
184.8444972659146
 30
0.0
 10
310.4870877252811
 20
184.8894144879226
 30
0.0
 10
310.390749308108
 20
184.9441988383143
 30
0.0
 10
310.3014074524178
 20
185.0092310876432
 30
0.0
 10
310.2197656328723
 20
185.0840555539965
 30
0.0
 10
310.1459337777589
 20
185.1670743913801
 30
0.0
 10
310.0808762129583
 20
185.2575943924175
 30
0.0
 10
310.0258451052256
 20
185.3558332371601
 30
0.0
 10
309.9807790773945
 20
185.4609898434448
 30
0.0
 10
309.9441252424393
 20
185.5728757278646
 30
0.0
 10
309.9173222922587
 20
185.6917431393144
 30
0.0
 10
309.9001891345249
 20
185.8179637566598
 30
0.0
 10
309.8964562751611
 20
185.9045522905342
 30
0.0
 10
309.8945454545454
 20
185.9488762629873
 30
0.0
  0
SPLINE
  5
3AC
330
1F
100
AcDbEntity
  8
0
  6
Continuous
 62
     7
370
    25
100
AcDbSpline
210
0.0
220
0.0
230
1.0
 70
     8
 71
     3
 72
    19
 73
    15
 74
     0
 42
0.000000001
 43
0.00000001
 40
0.0
 40
0.0
 40
0.0
 40
0.0
 40
0.0842734715608933
 40
0.1665166244253432
 40
0.2473877598069593
 40
0.3288365457123069
 40
0.4090983268496176
 40
0.4877267016055324
 40
0.5657077880693232
 40
0.6449848608508585
 40
0.7265584459444162
 40
0.8120697979385845
 40
0.9027287756276013
 40
1.0
 40
1.0
 40
1.0
 40
1.0
 10
312.1672727272727
 20
185.7862342175328
 30
0.0
 10
312.1657280253012
 20
185.7387620345123
 30
0.0
 10
312.1626758363588
 20
185.6449613695549
 30
0.0
 10
312.1355859526006
 20
185.5077575726232
 30
0.0
 10
312.0913238594918
 20
185.3770065630674
 30
0.0
 10
312.0294131950877
 20
185.2548308449423
 30
0.0
 10
311.9536479840464
 20
185.1423466236204
 30
0.0
 10
311.8644887915439
 20
185.0425648137241
 30
0.0
 10
311.7615377978405
 20
184.9579258312051
 30
0.0
 10
311.6462401611901
 20
184.8880368876902
 30
0.0
 10
311.5185876704929
 20
184.8325835249987
 30
0.0
 10
311.3780314430827
 20
184.7952164501458
 30
0.0
 10
311.2256359358013
 20
184.7710245396679
 30
0.0
 10
311.1197867321317
 20
184.7684108874276
 30
0.0
 10
311.065
 20
184.7670580811692
 30
0.0
  0
LINE
  5
3AD
330
1F
100
AcDbEntity
  8
0
  6
Continuous
 62
     7
370
    25
100
AcDbLine
 10
307.7780681818
 20
184.8125126266
 30
0.0
 11
306.3036363636
 21
187.5987342175
 31
0.0
  0
LINE
  5
3AE
330
1F
100
AcDbEntity
  8
0
  6
Continuous
 62
     7
370
    25
100
AcDbLine
 10
308.1672727273
 20
184.8125126266
 30
0.0
 11
307.7780681818
 21
184.8125126266
 31
0.0
  0
LINE
  5
3AF
330
1F
100
AcDbEntity
  8
0
  6
Continuous
 62
     7
370
    25
100
AcDbLine
 10
308.1672727273
 20
188.3125126266
 30
0.0
 11
308.1672727273
 21
184.8125126266
 31
0.0
  0
LINE
  5
3B0
330
1F
100
AcDbEntity
  8
0
  6
Continuous
 62
     7
370
    25
100
AcDbLine
 10
307.8036363636
 20
188.3125126266
 30
0.0
 11
308.1672727273
 21
188.3125126266
 31
0.0
  0
LINE
  5
3B1
330
1F
100
AcDbEntity
  8
0
  6
Continuous
 62
     7
370
    25
100
AcDbLine
 10
307.8036363636
 20
185.5227398994
 30
0.0
 11
307.8036363636
 21
188.3125126266
 31
0.0
  0
LINE
  5
3B2
330
1F
100
AcDbEntity
  8
0
  6
Continuous
 62
     7
370
    25
100
AcDbLine
 10
306.3270738636
 20
188.3125126266
 30
0.0
 11
307.8036363636
 21
185.5227398994
 31
0.0
  0
LINE
  5
3B3
330
1F
100
AcDbEntity
  8
0
  6
Continuous
 62
     7
370
    25
100
AcDbLine
 10
305.94
 20
188.3125126266
 30
0.0
 11
306.3270738636
 21
188.3125126266
 31
0.0
  0
LINE
  5
3B4
330
1F
100
AcDbEntity
  8
0
  6
Continuous
 62
     7
370
    25
100
AcDbLine
 10
305.94
 20
184.8125126266
 30
0.0
 11
305.94
 21
188.3125126266
 31
0.0
  0
LINE
  5
3B5
330
1F
100
AcDbEntity
  8
0
  6
Continuous
 62
     7
370
    25
100
AcDbLine
 10
306.3036363636
 20
184.8125126266
 30
0.0
 11
305.94
 21
184.8125126266
 31
0.0
  0
LINE
  5
3B6
330
1F
100
AcDbEntity
  8
0
  6
Continuous
 62
     7
370
    25
100
AcDbLine
 10
306.3036363636
 20
187.5987342175
 30
0.0
 11
306.3036363636
 21
184.8125126266
 31
0.0
  0
SPLINE
  5
3B7
330
1F
100
AcDbEntity
  8
0
  6
Continuous
 62
     7
370
    25
100
AcDbSpline
210
0.0
220
0.0
230
1.0
 70
     8
 71
     3
 72
    15
 73
    11
 74
     0
 42
0.000000001
 43
0.00000001
 40
0.0
 40
0.0
 40
0.0
 40
0.0
 40
0.1337649070426901
 40
0.2614594112704904
 40
0.3854851197582174
 40
0.5058365689440544
 40
0.625946273182883
 40
0.7469128434188623
 40
0.8709845759429884
 40
1.0
 40
1.0
 40
1.0
 40
1.0
 10
317.674375
 20
185.3018592175328
 30
0.0
 10
317.6411544743692
 20
185.2594459674715
 30
0.0
 10
317.5762210081442
 20
185.1765442286203
 30
0.0
 10
317.4657775514282
 20
185.0669334345843
 30
0.0
 10
317.3476943758754
 20
184.9743716660844
 30
0.0
 10
317.2221817265305
 20
184.8976363282684
 30
0.0
 10
317.0883699886704
 20
184.839517795117
 30
0.0
 10
316.9473233130394
 20
184.7971944182325
 30
0.0
 10
316.7983877307215
 20
184.7719062880008
 30
0.0
 10
316.6964896902153
 20
184.7686950590175
 30
0.0
 10
316.6445454545454
 20
184.7670580811692
 30
0.0
  0
SPLINE
  5
3B8
330
1F
100
AcDbEntity
  8
0
  6
Continuous
 62
     7
370
    25
100
AcDbSpline
210
0.0
220
0.0
230
1.0
 70
     8
 71
     3
 72
    15
 73
    11
 74
     0
 42
0.000000001
 43
0.00000001
 40
0.0
 40
0.0
 40
0.0
 40
0.0
 40
0.1198666267285365
 40
0.2390237457231743
 40
0.3595530360203468
 40
0.4815592024525983
 40
0.6054681757402873
 40
0.7329681629362593
 40
0.8642495927208786
 40
1.0
 40
1.0
 40
1.0
 40
1.0
 10
315.6125852272727
 20
185.3160637629873
 30
0.0
 10
315.584118417798
 20
185.3582049810936
 30
0.0
 10
315.5273532979715
 20
185.4422379773996
 30
0.0
 10
315.4557443139417
 20
185.5771224202055
 30
0.0
 10
315.3943216251755
 20
185.7178146861792
 30
0.0
 10
315.3449621253148
 20
185.8653242094597
 30
0.0
 10
315.3054087991575
 20
186.0187932974323
 30
0.0
 10
315.2780862077078
 20
186.1788997944802
 30
0.0
 10
315.2614911262069
 20
186.3455411786622
 30
0.0
 10
315.2592971600782
 20
186.4587805801283
 30
0.0
 10
315.2581818181818
 20
186.5163478538964
 30
0.0
  0
SPLINE
  5
3B9
330
1F
100
AcDbEntity
  8
0
  6
Continuous
 62
     7
370
    25
100
AcDbSpline
210
0.0
220
0.0
230
1.0
 70
     8
 71
     3
 72
    23
 73
    19
 74
     0
 42
0.000000001
 43
0.00000001
 40
0.0
 40
0.0
 40
0.0
 40
0.0
 40
0.0962668487102102
 40
0.1851887142498576
 40
0.2670522646414191
 40
0.3425535158095234
 40
0.4116298860129102
 40
0.4751854140306059
 40
0.5336270929387997
 40
0.5873801801951998
 40
0.6383796135347338
 40
0.6880940834234889
 40
0.7375708011894995
 40
0.7869390713018619
 40
0.8371140147138916
 40
0.8890450561406117
 40
0.9429881641617253
 40
1.0
 40
1.0
 40
1.0
 40
1.0
 10
302.5763636363636
 20
185.936802399351
 30
0.0
 10
302.5755922062543
 20
185.8851816861146
 30
0.0
 10
302.5741082047315
 20
185.7858788249431
 30
0.0
 10
302.5653677529158
 20
185.6428526020525
 30
0.0
 10
302.5490233850699
 20
185.5117182646418
 30
0.0
 10
302.5267814334495
 20
185.3922388475044
 30
0.0
 10
302.4977158715351
 20
185.2843639088722
 30
0.0
 10
302.4628154158334
 20
185.1878291989978
 30
0.0
 10
302.4201242456458
 20
185.1035300296727
 30
0.0
 10
302.3713019818028
 20
185.0306368901794
 30
0.0
 10
302.3166854223766
 20
184.9680566003478
 30
0.0
 10
302.2564212973615
 20
184.9143424286729
 30
0.0
 10
302.1909389540098
 20
184.8685939367879
 30
0.0
 10
302.1198913663973
 20
184.8316121358582
 30
0.0
 10
302.0440330495643
 20
184.8020446546436
 30
0.0
 10
301.9626615682013
 20
184.7817262125282
 30
0.0
 10
301.8759776139908
 20
184.7695028393894
 30
0.0
 10
301.816461678345
 20
184.767887889031
 30
0.0
 10
301.7858806818182
 20
184.7670580811691
 30
0.0
  0
SPLINE
  5
3BA
330
1F
100
AcDbEntity
  8
0
  6
Continuous
 62
     7
370
    25
100
AcDbSpline
210
0.0
220
0.0
230
1.0
 70
     8
 71
     3
 72
    23
 73
    19
 74
     0
 42
0.000000001
 43
0.00000001
 40
0.0
 40
0.0
 40
0.0
 40
0.0
 40
0.04858613413488
 40
0.0962602058660294
 40
0.1431674606468378
 40
0.1913492648606341
 40
0.2403169073324709
 40
0.2916690293142803
 40
0.3455098677312233
 40
0.4028526006308539
 40
0.4630768848996512
 40
0.5263885353005525
 40
0.5935261726947687
 40
0.6645681194727823
 40
0.7401213189636109
 40
0.8214824859429299
 40
0.9080398943911004
 40
1.0
 40
1.0
 40
1.0
 40
1.0
 10
337.4265056818182
 20
185.1306944448055
 30
0.0
 10
337.4469222597302
 20
185.1312998828421
 30
0.0
 10
337.4873721540854
 20
185.1324993935888
 30
0.0
 10
337.5465395730885
 20
185.144411368246
 30
0.0
 10
337.6036245981363
 20
185.1630270390681
 30
0.0
 10
337.6582826791983
 20
185.189371074611
 30
0.0
 10
337.7105569289832
 20
185.2235265199252
 30
0.0
 10
337.7613311555613
 20
185.2638603756023
 30
0.0
 10
337.8089688677446
 20
185.3129205185187
 30
0.0
 10
337.8542433872899
 20
185.3689261988168
 30
0.0
 10
337.8965855422969
 20
185.432138845467
 30
0.0
 10
337.9326650983892
 20
185.5037812601775
 30
0.0
 10
337.9630926074561
 20
185.5828313581316
 30
0.0
 10
337.9875311103807
 20
185.6692339802958
 30
0.0
 10
338.0079644608109
 20
185.7628166080345
 30
0.0
 10
338.0204674585642
 20
185.8643333170495
 30
0.0
 10
338.0294939966961
 20
185.9730984719943
 30
0.0
 10
338.0304279708319
 20
186.0480502734552
 30
0.0
 10
338.0309090909091
 20
186.0866603538964
 30
0.0
  0
SPLINE
  5
3BB
330
1F
100
AcDbEntity
  8
0
  6
Continuous
 62
     7
370
    25
100
AcDbSpline
210
0.0
220
0.0
230
1.0
 70
     8
 71
     3
 72
    23
 73
    19
 74
     0
 42
0.000000001
 43
0.00000001
 40
0.0
 40
0.0
 40
0.0
 40
0.0
 40
0.0918285138918167
 40
0.17776968204482
 40
0.2580302212286025
 40
0.333105534868574
 40
0.4031864489552399
 40
0.4696188742250254
 40
0.5315789437437183
 40
0.5909885331931855
 40
0.6474788880247825
 40
0.7009891280720509
 40
0.7520816197681415
 40
0.801798457018857
 40
0.8506073055732984
 40
0.8995301788482177
 40
0.9492936912810971
 40
1.0
 40
1.0
 40
1.0
 40
1.0
 10
336.8036363636364
 20
186.0866603538964
 30
0.0
 10
336.8041158359702
 20
186.0475771604641
 30
0.0
 10
336.8050440405193
 20
185.9719164906426
 30
0.0
 10
336.8140204212793
 20
185.8624337774162
 30
0.0
 10
336.8266595377162
 20
185.7604633049098
 30
0.0
 10
336.8469646419802
 20
185.6666279694781
 30
0.0
 10
336.8712889151603
 20
185.5798372737409
 30
0.0
 10
336.9025475808482
 20
185.5012239916894
 30
0.0
 10
336.9388822987178
 20
185.4298976217587
 30
0.0
 10
336.9807972025985
 20
185.3666834339573
 30
0.0
 10
337.0269985435334
 20
185.3111676591568
 30
0.0
 10
337.0763020873076
 20
185.2633811447509
 30
0.0
 10
337.1277158207434
 20
185.2223563669512
 30
0.0
 10
337.1818753629552
 20
185.1885519191265
 30
0.0
 10
337.2393265848128
 20
185.1628579073057
 30
0.0
 10
337.2994205637325
 20
185.1444007456152
 30
0.0
 10
337.3621166860843
 20
185.1325020424795
 30
0.0
 10
337.4049088311872
 20
185.1313007350034
 30
0.0
 10
337.4265056818182
 20
185.1306944448055
 30
0.0
  0
SPLINE
  5
3BC
330
1F
100
AcDbEntity
  8
0
  6
Continuous
 62
     7
370
    25
100
AcDbSpline
210
0.0
220
0.0
230
1.0
 70
     8
 71
     3
 72
    23
 73
    19
 74
     0
 42
0.000000001
 43
0.00000001
 40
0.0
 40
0.0
 40
0.0
 40
0.0
 40
0.0914820109348281
 40
0.1770646809617236
 40
0.2569568658574883
 40
0.3322046711927941
 40
0.401911083141715
 40
0.4679780540384922
 40
0.530576740647313
 40
0.5896588361577457
 40
0.6462789822163443
 40
0.7003021260507273
 40
0.7515120069402041
 40
0.801343072705305
 40
0.8502640635955725
 40
0.8992993411874725
 40
0.9491771893747981
 40
1.0
 40
1.0
 40
1.0
 40
1.0
 10
338.0309090909091
 20
186.0866603538964
 30
0.0
 10
338.0304282874315
 20
186.1255066647066
 30
0.0
 10
338.0294976857373
 20
186.2006942295606
 30
0.0
 10
338.0205442314593
 20
186.3094714647821
 30
0.0
 10
338.0078029625865
 20
186.4109520297
 30
0.0
 10
337.9876714999294
 20
186.5043446045614
 30
0.0
 10
337.9633185170467
 20
186.5906894681558
 30
0.0
 10
337.9316024874343
 20
186.6688282413097
 30
0.0
 10
337.8960996679664
 20
186.740361061124
 30
0.0
 10
337.8535276257252
 20
186.8031941018195
 30
0.0
 10
337.8073325285386
 20
186.858605730894
 30
0.0
 10
337.7584836404383
 20
186.9071113891592
 30
0.0
 10
337.7068015095991
 20
186.948093905763
 30
0.0
 10
337.6526773878134
 20
186.9819355394617
 30
0.0
 10
337.595216926771
 20
187.0076198515922
 30
0.0
 10
337.5351254190799
 20
187.0260796076838
 30
0.0
 10
337.4724286325164
 20
187.0379776135018
 30
0.0
 10
337.4296365777607
 20
187.0391790158283
 30
0.0
 10
337.4080397727272
 20
187.0397853538964
 30
0.0
  0
SPLINE
  5
3BD
330
1F
100
AcDbEntity
  8
0
  6
Continuous
 62
     7
370
    25
100
AcDbSpline
210
0.0
220
0.0
230
1.0
 70
     8
 71
     3
 72
    23
 73
    19
 74
     0
 42
0.000000001
 43
0.00000001
 40
0.0
 40
0.0
 40
0.0
 40
0.0
 40
0.0492081114433093
 40
0.0969393295480919
 40
0.1444395158836682
 40
0.1924372048271326
 40
0.2419392722209244
 40
0.293272261514356
 40
0.3471776383388049
 40
0.4041514519133189
 40
0.4641377667933039
 40
0.5270227956702959
 40
0.5937146723299063
 40
0.6648417762905727
 40
0.7403695305280299
 40
0.8212684990064687
 40
0.9079296628467064
 40
1.0
 40
1.0
 40
1.0
 40
1.0
 10
337.4080397727272
 20
187.0397853538964
 30
0.0
 10
337.3873843181788
 20
187.0391972724927
 30
0.0
 10
337.3466933455584
 20
187.0380387598952
 30
0.0
 10
337.2870849620221
 20
187.025979944665
 30
0.0
 10
337.2298411522988
 20
187.0074959457599
 30
0.0
 10
337.1746081772818
 20
186.9816920090583
 30
0.0
 10
337.1217841878998
 20
186.9481309006835
 30
0.0
 10
337.0719868096781
 20
186.90631007482
 30
0.0
 10
337.0243721970274
 20
186.8576586068139
 30
0.0
 10
336.97855077056
 20
186.8024233446579
 30
0.0
 10
336.9376069879871
 20
186.7389213387761
 30
0.0
 10
336.9010716690183
 20
186.668197181109
 30
0.0
 10
336.8706938535039
 20
186.5895629468374
 30
0.0
 10
336.8460924486596
 20
186.503470482976
 30
0.0
 10
336.8269146866324
 20
186.409916233449
 30
0.0
 10
336.8139399681039
 20
186.3087752143664
 30
0.0
 10
336.8050841800197
 20
186.2002162213434
 30
0.0
 10
336.8041286089751
 20
186.1252683894738
 30
0.0
 10
336.8036363636364
 20
186.0866603538964
 30
0.0
  0
SPLINE
  5
3BE
330
1F
100
AcDbEntity
  8
0
  6
Continuous
 62
     7
370
    25
100
AcDbSpline
210
0.0
220
0.0
230
1.0
 70
     8
 71
     3
 72
    15
 73
    11
 74
     0
 42
0.000000001
 43
0.00000001
 40
0.0
 40
0.0
 40
0.0
 40
0.0
 40
0.13483061287192
 40
0.2655522766927997
 40
0.3942179015238053
 40
0.5192745831226593
 40
0.6422303607107088
 40
0.7628424106338261
 40
0.8821514059548563
 40
1.0
 40
1.0
 40
1.0
 40
1.0
 10
323.4854545454545
 20
186.569614899351
 30
0.0
 10
323.4851074761702
 20
186.6060843019163
 30
0.0
 10
323.4844239145024
 20
186.677911705757
 30
0.0
 10
323.4771354173507
 20
186.7843497605576
 30
0.0
 10
323.4649167161551
 20
186.887617108451
 30
0.0
 10
323.4491676192137
 20
186.9883390104973
 30
0.0
 10
323.4263469852491
 20
187.0854355009456
 30
0.0
 10
323.4015060268336
 20
187.1804175223842
 30
0.0
 10
323.3699957020605
 20
187.2720079576903
 30
0.0
 10
323.3455924154545
 20
187.3313298067277
 30
0.0
 10
323.3334659090909
 20
187.3608080811692
 30
0.0
  0
SPLINE
  5
3BF
330
1F
100
AcDbEntity
  8
0
  6
Continuous
 62
     7
370
    25
100
AcDbSpline
210
0.0
220
0.0
230
1.0
 70
     8
 71
     3
 72
    23
 73
    19
 74
     0
 42
0.000000001
 43
0.00000001
 40
0.0
 40
0.0
 40
0.0
 40
0.0
 40
0.0549231502919699
 40
0.1086030052064189
 40
0.161036855651976
 40
0.2129852978324796
 40
0.2656874514313827
 40
0.3191576965915245
 40
0.3745727672960877
 40
0.4325440293275162
 40
0.4924378488244341
 40
0.5542084725852
 40
0.6185456342266049
 40
0.6863015999283236
 40
0.7577792075712924
 40
0.8336420180410764
 40
0.9144133612381077
 40
1.0
 40
1.0
 40
1.0
 40
1.0
 10
322.4598863636364
 20
185.1761489902601
 30
0.0
 10
322.4954585138188
 20
185.1772811226398
 30
0.0
 10
322.5657975674043
 20
185.179519759318
 30
0.0
 10
322.669039255304
 20
185.1960894174082
 30
0.0
 10
322.7678437646987
 20
185.2236941600087
 30
0.0
 10
322.8616689707505
 20
185.2635688169418
 30
0.0
 10
322.9514270644918
 20
185.3132102205751
 30
0.0
 10
323.036680528225
 20
185.3742813017268
 30
0.0
 10
323.1171252297169
 20
185.4466619512704
 30
0.0
 10
323.1931366777874
 20
185.5294587291832
 30
0.0
 10
323.2619622835268
 20
185.623495645212
 30
0.0
 10
323.3228753312446
 20
185.7276718012655
 30
0.0
 10
323.3731433878136
 20
185.8429856244737
 30
0.0
 10
323.4138504814533
 20
185.9684901699544
 30
0.0
 10
323.4469767399248
 20
186.1039461833874
 30
0.0
 10
323.4686870570066
 20
186.2501675316655
 30
0.0
 10
323.4836233227968
 20
186.406425630094
 30
0.0
 10
323.4848324714779
 20
186.5141788237652
 30
0.0
 10
323.4854545454545
 20
186.569614899351
 30
0.0
  0
SPLINE
  5
3C0
330
1F
100
AcDbEntity
  8
0
  6
Continuous
 62
     7
370
    25
100
AcDbSpline
210
0.0
220
0.0
230
1.0
 70
     8
 71
     3
 72
    23
 73
    19
 74
     0
 42
0.000000001
 43
0.00000001
 40
0.0
 40
0.0
 40
0.0
 40
0.0
 40
0.0549693010255954
 40
0.1083590609100883
 40
0.1601640429853775
 40
0.2113322971038445
 40
0.2628532052336241
 40
0.3149821664487523
 40
0.3690071678834772
 40
0.4247807921276356
 40
0.4829618213623589
 40
0.5435867127152624
 40
0.607944796635504
 40
0.6759283484733849
 40
0.7490032351523545
 40
0.8271410002771977
 40
0.9105022622530016
 40
1.0
 40
1.0
 40
1.0
 40
1.0
 10
322.4676988636364
 20
187.9488762629873
 30
0.0
 10
322.4311830448186
 20
187.9477449956681
 30
0.0
 10
322.3592006880917
 20
187.9455149679607
 30
0.0
 10
322.2537950868027
 20
187.9290771739308
 30
0.0
 10
322.1535344455967
 20
187.9011693612937
 30
0.0
 10
322.0583384445802
 20
187.8623597722069
 30
0.0
 10
321.9675724896072
 20
187.8135087142406
 30
0.0
 10
321.8824605508751
 20
187.7520692876487
 30
0.0
 10
321.8021265835091
 20
187.6802750101071
 30
0.0
 10
321.7273368609483
 20
187.5972653460881
 30
0.0
 10
321.6583320873668
 20
187.5036955721629
 30
0.0
 10
321.6006740071071
 20
187.3962569890918
 30
0.0
 10
321.5497933938805
 20
187.2784301125046
 30
0.0
 10
321.5099170825272
 20
187.1477394660392
 30
0.0
 10
321.4776532964669
 20
187.0056200661555
 30
0.0
 10
321.4569719772799
 20
186.8510904143162
 30
0.0
 10
321.4417036823311
 20
186.6849754394027
 30
0.0
 10
321.4405811770491
 20
186.5701281918939
 30
0.0
 10
321.44
 20
186.5106660357146
 30
0.0
  0
SPLINE
  5
3C1
330
1F
100
AcDbEntity
  8
0
  6
Continuous
 62
     7
370
    25
100
AcDbSpline
210
0.0
220
0.0
230
1.0
 70
     8
 71
     3
 72
    15
 73
    11
 74
     0
 42
0.000000001
 43
0.00000001
 40
0.0
 40
0.0
 40
0.0
 40
0.0
 40
0.12908935923948
 40
0.2551000161804354
 40
0.3798655055392186
 40
0.5068907155239878
 40
0.6325188027370867
 40
0.7548417051891565
 40
0.8765222138546881
 40
1.0
 40
1.0
 40
1.0
 40
1.0
 10
323.3334659090909
 20
187.3608080811692
 30
0.0
 10
323.3129748147792
 20
187.4039220672555
 30
0.0
 10
323.2724813262276
 20
187.4891217972179
 30
0.0
 10
323.1896923457807
 20
187.6031325422771
 30
0.0
 10
323.0938572451827
 20
187.7050012451374
 30
0.0
 10
322.983212260543
 20
187.7904377405432
 30
0.0
 10
322.8638332062241
 20
187.861293662477
 30
0.0
 10
322.7367703488698
 20
187.9123198220882
 30
0.0
 10
322.6038849073506
 20
187.9432437922205
 30
0.0
 10
322.5133155356075
 20
187.9469896190674
 30
0.0
 10
322.4676988636364
 20
187.9488762629873
 30
0.0
  0
SPLINE
  5
3C2
330
1F
100
AcDbEntity
  8
0
  6
Continuous
 62
     7
370
    25
100
AcDbSpline
210
0.0
220
0.0
230
1.0
 70
     8
 71
     3
 72
    23
 73
    19
 74
     0
 42
0.000000001
 43
0.00000001
 40
0.0
 40
0.0
 40
0.0
 40
0.0
 40
0.0820167094769213
 40
0.1594134130609958
 40
0.2330069745226141
 40
0.3031891773589418
 40
0.3699716694339434
 40
0.4341909870753238
 40
0.4967089549976744
 40
0.5582085812881047
 40
0.6180809696446111
 40
0.675082792460814
 40
0.7301076280391966
 40
0.7838984160543084
 40
0.8370755298410727
 40
0.8904187639022303
 40
0.9443870054531993
 40
0.9999999999999999
 40
0.9999999999999999
 40
0.9999999999999999
 40
0.9999999999999999
 10
321.44
 20
186.5106660357146
 30
0.0
 10
321.441032454504
 20
186.4592656651671
 30
0.0
 10
321.443039205291
 20
186.359360309858
 30
0.0
 10
321.4563216867336
 20
186.2137850779749
 30
0.0
 10
321.4796747015902
 20
186.0770049433004
 30
0.0
 10
321.5123511621057
 20
185.9490330077539
 30
0.0
 10
321.5530557956107
 20
185.8294944512099
 30
0.0
 10
321.6046734782498
 20
185.7194913902767
 30
0.0
 10
321.6651563568883
 20
185.6179784241832
 30
0.0
 10
321.7346820662962
 20
185.5257609542168
 30
0.0
 10
321.8111530894589
 20
185.4440149644223
 30
0.0
 10
321.8915502402577
 20
185.3719910933522
 30
0.0
 10
321.976880257475
 20
185.312344080346
 30
0.0
 10
322.0651148877537
 20
185.2617734572903
 30
0.0
 10
322.158190082915
 20
185.2231367620841
 30
0.0
 10
322.2553363148723
 20
185.1964143932777
 30
0.0
 10
322.3563098119031
 20
185.1794096605678
 30
0.0
 10
322.4250170937821
 20
185.1772467019618
 30
0.0
 10
322.4598863636364
 20
185.1761489902601
 30
0.0
  0
LINE
  5
3C3
330
1F
100
AcDbEntity
  8
0
  6
Continuous
 62
     7
370
    25
100
AcDbLine
 10
328.6814772727
 20
186.2670580812
 30
0.0
 11
328.3888636364
 21
187.2287058084
 31
0.0
  0
LINE
  5
3C4
330
1F
100
AcDbEntity
  8
0
  6
Continuous
 62
     7
370
    25
100
AcDbLine
 10
327.6978125
 20
186.2670580812
 30
0.0
 11
328.6814772727
 21
186.2670580812
 31
0.0
  0
LINE
  5
3C5
330
1F
100
AcDbEntity
  8
0
  6
Continuous
 62
     7
370
    25
100
AcDbLine
 10
328.0273579545
 20
187.2855239903
 30
0.0
 11
327.6978125
 21
186.2670580812
 31
0.0
  0
SPLINE
  5
3C6
330
1F
100
AcDbEntity
  8
0
  6
Continuous
 62
     7
370
    25
100
AcDbSpline
210
0.0
220
0.0
230
1.0
 70
     8
 71
     3
 72
    11
 73
     7
 74
     0
 42
0.000000001
 43
0.00000001
 40
0.0
 40
0.0
 40
0.0
 40
0.0
 40
0.2488751571872423
 40
0.4974197103002324
 40
0.7479413436558462
 40
1.0
 40
1.0
 40
1.0
 40
1.0
 10
328.19
 20
187.9481660357146
 30
0.0
 10
328.1797674509346
 20
187.8924453075941
 30
0.0
 10
328.1593159456527
 20
187.7810778703911
 30
0.0
 10
328.1209804049209
 20
187.6151754300345
 30
0.0
 10
328.0783309527736
 20
187.4495723666032
 30
0.0
 10
328.0443835606457
 20
187.3403181584292
 30
0.0
 10
328.0273579545454
 20
187.2855239902601
 30
0.0
  0
SPLINE
  5
3C7
330
1F
100
AcDbEntity
  8
0
  6
Continuous
 62
     7
370
    25
100
AcDbSpline
210
0.0
220
0.0
230
1.0
 70
     8
 71
     3
 72
    15
 73
    11
 74
     0
 42
0.000000001
 43
0.00000001
 40
0.0
 40
0.0
 40
0.0
 40
0.0
 40
0.151073970052786
 40
0.2949499051911129
 40
0.4307193228074185
 40
0.5599595334307881
 40
0.681357379842825
 40
0.7944179911337578
 40
0.901243419818854
 40
1.0
 40
1.0
 40
1.0
 40
1.0
 10
328.3888636363637
 20
187.2287058084419
 30
0.0
 10
328.3779168869294
 20
187.2646738599749
 30
0.0
 10
328.3565449543148
 20
187.3348962377006
 30
0.0
 10
328.3262803488595
 20
187.4377234110727
 30
0.0
 10
328.2972332046155
 20
187.5352530629683
 30
0.0
 10
328.272421346579
 20
187.6281655148482
 30
0.0
 10
328.2477489136641
 20
187.7152518845985
 30
0.0
 10
328.2264706193427
 20
187.797481300594
 30
0.0
 10
328.2073698043693
 20
187.8744456658122
 30
0.0
 10
328.1956364277803
 20
187.9242440886358
 30
0.0
 10
328.19
 20
187.9481660357146
 30
0.0
  0
LINE
  5
3C8
330
1F
100
AcDbEntity
  8
0
  6
Continuous
 62
     7
370
    25
100
AcDbLine
 10
271.94
 20
234.8125126266
 30
0.0
 11
271.94
 21
231.8125126266
 31
0.0
  0
LINE
  5
3C9
330
1F
100
AcDbEntity
  8
0
  6
Continuous
 62
     7
370
    25
100
AcDbLine
 10
271.94
 20
234.8125126266
 30
0.0
 11
348.94
 21
234.8125126266
 31
0.0
  0
LINE
  5
3CA
330
1F
100
AcDbEntity
  8
0
  6
Continuous
 62
     7
370
    25
100
AcDbLine
 10
348.94
 20
234.8125126266
 30
0.0
 11
348.94
 21
231.8125126266
 31
0.0
  0
LINE
  5
3CB
330
1F
100
AcDbEntity
  8
0
  6
Continuous
 62
     7
370
    25
100
AcDbLine
 10
271.94
 20
179.8125126266
 30
0.0
 11
348.94
 21
179.8125126266
 31
0.0
  0
LINE
  5
3CC
330
1F
100
AcDbEntity
  8
0
  6
Continuous
 62
     7
370
    25
100
AcDbLine
 10
271.94
 20
182.8125126266
 30
0.0
 11
271.94
 21
179.8125126266
 31
0.0
  0
LINE
  5
3CD
330
1F
100
AcDbEntity
  8
0
  6
Continuous
 62
     7
370
    25
100
AcDbLine
 10
348.94
 20
182.8125126266
 30
0.0
 11
348.94
 21
179.8125126266
 31
0.0
  0
CIRCLE
  5
3CE
330
1F
100
AcDbEntity
  8
0
  6
Continuous
 62
     7
370
    25
100
AcDbCircle
 10
326.94
 20
207.3125126266
 30
0.0
 40
2.0
  0
LINE
  5
3CF
330
1F
100
AcDbEntity
  8
0
  6
Continuous
 62
     7
370
    25
100
AcDbLine
 10
290.74
 20
239.8125126266
 30
0.0
 11
279.14
 21
239.8125126266
 31
0.0
  0
LINE
  5
3D0
330
1F
100
AcDbEntity
  8
0
  6
Continuous
 62
     7
370
    25
100
AcDbLine
 10
292.74
 20
239.8125126266
 30
0.0
 11
304.34
 21
239.8125126266
 31
0.0
  0
LINE
  5
3D1
330
1F
100
AcDbEntity
  8
0
  6
Continuous
 62
     7
370
    25
100
AcDbLine
 10
271.94
 20
237.3125126266
 30
0.0
 11
279.14
 21
237.3125126266
 31
0.0
  0
LINE
  5
3D2
330
1F
100
AcDbEntity
  8
0
  6
Continuous
 62
     7
370
    25
100
AcDbLine
 10
290.74
 20
237.3125126266
 30
0.0
 11
292.74
 21
237.3125126266
 31
0.0
  0
LINE
  5
3D3
330
1F
100
AcDbEntity
  8
0
  6
Continuous
 62
     7
370
    25
100
AcDbLine
 10
304.34
 20
237.3125126266
 30
0.0
 11
315.94
 21
237.3125126266
 31
0.0
  0
LINE
  5
3D4
330
1F
100
AcDbEntity
  8
0
  6
Continuous
 62
     7
370
    25
100
AcDbLine
 10
271.94
 20
237.3125126266
 30
0.0
 11
271.94
 21
234.8125126266
 31
0.0
  0
LINE
  5
3D5
330
1F
100
AcDbEntity
  8
0
  6
Continuous
 62
     7
370
    25
100
AcDbLine
 10
315.94
 20
237.3125126266
 30
0.0
 11
315.94
 21
234.8125126266
 31
0.0
  0
LINE
  5
3D6
330
1F
100
AcDbEntity
  8
0
  6
Continuous
 62
     7
370
    25
100
AcDbLine
 10
271.94
 20
237.3125126266
 30
0.0
 11
271.94
 21
237.5125126266
 31
0.0
  0
LINE
  5
3D7
330
1F
100
AcDbEntity
  8
0
  6
Continuous
 62
     7
370
    25
100
AcDbLine
 10
315.94
 20
237.3125126266
 30
0.0
 11
315.94
 21
237.5125126266
 31
0.0
  0
LINE
  5
3D8
330
1F
100
AcDbEntity
  8
0
  6
Continuous
 62
     7
370
    25
100
AcDbLine
 10
271.94
 20
240.8125126266
 30
0.0
 11
281.44
 21
240.8125126266
 31
0.0
  0
LINE
  5
3D9
330
1F
100
AcDbEntity
  8
0
  6
Continuous
 62
     7
370
    25
100
AcDbLine
 10
288.44
 20
240.8125126266
 30
0.0
 11
295.04
 21
240.8125126266
 31
0.0
  0
LINE
  5
3DA
330
1F
100
AcDbEntity
  8
0
  6
Continuous
 62
     7
370
    25
100
AcDbLine
 10
302.04
 20
240.8125126266
 30
0.0
 11
315.94
 21
240.8125126266
 31
0.0
  0
LINE
  5
3DB
330
1F
100
AcDbEntity
  8
0
  6
Continuous
 62
     7
370
    25
100
AcDbLine
 10
271.94
 20
242.8125126266
 30
0.0
 11
281.44
 21
242.8125126266
 31
0.0
  0
LINE
  5
3DC
330
1F
100
AcDbEntity
  8
0
  6
Continuous
 62
     7
370
    25
100
AcDbLine
 10
288.44
 20
242.8125126266
 30
0.0
 11
295.04
 21
242.8125126266
 31
0.0
  0
LINE
  5
3DD
330
1F
100
AcDbEntity
  8
0
  6
Continuous
 62
     7
370
    25
100
AcDbLine
 10
302.04
 20
242.8125126266
 30
0.0
 11
315.94
 21
242.8125126266
 31
0.0
  0
LINE
  5
3DE
330
1F
100
AcDbEntity
  8
0
  6
Continuous
 62
     7
370
    25
100
AcDbLine
 10
271.94
 20
242.8125126266
 30
0.0
 11
271.94
 21
240.8125126266
 31
0.0
  0
LINE
  5
3DF
330
1F
100
AcDbEntity
  8
0
  6
Continuous
 62
     7
370
    25
100
AcDbLine
 10
315.94
 20
242.8125126266
 30
0.0
 11
315.94
 21
240.8125126266
 31
0.0
  0
LINE
  5
3E0
330
1F
100
AcDbEntity
  8
0
  6
Continuous
 62
     7
370
    25
100
AcDbLine
 10
271.94
 20
240.8125126266
 30
0.0
 11
271.94
 21
237.5125126266
 31
0.0
  0
LINE
  5
3E1
330
1F
100
AcDbEntity
  8
0
  6
Continuous
 62
     7
370
    25
100
AcDbLine
 10
315.94
 20
240.8125126266
 30
0.0
 11
315.94
 21
237.5125126266
 31
0.0
  0
LINE
  5
3E2
330
1F
100
AcDbEntity
  8
0
  6
Continuous
 62
     8
370
    25
100
AcDbLine
 10
236.24
 20
240.3125126266
 30
0.0
 11
236.24
 21
236.3125126266
 31
0.0
  0
LINE
  5
3E3
330
1F
100
AcDbEntity
  8
0
  6
Continuous
 62
     8
370
    25
100
AcDbLine
 10
349.44
 20
207.3125126266
 30
0.0
 11
349.44
 21
190.3125126266
 31
0.0
  0
LINE
  5
3E4
330
1F
100
AcDbEntity
  8
0
  6
Continuous
 62
     8
370
    25
100
AcDbLine
 10
349.44
 20
224.3125126266
 30
0.0
 11
349.44
 21
207.3125126266
 31
0.0
  0
LINE
  5
3E5
330
1F
100
AcDbEntity
  8
0
  6
Continuous
 62
     8
370
    25
100
AcDbLine
 10
288.44
 20
243.0125126266
 30
0.0
 11
281.44
 21
243.0125126266
 31
0.0
  0
LINE
  5
3E6
330
1F
100
AcDbEntity
  8
0
  6
Continuous
 62
     8
370
    25
100
AcDbLine
 10
302.04
 20
243.0125126266
 30
0.0
 11
295.04
 21
243.0125126266
 31
0.0
  0
LINE
  5
3E7
330
1F
100
AcDbEntity
  8
0
  6
Continuous
 62
     8
370
    25
100
AcDbLine
 10
271.94
 20
237.5125126266
 30
0.0
 11
279.14
 21
237.5125126266
 31
0.0
  0
LINE
  5
3E8
330
1F
100
AcDbEntity
  8
0
  6
Continuous
 62
     8
370
    25
100
AcDbLine
 10
290.74
 20
237.5125126266
 30
0.0
 11
292.74
 21
237.5125126266
 31
0.0
  0
LINE
  5
3E9
330
1F
100
AcDbEntity
  8
0
  6
Continuous
 62
     8
370
    25
100
AcDbLine
 10
304.34
 20
237.5125126266
 30
0.0
 11
315.94
 21
237.5125126266
 31
0.0
  0
DIMENSION
  5
3EA
330
1F
100
AcDbEntity
  8
0
  6
Continuous
 62
     7
370
    18
100
AcDbDimension
  2
_D_10
 10
348.94
 20
171.3634500818
 30
0.0
 11
339.073269645
 21
171.3634500818
 31
0.0
 70
   160
  1
<>
 71
     2
 42
-1.0
  3
SLDDIMSTYLE0
100
AcDbAlignedDimension
 13
326.94
 23
207.3125126266
 33
0.0
 14
348.94
 24
231.8125126266
 34
0.0
100
AcDbRotatedDimension
  0
DIMENSION
  5
3F4
330
1F
100
AcDbEntity
  8
0
  6
Continuous
 62
     7
370
    18
100
AcDbDimension
  2
_D_11
 10
348.94
 20
163.8125126266
 30
0.0
 11
315.7003521402
 21
163.8125126266
 31
0.0
 70
   160
  1
<>
 71
     2
 42
-1.0
  3
SLDDIMSTYLE0
100
AcDbAlignedDimension
 13
271.94
 23
179.8125126266
 33
0.0
 14
348.94
 24
234.8125126266
 34
0.0
100
AcDbRotatedDimension
  0
DIMENSION
  5
3FE
330
1F
100
AcDbEntity
  8
0
  6
Continuous
 62
     7
370
    18
100
AcDbDimension
  2
_D_12
 10
348.94
 20
242.5328525337
 30
0.0
 11
352.899668426
 21
242.5328525337
 31
0.0
 70
   160
  1
<>
 71
     2
 42
-1.0
  3
SLDDIMSTYLE7
100
AcDbAlignedDimension
 13
356.94
 23
223.8125126266
 33
0.0
 14
348.94
 24
234.8125126266
 34
0.0
100
AcDbRotatedDimension
  0
DIMENSION
  5
40C
330
1F
100
AcDbEntity
  8
0
  6
Continuous
 62
     7
370
    18
100
AcDbDimension
  2
_D_13
 10
317.4035969304
 20
200.3125126266
 30
0.0
 11
317.4035969304
 21
211.8846723665
 31
0.0
 70
   160
  1
%%c<>
 71
     2
 42
-1.0
  3
SLDDIMSTYLE3
100
AcDbAlignedDimension
 13
326.94
 23
214.3125126266
 33
0.0
 14
326.94
 24
200.3125126266
 34
0.0
 50
90.0
100
AcDbRotatedDimension
  0
DIMENSION
  5
419
330
1F
100
AcDbEntity
  8
0
  6
Continuous
 62
     7
370
    18
100
AcDbDimension
  2
_D_14
 10
365.731757475
 20
234.8125126266
 30
0.0
 11
365.731757475
 21
222.733174204
 31
0.0
 70
   160
  1
<>
 71
     2
 42
-1.0
  3
SLDDIMSTYLE8
100
AcDbAlignedDimension
 13
326.94
 23
207.3125126266
 33
0.0
 14
348.94
 24
234.8125126266
 34
0.0
 50
90.0
100
AcDbRotatedDimension
  0
INSERT
  5
42F
330
1F
100
AcDbEntity
  8
0
  6
Continuous
 62
     7
370
     0
100
AcDbBlockReference
  2
SW_CENTERMARKSYMBOL_11
 10
326.94
 20
207.3125126266
 30
0.0
  0
LINE
  5
430
330
1F
100
AcDbEntity
  8
0
  6
CENTERX2
 62
     7
370
    18
100
AcDbLine
 10
284.94
 20
232.8125126266
 30
0.0
 11
284.94
 21
241.8125126266
 31
0.0
  0
LINE
  5
431
330
1F
100
AcDbEntity
  8
0
  6
CENTERX2
 62
     7
370
    18
100
AcDbLine
 10
298.54
 20
232.8125126266
 30
0.0
 11
298.54
 21
241.8125126266
 31
0.0
  0
LINE
  5
432
330
1F
100
AcDbEntity
  8
0
  6
CENTERX2
 62
     7
370
    18
100
AcDbLine
 10
269.94
 20
207.3125126266
 30
0.0
 11
350.94
 21
207.3125126266
 31
0.0
  0
LINE
  5
433
330
1F
100
AcDbEntity
  8
0
  6
CENTERX2
 62
     7
370
    18
100
AcDbLine
 10
358.44
 20
207.3125126266
 30
0.0
 11
347.44
 21
207.3125126266
 31
0.0
  0
LINE
  5
434
330
1F
100
AcDbEntity
  8
0
  6
CENTERX2
 62
     7
370
    18
100
AcDbLine
 10
379.94
 20
207.3125126266
 30
0.0
 11
388.94
 21
207.3125126266
 31
0.0
  0
ENDSEC
  0
SECTION
  2
OBJECTS
  0
DICTIONARY
  5
C
330
0
100
AcDbDictionary
281
     1
  3
ACAD_GROUP
350
D
  3
ACAD_LAYOUT
350
1A
  3
ACAD_MLINESTYLE
350
17
  3
ACAD_PLOTSETTINGS
350
19
  3
ACAD_PLOTSTYLENAME
350
E
  3
ACAD_SCALELIST
350
47
  0
DICTIONARY
  5
D
102
{ACAD_REACTORS
330
C
102
}
330
C
100
AcDbDictionary
281
     1
  0
DICTIONARY
  5
1A
102
{ACAD_REACTORS
330
C
102
}
330
C
100
AcDbDictionary
281
     1
  3
Layout1
350
1E
  3
Layout2
350
26
  3
Model
350
22
  0
DICTIONARY
  5
17
102
{ACAD_REACTORS
330
C
102
}
330
C
100
AcDbDictionary
281
     1
  3
Standard
350
18
  0
DICTIONARY
  5
19
102
{ACAD_REACTORS
330
C
102
}
330
C
100
AcDbDictionary
281
     1
  0
ACDBDICTIONARYWDFLT
  5
E
102
{ACAD_REACTORS
330
C
102
}
330
C
100
AcDbDictionary
281
     1
  3
Normal
350
F
100
AcDbDictionaryWithDefault
340
F
  0
DICTIONARY
  5
47
102
{ACAD_REACTORS
330
C
102
}
330
C
100
AcDbDictionary
281
     1
  3
A0
350
48
  3
A1
350
49
  3
A2
350
4A
  3
A3
350
4B
  3
A4
350
4C
  3
A5
350
4D
  3
A6
350
4E
  3
A7
350
4F
  3
A8
350
50
  3
A9
350
51
  3
B0
350
52
  3
B1
350
53
  3
B2
350
54
  3
B3
350
55
  3
B4
350
56
  3
B5
350
57
  3
B6
350
58
  3
B7
350
59
  3
B8
350
5A
  3
B9
350
5B
  3
C0
350
5C
  3
C1
350
5D
  3
C2
350
5E
  3
C3
350
5F
  3
C4
350
60
  3
C5
350
61
  3
C6
350
62
  3
C7
350
63
  3
C8
350
64
  3
C9
350
65
  3
D0
350
66
  3
D1
350
67
  3
D2
350
68
  0
LAYOUT
  5
1E
102
{ACAD_REACTORS
330
1A
102
}
330
1A
100
AcDbPlotSettings
  1

  2
none_device
  4

  6

 40
0.0
 41
0.0
 42
0.0
 43
0.0
 44
0.0
 45
0.0
 46
0.0
 47
0.0
 48
0.0
 49
0.0
140
0.0
141
0.0
142
1.0
143
1.0
 70
   688
 72
     1
 73
     0
 74
     5
  7

 75
    16
147
1.0
148
0.0
149
0.0
100
AcDbLayout
  1
Layout1
 70
     1
 71
     1
 10
0.0
 20
0.0
 11
420.0
 21
297.0
 12
0.0
 22
0.0
 32
0.0
 14
1.0000000000E+20
 24
1.0000000000E+20
 34
1.0000000000E+20
 15
-1.0000000000E+20
 25
-1.0000000000E+20
 35
-1.0000000000E+20
146
0.0
 13
0.0
 23
0.0
 33
0.0
 16
1.0
 26
0.0
 36
0.0
 17
0.0
 27
1.0
 37
0.0
 76
     0
330
1B
  0
LAYOUT
  5
26
102
{ACAD_REACTORS
330
1A
102
}
330
1A
100
AcDbPlotSettings
  1

  2
none_device
  4

  6

 40
0.0
 41
0.0
 42
0.0
 43
0.0
 44
0.0
 45
0.0
 46
0.0
 47
0.0
 48
0.0
 49
0.0
140
0.0
141
0.0
142
1.0
143
1.0
 70
   688
 72
     1
 73
     0
 74
     5
  7

 75
    16
147
1.0
148
0.0
149
0.0
100
AcDbLayout
  1
Layout2
 70
     1
 71
     2
 10
0.0
 20
0.0
 11
0.0
 21
0.0
 12
0.0
 22
0.0
 32
0.0
 14
0.0
 24
0.0
 34
0.0
 15
0.0
 25
0.0
 35
0.0
146
0.0
 13
0.0
 23
0.0
 33
0.0
 16
1.0
 26
0.0
 36
0.0
 17
0.0
 27
1.0
 37
0.0
 76
     0
330
23
  0
LAYOUT
  5
22
102
{ACAD_REACTORS
330
1A
102
}
330
1A
100
AcDbPlotSettings
  1

  2
none_device
  4
Letter_(8.50_x_11.00_Inches)
  6

 40
6.35
 41
6.35
 42
6.35000508
 43
6.35000508
 44
215.9
 45
279.4
 46
0.0
 47
0.0
 48
0.0
 49
0.0
140
0.0
141
0.0
142
1.0
143
1.0
 70
  1712
 72
     1
 73
     0
 74
     0
  7

 75
     0
147
1.0
148
0.0
149
0.0
100
AcDbLayout
  1
Model
 70
     1
 71
     0
 10
0.0
 20
0.0
 11
420.0
 21
297.0
 12
0.0
 22
0.0
 32
0.0
 14
0.0
 24
0.0
 34
0.0
 15
420.0
 25
297.0
 35
0.0
146
0.0
 13
0.0
 23
0.0
 33
0.0
 16
1.0
 26
0.0
 36
0.0
 17
0.0
 27
1.0
 37
0.0
 76
     0
330
1F
331
29
  0
MLINESTYLE
  5
18
102
{ACAD_REACTORS
330
17
102
}
330
17
100
AcDbMlineStyle
  2
Standard
 70
     0
  3

 62
   256
 51
90.0
 52
90.0
 71
     2
 49
0.5
 62
   256
  6
BYLAYER
 49
-0.5
 62
   256
  6
BYLAYER
  0
ACDBPLACEHOLDER
  5
F
102
{ACAD_REACTORS
330
E
102
}
330
E
  0
SCALE
  5
48
102
{ACAD_REACTORS
330
47
102
}
330
47
100
AcDbScale
 70
     0
300
1:1
140
1.0
141
1.0
290
     1
  0
SCALE
  5
49
102
{ACAD_REACTORS
330
47
102
}
330
47
100
AcDbScale
 70
     0
300
1:2
140
1.0
141
2.0
290
     0
  0
SCALE
  5
4A
102
{ACAD_REACTORS
330
47
102
}
330
47
100
AcDbScale
 70
     0
300
1:4
140
1.0
141
4.0
290
     0
  0
SCALE
  5
4B
102
{ACAD_REACTORS
330
47
102
}
330
47
100
AcDbScale
 70
     0
300
1:5
140
1.0
141
5.0
290
     0
  0
SCALE
  5
4C
102
{ACAD_REACTORS
330
47
102
}
330
47
100
AcDbScale
 70
     0
300
1:8
140
1.0
141
8.0
290
     0
  0
SCALE
  5
4D
102
{ACAD_REACTORS
330
47
102
}
330
47
100
AcDbScale
 70
     0
300
1:10
140
1.0
141
10.0
290
     0
  0
SCALE
  5
4E
102
{ACAD_REACTORS
330
47
102
}
330
47
100
AcDbScale
 70
     0
300
1:16
140
1.0
141
16.0
290
     0
  0
SCALE
  5
4F
102
{ACAD_REACTORS
330
47
102
}
330
47
100
AcDbScale
 70
     0
300
1:20
140
1.0
141
20.0
290
     0
  0
SCALE
  5
50
102
{ACAD_REACTORS
330
47
102
}
330
47
100
AcDbScale
 70
     0
300
1:30
140
1.0
141
30.0
290
     0
  0
SCALE
  5
51
102
{ACAD_REACTORS
330
47
102
}
330
47
100
AcDbScale
 70
     0
300
1:40
140
1.0
141
40.0
290
     0
  0
SCALE
  5
52
102
{ACAD_REACTORS
330
47
102
}
330
47
100
AcDbScale
 70
     0
300
1:50
140
1.0
141
50.0
290
     0
  0
SCALE
  5
53
102
{ACAD_REACTORS
330
47
102
}
330
47
100
AcDbScale
 70
     0
300
1:100
140
1.0
141
100.0
290
     0
  0
SCALE
  5
54
102
{ACAD_REACTORS
330
47
102
}
330
47
100
AcDbScale
 70
     0
300
2:1
140
2.0
141
1.0
290
     0
  0
SCALE
  5
55
102
{ACAD_REACTORS
330
47
102
}
330
47
100
AcDbScale
 70
     0
300
4:1
140
4.0
141
1.0
290
     0
  0
SCALE
  5
56
102
{ACAD_REACTORS
330
47
102
}
330
47
100
AcDbScale
 70
     0
300
8:1
140
8.0
141
1.0
290
     0
  0
SCALE
  5
57
102
{ACAD_REACTORS
330
47
102
}
330
47
100
AcDbScale
 70
     0
300
10:1
140
10.0
141
1.0
290
     0
  0
SCALE
  5
58
102
{ACAD_REACTORS
330
47
102
}
330
47
100
AcDbScale
 70
     0
300
100:1
140
100.0
141
1.0
290
     0
  0
SCALE
  5
59
102
{ACAD_REACTORS
330
47
102
}
330
47
100
AcDbScale
 70
     0
300
1/128" = 1'-0"
140
0.0078125
141
12.0
290
     0
  0
SCALE
  5
5A
102
{ACAD_REACTORS
330
47
102
}
330
47
100
AcDbScale
 70
     0
300
1/64" = 1'-0"
140
0.015625
141
12.0
290
     0
  0
SCALE
  5
5B
102
{ACAD_REACTORS
330
47
102
}
330
47
100
AcDbScale
 70
     0
300
1/32" = 1'-0"
140
0.03125
141
12.0
290
     0
  0
SCALE
  5
5C
102
{ACAD_REACTORS
330
47
102
}
330
47
100
AcDbScale
 70
     0
300
1/16" = 1'-0"
140
0.0625
141
12.0
290
     0
  0
SCALE
  5
5D
102
{ACAD_REACTORS
330
47
102
}
330
47
100
AcDbScale
 70
     0
300
3/32" = 1'-0"
140
0.09375
141
12.0
290
     0
  0
SCALE
  5
5E
102
{ACAD_REACTORS
330
47
102
}
330
47
100
AcDbScale
 70
     0
300
1/8" = 1'-0"
140
0.125
141
12.0
290
     0
  0
SCALE
  5
5F
102
{ACAD_REACTORS
330
47
102
}
330
47
100
AcDbScale
 70
     0
300
3/16" = 1'-0"
140
0.1875
141
12.0
290
     0
  0
SCALE
  5
60
102
{ACAD_REACTORS
330
47
102
}
330
47
100
AcDbScale
 70
     0
300
1/4" = 1'-0"
140
0.25
141
12.0
290
     0
  0
SCALE
  5
61
102
{ACAD_REACTORS
330
47
102
}
330
47
100
AcDbScale
 70
     0
300
3/8" = 1'-0"
140
0.375
141
12.0
290
     0
  0
SCALE
  5
62
102
{ACAD_REACTORS
330
47
102
}
330
47
100
AcDbScale
 70
     0
300
1/2" = 1'-0"
140
0.5
141
12.0
290
     0
  0
SCALE
  5
63
102
{ACAD_REACTORS
330
47
102
}
330
47
100
AcDbScale
 70
     0
300
3/4" = 1'-0"
140
0.75
141
12.0
290
     0
  0
SCALE
  5
64
102
{ACAD_REACTORS
330
47
102
}
330
47
100
AcDbScale
 70
     0
300
1" = 1'-0"
140
1.0
141
12.0
290
     0
  0
SCALE
  5
65
102
{ACAD_REACTORS
330
47
102
}
330
47
100
AcDbScale
 70
     0
300
1-1/2" = 1'-0"
140
1.5
141
12.0
290
     0
  0
SCALE
  5
66
102
{ACAD_REACTORS
330
47
102
}
330
47
100
AcDbScale
 70
     0
300
3" = 1'-0"
140
3.0
141
12.0
290
     0
  0
SCALE
  5
67
102
{ACAD_REACTORS
330
47
102
}
330
47
100
AcDbScale
 70
     0
300
6" = 1'-0"
140
6.0
141
12.0
290
     0
  0
SCALE
  5
68
102
{ACAD_REACTORS
330
47
102
}
330
47
100
AcDbScale
 70
     0
300
1'-0" = 1'-0"
140
12.0
141
12.0
290
     0
  0
ENDSEC
  0
EOF
