  0
SECTION
  2
HEADER
  9
$ACADVER
  1
AC1015
  9
$ACADMAINTVER
 70
     6
  9
$DWGCODEPAGE
  3
ANSI_1250
  9
$INSBASE
 10
0.0
 20
0.0
 30
0.0
  9
$EXTMIN
 10
0.0
 20
0.0
 30
0.0
  9
$EXTMAX
 10
420.0
 20
297.0
 30
0.0
  9
$LIMMIN
 10
0.0
 20
0.0
  9
$LIMMAX
 10
420.0
 20
297.0
  9
$ORTHOMODE
 70
     0
  9
$REGENMODE
 70
     1
  9
$FILLMODE
 70
     1
  9
$QTEXTMODE
 70
     0
  9
$MIRRTEXT
 70
     1
  9
$LTSCALE
 40
1.0
  9
$ATTMODE
 70
     1
  9
$TEXTSIZE
 40
3.5
  9
$TRACEWID
 40
1.0
  9
$TEXTSTYLE
  7
Standard
  9
$CLAYER
  8
0
  9
$CELTYPE
  6
ByLayer
  9
$CECOLOR
 62
   256
  9
$CELTSCALE
 40
1.0
  9
$DISPSILH
 70
     0
  9
$DIMSCALE
 40
1.0
  9
$DIMASZ
 40
3.302
  9
$DIMEXO
 40
1.0
  9
$DIMDLI
 40
3.75
  9
$DIMRND
 40
0.0
  9
$DIMDLE
 40
0.0
  9
$DIMEXE
 40
1.0
  9
$DIMTP
 40
0.0
  9
$DIMTM
 40
0.0
  9
$DIMTXT
 40
3.5
  9
$DIMCEN
 40
2.5
  9
$DIMTSZ
 40
0.0
  9
$DIMTOL
 70
     0
  9
$DIMLIM
 70
     0
  9
$DIMTIH
 70
     1
  9
$DIMTOH
 70
     1
  9
$DIMSE1
 70
     0
  9
$DIMSE2
 70
     0
  9
$DIMTAD
 70
     1
  9
$DIMZIN
 70
     1
  9
$DIMBLK
  1

  9
$DIMASO
 70
     1
  9
$DIMSHO
 70
     1
  9
$DIMPOST
  1

  9
$DIMAPOST
  1

  9
$DIMALT
 70
     0
  9
$DIMALTD
 70
     3
  9
$DIMALTF
 40
0.0393700787
  9
$DIMLFAC
 40
1.0
  9
$DIMTOFL
 70
     1
  9
$DIMTVP
 40
0.0
  9
$DIMTIX
 70
     0
  9
$DIMSOXD
 70
     0
  9
$DIMSAH
 70
     0
  9
$DIMBLK1
  1

  9
$DIMBLK2
  1

  9
$DIMSTYLE
  2
ISO-25
  9
$DIMCLRD
 70
     0
  9
$DIMCLRE
 70
     0
  9
$DIMCLRT
 70
     0
  9
$DIMTFAC
 40
1.0
  9
$DIMGAP
 40
1.524
  9
$DIMJUST
 70
     0
  9
$DIMSD1
 70
     0
  9
$DIMSD2
 70
     0
  9
$DIMTOLJ
 70
     0
  9
$DIMTZIN
 70
     1
  9
$DIMALTZ
 70
     0
  9
$DIMALTTZ
 70
     0
  9
$DIMUPT
 70
     0
  9
$DIMDEC
 70
     2
  9
$DIMTDEC
 70
     2
  9
$DIMALTU
 70
     2
  9
$DIMALTTD
 70
     3
  9
$DIMTXSTY
  7
Standard
  9
$DIMAUNIT
 70
     0
  9
$DIMADEC
 70
     2
  9
$DIMALTRND
 40
0.0
  9
$DIMAZIN
 70
     0
  9
$DIMDSEP
 70
    44
  9
$DIMATFIT
 70
     3
  9
$DIMFRAC
 70
     0
  9
$DIMLDRBLK
  1

  9
$DIMLUNIT
 70
     2
  9
$DIMLWD
 70
    -2
  9
$DIMLWE
 70
    -2
  9
$DIMTMOVE
 70
     0
  9
$LUNITS
 70
     2
  9
$LUPREC
 70
     2
  9
$SKETCHINC
 40
1.0
  9
$FILLETRAD
 40
10.0
  9
$AUNITS
 70
     0
  9
$AUPREC
 70
     2
  9
$MENU
  1
.
  9
$ELEVATION
 40
0.0
  9
$PELEVATION
 40
0.0
  9
$THICKNESS
 40
0.0
  9
$LIMCHECK
 70
     0
  9
$CHAMFERA
 40
0.0
  9
$CHAMFERB
 40
0.0
  9
$CHAMFERC
 40
0.0
  9
$CHAMFERD
 40
0.0
  9
$SKPOLY
 70
     0
  9
$TDCREATE
 40
2460354.280036713
  9
$TDUCREATE
 40
2460354.238370046
  9
$TDUPDATE
 40
2460354.280039248
  9
$TDUUPDATE
 40
2460354.238372581
  9
$TDINDWG
 40
0.0000000116
  9
$TDUSRTIMER
 40
0.0000000116
  9
$USRTIMER
 70
     1
  9
$ANGBASE
 50
0.0
  9
$ANGDIR
 70
     0
  9
$PDMODE
 70
     0
  9
$PDSIZE
 40
-1.0
  9
$PLINEWID
 40
0.0
  9
$SPLFRAME
 70
     0
  9
$SPLINETYPE
 70
     6
  9
$SPLINESEGS
 70
     8
  9
$HANDSEED
  5
4F1
  9
$SURFTAB1
 70
     6
  9
$SURFTAB2
 70
     6
  9
$SURFTYPE
 70
     6
  9
$SURFU
 70
     6
  9
$SURFV
 70
     6
  9
$UCSBASE
  2

  9
$UCSNAME
  2

  9
$UCSORG
 10
0.0
 20
0.0
 30
0.0
  9
$UCSXDIR
 10
1.0
 20
0.0
 30
0.0
  9
$UCSYDIR
 10
0.0
 20
1.0
 30
0.0
  9
$UCSORTHOREF
  2

  9
$UCSORTHOVIEW
 70
     0
  9
$UCSORGTOP
 10
0.0
 20
0.0
 30
0.0
  9
$UCSORGBOTTOM
 10
0.0
 20
0.0
 30
0.0
  9
$UCSORGLEFT
 10
0.0
 20
0.0
 30
0.0
  9
$UCSORGRIGHT
 10
0.0
 20
0.0
 30
0.0
  9
$UCSORGFRONT
 10
0.0
 20
0.0
 30
0.0
  9
$UCSORGBACK
 10
0.0
 20
0.0
 30
0.0
  9
$PUCSBASE
  2

  9
$PUCSNAME
  2

  9
$PUCSORG
 10
0.0
 20
0.0
 30
0.0
  9
$PUCSXDIR
 10
1.0
 20
0.0
 30
0.0
  9
$PUCSYDIR
 10
0.0
 20
1.0
 30
0.0
  9
$PUCSORTHOREF
  2

  9
$PUCSORTHOVIEW
 70
     0
  9
$PUCSORGTOP
 10
0.0
 20
0.0
 30
0.0
  9
$PUCSORGBOTTOM
 10
0.0
 20
0.0
 30
0.0
  9
$PUCSORGLEFT
 10
0.0
 20
0.0
 30
0.0
  9
$PUCSORGRIGHT
 10
0.0
 20
0.0
 30
0.0
  9
$PUCSORGFRONT
 10
0.0
 20
0.0
 30
0.0
  9
$PUCSORGBACK
 10
0.0
 20
0.0
 30
0.0
  9
$USERI1
 70
     0
  9
$USERI2
 70
     0
  9
$USERI3
 70
     0
  9
$USERI4
 70
     0
  9
$USERI5
 70
     0
  9
$USERR1
 40
0.0
  9
$USERR2
 40
0.0
  9
$USERR3
 40
0.0
  9
$USERR4
 40
0.0
  9
$USERR5
 40
0.0
  9
$WORLDVIEW
 70
     1
  9
$SHADEDGE
 70
     3
  9
$SHADEDIF
 70
    70
  9
$TILEMODE
 70
     1
  9
$MAXACTVP
 70
    64
  9
$PINSBASE
 10
0.0
 20
0.0
 30
0.0
  9
$PLIMCHECK
 70
     0
  9
$PEXTMIN
 10
1.0000000000E+20
 20
1.0000000000E+20
 30
1.0000000000E+20
  9
$PEXTMAX
 10
-1.0000000000E+20
 20
-1.0000000000E+20
 30
-1.0000000000E+20
  9
$PLIMMIN
 10
0.0
 20
0.0
  9
$PLIMMAX
 10
420.0
 20
297.0
  9
$UNITMODE
 70
     0
  9
$VISRETAIN
 70
     1
  9
$PLINEGEN
 70
     0
  9
$PSLTSCALE
 70
     1
  9
$TREEDEPTH
 70
  3020
  9
$CMLSTYLE
  2
Standard
  9
$CMLJUST
 70
     0
  9
$CMLSCALE
 40
20.0
  9
$PROXYGRAPHICS
 70
     1
  9
$MEASUREMENT
 70
     1
  9
$CELWEIGHT
370
    -1
  9
$ENDCAPS
280
     0
  9
$JOINSTYLE
280
     0
  9
$LWDISPLAY
290
     1
  9
$INSUNITS
 70
     4
  9
$HYPERLINKBASE
  1

  9
$STYLESHEET
  1

  9
$XEDIT
290
     1
  9
$CEPSNTYPE
380
     0
  9
$PSTYLEMODE
290
     1
  9
$FINGERPRINTGUID
  2
{ac51a54e-7070-4582-b660-6fec202be916}
  9
$VERSIONGUID
  2
{FAEB1C32-E019-11D5-929B-00C0DF256EC4}
  9
$EXTNAMES
290
     1
  9
$PSVPSCALE
 40
0.0
  9
$OLESTARTUP
290
     0
  0
ENDSEC
  0
SECTION
  2
CLASSES
  0
CLASS
  1
ACDBDICTIONARYWDFLT
  2
AcDbDictionaryWithDefault
  3
ObjectDBX Classes
 90
        0
280
     0
281
     0
  0
CLASS
  1
VISUALSTYLE
  2
AcDbVisualStyle
  3
ObjectDBX Classes
 90
     4095
280
     0
281
     0
  0
CLASS
  1
MATERIAL
  2
AcDbMaterial
  3
ObjectDBX Classes
 90
     1153
280
     0
281
     0
  0
CLASS
  1
SCALE
  2
AcDbScale
  3
ObjectDBX Classes
 90
     1153
280
     0
281
     0
  0
CLASS
  1
TABLESTYLE
  2
AcDbTableStyle
  3
ObjectDBX Classes
 90
     4095
280
     0
281
     0
  0
CLASS
  1
MLEADERSTYLE
  2
AcDbMLeaderStyle
  3
ACDB_MLEADERSTYLE_CLASS
 90
     4095
280
     0
281
     0
  0
CLASS
  1
SUN
  2
AcDbSun
  3
SCENEOE
 90
     1153
280
     0
281
     0
  0
CLASS
  1
ACDBPLACEHOLDER
  2
AcDbPlaceHolder
  3
ObjectDBX Classes
 90
        0
280
     0
281
     0
  0
CLASS
  1
LAYOUT
  2
AcDbLayout
  3
ObjectDBX Classes
 90
        0
280
     0
281
     0
  0
ENDSEC
  0
SECTION
  2
TABLES
  0
TABLE
  2
VPORT
  5
8
330
0
100
AcDbSymbolTable
 70
     1
  0
VPORT
  5
29
330
8
100
AcDbSymbolTableRecord
100
AcDbViewportTableRecord
  2
*Active
 70
     0
 10
0.0
 20
0.0
 11
1.0
 21
1.0
 12
210.0
 22
148.5
 13
0.0
 23
0.0
 14
10.0
 24
10.0
 15
10.0
 25
10.0
 16
0.0
 26
0.0
 36
1.0
 17
0.0
 27
0.0
 37
0.0
 40
297.0
 41
1.4141414141
 42
50.0
 43
0.0
 44
0.0
 50
0.0
 51
0.0
 71
     0
 72
  2000
 73
     1
 74
     3
 75
     0
 76
     0
 77
     0
 78
     0
281
     0
 65
     1
110
0.0
120
0.0
130
0.0
111
1.0
121
0.0
131
0.0
112
0.0
122
1.0
132
0.0
 79
     0
146
0.0
  0
ENDTAB
  0
TABLE
  2
LTYPE
  5
5
330
0
100
AcDbSymbolTable
 70
     6
  0
LTYPE
  5
14
330
5
100
AcDbSymbolTableRecord
100
AcDbLinetypeTableRecord
  2
ByBlock
 70
     0
  3

 72
    65
 73
     0
 40
0.0
  0
LTYPE
  5
15
330
5
100
AcDbSymbolTableRecord
100
AcDbLinetypeTableRecord
  2
ByLayer
 70
     0
  3

 72
    65
 73
     0
 40
0.0
  0
LTYPE
  5
16
330
5
100
AcDbSymbolTableRecord
100
AcDbLinetypeTableRecord
  2
Continuous
 70
     0
  3
Solid line
 72
    65
 73
     0
 40
0.0
  0
LTYPE
  5
6E
330
5
100
AcDbSymbolTableRecord
100
AcDbLinetypeTableRecord
  2
HIDDEN
 70
     0
  3
Hidden __ __ __ __ __ __ __ __ __ __ __ __ __ __
 72
    65
 73
     2
 40
1.905
 49
1.27
 74
     0
 49
-0.635
 74
     0
  0
LTYPE
  5
6F
330
5
100
AcDbSymbolTableRecord
100
AcDbLinetypeTableRecord
  2
PHANTOM
 70
     0
  3
Phantom ______  __  __  ______  __  __  ______
 72
    65
 73
     6
 40
12.7
 49
6.35
 74
     0
 49
-1.27
 74
     0
 49
1.27
 74
     0
 49
-1.27
 74
     0
 49
1.27
 74
     0
 49
-1.27
 74
     0
  0
LTYPE
  5
70
330
5
100
AcDbSymbolTableRecord
100
AcDbLinetypeTableRecord
  2
CENTER
 70
     0
  3
Center ____ _ ____ _ ____ _ ____ _ ____ _ ____
 72
    65
 73
     4
 40
10.16
 49
6.35
 74
     0
 49
-1.27
 74
     0
 49
1.27
 74
     0
 49
-1.27
 74
     0
  0
LTYPE
  5
71
330
5
100
AcDbSymbolTableRecord
100
AcDbLinetypeTableRecord
  2
CENTERX2
 70
     0
  3
Center (2x) ________  __  ________  __  _____
 72
    65
 73
     4
 40
20.32
 49
12.7
 74
     0
 49
-2.54
 74
     0
 49
2.54
 74
     0
 49
-2.54
 74
     0
  0
LTYPE
  5
72
330
5
100
AcDbSymbolTableRecord
100
AcDbLinetypeTableRecord
  2
DOT2
 70
     0
  3
Dot (.5x) ........................................
 72
    65
 73
     2
 40
0.635
 49
0.0
 74
     0
 49
-0.635
 74
     0
  0
ENDTAB
  0
TABLE
  2
LAYER
  5
2
330
0
100
AcDbSymbolTable
 70
     2
  0
LAYER
  5
10
330
2
100
AcDbSymbolTableRecord
100
AcDbLayerTableRecord
  2
0
 70
     0
 62
     7
  6
Continuous
370
    -3
390
F
  0
LAYER
  5
73
330
2
100
AcDbSymbolTableRecord
100
AcDbLayerTableRecord
  2
FORMAT
 70
     0
 62
     7
  6
Continuous
370
    -3
390
F
  0
ENDTAB
  0
TABLE
  2
STYLE
  5
3
330
0
100
AcDbSymbolTable
 70
     4
  0
STYLE
  5
11
330
3
100
AcDbSymbolTableRecord
100
AcDbTextStyleTableRecord
  2
Standard
 70
     0
 40
0.0
 41
1.0
 50
0.0
 71
     0
 42
3.5
  3
txt
  4

  0
STYLE
  5
B1
330
3
100
AcDbSymbolTableRecord
100
AcDbTextStyleTableRecord
  2
SLDTEXTSTYLE0
 70
     0
 40
0.0
 41
0.75
 50
0.0
 71
     0
 42
3.5
  3
TXT
  4

  0
STYLE
  5
D1
330
3
100
AcDbSymbolTableRecord
100
AcDbTextStyleTableRecord
  2
SLDTEXTSTYLE1
 70
     0
 40
0.0
 41
0.6875
 50
0.0
 71
     0
 42
3.5
  3
TXT
  4
bigfont
  0
STYLE
  5
D3
330
3
100
AcDbSymbolTableRecord
100
AcDbTextStyleTableRecord
  2
SLDTEXTSTYLE2
 70
     0
 40
0.0
 41
0.75
 50
0.0
 71
     0
 42
3.5
  3
TXT
  4
bigfont
  0
ENDTAB
  0
TABLE
  2
VIEW
  5
6
330
0
100
AcDbSymbolTable
 70
     0
  0
ENDTAB
  0
TABLE
  2
UCS
  5
7
330
0
100
AcDbSymbolTable
 70
     0
  0
ENDTAB
  0
TABLE
  2
APPID
  5
9
330
0
100
AcDbSymbolTable
 70
     1
  0
APPID
  5
12
330
9
100
AcDbSymbolTableRecord
100
AcDbRegAppTableRecord
  2
ACAD
 70
     0
  0
ENDTAB
  0
TABLE
  2
DIMSTYLE
  5
A
330
0
100
AcDbSymbolTable
 70
     8
100
AcDbDimStyleTable
  0
DIMSTYLE
105
27
330
A
100
AcDbSymbolTableRecord
100
AcDbDimStyleTableRecord
  2
ISO-25
 70
     0
 41
2.5
 42
0.625
 43
3.75
 44
1.25
 73
     0
 74
     0
 77
     1
 78
     8
140
2.5
141
2.5
143
0.0393700787
147
0.625
171
     3
172
     1
178
     0
271
     2
272
     2
274
     3
278
    44
283
     0
284
     8
340
11
  0
DIMSTYLE
105
144
102
{ACAD_REACTORS
330
143
330
14E
330
2DF
330
2FF
330
31F
330
32C
330
337
330
487
330
4A5
102
}
330
A
100
AcDbSymbolTableRecord
100
AcDbDimStyleTableRecord
  2
SLDDIMSTYLE0
 70
     0
 41
3.302
 44
0.0
 45
0.000000001
 73
     0
 74
     0
 77
     1
 78
    12
 79
     3
140
3.5
147
0.875
173
     1
178
     0
271
     0
272
     0
276
     2
284
    12
340
B1
  0
DIMSTYLE
105
159
102
{ACAD_REACTORS
330
158
102
}
330
A
100
AcDbSymbolTableRecord
100
AcDbDimStyleTableRecord
  2
SLDDIMSTYLE1
 70
     0
  3
<>
 41
3.302
 44
0.0
 45
0.000000001
 73
     0
 74
     0
 77
     1
 78
    12
 79
     3
140
3.5
141
0.0
147
0.875
172
     1
173
     1
178
     0
271
     1
272
     1
276
     2
284
    12
340
B1
341
15A
343
15A
  0
DIMSTYLE
105
165
102
{ACAD_REACTORS
330
164
330
2E9
330
30A
330
49B
102
}
330
A
100
AcDbSymbolTableRecord
100
AcDbDimStyleTableRecord
  2
SLDDIMSTYLE2
 70
     0
 41
3.302
 44
0.0
 45
0.000000001
 73
     0
 74
     0
 77
     1
 78
    12
 79
     3
140
3.5
147
0.875
172
     1
173
     1
178
     0
271
     0
272
     0
276
     2
284
    12
289
     0
340
B1
  0
DIMSTYLE
105
2F6
102
{ACAD_REACTORS
330
2F5
102
}
330
A
100
AcDbSymbolTableRecord
100
AcDbDimStyleTableRecord
  2
SLDDIMSTYLE3
 70
     0
 41
3.302
 44
0.0
 45
0.000000001
 73
     0
 74
     0
 77
     1
 78
    12
 79
     3
140
3.5
141
0.0
147
0.875
172
     1
173
     1
178
     0
271
     1
272
     2
276
     2
284
    12
340
B1
341
15A
343
15A
  0
DIMSTYLE
105
317
102
{ACAD_REACTORS
330
316
102
}
330
A
100
AcDbSymbolTableRecord
100
AcDbDimStyleTableRecord
  2
SLDDIMSTYLE4
 70
     0
  3
<>
 41
3.302
 44
0.0
 45
0.000000001
 73
     0
 74
     0
 77
     1
 78
    12
 79
     3
140
3.5
141
0.0
147
0.875
172
     1
173
     1
178
     0
271
     2
272
     2
276
     2
284
    12
340
B1
341
15A
343
15A
  0
DIMSTYLE
105
492
102
{ACAD_REACTORS
330
491
102
}
330
A
100
AcDbSymbolTableRecord
100
AcDbDimStyleTableRecord
  2
SLDDIMSTYLE5
 70
     0
 41
3.302
 44
0.0
 45
0.000000001
 73
     0
 74
     0
 77
     1
 78
    12
 79
     3
140
3.5
141
0.0
147
0.875
172
     1
173
     1
178
     0
271
     1
272
     1
276
     2
284
    12
340
B1
341
15A
343
15A
  0
DIMSTYLE
105
4B0
102
{ACAD_REACTORS
330
4AF
102
}
330
A
100
AcDbSymbolTableRecord
100
AcDbDimStyleTableRecord
  2
SLDDIMSTYLE6
 70
     0
 41
3.302
 44
0.0
 45
0.000000001
 73
     0
 74
     0
 77
     1
 78
    12
 79
     3
140
3.5
147
0.875
173
     1
178
     0
271
     1
272
     1
276
     2
284
    12
340
B1
  0
ENDTAB
  0
TABLE
  2
BLOCK_RECORD
  5
1
330
0
100
AcDbSymbolTable
 70
    29
  0
BLOCK_RECORD
  5
1F
330
1
100
AcDbSymbolTableRecord
100
AcDbBlockTableRecord
  2
*Model_Space
340
22
  0
BLOCK_RECORD
  5
1B
330
1
100
AcDbSymbolTableRecord
100
AcDbBlockTableRecord
  2
*Paper_Space
340
1E
  0
BLOCK_RECORD
  5
23
330
1
100
AcDbSymbolTableRecord
100
AcDbBlockTableRecord
  2
*Paper_Space0
340
26
  0
BLOCK_RECORD
  5
DD
330
1
100
AcDbSymbolTableRecord
100
AcDbBlockTableRecord
  2
SW_NOTE_0
340
0
102
{BLKREFS
331
E2
102
}
  0
BLOCK_RECORD
  5
E4
330
1
100
AcDbSymbolTableRecord
100
AcDbBlockTableRecord
  2
SW_NOTE_0_1
340
0
102
{BLKREFS
331
ED
102
}
  0
BLOCK_RECORD
  5
145
330
1
100
AcDbSymbolTableRecord
100
AcDbBlockTableRecord
  2
_D
340
0
  0
BLOCK_RECORD
  5
14F
330
1
100
AcDbSymbolTableRecord
100
AcDbBlockTableRecord
  2
_D_1
340
0
  0
BLOCK_RECORD
  5
15A
330
1
100
AcDbSymbolTableRecord
100
AcDbBlockTableRecord
  2
_None
340
0
  0
BLOCK_RECORD
  5
15D
330
1
100
AcDbSymbolTableRecord
100
AcDbBlockTableRecord
  2
_D_2
340
0
  0
BLOCK_RECORD
  5
166
330
1
100
AcDbSymbolTableRecord
100
AcDbBlockTableRecord
  2
_D_3
340
0
  0
BLOCK_RECORD
  5
171
330
1
100
AcDbSymbolTableRecord
100
AcDbBlockTableRecord
  2
SW_CENTERMARKSYMBOL_0
340
0
102
{BLKREFS
331
17C
102
}
  0
BLOCK_RECORD
  5
2E0
330
1
100
AcDbSymbolTableRecord
100
AcDbBlockTableRecord
  2
_D_4
340
0
  0
BLOCK_RECORD
  5
2EA
330
1
100
AcDbSymbolTableRecord
100
AcDbBlockTableRecord
  2
_D_5
340
0
  0
BLOCK_RECORD
  5
2F7
330
1
100
AcDbSymbolTableRecord
100
AcDbBlockTableRecord
  2
_D_6
340
0
  0
BLOCK_RECORD
  5
300
330
1
100
AcDbSymbolTableRecord
100
AcDbBlockTableRecord
  2
_D_7
340
0
  0
BLOCK_RECORD
  5
30B
330
1
100
AcDbSymbolTableRecord
100
AcDbBlockTableRecord
  2
_D_8
340
0
  0
BLOCK_RECORD
  5
318
330
1
100
AcDbSymbolTableRecord
100
AcDbBlockTableRecord
  2
_D_9
340
0
  0
BLOCK_RECORD
  5
320
330
1
100
AcDbSymbolTableRecord
100
AcDbBlockTableRecord
  2
_D_10
340
0
  0
BLOCK_RECORD
  5
32D
330
1
100
AcDbSymbolTableRecord
100
AcDbBlockTableRecord
  2
_D_11
340
0
  0
BLOCK_RECORD
  5
338
330
1
100
AcDbSymbolTableRecord
100
AcDbBlockTableRecord
  2
_D_12
340
0
  0
BLOCK_RECORD
  5
342
330
1
100
AcDbSymbolTableRecord
100
AcDbBlockTableRecord
  2
SW_CENTERMARKSYMBOL_1
340
0
102
{BLKREFS
331
34D
102
}
  0
BLOCK_RECORD
  5
34E
330
1
100
AcDbSymbolTableRecord
100
AcDbBlockTableRecord
  2
SW_CENTERMARKSYMBOL_2
340
0
102
{BLKREFS
331
359
102
}
  0
BLOCK_RECORD
  5
488
330
1
100
AcDbSymbolTableRecord
100
AcDbBlockTableRecord
  2
_D_13
340
0
  0
BLOCK_RECORD
  5
493
330
1
100
AcDbSymbolTableRecord
100
AcDbBlockTableRecord
  2
_D_14
340
0
  0
BLOCK_RECORD
  5
49C
330
1
100
AcDbSymbolTableRecord
100
AcDbBlockTableRecord
  2
_D_15
340
0
  0
BLOCK_RECORD
  5
4A6
330
1
100
AcDbSymbolTableRecord
100
AcDbBlockTableRecord
  2
_D_16
340
0
  0
BLOCK_RECORD
  5
4B1
330
1
100
AcDbSymbolTableRecord
100
AcDbBlockTableRecord
  2
_D_17
340
0
  0
BLOCK_RECORD
  5
4BA
330
1
100
AcDbSymbolTableRecord
100
AcDbBlockTableRecord
  2
SW_CENTERMARKSYMBOL_3
340
0
102
{BLKREFS
331
4C5
102
}
  0
BLOCK_RECORD
  5
4C6
330
1
100
AcDbSymbolTableRecord
100
AcDbBlockTableRecord
  2
SW_CENTERMARKSYMBOL_4
340
0
102
{BLKREFS
331
4D1
102
}
  0
BLOCK_RECORD
  5
4D2
330
1
100
AcDbSymbolTableRecord
100
AcDbBlockTableRecord
  2
SW_CENTERMARKSYMBOL_5
340
0
102
{BLKREFS
331
4DD
102
}
  0
BLOCK_RECORD
  5
4DE
330
1
100
AcDbSymbolTableRecord
100
AcDbBlockTableRecord
  2
SW_CENTERMARKSYMBOL_6
340
0
102
{BLKREFS
331
4E9
102
}
  0
ENDTAB
  0
ENDSEC
  0
SECTION
  2
BLOCKS
  0
BLOCK
  5
20
330
1F
100
AcDbEntity
  8
0
100
AcDbBlockBegin
  2
*Model_Space
 70
     0
 10
0.0
 20
0.0
 30
0.0
  3
*Model_Space
  1

  0
ENDBLK
  5
21
330
1F
100
AcDbEntity
  8
0
100
AcDbBlockEnd
  0
BLOCK
  5
1C
330
1B
100
AcDbEntity
 67
     1
  8
0
100
AcDbBlockBegin
  2
*Paper_Space
 70
     0
 10
0.0
 20
0.0
 30
0.0
  3
*Paper_Space
  1

  0
ENDBLK
  5
1D
330
1B
100
AcDbEntity
 67
     1
  8
0
100
AcDbBlockEnd
  0
BLOCK
  5
24
330
23
100
AcDbEntity
  8
0
100
AcDbBlockBegin
  2
*Paper_Space0
 70
     0
 10
0.0
 20
0.0
 30
0.0
  3
*Paper_Space0
  1

  0
ENDBLK
  5
25
330
23
100
AcDbEntity
  8
0
100
AcDbBlockEnd
  0
BLOCK
  5
DE
330
DD
100
AcDbEntity
  8
0
100
AcDbBlockBegin
  2
SW_NOTE_0
 70
     0
 10
0.0
 20
0.0
 30
0.0
  3
SW_NOTE_0
  1

  0
MTEXT
  5
E0
330
DD
100
AcDbEntity
  8
0
  6
Continuous
 62
     0
370
     0
100
AcDbMText
 10
0.0
 20
1.9336016097
 30
0.0
 40
1.5
 41
0.0
 71
     1
 72
     1
  1
ODSTRANIT
  7
SLDTEXTSTYLE0
 73
     1
 44
1.0
  0
MTEXT
  5
E1
330
DD
100
AcDbEntity
  8
0
  6
Continuous
 62
     0
370
     0
100
AcDbMText
 10
0.0
 20
-0.5663983345
 30
0.0
 40
1.5
 41
0.0
 71
     1
 72
     1
  1
OSTRÉ HRANY
  7
SLDTEXTSTYLE0
 73
     1
 44
1.0
  0
ENDBLK
  5
DF
330
DD
100
AcDbEntity
  8
0
100
AcDbBlockEnd
  0
BLOCK
  5
E5
330
E4
100
AcDbEntity
  8
0
100
AcDbBlockBegin
  2
SW_NOTE_0_1
 70
     0
 10
0.0
 20
0.0
 30
0.0
  3
SW_NOTE_0_1
  1

  0
MTEXT
  5
E7
330
E4
100
AcDbEntity
  8
0
  6
Continuous
 62
     0
370
     0
100
AcDbMText
 10
0.0
 20
1.9336016097
 30
0.0
 40
1.5
 41
0.0
 71
     1
 72
     1
  1
POKUD NENÍ UVEDENO JINAK:
  7
SLDTEXTSTYLE0
 73
     1
 44
1.0
  0
MTEXT
  5
E8
330
E4
100
AcDbEntity
  8
0
  6
Continuous
 62
     0
370
     0
100
AcDbMText
 10
0.0
 20
-0.5663983345
 30
0.0
 40
1.5
 41
0.0
 71
     1
 72
     1
  1
JEDNOTKY JSOU V MILIMETRECH
  7
SLDTEXTSTYLE0
 73
     1
 44
1.0
  0
MTEXT
  5
E9
330
E4
100
AcDbEntity
  8
0
  6
Continuous
 62
     0
370
     0
100
AcDbMText
 10
0.0
 20
-3.0663982786
 30
0.0
 40
1.5
 41
0.0
 71
     1
 72
     1
  1
DRSNOST:
  7
SLDTEXTSTYLE0
 73
     1
 44
1.0
  0
MTEXT
  5
EA
330
E4
100
AcDbEntity
  8
0
  6
Continuous
 62
     0
370
     0
100
AcDbMText
 10
0.0
 20
-5.5663982227
 30
0.0
 40
1.5
 41
0.0
 71
     1
 72
     1
  1
TOLERANCE:
  7
SLDTEXTSTYLE0
 73
     1
 44
1.0
  0
MTEXT
  5
EB
330
E4
100
AcDbEntity
  8
0
  6
Continuous
 62
     0
370
     0
100
AcDbMText
 10
1.6875
 20
-8.0663981668
 30
0.0
 40
1.5
 41
0.0
 71
     1
 72
     1
  1
LINEÁRNÍ:
  7
SLDTEXTSTYLE0
 73
     1
 44
1.0
  0
MTEXT
  5
EC
330
E4
100
AcDbEntity
  8
0
  6
Continuous
 62
     0
370
     0
100
AcDbMText
 10
1.6875
 20
-10.5663981109
 30
0.0
 40
1.5
 41
0.0
 71
     1
 72
     1
  1
ÚHLOVÁ:
  7
SLDTEXTSTYLE0
 73
     1
 44
1.0
  0
ENDBLK
  5
E6
330
E4
100
AcDbEntity
  8
0
100
AcDbBlockEnd
  0
BLOCK
  5
146
330
145
100
AcDbEntity
  8
0
100
AcDbBlockBegin
  2
_D
 70
     0
 10
0.0
 20
0.0
 30
0.0
  3
_D
  1

  0
SOLID
  5
148
330
145
100
AcDbEntity
  8
0
  6
Continuous
 62
     7
370
    18
100
AcDbTrace
 10
85.94
 20
158.56
 30
0.0
 11
86.448
 21
161.862
 31
0.0
 12
85.432
 22
161.862
 32
0.0
 13
85.432
 23
161.862
 33
0.0
  0
SOLID
  5
149
330
145
100
AcDbEntity
  8
0
  6
Continuous
 62
     7
370
    18
100
AcDbTrace
 10
85.94
 20
193.56
 30
0.0
 11
85.432
 21
190.258
 31
0.0
 12
86.448
 22
190.258
 32
0.0
 13
86.448
 23
190.258
 33
0.0
  0
LINE
  5
14A
330
145
100
AcDbEntity
  8
0
  6
Continuous
 62
     7
370
     0
100
AcDbLine
 10
96.74
 20
158.56
 30
0.0
 11
84.94
 21
158.56
 31
0.0
  0
LINE
  5
14B
330
145
100
AcDbEntity
  8
0
  6
Continuous
 62
     7
370
     0
100
AcDbLine
 10
96.74
 20
193.56
 30
0.0
 11
84.94
 21
193.56
 31
0.0
  0
LINE
  5
14C
330
145
100
AcDbEntity
  8
0
  6
Continuous
 62
     7
370
     0
100
AcDbLine
 10
85.94
 20
158.56
 30
0.0
 11
85.94
 21
193.56
 31
0.0
  0
MTEXT
  5
14D
330
145
100
AcDbEntity
  8
0
  6
Continuous
 62
     7
370
    18
100
AcDbMText
 10
81.4282630854
 20
173.4738888065
 30
0.0
 40
3.5
 41
0.0
 71
     1
 72
     1
  1
35
  7
SLDTEXTSTYLE0
 11
6.123233995736766E-17
 21
1.0
 31
0.0
 73
     1
 44
1.0
  0
ENDBLK
  5
147
330
145
100
AcDbEntity
  8
0
100
AcDbBlockEnd
  0
BLOCK
  5
150
330
14F
100
AcDbEntity
  8
0
100
AcDbBlockBegin
  2
_D_1
 70
     0
 10
0.0
 20
0.0
 30
0.0
  3
_D_1
  1

  0
SOLID
  5
152
330
14F
100
AcDbEntity
  8
0
  6
Continuous
 62
     7
370
    18
100
AcDbTrace
 10
152.44
 20
224.06
 30
0.0
 11
149.138
 21
224.568
 31
0.0
 12
149.138
 22
223.552
 32
0.0
 13
149.138
 23
223.552
 33
0.0
  0
SOLID
  5
153
330
14F
100
AcDbEntity
  8
0
  6
Continuous
 62
     7
370
    18
100
AcDbTrace
 10
97.44
 20
224.06
 30
0.0
 11
100.742
 21
223.552
 31
0.0
 12
100.742
 22
224.568
 32
0.0
 13
100.742
 23
224.568
 33
0.0
  0
LINE
  5
154
330
14F
100
AcDbEntity
  8
0
  6
Continuous
 62
     7
370
     0
100
AcDbLine
 10
152.44
 20
194.26
 30
0.0
 11
152.44
 21
225.06
 31
0.0
  0
LINE
  5
155
330
14F
100
AcDbEntity
  8
0
  6
Continuous
 62
     7
370
     0
100
AcDbLine
 10
97.44
 20
194.26
 30
0.0
 11
97.44
 21
225.06
 31
0.0
  0
LINE
  5
156
330
14F
100
AcDbEntity
  8
0
  6
Continuous
 62
     7
370
     0
100
AcDbLine
 10
152.44
 20
224.06
 30
0.0
 11
97.44
 21
224.06
 31
0.0
  0
MTEXT
  5
157
330
14F
100
AcDbEntity
  8
0
  6
Continuous
 62
     7
370
    18
100
AcDbMText
 10
122.3538888065
 20
228.5717369146
 30
0.0
 40
3.5
 41
0.0
 71
     1
 72
     1
  1
55
  7
SLDTEXTSTYLE0
 73
     1
 44
1.0
  0
ENDBLK
  5
151
330
14F
100
AcDbEntity
  8
0
100
AcDbBlockEnd
  0
BLOCK
  5
15B
330
15A
100
AcDbEntity
  8
0
100
AcDbBlockBegin
  2
_None
 70
     0
 10
0.0
 20
0.0
 30
0.0
  3
_None
  1

  0
ENDBLK
  5
15C
330
15A
100
AcDbEntity
  8
0
100
AcDbBlockEnd
  0
BLOCK
  5
15E
330
15D
100
AcDbEntity
  8
0
100
AcDbBlockBegin
  2
_D_2
 70
     0
 10
0.0
 20
0.0
 30
0.0
  3
_D_2
  1

  0
SOLID
  5
160
330
15D
100
AcDbEntity
  8
0
  6
Continuous
 62
     7
370
    18
100
AcDbTrace
 10
121.7226641456
 20
172.8426641456
 30
0.0
 11
119.0285873093
 21
170.867007799
 31
0.0
 12
119.747007799
 22
170.1485873093
 32
0.0
 13
119.747007799
 23
170.1485873093
 33
0.0
  0
LINE
  5
161
330
15D
100
AcDbEntity
  8
0
  6
Continuous
 62
     7
370
     0
100
AcDbLine
 10
121.7226641456
 20
172.8426641456
 30
0.0
 11
91.0872543731
 21
142.2072543731
 31
0.0
  0
LINE
  5
162
330
15D
100
AcDbEntity
  8
0
  6
Continuous
 62
     7
370
     0
100
AcDbLine
 10
121.7226641456
 20
172.8426641456
 30
0.0
 11
128.1573358544
 21
179.2773358544
 31
0.0
  0
MTEXT
  5
163
330
15D
100
AcDbEntity
  8
0
  6
Continuous
 62
     7
370
    18
100
AcDbMText
 10
87.9019675506
 20
145.3925411956
 30
0.0
 40
3.5
 41
0.0
 71
     1
 72
     1
  1
M10x1.5
  7
SLDTEXTSTYLE0
 11
0.7071067811865426
 21
0.7071067811865526
 31
0.0
 73
     1
 44
1.0
  0
ENDBLK
  5
15F
330
15D
100
AcDbEntity
  8
0
100
AcDbBlockEnd
  0
BLOCK
  5
167
330
166
100
AcDbEntity
  8
0
100
AcDbBlockBegin
  2
_D_3
 70
     0
 10
0.0
 20
0.0
 30
0.0
  3
_D_3
  1

  0
SOLID
  5
169
330
166
100
AcDbEntity
  8
0
  6
Continuous
 62
     7
370
    18
100
AcDbTrace
 10
157.34
 20
224.06
 30
0.0
 11
160.642
 21
223.552
 31
0.0
 12
160.642
 22
224.568
 32
0.0
 13
160.642
 23
224.568
 33
0.0
  0
SOLID
  5
16A
330
166
100
AcDbEntity
  8
0
  6
Continuous
 62
     7
370
    18
100
AcDbTrace
 10
152.44
 20
224.06
 30
0.0
 11
149.138
 21
224.568
 31
0.0
 12
149.138
 22
223.552
 32
0.0
 13
149.138
 23
223.552
 33
0.0
  0
LINE
  5
16B
330
166
100
AcDbEntity
  8
0
  6
Continuous
 62
     7
370
     0
100
AcDbLine
 10
157.34
 20
185.56
 30
0.0
 11
157.34
 21
225.06
 31
0.0
  0
LINE
  5
16C
330
166
100
AcDbEntity
  8
0
  6
Continuous
 62
     7
370
     0
100
AcDbLine
 10
152.44
 20
194.26
 30
0.0
 11
152.44
 21
225.06
 31
0.0
  0
LINE
  5
16D
330
166
100
AcDbEntity
  8
0
  6
Continuous
 62
     7
370
     0
100
AcDbLine
 10
157.34
 20
224.06
 30
0.0
 11
167.5691667903
 21
224.06
 31
0.0
  0
LINE
  5
16E
330
166
100
AcDbEntity
  8
0
  6
Continuous
 62
     7
370
     0
100
AcDbLine
 10
157.34
 20
224.06
 30
0.0
 11
152.44
 21
224.06
 31
0.0
  0
LINE
  5
16F
330
166
100
AcDbEntity
  8
0
  6
Continuous
 62
     7
370
     0
100
AcDbLine
 10
152.44
 20
224.06
 30
0.0
 11
146.09
 21
224.06
 31
0.0
  0
MTEXT
  5
170
330
166
100
AcDbEntity
  8
0
  6
Continuous
 62
     7
370
    18
100
AcDbMText
 10
164.9830555968
 20
228.5717369146
 30
0.0
 40
3.5
 41
0.0
 71
     1
 72
     1
  1
5
  7
SLDTEXTSTYLE0
 73
     1
 44
1.0
  0
ENDBLK
  5
168
330
166
100
AcDbEntity
  8
0
100
AcDbBlockEnd
  0
BLOCK
  5
172
330
171
100
AcDbEntity
  8
0
100
AcDbBlockBegin
  2
SW_CENTERMARKSYMBOL_0
 70
     0
 10
0.0
 20
0.0
 30
0.0
  3
SW_CENTERMARKSYMBOL_0
  1

  0
LINE
  5
174
330
171
100
AcDbEntity
  8
0
  6
Continuous
 62
     0
370
    18
100
AcDbLine
 10
0.0
 20
0.0
 30
0.0
 11
0.0
 21
2.5
 31
0.0
  0
LINE
  5
175
330
171
100
AcDbEntity
  8
0
  6
Continuous
 62
     0
370
    18
100
AcDbLine
 10
0.0
 20
0.0
 30
0.0
 11
-2.5
 21
0.0
 31
0.0
  0
LINE
  5
176
330
171
100
AcDbEntity
  8
0
  6
Continuous
 62
     0
370
    18
100
AcDbLine
 10
0.0
 20
0.0
 30
0.0
 11
0.0
 21
-2.5
 31
0.0
  0
LINE
  5
177
330
171
100
AcDbEntity
  8
0
  6
Continuous
 62
     0
370
    18
100
AcDbLine
 10
0.0
 20
0.0
 30
0.0
 11
2.5
 21
0.0
 31
0.0
  0
LINE
  5
178
330
171
100
AcDbEntity
  8
0
  6
Continuous
 62
     0
370
    18
100
AcDbLine
 10
0.0
 20
5.0
 30
0.0
 11
0.0
 21
16.0
 31
0.0
  0
LINE
  5
179
330
171
100
AcDbEntity
  8
0
  6
Continuous
 62
     0
370
    18
100
AcDbLine
 10
-5.0
 20
0.0
 30
0.0
 11
-16.0
 21
0.0
 31
0.0
  0
LINE
  5
17A
330
171
100
AcDbEntity
  8
0
  6
Continuous
 62
     0
370
    18
100
AcDbLine
 10
0.0
 20
-5.0
 30
0.0
 11
0.0
 21
-16.0
 31
0.0
  0
LINE
  5
17B
330
171
100
AcDbEntity
  8
0
  6
Continuous
 62
     0
370
    18
100
AcDbLine
 10
5.0
 20
0.0
 30
0.0
 11
16.0
 21
0.0
 31
0.0
  0
ENDBLK
  5
173
330
171
100
AcDbEntity
  8
0
100
AcDbBlockEnd
  0
BLOCK
  5
2E1
330
2E0
100
AcDbEntity
  8
0
100
AcDbBlockBegin
  2
_D_4
 70
     0
 10
0.0
 20
0.0
 30
0.0
  3
_D_4
  1

  0
SOLID
  5
2E3
330
2E0
100
AcDbEntity
  8
0
  6
Continuous
 62
     7
370
    18
100
AcDbTrace
 10
288.94
 20
136.56
 30
0.0
 11
292.242
 21
136.052
 31
0.0
 12
292.242
 22
137.068
 32
0.0
 13
292.242
 23
137.068
 33
0.0
  0
SOLID
  5
2E4
330
2E0
100
AcDbEntity
  8
0
  6
Continuous
 62
     7
370
    18
100
AcDbTrace
 10
344.94
 20
136.56
 30
0.0
 11
341.638
 21
137.068
 31
0.0
 12
341.638
 22
136.052
 32
0.0
 13
341.638
 23
136.052
 33
0.0
  0
LINE
  5
2E5
330
2E0
100
AcDbEntity
  8
0
  6
Continuous
 62
     7
370
     0
100
AcDbLine
 10
288.94
 20
157.56
 30
0.0
 11
288.94
 21
135.56
 31
0.0
  0
LINE
  5
2E6
330
2E0
100
AcDbEntity
  8
0
  6
Continuous
 62
     7
370
     0
100
AcDbLine
 10
344.94
 20
157.56
 30
0.0
 11
344.94
 21
135.56
 31
0.0
  0
LINE
  5
2E7
330
2E0
100
AcDbEntity
  8
0
  6
Continuous
 62
     7
370
     0
100
AcDbLine
 10
288.94
 20
136.56
 30
0.0
 11
344.94
 21
136.56
 31
0.0
  0
MTEXT
  5
2E8
330
2E0
100
AcDbEntity
  8
0
  6
Continuous
 62
     7
370
    18
100
AcDbMText
 10
314.3538888065
 20
141.0717369146
 30
0.0
 40
3.5
 41
0.0
 71
     1
 72
     1
  1
56
  7
SLDTEXTSTYLE0
 73
     1
 44
1.0
  0
ENDBLK
  5
2E2
330
2E0
100
AcDbEntity
  8
0
100
AcDbBlockEnd
  0
BLOCK
  5
2EB
330
2EA
100
AcDbEntity
  8
0
100
AcDbBlockBegin
  2
_D_5
 70
     0
 10
0.0
 20
0.0
 30
0.0
  3
_D_5
  1

  0
SOLID
  5
2ED
330
2EA
100
AcDbEntity
  8
0
  6
Continuous
 62
     7
370
    18
100
AcDbTrace
 10
344.94
 20
224.06
 30
0.0
 11
341.638
 21
224.568
 31
0.0
 12
341.638
 22
223.552
 32
0.0
 13
341.638
 23
223.552
 33
0.0
  0
SOLID
  5
2EE
330
2EA
100
AcDbEntity
  8
0
  6
Continuous
 62
     7
370
    18
100
AcDbTrace
 10
347.94
 20
224.06
 30
0.0
 11
351.242
 21
223.552
 31
0.0
 12
351.242
 22
224.568
 32
0.0
 13
351.242
 23
224.568
 33
0.0
  0
LINE
  5
2EF
330
2EA
100
AcDbEntity
  8
0
  6
Continuous
 62
     7
370
     0
100
AcDbLine
 10
344.94
 20
194.56
 30
0.0
 11
344.94
 21
225.06
 31
0.0
  0
LINE
  5
2F0
330
2EA
100
AcDbEntity
  8
0
  6
Continuous
 62
     7
370
     0
100
AcDbLine
 10
347.94
 20
191.06
 30
0.0
 11
347.94
 21
225.06
 31
0.0
  0
LINE
  5
2F1
330
2EA
100
AcDbEntity
  8
0
  6
Continuous
 62
     7
370
     0
100
AcDbLine
 10
344.94
 20
224.06
 30
0.0
 11
338.59
 21
224.06
 31
0.0
  0
LINE
  5
2F2
330
2EA
100
AcDbEntity
  8
0
  6
Continuous
 62
     7
370
     0
100
AcDbLine
 10
344.94
 20
224.06
 30
0.0
 11
347.94
 21
224.06
 31
0.0
  0
LINE
  5
2F3
330
2EA
100
AcDbEntity
  8
0
  6
Continuous
 62
     7
370
     0
100
AcDbLine
 10
347.94
 20
224.06
 30
0.0
 11
361.4018058404
 21
224.06
 31
0.0
  0
MTEXT
  5
2F4
330
2EA
100
AcDbEntity
  8
0
  6
Continuous
 62
     7
370
    18
100
AcDbMText
 10
358.8156946469
 20
228.5717369146
 30
0.0
 40
3.5
 41
0.0
 71
     1
 72
     1
  1
3
  7
SLDTEXTSTYLE0
 73
     1
 44
1.0
  0
ENDBLK
  5
2EC
330
2EA
100
AcDbEntity
  8
0
100
AcDbBlockEnd
  0
BLOCK
  5
2F8
330
2F7
100
AcDbEntity
  8
0
100
AcDbBlockBegin
  2
_D_6
 70
     0
 10
0.0
 20
0.0
 30
0.0
  3
_D_6
  1

  0
SOLID
  5
2FA
330
2F7
100
AcDbEntity
  8
0
  6
Continuous
 62
     7
370
    18
100
AcDbTrace
 10
298.2424768328
 20
176.4183828457
 30
0.0
 11
295.2247464229
 21
177.8517603859
 31
0.0
 12
294.9334528459
 22
176.8784135556
 32
0.0
 13
294.9334528459
 23
176.8784135556
 33
0.0
  0
LINE
  5
2FB
330
2F7
100
AcDbEntity
  8
0
  6
Continuous
 62
     7
370
     0
100
AcDbLine
 10
298.2424768328
 20
176.4183828457
 30
0.0
 11
225.3672952548
 21
198.2277437559
 31
0.0
  0
LINE
  5
2FC
330
2F7
100
AcDbEntity
  8
0
  6
Continuous
 62
     7
370
     0
100
AcDbLine
 10
298.2424768328
 20
176.4183828457
 30
0.0
 11
300.6375231672
 21
175.7016171543
 31
0.0
  0
MTEXT
  5
2FD
330
2F7
100
AcDbEntity
  8
0
  6
Continuous
 62
     7
370
    18
100
AcDbMText
 10
226.6602205697
 20
202.5480063937
 30
0.0
 40
3.5
 41
0.0
 71
     1
 72
     1
  1
%%c
  7
SLDTEXTSTYLE0
 11
0.9580185337468379
 21
-0.2867062765227837
 31
0.0
 73
     1
 44
1.0
  0
MTEXT
  5
2FE
330
2F7
100
AcDbEntity
  8
0
  6
Continuous
 62
     7
370
    18
100
AcDbMText
 10
231.7323922353
 20
201.0858725976
 30
0.0
 40
3.5
 41
0.0
 71
     1
 72
     1
  1
2,5
  7
SLDTEXTSTYLE0
 11
0.9580185337468379
 21
-0.2867062765227837
 31
0.0
 73
     1
 44
1.0
  0
ENDBLK
  5
2F9
330
2F7
100
AcDbEntity
  8
0
100
AcDbBlockEnd
  0
BLOCK
  5
301
330
300
100
AcDbEntity
  8
0
100
AcDbBlockBegin
  2
_D_7
 70
     0
 10
0.0
 20
0.0
 30
0.0
  3
_D_7
  1

  0
SOLID
  5
303
330
300
100
AcDbEntity
  8
0
  6
Continuous
 62
     7
370
    18
100
AcDbTrace
 10
297.94
 20
148.56
 30
0.0
 11
301.242
 21
148.052
 31
0.0
 12
301.242
 22
149.068
 32
0.0
 13
301.242
 23
149.068
 33
0.0
  0
SOLID
  5
304
330
300
100
AcDbEntity
  8
0
  6
Continuous
 62
     7
370
    18
100
AcDbTrace
 10
305.94
 20
148.56
 30
0.0
 11
302.638
 21
149.068
 31
0.0
 12
302.638
 22
148.052
 32
0.0
 13
302.638
 23
148.052
 33
0.0
  0
LINE
  5
305
330
300
100
AcDbEntity
  8
0
  6
Continuous
 62
     7
370
     0
100
AcDbLine
 10
297.94
 20
157.56
 30
0.0
 11
297.94
 21
147.56
 31
0.0
  0
LINE
  5
306
330
300
100
AcDbEntity
  8
0
  6
Continuous
 62
     7
370
     0
100
AcDbLine
 10
305.94
 20
157.56
 30
0.0
 11
305.94
 21
147.56
 31
0.0
  0
LINE
  5
307
330
300
100
AcDbEntity
  8
0
  6
Continuous
 62
     7
370
     0
100
AcDbLine
 10
297.94
 20
148.56
 30
0.0
 11
284.4781941596
 21
148.56
 31
0.0
  0
LINE
  5
308
330
300
100
AcDbEntity
  8
0
  6
Continuous
 62
     7
370
     0
100
AcDbLine
 10
297.94
 20
148.56
 30
0.0
 11
305.94
 21
148.56
 31
0.0
  0
MTEXT
  5
309
330
300
100
AcDbEntity
  8
0
  6
Continuous
 62
     7
370
    18
100
AcDbMText
 10
284.4781941596
 20
153.0717369146
 30
0.0
 40
3.5
 41
0.0
 71
     1
 72
     1
  1
8
  7
SLDTEXTSTYLE0
 73
     1
 44
1.0
  0
ENDBLK
  5
302
330
300
100
AcDbEntity
  8
0
100
AcDbBlockEnd
  0
BLOCK
  5
30C
330
30B
100
AcDbEntity
  8
0
100
AcDbBlockBegin
  2
_D_8
 70
     0
 10
0.0
 20
0.0
 30
0.0
  3
_D_8
  1

  0
SOLID
  5
30E
330
30B
100
AcDbEntity
  8
0
  6
Continuous
 62
     7
370
    18
100
AcDbTrace
 10
218.94
 20
158.56
 30
0.0
 11
218.432
 21
155.258
 31
0.0
 12
219.448
 22
155.258
 32
0.0
 13
219.448
 23
155.258
 33
0.0
  0
SOLID
  5
30F
330
30B
100
AcDbEntity
  8
0
  6
Continuous
 62
     7
370
    18
100
AcDbTrace
 10
218.94
 20
160.56
 30
0.0
 11
219.448
 21
163.862
 31
0.0
 12
218.432
 22
163.862
 32
0.0
 13
218.432
 23
163.862
 33
0.0
  0
LINE
  5
310
330
30B
100
AcDbEntity
  8
0
  6
Continuous
 62
     7
370
     0
100
AcDbLine
 10
287.94
 20
158.56
 30
0.0
 11
217.94
 21
158.56
 31
0.0
  0
LINE
  5
311
330
30B
100
AcDbEntity
  8
0
  6
Continuous
 62
     7
370
     0
100
AcDbLine
 10
296.94
 20
160.56
 30
0.0
 11
217.94
 21
160.56
 31
0.0
  0
LINE
  5
312
330
30B
100
AcDbEntity
  8
0
  6
Continuous
 62
     7
370
     0
100
AcDbLine
 10
218.94
 20
158.56
 30
0.0
 11
218.94
 21
145.0981941596
 31
0.0
  0
LINE
  5
313
330
30B
100
AcDbEntity
  8
0
  6
Continuous
 62
     7
370
     0
100
AcDbLine
 10
218.94
 20
158.56
 30
0.0
 11
218.94
 21
160.56
 31
0.0
  0
LINE
  5
314
330
30B
100
AcDbEntity
  8
0
  6
Continuous
 62
     7
370
     0
100
AcDbLine
 10
218.94
 20
160.56
 30
0.0
 11
218.94
 21
166.91
 31
0.0
  0
MTEXT
  5
315
330
30B
100
AcDbEntity
  8
0
  6
Continuous
 62
     7
370
    18
100
AcDbMText
 10
214.4282630854
 20
145.0981941596
 30
0.0
 40
3.5
 41
0.0
 71
     1
 72
     1
  1
2
  7
SLDTEXTSTYLE0
 11
6.123233995736766E-17
 21
1.0
 31
0.0
 73
     1
 44
1.0
  0
ENDBLK
  5
30D
330
30B
100
AcDbEntity
  8
0
100
AcDbBlockEnd
  0
BLOCK
  5
319
330
318
100
AcDbEntity
  8
0
100
AcDbBlockBegin
  2
_D_9
 70
     0
 10
0.0
 20
0.0
 30
0.0
  3
_D_9
  1

  0
SOLID
  5
31B
330
318
100
AcDbEntity
  8
0
  6
Continuous
 62
     7
370
    18
100
AcDbTrace
 10
293.0670523123
 20
177.6976622882
 30
0.0
 11
289.9953895734
 21
179.0114948567
 31
0.0
 12
289.7425225696
 22
178.0274652441
 32
0.0
 13
289.7425225696
 23
178.0274652441
 33
0.0
  0
LINE
  5
31C
330
318
100
AcDbEntity
  8
0
  6
Continuous
 62
     7
370
     0
100
AcDbLine
 10
293.0670523123
 20
177.6976622882
 30
0.0
 11
209.4883734007
 21
199.1749530578
 31
0.0
  0
LINE
  5
31D
330
318
100
AcDbEntity
  8
0
  6
Continuous
 62
     7
370
     0
100
AcDbLine
 10
293.0670523123
 20
177.6976622882
 30
0.0
 11
305.8129476877
 21
174.4223377118
 31
0.0
  0
MTEXT
  5
31E
330
318
100
AcDbEntity
  8
0
  6
Continuous
 62
     7
370
    18
100
AcDbMText
 10
210.6109420726
 20
203.5434186896
 30
0.0
 40
3.5
 41
0.0
 71
     1
 72
     1
  1
1/4
  7
SLDTEXTSTYLE0
 11
0.9685330832343313
 21
-0.2488848462253173
 31
0.0
 73
     1
 44
1.0
  0
ENDBLK
  5
31A
330
318
100
AcDbEntity
  8
0
100
AcDbBlockEnd
  0
BLOCK
  5
321
330
320
100
AcDbEntity
  8
0
100
AcDbBlockBegin
  2
_D_10
 70
     0
 10
0.0
 20
0.0
 30
0.0
  3
_D_10
  1

  0
SOLID
  5
323
330
320
100
AcDbEntity
  8
0
  6
Continuous
 62
     7
370
    18
100
AcDbTrace
 10
512.64
 20
167.06
 30
0.0
 11
513.148
 21
170.362
 31
0.0
 12
512.132
 22
170.362
 32
0.0
 13
512.132
 23
170.362
 33
0.0
  0
SOLID
  5
324
330
320
100
AcDbEntity
  8
0
  6
Continuous
 62
     7
370
    18
100
AcDbTrace
 10
512.64
 20
185.06
 30
0.0
 11
512.132
 21
181.758
 31
0.0
 12
513.148
 22
181.758
 32
0.0
 13
513.148
 23
181.758
 33
0.0
  0
LINE
  5
325
330
320
100
AcDbEntity
  8
0
  6
Continuous
 62
     7
370
     0
100
AcDbLine
 10
464.44
 20
167.06
 30
0.0
 11
513.64
 21
167.06
 31
0.0
  0
LINE
  5
326
330
320
100
AcDbEntity
  8
0
  6
Continuous
 62
     7
370
     0
100
AcDbLine
 10
464.44
 20
185.06
 30
0.0
 11
513.64
 21
185.06
 31
0.0
  0
LINE
  5
327
330
320
100
AcDbEntity
  8
0
  6
Continuous
 62
     7
370
     0
100
AcDbLine
 10
512.64
 20
167.06
 30
0.0
 11
512.64
 21
161.822
 31
0.0
  0
LINE
  5
328
330
320
100
AcDbEntity
  8
0
  6
Continuous
 62
     7
370
     0
100
AcDbLine
 10
512.64
 20
160.298
 30
0.0
 11
512.64
 21
152.2133521732
 31
0.0
  0
LINE
  5
329
330
320
100
AcDbEntity
  8
0
  6
Continuous
 62
     7
370
     0
100
AcDbLine
 10
512.64
 20
167.06
 30
0.0
 11
512.64
 21
185.06
 31
0.0
  0
MTEXT
  5
32A
330
320
100
AcDbEntity
  8
0
  6
Continuous
 62
     7
370
    18
100
AcDbMText
 10
508.1282629108
 20
152.2133521732
 30
0.0
 40
3.5
 41
0.0
 71
     1
 72
     1
  1
%%c
  7
SLDTEXTSTYLE0
 11
6.123233995736766E-17
 21
1.0
 31
0.0
 73
     1
 44
1.0
  0
MTEXT
  5
32B
330
320
100
AcDbEntity
  8
0
  6
Continuous
 62
     7
370
    18
100
AcDbMText
 10
508.0747907341
 20
157.4917895715
 30
0.0
 40
3.5
 41
0.0
 71
     1
 72
     1
  1
18
  7
SLDTEXTSTYLE0
 11
6.123233995736766E-17
 21
1.0
 31
0.0
 73
     1
 44
1.0
  0
ENDBLK
  5
322
330
320
100
AcDbEntity
  8
0
100
AcDbBlockEnd
  0
BLOCK
  5
32E
330
32D
100
AcDbEntity
  8
0
100
AcDbBlockBegin
  2
_D_11
 70
     0
 10
0.0
 20
0.0
 30
0.0
  3
_D_11
  1

  0
SOLID
  5
330
330
32D
100
AcDbEntity
  8
0
  6
Continuous
 62
     7
370
    18
100
AcDbTrace
 10
524.64
 20
191.06
 30
0.0
 11
524.132
 21
187.758
 31
0.0
 12
525.148
 22
187.758
 32
0.0
 13
525.148
 23
187.758
 33
0.0
  0
SOLID
  5
331
330
32D
100
AcDbEntity
  8
0
  6
Continuous
 62
     7
370
    18
100
AcDbTrace
 10
524.64
 20
161.06
 30
0.0
 11
525.148
 21
164.362
 31
0.0
 12
524.132
 22
164.362
 32
0.0
 13
524.132
 23
164.362
 33
0.0
  0
LINE
  5
332
330
32D
100
AcDbEntity
  8
0
  6
Continuous
 62
     7
370
     0
100
AcDbLine
 10
347.94
 20
191.06
 30
0.0
 11
525.64
 21
191.06
 31
0.0
  0
LINE
  5
333
330
32D
100
AcDbEntity
  8
0
  6
Continuous
 62
     7
370
     0
100
AcDbLine
 10
347.94
 20
161.06
 30
0.0
 11
525.64
 21
161.06
 31
0.0
  0
LINE
  5
334
330
32D
100
AcDbEntity
  8
0
  6
Continuous
 62
     7
370
     0
100
AcDbLine
 10
524.64
 20
191.06
 30
0.0
 11
524.64
 21
161.06
 31
0.0
  0
MTEXT
  5
335
330
32D
100
AcDbEntity
  8
0
  6
Continuous
 62
     7
370
    18
100
AcDbMText
 10
520.1282629108
 20
170.8346698745
 30
0.0
 40
3.5
 41
0.0
 71
     1
 72
     1
  1
%%c
  7
SLDTEXTSTYLE0
 11
-7.044195017643634E-15
 21
1.0
 31
0.0
 73
     1
 44
1.0
  0
MTEXT
  5
336
330
32D
100
AcDbEntity
  8
0
  6
Continuous
 62
     7
370
    18
100
AcDbMText
 10
520.0747907341
 20
176.1131072728
 30
0.0
 40
3.5
 41
0.0
 71
     1
 72
     1
  1
30
  7
SLDTEXTSTYLE0
 11
-7.044195017643634E-15
 21
1.0
 31
0.0
 73
     1
 44
1.0
  0
ENDBLK
  5
32F
330
32D
100
AcDbEntity
  8
0
100
AcDbBlockEnd
  0
BLOCK
  5
339
330
338
100
AcDbEntity
  8
0
100
AcDbBlockBegin
  2
_D_12
 70
     0
 10
0.0
 20
0.0
 30
0.0
  3
_D_12
  1

  0
SOLID
  5
33B
330
338
100
AcDbEntity
  8
0
  6
Continuous
 62
     7
370
    18
100
AcDbTrace
 10
344.94
 20
148.56
 30
0.0
 11
348.242
 21
148.052
 31
0.0
 12
348.242
 22
149.068
 32
0.0
 13
348.242
 23
149.068
 33
0.0
  0
SOLID
  5
33C
330
338
100
AcDbEntity
  8
0
  6
Continuous
 62
     7
370
    18
100
AcDbTrace
 10
468.94
 20
148.56
 30
0.0
 11
465.638
 21
149.068
 31
0.0
 12
465.638
 22
148.052
 32
0.0
 13
465.638
 23
148.052
 33
0.0
  0
LINE
  5
33D
330
338
100
AcDbEntity
  8
0
  6
Continuous
 62
     7
370
     0
100
AcDbLine
 10
344.94
 20
157.56
 30
0.0
 11
344.94
 21
147.56
 31
0.0
  0
LINE
  5
33E
330
338
100
AcDbEntity
  8
0
  6
Continuous
 62
     7
370
     0
100
AcDbLine
 10
468.94
 20
171.7448831091
 30
0.0
 11
468.94
 21
147.56
 31
0.0
  0
LINE
  5
33F
330
338
100
AcDbEntity
  8
0
  6
Continuous
 62
     7
370
     0
100
AcDbLine
 10
344.94
 20
148.56
 30
0.0
 11
468.94
 21
148.56
 31
0.0
  0
LINE
  5
340
330
338
100
AcDbEntity
  8
0
  6
Continuous
 62
     7
370
     0
100
AcDbLine
 10
468.94
 20
148.56
 30
0.0
 11
640.4775033639
 21
148.56
 31
0.0
  0
MTEXT
  5
341
330
338
100
AcDbEntity
  8
0
  6
Continuous
 62
     7
370
    18
100
AcDbMText
 10
632.7191700162
 20
153.0717369146
 30
0.0
 40
3.5
 41
0.0
 71
     1
 72
     1
  1
124
  7
SLDTEXTSTYLE0
 73
     1
 44
1.0
  0
ENDBLK
  5
33A
330
338
100
AcDbEntity
  8
0
100
AcDbBlockEnd
  0
BLOCK
  5
343
330
342
100
AcDbEntity
  8
0
100
AcDbBlockBegin
  2
SW_CENTERMARKSYMBOL_1
 70
     0
 10
0.0
 20
0.0
 30
0.0
  3
SW_CENTERMARKSYMBOL_1
  1

  0
LINE
  5
345
330
342
100
AcDbEntity
  8
0
  6
Continuous
 62
     0
370
    18
100
AcDbLine
 10
0.0
 20
0.0
 30
0.0
 11
0.0
 21
2.5
 31
0.0
  0
LINE
  5
346
330
342
100
AcDbEntity
  8
0
  6
Continuous
 62
     0
370
    18
100
AcDbLine
 10
0.0
 20
0.0
 30
0.0
 11
-2.5
 21
0.0
 31
0.0
  0
LINE
  5
347
330
342
100
AcDbEntity
  8
0
  6
Continuous
 62
     0
370
    18
100
AcDbLine
 10
0.0
 20
0.0
 30
0.0
 11
0.0
 21
-2.5
 31
0.0
  0
LINE
  5
348
330
342
100
AcDbEntity
  8
0
  6
Continuous
 62
     0
370
    18
100
AcDbLine
 10
0.0
 20
0.0
 30
0.0
 11
2.5
 21
0.0
 31
0.0
  0
LINE
  5
349
330
342
100
AcDbEntity
  8
0
  6
Continuous
 62
     0
370
    18
100
AcDbLine
 10
0.0
 20
5.0
 30
0.0
 11
0.0
 21
12.5
 31
0.0
  0
LINE
  5
34A
330
342
100
AcDbEntity
  8
0
  6
Continuous
 62
     0
370
    18
100
AcDbLine
 10
-5.0
 20
0.0
 30
0.0
 11
-12.5
 21
0.0
 31
0.0
  0
LINE
  5
34B
330
342
100
AcDbEntity
  8
0
  6
Continuous
 62
     0
370
    18
100
AcDbLine
 10
0.0
 20
-5.0
 30
0.0
 11
0.0
 21
-12.5
 31
0.0
  0
LINE
  5
34C
330
342
100
AcDbEntity
  8
0
  6
Continuous
 62
     0
370
    18
100
AcDbLine
 10
5.0
 20
0.0
 30
0.0
 11
12.5
 21
0.0
 31
0.0
  0
ENDBLK
  5
344
330
342
100
AcDbEntity
  8
0
100
AcDbBlockEnd
  0
BLOCK
  5
34F
330
34E
100
AcDbEntity
  8
0
100
AcDbBlockBegin
  2
SW_CENTERMARKSYMBOL_2
 70
     0
 10
0.0
 20
0.0
 30
0.0
  3
SW_CENTERMARKSYMBOL_2
  1

  0
LINE
  5
351
330
34E
100
AcDbEntity
  8
0
  6
Continuous
 62
     0
370
    18
100
AcDbLine
 10
0.0
 20
0.0
 30
0.0
 11
0.0
 21
2.5
 31
0.0
  0
LINE
  5
352
330
34E
100
AcDbEntity
  8
0
  6
Continuous
 62
     0
370
    18
100
AcDbLine
 10
0.0
 20
0.0
 30
0.0
 11
-2.5
 21
0.0
 31
0.0
  0
LINE
  5
353
330
34E
100
AcDbEntity
  8
0
  6
Continuous
 62
     0
370
    18
100
AcDbLine
 10
0.0
 20
0.0
 30
0.0
 11
0.0
 21
-2.5
 31
0.0
  0
LINE
  5
354
330
34E
100
AcDbEntity
  8
0
  6
Continuous
 62
     0
370
    18
100
AcDbLine
 10
0.0
 20
0.0
 30
0.0
 11
2.5
 21
0.0
 31
0.0
  0
LINE
  5
355
330
34E
100
AcDbEntity
  8
0
  6
Continuous
 62
     0
370
    18
100
AcDbLine
 10
0.0
 20
5.0
 30
0.0
 11
0.0
 21
12.5
 31
0.0
  0
LINE
  5
356
330
34E
100
AcDbEntity
  8
0
  6
Continuous
 62
     0
370
    18
100
AcDbLine
 10
-5.0
 20
0.0
 30
0.0
 11
-12.5
 21
0.0
 31
0.0
  0
LINE
  5
357
330
34E
100
AcDbEntity
  8
0
  6
Continuous
 62
     0
370
    18
100
AcDbLine
 10
0.0
 20
-5.0
 30
0.0
 11
0.0
 21
-12.5
 31
0.0
  0
LINE
  5
358
330
34E
100
AcDbEntity
  8
0
  6
Continuous
 62
     0
370
    18
100
AcDbLine
 10
5.0
 20
0.0
 30
0.0
 11
12.5
 21
0.0
 31
0.0
  0
ENDBLK
  5
350
330
34E
100
AcDbEntity
  8
0
100
AcDbBlockEnd
  0
BLOCK
  5
489
330
488
100
AcDbEntity
  8
0
100
AcDbBlockBegin
  2
_D_13
 70
     0
 10
0.0
 20
0.0
 30
0.0
  3
_D_13
  1

  0
SOLID
  5
48B
330
488
100
AcDbEntity
  8
0
  6
Continuous
 62
     7
370
    18
100
AcDbTrace
 10
146.94
 20
42.66
 30
0.0
 11
150.242
 21
42.152
 31
0.0
 12
150.242
 22
43.168
 32
0.0
 13
150.242
 23
43.168
 33
0.0
  0
SOLID
  5
48C
330
488
100
AcDbEntity
  8
0
  6
Continuous
 62
     7
370
    18
100
AcDbTrace
 10
189.94
 20
42.66
 30
0.0
 11
186.638
 21
43.168
 31
0.0
 12
186.638
 22
42.152
 32
0.0
 13
186.638
 23
42.152
 33
0.0
  0
LINE
  5
48D
330
488
100
AcDbEntity
  8
0
  6
Continuous
 62
     7
370
     0
100
AcDbLine
 10
146.94
 20
54.56
 30
0.0
 11
146.94
 21
41.66
 31
0.0
  0
LINE
  5
48E
330
488
100
AcDbEntity
  8
0
  6
Continuous
 62
     7
370
     0
100
AcDbLine
 10
189.94
 20
56.56
 30
0.0
 11
189.94
 21
41.66
 31
0.0
  0
LINE
  5
48F
330
488
100
AcDbEntity
  8
0
  6
Continuous
 62
     7
370
     0
100
AcDbLine
 10
146.94
 20
42.66
 30
0.0
 11
189.94
 21
42.66
 31
0.0
  0
MTEXT
  5
490
330
488
100
AcDbEntity
  8
0
  6
Continuous
 62
     7
370
    18
100
AcDbMText
 10
165.8538888065
 20
47.1717369146
 30
0.0
 40
3.5
 41
0.0
 71
     1
 72
     1
  1
43
  7
SLDTEXTSTYLE0
 73
     1
 44
1.0
  0
ENDBLK
  5
48A
330
488
100
AcDbEntity
  8
0
100
AcDbBlockEnd
  0
BLOCK
  5
494
330
493
100
AcDbEntity
  8
0
100
AcDbBlockBegin
  2
_D_14
 70
     0
 10
0.0
 20
0.0
 30
0.0
  3
_D_14
  1

  0
SOLID
  5
496
330
493
100
AcDbEntity
  8
0
  6
Continuous
 62
     7
370
    18
100
AcDbTrace
 10
135.0045560977
 20
102.9079979092
 30
0.0
 11
132.1937706124
 21
101.102242401
 31
0.0
 12
132.8665195737
 22
100.3408851688
 32
0.0
 13
132.8665195737
 23
100.3408851688
 33
0.0
  0
LINE
  5
497
330
493
100
AcDbEntity
  8
0
  6
Continuous
 62
     7
370
     0
100
AcDbLine
 10
135.0045560977
 20
102.9079979092
 30
0.0
 11
119.6190815866
 21
89.3131155614
 31
0.0
  0
LINE
  5
498
330
493
100
AcDbEntity
  8
0
  6
Continuous
 62
     7
370
     0
100
AcDbLine
 10
135.0045560977
 20
102.9079979092
 30
0.0
 11
139.8754439023
 21
107.2120020908
 31
0.0
  0
MTEXT
  5
499
330
493
100
AcDbEntity
  8
0
  6
Continuous
 62
     7
370
    18
100
AcDbMText
 10
116.653467144
 20
92.6693333094
 30
0.0
 40
3.5
 41
0.0
 71
     1
 72
     1
  1
%%c
  7
SLDTEXTSTYLE0
 11
0.7493673545468161
 21
0.6621544894807453
 31
0.0
 73
     1
 44
1.0
  0
MTEXT
  5
49A
330
493
100
AcDbEntity
  8
0
  6
Continuous
 62
     7
370
    18
100
AcDbMText
 10
120.5735489715
 20
96.2045446337
 30
0.0
 40
3.5
 41
0.0
 71
     1
 72
     1
  1
6,5
  7
SLDTEXTSTYLE0
 11
0.7493673545468161
 21
0.6621544894807453
 31
0.0
 73
     1
 44
1.0
  0
ENDBLK
  5
495
330
493
100
AcDbEntity
  8
0
100
AcDbBlockEnd
  0
BLOCK
  5
49D
330
49C
100
AcDbEntity
  8
0
100
AcDbBlockBegin
  2
_D_15
 70
     0
 10
0.0
 20
0.0
 30
0.0
  3
_D_15
  1

  0
SOLID
  5
49F
330
49C
100
AcDbEntity
  8
0
  6
Continuous
 62
     7
370
    18
100
AcDbTrace
 10
137.44
 20
124.06
 30
0.0
 11
140.742
 21
123.552
 31
0.0
 12
140.742
 22
124.568
 32
0.0
 13
140.742
 23
124.568
 33
0.0
  0
SOLID
  5
4A0
330
49C
100
AcDbEntity
  8
0
  6
Continuous
 62
     7
370
    18
100
AcDbTrace
 10
156.44
 20
124.06
 30
0.0
 11
153.138
 21
124.568
 31
0.0
 12
153.138
 22
123.552
 32
0.0
 13
153.138
 23
123.552
 33
0.0
  0
LINE
  5
4A1
330
49C
100
AcDbEntity
  8
0
  6
Continuous
 62
     7
370
     0
100
AcDbLine
 10
137.44
 20
111.81
 30
0.0
 11
137.44
 21
125.06
 31
0.0
  0
LINE
  5
4A2
330
49C
100
AcDbEntity
  8
0
  6
Continuous
 62
     7
370
     0
100
AcDbLine
 10
156.44
 20
111.81
 30
0.0
 11
156.44
 21
125.06
 31
0.0
  0
LINE
  5
4A3
330
49C
100
AcDbEntity
  8
0
  6
Continuous
 62
     7
370
     0
100
AcDbLine
 10
137.44
 20
124.06
 30
0.0
 11
156.44
 21
124.06
 31
0.0
  0
MTEXT
  5
4A4
330
49C
100
AcDbEntity
  8
0
  6
Continuous
 62
     7
370
    18
100
AcDbMText
 10
144.3538888065
 20
128.5717369146
 30
0.0
 40
3.5
 41
0.0
 71
     1
 72
     1
  1
19
  7
SLDTEXTSTYLE0
 73
     1
 44
1.0
  0
ENDBLK
  5
49E
330
49C
100
AcDbEntity
  8
0
100
AcDbBlockEnd
  0
BLOCK
  5
4A7
330
4A6
100
AcDbEntity
  8
0
100
AcDbBlockBegin
  2
_D_16
 70
     0
 10
0.0
 20
0.0
 30
0.0
  3
_D_16
  1

  0
SOLID
  5
4A9
330
4A6
100
AcDbEntity
  8
0
  6
Continuous
 62
     7
370
    18
100
AcDbTrace
 10
63.94
 20
105.06
 30
0.0
 11
63.432
 21
101.758
 31
0.0
 12
64.448
 22
101.758
 32
0.0
 13
64.448
 23
101.758
 33
0.0
  0
SOLID
  5
4AA
330
4A6
100
AcDbEntity
  8
0
  6
Continuous
 62
     7
370
    18
100
AcDbTrace
 10
63.94
 20
65.06
 30
0.0
 11
64.448
 21
68.362
 31
0.0
 12
63.432
 22
68.362
 32
0.0
 13
63.432
 23
68.362
 33
0.0
  0
LINE
  5
4AB
330
4A6
100
AcDbEntity
  8
0
  6
Continuous
 62
     7
370
     0
100
AcDbLine
 10
130.69
 20
105.06
 30
0.0
 11
62.94
 21
105.06
 31
0.0
  0
LINE
  5
4AC
330
4A6
100
AcDbEntity
  8
0
  6
Continuous
 62
     7
370
     0
100
AcDbLine
 10
130.69
 20
65.06
 30
0.0
 11
62.94
 21
65.06
 31
0.0
  0
LINE
  5
4AD
330
4A6
100
AcDbEntity
  8
0
  6
Continuous
 62
     7
370
     0
100
AcDbLine
 10
63.94
 20
105.06
 30
0.0
 11
63.94
 21
65.06
 31
0.0
  0
MTEXT
  5
4AE
330
4A6
100
AcDbEntity
  8
0
  6
Continuous
 62
     7
370
    18
100
AcDbMText
 10
59.4282630854
 20
82.4738888065
 30
0.0
 40
3.5
 41
0.0
 71
     1
 72
     1
  1
40
  7
SLDTEXTSTYLE0
 11
-7.044195017643634E-15
 21
1.0
 31
0.0
 73
     1
 44
1.0
  0
ENDBLK
  5
4A8
330
4A6
100
AcDbEntity
  8
0
100
AcDbBlockEnd
  0
BLOCK
  5
4B2
330
4B1
100
AcDbEntity
  8
0
100
AcDbBlockBegin
  2
_D_17
 70
     0
 10
0.0
 20
0.0
 30
0.0
  3
_D_17
  1

  0
SOLID
  5
4B4
330
4B1
100
AcDbEntity
  8
0
  6
Continuous
 62
     7
370
    18
100
AcDbTrace
 10
156.44
 20
124.06
 30
0.0
 11
159.742
 21
123.552
 31
0.0
 12
159.742
 22
124.568
 32
0.0
 13
159.742
 23
124.568
 33
0.0
  0
SOLID
  5
4B5
330
4B1
100
AcDbEntity
  8
0
  6
Continuous
 62
     7
370
    18
100
AcDbTrace
 10
189.94
 20
124.06
 30
0.0
 11
186.638
 21
124.568
 31
0.0
 12
186.638
 22
123.552
 32
0.0
 13
186.638
 23
123.552
 33
0.0
  0
LINE
  5
4B6
330
4B1
100
AcDbEntity
  8
0
  6
Continuous
 62
     7
370
     0
100
AcDbLine
 10
156.44
 20
111.81
 30
0.0
 11
156.44
 21
125.06
 31
0.0
  0
LINE
  5
4B7
330
4B1
100
AcDbEntity
  8
0
  6
Continuous
 62
     7
370
     0
100
AcDbLine
 10
189.94
 20
113.56
 30
0.0
 11
189.94
 21
125.06
 31
0.0
  0
LINE
  5
4B8
330
4B1
100
AcDbEntity
  8
0
  6
Continuous
 62
     7
370
     0
100
AcDbLine
 10
156.44
 20
124.06
 30
0.0
 11
189.94
 21
124.06
 31
0.0
  0
MTEXT
  5
4B9
330
4B1
100
AcDbEntity
  8
0
  6
Continuous
 62
     7
370
    18
100
AcDbMText
 10
168.6643054695
 20
128.5717369146
 30
0.0
 40
3.5
 41
0.0
 71
     1
 72
     1
  1
33,5
  7
SLDTEXTSTYLE0
 73
     1
 44
1.0
  0
ENDBLK
  5
4B3
330
4B1
100
AcDbEntity
  8
0
100
AcDbBlockEnd
  0
BLOCK
  5
4BB
330
4BA
100
AcDbEntity
  8
0
100
AcDbBlockBegin
  2
SW_CENTERMARKSYMBOL_3
 70
     0
 10
0.0
 20
0.0
 30
0.0
  3
SW_CENTERMARKSYMBOL_3
  1

  0
LINE
  5
4BD
330
4BA
100
AcDbEntity
  8
0
  6
Continuous
 62
     0
370
    18
100
AcDbLine
 10
0.0
 20
0.0
 30
0.0
 11
0.0
 21
2.5
 31
0.0
  0
LINE
  5
4BE
330
4BA
100
AcDbEntity
  8
0
  6
Continuous
 62
     0
370
    18
100
AcDbLine
 10
0.0
 20
0.0
 30
0.0
 11
-2.5
 21
0.0
 31
0.0
  0
LINE
  5
4BF
330
4BA
100
AcDbEntity
  8
0
  6
Continuous
 62
     0
370
    18
100
AcDbLine
 10
0.0
 20
0.0
 30
0.0
 11
0.0
 21
-2.5
 31
0.0
  0
LINE
  5
4C0
330
4BA
100
AcDbEntity
  8
0
  6
Continuous
 62
     0
370
    18
100
AcDbLine
 10
0.0
 20
0.0
 30
0.0
 11
2.5
 21
0.0
 31
0.0
  0
LINE
  5
4C1
330
4BA
100
AcDbEntity
  8
0
  6
Continuous
 62
     0
370
    18
100
AcDbLine
 10
0.0
 20
5.0
 30
0.0
 11
0.0
 21
5.75
 31
0.0
  0
LINE
  5
4C2
330
4BA
100
AcDbEntity
  8
0
  6
Continuous
 62
     0
370
    18
100
AcDbLine
 10
-5.0
 20
0.0
 30
0.0
 11
-5.75
 21
0.0
 31
0.0
  0
LINE
  5
4C3
330
4BA
100
AcDbEntity
  8
0
  6
Continuous
 62
     0
370
    18
100
AcDbLine
 10
0.0
 20
-5.0
 30
0.0
 11
0.0
 21
-5.75
 31
0.0
  0
LINE
  5
4C4
330
4BA
100
AcDbEntity
  8
0
  6
Continuous
 62
     0
370
    18
100
AcDbLine
 10
5.0
 20
0.0
 30
0.0
 11
5.75
 21
0.0
 31
0.0
  0
ENDBLK
  5
4BC
330
4BA
100
AcDbEntity
  8
0
100
AcDbBlockEnd
  0
BLOCK
  5
4C7
330
4C6
100
AcDbEntity
  8
0
100
AcDbBlockBegin
  2
SW_CENTERMARKSYMBOL_4
 70
     0
 10
0.0
 20
0.0
 30
0.0
  3
SW_CENTERMARKSYMBOL_4
  1

  0
LINE
  5
4C9
330
4C6
100
AcDbEntity
  8
0
  6
Continuous
 62
     0
370
    18
100
AcDbLine
 10
0.0
 20
0.0
 30
0.0
 11
0.0
 21
2.5
 31
0.0
  0
LINE
  5
4CA
330
4C6
100
AcDbEntity
  8
0
  6
Continuous
 62
     0
370
    18
100
AcDbLine
 10
0.0
 20
0.0
 30
0.0
 11
-2.5
 21
0.0
 31
0.0
  0
LINE
  5
4CB
330
4C6
100
AcDbEntity
  8
0
  6
Continuous
 62
     0
370
    18
100
AcDbLine
 10
0.0
 20
0.0
 30
0.0
 11
0.0
 21
-2.5
 31
0.0
  0
LINE
  5
4CC
330
4C6
100
AcDbEntity
  8
0
  6
Continuous
 62
     0
370
    18
100
AcDbLine
 10
0.0
 20
0.0
 30
0.0
 11
2.5
 21
0.0
 31
0.0
  0
LINE
  5
4CD
330
4C6
100
AcDbEntity
  8
0
  6
Continuous
 62
     0
370
    18
100
AcDbLine
 10
0.0
 20
5.0
 30
0.0
 11
0.0
 21
5.75
 31
0.0
  0
LINE
  5
4CE
330
4C6
100
AcDbEntity
  8
0
  6
Continuous
 62
     0
370
    18
100
AcDbLine
 10
-5.0
 20
0.0
 30
0.0
 11
-5.75
 21
0.0
 31
0.0
  0
LINE
  5
4CF
330
4C6
100
AcDbEntity
  8
0
  6
Continuous
 62
     0
370
    18
100
AcDbLine
 10
0.0
 20
-5.0
 30
0.0
 11
0.0
 21
-5.75
 31
0.0
  0
LINE
  5
4D0
330
4C6
100
AcDbEntity
  8
0
  6
Continuous
 62
     0
370
    18
100
AcDbLine
 10
5.0
 20
0.0
 30
0.0
 11
5.75
 21
0.0
 31
0.0
  0
ENDBLK
  5
4C8
330
4C6
100
AcDbEntity
  8
0
100
AcDbBlockEnd
  0
BLOCK
  5
4D3
330
4D2
100
AcDbEntity
  8
0
100
AcDbBlockBegin
  2
SW_CENTERMARKSYMBOL_5
 70
     0
 10
0.0
 20
0.0
 30
0.0
  3
SW_CENTERMARKSYMBOL_5
  1

  0
LINE
  5
4D5
330
4D2
100
AcDbEntity
  8
0
  6
Continuous
 62
     0
370
    18
100
AcDbLine
 10
0.0
 20
0.0
 30
0.0
 11
0.0
 21
2.5
 31
0.0
  0
LINE
  5
4D6
330
4D2
100
AcDbEntity
  8
0
  6
Continuous
 62
     0
370
    18
100
AcDbLine
 10
0.0
 20
0.0
 30
0.0
 11
-2.5
 21
0.0
 31
0.0
  0
LINE
  5
4D7
330
4D2
100
AcDbEntity
  8
0
  6
Continuous
 62
     0
370
    18
100
AcDbLine
 10
0.0
 20
0.0
 30
0.0
 11
0.0
 21
-2.5
 31
0.0
  0
LINE
  5
4D8
330
4D2
100
AcDbEntity
  8
0
  6
Continuous
 62
     0
370
    18
100
AcDbLine
 10
0.0
 20
0.0
 30
0.0
 11
2.5
 21
0.0
 31
0.0
  0
LINE
  5
4D9
330
4D2
100
AcDbEntity
  8
0
  6
Continuous
 62
     0
370
    18
100
AcDbLine
 10
0.0
 20
5.0
 30
0.0
 11
0.0
 21
5.75
 31
0.0
  0
LINE
  5
4DA
330
4D2
100
AcDbEntity
  8
0
  6
Continuous
 62
     0
370
    18
100
AcDbLine
 10
-5.0
 20
0.0
 30
0.0
 11
-5.75
 21
0.0
 31
0.0
  0
LINE
  5
4DB
330
4D2
100
AcDbEntity
  8
0
  6
Continuous
 62
     0
370
    18
100
AcDbLine
 10
0.0
 20
-5.0
 30
0.0
 11
0.0
 21
-5.75
 31
0.0
  0
LINE
  5
4DC
330
4D2
100
AcDbEntity
  8
0
  6
Continuous
 62
     0
370
    18
100
AcDbLine
 10
5.0
 20
0.0
 30
0.0
 11
5.75
 21
0.0
 31
0.0
  0
ENDBLK
  5
4D4
330
4D2
100
AcDbEntity
  8
0
100
AcDbBlockEnd
  0
BLOCK
  5
4DF
330
4DE
100
AcDbEntity
  8
0
100
AcDbBlockBegin
  2
SW_CENTERMARKSYMBOL_6
 70
     0
 10
0.0
 20
0.0
 30
0.0
  3
SW_CENTERMARKSYMBOL_6
  1

  0
LINE
  5
4E1
330
4DE
100
AcDbEntity
  8
0
  6
Continuous
 62
     0
370
    18
100
AcDbLine
 10
0.0
 20
0.0
 30
0.0
 11
0.0
 21
2.5
 31
0.0
  0
LINE
  5
4E2
330
4DE
100
AcDbEntity
  8
0
  6
Continuous
 62
     0
370
    18
100
AcDbLine
 10
0.0
 20
0.0
 30
0.0
 11
-2.5
 21
0.0
 31
0.0
  0
LINE
  5
4E3
330
4DE
100
AcDbEntity
  8
0
  6
Continuous
 62
     0
370
    18
100
AcDbLine
 10
0.0
 20
0.0
 30
0.0
 11
0.0
 21
-2.5
 31
0.0
  0
LINE
  5
4E4
330
4DE
100
AcDbEntity
  8
0
  6
Continuous
 62
     0
370
    18
100
AcDbLine
 10
0.0
 20
0.0
 30
0.0
 11
2.5
 21
0.0
 31
0.0
  0
LINE
  5
4E5
330
4DE
100
AcDbEntity
  8
0
  6
Continuous
 62
     0
370
    18
100
AcDbLine
 10
0.0
 20
5.0
 30
0.0
 11
0.0
 21
5.75
 31
0.0
  0
LINE
  5
4E6
330
4DE
100
AcDbEntity
  8
0
  6
Continuous
 62
     0
370
    18
100
AcDbLine
 10
-5.0
 20
0.0
 30
0.0
 11
-5.75
 21
0.0
 31
0.0
  0
LINE
  5
4E7
330
4DE
100
AcDbEntity
  8
0
  6
Continuous
 62
     0
370
    18
100
AcDbLine
 10
0.0
 20
-5.0
 30
0.0
 11
0.0
 21
-5.75
 31
0.0
  0
LINE
  5
4E8
330
4DE
100
AcDbEntity
  8
0
  6
Continuous
 62
     0
370
    18
100
AcDbLine
 10
5.0
 20
0.0
 30
0.0
 11
5.75
 21
0.0
 31
0.0
  0
ENDBLK
  5
4E0
330
4DE
100
AcDbEntity
  8
0
100
AcDbBlockEnd
  0
ENDSEC
  0
SECTION
  2
ENTITIES
  0
LINE
  5
74
330
1F
100
AcDbEntity
  8
0
  6
Continuous
 62
     7
370
    50
100
AcDbLine
 10
230.0
 20
14.25
 30
0.0
 11
410.0
 21
14.25
 31
0.0
  0
LINE
  5
75
330
1F
100
AcDbEntity
  8
0
  6
Continuous
 62
     7
370
    50
100
AcDbLine
 10
410.0
 20
48.25
 30
0.0
 11
230.0
 21
48.25
 31
0.0
  0
LINE
  5
76
330
1F
100
AcDbEntity
  8
0
  6
Continuous
 62
     7
370
    50
100
AcDbLine
 10
230.0
 20
65.25
 30
0.0
 11
410.0
 21
65.25
 31
0.0
  0
LINE
  5
77
330
1F
100
AcDbEntity
  8
0
  6
Continuous
 62
     7
370
    50
100
AcDbLine
 10
256.9909524338
 20
48.25
 30
0.0
 11
256.9909524338
 21
10.0
 31
0.0
  0
LINE
  5
78
330
1F
100
AcDbEntity
  8
0
  6
Continuous
 62
     7
370
    50
100
AcDbLine
 10
328.8
 20
31.25
 30
0.0
 11
230.0
 21
31.25
 31
0.0
  0
LINE
  5
79
330
1F
100
AcDbEntity
  8
0
  6
Continuous
 62
     7
370
    50
100
AcDbLine
 10
328.8
 20
35.5
 30
0.0
 11
230.0
 21
35.5
 31
0.0
  0
LINE
  5
7A
330
1F
100
AcDbEntity
  8
0
  6
Continuous
 62
     7
370
    50
100
AcDbLine
 10
328.8
 20
39.75
 30
0.0
 11
230.0
 21
39.75
 31
0.0
  0
LINE
  5
7B
330
1F
100
AcDbEntity
  8
0
  6
Continuous
 62
     7
370
    50
100
AcDbLine
 10
328.8
 20
44.0
 30
0.0
 11
230.0
 21
44.0
 31
0.0
  0
LINE
  5
7C
330
1F
100
AcDbEntity
  8
0
  6
Continuous
 62
     7
370
    50
100
AcDbLine
 10
284.6
 20
10.0
 30
0.0
 11
284.6
 21
48.25
 31
0.0
  0
LINE
  5
7D
330
1F
100
AcDbEntity
  8
0
  6
Continuous
 62
     7
370
    50
100
AcDbLine
 10
230.0
 20
65.25
 30
0.0
 11
230.0
 21
10.0
 31
0.0
  0
LINE
  5
7E
330
1F
100
AcDbEntity
  8
0
  6
Continuous
 62
     7
370
    50
100
AcDbLine
 10
242.0703737145
 20
48.25
 30
0.0
 11
242.0703737145
 21
10.0
 31
0.0
  0
LINE
  5
7F
330
1F
100
AcDbEntity
  8
0
  6
Continuous
 62
     7
370
    50
100
AcDbLine
 10
263.8
 20
48.25
 30
0.0
 11
263.8
 21
65.25
 31
0.0
  0
LINE
  5
80
330
1F
100
AcDbEntity
  8
0
  6
Continuous
 62
     7
370
    50
100
AcDbLine
 10
274.3989261635
 20
48.25
 30
0.0
 11
274.3989261635
 21
10.0
 31
0.0
  0
LINE
  5
81
330
1F
100
AcDbEntity
  8
0
  6
Continuous
 62
     7
370
    50
100
AcDbLine
 10
295.0
 20
31.25
 30
0.0
 11
295.0
 21
48.25
 31
0.0
  0
LINE
  5
82
330
1F
100
AcDbEntity
  8
0
  6
Continuous
 62
     7
370
    50
100
AcDbLine
 10
284.6
 20
18.5
 30
0.0
 11
230.0
 21
18.5
 31
0.0
  0
LINE
  5
83
330
1F
100
AcDbEntity
  8
0
  6
Continuous
 62
     7
370
    50
100
AcDbLine
 10
310.6
 20
65.25
 30
0.0
 11
310.6
 21
27.0
 31
0.0
  0
LINE
  5
84
330
1F
100
AcDbEntity
  8
0
  6
Continuous
 62
     7
370
    50
100
AcDbLine
 10
284.6
 20
22.749928
 30
0.0
 11
230.0
 21
22.749928
 31
0.0
  0
LINE
  5
85
330
1F
100
AcDbEntity
  8
0
  6
Continuous
 62
     7
370
    50
100
AcDbLine
 10
284.6
 20
27.0
 30
0.0
 11
230.0
 21
27.0
 31
0.0
  0
LINE
  5
86
330
1F
100
AcDbEntity
  8
0
  6
Continuous
 62
     7
370
    50
100
AcDbLine
 10
284.6
 20
27.0
 30
0.0
 11
410.0
 21
27.0
 31
0.0
  0
LINE
  5
87
330
1F
100
AcDbEntity
  8
0
  6
Continuous
 62
     7
370
    50
100
AcDbLine
 10
328.8
 20
65.25
 30
0.0
 11
328.8
 21
10.0
 31
0.0
  0
LINE
  5
88
330
1F
100
AcDbEntity
  8
0
  6
Continuous
 62
     7
370
    50
100
AcDbLine
 10
373.0
 20
10.0
 30
0.0
 11
373.0
 21
14.25
 31
0.0
  0
LINE
  5
89
330
1F
100
AcDbEntity
  8
0
  6
Continuous
 62
     7
370
    50
100
AcDbLine
 10
380.8
 20
58.875
 30
0.0
 11
380.8
 21
65.25
 31
0.0
  0
LINE
  5
8A
330
1F
100
AcDbEntity
  8
0
  6
Continuous
 62
     7
370
    50
100
AcDbLine
 10
397.0
 20
14.25
 30
0.0
 11
397.0
 21
27.0
 31
0.0
  0
LINE
  5
8B
330
1F
100
AcDbEntity
  8
0
  6
Continuous
 62
     7
370
    50
100
AcDbLine
 10
410.0
 20
58.875
 30
0.0
 11
328.8
 21
58.875
 31
0.0
  0
LINE
  5
8C
330
1F
100
AcDbEntity
  8
0
  6
Continuous
 62
     7
370
    50
100
AcDbLine
 10
410.0
 20
18.5
 30
0.0
 11
397.0
 21
18.5
 31
0.0
  0
LINE
  5
8D
330
1F
100
AcDbEntity
  8
0
  6
Continuous
 62
     7
370
    70
100
AcDbLine
 10
20.0
 20
10.0
 30
0.0
 11
20.0
 21
287.0
 31
0.0
  0
LINE
  5
8E
330
1F
100
AcDbEntity
  8
0
  6
Continuous
 62
     7
370
    70
100
AcDbLine
 10
20.0
 20
287.0
 30
0.0
 11
410.0
 21
287.0
 31
0.0
  0
LINE
  5
8F
330
1F
100
AcDbEntity
  8
0
  6
Continuous
 62
     7
370
    70
100
AcDbLine
 10
410.0
 20
287.0
 30
0.0
 11
410.0
 21
10.0
 31
0.0
  0
LINE
  5
90
330
1F
100
AcDbEntity
  8
0
  6
Continuous
 62
     7
370
    70
100
AcDbLine
 10
410.0
 20
10.0
 30
0.0
 11
20.0
 21
10.0
 31
0.0
  0
LINE
  5
91
330
1F
100
AcDbEntity
  8
0
  6
Continuous
 62
     7
370
    70
100
AcDbLine
 10
15.0
 20
5.0
 30
0.0
 11
15.0
 21
292.0
 31
0.0
  0
LINE
  5
92
330
1F
100
AcDbEntity
  8
0
  6
Continuous
 62
     7
370
    70
100
AcDbLine
 10
15.0
 20
292.0
 30
0.0
 11
415.0
 21
292.0
 31
0.0
  0
LINE
  5
93
330
1F
100
AcDbEntity
  8
0
  6
Continuous
 62
     7
370
    70
100
AcDbLine
 10
415.0
 20
292.0
 30
0.0
 11
415.0
 21
5.0
 31
0.0
  0
LINE
  5
94
330
1F
100
AcDbEntity
  8
0
  6
Continuous
 62
     7
370
    70
100
AcDbLine
 10
415.0
 20
5.0
 30
0.0
 11
15.0
 21
5.0
 31
0.0
  0
LINE
  5
95
330
1F
100
AcDbEntity
  8
0
  6
Continuous
 62
     7
370
    35
100
AcDbLine
 10
15.0
 20
148.5
 30
0.0
 11
25.0
 21
148.5
 31
0.0
  0
LINE
  5
96
330
1F
100
AcDbEntity
  8
0
  6
Continuous
 62
     7
370
    35
100
AcDbLine
 10
215.0
 20
292.0
 30
0.0
 11
215.0
 21
282.0
 31
0.0
  0
LINE
  5
97
330
1F
100
AcDbEntity
  8
0
  6
Continuous
 62
     7
370
    35
100
AcDbLine
 10
415.0
 20
148.5
 30
0.0
 11
405.0
 21
148.5
 31
0.0
  0
LINE
  5
98
330
1F
100
AcDbEntity
  8
0
  6
Continuous
 62
     7
370
    35
100
AcDbLine
 10
215.0
 20
5.0
 30
0.0
 11
215.0
 21
15.0
 31
0.0
  0
LINE
  5
99
330
1F
100
AcDbEntity
  8
0
  6
Continuous
 62
     7
370
    35
100
AcDbLine
 10
20.0
 20
48.5
 30
0.0
 11
15.0
 21
48.5
 31
0.0
  0
LINE
  5
9A
330
1F
100
AcDbEntity
  8
0
  6
Continuous
 62
     7
370
    35
100
AcDbLine
 10
410.0
 20
48.5
 30
0.0
 11
415.0
 21
48.5
 31
0.0
  0
LINE
  5
9B
330
1F
100
AcDbEntity
  8
0
  6
Continuous
 62
     7
370
    35
100
AcDbLine
 10
20.0
 20
98.5
 30
0.0
 11
15.0
 21
98.5
 31
0.0
  0
LINE
  5
9C
330
1F
100
AcDbEntity
  8
0
  6
Continuous
 62
     7
370
    35
100
AcDbLine
 10
410.0
 20
98.5
 30
0.0
 11
415.0
 21
98.5
 31
0.0
  0
LINE
  5
9D
330
1F
100
AcDbEntity
  8
0
  6
Continuous
 62
     7
370
    35
100
AcDbLine
 10
20.0
 20
148.5
 30
0.0
 11
15.0
 21
148.5
 31
0.0
  0
LINE
  5
9E
330
1F
100
AcDbEntity
  8
0
  6
Continuous
 62
     7
370
    35
100
AcDbLine
 10
410.0
 20
148.5
 30
0.0
 11
415.0
 21
148.5
 31
0.0
  0
LINE
  5
9F
330
1F
100
AcDbEntity
  8
0
  6
Continuous
 62
     7
370
    35
100
AcDbLine
 10
20.0
 20
198.5
 30
0.0
 11
15.0
 21
198.5
 31
0.0
  0
LINE
  5
A0
330
1F
100
AcDbEntity
  8
0
  6
Continuous
 62
     7
370
    35
100
AcDbLine
 10
410.0
 20
198.5
 30
0.0
 11
415.0
 21
198.5
 31
0.0
  0
LINE
  5
A1
330
1F
100
AcDbEntity
  8
0
  6
Continuous
 62
     7
370
    35
100
AcDbLine
 10
20.0
 20
248.5
 30
0.0
 11
15.0
 21
248.5
 31
0.0
  0
LINE
  5
A2
330
1F
100
AcDbEntity
  8
0
  6
Continuous
 62
     7
370
    35
100
AcDbLine
 10
410.0
 20
248.5
 30
0.0
 11
415.0
 21
248.5
 31
0.0
  0
LINE
  5
A3
330
1F
100
AcDbEntity
  8
0
  6
Continuous
 62
     7
370
    35
100
AcDbLine
 10
65.0
 20
287.0
 30
0.0
 11
65.0
 21
292.0
 31
0.0
  0
LINE
  5
A4
330
1F
100
AcDbEntity
  8
0
  6
Continuous
 62
     7
370
    35
100
AcDbLine
 10
65.0
 20
10.0
 30
0.0
 11
65.0
 21
5.0
 31
0.0
  0
LINE
  5
A5
330
1F
100
AcDbEntity
  8
0
  6
Continuous
 62
     7
370
    35
100
AcDbLine
 10
115.0
 20
287.0
 30
0.0
 11
115.0
 21
292.0
 31
0.0
  0
LINE
  5
A6
330
1F
100
AcDbEntity
  8
0
  6
Continuous
 62
     7
370
    35
100
AcDbLine
 10
115.0
 20
10.0
 30
0.0
 11
115.0
 21
5.0
 31
0.0
  0
LINE
  5
A7
330
1F
100
AcDbEntity
  8
0
  6
Continuous
 62
     7
370
    35
100
AcDbLine
 10
165.0
 20
287.0
 30
0.0
 11
165.0
 21
292.0
 31
0.0
  0
LINE
  5
A8
330
1F
100
AcDbEntity
  8
0
  6
Continuous
 62
     7
370
    35
100
AcDbLine
 10
165.0
 20
10.0
 30
0.0
 11
165.0
 21
5.0
 31
0.0
  0
LINE
  5
A9
330
1F
100
AcDbEntity
  8
0
  6
Continuous
 62
     7
370
    35
100
AcDbLine
 10
215.0
 20
287.0
 30
0.0
 11
215.0
 21
292.0
 31
0.0
  0
LINE
  5
AA
330
1F
100
AcDbEntity
  8
0
  6
Continuous
 62
     7
370
    35
100
AcDbLine
 10
215.0
 20
10.0
 30
0.0
 11
215.0
 21
5.0
 31
0.0
  0
LINE
  5
AB
330
1F
100
AcDbEntity
  8
0
  6
Continuous
 62
     7
370
    35
100
AcDbLine
 10
265.0
 20
287.0
 30
0.0
 11
265.0
 21
292.0
 31
0.0
  0
LINE
  5
AC
330
1F
100
AcDbEntity
  8
0
  6
Continuous
 62
     7
370
    35
100
AcDbLine
 10
265.0
 20
10.0
 30
0.0
 11
265.0
 21
5.0
 31
0.0
  0
LINE
  5
AD
330
1F
100
AcDbEntity
  8
0
  6
Continuous
 62
     7
370
    35
100
AcDbLine
 10
315.0
 20
287.0
 30
0.0
 11
315.0
 21
292.0
 31
0.0
  0
LINE
  5
AE
330
1F
100
AcDbEntity
  8
0
  6
Continuous
 62
     7
370
    35
100
AcDbLine
 10
315.0
 20
10.0
 30
0.0
 11
315.0
 21
5.0
 31
0.0
  0
LINE
  5
AF
330
1F
100
AcDbEntity
  8
0
  6
Continuous
 62
     7
370
    35
100
AcDbLine
 10
365.0
 20
287.0
 30
0.0
 11
365.0
 21
292.0
 31
0.0
  0
LINE
  5
B0
330
1F
100
AcDbEntity
  8
0
  6
Continuous
 62
     7
370
    35
100
AcDbLine
 10
365.0
 20
10.0
 30
0.0
 11
365.0
 21
5.0
 31
0.0
  0
MTEXT
  5
B2
330
1F
100
AcDbEntity
  8
0
  6
Continuous
 62
     7
370
     0
100
AcDbMText
 10
17.3396881428
 20
31.1962239326
 30
0.0
 40
3.96875
 41
0.0
 71
     2
 72
     1
  1
A
  7
SLDTEXTSTYLE0
 73
     1
 44
1.0
  0
MTEXT
  5
B3
330
1F
100
AcDbEntity
  8
0
  6
Continuous
 62
     7
370
     0
100
AcDbMText
 10
412.3396881428
 20
31.1962239326
 30
0.0
 40
3.96875
 41
0.0
 71
     2
 72
     1
  1
A
  7
SLDTEXTSTYLE0
 73
     1
 44
1.0
  0
MTEXT
  5
B4
330
1F
100
AcDbEntity
  8
0
  6
Continuous
 62
     7
370
     0
100
AcDbMText
 10
17.4706018241
 20
75.4957779464
 30
0.0
 40
3.96875
 41
0.0
 71
     2
 72
     1
  1
B
  7
SLDTEXTSTYLE0
 73
     1
 44
1.0
  0
MTEXT
  5
B5
330
1F
100
AcDbEntity
  8
0
  6
Continuous
 62
     7
370
     0
100
AcDbMText
 10
412.4706018241
 20
75.4957779464
 30
0.0
 40
3.96875
 41
0.0
 71
     2
 72
     1
  1
B
  7
SLDTEXTSTYLE0
 73
     1
 44
1.0
  0
MTEXT
  5
B6
330
1F
100
AcDbEntity
  8
0
  6
Continuous
 62
     7
370
     0
100
AcDbMText
 10
17.458658902
 20
125.4462239326
 30
0.0
 40
3.96875
 41
0.0
 71
     2
 72
     1
  1
C
  7
SLDTEXTSTYLE0
 73
     1
 44
1.0
  0
MTEXT
  5
B7
330
1F
100
AcDbEntity
  8
0
  6
Continuous
 62
     7
370
     0
100
AcDbMText
 10
412.458658902
 20
125.4462239326
 30
0.0
 40
3.96875
 41
0.0
 71
     2
 72
     1
  1
C
  7
SLDTEXTSTYLE0
 73
     1
 44
1.0
  0
MTEXT
  5
B8
330
1F
100
AcDbEntity
  8
0
  6
Continuous
 62
     7
370
     0
100
AcDbMText
 10
17.4526872821
 20
175.4957779464
 30
0.0
 40
3.96875
 41
0.0
 71
     2
 72
     1
  1
D
  7
SLDTEXTSTYLE0
 73
     1
 44
1.0
  0
MTEXT
  5
B9
330
1F
100
AcDbEntity
  8
0
  6
Continuous
 62
     7
370
     0
100
AcDbMText
 10
412.4526872821
 20
175.4957779464
 30
0.0
 40
3.96875
 41
0.0
 71
     2
 72
     1
  1
D
  7
SLDTEXTSTYLE0
 73
     1
 44
1.0
  0
MTEXT
  5
BA
330
1F
100
AcDbEntity
  8
0
  6
Continuous
 62
     7
370
     0
100
AcDbMText
 10
17.5078089051
 20
225.4462239326
 30
0.0
 40
3.96875
 41
0.0
 71
     2
 72
     1
  1
E
  7
SLDTEXTSTYLE0
 73
     1
 44
1.0
  0
MTEXT
  5
BB
330
1F
100
AcDbEntity
  8
0
  6
Continuous
 62
     7
370
     0
100
AcDbMText
 10
412.5078089051
 20
225.4462239326
 30
0.0
 40
3.96875
 41
0.0
 71
     2
 72
     1
  1
E
  7
SLDTEXTSTYLE0
 73
     1
 44
1.0
  0
MTEXT
  5
BC
330
1F
100
AcDbEntity
  8
0
  6
Continuous
 62
     7
370
     0
100
AcDbMText
 10
17.4577402091
 20
269.7457779464
 30
0.0
 40
3.96875
 41
0.0
 71
     2
 72
     1
  1
F
  7
SLDTEXTSTYLE0
 73
     1
 44
1.0
  0
MTEXT
  5
BD
330
1F
100
AcDbEntity
  8
0
  6
Continuous
 62
     7
370
     0
100
AcDbMText
 10
412.4577402091
 20
269.7457779464
 30
0.0
 40
3.96875
 41
0.0
 71
     2
 72
     1
  1
F
  7
SLDTEXTSTYLE0
 73
     1
 44
1.0
  0
MTEXT
  5
BE
330
1F
100
AcDbEntity
  8
0
  6
Continuous
 62
     7
370
     0
100
AcDbMText
 10
42.4600369465
 20
9.4957779464
 30
0.0
 40
3.96875
 41
0.0
 71
     2
 72
     1
  1
8
  7
SLDTEXTSTYLE0
 73
     1
 44
1.0
  0
MTEXT
  5
BF
330
1F
100
AcDbEntity
  8
0
  6
Continuous
 62
     7
370
     0
100
AcDbMText
 10
42.4600369465
 20
291.4462239326
 30
0.0
 40
3.96875
 41
0.0
 71
     2
 72
     1
  1
8
  7
SLDTEXTSTYLE0
 73
     1
 44
1.0
  0
MTEXT
  5
C0
330
1F
100
AcDbEntity
  8
0
  6
Continuous
 62
     7
370
     0
100
AcDbMText
 10
89.9600369465
 20
9.4957779464
 30
0.0
 40
3.96875
 41
0.0
 71
     2
 72
     1
  1
7
  7
SLDTEXTSTYLE0
 73
     1
 44
1.0
  0
MTEXT
  5
C1
330
1F
100
AcDbEntity
  8
0
  6
Continuous
 62
     7
370
     0
100
AcDbMText
 10
89.9600369465
 20
291.4462239326
 30
0.0
 40
3.96875
 41
0.0
 71
     2
 72
     1
  1
7
  7
SLDTEXTSTYLE0
 73
     1
 44
1.0
  0
MTEXT
  5
C2
330
1F
100
AcDbEntity
  8
0
  6
Continuous
 62
     7
370
     0
100
AcDbMText
 10
139.9600369465
 20
9.4957779464
 30
0.0
 40
3.96875
 41
0.0
 71
     2
 72
     1
  1
6
  7
SLDTEXTSTYLE0
 73
     1
 44
1.0
  0
MTEXT
  5
C3
330
1F
100
AcDbEntity
  8
0
  6
Continuous
 62
     7
370
     0
100
AcDbMText
 10
139.9600369465
 20
291.4462239326
 30
0.0
 40
3.96875
 41
0.0
 71
     2
 72
     1
  1
6
  7
SLDTEXTSTYLE0
 73
     1
 44
1.0
  0
MTEXT
  5
C4
330
1F
100
AcDbEntity
  8
0
  6
Continuous
 62
     7
370
     0
100
AcDbMText
 10
189.9600369465
 20
9.4957779464
 30
0.0
 40
3.96875
 41
0.0
 71
     2
 72
     1
  1
5
  7
SLDTEXTSTYLE0
 73
     1
 44
1.0
  0
MTEXT
  5
C5
330
1F
100
AcDbEntity
  8
0
  6
Continuous
 62
     7
370
     0
100
AcDbMText
 10
189.9600369465
 20
291.4462239326
 30
0.0
 40
3.96875
 41
0.0
 71
     2
 72
     1
  1
5
  7
SLDTEXTSTYLE0
 73
     1
 44
1.0
  0
MTEXT
  5
C6
330
1F
100
AcDbEntity
  8
0
  6
Continuous
 62
     7
370
     0
100
AcDbMText
 10
239.9600369465
 20
9.4957779464
 30
0.0
 40
3.96875
 41
0.0
 71
     2
 72
     1
  1
4
  7
SLDTEXTSTYLE0
 73
     1
 44
1.0
  0
MTEXT
  5
C7
330
1F
100
AcDbEntity
  8
0
  6
Continuous
 62
     7
370
     0
100
AcDbMText
 10
239.9600369465
 20
291.4462239326
 30
0.0
 40
3.96875
 41
0.0
 71
     2
 72
     1
  1
4
  7
SLDTEXTSTYLE0
 73
     1
 44
1.0
  0
MTEXT
  5
C8
330
1F
100
AcDbEntity
  8
0
  6
Continuous
 62
     7
370
     0
100
AcDbMText
 10
289.9600369465
 20
9.4957779464
 30
0.0
 40
3.96875
 41
0.0
 71
     2
 72
     1
  1
3
  7
SLDTEXTSTYLE0
 73
     1
 44
1.0
  0
MTEXT
  5
C9
330
1F
100
AcDbEntity
  8
0
  6
Continuous
 62
     7
370
     0
100
AcDbMText
 10
289.9600369465
 20
291.4462239326
 30
0.0
 40
3.96875
 41
0.0
 71
     2
 72
     1
  1
3
  7
SLDTEXTSTYLE0
 73
     1
 44
1.0
  0
MTEXT
  5
CA
330
1F
100
AcDbEntity
  8
0
  6
Continuous
 62
     7
370
     0
100
AcDbMText
 10
339.9600369465
 20
9.4957779464
 30
0.0
 40
3.96875
 41
0.0
 71
     2
 72
     1
  1
2
  7
SLDTEXTSTYLE0
 73
     1
 44
1.0
  0
MTEXT
  5
CB
330
1F
100
AcDbEntity
  8
0
  6
Continuous
 62
     7
370
     0
100
AcDbMText
 10
339.9600369465
 20
291.4462239326
 30
0.0
 40
3.96875
 41
0.0
 71
     2
 72
     1
  1
2
  7
SLDTEXTSTYLE0
 73
     1
 44
1.0
  0
MTEXT
  5
CC
330
1F
100
AcDbEntity
  8
0
  6
Continuous
 62
     7
370
     0
100
AcDbMText
 10
387.4600369465
 20
9.4957779464
 30
0.0
 40
3.96875
 41
0.0
 71
     2
 72
     1
  1
1
  7
SLDTEXTSTYLE0
 73
     1
 44
1.0
  0
MTEXT
  5
CD
330
1F
100
AcDbEntity
  8
0
  6
Continuous
 62
     7
370
     0
100
AcDbMText
 10
387.4600369465
 20
291.4462239326
 30
0.0
 40
3.96875
 41
0.0
 71
     2
 72
     1
  1
1
  7
SLDTEXTSTYLE0
 73
     1
 44
1.0
  0
MTEXT
  5
CE
330
1F
100
AcDbEntity
  8
0
  6
Continuous
 62
     7
370
     0
100
AcDbMText
 10
364.6015573993
 20
23.347828666
 30
0.0
 40
4.2333333333
 41
0.0
 71
     2
 72
     1
  1
CM025EGDGX120_#_#
  7
SLDTEXTSTYLE0
 73
     1
 44
1.0
  0
MTEXT
  5
CF
330
1F
100
AcDbEntity
  8
0
  6
Continuous
 62
     7
370
     0
100
AcDbMText
 10
285.6178111281
 20
12.9493119036
 30
0.0
 40
1.4986
 41
0.0
 71
     1
 72
     1
  1
HMOTNOST:
  7
SLDTEXTSTYLE0
 73
     1
 44
1.0
  0
MTEXT
  5
D0
330
1F
100
AcDbEntity
  8
0
  6
Continuous
 62
     7
370
     0
100
AcDbMText
 10
400.8711564346
 20
24.406388569
 30
0.0
 40
2.9104166667
 41
0.0
 71
     1
 72
     1
  1
A3
  7
SLDTEXTSTYLE0
 73
     1
 44
1.0
  0
MTEXT
  5
D2
330
1F
100
AcDbEntity
  8
0
  6
Continuous
 62
     7
370
     0
100
AcDbMText
 10
374.4782944278
 20
12.9000872745
 30
0.0
 40
1.5
 41
0.0
 71
     1
 72
     1
  1
LIST 1 Z 1 LISTŮ
  7
SLDTEXTSTYLE1
 73
     1
 44
1.0
  0
MTEXT
  5
D4
330
1F
100
AcDbEntity
  8
0
  6
Continuous
 62
     7
370
     0
100
AcDbMText
 10
330.0739661175
 20
12.9000872745
 30
0.0
 40
1.5
 41
0.0
 71
     1
 72
     1
  1
MĚŘÍTKO:1:1
  7
SLDTEXTSTYLE2
 73
     1
 44
1.0
  0
MTEXT
  5
D5
330
1F
100
AcDbEntity
  8
0
  6
Continuous
 62
     7
370
     0
100
AcDbMText
 10
330.2786531243
 20
25.9860562892
 30
0.0
 40
1.5
 41
0.0
 71
     1
 72
     1
  1
Č. VÝKRESU
  7
SLDTEXTSTYLE2
 73
     1
 44
1.0
  0
MTEXT
  5
D6
330
1F
100
AcDbEntity
  8
0
  6
Continuous
 62
     7
370
     0
100
AcDbMText
 10
329.9561869366
 20
46.5761792212
 30
0.0
 40
1.5
 41
0.0
 71
     1
 72
     1
  1
NÁZEV:
  7
SLDTEXTSTYLE0
 73
     1
 44
1.0
  0
MTEXT
  5
D7
330
1F
100
AcDbEntity
  8
0
  6
Continuous
 62
     7
370
     0
100
AcDbMText
 10
383.3275816993
 20
62.3349086805
 30
0.0
 40
1.5
 41
0.0
 71
     1
 72
     1
  1
ZMĚNA
  7
SLDTEXTSTYLE2
 73
     1
 44
1.0
  0
MTEXT
  5
D8
330
1F
100
AcDbEntity
  8
0
  6
Continuous
 62
     7
370
     0
100
AcDbMText
 10
342.6146405229
 20
62.5329935751
 30
0.0
 40
1.5
 41
0.0
 71
     1
 72
     1
  1
NEUPRAVOVAT MĚŘÍTKO VÝKRESU
  7
SLDTEXTSTYLE2
 73
     1
 44
1.0
  0
MTEXT
  5
D9
330
1F
100
AcDbEntity
  8
0
  6
Continuous
 62
     7
370
     0
100
AcDbMText
 10
285.6458623088
 20
25.9860562892
 30
0.0
 40
1.5
 41
0.0
 71
     1
 72
     1
  1
MATERIÁL:
  7
SLDTEXTSTYLE0
 73
     1
 44
1.0
  0
MTEXT
  5
DA
330
1F
100
AcDbEntity
  8
0
  6
Continuous
 62
     7
370
     0
100
AcDbMText
 10
277.2147019657
 20
46.5761792212
 30
0.0
 40
1.5
 41
0.0
 71
     1
 72
     1
  1
DATUM
  7
SLDTEXTSTYLE0
 73
     1
 44
1.0
  0
MTEXT
  5
DB
330
1F
100
AcDbEntity
  8
0
  6
Continuous
 62
     7
370
     0
100
AcDbMText
 10
260.0335875632
 20
46.5617563795
 30
0.0
 40
1.5
 41
0.0
 71
     1
 72
     1
  1
PODPIS
  7
SLDTEXTSTYLE0
 73
     1
 44
1.0
  0
MTEXT
  5
DC
330
1F
100
AcDbEntity
  8
0
  6
Continuous
 62
     7
370
     0
100
AcDbMText
 10
244.3222392177
 20
46.5014826335
 30
0.0
 40
1.5
 41
0.0
 71
     1
 72
     1
  1
JMÉNO
  7
SLDTEXTSTYLE0
 73
     1
 44
1.0
  0
INSERT
  5
E2
330
1F
100
AcDbEntity
  8
0
  6
Continuous
 62
     7
370
     0
100
AcDbBlockReference
  2
SW_NOTE_0
 10
311.3092156863
 20
62.069489643
 30
0.0
  0
MTEXT
  5
E3
330
1F
100
AcDbEntity
  8
0
  6
Continuous
 62
     7
370
     0
100
AcDbMText
 10
264.3712921668
 20
63.9192719951
 30
0.0
 40
1.5
 41
0.0
 71
     1
 72
     1
  1
OPRACOVÁNÍ:
  7
SLDTEXTSTYLE0
 73
     1
 44
1.0
  0
INSERT
  5
ED
330
1F
100
AcDbEntity
  8
0
  6
Continuous
 62
     7
370
     0
100
AcDbBlockReference
  2
SW_NOTE_0_1
 10
230.5936687456
 20
61.9873698743
 30
0.0
  0
MTEXT
  5
EE
330
1F
100
AcDbEntity
  8
0
  6
Continuous
 62
     7
370
     0
100
AcDbMText
 10
230.6690428622
 20
25.3496492073
 30
0.0
 40
1.5
 41
0.0
 71
     1
 72
     1
  1
Z. JAKOSTI
  7
SLDTEXTSTYLE0
 73
     1
 44
1.0
  0
MTEXT
  5
EF
330
1F
100
AcDbEntity
  8
0
  6
Continuous
 62
     7
370
     0
100
AcDbMText
 10
230.4551864991
 20
29.7337046506
 30
0.0
 40
1.5
 41
0.0
 71
     1
 72
     1
  1
VÝROBA
  7
SLDTEXTSTYLE0
 73
     1
 44
1.0
  0
MTEXT
  5
F0
330
1F
100
AcDbEntity
  8
0
  6
Continuous
 62
     7
370
     0
100
AcDbMText
 10
230.4017224083
 20
34.0642960031
 30
0.0
 40
1.5
 41
0.0
 71
     1
 72
     1
  1
SCHVÁLIL
  7
SLDTEXTSTYLE0
 73
     1
 44
1.0
  0
MTEXT
  5
F1
330
1F
100
AcDbEntity
  8
0
  6
Continuous
 62
     7
370
     0
100
AcDbMText
 10
230.4104688676
 20
38.15440716
 30
0.0
 40
1.5
 41
0.0
 71
     1
 72
     1
  1
PŘEZKOUŠEL
  7
SLDTEXTSTYLE2
 73
     1
 44
1.0
  0
MTEXT
  5
F2
330
1F
100
AcDbEntity
  8
0
  6
Continuous
 62
     7
370
     0
100
AcDbMText
 10
230.2121492441
 20
42.4297148859
 30
0.0
 40
1.5
 41
0.0
 71
     1
 72
     1
  1
NAVRHL
  7
SLDTEXTSTYLE0
 73
     1
 44
1.0
  0
LINE
  5
F3
330
1F
100
AcDbEntity
  8
0
  6
Continuous
 62
     7
370
    25
100
AcDbLine
 10
152.44
 20
167.06
 30
0.0
 11
156.84
 21
167.06
 31
0.0
  0
LINE
  5
F4
330
1F
100
AcDbEntity
  8
0
  6
Continuous
 62
     7
370
    25
100
AcDbLine
 10
156.84
 20
185.06
 30
0.0
 11
152.44
 21
185.06
 31
0.0
  0
LINE
  5
F5
330
1F
100
AcDbEntity
  8
0
  6
Continuous
 62
     7
370
    25
100
AcDbLine
 10
156.84
 20
167.06
 30
0.0
 11
157.34
 21
167.56
 31
0.0
  0
LINE
  5
F6
330
1F
100
AcDbEntity
  8
0
  6
Continuous
 62
     7
370
    25
100
AcDbLine
 10
157.34
 20
184.56
 30
0.0
 11
156.84
 21
185.06
 31
0.0
  0
LINE
  5
F7
330
1F
100
AcDbEntity
  8
0
  6
Continuous
 62
     7
370
    25
100
AcDbLine
 10
96.24
 20
207.56
 30
0.0
 11
108.64
 21
207.56
 31
0.0
  0
ARC
  5
F8
330
1F
100
AcDbEntity
  8
0
  6
Continuous
 62
     7
370
    25
100
AcDbCircle
 10
108.64
 20
207.26
 30
0.0
 40
0.3000000000000114
100
AcDbArc
 50
0.0
 51
90.0
  0
LINE
  5
F9
330
1F
100
AcDbEntity
  8
0
  6
Continuous
 62
     7
370
    25
100
AcDbLine
 10
108.94
 20
207.26
 30
0.0
 11
95.94
 21
207.26
 31
0.0
  0
ARC
  5
FA
330
1F
100
AcDbEntity
  8
0
  6
Continuous
 62
     7
370
    25
100
AcDbCircle
 10
96.24
 20
207.26
 30
0.0
 40
0.3000000000000114
100
AcDbArc
 50
90.0
 51
180.0
  0
LINE
  5
FB
330
1F
100
AcDbEntity
  8
0
  6
Continuous
 62
     7
370
    25
100
AcDbLine
 10
95.94
 20
207.26
 30
0.0
 11
95.94
 21
193.56
 31
0.0
  0
LINE
  5
FC
330
1F
100
AcDbEntity
  8
0
  6
Continuous
 62
     7
370
    25
100
AcDbLine
 10
108.94
 20
207.26
 30
0.0
 11
108.94
 21
193.56
 31
0.0
  0
LINE
  5
FD
330
1F
100
AcDbEntity
  8
0
  6
Continuous
 62
     7
370
    25
100
AcDbLine
 10
95.94
 20
193.56
 30
0.0
 11
108.94
 21
193.56
 31
0.0
  0
LINE
  5
FE
330
1F
100
AcDbEntity
  8
0
  6
Continuous
 62
     7
370
    25
100
AcDbLine
 10
108.64
 20
207.56
 30
0.0
 11
108.94
 21
207.56
 31
0.0
  0
LINE
  5
FF
330
1F
100
AcDbEntity
  8
0
  6
Continuous
 62
     7
370
    25
100
AcDbLine
 10
153.94
 20
207.26
 30
0.0
 11
140.94
 21
207.26
 31
0.0
  0
ARC
  5
100
330
1F
100
AcDbEntity
  8
0
  6
Continuous
 62
     7
370
    25
100
AcDbCircle
 10
141.24
 20
207.26
 30
0.0
 40
0.3000000000000114
100
AcDbArc
 50
90.0
 51
180.0
  0
LINE
  5
101
330
1F
100
AcDbEntity
  8
0
  6
Continuous
 62
     7
370
    25
100
AcDbLine
 10
141.24
 20
207.56
 30
0.0
 11
153.64
 21
207.56
 31
0.0
  0
ARC
  5
102
330
1F
100
AcDbEntity
  8
0
  6
Continuous
 62
     7
370
    25
100
AcDbCircle
 10
153.64
 20
207.26
 30
0.0
 40
0.3000000000000114
100
AcDbArc
 50
0.0
 51
90.0
  0
LINE
  5
103
330
1F
100
AcDbEntity
  8
0
  6
Continuous
 62
     7
370
    25
100
AcDbLine
 10
153.94
 20
207.26
 30
0.0
 11
153.94
 21
193.56
 31
0.0
  0
LINE
  5
104
330
1F
100
AcDbEntity
  8
0
  6
Continuous
 62
     7
370
    25
100
AcDbLine
 10
152.14
 20
193.56
 30
0.0
 11
153.94
 21
193.56
 31
0.0
  0
LINE
  5
105
330
1F
100
AcDbEntity
  8
0
  6
Continuous
 62
     7
370
    25
100
AcDbLine
 10
140.94
 20
207.56
 30
0.0
 11
141.24
 21
207.56
 31
0.0
  0
CIRCLE
  5
106
330
1F
100
AcDbEntity
  8
0
  6
Continuous
 62
     7
370
    25
100
AcDbCircle
 10
124.94
 20
200.56
 30
0.0
 40
2.500000000000149
  0
CIRCLE
  5
107
330
1F
100
AcDbEntity
  8
0
  6
Continuous
 62
     7
370
    25
100
AcDbCircle
 10
124.94
 20
200.56
 30
0.0
 40
3.500000000000013
  0
LINE
  5
108
330
1F
100
AcDbEntity
  8
0
  6
Continuous
 62
     7
370
    25
100
AcDbLine
 10
140.94
 20
207.56
 30
0.0
 11
140.94
 21
193.56
 31
0.0
  0
LINE
  5
109
330
1F
100
AcDbEntity
  8
0
  6
Continuous
 62
     7
370
    25
100
AcDbLine
 10
108.94
 20
193.56
 30
0.0
 11
114.94
 21
193.56
 31
0.0
  0
LINE
  5
10A
330
1F
100
AcDbEntity
  8
0
  6
Continuous
 62
     7
370
    25
100
AcDbLine
 10
134.94
 20
193.56
 30
0.0
 11
140.94
 21
193.56
 31
0.0
  0
LINE
  5
10B
330
1F
100
AcDbEntity
  8
0
  6
Continuous
 62
     7
370
    25
100
AcDbLine
 10
108.94
 20
207.56
 30
0.0
 11
108.94
 21
193.56
 31
0.0
  0
LINE
  5
10C
330
1F
100
AcDbEntity
  8
0
  6
Continuous
 62
     7
370
    25
100
AcDbLine
 10
108.94
 20
207.56
 30
0.0
 11
114.94
 21
207.56
 31
0.0
  0
LINE
  5
10D
330
1F
100
AcDbEntity
  8
0
  6
Continuous
 62
     7
370
    25
100
AcDbLine
 10
121.4758983849
 20
207.56
 30
0.0
 11
128.4041016151
 21
207.56
 31
0.0
  0
LINE
  5
10E
330
1F
100
AcDbEntity
  8
0
  6
Continuous
 62
     7
370
    25
100
AcDbLine
 10
134.94
 20
207.56
 30
0.0
 11
140.94
 21
207.56
 31
0.0
  0
LINE
  5
10F
330
1F
100
AcDbEntity
  8
0
  6
Continuous
 62
     7
370
    25
100
AcDbLine
 10
134.94
 20
214.06
 30
0.0
 11
114.94
 21
214.06
 31
0.0
  0
LINE
  5
110
330
1F
100
AcDbEntity
  8
0
  6
Continuous
 62
     7
370
    25
100
AcDbLine
 10
119.18
 20
166.06
 30
0.0
 11
130.7
 21
166.06
 31
0.0
  0
LINE
  5
111
330
1F
100
AcDbEntity
  8
0
  6
Continuous
 62
     7
370
    25
100
AcDbLine
 10
114.94
 20
170.3
 30
0.0
 11
119.18
 21
166.06
 31
0.0
  0
LINE
  5
112
330
1F
100
AcDbEntity
  8
0
  6
Continuous
 62
     7
370
    25
100
AcDbLine
 10
114.94
 20
214.06
 30
0.0
 11
114.94
 21
170.3
 31
0.0
  0
ARC
  5
113
330
1F
100
AcDbEntity
  8
0
  6
Continuous
 62
     7
370
    25
100
AcDbCircle
 10
124.94
 20
205.56
 30
0.0
 40
3.999999999999999
100
AcDbArc
 50
354.6748501044
 51
185.3251498956
  0
CIRCLE
  5
114
330
1F
100
AcDbEntity
  8
0
  6
Continuous
 62
     7
370
    25
100
AcDbCircle
 10
124.94
 20
176.06
 30
0.0
 40
7.25
  0
LINE
  5
115
330
1F
100
AcDbEntity
  8
0
  6
Continuous
 62
     7
370
    25
100
AcDbLine
 10
134.94
 20
170.3
 30
0.0
 11
134.94
 21
214.06
 31
0.0
  0
LINE
  5
116
330
1F
100
AcDbEntity
  8
0
  6
Continuous
 62
     7
370
    25
100
AcDbLine
 10
130.7
 20
166.06
 30
0.0
 11
134.94
 21
170.3
 31
0.0
  0
ARC
  5
117
330
1F
100
AcDbEntity
  8
0
  6
Continuous
 62
     7
370
    25
100
AcDbCircle
 10
124.94
 20
200.56
 30
0.0
 40
5.00000000000011
100
AcDbArc
 50
210.0
 51
270.0
  0
SPLINE
  5
118
330
1F
100
AcDbEntity
  8
0
  6
Continuous
 62
     7
370
    25
100
AcDbSpline
210
0.0
220
0.0
230
1.0
 70
    24
 71
     3
 72
    11
 73
     7
 74
     0
 42
0.000000001
 43
0.00000001
 40
0.0
 40
0.0
 40
0.0
 40
0.0
 40
0.2752499309051422
 40
0.5879188452799888
 40
0.9093114286132101
 40
0.9999999999999999
 40
0.9999999999999999
 40
0.9999999999999999
 40
0.9999999999999999
 10
120.6098729810778
 20
198.0599999999999
 30
0.0
 10
120.7506757374918
 20
197.8161224720451
 30
0.0
 10
121.0514227483666
 20
197.2952133689858
 30
0.0
 10
121.4975955105288
 20
196.5224194759674
 30
0.0
 10
121.83152528454
 20
195.9440361412201
 30
0.0
 10
122.0132546476908
 20
195.6292716510158
 30
0.0
 10
122.0532486540519
 20
195.5600000000001
 30
0.0
  0
SPLINE
  5
119
330
1F
100
AcDbEntity
  8
0
  6
Continuous
 62
     7
370
    25
100
AcDbSpline
210
0.0
220
0.0
230
1.0
 70
    24
 71
     3
 72
    10
 73
     6
 74
     0
 42
0.000000001
 43
0.00000001
 40
0.0
 40
0.0
 40
0.0
 40
0.0
 40
0.4564348785715921
 40
0.9595524360150206
 40
1.0
 40
1.0
 40
1.0
 40
1.0
 10
122.0532486540519
 20
195.5600000000001
 30
0.0
 10
122.4624820157303
 20
195.5600000000001
 30
0.0
 10
123.3228037999157
 20
195.5600000000001
 30
0.0
 10
124.3445404104299
 20
195.56
 30
0.0
 10
124.898759646064
 20
195.5600000000001
 30
0.0
 10
124.9400000000001
 20
195.5600000000001
 30
0.0
  0
ARC
  5
11A
330
1F
100
AcDbEntity
  8
0
  6
Continuous
 62
     7
370
    25
100
AcDbCircle
 10
124.94
 20
200.56
 30
0.0
 40
5.000000000000117
100
AcDbArc
 50
270.0
 51
330.0
  0
SPLINE
  5
11B
330
1F
100
AcDbEntity
  8
0
  6
Continuous
 62
     7
370
    25
100
AcDbSpline
210
0.0
220
0.0
230
1.0
 70
    24
 71
     3
 72
    10
 73
     6
 74
     0
 42
0.000000001
 43
0.00000001
 40
0.0
 40
0.0
 40
0.0
 40
0.0
 40
0.3835516575406613
 40
0.7791382395785813
 40
1.0
 40
1.0
 40
1.0
 40
1.0
 10
127.8267513459482
 20
195.5600000000001
 30
0.0
 10
127.998393069278
 20
195.8572921855059
 30
0.0
 10
128.3470622185938
 20
196.4612048671527
 30
0.0
 10
128.8424078804521
 20
197.3191687208004
 30
0.0
 10
129.1573052560373
 20
197.8645869744837
 30
0.0
 10
129.2701270189223
 20
198.06
 30
0.0
  0
SPLINE
  5
11C
330
1F
100
AcDbEntity
  8
0
  6
Continuous
 62
     7
370
    25
100
AcDbSpline
210
0.0
220
0.0
230
1.0
 70
    24
 71
     3
 72
     9
 73
     5
 74
     0
 42
0.000000001
 43
0.00000001
 40
0.0
 40
0.0
 40
0.0
 40
0.0
 40
0.4654453915388687
 40
1.0
 40
1.0
 40
1.0
 40
1.0
 10
124.9400000000001
 20
195.5600000000001
 30
0.0
 10
125.4171823139876
 20
195.5600000000001
 30
0.0
 10
126.4423988542348
 20
195.5600000000001
 30
0.0
 10
127.3445189117945
 20
195.5600000000001
 30
0.0
 10
127.8267513459482
 20
195.5600000000001
 30
0.0
  0
ARC
  5
11D
330
1F
100
AcDbEntity
  8
0
  6
Continuous
 62
     7
370
    25
100
AcDbCircle
 10
124.94
 20
200.56
 30
0.0
 40
5.00000000000011
100
AcDbArc
 50
150.0
 51
210.0
  0
SPLINE
  5
11E
330
1F
100
AcDbEntity
  8
0
  6
Continuous
 62
     7
370
    25
100
AcDbSpline
210
0.0
220
0.0
230
1.0
 70
    24
 71
     3
 72
    10
 73
     6
 74
     0
 42
0.000000001
 43
0.00000001
 40
0.0
 40
0.0
 40
0.0
 40
0.0
 40
0.3835516575406647
 40
0.7791382395785864
 40
1.0
 40
1.0
 40
1.0
 40
1.0
 10
119.1664973081037
 20
200.56
 30
0.0
 10
119.3381390314335
 20
200.2627078144942
 30
0.0
 10
119.6868081807493
 20
199.6587951328474
 30
0.0
 10
120.1821538426079
 20
198.8008312791997
 30
0.0
 10
120.4970512181928
 20
198.2554130255162
 30
0.0
 10
120.6098729810778
 20
198.0599999999999
 30
0.0
  0
SPLINE
  5
11F
330
1F
100
AcDbEntity
  8
0
  6
Continuous
 62
     7
370
    25
100
AcDbSpline
210
0.0
220
0.0
230
1.0
 70
    24
 71
     3
 72
    11
 73
     7
 74
     0
 42
0.000000001
 43
0.00000001
 40
0.0
 40
0.0
 40
0.0
 40
0.0
 40
0.2752499309051559
 40
0.5879188452800066
 40
0.9093114286132367
 40
1.0
 40
1.0
 40
1.0
 40
1.0
 10
120.6098729810777
 20
203.06
 30
0.0
 10
120.4690702246637
 20
202.8161224720452
 30
0.0
 10
120.168323213789
 20
202.2952133689858
 30
0.0
 10
119.7221504516268
 20
201.5224194759674
 30
0.0
 10
119.3882206776156
 20
200.9440361412201
 30
0.0
 10
119.2064913144648
 20
200.6292716510157
 30
0.0
 10
119.1664973081037
 20
200.56
 30
0.0
  0
ARC
  5
120
330
1F
100
AcDbEntity
  8
0
  6
Continuous
 62
     7
370
    25
100
AcDbCircle
 10
124.94
 20
200.56
 30
0.0
 40
5.000000000000117
100
AcDbArc
 50
330.0
 51
30.0
  0
SPLINE
  5
121
330
1F
100
AcDbEntity
  8
0
  6
Continuous
 62
     7
370
    25
100
AcDbSpline
210
0.0
220
0.0
230
1.0
 70
    24
 71
     3
 72
    10
 73
     6
 74
     0
 42
0.000000001
 43
0.00000001
 40
0.0
 40
0.0
 40
0.0
 40
0.0
 40
0.3835516575406602
 40
0.7791382395785754
 40
0.9999999999999999
 40
0.9999999999999999
 40
0.9999999999999999
 40
0.9999999999999999
 10
130.7135026918963
 20
200.5600000000002
 30
0.0
 10
130.5418609685666
 20
200.857292185506
 30
0.0
 10
130.1931918192507
 20
201.4612048671528
 30
0.0
 10
129.6978461573923
 20
202.3191687208004
 30
0.0
 10
129.3829487818072
 20
202.8645869744838
 30
0.0
 10
129.2701270189223
 20
203.0600000000001
 30
0.0
  0
SPLINE
  5
122
330
1F
100
AcDbEntity
  8
0
  6
Continuous
 62
     7
370
    25
100
AcDbSpline
210
0.0
220
0.0
230
1.0
 70
    24
 71
     3
 72
    11
 73
     7
 74
     0
 42
0.000000001
 43
0.00000001
 40
0.0
 40
0.0
 40
0.0
 40
0.0
 40
0.2752499309051273
 40
0.5879188452799495
 40
0.9093114286131433
 40
1.0
 40
1.0
 40
1.0
 40
1.0
 10
129.2701270189223
 20
198.06
 30
0.0
 10
129.4109297753363
 20
198.3038775279549
 30
0.0
 10
129.7116767862108
 20
198.8247866310143
 30
0.0
 10
130.1578495483731
 20
199.5975805240326
 30
0.0
 10
130.4917793223843
 20
200.1759638587801
 30
0.0
 10
130.6735086855351
 20
200.4907283489844
 30
0.0
 10
130.7135026918963
 20
200.5600000000002
 30
0.0
  0
ARC
  5
123
330
1F
100
AcDbEntity
  8
0
  6
Continuous
 62
     7
370
    25
100
AcDbCircle
 10
124.94
 20
200.56
 30
0.0
 40
5.000000000000096
100
AcDbArc
 50
30.0
 51
90.0
  0
SPLINE
  5
124
330
1F
100
AcDbEntity
  8
0
  6
Continuous
 62
     7
370
    25
100
AcDbSpline
210
0.0
220
0.0
230
1.0
 70
    24
 71
     3
 72
    10
 73
     6
 74
     0
 42
0.000000001
 43
0.00000001
 40
0.0
 40
0.0
 40
0.0
 40
0.0
 40
0.4564348785716066
 40
0.9595524360150582
 40
0.9999999999999999
 40
0.9999999999999999
 40
0.9999999999999999
 40
0.9999999999999999
 10
127.8267513459481
 20
205.5600000000002
 30
0.0
 10
127.4175179842697
 20
205.5600000000002
 30
0.0
 10
126.5571962000843
 20
205.5600000000001
 30
0.0
 10
125.53545958957
 20
205.5600000000004
 30
0.0
 10
124.981240353936
 20
205.5600000000001
 30
0.0
 10
124.94
 20
205.5600000000001
 30
0.0
  0
SPLINE
  5
125
330
1F
100
AcDbEntity
  8
0
  6
Continuous
 62
     7
370
    25
100
AcDbSpline
210
0.0
220
0.0
230
1.0
 70
    24
 71
     3
 72
    11
 73
     7
 74
     0
 42
0.000000001
 43
0.00000001
 40
0.0
 40
0.0
 40
0.0
 40
0.0
 40
0.2752499309051427
 40
0.5879188452799715
 40
0.9093114286131765
 40
0.9999999999999999
 40
0.9999999999999999
 40
0.9999999999999999
 40
0.9999999999999999
 10
129.2701270189223
 20
203.0600000000001
 30
0.0
 10
129.1293242625082
 20
203.3038775279549
 30
0.0
 10
128.8285772516335
 20
203.8247866310143
 30
0.0
 10
128.3824044894713
 20
204.5975805240327
 30
0.0
 10
128.0484747154601
 20
205.1759638587801
 30
0.0
 10
127.8667453523092
 20
205.4907283489844
 30
0.0
 10
127.8267513459481
 20
205.5600000000002
 30
0.0
  0
ARC
  5
126
330
1F
100
AcDbEntity
  8
0
  6
Continuous
 62
     7
370
    25
100
AcDbCircle
 10
124.94
 20
200.56
 30
0.0
 40
5.000000000000103
100
AcDbArc
 50
90.0
 51
150.0
  0
SPLINE
  5
127
330
1F
100
AcDbEntity
  8
0
  6
Continuous
 62
     7
370
    25
100
AcDbSpline
210
0.0
220
0.0
230
1.0
 70
    24
 71
     3
 72
     9
 73
     5
 74
     0
 42
0.000000001
 43
0.00000001
 40
0.0
 40
0.0
 40
0.0
 40
0.0
 40
0.4654453915389393
 40
1.0
 40
1.0
 40
1.0
 40
1.0
 10
124.94
 20
205.5600000000001
 30
0.0
 10
124.4628176860124
 20
205.5600000000001
 30
0.0
 10
123.4376011457652
 20
205.5600000000002
 30
0.0
 10
122.5354810882055
 20
205.5600000000001
 30
0.0
 10
122.0532486540518
 20
205.5600000000001
 30
0.0
  0
SPLINE
  5
128
330
1F
100
AcDbEntity
  8
0
  6
Continuous
 62
     7
370
    25
100
AcDbSpline
210
0.0
220
0.0
230
1.0
 70
    24
 71
     3
 72
    10
 73
     6
 74
     0
 42
0.000000001
 43
0.00000001
 40
0.0
 40
0.0
 40
0.0
 40
0.0
 40
0.3835516575406636
 40
0.779138239578581
 40
1.0
 40
1.0
 40
1.0
 40
1.0
 10
122.0532486540518
 20
205.5600000000001
 30
0.0
 10
121.8816069307221
 20
205.2627078144943
 30
0.0
 10
121.5329377814062
 20
204.6587951328475
 30
0.0
 10
121.0375921195478
 20
203.8008312791997
 30
0.0
 10
120.7226947439627
 20
203.2554130255163
 30
0.0
 10
120.6098729810777
 20
203.06
 30
0.0
  0
LINE
  5
129
330
1F
100
AcDbEntity
  8
0
  6
Continuous
 62
     7
370
    25
100
AcDbLine
 10
124.94
 20
207.4882032303
 30
0.0
 11
118.94
 21
204.0241016151
 31
0.0
  0
LINE
  5
12A
330
1F
100
AcDbEntity
  8
0
  6
Continuous
 62
     7
370
    25
100
AcDbLine
 10
130.94
 20
204.0241016151
 30
0.0
 11
124.94
 21
207.4882032303
 31
0.0
  0
LINE
  5
12B
330
1F
100
AcDbEntity
  8
0
  6
Continuous
 62
     7
370
    25
100
AcDbLine
 10
118.94
 20
197.0958983849
 30
0.0
 11
124.94
 21
193.6317967697
 31
0.0
  0
LINE
  5
12C
330
1F
100
AcDbEntity
  8
0
  6
Continuous
 62
     7
370
    25
100
AcDbLine
 10
130.94
 20
197.0958983849
 30
0.0
 11
130.94
 21
204.0241016151
 31
0.0
  0
LINE
  5
12D
330
1F
100
AcDbEntity
  8
0
  6
Continuous
 62
     7
370
    25
100
AcDbLine
 10
118.94
 20
204.0241016151
 30
0.0
 11
118.94
 21
197.0958983849
 31
0.0
  0
LINE
  5
12E
330
1F
100
AcDbEntity
  8
0
  6
Continuous
 62
     7
370
    25
100
AcDbLine
 10
124.94
 20
193.6317967697
 30
0.0
 11
130.94
 21
197.0958983849
 31
0.0
  0
ARC
  5
12F
330
1F
100
AcDbEntity
  8
0
  6
Continuous
 62
     7
370
    25
100
AcDbCircle
 10
124.94
 20
200.56
 30
0.0
 40
6.49999999999999
100
AcDbArc
 50
97.380135052
 51
127.9580285807
  0
ARC
  5
130
330
1F
100
AcDbEntity
  8
0
  6
Continuous
 62
     7
370
    25
100
AcDbCircle
 10
124.94
 20
200.56
 30
0.0
 40
6.499999999999987
100
AcDbArc
 50
52.0419714193
 51
82.619864948
  0
LINE
  5
131
330
1F
100
AcDbEntity
  8
0
  6
Continuous
 62
     7
370
    25
100
AcDbLine
 10
156.84
 20
176.06
 30
0.0
 11
156.84
 21
185.06
 31
0.0
  0
LINE
  5
132
330
1F
100
AcDbEntity
  8
0
  6
Continuous
 62
     7
370
    25
100
AcDbLine
 10
156.84
 20
167.06
 30
0.0
 11
156.84
 21
176.06
 31
0.0
  0
LINE
  5
133
330
1F
100
AcDbEntity
  8
0
  6
Continuous
 62
     7
370
    25
100
AcDbLine
 10
157.34
 20
176.06
 30
0.0
 11
157.34
 21
167.56
 31
0.0
  0
LINE
  5
134
330
1F
100
AcDbEntity
  8
0
  6
Continuous
 62
     7
370
    25
100
AcDbLine
 10
157.34
 20
184.56
 30
0.0
 11
157.34
 21
176.06
 31
0.0
  0
CIRCLE
  5
135
330
1F
100
AcDbEntity
  8
0
  6
Continuous
 62
     7
370
    25
100
AcDbCircle
 10
124.94
 20
176.06
 30
0.0
 40
4.549999999999955
  0
CIRCLE
  5
136
330
1F
100
AcDbEntity
  8
0
  6
Continuous
 62
     7
370
    25
100
AcDbCircle
 10
124.94
 20
176.06
 30
0.0
 40
4.25
  0
ARC
  5
137
330
1F
100
AcDbEntity
  8
0
  6
Continuous
 62
     7
370
    25
100
AcDbCircle
 10
124.94
 20
176.06
 30
0.0
 40
13.99999999999999
100
AcDbArc
 50
0.0
 51
44.4153085972
  0
ARC
  5
138
330
1F
100
AcDbEntity
  8
0
  6
Continuous
 62
     7
370
    25
100
AcDbCircle
 10
124.94
 20
176.06
 30
0.0
 40
14.0
100
AcDbArc
 50
135.5846914028
 51
0.0
  0
ARC
  5
139
330
1F
100
AcDbEntity
  8
0
  6
Continuous
 62
     7
370
    25
100
AcDbCircle
 10
124.94
 20
176.06
 30
0.0
 40
15.0
100
AcDbArc
 50
131.8103148958
 51
0.0
  0
ARC
  5
13A
330
1F
100
AcDbEntity
  8
0
  6
Continuous
 62
     7
370
    25
100
AcDbCircle
 10
124.94
 20
176.06
 30
0.0
 40
15.00000000000001
100
AcDbArc
 50
0.0
 51
48.1896851042
  0
LINE
  5
13B
330
1F
100
AcDbEntity
  8
0
  6
Continuous
 62
     7
370
    25
100
AcDbLine
 10
97.74
 20
193.56
 30
0.0
 11
97.44
 21
193.26
 31
0.0
  0
LINE
  5
13C
330
1F
100
AcDbEntity
  8
0
  6
Continuous
 62
     7
370
    25
100
AcDbLine
 10
140.94
 20
193.56
 30
0.0
 11
152.14
 21
193.56
 31
0.0
  0
LINE
  5
13D
330
1F
100
AcDbEntity
  8
0
  6
Continuous
 62
     7
370
    25
100
AcDbLine
 10
152.44
 20
193.26
 30
0.0
 11
152.14
 21
193.56
 31
0.0
  0
LINE
  5
13E
330
1F
100
AcDbEntity
  8
0
  6
Continuous
 62
     7
370
    25
100
AcDbLine
 10
152.44
 20
193.26
 30
0.0
 11
152.44
 21
158.86
 31
0.0
  0
LINE
  5
13F
330
1F
100
AcDbEntity
  8
0
  6
Continuous
 62
     7
370
    25
100
AcDbLine
 10
152.14
 20
158.56
 30
0.0
 11
152.44
 21
158.86
 31
0.0
  0
LINE
  5
140
330
1F
100
AcDbEntity
  8
0
  6
Continuous
 62
     7
370
    25
100
AcDbLine
 10
152.14
 20
158.56
 30
0.0
 11
97.74
 21
158.56
 31
0.0
  0
LINE
  5
141
330
1F
100
AcDbEntity
  8
0
  6
Continuous
 62
     7
370
    25
100
AcDbLine
 10
97.44
 20
158.86
 30
0.0
 11
97.74
 21
158.56
 31
0.0
  0
LINE
  5
142
330
1F
100
AcDbEntity
  8
0
  6
Continuous
 62
     7
370
    25
100
AcDbLine
 10
97.44
 20
158.86
 30
0.0
 11
97.44
 21
193.26
 31
0.0
  0
DIMENSION
  5
143
330
1F
100
AcDbEntity
  8
0
  6
Continuous
 62
     7
370
    18
100
AcDbDimension
  2
_D
 10
85.94
 20
193.56
 30
0.0
 11
85.94
 21
176.06
 31
0.0
 70
   160
  1
<>
 71
     2
 42
-1.0
  3
SLDDIMSTYLE0
100
AcDbAlignedDimension
 13
97.74
 23
158.56
 33
0.0
 14
97.74
 24
193.56
 34
0.0
 50
90.0
100
AcDbRotatedDimension
  0
DIMENSION
  5
14E
330
1F
100
AcDbEntity
  8
0
  6
Continuous
 62
     7
370
    18
100
AcDbDimension
  2
_D_1
 10
97.44
 20
224.06
 30
0.0
 11
124.94
 21
224.06
 31
0.0
 70
   160
  1
<>
 71
     2
 42
-1.0
  3
SLDDIMSTYLE0
100
AcDbAlignedDimension
 13
152.44
 23
193.26
 33
0.0
 14
97.44
 24
193.26
 34
0.0
100
AcDbRotatedDimension
  0
DIMENSION
  5
158
330
1F
100
AcDbEntity
  8
0
  6
Continuous
 62
     7
370
    18
100
AcDbDimension
  2
_D_2
 10
128.1573358544
 20
179.2773358544
 30
0.0
 11
97.44001
 21
148.56001
 31
0.0
 70
   163
  1
M10x1.5
 71
     1
 42
-1.0
  3
SLDDIMSTYLE1
100
AcDbDiametricDimension
 15
121.7226641456
 25
172.8426641456
 35
0.0
 40
0.0
  0
DIMENSION
  5
164
330
1F
100
AcDbEntity
  8
0
  6
Continuous
 62
     7
370
    18
100
AcDbDimension
  2
_D_3
 10
152.44
 20
224.06
 30
0.0
 11
166.2761111935
 21
224.06
 31
0.0
 70
   160
  1
<>
 71
     2
 42
-1.0
  3
SLDDIMSTYLE2
100
AcDbAlignedDimension
 13
157.34
 23
184.56
 33
0.0
 14
152.44
 24
193.26
 34
0.0
100
AcDbRotatedDimension
  0
INSERT
  5
17C
330
1F
100
AcDbEntity
  8
0
  6
Continuous
 62
     7
370
     0
100
AcDbBlockReference
  2
SW_CENTERMARKSYMBOL_0
 10
124.94
 20
176.06
 30
0.0
  0
LINE
  5
17D
330
1F
100
AcDbEntity
  8
0
  6
CENTERX2
 62
     7
370
    18
100
AcDbLine
 10
158.84
 20
176.06
 30
0.0
 11
150.34
 21
176.06
 31
0.0
  0
LINE
  5
17E
330
1F
100
AcDbEntity
  8
0
  6
Continuous
 62
     7
370
    25
100
AcDbLine
 10
288.94
 20
202.46
 30
0.0
 11
240.94
 21
202.46
 31
0.0
  0
LINE
  5
17F
330
1F
100
AcDbEntity
  8
0
  6
Continuous
 62
     7
370
    25
100
AcDbLine
 10
240.94
 20
198.66
 30
0.0
 11
288.94
 21
198.66
 31
0.0
  0
LINE
  5
180
330
1F
100
AcDbEntity
  8
0
  6
Continuous
 62
     7
370
    25
100
AcDbLine
 10
402.94
 20
202.46
 30
0.0
 11
354.94
 21
202.46
 31
0.0
  0
LINE
  5
181
330
1F
100
AcDbEntity
  8
0
  6
Continuous
 62
     7
370
    25
100
AcDbLine
 10
354.94
 20
198.66
 30
0.0
 11
402.94
 21
198.66
 31
0.0
  0
ARC
  5
182
330
1F
100
AcDbEntity
  8
0
  6
Continuous
 62
     7
370
    25
100
AcDbCircle
 10
318.2079491924
 20
205.06
 30
0.0
 40
2.0
100
AcDbArc
 50
30.0
 51
90.0
  0
ARC
  5
183
330
1F
100
AcDbEntity
  8
0
  6
Continuous
 62
     7
370
    25
100
AcDbCircle
 10
318.2079491924
 20
196.06
 30
0.0
 40
1.999999999999972
100
AcDbArc
 50
270.0
 51
330.0
  0
LINE
  5
184
330
1F
100
AcDbEntity
  8
0
  6
Continuous
 62
     7
370
    25
100
AcDbLine
 10
314.94
 20
194.06
 30
0.0
 11
318.2079491924
 21
194.06
 31
0.0
  0
LINE
  5
185
330
1F
100
AcDbEntity
  8
0
  6
Continuous
 62
     7
370
    25
100
AcDbLine
 10
318.2079491924
 20
207.06
 30
0.0
 11
314.94
 21
207.06
 31
0.0
  0
ARC
  5
186
330
1F
100
AcDbEntity
  8
0
  6
Continuous
 62
     7
370
    25
100
AcDbCircle
 10
322.44
 20
205.56
 30
0.0
 40
0.5
100
AcDbArc
 50
0.0
 51
90.0
  0
ARC
  5
187
330
1F
100
AcDbEntity
  8
0
  6
Continuous
 62
     7
370
    25
100
AcDbCircle
 10
322.44
 20
195.56
 30
0.0
 40
0.5
100
AcDbArc
 50
270.0
 51
0.0
  0
LINE
  5
188
330
1F
100
AcDbEntity
  8
0
  6
Continuous
 62
     7
370
    25
100
AcDbLine
 10
319.94
 20
195.06
 30
0.0
 11
322.44
 21
195.06
 31
0.0
  0
LINE
  5
189
330
1F
100
AcDbEntity
  8
0
  6
Continuous
 62
     7
370
    25
100
AcDbLine
 10
322.44
 20
206.06
 30
0.0
 11
319.94
 21
206.06
 31
0.0
  0
ARC
  5
18A
330
1F
100
AcDbEntity
  8
0
  6
Continuous
 62
     7
370
    25
100
AcDbCircle
 10
303.6720508076
 20
196.06
 30
0.0
 40
2.000000000000016
100
AcDbArc
 50
210.0
 51
270.0
  0
ARC
  5
18B
330
1F
100
AcDbEntity
  8
0
  6
Continuous
 62
     7
370
    25
100
AcDbCircle
 10
303.6720508076
 20
205.06
 30
0.0
 40
2.000000000000016
100
AcDbArc
 50
90.0
 51
150.0
  0
LINE
  5
18C
330
1F
100
AcDbEntity
  8
0
  6
Continuous
 62
     7
370
    25
100
AcDbLine
 10
306.94
 20
207.06
 30
0.0
 11
303.6720508076
 21
207.06
 31
0.0
  0
LINE
  5
18D
330
1F
100
AcDbEntity
  8
0
  6
Continuous
 62
     7
370
    25
100
AcDbLine
 10
303.6720508076
 20
194.06
 30
0.0
 11
306.94
 21
194.06
 31
0.0
  0
LINE
  5
18E
330
1F
100
AcDbEntity
  8
0
  6
Continuous
 62
     7
370
    25
100
AcDbLine
 10
301.94
 20
206.06
 30
0.0
 11
299.44
 21
206.06
 31
0.0
  0
LINE
  5
18F
330
1F
100
AcDbEntity
  8
0
  6
Continuous
 62
     7
370
    25
100
AcDbLine
 10
299.44
 20
195.06
 30
0.0
 11
301.94
 21
195.06
 31
0.0
  0
ARC
  5
190
330
1F
100
AcDbEntity
  8
0
  6
Continuous
 62
     7
370
    25
100
AcDbCircle
 10
299.44
 20
195.56
 30
0.0
 40
0.5
100
AcDbArc
 50
180.0
 51
270.0
  0
ARC
  5
191
330
1F
100
AcDbEntity
  8
0
  6
Continuous
 62
     7
370
    25
100
AcDbCircle
 10
299.44
 20
205.56
 30
0.0
 40
0.5
100
AcDbArc
 50
90.0
 51
180.0
  0
LINE
  5
192
330
1F
100
AcDbEntity
  8
0
  6
Continuous
 62
     7
370
    25
100
AcDbLine
 10
327.44
 20
204.9
 30
0.0
 11
327.78
 21
204.56
 31
0.0
  0
LINE
  5
193
330
1F
100
AcDbEntity
  8
0
  6
Continuous
 62
     7
370
    25
100
AcDbLine
 10
332.1
 20
204.56
 30
0.0
 11
332.44
 21
204.9
 31
0.0
  0
LINE
  5
194
330
1F
100
AcDbEntity
  8
0
  6
Continuous
 62
     7
370
    25
100
AcDbLine
 10
327.44
 20
206.76
 30
0.0
 11
327.44
 21
204.9
 31
0.0
  0
LINE
  5
195
330
1F
100
AcDbEntity
  8
0
  6
Continuous
 62
     7
370
    25
100
AcDbLine
 10
332.44
 20
204.9
 30
0.0
 11
332.44
 21
206.76
 31
0.0
  0
ARC
  5
196
330
1F
100
AcDbEntity
  8
0
  6
Continuous
 62
     7
370
    25
100
AcDbCircle
 10
331.64
 20
206.76
 30
0.0
 40
0.8000000000000114
100
AcDbArc
 50
0.0
 51
90.0
  0
ARC
  5
197
330
1F
100
AcDbEntity
  8
0
  6
Continuous
 62
     7
370
    25
100
AcDbCircle
 10
328.24
 20
206.76
 30
0.0
 40
0.8000000000000114
100
AcDbArc
 50
90.0
 51
180.0
  0
LINE
  5
198
330
1F
100
AcDbEntity
  8
0
  6
Continuous
 62
     7
370
    25
100
AcDbLine
 10
402.94
 20
204.56
 30
0.0
 11
322.94
 21
204.56
 31
0.0
  0
LINE
  5
199
330
1F
100
AcDbEntity
  8
0
  6
Continuous
 62
     7
370
    25
100
AcDbLine
 10
314.94
 20
204.56
 30
0.0
 11
306.94
 21
204.56
 31
0.0
  0
LINE
  5
19A
330
1F
100
AcDbEntity
  8
0
  6
Continuous
 62
     7
370
    25
100
AcDbLine
 10
306.94
 20
196.56
 30
0.0
 11
314.94
 21
196.56
 31
0.0
  0
LINE
  5
19B
330
1F
100
AcDbEntity
  8
0
  6
Continuous
 62
     7
370
    25
100
AcDbLine
 10
322.94
 20
196.56
 30
0.0
 11
402.94
 21
196.56
 31
0.0
  0
LINE
  5
19C
330
1F
100
AcDbEntity
  8
0
  6
Continuous
 62
     7
370
    25
100
AcDbLine
 10
456.94
 20
196.56
 30
0.0
 11
457.44
 21
197.06
 31
0.0
  0
LINE
  5
19D
330
1F
100
AcDbEntity
  8
0
  6
Continuous
 62
     7
370
    25
100
AcDbLine
 10
457.44
 20
204.06
 30
0.0
 11
456.94
 21
204.56
 31
0.0
  0
LINE
  5
19E
330
1F
100
AcDbEntity
  8
0
  6
Continuous
 62
     7
370
    25
100
AcDbLine
 10
457.44
 20
197.06
 30
0.0
 11
466.64
 21
197.06
 31
0.0
  0
LINE
  5
19F
330
1F
100
AcDbEntity
  8
0
  6
Continuous
 62
     7
370
    25
100
AcDbLine
 10
481.84
 20
197.06
 30
0.0
 11
483.64
 21
197.06
 31
0.0
  0
LINE
  5
1A0
330
1F
100
AcDbEntity
  8
0
  6
Continuous
 62
     7
370
    25
100
AcDbLine
 10
483.64
 20
204.06
 30
0.0
 11
481.84
 21
204.06
 31
0.0
  0
LINE
  5
1A1
330
1F
100
AcDbEntity
  8
0
  6
Continuous
 62
     7
370
    25
100
AcDbLine
 10
466.64
 20
204.06
 30
0.0
 11
457.44
 21
204.06
 31
0.0
  0
LINE
  5
1A2
330
1F
100
AcDbEntity
  8
0
  6
Continuous
 62
     7
370
    25
100
AcDbLine
 10
483.64
 20
197.06
 30
0.0
 11
484.64
 21
198.06
 31
0.0
  0
LINE
  5
1A3
330
1F
100
AcDbEntity
  8
0
  6
Continuous
 62
     7
370
    25
100
AcDbLine
 10
484.64
 20
203.06
 30
0.0
 11
483.64
 21
204.06
 31
0.0
  0
LINE
  5
1A4
330
1F
100
AcDbEntity
  8
0
  6
Continuous
 62
     7
370
    25
100
AcDbLine
 10
467.14
 20
194.06
 30
0.0
 11
468.44
 21
194.06
 31
0.0
  0
LINE
  5
1A5
330
1F
100
AcDbEntity
  8
0
  6
Continuous
 62
     7
370
    25
100
AcDbLine
 10
468.44
 20
207.06
 30
0.0
 11
467.14
 21
207.06
 31
0.0
  0
ARC
  5
1A6
330
1F
100
AcDbEntity
  8
0
  6
Continuous
 62
     7
370
    25
100
AcDbCircle
 10
467.14
 20
206.56
 30
0.0
 40
0.5
100
AcDbArc
 50
90.0
 51
180.0
  0
ARC
  5
1A7
330
1F
100
AcDbEntity
  8
0
  6
Continuous
 62
     7
370
    25
100
AcDbCircle
 10
467.14
 20
194.56
 30
0.0
 40
0.5
100
AcDbArc
 50
180.0
 51
270.0
  0
ARC
  5
1A8
330
1F
100
AcDbEntity
  8
0
  6
Continuous
 62
     7
370
    25
100
AcDbCircle
 10
468.44
 20
206.56
 30
0.0
 40
0.5
100
AcDbArc
 50
0.0
 51
90.0
  0
ARC
  5
1A9
330
1F
100
AcDbEntity
  8
0
  6
Continuous
 62
     7
370
    25
100
AcDbCircle
 10
468.44
 20
194.56
 30
0.0
 40
0.5
100
AcDbArc
 50
270.0
 51
0.0
  0
LINE
  5
1AA
330
1F
100
AcDbEntity
  8
0
  6
Continuous
 62
     7
370
    25
100
AcDbLine
 10
347.94
 20
167.06
 30
0.0
 11
463.44
 21
167.06
 31
0.0
  0
LINE
  5
1AB
330
1F
100
AcDbEntity
  8
0
  6
Continuous
 62
     7
370
    25
100
AcDbLine
 10
463.44
 20
185.06
 30
0.0
 11
347.94
 21
185.06
 31
0.0
  0
LINE
  5
1AC
330
1F
100
AcDbEntity
  8
0
  6
Continuous
 62
     7
370
    25
100
AcDbLine
 10
463.44
 20
167.06
 30
0.0
 11
463.94
 21
167.56
 31
0.0
  0
LINE
  5
1AD
330
1F
100
AcDbEntity
  8
0
  6
Continuous
 62
     7
370
    25
100
AcDbLine
 10
463.94
 20
184.56
 30
0.0
 11
463.44
 21
185.06
 31
0.0
  0
LINE
  5
1AE
330
1F
100
AcDbEntity
  8
0
  6
Continuous
 62
     7
370
    25
100
AcDbLine
 10
344.94
 20
161.06
 30
0.0
 11
346.94
 21
161.06
 31
0.0
  0
LINE
  5
1AF
330
1F
100
AcDbEntity
  8
0
  6
Continuous
 62
     7
370
    25
100
AcDbLine
 10
346.94
 20
191.06
 30
0.0
 11
344.94
 21
191.06
 31
0.0
  0
LINE
  5
1B0
330
1F
100
AcDbEntity
  8
0
  6
Continuous
 62
     7
370
    25
100
AcDbLine
 10
346.94
 20
161.06
 30
0.0
 11
347.94
 21
162.06
 31
0.0
  0
LINE
  5
1B1
330
1F
100
AcDbEntity
  8
0
  6
Continuous
 62
     7
370
    25
100
AcDbLine
 10
347.94
 20
190.06
 30
0.0
 11
346.94
 21
191.06
 31
0.0
  0
LINE
  5
1B2
330
1F
100
AcDbEntity
  8
0
  6
Continuous
 62
     7
370
    25
100
AcDbLine
 10
240.94
 20
200.56
 30
0.0
 11
240.94
 21
202.46
 31
0.0
  0
LINE
  5
1B3
330
1F
100
AcDbEntity
  8
0
  6
Continuous
 62
     7
370
    25
100
AcDbLine
 10
240.94
 20
198.66
 30
0.0
 11
240.94
 21
200.56
 31
0.0
  0
LINE
  5
1B4
330
1F
100
AcDbEntity
  8
0
  6
Continuous
 62
     7
370
    25
100
AcDbLine
 10
354.94
 20
198.66
 30
0.0
 11
354.94
 21
202.46
 31
0.0
  0
LINE
  5
1B5
330
1F
100
AcDbEntity
  8
0
  6
Continuous
 62
     7
370
    25
100
AcDbLine
 10
319.94
 20
206.06
 30
0.0
 11
319.94
 21
195.06
 31
0.0
  0
LINE
  5
1B6
330
1F
100
AcDbEntity
  8
0
  6
Continuous
 62
     7
370
    25
100
AcDbLine
 10
314.94
 20
207.06
 30
0.0
 11
314.94
 21
194.06
 31
0.0
  0
LINE
  5
1B7
330
1F
100
AcDbEntity
  8
0
  6
Continuous
 62
     7
370
    25
100
AcDbLine
 10
322.94
 20
205.56
 30
0.0
 11
322.94
 21
195.56
 31
0.0
  0
LINE
  5
1B8
330
1F
100
AcDbEntity
  8
0
  6
Continuous
 62
     7
370
    25
100
AcDbLine
 10
301.94
 20
200.56
 30
0.0
 11
301.94
 21
206.06
 31
0.0
  0
LINE
  5
1B9
330
1F
100
AcDbEntity
  8
0
  6
Continuous
 62
     7
370
    25
100
AcDbLine
 10
301.94
 20
195.06
 30
0.0
 11
301.94
 21
200.56
 31
0.0
  0
LINE
  5
1BA
330
1F
100
AcDbEntity
  8
0
  6
Continuous
 62
     7
370
    25
100
AcDbLine
 10
306.94
 20
200.56
 30
0.0
 11
306.94
 21
207.06
 31
0.0
  0
LINE
  5
1BB
330
1F
100
AcDbEntity
  8
0
  6
Continuous
 62
     7
370
    25
100
AcDbLine
 10
306.94
 20
194.06
 30
0.0
 11
306.94
 21
200.56
 31
0.0
  0
LINE
  5
1BC
330
1F
100
AcDbEntity
  8
0
  6
Continuous
 62
     7
370
    25
100
AcDbLine
 10
327.44
 20
204.9
 30
0.0
 11
332.44
 21
204.9
 31
0.0
  0
LINE
  5
1BD
330
1F
100
AcDbEntity
  8
0
  6
Continuous
 62
     7
370
    25
100
AcDbLine
 10
328.2400002048
 20
207.56
 30
0.0
 11
331.64
 21
207.56
 31
0.0
  0
LINE
  5
1BE
330
1F
100
AcDbEntity
  8
0
  6
Continuous
 62
     7
370
    25
100
AcDbLine
 10
402.94
 20
207.26
 30
0.0
 11
402.94
 21
193.56
 31
0.0
  0
LINE
  5
1BF
330
1F
100
AcDbEntity
  8
0
  6
Continuous
 62
     7
370
    25
100
AcDbLine
 10
456.94
 20
207.26
 30
0.0
 11
402.94
 21
207.26
 31
0.0
  0
LINE
  5
1C0
330
1F
100
AcDbEntity
  8
0
  6
Continuous
 62
     7
370
    25
100
AcDbLine
 10
456.94
 20
207.26
 30
0.0
 11
456.94
 21
193.56
 31
0.0
  0
LINE
  5
1C1
330
1F
100
AcDbEntity
  8
0
  6
Continuous
 62
     7
370
    25
100
AcDbLine
 10
402.94
 20
193.56
 30
0.0
 11
456.94
 21
193.56
 31
0.0
  0
LINE
  5
1C2
330
1F
100
AcDbEntity
  8
0
  6
Continuous
 62
     7
370
    25
100
AcDbLine
 10
403.24
 20
207.56
 30
0.0
 11
456.64
 21
207.56
 31
0.0
  0
ARC
  5
1C3
330
1F
100
AcDbEntity
  8
0
  6
Continuous
 62
     7
370
    25
100
AcDbCircle
 10
456.64
 20
207.26
 30
0.0
 40
0.3000000000000114
100
AcDbArc
 50
0.0
 51
90.0
  0
ARC
  5
1C4
330
1F
100
AcDbEntity
  8
0
  6
Continuous
 62
     7
370
    25
100
AcDbCircle
 10
403.24
 20
207.26
 30
0.0
 40
0.3000000000000114
100
AcDbArc
 50
90.0
 51
180.0
  0
LINE
  5
1C5
330
1F
100
AcDbEntity
  8
0
  6
Continuous
 62
     7
370
    25
100
AcDbLine
 10
299.24
 20
207.56
 30
0.0
 11
326.64
 21
207.56
 31
0.0
  0
LINE
  5
1C6
330
1F
100
AcDbEntity
  8
0
  6
Continuous
 62
     7
370
    25
100
AcDbLine
 10
326.64
 20
207.56
 30
0.0
 11
326.64
 21
207.26
 31
0.0
  0
LINE
  5
1C7
330
1F
100
AcDbEntity
  8
0
  6
Continuous
 62
     7
370
    25
100
AcDbLine
 10
326.64
 20
207.26
 30
0.0
 11
298.94
 21
207.26
 31
0.0
  0
ARC
  5
1C8
330
1F
100
AcDbEntity
  8
0
  6
Continuous
 62
     7
370
    25
100
AcDbCircle
 10
299.24
 20
207.26
 30
0.0
 40
0.3000000000000114
100
AcDbArc
 50
90.0
 51
180.0
  0
LINE
  5
1C9
330
1F
100
AcDbEntity
  8
0
  6
Continuous
 62
     7
370
    25
100
AcDbLine
 10
327.24
 20
204.56
 30
0.0
 11
332.64
 21
204.56
 31
0.0
  0
LINE
  5
1CA
330
1F
100
AcDbEntity
  8
0
  6
Continuous
 62
     7
370
    25
100
AcDbLine
 10
326.64
 20
204.86
 30
0.0
 11
326.94
 21
204.86
 31
0.0
  0
ARC
  5
1CB
330
1F
100
AcDbEntity
  8
0
  6
Continuous
 62
     7
370
    25
100
AcDbCircle
 10
327.24
 20
204.86
 30
0.0
 40
0.3000000000000114
100
AcDbArc
 50
180.0
 51
270.0
  0
LINE
  5
1CC
330
1F
100
AcDbEntity
  8
0
  6
Continuous
 62
     7
370
    25
100
AcDbLine
 10
326.64
 20
204.86
 30
0.0
 11
326.64
 21
207.26
 31
0.0
  0
LINE
  5
1CD
330
1F
100
AcDbEntity
  8
0
  6
Continuous
 62
     7
370
    25
100
AcDbLine
 10
332.94
 20
196.56
 30
0.0
 11
332.94
 21
193.56
 31
0.0
  0
LINE
  5
1CE
330
1F
100
AcDbEntity
  8
0
  6
Continuous
 62
     7
370
    25
100
AcDbLine
 10
326.94
 20
207.26
 30
0.0
 11
326.64
 21
207.26
 31
0.0
  0
ARC
  5
1CF
330
1F
100
AcDbEntity
  8
0
  6
Continuous
 62
     7
370
    25
100
AcDbCircle
 10
326.64
 20
207.26
 30
0.0
 40
0.2999999999999829
100
AcDbArc
 50
0.0
 51
90.0
  0
LINE
  5
1D0
330
1F
100
AcDbEntity
  8
0
  6
Continuous
 62
     7
370
    25
100
AcDbLine
 10
326.94
 20
207.26
 30
0.0
 11
326.94
 21
204.86
 31
0.0
  0
LINE
  5
1D1
330
1F
100
AcDbEntity
  8
0
  6
Continuous
 62
     7
370
    25
100
AcDbLine
 10
326.64
 20
207.56
 30
0.0
 11
328.2400002048
 21
207.56
 31
0.0
  0
LINE
  5
1D2
330
1F
100
AcDbEntity
  8
0
  6
Continuous
 62
     7
370
    25
100
AcDbLine
 10
332.64
 20
204.86
 30
0.0
 11
332.64
 21
204.56
 31
0.0
  0
LINE
  5
1D3
330
1F
100
AcDbEntity
  8
0
  6
Continuous
 62
     7
370
    25
100
AcDbLine
 10
332.94
 20
204.86
 30
0.0
 11
332.64
 21
204.86
 31
0.0
  0
LINE
  5
1D4
330
1F
100
AcDbEntity
  8
0
  6
Continuous
 62
     7
370
    25
100
AcDbLine
 10
332.94
 20
204.56
 30
0.0
 11
332.94
 21
204.86
 31
0.0
  0
LINE
  5
1D5
330
1F
100
AcDbEntity
  8
0
  6
Continuous
 62
     7
370
    25
100
AcDbLine
 10
332.64
 20
207.26
 30
0.0
 11
332.64
 21
207.56
 31
0.0
  0
LINE
  5
1D6
330
1F
100
AcDbEntity
  8
0
  6
Continuous
 62
     7
370
    25
100
AcDbLine
 10
331.64
 20
207.56
 30
0.0
 11
332.64
 21
207.56
 31
0.0
  0
ARC
  5
1D7
330
1F
100
AcDbEntity
  8
0
  6
Continuous
 62
     7
370
    25
100
AcDbCircle
 10
332.64
 20
207.26
 30
0.0
 40
0.3000000000000114
100
AcDbArc
 50
0.0
 51
90.0
  0
LINE
  5
1D8
330
1F
100
AcDbEntity
  8
0
  6
Continuous
 62
     7
370
    25
100
AcDbLine
 10
332.64
 20
207.26
 30
0.0
 11
332.94
 21
207.26
 31
0.0
  0
LINE
  5
1D9
330
1F
100
AcDbEntity
  8
0
  6
Continuous
 62
     7
370
    25
100
AcDbLine
 10
332.64
 20
204.86
 30
0.0
 11
332.64
 21
207.26
 31
0.0
  0
LINE
  5
1DA
330
1F
100
AcDbEntity
  8
0
  6
Continuous
 62
     7
370
    25
100
AcDbLine
 10
332.94
 20
207.26
 30
0.0
 11
332.94
 21
204.86
 31
0.0
  0
LINE
  5
1DB
330
1F
100
AcDbEntity
  8
0
  6
Continuous
 62
     7
370
    25
100
AcDbLine
 10
342.94
 20
207.26
 30
0.0
 11
332.94
 21
207.26
 31
0.0
  0
LINE
  5
1DC
330
1F
100
AcDbEntity
  8
0
  6
Continuous
 62
     7
370
    25
100
AcDbLine
 10
342.94
 20
207.26
 30
0.0
 11
342.94
 21
204.56
 31
0.0
  0
LINE
  5
1DD
330
1F
100
AcDbEntity
  8
0
  6
Continuous
 62
     7
370
    25
100
AcDbLine
 10
342.94
 20
196.56
 30
0.0
 11
342.94
 21
193.56
 31
0.0
  0
ARC
  5
1DE
330
1F
100
AcDbEntity
  8
0
  6
Continuous
 62
     7
370
    25
100
AcDbCircle
 10
342.64
 20
207.26
 30
0.0
 40
0.2999999999999829
100
AcDbArc
 50
0.0
 51
90.0
  0
LINE
  5
1DF
330
1F
100
AcDbEntity
  8
0
  6
Continuous
 62
     7
370
    25
100
AcDbLine
 10
332.64
 20
207.56
 30
0.0
 11
342.64
 21
207.56
 31
0.0
  0
LINE
  5
1E0
330
1F
100
AcDbEntity
  8
0
  6
Continuous
 62
     7
370
    25
100
AcDbLine
 10
298.94
 20
207.56
 30
0.0
 11
299.24
 21
207.56
 31
0.0
  0
LINE
  5
1E1
330
1F
100
AcDbEntity
  8
0
  6
Continuous
 62
     7
370
    25
100
AcDbLine
 10
457.44
 20
204.06
 30
0.0
 11
457.44
 21
197.06
 31
0.0
  0
LINE
  5
1E2
330
1F
100
AcDbEntity
  8
0
  6
Continuous
 62
     7
370
    25
100
AcDbLine
 10
483.64
 20
197.06
 30
0.0
 11
483.64
 21
204.06
 31
0.0
  0
LINE
  5
1E3
330
1F
100
AcDbEntity
  8
0
  6
Continuous
 62
     7
370
    25
100
AcDbLine
 10
484.64
 20
198.0963150857
 30
0.0
 11
484.64
 21
198.06
 31
0.0
  0
LINE
  5
1E4
330
1F
100
AcDbEntity
  8
0
  6
Continuous
 62
     7
370
    25
100
AcDbLine
 10
484.64
 20
203.06
 30
0.0
 11
484.64
 21
198.0963150857
 31
0.0
  0
LINE
  5
1E5
330
1F
100
AcDbEntity
  8
0
  6
Continuous
 62
     7
370
    25
100
AcDbLine
 10
298.94
 20
207.56
 30
0.0
 11
298.94
 21
193.56
 31
0.0
  0
LINE
  5
1E6
330
1F
100
AcDbEntity
  8
0
  6
Continuous
 62
     7
370
    25
100
AcDbLine
 10
288.94
 20
207.56
 30
0.0
 11
288.94
 21
193.56
 31
0.0
  0
LINE
  5
1E7
330
1F
100
AcDbEntity
  8
0
  6
Continuous
 62
     7
370
    25
100
AcDbLine
 10
288.94
 20
207.56
 30
0.0
 11
298.94
 21
207.56
 31
0.0
  0
LINE
  5
1E8
330
1F
100
AcDbEntity
  8
0
  6
Continuous
 62
     7
370
    25
100
AcDbLine
 10
456.94
 20
207.56
 30
0.0
 11
456.94
 21
207.26
 31
0.0
  0
LINE
  5
1E9
330
1F
100
AcDbEntity
  8
0
  6
Continuous
 62
     7
370
    25
100
AcDbLine
 10
456.94
 20
207.56
 30
0.0
 11
456.64
 21
207.56
 31
0.0
  0
LINE
  5
1EA
330
1F
100
AcDbEntity
  8
0
  6
Continuous
 62
     7
370
    25
100
AcDbLine
 10
474.94
 20
166.06
 30
0.0
 11
468.94
 21
166.06
 31
0.0
  0
LINE
  5
1EB
330
1F
100
AcDbEntity
  8
0
  6
Continuous
 62
     7
370
    25
100
AcDbLine
 10
468.94
 20
170.3
 30
0.0
 11
474.94
 21
170.3
 31
0.0
  0
LINE
  5
1EC
330
1F
100
AcDbEntity
  8
0
  6
Continuous
 62
     7
370
    25
100
AcDbLine
 10
474.94
 20
170.3
 30
0.0
 11
474.94
 21
166.06
 31
0.0
  0
LINE
  5
1ED
330
1F
100
AcDbEntity
  8
0
  6
Continuous
 62
     7
370
    25
100
AcDbLine
 10
468.94
 20
166.06
 30
0.0
 11
468.94
 21
170.3
 31
0.0
  0
LINE
  5
1EE
330
1F
100
AcDbEntity
  8
0
  6
Continuous
 62
     7
370
    25
100
AcDbLine
 10
474.94
 20
214.06
 30
0.0
 11
468.94
 21
214.06
 31
0.0
  0
LINE
  5
1EF
330
1F
100
AcDbEntity
  8
0
  6
Continuous
 62
     7
370
    25
100
AcDbLine
 10
474.94
 20
214.06
 30
0.0
 11
474.94
 21
170.3
 31
0.0
  0
LINE
  5
1F0
330
1F
100
AcDbEntity
  8
0
  6
Continuous
 62
     7
370
    25
100
AcDbLine
 10
468.94
 20
214.06
 30
0.0
 11
468.94
 21
170.3
 31
0.0
  0
LINE
  5
1F1
330
1F
100
AcDbEntity
  8
0
  6
Continuous
 62
     7
370
    25
100
AcDbLine
 10
481.84
 20
203.06
 30
0.0
 11
481.84
 21
198.06
 31
0.0
  0
SPLINE
  5
1F2
330
1F
100
AcDbEntity
  8
0
  6
Continuous
 62
     7
370
    25
100
AcDbSpline
210
0.0
220
0.0
230
1.0
 70
     8
 71
     3
 72
    10
 73
     6
 74
     0
 42
0.000000001
 43
0.00000001
 40
0.0
 40
0.0
 40
0.0
 40
0.0
 40
0.3835516575406647
 40
0.7791382395785864
 40
1.0
 40
1.0
 40
1.0
 40
1.0
 10
480.9181753880515
 20
200.56
 30
0.0
 10
481.1070966690838
 20
200.2627078144942
 30
0.0
 10
481.4908671245846
 20
199.6587951328474
 30
0.0
 10
481.7973503417505
 20
198.8008312791997
 30
0.0
 10
481.8287500717238
 20
198.2554130255162
 30
0.0
 10
481.84
 20
198.0599999999999
 30
0.0
  0
SPLINE
  5
1F3
330
1F
100
AcDbEntity
  8
0
  6
Continuous
 62
     7
370
    25
100
AcDbSpline
210
0.0
220
0.0
230
1.0
 70
     8
 71
     3
 72
    11
 73
     7
 74
     0
 42
0.000000001
 43
0.00000001
 40
0.0
 40
0.0
 40
0.0
 40
0.0
 40
0.2752499309051559
 40
0.5879188452800066
 40
0.9093114286132367
 40
1.0
 40
1.0
 40
1.0
 40
1.0
 10
481.84
 20
203.06
 30
0.0
 10
481.8231644659509
 20
202.8161224720452
 30
0.0
 10
481.7872046831263
 20
202.2952133689858
 30
0.0
 10
481.4995257502512
 20
201.5224194759674
 30
0.0
 10
481.1774474797376
 20
200.9440361412201
 30
0.0
 10
480.9649423558591
 20
200.6292716510157
 30
0.0
 10
480.9181753880515
 20
200.56
 30
0.0
  0
SPLINE
  5
1F4
330
1F
100
AcDbEntity
  8
0
  6
Continuous
 62
     7
370
    25
100
AcDbSpline
210
0.0
220
0.0
230
1.0
 70
     8
 71
     3
 72
    11
 73
     7
 74
     0
 42
0.000000001
 43
0.00000001
 40
0.0
 40
0.0
 40
0.0
 40
0.0
 40
0.2752499309051422
 40
0.5879188452799889
 40
0.9093114286132101
 40
0.9999999999999999
 40
0.9999999999999999
 40
0.9999999999999999
 40
0.9999999999999999
 10
481.84
 20
198.0599999999999
 30
0.0
 10
481.823164465951
 20
197.8161224720451
 30
0.0
 10
481.7872046831265
 20
197.2952133689858
 30
0.0
 10
481.4995257502513
 20
196.5224194759674
 30
0.0
 10
481.1774474797377
 20
195.9440361412201
 30
0.0
 10
480.9649423558592
 20
195.6292716510158
 30
0.0
 10
480.9181753880516
 20
195.5600000000001
 30
0.0
  0
LINE
  5
1F5
330
1F
100
AcDbEntity
  8
0
  6
Continuous
 62
     7
370
    25
100
AcDbLine
 10
480.9181753881
 20
195.56
 30
0.0
 11
478.64
 21
195.56
 31
0.0
  0
LINE
  5
1F6
330
1F
100
AcDbEntity
  8
0
  6
Continuous
 62
     7
370
    25
100
AcDbLine
 10
480.9181753881
 20
200.56
 30
0.0
 11
478.64
 21
200.56
 31
0.0
  0
LINE
  5
1F7
330
1F
100
AcDbEntity
  8
0
  6
Continuous
 62
     7
370
    25
100
AcDbLine
 10
480.9181753881
 20
205.56
 30
0.0
 11
478.64
 21
205.56
 31
0.0
  0
SPLINE
  5
1F8
330
1F
100
AcDbEntity
  8
0
  6
Continuous
 62
     7
370
    25
100
AcDbSpline
210
0.0
220
0.0
230
1.0
 70
     8
 71
     3
 72
    10
 73
     6
 74
     0
 42
0.000000001
 43
0.00000001
 40
0.0
 40
0.0
 40
0.0
 40
0.0
 40
0.3835516575406636
 40
0.779138239578581
 40
1.0
 40
1.0
 40
1.0
 40
1.0
 10
480.9181753880513
 20
205.5600000000001
 30
0.0
 10
481.1070966690837
 20
205.2627078144943
 30
0.0
 10
481.4908671245845
 20
204.6587951328475
 30
0.0
 10
481.7973503417501
 20
203.8008312791997
 30
0.0
 10
481.8287500717238
 20
203.2554130255163
 30
0.0
 10
481.84
 20
203.06
 30
0.0
  0
SPLINE
  5
1F9
330
1F
100
AcDbEntity
  8
0
  6
Continuous
 62
     7
370
    25
100
AcDbSpline
210
0.0
220
0.0
230
1.0
 70
    24
 71
     3
 72
     9
 73
     5
 74
     0
 42
0.000000001
 43
0.00000001
 40
0.0
 40
0.0
 40
0.0
 40
0.0
 40
0.4654453915389392
 40
1.0
 40
1.0
 40
1.0
 40
1.0
 10
481.84
 20
205.5600000000001
 30
0.0
 10
481.7918632342346
 20
205.5600000000001
 30
0.0
 10
481.688442367597
 20
205.5600000000002
 30
0.0
 10
481.1864941310868
 20
205.5600000000001
 30
0.0
 10
480.9181753880513
 20
205.5600000000001
 30
0.0
  0
LINE
  5
1FA
330
1F
100
AcDbEntity
  8
0
  6
Continuous
 62
     7
370
    25
100
AcDbLine
 10
481.84
 20
205.56
 30
0.0
 11
481.84
 21
203.06
 31
0.0
  0
SPLINE
  5
1FB
330
1F
100
AcDbEntity
  8
0
  6
Continuous
 62
     7
370
    25
100
AcDbSpline
210
0.0
220
0.0
230
1.0
 70
    24
 71
     3
 72
    10
 73
     6
 74
     0
 42
0.000000001
 43
0.00000001
 40
0.0
 40
0.0
 40
0.0
 40
0.0
 40
0.4564348785715918
 40
0.9595524360150205
 40
0.9999999999999999
 40
0.9999999999999999
 40
0.9999999999999999
 40
0.9999999999999999
 10
480.9181753880516
 20
195.5600000000001
 30
0.0
 10
481.1416387686293
 20
195.5600000000001
 30
0.0
 10
481.6114206395162
 20
195.5600000000001
 30
0.0
 10
481.8343081969664
 20
195.56
 30
0.0
 10
481.8396057969748
 20
195.5600000000001
 30
0.0
 10
481.84
 20
195.5600000000001
 30
0.0
  0
LINE
  5
1FC
330
1F
100
AcDbEntity
  8
0
  6
Continuous
 62
     7
370
    25
100
AcDbLine
 10
481.84
 20
198.06
 30
0.0
 11
481.84
 21
195.56
 31
0.0
  0
LINE
  5
1FD
330
1F
100
AcDbEntity
  8
0
  6
Continuous
 62
     7
370
    25
100
AcDbLine
 10
478.64
 20
204.0241016151
 30
0.0
 11
474.94
 21
204.0241016151
 31
0.0
  0
LINE
  5
1FE
330
1F
100
AcDbEntity
  8
0
  6
Continuous
 62
     7
370
    25
100
AcDbLine
 10
478.64
 20
197.0958983849
 30
0.0
 11
474.94
 21
197.0958983849
 31
0.0
  0
LINE
  5
1FF
330
1F
100
AcDbEntity
  8
0
  6
Continuous
 62
     7
370
    25
100
AcDbLine
 10
478.64
 20
204.0241016151
 30
0.0
 11
478.64
 21
197.0958983849
 31
0.0
  0
LINE
  5
200
330
1F
100
AcDbEntity
  8
0
  6
Continuous
 62
     7
370
    25
100
AcDbLine
 10
478.64
 20
193.6317967697
 30
0.0
 11
474.94
 21
193.6317967697
 31
0.0
  0
LINE
  5
201
330
1F
100
AcDbEntity
  8
0
  6
Continuous
 62
     7
370
    25
100
AcDbLine
 10
478.64
 20
197.0958983849
 30
0.0
 11
478.64
 21
193.6317967697
 31
0.0
  0
LINE
  5
202
330
1F
100
AcDbEntity
  8
0
  6
Continuous
 62
     7
370
    25
100
AcDbLine
 10
478.64
 20
207.4882032303
 30
0.0
 11
474.94
 21
207.4882032303
 31
0.0
  0
LINE
  5
203
330
1F
100
AcDbEntity
  8
0
  6
Continuous
 62
     7
370
    25
100
AcDbLine
 10
478.64
 20
207.4882032303
 30
0.0
 11
478.64
 21
204.0241016151
 31
0.0
  0
LINE
  5
204
330
1F
100
AcDbEntity
  8
0
  6
Continuous
 62
     7
370
    25
100
AcDbLine
 10
466.64
 20
194.56
 30
0.0
 11
466.64
 21
206.56
 31
0.0
  0
LINE
  5
205
330
1F
100
AcDbEntity
  8
0
  6
Continuous
 62
     7
370
    25
100
AcDbLine
 10
463.44
 20
167.06
 30
0.0
 11
463.44
 21
185.06
 31
0.0
  0
LINE
  5
206
330
1F
100
AcDbEntity
  8
0
  6
Continuous
 62
     7
370
    25
100
AcDbLine
 10
463.94
 20
183.56
 30
0.0
 11
463.94
 21
180.06
 31
0.0
  0
LINE
  5
207
330
1F
100
AcDbEntity
  8
0
  6
Continuous
 62
     7
370
    25
100
AcDbLine
 10
463.94
 20
180.06
 30
0.0
 11
463.94
 21
172.06
 31
0.0
  0
LINE
  5
208
330
1F
100
AcDbEntity
  8
0
  6
Continuous
 62
     7
370
    25
100
AcDbLine
 10
463.94
 20
172.06
 30
0.0
 11
463.94
 21
168.56
 31
0.0
  0
LINE
  5
209
330
1F
100
AcDbEntity
  8
0
  6
Continuous
 62
     7
370
    25
100
AcDbLine
 10
463.94
 20
168.56
 30
0.0
 11
463.94
 21
167.56
 31
0.0
  0
LINE
  5
20A
330
1F
100
AcDbEntity
  8
0
  6
Continuous
 62
     7
370
    25
100
AcDbLine
 10
463.94
 20
184.56
 30
0.0
 11
463.94
 21
183.56
 31
0.0
  0
LINE
  5
20B
330
1F
100
AcDbEntity
  8
0
  6
Continuous
 62
     7
370
    25
100
AcDbLine
 10
463.94
 20
180.06
 30
0.0
 11
468.64
 21
180.06
 31
0.0
  0
LINE
  5
20C
330
1F
100
AcDbEntity
  8
0
  6
Continuous
 62
     7
370
    25
100
AcDbLine
 10
468.94
 20
179.3751168909
 30
0.0
 11
468.64
 21
180.06
 31
0.0
  0
LINE
  5
20D
330
1F
100
AcDbEntity
  8
0
  6
Continuous
 62
     7
370
    25
100
AcDbLine
 10
468.64
 20
172.06
 30
0.0
 11
468.94
 21
172.7448831091
 31
0.0
  0
LINE
  5
20E
330
1F
100
AcDbEntity
  8
0
  6
Continuous
 62
     7
370
    25
100
AcDbLine
 10
463.94
 20
172.06
 30
0.0
 11
468.64
 21
172.06
 31
0.0
  0
LINE
  5
20F
330
1F
100
AcDbEntity
  8
0
  6
Continuous
 62
     7
370
    25
100
AcDbLine
 10
468.64
 20
168.56
 30
0.0
 11
468.64
 21
172.06
 31
0.0
  0
LINE
  5
210
330
1F
100
AcDbEntity
  8
0
  6
Continuous
 62
     7
370
    25
100
AcDbLine
 10
468.94
 20
168.56
 30
0.0
 11
468.64
 21
168.56
 31
0.0
  0
LINE
  5
211
330
1F
100
AcDbEntity
  8
0
  6
Continuous
 62
     7
370
    25
100
AcDbLine
 10
468.64
 20
180.06
 30
0.0
 11
468.64
 21
183.56
 31
0.0
  0
LINE
  5
212
330
1F
100
AcDbEntity
  8
0
  6
Continuous
 62
     7
370
    25
100
AcDbLine
 10
468.64
 20
183.56
 30
0.0
 11
468.94
 21
183.56
 31
0.0
  0
LINE
  5
213
330
1F
100
AcDbEntity
  8
0
  6
Continuous
 62
     7
370
    25
100
AcDbLine
 10
463.94
 20
168.56
 30
0.0
 11
468.64
 21
168.56
 31
0.0
  0
LINE
  5
214
330
1F
100
AcDbEntity
  8
0
  6
Continuous
 62
     7
370
    25
100
AcDbLine
 10
463.94
 20
183.56
 30
0.0
 11
468.64
 21
183.56
 31
0.0
  0
LINE
  5
215
330
1F
100
AcDbEntity
  8
0
  6
Continuous
 62
     7
370
    25
100
AcDbLine
 10
346.94
 20
161.06
 30
0.0
 11
346.94
 21
191.06
 31
0.0
  0
LINE
  5
216
330
1F
100
AcDbEntity
  8
0
  6
Continuous
 62
     7
370
    25
100
AcDbLine
 10
347.94
 20
190.06
 30
0.0
 11
347.94
 21
162.06
 31
0.0
  0
LINE
  5
217
330
1F
100
AcDbEntity
  8
0
  6
Continuous
 62
     7
370
    25
100
AcDbLine
 10
334.2282612179
 20
163.201025641
 30
0.0
 11
334.081025641
 21
163.201025641
 31
0.0
  0
SPLINE
  5
218
330
1F
100
AcDbEntity
  8
0
  6
Continuous
 62
     7
370
    25
100
AcDbSpline
210
0.0
220
0.0
230
1.0
 70
     8
 71
     3
 72
     9
 73
     5
 74
     0
 42
0.000000001
 43
0.00000001
 40
0.0
 40
0.0
 40
0.0
 40
0.0
 40
0.5588328183272361
 40
1.0
 40
1.0
 40
1.0
 40
1.0
 10
334.8739943910257
 20
163.1028685897436
 30
0.0
 10
334.7560419915921
 20
163.1377578592453
 30
0.0
 10
334.5449727852655
 20
163.2001902511119
 30
0.0
 10
334.3252123221184
 20
163.2007699131555
 30
0.0
 10
334.2282612179487
 20
163.2010256410256
 30
0.0
  0
SPLINE
  5
219
330
1F
100
AcDbEntity
  8
0
  6
Continuous
 62
     7
370
    25
100
AcDbSpline
210
0.0
220
0.0
230
1.0
 70
     8
 71
     3
 72
    10
 73
     6
 74
     0
 42
0.000000001
 43
0.00000001
 40
0.0
 40
0.0
 40
0.0
 40
0.0
 40
0.5599051122412627
 40
0.7805074142072769
 40
1.0
 40
1.0
 40
1.0
 40
1.0
 10
335.4271794871795
 20
161.7665304487179
 30
0.0
 10
335.4071639769919
 20
162.0497053286628
 30
0.0
 10
335.3792623669528
 20
162.4444509533804
 30
0.0
 10
335.1478555466364
 20
162.908040449559
 30
0.0
 10
334.9651278579327
 20
163.0380351385501
 30
0.0
 10
334.8739943910257
 20
163.1028685897436
 30
0.0
  0
SPLINE
  5
21A
330
1F
100
AcDbEntity
  8
0
  6
Continuous
 62
     7
370
    25
100
AcDbSpline
210
0.0
220
0.0
230
1.0
 70
     8
 71
     3
 72
    10
 73
     6
 74
     0
 42
0.000000001
 43
0.00000001
 40
0.0
 40
0.0
 40
0.0
 40
0.0
 40
0.2782874991436126
 40
0.5588626993535206
 40
1.0
 40
1.0
 40
1.0
 40
1.0
 10
334.9223717948718
 20
160.5080168269231
 30
0.0
 10
335.0250738080612
 20
160.5926657321544
 30
0.0
 10
335.2313221106141
 20
160.762659410708
 30
0.0
 10
335.3961734511219
 20
161.2209220021554
 30
0.0
 10
335.4154170746714
 20
161.5595490853334
 30
0.0
 10
335.4271794871795
 20
161.7665304487179
 30
0.0
  0
SPLINE
  5
21B
330
1F
100
AcDbEntity
  8
0
  6
Continuous
 62
     7
370
    25
100
AcDbSpline
210
0.0
220
0.0
230
1.0
 70
     8
 71
     3
 72
     9
 73
     5
 74
     0
 42
0.000000001
 43
0.00000001
 40
0.0
 40
0.0
 40
0.0
 40
0.0
 40
0.5610175304379389
 40
1.0
 40
1.0
 40
1.0
 40
1.0
 10
334.3222115384615
 20
160.4189743589743
 30
0.0
 10
334.4371860576826
 20
160.4186557294393
 30
0.0
 10
334.642125320688
 20
160.4180877801012
 30
0.0
 10
334.8368785439633
 20
160.4805826670954
 30
0.0
 10
334.9223717948718
 20
160.5080168269231
 30
0.0
  0
LINE
  5
21C
330
1F
100
AcDbEntity
  8
0
  6
Continuous
 62
     7
370
    25
100
AcDbLine
 10
334.081025641
 20
160.418974359
 30
0.0
 11
334.3222115385
 21
160.418974359
 31
0.0
  0
LINE
  5
21D
330
1F
100
AcDbEntity
  8
0
  6
Continuous
 62
     7
370
    25
100
AcDbLine
 10
334.081025641
 20
163.201025641
 30
0.0
 11
334.081025641
 21
160.418974359
 31
0.0
  0
SPLINE
  5
21E
330
1F
100
AcDbEntity
  8
0
  6
Continuous
 62
     7
370
    25
100
AcDbSpline
210
0.0
220
0.0
230
1.0
 70
     8
 71
     3
 72
     9
 73
     5
 74
     0
 42
0.000000001
 43
0.00000001
 40
0.0
 40
0.0
 40
0.0
 40
0.0
 40
0.5592435255972086
 40
0.9999999999999999
 40
0.9999999999999999
 40
0.9999999999999999
 40
0.9999999999999999
 10
330.4506169871795
 20
161.678890224359
 30
0.0
 10
330.3809069264104
 20
161.6939081949928
 30
0.0
 10
330.256256291082
 20
161.720762275454
 30
0.0
 10
330.1288621376638
 20
161.7204111646268
 30
0.0
 10
330.0727123397436
 20
161.7202564102564
 30
0.0
  0
SPLINE
  5
21F
330
1F
100
AcDbEntity
  8
0
  6
Continuous
 62
     7
370
    25
100
AcDbSpline
210
0.0
220
0.0
230
1.0
 70
     8
 71
     3
 72
    10
 73
     6
 74
     0
 42
0.000000001
 43
0.00000001
 40
0.0
 40
0.0
 40
0.0
 40
0.0
 40
0.5579341166845264
 40
0.7790958377380325
 40
1.0
 40
1.0
 40
1.0
 40
1.0
 10
330.8053846153846
 20
161.0534895833333
 30
0.0
 10
330.7881458359744
 20
161.197138684201
 30
0.0
 10
330.7640737083081
 20
161.3977294228457
 30
0.0
 10
330.6020797567122
 20
161.6033934089334
 30
0.0
 10
330.5010849629812
 20
161.6537343958622
 30
0.0
 10
330.4506169871795
 20
161.678890224359
 30
0.0
  0
SPLINE
  5
220
330
1F
100
AcDbEntity
  8
0
  6
Continuous
 62
     7
370
    25
100
AcDbSpline
210
0.0
220
0.0
230
1.0
 70
     8
 71
     3
 72
    10
 73
     6
 74
     0
 42
0.000000001
 43
0.00000001
 40
0.0
 40
0.0
 40
0.0
 40
0.0
 40
0.2820916050813001
 40
0.5599480323354078
 40
1.0
 40
1.0
 40
1.0
 40
1.0
 10
330.2185456730769
 20
160.4189743589743
 30
0.0
 10
330.3132800937722
 20
160.4202358706072
 30
0.0
 10
330.5013266414439
 20
160.4227399541879
 30
0.0
 10
330.764166471214
 20
160.6656098169082
 30
0.0
 10
330.7897207584584
 20
160.9060862179437
 30
0.0
 10
330.8053846153846
 20
161.0534895833333
 30
0.0
  0
LINE
  5
221
330
1F
100
AcDbEntity
  8
0
  6
Continuous
 62
     7
370
    25
100
AcDbLine
 10
329.9528205128
 20
160.418974359
 30
0.0
 11
330.2185456731
 21
160.418974359
 31
0.0
  0
LINE
  5
222
330
1F
100
AcDbEntity
  8
0
  6
Continuous
 62
     7
370
    25
100
AcDbLine
 10
330.0727123397
 20
161.7202564103
 30
0.0
 11
329.9528205128
 21
161.7202564103
 31
0.0
  0
LINE
  5
223
330
1F
100
AcDbEntity
  8
0
  6
Continuous
 62
     7
370
    25
100
AcDbLine
 10
329.9528205128
 20
161.7202564103
 30
0.0
 11
329.9528205128
 21
160.418974359
 31
0.0
  0
SPLINE
  5
224
330
1F
100
AcDbEntity
  8
0
  6
Continuous
 62
     7
370
    25
100
AcDbSpline
210
0.0
220
0.0
230
1.0
 70
     8
 71
     3
 72
    11
 73
     7
 74
     0
 42
0.000000001
 43
0.00000001
 40
0.0
 40
0.0
 40
0.0
 40
0.0
 40
0.2811257825974711
 40
0.5607008192055891
 40
0.7795609816722253
 40
1.0
 40
1.0
 40
1.0
 40
1.0
 10
330.6258974358975
 20
162.6864022435897
 30
0.0
 10
330.6223230442235
 20
162.7576221353706
 30
0.0
 10
330.6151939779346
 20
162.8996690557788
 30
0.0
 10
330.5288793367815
 20
163.0877537353965
 30
0.0
 10
330.3674686579053
 20
163.1908823473646
 30
0.0
 10
330.255233520121
 20
163.1976364516469
 30
0.0
 10
330.1989142628205
 20
163.2010256410256
 30
0.0
  0
SPLINE
  5
225
330
1F
100
AcDbEntity
  8
0
  6
Continuous
 62
     7
370
    25
100
AcDbSpline
210
0.0
220
0.0
230
1.0
 70
     8
 71
     3
 72
    10
 73
     6
 74
     0
 42
0.000000001
 43
0.00000001
 40
0.0
 40
0.0
 40
0.0
 40
0.0
 40
0.2820333224778768
 40
0.5596519176540398
 40
1.0
 40
1.0
 40
1.0
 40
1.0
 10
330.0748157051282
 20
162.0792307692307
 30
0.0
 10
330.1649804362947
 20
162.0804899717571
 30
0.0
 10
330.3438985310034
 20
162.0829886662462
 30
0.0
 10
330.5929225918176
 20
162.3161500161119
 30
0.0
 10
330.6133616296906
 20
162.5456461520652
 30
0.0
 10
330.6258974358975
 20
162.6864022435897
 30
0.0
  0
LINE
  5
226
330
1F
100
AcDbEntity
  8
0
  6
Continuous
 62
     7
370
    25
100
AcDbLine
 10
329.9528205128
 20
162.0792307692
 30
0.0
 11
330.0748157051
 21
162.0792307692
 31
0.0
  0
LINE
  5
227
330
1F
100
AcDbEntity
  8
0
  6
Continuous
 62
     7
370
    25
100
AcDbLine
 10
329.9528205128
 20
163.201025641
 30
0.0
 11
329.9528205128
 21
162.0792307692
 31
0.0
  0
LINE
  5
228
330
1F
100
AcDbEntity
  8
0
  6
Continuous
 62
     7
370
    25
100
AcDbLine
 10
330.1989142628
 20
163.201025641
 30
0.0
 11
329.9528205128
 21
163.201025641
 31
0.0
  0
SPLINE
  5
229
330
1F
100
AcDbEntity
  8
0
  6
Continuous
 62
     7
370
    25
100
AcDbSpline
210
0.0
220
0.0
230
1.0
 70
     8
 71
     3
 72
    11
 73
     7
 74
     0
 42
0.000000001
 43
0.00000001
 40
0.0
 40
0.0
 40
0.0
 40
0.0
 40
0.1252409509896356
 40
0.2510938105934032
 40
0.5012549088836648
 40
1.0
 40
1.0
 40
1.0
 40
1.0
 10
344.5810256410257
 20
160.0151282051282
 30
0.0
 10
344.5653351572569
 20
160.0169710975049
 30
0.0
 10
344.5338775283549
 20
160.0206658863556
 30
0.0
 10
344.481327487188
 20
160.0573843801214
 30
0.0
 10
344.4175331694883
 20
160.149326908432
 30
0.0
 10
344.4079323010658
 20
160.243847496225
 30
0.0
 10
344.4015384615385
 20
160.3067948717949
 30
0.0
  0
SPLINE
  5
22A
330
1F
100
AcDbEntity
  8
0
  6
Continuous
 62
     7
370
    25
100
AcDbSpline
210
0.0
220
0.0
230
1.0
 70
     8
 71
     3
 72
    11
 73
     7
 74
     0
 42
0.000000001
 43
0.00000001
 40
0.0
 40
0.0
 40
0.0
 40
0.0
 40
0.4987450911163368
 40
0.7489061894065994
 40
0.8747590490103624
 40
1.0
 40
1.0
 40
1.0
 40
1.0
 10
344.7605128205128
 20
160.3067948717949
 30
0.0
 10
344.7541189809854
 20
160.243847496225
 30
0.0
 10
344.744518112563
 20
160.149326908432
 30
0.0
 10
344.6807237948633
 20
160.0573843801214
 30
0.0
 10
344.6281737536964
 20
160.0206658863556
 30
0.0
 10
344.5967161247944
 20
160.0169710975049
 30
0.0
 10
344.5810256410257
 20
160.0151282051282
 30
0.0
  0
SPLINE
  5
22B
330
1F
100
AcDbEntity
  8
0
  6
Continuous
 62
     7
370
    25
100
AcDbSpline
210
0.0
220
0.0
230
1.0
 70
     8
 71
     3
 72
    11
 73
     7
 74
     0
 42
0.000000001
 43
0.00000001
 40
0.0
 40
0.0
 40
0.0
 40
0.0
 40
0.1859027081876175
 40
0.3726802866925907
 40
0.5601967664387532
 40
1.0
 40
1.0
 40
1.0
 40
1.0
 10
344.5810256410257
 20
160.5984615384615
 30
0.0
 10
344.604459818579
 20
160.5942367141785
 30
0.0
 10
344.6514384564597
 20
160.5857671833129
 30
0.0
 10
344.699723803083
 20
160.5307227507358
 30
0.0
 10
344.7494310200793
 20
160.4419345207972
 30
0.0
 10
344.7559455757744
 20
160.362491223174
 30
0.0
 10
344.7605128205128
 20
160.3067948717949
 30
0.0
  0
SPLINE
  5
22C
330
1F
100
AcDbEntity
  8
0
  6
Continuous
 62
     7
370
    25
100
AcDbSpline
210
0.0
220
0.0
230
1.0
 70
     8
 71
     3
 72
    10
 73
     6
 74
     0
 42
0.000000001
 43
0.00000001
 40
0.0
 40
0.0
 40
0.0
 40
0.0
 40
0.5594713163304301
 40
0.7807294745950784
 40
1.0
 40
1.0
 40
1.0
 40
1.0
 10
344.4015384615385
 20
160.3067948717949
 30
0.0
 10
344.4095838204908
 20
160.3765825072796
 30
0.0
 10
344.4208109355982
 20
160.4739695625134
 30
0.0
 10
344.498735230753
 20
160.5801051911349
 30
0.0
 10
344.5536781370455
 20
160.5923611887378
 30
0.0
 10
344.5810256410257
 20
160.5984615384615
 30
0.0
  0
SPLINE
  5
22D
330
1F
100
AcDbEntity
  8
0
  6
Continuous
 62
     7
370
    25
100
AcDbSpline
210
0.0
220
0.0
230
1.0
 70
     8
 71
     3
 72
    11
 73
     7
 74
     0
 42
0.000000001
 43
0.00000001
 40
0.0
 40
0.0
 40
0.0
 40
0.0
 40
0.125240950989636
 40
0.2510938105933991
 40
0.5012549088836663
 40
0.9999999999999999
 40
0.9999999999999999
 40
0.9999999999999999
 40
0.9999999999999999
 10
341.888717948718
 20
160.0151282051282
 30
0.0
 10
341.8730274649492
 20
160.0169710975049
 30
0.0
 10
341.8415698360473
 20
160.0206658863556
 30
0.0
 10
341.7890197948803
 20
160.0573843801214
 30
0.0
 10
341.7252254771806
 20
160.149326908432
 30
0.0
 10
341.7156246087582
 20
160.243847496225
 30
0.0
 10
341.7092307692308
 20
160.3067948717949
 30
0.0
  0
SPLINE
  5
22E
330
1F
100
AcDbEntity
  8
0
  6
Continuous
 62
     7
370
    25
100
AcDbSpline
210
0.0
220
0.0
230
1.0
 70
     8
 71
     3
 72
    11
 73
     7
 74
     0
 42
0.000000001
 43
0.00000001
 40
0.0
 40
0.0
 40
0.0
 40
0.0
 40
0.4987450911163347
 40
0.7489061894065973
 40
0.8747590490103647
 40
0.9999999999999999
 40
0.9999999999999999
 40
0.9999999999999999
 40
0.9999999999999999
 10
342.0682051282051
 20
160.3067948717949
 30
0.0
 10
342.0618112886777
 20
160.243847496225
 30
0.0
 10
342.0522104202553
 20
160.149326908432
 30
0.0
 10
341.9884161025556
 20
160.0573843801214
 30
0.0
 10
341.9358660613887
 20
160.0206658863556
 30
0.0
 10
341.9044084324867
 20
160.0169710975049
 30
0.0
 10
341.888717948718
 20
160.0151282051282
 30
0.0
  0
SPLINE
  5
22F
330
1F
100
AcDbEntity
  8
0
  6
Continuous
 62
     7
370
    25
100
AcDbSpline
210
0.0
220
0.0
230
1.0
 70
     8
 71
     3
 72
    11
 73
     7
 74
     0
 42
0.000000001
 43
0.00000001
 40
0.0
 40
0.0
 40
0.0
 40
0.0
 40
0.1859027081876119
 40
0.3726802866926042
 40
0.5601967664387644
 40
0.9999999999999999
 40
0.9999999999999999
 40
0.9999999999999999
 40
0.9999999999999999
 10
341.888717948718
 20
160.5984615384615
 30
0.0
 10
341.9121521262713
 20
160.5942367141785
 30
0.0
 10
341.959130764152
 20
160.5857671833129
 30
0.0
 10
342.0074161107754
 20
160.5307227507358
 30
0.0
 10
342.0571233277715
 20
160.4419345207972
 30
0.0
 10
342.0636378834666
 20
160.362491223174
 30
0.0
 10
342.0682051282051
 20
160.3067948717949
 30
0.0
  0
SPLINE
  5
230
330
1F
100
AcDbEntity
  8
0
  6
Continuous
 62
     7
370
    25
100
AcDbSpline
210
0.0
220
0.0
230
1.0
 70
     8
 71
     3
 72
    10
 73
     6
 74
     0
 42
0.000000001
 43
0.00000001
 40
0.0
 40
0.0
 40
0.0
 40
0.0
 40
0.5594713163304378
 40
0.7807294745950801
 40
1.0
 40
1.0
 40
1.0
 40
1.0
 10
341.7092307692308
 20
160.3067948717949
 30
0.0
 10
341.717276128183
 20
160.3765825072796
 30
0.0
 10
341.7285032432904
 20
160.4739695625134
 30
0.0
 10
341.8064275384453
 20
160.5801051911349
 30
0.0
 10
341.8613704447378
 20
160.5923611887378
 30
0.0
 10
341.888717948718
 20
160.5984615384615
 30
0.0
  0
SPLINE
  5
231
330
1F
100
AcDbEntity
  8
0
  6
Continuous
 62
     7
370
    25
100
AcDbSpline
210
0.0
220
0.0
230
1.0
 70
     8
 71
     3
 72
    11
 73
     7
 74
     0
 42
0.000000001
 43
0.00000001
 40
0.0
 40
0.0
 40
0.0
 40
0.0
 40
0.125240950989634
 40
0.2510938105934084
 40
0.5012549088836474
 40
1.0
 40
1.0
 40
1.0
 40
1.0
 10
340.2284615384615
 20
160.0151282051282
 30
0.0
 10
340.2127710546928
 20
160.0169710975049
 30
0.0
 10
340.1813134257908
 20
160.0206658863556
 30
0.0
 10
340.1287633846239
 20
160.0573843801214
 30
0.0
 10
340.0649690669242
 20
160.149326908432
 30
0.0
 10
340.0553681985018
 20
160.243847496225
 30
0.0
 10
340.0489743589744
 20
160.3067948717949
 30
0.0
  0
SPLINE
  5
232
330
1F
100
AcDbEntity
  8
0
  6
Continuous
 62
     7
370
    25
100
AcDbSpline
210
0.0
220
0.0
230
1.0
 70
     8
 71
     3
 72
    11
 73
     7
 74
     0
 42
0.000000001
 43
0.00000001
 40
0.0
 40
0.0
 40
0.0
 40
0.0
 40
0.498745091116343
 40
0.7489061894065968
 40
0.8747590490103639
 40
1.0
 40
1.0
 40
1.0
 40
1.0
 10
340.4079487179487
 20
160.3067948717949
 30
0.0
 10
340.4015548784213
 20
160.243847496225
 30
0.0
 10
340.3919540099989
 20
160.149326908432
 30
0.0
 10
340.3281596922992
 20
160.0573843801214
 30
0.0
 10
340.2756096511322
 20
160.0206658863556
 30
0.0
 10
340.2441520222303
 20
160.0169710975048
 30
0.0
 10
340.2284615384615
 20
160.0151282051282
 30
0.0
  0
SPLINE
  5
233
330
1F
100
AcDbEntity
  8
0
  6
Continuous
 62
     7
370
    25
100
AcDbSpline
210
0.0
220
0.0
230
1.0
 70
     8
 71
     3
 72
    11
 73
     7
 74
     0
 42
0.000000001
 43
0.00000001
 40
0.0
 40
0.0
 40
0.0
 40
0.0
 40
0.1859027081876109
 40
0.3726802866926
 40
0.560196766438762
 40
1.0
 40
1.0
 40
1.0
 40
1.0
 10
340.2284615384615
 20
160.5984615384615
 30
0.0
 10
340.2518957160149
 20
160.5942367141785
 30
0.0
 10
340.2988743538955
 20
160.5857671833129
 30
0.0
 10
340.3471597005189
 20
160.5307227507358
 30
0.0
 10
340.3968669175151
 20
160.4419345207972
 30
0.0
 10
340.4033814732102
 20
160.362491223174
 30
0.0
 10
340.4079487179487
 20
160.3067948717949
 30
0.0
  0
SPLINE
  5
234
330
1F
100
AcDbEntity
  8
0
  6
Continuous
 62
     7
370
    25
100
AcDbSpline
210
0.0
220
0.0
230
1.0
 70
     8
 71
     3
 72
    10
 73
     6
 74
     0
 42
0.000000001
 43
0.00000001
 40
0.0
 40
0.0
 40
0.0
 40
0.0
 40
0.5594713163304281
 40
0.7807294745950715
 40
0.9999999999999999
 40
0.9999999999999999
 40
0.9999999999999999
 40
0.9999999999999999
 10
340.0489743589744
 20
160.3067948717949
 30
0.0
 10
340.0570197179266
 20
160.3765825072796
 30
0.0
 10
340.068246833034
 20
160.4739695625134
 30
0.0
 10
340.1461711281889
 20
160.5801051911349
 30
0.0
 10
340.2011140344814
 20
160.5923611887378
 30
0.0
 10
340.2284615384615
 20
160.5984615384615
 30
0.0
  0
LINE
  5
235
330
1F
100
AcDbEntity
  8
0
  6
Continuous
 62
     7
370
    25
100
AcDbLine
 10
335.831025641
 20
160.06
 30
0.0
 11
336.7284615385
 21
163.56
 31
0.0
  0
LINE
  5
236
330
1F
100
AcDbEntity
  8
0
  6
Continuous
 62
     7
370
    25
100
AcDbLine
 10
336.0266386218
 20
160.06
 30
0.0
 11
335.831025641
 21
160.06
 31
0.0
  0
LINE
  5
237
330
1F
100
AcDbEntity
  8
0
  6
Continuous
 62
     7
370
    25
100
AcDbLine
 10
336.3140985577
 20
161.1817948718
 30
0.0
 11
336.0266386218
 21
160.06
 31
0.0
  0
LINE
  5
238
330
1F
100
AcDbEntity
  8
0
  6
Continuous
 62
     7
370
    25
100
AcDbLine
 10
337.1876963141
 20
161.1817948718
 30
0.0
 11
336.3140985577
 21
161.1817948718
 31
0.0
  0
LINE
  5
239
330
1F
100
AcDbEntity
  8
0
  6
Continuous
 62
     7
370
    25
100
AcDbLine
 10
337.47515625
 20
160.06
 30
0.0
 11
337.1876963141
 21
161.1817948718
 31
0.0
  0
LINE
  5
23A
330
1F
100
AcDbEntity
  8
0
  6
Continuous
 62
     7
370
    25
100
AcDbLine
 10
337.6707692308
 20
160.06
 30
0.0
 11
337.47515625
 21
160.06
 31
0.0
  0
LINE
  5
23B
330
1F
100
AcDbEntity
  8
0
  6
Continuous
 62
     7
370
    25
100
AcDbLine
 10
336.7733333333
 20
163.56
 30
0.0
 11
337.6707692308
 21
160.06
 31
0.0
  0
LINE
  5
23C
330
1F
100
AcDbEntity
  8
0
  6
Continuous
 62
     7
370
    25
100
AcDbLine
 10
336.7284615385
 20
163.56
 30
0.0
 11
336.7733333333
 21
163.56
 31
0.0
  0
SPLINE
  5
23D
330
1F
100
AcDbEntity
  8
0
  6
Continuous
 62
     7
370
    25
100
AcDbSpline
210
0.0
220
0.0
230
1.0
 70
     8
 71
     3
 72
    11
 73
     7
 74
     0
 42
0.000000001
 43
0.00000001
 40
0.0
 40
0.0
 40
0.0
 40
0.0
 40
0.1250843153663803
 40
0.2503456680556064
 40
0.5006885020085056
 40
1.0
 40
1.0
 40
1.0
 40
1.0
 10
332.4242748397436
 20
159.9702564102564
 30
0.0
 10
332.3270749012389
 20
159.9815754734646
 30
0.0
 10
332.1325374528893
 20
160.004229620248
 30
0.0
 10
331.8114059925636
 20
160.2387487249132
 30
0.0
 10
331.4344952125605
 20
160.8195097652149
 30
0.0
 10
331.3800858300754
 20
161.404763660829
 30
0.0
 10
331.3438461538461
 20
161.7945753205128
 30
0.0
  0
SPLINE
  5
23E
330
1F
100
AcDbEntity
  8
0
  6
Continuous
 62
     7
370
    25
100
AcDbSpline
210
0.0
220
0.0
230
1.0
 70
     8
 71
     3
 72
    11
 73
     7
 74
     0
 42
0.000000001
 43
0.00000001
 40
0.0
 40
0.0
 40
0.0
 40
0.0
 40
0.4993607576073333
 40
0.7497057099221653
 40
0.8749551989066835
 40
1.0
 40
1.0
 40
1.0
 40
1.0
 10
333.4976923076923
 20
161.8114022435897
 30
0.0
 10
333.4623589211145
 20
161.4198408989386
 30
0.0
 10
333.4093118178636
 20
160.8319777731369
 30
0.0
 10
333.0366162710264
 20
160.2459570553033
 30
0.0
 10
332.7173654919768
 20
160.0053971930112
 30
0.0
 10
332.5219184456799
 20
159.9819636166018
 30
0.0
 10
332.4242748397436
 20
159.9702564102564
 30
0.0
  0
SPLINE
  5
23F
330
1F
100
AcDbEntity
  8
0
  6
Continuous
 62
     7
370
    25
100
AcDbSpline
210
0.0
220
0.0
230
1.0
 70
     8
 71
     3
 72
    11
 73
     7
 74
     0
 42
0.000000001
 43
0.00000001
 40
0.0
 40
0.0
 40
0.0
 40
0.0
 40
0.1251068100920331
 40
0.2503725326771633
 40
0.5006193225865331
 40
1.0
 40
1.0
 40
1.0
 40
1.0
 10
332.4074479166666
 20
163.6497435897436
 30
0.0
 10
332.5056485280476
 20
163.6388477082319
 30
0.0
 10
332.7021744866569
 20
163.617042105101
 30
0.0
 10
333.0291630932683
 20
163.3840288227986
 30
0.0
 10
333.4111007478753
 20
162.7969045674297
 30
0.0
 10
333.4630711148827
 20
162.2054275509072
 30
0.0
 10
333.4976923076923
 20
161.8114022435897
 30
0.0
  0
SPLINE
  5
240
330
1F
100
AcDbEntity
  8
0
  6
Continuous
 62
     7
370
    25
100
AcDbSpline
210
0.0
220
0.0
230
1.0
 70
     8
 71
     3
 72
    11
 73
     7
 74
     0
 42
0.000000001
 43
0.00000001
 40
0.0
 40
0.0
 40
0.0
 40
0.0
 40
0.4998053133274755
 40
0.7498851554078684
 40
0.8751695757521997
 40
1.0
 40
1.0
 40
1.0
 40
1.0
 10
331.3438461538461
 20
161.7945753205128
 30
0.0
 10
331.3774904065912
 20
162.1874663267968
 30
0.0
 10
331.4279687128947
 20
162.7769421195693
 30
0.0
 10
331.8000982759827
 20
163.3633884609478
 30
0.0
 10
332.1148486735738
 20
163.6096485839133
 30
0.0
 10
332.3100329319067
 20
163.6363947705852
 30
0.0
 10
332.4074479166666
 20
163.6497435897436
 30
0.0
  0
SPLINE
  5
241
330
1F
100
AcDbEntity
  8
0
  6
Continuous
 62
     7
370
    25
100
AcDbSpline
210
0.0
220
0.0
230
1.0
 70
     8
 71
     3
 72
    11
 73
     7
 74
     0
 42
0.000000001
 43
0.00000001
 40
0.0
 40
0.0
 40
0.0
 40
0.0
 40
0.1250843153663821
 40
0.2503456680556042
 40
0.5006885020085082
 40
1.0
 40
1.0
 40
1.0
 40
1.0
 10
328.2960697115385
 20
159.9702564102564
 30
0.0
 10
328.1988697730338
 20
159.9815754734646
 30
0.0
 10
328.0043323246842
 20
160.004229620248
 30
0.0
 10
327.6832008643584
 20
160.2387487249132
 30
0.0
 10
327.3062900843553
 20
160.8195097652149
 30
0.0
 10
327.2518807018702
 20
161.404763660829
 30
0.0
 10
327.215641025641
 20
161.7945753205128
 30
0.0
  0
SPLINE
  5
242
330
1F
100
AcDbEntity
  8
0
  6
Continuous
 62
     7
370
    25
100
AcDbSpline
210
0.0
220
0.0
230
1.0
 70
     8
 71
     3
 72
    11
 73
     7
 74
     0
 42
0.000000001
 43
0.00000001
 40
0.0
 40
0.0
 40
0.0
 40
0.0
 40
0.4993607576073311
 40
0.7497057099221637
 40
0.8749551989066815
 40
1.0
 40
1.0
 40
1.0
 40
1.0
 10
329.3694871794872
 20
161.8114022435897
 30
0.0
 10
329.3341537929094
 20
161.4198408989386
 30
0.0
 10
329.2811066896585
 20
160.8319777731368
 30
0.0
 10
328.9084111428213
 20
160.2459570553033
 30
0.0
 10
328.5891603637716
 20
160.0053971930112
 30
0.0
 10
328.3937133174747
 20
159.9819636166018
 30
0.0
 10
328.2960697115385
 20
159.9702564102564
 30
0.0
  0
SPLINE
  5
243
330
1F
100
AcDbEntity
  8
0
  6
Continuous
 62
     7
370
    25
100
AcDbSpline
210
0.0
220
0.0
230
1.0
 70
     8
 71
     3
 72
    11
 73
     7
 74
     0
 42
0.000000001
 43
0.00000001
 40
0.0
 40
0.0
 40
0.0
 40
0.0
 40
0.1251068100920299
 40
0.250372532677161
 40
0.5006193225865311
 40
1.0
 40
1.0
 40
1.0
 40
1.0
 10
328.2792427884615
 20
163.6497435897436
 30
0.0
 10
328.3774433998424
 20
163.6388477082319
 30
0.0
 10
328.5739693584517
 20
163.617042105101
 30
0.0
 10
328.9009579650631
 20
163.3840288227986
 30
0.0
 10
329.2828956196701
 20
162.7969045674297
 30
0.0
 10
329.3348659866775
 20
162.2054275509072
 30
0.0
 10
329.3694871794872
 20
161.8114022435897
 30
0.0
  0
SPLINE
  5
244
330
1F
100
AcDbEntity
  8
0
  6
Continuous
 62
     7
370
    25
100
AcDbSpline
210
0.0
220
0.0
230
1.0
 70
     8
 71
     3
 72
    11
 73
     7
 74
     0
 42
0.000000001
 43
0.00000001
 40
0.0
 40
0.0
 40
0.0
 40
0.0
 40
0.4998053133274775
 40
0.7498851554078674
 40
0.8751695757521983
 40
1.0
 40
1.0
 40
1.0
 40
1.0
 10
327.215641025641
 20
161.7945753205128
 30
0.0
 10
327.249285278386
 20
162.1874663267968
 30
0.0
 10
327.2997635846895
 20
162.7769421195693
 30
0.0
 10
327.6718931477776
 20
163.3633884609478
 30
0.0
 10
327.9866435453687
 20
163.6096485839133
 30
0.0
 10
328.1818278037015
 20
163.6363947705852
 30
0.0
 10
328.2792427884615
 20
163.6497435897436
 30
0.0
  0
SPLINE
  5
245
330
1F
100
AcDbEntity
  8
0
  6
Continuous
 62
     7
370
    25
100
AcDbSpline
210
0.0
220
0.0
230
1.0
 70
     8
 71
     3
 72
    11
 73
     7
 74
     0
 42
0.000000001
 43
0.00000001
 40
0.0
 40
0.0
 40
0.0
 40
0.0
 40
0.4989769471647033
 40
0.7494365610428717
 40
0.8748399993475091
 40
1.0
 40
1.0
 40
1.0
 40
1.0
 10
324.8374358974359
 20
160.9174719551282
 30
0.0
 10
324.8153233440837
 20
160.7129399937845
 30
0.0
 10
324.7821114772143
 20
160.4057439788107
 30
0.0
 10
324.5753381081498
 20
160.1060341941073
 30
0.0
 10
324.4038445687847
 20
159.9873406276579
 30
0.0
 10
324.3016463957625
 20
159.9759474596712
 30
0.0
 10
324.2505969551282
 20
159.9702564102564
 30
0.0
  0
SPLINE
  5
246
330
1F
100
AcDbEntity
  8
0
  6
Continuous
 62
     7
370
    25
100
AcDbSpline
210
0.0
220
0.0
230
1.0
 70
     8
 71
     3
 72
     9
 73
     5
 74
     0
 42
0.000000001
 43
0.00000001
 40
0.0
 40
0.0
 40
0.0
 40
0.0
 40
0.5605281984565558
 40
0.9999999999999999
 40
0.9999999999999999
 40
0.9999999999999999
 40
0.9999999999999999
 10
324.3522596153846
 20
162.0469791666667
 30
0.0
 10
324.5004207175105
 20
161.8591100557645
 30
0.0
 10
324.764744800641
 20
161.5239456315315
 30
0.0
 10
324.8152432520292
 20
161.1026288153542
 30
0.0
 10
324.8374358974359
 20
160.9174719551282
 30
0.0
  0
SPLINE
  5
247
330
1F
100
AcDbEntity
  8
0
  6
Continuous
 62
     7
370
    25
100
AcDbSpline
210
0.0
220
0.0
230
1.0
 70
     8
 71
     3
 72
     9
 73
     5
 74
     0
 42
0.000000001
 43
0.00000001
 40
0.0
 40
0.0
 40
0.0
 40
0.0
 40
0.5599316618565418
 40
1.0
 40
1.0
 40
1.0
 40
1.0
 10
324.0753165064103
 20
162.395436698718
 30
0.0
 10
324.1255718864975
 20
162.3292549386148
 30
0.0
 10
324.2153245893909
 20
162.2110588003867
 30
0.0
 10
324.3104138447871
 20
162.0971200175012
 30
0.0
 10
324.3522596153846
 20
162.0469791666667
 30
0.0
  0
SPLINE
  5
248
330
1F
100
AcDbEntity
  8
0
  6
Continuous
 62
     7
370
    25
100
AcDbSpline
210
0.0
220
0.0
230
1.0
 70
     8
 71
     3
 72
     9
 73
     5
 74
     0
 42
0.000000001
 43
0.00000001
 40
0.0
 40
0.0
 40
0.0
 40
0.0
 40
0.5594503733947884
 40
1.0
 40
1.0
 40
1.0
 40
1.0
 10
323.94
 20
162.8476602564103
 30
0.0
 10
323.9470110088255
 20
162.7575171127621
 30
0.0
 10
323.9595429672598
 20
162.5963890700705
 30
0.0
 10
324.0399105832116
 20
162.4568920561244
 30
0.0
 10
324.0753165064103
 20
162.395436698718
 30
0.0
  0
SPLINE
  5
249
330
1F
100
AcDbEntity
  8
0
  6
Continuous
 62
     7
370
    25
100
AcDbSpline
210
0.0
220
0.0
230
1.0
 70
     8
 71
     3
 72
    11
 73
     7
 74
     0
 42
0.000000001
 43
0.00000001
 40
0.0
 40
0.0
 40
0.0
 40
0.0
 40
0.1255820757119667
 40
0.2514507149306289
 40
0.5015523628543845
 40
1.0
 40
1.0
 40
1.0
 40
1.0
 10
324.2337700320513
 20
163.2907692307692
 30
0.0
 10
324.209091450064
 20
163.2889148844039
 30
0.0
 10
324.1596779724719
 20
163.2852019602734
 30
0.0
 10
324.0727690786104
 20
163.2352810707769
 30
0.0
 10
323.9645960107382
 20
163.0952850140549
 30
0.0
 10
323.9498314785043
 20
162.9466404328228
 30
0.0
 10
323.94
 20
162.8476602564103
 30
0.0
  0
SPLINE
  5
24A
330
1F
100
AcDbEntity
  8
0
  6
Continuous
 62
     7
370
    25
100
AcDbSpline
210
0.0
220
0.0
230
1.0
 70
     8
 71
     3
 72
    10
 73
     6
 74
     0
 42
0.000000001
 43
0.00000001
 40
0.0
 40
0.0
 40
0.0
 40
0.0
 40
0.5618089425487562
 40
0.7818087503084388
 40
1.0
 40
1.0
 40
1.0
 40
1.0
 10
324.6242948717949
 20
162.8420512820513
 30
0.0
 10
324.5772929480812
 20
162.948578787215
 30
0.0
 10
324.5118854537219
 20
163.0968215960739
 30
0.0
 10
324.3717823147805
 20
163.2634427312578
 30
0.0
 10
324.2796473692582
 20
163.2816854955539
 30
0.0
 10
324.2337700320513
 20
163.2907692307692
 30
0.0
  0
LINE
  5
24B
330
1F
100
AcDbEntity
  8
0
  6
Continuous
 62
     7
370
    25
100
AcDbLine
 10
324.7925641026
 20
163.0572956731
 30
0.0
 11
324.6242948718
 21
162.8420512821
 31
0.0
  0
SPLINE
  5
24C
330
1F
100
AcDbEntity
  8
0
  6
Continuous
 62
     7
370
    25
100
AcDbSpline
210
0.0
220
0.0
230
1.0
 70
     8
 71
     3
 72
    10
 73
     6
 74
     0
 42
0.000000001
 43
0.00000001
 40
0.0
 40
0.0
 40
0.0
 40
0.0
 40
0.2769663537678162
 40
0.5575254786335244
 40
1.0
 40
1.0
 40
1.0
 40
1.0
 10
324.2562059294872
 20
163.6497435897436
 30
0.0
 10
324.3339291787997
 20
163.6306979086552
 30
0.0
 10
324.4903838931879
 20
163.5923594884092
 30
0.0
 10
324.662075244489
 20
163.3532130925354
 30
0.0
 10
324.7430252004563
 20
163.169638016253
 30
0.0
 10
324.7925641025641
 20
163.0572956730769
 30
0.0
  0
SPLINE
  5
24D
330
1F
100
AcDbEntity
  8
0
  6
Continuous
 62
     7
370
    25
100
AcDbSpline
210
0.0
220
0.0
230
1.0
 70
     8
 71
     3
 72
    11
 73
     7
 74
     0
 42
0.000000001
 43
0.00000001
 40
0.0
 40
0.0
 40
0.0
 40
0.0
 40
0.4993418457887395
 40
0.7492593172883372
 40
0.8747401350519258
 40
1.0
 40
1.0
 40
1.0
 40
1.0
 10
323.7605128205128
 20
162.8329366987179
 30
0.0
 10
323.7750944511218
 20
163.0100394150645
 30
0.0
 10
323.7969740966738
 20
163.275780933543
 30
0.0
 10
323.9773676549871
 20
163.5322684189267
 30
0.0
 10
324.1243347551779
 20
163.6345902900328
 30
0.0
 10
324.2122747022926
 20
163.6446954580664
 30
0.0
 10
324.2562059294872
 20
163.6497435897436
 30
0.0
  0
SPLINE
  5
24E
330
1F
100
AcDbEntity
  8
0
  6
Continuous
 62
     7
370
    25
100
AcDbSpline
210
0.0
220
0.0
230
1.0
 70
     8
 71
     3
 72
     9
 73
     5
 74
     0
 42
0.000000001
 43
0.00000001
 40
0.0
 40
0.0
 40
0.0
 40
0.0
 40
0.5597588541114086
 40
1.0
 40
1.0
 40
1.0
 40
1.0
 10
323.8754967948718
 20
162.3000841346154
 30
0.0
 10
323.8381699300796
 20
162.3963008710112
 30
0.0
 10
323.7714860991442
 20
162.5681904904234
 30
0.0
 10
323.763867042667
 20
162.7520112408931
 30
0.0
 10
323.7605128205128
 20
162.8329366987179
 30
0.0
  0
SPLINE
  5
24F
330
1F
100
AcDbEntity
  8
0
  6
Continuous
 62
     7
370
    25
100
AcDbSpline
210
0.0
220
0.0
230
1.0
 70
     8
 71
     3
 72
     9
 73
     5
 74
     0
 42
0.000000001
 43
0.00000001
 40
0.0
 40
0.0
 40
0.0
 40
0.0
 40
0.5602913181833074
 40
1.0
 40
1.0
 40
1.0
 40
1.0
 10
324.2127363782051
 20
161.8240224358974
 30
0.0
 10
324.1430855739801
 20
161.9082732089506
 30
0.0
 10
324.0187738062181
 20
162.0586427940555
 30
0.0
 10
323.9192557487417
 20
162.226344318405
 30
0.0
 10
323.8754967948718
 20
162.3000841346154
 30
0.0
  0
SPLINE
  5
250
330
1F
100
AcDbEntity
  8
0
  6
Continuous
 62
     7
370
    25
100
AcDbSpline
210
0.0
220
0.0
230
1.0
 70
     8
 71
     3
 72
     9
 73
     5
 74
     0
 42
0.000000001
 43
0.00000001
 40
0.0
 40
0.0
 40
0.0
 40
0.0
 40
0.5596453470623575
 40
1.0
 40
1.0
 40
1.0
 40
1.0
 10
324.5843309294872
 20
161.2659294871795
 30
0.0
 10
324.5243522239413
 20
161.3763620316649
 30
0.0
 10
324.4171795191904
 20
161.5736879722182
 30
0.0
 10
324.2752400735349
 20
161.7474885449929
 30
0.0
 10
324.2127363782051
 20
161.8240224358974
 30
0.0
  0
SPLINE
  5
251
330
1F
100
AcDbEntity
  8
0
  6
Continuous
 62
     7
370
    25
100
AcDbSpline
210
0.0
220
0.0
230
1.0
 70
     8
 71
     3
 72
     9
 73
     5
 74
     0
 42
0.000000001
 43
0.00000001
 40
0.0
 40
0.0
 40
0.0
 40
0.0
 40
0.5597808968124873
 40
1.0
 40
1.0
 40
1.0
 40
1.0
 10
324.6579487179487
 20
160.9223798076923
 30
0.0
 10
324.6539466361431
 20
160.9886990323549
 30
0.0
 10
324.6467972642577
 20
161.1071725726994
 30
0.0
 10
324.6034244644995
 20
161.2174036577674
 30
0.0
 10
324.5843309294872
 20
161.2659294871795
 30
0.0
  0
SPLINE
  5
252
330
1F
100
AcDbEntity
  8
0
  6
Continuous
 62
     7
370
    25
100
AcDbSpline
210
0.0
220
0.0
230
1.0
 70
     8
 71
     3
 72
    11
 73
     7
 74
     0
 42
0.000000001
 43
0.00000001
 40
0.0
 40
0.0
 40
0.0
 40
0.0
 40
0.1254609496505479
 40
0.2511086606612963
 40
0.5012989882515732
 40
1.0
 40
1.0
 40
1.0
 40
1.0
 10
324.2541025641026
 20
160.3292307692307
 30
0.0
 10
324.2871605433373
 20
160.3325418002683
 30
0.0
 10
324.3533257119648
 20
160.3391687911491
 30
0.0
 10
324.4691018382421
 20
160.4067200575413
 30
0.0
 10
324.6231617546772
 20
160.5875218536663
 30
0.0
 10
324.6440432994327
 20
160.7885267904634
 30
0.0
 10
324.6579487179487
 20
160.9223798076923
 30
0.0
  0
SPLINE
  5
253
330
1F
100
AcDbEntity
  8
0
  6
Continuous
 62
     7
370
    25
100
AcDbSpline
210
0.0
220
0.0
230
1.0
 70
     8
 71
     3
 72
    10
 73
     6
 74
     0
 42
0.000000001
 43
0.00000001
 40
0.0
 40
0.0
 40
0.0
 40
0.0
 40
0.561710589818094
 40
0.7823353437264984
 40
1.0
 40
1.0
 40
1.0
 40
1.0
 10
323.8011778846154
 20
160.9125641025641
 30
0.0
 10
323.851984867722
 20
160.7772512056457
 30
0.0
 10
323.9227474620417
 20
160.5887910561662
 30
0.0
 10
324.0852306094067
 20
160.3729475579868
 30
0.0
 10
324.1980659331053
 20
160.3437372724824
 30
0.0
 10
324.2541025641026
 20
160.3292307692307
 30
0.0
  0
LINE
  5
254
330
1F
100
AcDbEntity
  8
0
  6
Continuous
 62
     7
370
    25
100
AcDbLine
 10
323.6258974359
 20
160.7351802885
 30
0.0
 11
323.8011778846
 21
160.9125641026
 31
0.0
  0
SPLINE
  5
255
330
1F
100
AcDbEntity
  8
0
  6
Continuous
 62
     7
370
    25
100
AcDbSpline
210
0.0
220
0.0
230
1.0
 70
     8
 71
     3
 72
    10
 73
     6
 74
     0
 42
0.000000001
 43
0.00000001
 40
0.0
 40
0.0
 40
0.0
 40
0.0
 40
0.2764492944032166
 40
0.5571180767304957
 40
1.0
 40
1.0
 40
1.0
 40
1.0
 10
324.2505969551282
 20
159.9702564102564
 30
0.0
 10
324.1539357568379
 20
159.9950298204904
 30
0.0
 10
323.9591380055824
 20
160.0449547613134
 30
0.0
 10
323.7578851949498
 20
160.3542487010011
 30
0.0
 10
323.6760117683763
 20
160.5905446619251
 30
0.0
 10
323.6258974358974
 20
160.7351802884615
 30
0.0
  0
LINE
  5
256
330
1F
100
AcDbEntity
  8
0
  6
Continuous
 62
     7
370
    25
100
AcDbLine
 10
318.6451282051
 20
160.06
 30
0.0
 11
319.5425641026
 21
163.56
 31
0.0
  0
LINE
  5
257
330
1F
100
AcDbEntity
  8
0
  6
Continuous
 62
     7
370
    25
100
AcDbLine
 10
318.8407411859
 20
160.06
 30
0.0
 11
318.6451282051
 21
160.06
 31
0.0
  0
LINE
  5
258
330
1F
100
AcDbEntity
  8
0
  6
Continuous
 62
     7
370
    25
100
AcDbLine
 10
319.1282011218
 20
161.1817948718
 30
0.0
 11
318.8407411859
 21
160.06
 31
0.0
  0
LINE
  5
259
330
1F
100
AcDbEntity
  8
0
  6
Continuous
 62
     7
370
    25
100
AcDbLine
 10
320.0017988782
 20
161.1817948718
 30
0.0
 11
319.1282011218
 21
161.1817948718
 31
0.0
  0
LINE
  5
25A
330
1F
100
AcDbEntity
  8
0
  6
Continuous
 62
     7
370
    25
100
AcDbLine
 10
320.2892588141
 20
160.06
 30
0.0
 11
320.0017988782
 21
161.1817948718
 31
0.0
  0
LINE
  5
25B
330
1F
100
AcDbEntity
  8
0
  6
Continuous
 62
     7
370
    25
100
AcDbLine
 10
320.4848717949
 20
160.06
 30
0.0
 11
320.2892588141
 21
160.06
 31
0.0
  0
LINE
  5
25C
330
1F
100
AcDbEntity
  8
0
  6
Continuous
 62
     7
370
    25
100
AcDbLine
 10
319.5874358974
 20
163.56
 30
0.0
 11
320.4848717949
 21
160.06
 31
0.0
  0
LINE
  5
25D
330
1F
100
AcDbEntity
  8
0
  6
Continuous
 62
     7
370
    25
100
AcDbLine
 10
319.5425641026
 20
163.56
 30
0.0
 11
319.5874358974
 21
163.56
 31
0.0
  0
LINE
  5
25E
330
1F
100
AcDbEntity
  8
0
  6
Continuous
 62
     7
370
    25
100
AcDbLine
 10
344.94
 20
193.26
 30
0.0
 11
288.94
 21
193.26
 31
0.0
  0
LINE
  5
25F
330
1F
100
AcDbEntity
  8
0
  6
Continuous
 62
     7
370
    25
100
AcDbLine
 10
344.94
 20
158.86
 30
0.0
 11
344.94
 21
193.26
 31
0.0
  0
LINE
  5
260
330
1F
100
AcDbEntity
  8
0
  6
Continuous
 62
     7
370
    25
100
AcDbLine
 10
305.94
 20
158.86
 30
0.0
 11
344.94
 21
158.86
 31
0.0
  0
LINE
  5
261
330
1F
100
AcDbEntity
  8
0
  6
Continuous
 62
     7
370
    25
100
AcDbLine
 10
305.94
 20
160.56
 30
0.0
 11
305.94
 21
158.86
 31
0.0
  0
LINE
  5
262
330
1F
100
AcDbEntity
  8
0
  6
Continuous
 62
     7
370
    25
100
AcDbLine
 10
305.94
 20
160.56
 30
0.0
 11
297.94
 21
160.56
 31
0.0
  0
LINE
  5
263
330
1F
100
AcDbEntity
  8
0
  6
Continuous
 62
     7
370
    25
100
AcDbLine
 10
297.94
 20
160.56
 30
0.0
 11
297.94
 21
158.86
 31
0.0
  0
LINE
  5
264
330
1F
100
AcDbEntity
  8
0
  6
Continuous
 62
     7
370
    25
100
AcDbLine
 10
288.94
 20
158.86
 30
0.0
 11
297.94
 21
158.86
 31
0.0
  0
LINE
  5
265
330
1F
100
AcDbEntity
  8
0
  6
Continuous
 62
     7
370
    25
100
AcDbLine
 10
288.94
 20
158.86
 30
0.0
 11
288.94
 21
193.26
 31
0.0
  0
CIRCLE
  5
266
330
1F
100
AcDbEntity
  8
0
  6
Continuous
 62
     7
370
    25
100
AcDbCircle
 10
324.44
 20
176.06
 30
0.0
 40
10.0
  0
CIRCLE
  5
267
330
1F
100
AcDbEntity
  8
0
  6
Continuous
 62
     7
370
    25
100
AcDbCircle
 10
299.44
 20
176.06
 30
0.0
 40
9.999999999999943
  0
SPLINE
  5
268
330
1F
100
AcDbEntity
  8
0
  6
Continuous
 62
     7
370
    25
100
AcDbSpline
210
0.0
220
0.0
230
1.0
 70
     8
 71
     3
 72
    11
 73
     7
 74
     0
 42
0.000000001
 43
0.00000001
 40
0.0
 40
0.0
 40
0.0
 40
0.0
 40
0.1233922960920571
 40
0.2483969190949638
 40
0.4979855619308479
 40
1.0
 40
1.0
 40
1.0
 40
1.0
 10
317.815
 20
160.3292307692307
 30
0.0
 10
317.8571253827474
 20
160.3398792153687
 30
0.0
 10
317.941926586887
 20
160.3613152474192
 30
0.0
 10
318.0448164286668
 20
160.50858530249
 30
0.0
 10
318.1147406479596
 20
160.8017149856028
 30
0.0
 10
318.1098999137459
 20
161.0594361365449
 30
0.0
 10
318.1066666666666
 20
161.2315745192307
 30
0.0
  0
SPLINE
  5
269
330
1F
100
AcDbEntity
  8
0
  6
Continuous
 62
     7
370
    25
100
AcDbSpline
210
0.0
220
0.0
230
1.0
 70
     8
 71
     3
 72
     9
 73
     5
 74
     0
 42
0.000000001
 43
0.00000001
 40
0.0
 40
0.0
 40
0.0
 40
0.0
 40
0.5600962084976817
 40
1.0
 40
1.0
 40
1.0
 40
1.0
 10
317.6775801282051
 20
160.3797115384615
 30
0.0
 10
317.7011747924174
 20
160.3643223972807
 30
0.0
 10
317.7433008840678
 20
160.3368465084114
 30
0.0
 10
317.7930952636335
 20
160.3315574472772
 30
0.0
 10
317.815
 20
160.3292307692307
 30
0.0
  0
SPLINE
  5
26A
330
1F
100
AcDbEntity
  8
0
  6
Continuous
 62
     7
370
    25
100
AcDbSpline
210
0.0
220
0.0
230
1.0
 70
     8
 71
     3
 72
     9
 73
     5
 74
     0
 42
0.000000001
 43
0.00000001
 40
0.0
 40
0.0
 40
0.0
 40
0.0
 40
0.5601489926679277
 40
1.0
 40
1.0
 40
1.0
 40
1.0
 10
317.4083493589743
 20
160.6433333333333
 30
0.0
 10
317.4549413130147
 20
160.5903072442341
 30
0.0
 10
317.5381191008001
 20
160.4956429856292
 30
0.0
 10
317.634977058113
 20
160.4151267054187
 30
0.0
 10
317.6775801282051
 20
160.3797115384615
 30
0.0
  0
LINE
  5
26B
330
1F
100
AcDbEntity
  8
0
  6
Continuous
 62
     7
370
    25
100
AcDbLine
 10
317.298974359
 20
160.3741025641
 30
0.0
 11
317.408349359
 21
160.6433333333
 31
0.0
  0
SPLINE
  5
26C
330
1F
100
AcDbEntity
  8
0
  6
Continuous
 62
     7
370
    25
100
AcDbSpline
210
0.0
220
0.0
230
1.0
 70
     8
 71
     3
 72
    10
 73
     6
 74
     0
 42
0.000000001
 43
0.00000001
 40
0.0
 40
0.0
 40
0.0
 40
0.0
 40
0.2785120356168423
 40
0.5586533459909648
 40
0.9999999999999999
 40
0.9999999999999999
 40
0.9999999999999999
 40
0.9999999999999999
 10
317.8009775641026
 20
159.9702564102564
 30
0.0
 10
317.7385480514341
 20
159.9811902620279
 30
0.0
 10
317.613323818077
 20
160.0031219277929
 30
0.0
 10
317.4436050343085
 20
160.160061360065
 30
0.0
 10
317.3538680331187
 20
160.2928645550789
 30
0.0
 10
317.2989743589744
 20
160.3741025641026
 30
0.0
  0
SPLINE
  5
26D
330
1F
100
AcDbEntity
  8
0
  6
Continuous
 62
     7
370
    25
100
AcDbSpline
210
0.0
220
0.0
230
1.0
 70
     8
 71
     3
 72
    11
 73
     7
 74
     0
 42
0.000000001
 43
0.00000001
 40
0.0
 40
0.0
 40
0.0
 40
0.0
 40
0.501673909257497
 40
0.7508675155329281
 40
0.8756480043680461
 40
1.0
 40
1.0
 40
1.0
 40
1.0
 10
318.2861538461538
 20
161.1965184294872
 30
0.0
 10
318.290935472423
 20
160.9527426214296
 30
0.0
 10
318.2980922485094
 20
160.5878774531093
 30
0.0
 10
318.1604402961451
 20
160.1784432018059
 30
0.0
 10
317.9841043871103
 20
159.996563814069
 30
0.0
 10
317.8619498055427
 20
159.9790154841626
 30
0.0
 10
317.8009775641026
 20
159.9702564102564
 30
0.0
  0
LINE
  5
26E
330
1F
100
AcDbEntity
  8
0
  6
Continuous
 62
     7
370
    25
100
AcDbLine
 10
318.2861538462
 20
163.56
 30
0.0
 11
318.2861538462
 21
161.1965184295
 31
0.0
  0
LINE
  5
26F
330
1F
100
AcDbEntity
  8
0
  6
Continuous
 62
     7
370
    25
100
AcDbLine
 10
318.1066666667
 20
163.56
 30
0.0
 11
318.2861538462
 21
163.56
 31
0.0
  0
LINE
  5
270
330
1F
100
AcDbEntity
  8
0
  6
Continuous
 62
     7
370
    25
100
AcDbLine
 10
318.1066666667
 20
161.2315745192
 30
0.0
 11
318.1066666667
 21
163.56
 31
0.0
  0
LINE
  5
271
330
1F
100
AcDbEntity
  8
0
  6
Continuous
 62
     7
370
    25
100
AcDbLine
 10
321.1130769231
 20
162.8126041667
 30
0.0
 11
321.1130769231
 21
160.06
 31
0.0
  0
LINE
  5
272
330
1F
100
AcDbEntity
  8
0
  6
Continuous
 62
     7
370
    25
100
AcDbLine
 10
322.4634375
 20
160.06
 30
0.0
 11
321.1130769231
 21
162.8126041667
 31
0.0
  0
LINE
  5
273
330
1F
100
AcDbEntity
  8
0
  6
Continuous
 62
     7
370
    25
100
AcDbLine
 10
322.5041025641
 20
160.06
 30
0.0
 11
322.4634375
 21
160.06
 31
0.0
  0
LINE
  5
274
330
1F
100
AcDbEntity
  8
0
  6
Continuous
 62
     7
370
    25
100
AcDbLine
 10
322.5041025641
 20
163.56
 30
0.0
 11
322.5041025641
 21
160.06
 31
0.0
  0
LINE
  5
275
330
1F
100
AcDbEntity
  8
0
  6
Continuous
 62
     7
370
    25
100
AcDbLine
 10
322.3246153846
 20
163.56
 30
0.0
 11
322.5041025641
 21
163.56
 31
0.0
  0
LINE
  5
276
330
1F
100
AcDbEntity
  8
0
  6
Continuous
 62
     7
370
    25
100
AcDbLine
 10
322.3246153846
 20
160.8010857372
 30
0.0
 11
322.3246153846
 21
163.56
 31
0.0
  0
LINE
  5
277
330
1F
100
AcDbEntity
  8
0
  6
Continuous
 62
     7
370
    25
100
AcDbLine
 10
320.9714503205
 20
163.56
 30
0.0
 11
322.3246153846
 21
160.8010857372
 31
0.0
  0
LINE
  5
278
330
1F
100
AcDbEntity
  8
0
  6
Continuous
 62
     7
370
    25
100
AcDbLine
 10
320.9335897436
 20
163.56
 30
0.0
 11
320.9714503205
 21
163.56
 31
0.0
  0
LINE
  5
279
330
1F
100
AcDbEntity
  8
0
  6
Continuous
 62
     7
370
    25
100
AcDbLine
 10
320.9335897436
 20
160.06
 30
0.0
 11
320.9335897436
 21
163.56
 31
0.0
  0
LINE
  5
27A
330
1F
100
AcDbEntity
  8
0
  6
Continuous
 62
     7
370
    25
100
AcDbLine
 10
321.1130769231
 20
160.06
 30
0.0
 11
320.9335897436
 21
160.06
 31
0.0
  0
LINE
  5
27B
330
1F
100
AcDbEntity
  8
0
  6
Continuous
 62
     7
370
    25
100
AcDbLine
 10
326.048974359
 20
160.06
 30
0.0
 11
326.0041025641
 21
160.06
 31
0.0
  0
LINE
  5
27C
330
1F
100
AcDbEntity
  8
0
  6
Continuous
 62
     7
370
    25
100
AcDbLine
 10
326.9464102564
 20
163.56
 30
0.0
 11
326.048974359
 21
160.06
 31
0.0
  0
LINE
  5
27D
330
1F
100
AcDbEntity
  8
0
  6
Continuous
 62
     7
370
    25
100
AcDbLine
 10
326.7507972756
 20
163.56
 30
0.0
 11
326.9464102564
 21
163.56
 31
0.0
  0
LINE
  5
27E
330
1F
100
AcDbEntity
  8
0
  6
Continuous
 62
     7
370
    25
100
AcDbLine
 10
326.0265384615
 20
160.7344791667
 30
0.0
 11
326.7507972756
 21
163.56
 31
0.0
  0
LINE
  5
27F
330
1F
100
AcDbEntity
  8
0
  6
Continuous
 62
     7
370
    25
100
AcDbLine
 10
325.3022796474
 20
163.56
 30
0.0
 11
326.0265384615
 21
160.7344791667
 31
0.0
  0
LINE
  5
280
330
1F
100
AcDbEntity
  8
0
  6
Continuous
 62
     7
370
    25
100
AcDbLine
 10
325.1066666667
 20
163.56
 30
0.0
 11
325.3022796474
 21
163.56
 31
0.0
  0
LINE
  5
281
330
1F
100
AcDbEntity
  8
0
  6
Continuous
 62
     7
370
    25
100
AcDbLine
 10
326.0041025641
 20
160.06
 30
0.0
 11
325.1066666667
 21
163.56
 31
0.0
  0
LINE
  5
282
330
1F
100
AcDbEntity
  8
0
  6
Continuous
 62
     7
370
    25
100
AcDbLine
 10
330.3286217949
 20
160.06
 30
0.0
 11
329.7733333333
 21
160.06
 31
0.0
  0
SPLINE
  5
283
330
1F
100
AcDbEntity
  8
0
  6
Continuous
 62
     7
370
    25
100
AcDbSpline
210
0.0
220
0.0
230
1.0
 70
     8
 71
     3
 72
    11
 73
     7
 74
     0
 42
0.000000001
 43
0.00000001
 40
0.0
 40
0.0
 40
0.0
 40
0.0
 40
0.499123696560026
 40
0.749027846152389
 40
0.8744534873773988
 40
1.0
 40
1.0
 40
1.0
 40
1.0
 10
330.9848717948718
 20
161.0534895833333
 30
0.0
 10
330.9636987881889
 20
160.8314931803713
 30
0.0
 10
330.9319247576197
 20
160.4983463297804
 30
0.0
 10
330.6925310675612
 20
160.1787541301279
 30
0.0
 10
330.4942635299296
 20
160.0731980591083
 30
0.0
 10
330.3838534315293
 20
160.0644007653325
 30
0.0
 10
330.3286217948718
 20
160.06
 30
0.0
  0
SPLINE
  5
284
330
1F
100
AcDbEntity
  8
0
  6
Continuous
 62
     7
370
    25
100
AcDbSpline
210
0.0
220
0.0
230
1.0
 70
     8
 71
     3
 72
    10
 73
     6
 74
     0
 42
0.000000001
 43
0.00000001
 40
0.0
 40
0.0
 40
0.0
 40
0.0
 40
0.2796112770017492
 40
0.5597236900679835
 40
1.0
 40
1.0
 40
1.0
 40
1.0
 10
330.574014423077
 20
161.9481209935897
 30
0.0
 10
330.6527276688073
 20
161.8908431728658
 30
0.0
 10
330.810295234858
 20
161.7761848746799
 30
0.0
 10
330.9547410873091
 20
161.4512193667086
 30
0.0
 10
330.9734422813041
 20
161.2043608480017
 30
0.0
 10
330.9848717948718
 20
161.0534895833333
 30
0.0
  0
SPLINE
  5
285
330
1F
100
AcDbEntity
  8
0
  6
Continuous
 62
     7
370
    25
100
AcDbSpline
210
0.0
220
0.0
230
1.0
 70
     8
 71
     3
 72
     9
 73
     5
 74
     0
 42
0.000000001
 43
0.00000001
 40
0.0
 40
0.0
 40
0.0
 40
0.0
 40
0.5610465972453196
 40
1.0
 40
1.0
 40
1.0
 40
1.0
 10
330.8053846153846
 20
162.6927123397436
 30
0.0
 10
330.799136990322
 20
162.5410287580731
 30
0.0
 10
330.7880013286974
 20
162.2706704983219
 30
0.0
 10
330.6392912278624
 20
162.0465148695748
 30
0.0
 10
330.574014423077
 20
161.9481209935897
 30
0.0
  0
SPLINE
  5
286
330
1F
100
AcDbEntity
  8
0
  6
Continuous
 62
     7
370
    25
100
AcDbSpline
210
0.0
220
0.0
230
1.0
 70
     8
 71
     3
 72
    11
 73
     7
 74
     0
 42
0.000000001
 43
0.00000001
 40
0.0
 40
0.0
 40
0.0
 40
0.0
 40
0.24992172783581
 40
0.3753610129494628
 40
0.5010264763867516
 40
1.0
 40
1.0
 40
1.0
 40
1.0
 10
330.1659615384615
 20
163.56
 30
0.0
 10
330.2703804129073
 20
163.5536292286525
 30
0.0
 10
330.4272086119697
 20
163.5440608761647
 30
0.0
 10
330.590716291408
 20
163.4135698433084
 30
0.0
 10
330.7651320614686
 20
163.1604690894597
 30
0.0
 10
330.7875092727097
 20
162.9004336238915
 30
0.0
 10
330.8053846153846
 20
162.6927123397436
 30
0.0
  0
LINE
  5
287
330
1F
100
AcDbEntity
  8
0
  6
Continuous
 62
     7
370
    25
100
AcDbLine
 10
329.7733333333
 20
163.56
 30
0.0
 11
330.1659615385
 21
163.56
 31
0.0
  0
LINE
  5
288
330
1F
100
AcDbEntity
  8
0
  6
Continuous
 62
     7
370
    25
100
AcDbLine
 10
329.7733333333
 20
160.06
 30
0.0
 11
329.7733333333
 21
163.56
 31
0.0
  0
SPLINE
  5
289
330
1F
100
AcDbEntity
  8
0
  6
Continuous
 62
     7
370
    25
100
AcDbSpline
210
0.0
220
0.0
230
1.0
 70
     8
 71
     3
 72
    12
 73
     8
 74
     0
 42
0.000000001
 43
0.00000001
 40
0.0
 40
0.0
 40
0.0
 40
0.0
 40
0.4991267232808719
 40
0.6245710290040145
 40
0.749706517506249
 40
0.8746452541843256
 40
1.0
 40
1.0
 40
1.0
 40
1.0
 10
335.6066666666667
 20
161.7658293269231
 30
0.0
 10
335.579459294815
 20
161.3852791849872
 30
0.0
 10
335.5454139603514
 20
160.9090863011958
 30
0.0
 10
335.2832700257388
 20
160.4076506349782
 30
0.0
 10
335.0949970813476
 20
160.1907367721452
 30
0.0
 10
334.8281956623986
 20
160.0743797383116
 30
0.0
 10
334.6400823682685
 20
160.0647985543524
 30
0.0
 10
334.5458693910256
 20
160.06
 30
0.0
  0
SPLINE
  5
28A
330
1F
100
AcDbEntity
  8
0
  6
Continuous
 62
     7
370
    25
100
AcDbSpline
210
0.0
220
0.0
230
1.0
 70
     8
 71
     3
 72
    10
 73
     6
 74
     0
 42
0.000000001
 43
0.00000001
 40
0.0
 40
0.0
 40
0.0
 40
0.0
 40
0.2783445426919828
 40
0.5589399508783482
 40
1.0
 40
1.0
 40
1.0
 40
1.0
 10
334.9805649038461
 20
163.4337980769231
 30
0.0
 10
335.1088786481502
 20
163.3165535014347
 30
0.0
 10
335.3665437607646
 20
163.0811162385718
 30
0.0
 10
335.5659937992494
 20
162.478852931796
 30
0.0
 10
335.5912379768438
 20
162.0363049716109
 30
0.0
 10
335.6066666666667
 20
161.7658293269231
 30
0.0
  0
SPLINE
  5
28B
330
1F
100
AcDbEntity
  8
0
  6
Continuous
 62
     7
370
    25
100
AcDbSpline
210
0.0
220
0.0
230
1.0
 70
     8
 71
     3
 72
     9
 73
     5
 74
     0
 42
0.000000001
 43
0.00000001
 40
0.0
 40
0.0
 40
0.0
 40
0.0
 40
0.5609859186653898
 40
1.0
 40
1.0
 40
1.0
 40
1.0
 10
334.3215104166667
 20
163.56
 30
0.0
 10
334.4494942413899
 20
163.5592222134457
 30
0.0
 10
334.677635127756
 20
163.5578357498493
 30
0.0
 10
334.8881471581937
 20
163.4716394613382
 30
0.0
 10
334.9805649038461
 20
163.4337980769231
 30
0.0
  0
LINE
  5
28C
330
1F
100
AcDbEntity
  8
0
  6
Continuous
 62
     7
370
    25
100
AcDbLine
 10
333.9015384615
 20
163.56
 30
0.0
 11
334.3215104167
 21
163.56
 31
0.0
  0
LINE
  5
28D
330
1F
100
AcDbEntity
  8
0
  6
Continuous
 62
     7
370
    25
100
AcDbLine
 10
333.9015384615
 20
160.06
 30
0.0
 11
333.9015384615
 21
163.56
 31
0.0
  0
LINE
  5
28E
330
1F
100
AcDbEntity
  8
0
  6
Continuous
 62
     7
370
    25
100
AcDbLine
 10
334.545869391
 20
160.06
 30
0.0
 11
333.9015384615
 21
160.06
 31
0.0
  0
SPLINE
  5
28F
330
1F
100
AcDbEntity
  8
0
  6
Continuous
 62
     7
370
    25
100
AcDbSpline
210
0.0
220
0.0
230
1.0
 70
     8
 71
     3
 72
    11
 73
     7
 74
     0
 42
0.000000001
 43
0.00000001
 40
0.0
 40
0.0
 40
0.0
 40
0.0
 40
0.4995887937591625
 40
0.7496477070127117
 40
0.8748502498721045
 40
0.9999999999999999
 40
0.9999999999999999
 40
0.9999999999999999
 40
0.9999999999999999
 10
338.8374358974359
 20
161.9915905448718
 30
0.0
 10
338.8492051441812
 20
162.1364352866829
 30
0.0
 10
338.8668652457408
 20
162.3537790900826
 30
0.0
 10
339.0093466429299
 20
162.5679485850139
 30
0.0
 10
339.1302704212531
 20
162.6517991645455
 30
0.0
 10
339.2024135875199
 20
162.6589762943807
 30
0.0
 10
339.2384775641026
 20
162.6625641025641
 30
0.0
  0
SPLINE
  5
290
330
1F
100
AcDbEntity
  8
0
  6
Continuous
 62
     7
370
    25
100
AcDbSpline
210
0.0
220
0.0
230
1.0
 70
     8
 71
     3
 72
     9
 73
     5
 74
     0
 42
0.000000001
 43
0.00000001
 40
0.0
 40
0.0
 40
0.0
 40
0.0
 40
0.5597236944495728
 40
0.9999999999999999
 40
0.9999999999999999
 40
0.9999999999999999
 40
0.9999999999999999
 10
338.908249198718
 20
161.5975600961538
 30
0.0
 10
338.8846760594235
 20
161.6693386055197
 30
0.0
 10
338.8425603878374
 20
161.7975777886695
 30
0.0
 10
338.8390023966507
 20
161.9322830222796
 30
0.0
 10
338.8374358974359
 20
161.9915905448718
 30
0.0
  0
SPLINE
  5
291
330
1F
100
AcDbEntity
  8
0
  6
Continuous
 62
     7
370
    25
100
AcDbSpline
210
0.0
220
0.0
230
1.0
 70
     8
 71
     3
 72
     9
 73
     5
 74
     0
 42
0.000000001
 43
0.00000001
 40
0.0
 40
0.0
 40
0.0
 40
0.0
 40
0.5602673156711518
 40
0.9999999999999999
 40
0.9999999999999999
 40
0.9999999999999999
 40
0.9999999999999999
 10
339.1767788461538
 20
161.2484014423077
 30
0.0
 10
339.116191413927
 20
161.305799424869
 30
0.0
 10
339.0080511913366
 20
161.4082469190486
 30
0.0
 10
338.9387313837744
 20
161.5397388127632
 30
0.0
 10
338.908249198718
 20
161.5975600961538
 30
0.0
  0
SPLINE
  5
292
330
1F
100
AcDbEntity
  8
0
  6
Continuous
 62
     7
370
    25
100
AcDbSpline
210
0.0
220
0.0
230
1.0
 70
     8
 71
     3
 72
     9
 73
     5
 74
     0
 42
0.000000001
 43
0.00000001
 40
0.0
 40
0.0
 40
0.0
 40
0.0
 40
0.5592962946024351
 40
0.9999999999999999
 40
0.9999999999999999
 40
0.9999999999999999
 40
0.9999999999999999
 10
339.4130568910256
 20
160.9847796474359
 30
0.0
 10
339.3748284144169
 20
161.03924892945
 30
0.0
 10
339.3064773865669
 20
161.136637885071
 30
0.0
 10
339.2164529492539
 20
161.2142135564724
 30
0.0
 10
339.1767788461538
 20
161.2484014423077
 30
0.0
  0
SPLINE
  5
293
330
1F
100
AcDbEntity
  8
0
  6
Continuous
 62
     7
370
    25
100
AcDbSpline
210
0.0
220
0.0
230
1.0
 70
     8
 71
     3
 72
     9
 73
     5
 74
     0
 42
0.000000001
 43
0.00000001
 40
0.0
 40
0.0
 40
0.0
 40
0.0
 40
0.5600579277096368
 40
1.0
 40
1.0
 40
1.0
 40
1.0
 10
339.465641025641
 20
160.7407892628205
 30
0.0
 10
339.4634083162001
 20
160.7880842441296
 30
0.0
 10
339.4594217474357
 20
160.8725308325434
 30
0.0
 10
339.427222635192
 20
160.9504845343294
 30
0.0
 10
339.4130568910256
 20
160.9847796474359
 30
0.0
  0
SPLINE
  5
294
330
1F
100
AcDbEntity
  8
0
  6
Continuous
 62
     7
370
    25
100
AcDbSpline
210
0.0
220
0.0
230
1.0
 70
     8
 71
     3
 72
    11
 73
     7
 74
     0
 42
0.000000001
 43
0.00000001
 40
0.0
 40
0.0
 40
0.0
 40
0.0
 40
0.1862800291095628
 40
0.373277681167715
 40
0.560976309485279
 40
1.0
 40
1.0
 40
1.0
 40
1.0
 10
339.1858934294872
 20
160.3292307692307
 30
0.0
 10
339.2201231129253
 20
160.3343325821101
 30
0.0
 10
339.2887143458232
 20
160.3445558620314
 30
0.0
 10
339.3646529660746
 20
160.4188807532385
 30
0.0
 10
339.4443669645103
 20
160.5443617474294
 30
0.0
 10
339.4568773833211
 20
160.6598728606296
 30
0.0
 10
339.465641025641
 20
160.7407892628205
 30
0.0
  0
SPLINE
  5
295
330
1F
100
AcDbEntity
  8
0
  6
Continuous
 62
     7
370
    25
100
AcDbSpline
210
0.0
220
0.0
230
1.0
 70
     8
 71
     3
 72
    10
 73
     6
 74
     0
 42
0.000000001
 43
0.00000001
 40
0.0
 40
0.0
 40
0.0
 40
0.0
 40
0.5602130058460041
 40
0.7805388860236455
 40
0.9999999999999999
 40
0.9999999999999999
 40
0.9999999999999999
 40
0.9999999999999999
 10
338.8710897435898
 20
160.5984615384615
 30
0.0
 10
338.9133448745292
 20
160.5291336510767
 30
0.0
 10
338.9722185038239
 20
160.4325398351085
 30
0.0
 10
339.0906718159475
 20
160.3432164931653
 30
0.0
 10
339.1541945271705
 20
160.3338865619689
 30
0.0
 10
339.1858934294872
 20
160.3292307692307
 30
0.0
  0
LINE
  5
296
330
1F
100
AcDbEntity
  8
0
  6
Continuous
 62
     7
370
    25
100
AcDbLine
 10
338.7476923077
 20
160.3614823718
 30
0.0
 11
338.8710897436
 21
160.5984615385
 31
0.0
  0
SPLINE
  5
297
330
1F
100
AcDbEntity
  8
0
  6
Continuous
 62
     7
370
    25
100
AcDbSpline
210
0.0
220
0.0
230
1.0
 70
     8
 71
     3
 72
    10
 73
     6
 74
     0
 42
0.000000001
 43
0.00000001
 40
0.0
 40
0.0
 40
0.0
 40
0.0
 40
0.2793360855017056
 40
0.5596860779239603
 40
1.0
 40
1.0
 40
1.0
 40
1.0
 10
339.1908012820513
 20
160.0151282051282
 30
0.0
 10
339.135770284276
 20
160.0232651887871
 30
0.0
 10
339.0255085425686
 20
160.0395686909357
 30
0.0
 10
338.8626413192495
 20
160.1626748280978
 30
0.0
 10
338.7912880151408
 20
160.2860823714281
 30
0.0
 10
338.7476923076923
 20
160.3614823717949
 30
0.0
  0
SPLINE
  5
298
330
1F
100
AcDbEntity
  8
0
  6
Continuous
 62
     7
370
    25
100
AcDbSpline
210
0.0
220
0.0
230
1.0
 70
     8
 71
     3
 72
    11
 73
     7
 74
     0
 42
0.000000001
 43
0.00000001
 40
0.0
 40
0.0
 40
0.0
 40
0.0
 40
0.4993703836106166
 40
0.7494702244905823
 40
0.8747779228264972
 40
0.9999999999999999
 40
0.9999999999999999
 40
0.9999999999999999
 40
0.9999999999999999
 10
339.6451282051282
 20
160.7541105769231
 30
0.0
 10
339.6301431799347
 20
160.5937750359529
 30
0.0
 10
339.6076531994224
 20
160.3531385908841
 30
0.0
 10
339.4459535648918
 20
160.1180546921917
 30
0.0
 10
339.3106560585364
 20
160.0273158568646
 30
0.0
 10
339.2307437705938
 20
160.0191898299889
 30
0.0
 10
339.1908012820513
 20
160.0151282051282
 30
0.0
  0
SPLINE
  5
299
330
1F
100
AcDbEntity
  8
0
  6
Continuous
 62
     7
370
    25
100
AcDbSpline
210
0.0
220
0.0
230
1.0
 70
     8
 71
     3
 72
     9
 73
     5
 74
     0
 42
0.000000001
 43
0.00000001
 40
0.0
 40
0.0
 40
0.0
 40
0.0
 40
0.5597312972336572
 40
0.9999999999999999
 40
0.9999999999999999
 40
0.9999999999999999
 40
0.9999999999999999
 10
339.5722115384615
 20
161.1495432692307
 30
0.0
 10
339.596323094916
 20
161.0775742477221
 30
0.0
 10
339.6394001152179
 20
160.9489964428639
 30
0.0
 10
339.6433772133103
 20
160.8136842850933
 30
0.0
 10
339.6451282051282
 20
160.7541105769231
 30
0.0
  0
SPLINE
  5
29A
330
1F
100
AcDbEntity
  8
0
  6
Continuous
 62
     7
370
    25
100
AcDbSpline
210
0.0
220
0.0
230
1.0
 70
     8
 71
     3
 72
     9
 73
     5
 74
     0
 42
0.000000001
 43
0.00000001
 40
0.0
 40
0.0
 40
0.0
 40
0.0
 40
0.5602678590759818
 40
1.0
 40
1.0
 40
1.0
 40
1.0
 10
339.2917628205128
 20
161.5085176282051
 30
0.0
 10
339.3549117336652
 20
161.4496651122467
 30
0.0
 10
339.4676237376279
 20
161.3446215781497
 30
0.0
 10
339.5402676676068
 20
161.2091253261915
 30
0.0
 10
339.5722115384615
 20
161.1495432692307
 30
0.0
  0
SPLINE
  5
29B
330
1F
100
AcDbEntity
  8
0
  6
Continuous
 62
     7
370
    25
100
AcDbSpline
210
0.0
220
0.0
230
1.0
 70
     8
 71
     3
 72
     9
 73
     5
 74
     0
 42
0.000000001
 43
0.00000001
 40
0.0
 40
0.0
 40
0.0
 40
0.0
 40
0.5593044693552227
 40
1.0
 40
1.0
 40
1.0
 40
1.0
 10
339.0695072115385
 20
161.7721394230769
 30
0.0
 10
339.1049120795211
 20
161.7178001551041
 30
0.0
 10
339.1682136798522
 20
161.6206450795592
 30
0.0
 10
339.2539702731314
 20
161.5428163857311
 30
0.0
 10
339.2917628205128
 20
161.5085176282051
 30
0.0
  0
SPLINE
  5
29C
330
1F
100
AcDbEntity
  8
0
  6
Continuous
 62
     7
370
    25
100
AcDbSpline
210
0.0
220
0.0
230
1.0
 70
     8
 71
     3
 72
     9
 73
     5
 74
     0
 42
0.000000001
 43
0.00000001
 40
0.0
 40
0.0
 40
0.0
 40
0.0
 40
0.559881814842881
 40
1.0
 40
1.0
 40
1.0
 40
1.0
 10
339.0169230769231
 20
162.0042107371795
 30
0.0
 10
339.0198021150078
 20
161.9592309333059
 30
0.0
 10
339.0249443396852
 20
161.8788929000263
 30
0.0
 10
339.0558882388128
 20
161.8047646249655
 30
0.0
 10
339.0695072115385
 20
161.7721394230769
 30
0.0
  0
SPLINE
  5
29D
330
1F
100
AcDbEntity
  8
0
  6
Continuous
 62
     7
370
    25
100
AcDbSpline
210
0.0
220
0.0
230
1.0
 70
     8
 71
     3
 72
    11
 73
     7
 74
     0
 42
0.000000001
 43
0.00000001
 40
0.0
 40
0.0
 40
0.0
 40
0.0
 40
0.1252743077973432
 40
0.251101150056386
 40
0.5014001565339458
 40
0.9999999999999999
 40
0.9999999999999999
 40
0.9999999999999999
 40
0.9999999999999999
 10
339.2328685897436
 20
162.3484615384615
 30
0.0
 10
339.2142137851525
 20
162.3465072678206
 30
0.0
 10
339.176821897149
 20
162.3425901070387
 30
0.0
 10
339.1147050632051
 20
162.2986504234636
 30
0.0
 10
339.038194457823
 20
162.1906512357628
 30
0.0
 10
339.0254248150355
 20
162.0787272107441
 30
0.0
 10
339.0169230769231
 20
162.0042107371795
 30
0.0
  0
SPLINE
  5
29E
330
1F
100
AcDbEntity
  8
0
  6
Continuous
 62
     7
370
    25
100
AcDbSpline
210
0.0
220
0.0
230
1.0
 70
     8
 71
     3
 72
    10
 73
     6
 74
     0
 42
0.000000001
 43
0.00000001
 40
0.0
 40
0.0
 40
0.0
 40
0.0
 40
0.5608664427299723
 40
0.7811909556284055
 40
1.0
 40
1.0
 40
1.0
 40
1.0
 10
339.5189262820513
 20
162.0792307692307
 30
0.0
 10
339.480171888098
 20
162.1449941452132
 30
0.0
 10
339.4261936506057
 20
162.2365912717573
 30
0.0
 10
339.3222028606131
 20
162.3307469777597
 30
0.0
 10
339.2625780908305
 20
162.3425702858067
 30
0.0
 10
339.2328685897436
 20
162.3484615384615
 30
0.0
  0
LINE
  5
29F
330
1F
100
AcDbEntity
  8
0
  6
Continuous
 62
     7
370
    25
100
AcDbLine
 10
339.6451282051
 20
162.298681891
 30
0.0
 11
339.5189262821
 21
162.0792307692
 31
0.0
  0
SPLINE
  5
2A0
330
1F
100
AcDbEntity
  8
0
  6
Continuous
 62
     7
370
    25
100
AcDbSpline
210
0.0
220
0.0
230
1.0
 70
     8
 71
     3
 72
    10
 73
     6
 74
     0
 42
0.000000001
 43
0.00000001
 40
0.0
 40
0.0
 40
0.0
 40
0.0
 40
0.277728411676265
 40
0.5583945168818977
 40
1.0
 40
1.0
 40
1.0
 40
1.0
 10
339.2384775641026
 20
162.6625641025641
 30
0.0
 10
339.2907130610716
 20
162.6506986903225
 30
0.0
 10
339.3957365799767
 20
162.6268423585331
 30
0.0
 10
339.5305623178543
 20
162.4848574374891
 30
0.0
 10
339.6016589030517
 20
162.3693217757335
 30
0.0
 10
339.6451282051282
 20
162.2986818910256
 30
0.0
  0
LINE
  5
2A1
330
1F
100
AcDbEntity
  8
0
  6
Continuous
 62
     7
370
    25
100
AcDbLine
 10
340.9015384615
 20
160.06
 30
0.0
 11
340.7220512821
 21
160.06
 31
0.0
  0
LINE
  5
2A2
330
1F
100
AcDbEntity
  8
0
  6
Continuous
 62
     7
370
    25
100
AcDbLine
 10
340.9015384615
 20
160.9195753205
 30
0.0
 11
340.9015384615
 21
160.06
 31
0.0
  0
SPLINE
  5
2A3
330
1F
100
AcDbEntity
  8
0
  6
Continuous
 62
     7
370
    25
100
AcDbSpline
210
0.0
220
0.0
230
1.0
 70
     8
 71
     3
 72
     9
 73
     5
 74
     0
 42
0.000000001
 43
0.00000001
 40
0.0
 40
0.0
 40
0.0
 40
0.0
 40
0.5598529206449104
 40
1.0
 40
1.0
 40
1.0
 40
1.0
 10
340.9386979166666
 20
161.7973798076923
 30
0.0
 10
340.9248677874437
 20
161.6338337459594
 30
0.0
 10
340.9001646400401
 20
161.3417104833987
 30
0.0
 10
340.9011185853129
 20
161.0485910034946
 30
0.0
 10
340.9015384615385
 20
160.9195753205128
 30
0.0
  0
SPLINE
  5
2A4
330
1F
100
AcDbEntity
  8
0
  6
Continuous
 62
     7
370
    25
100
AcDbSpline
210
0.0
220
0.0
230
1.0
 70
     8
 71
     3
 72
    11
 73
     7
 74
     0
 42
0.000000001
 43
0.00000001
 40
0.0
 40
0.0
 40
0.0
 40
0.0
 40
0.1243538791098461
 40
0.2497154802031543
 40
0.4996181121087911
 40
1.0
 40
1.0
 40
1.0
 40
1.0
 10
341.2759375
 20
162.3484615384615
 30
0.0
 10
341.2473566603158
 20
162.3432666574713
 30
0.0
 10
341.1899633714419
 20
162.3328347979237
 30
0.0
 10
341.1034462141595
 20
162.2523693809912
 30
0.0
 10
340.9946308181079
 20
162.0818853941897
 30
0.0
 10
340.9610762348548
 20
161.9112082767485
 30
0.0
 10
340.9386979166666
 20
161.7973798076923
 30
0.0
  0
SPLINE
  5
2A5
330
1F
100
AcDbEntity
  8
0
  6
Continuous
 62
     7
370
    25
100
AcDbSpline
210
0.0
220
0.0
230
1.0
 70
     8
 71
     3
 72
     9
 73
     5
 74
     0
 42
0.000000001
 43
0.00000001
 40
0.0
 40
0.0
 40
0.0
 40
0.0
 40
0.5610727427929559
 40
1.0
 40
1.0
 40
1.0
 40
1.0
 10
341.3825080128205
 20
162.3028886217949
 30
0.0
 10
341.3643606522475
 20
162.3158076009331
 30
0.0
 10
341.3320166098642
 20
162.3388330986145
 30
0.0
 10
341.2930437503376
 20
162.3455245000031
 30
0.0
 10
341.2759375
 20
162.3484615384615
 30
0.0
  0
LINE
  5
2A6
330
1F
100
AcDbEntity
  8
0
  6
Continuous
 62
     7
370
    25
100
AcDbLine
 10
341.4848717949
 20
162.5749238782
 30
0.0
 11
341.3825080128
 21
162.3028886218
 31
0.0
  0
SPLINE
  5
2A7
330
1F
100
AcDbEntity
  8
0
  6
Continuous
 62
     7
370
    25
100
AcDbSpline
210
0.0
220
0.0
230
1.0
 70
     8
 71
     3
 72
     9
 73
     5
 74
     0
 42
0.000000001
 43
0.00000001
 40
0.0
 40
0.0
 40
0.0
 40
0.0
 40
0.5580894598618757
 40
1.0
 40
1.0
 40
1.0
 40
1.0
 10
341.3074879807693
 20
162.6625641025641
 30
0.0
 10
341.3448924442166
 20
162.654727486962
 30
0.0
 10
341.4119147876534
 20
162.6406856242039
 30
0.0
 10
341.4625122451152
 20
162.5950782552526
 30
0.0
 10
341.4848717948718
 20
162.5749238782051
 30
0.0
  0
SPLINE
  5
2A8
330
1F
100
AcDbEntity
  8
0
  6
Continuous
 62
     7
370
    25
100
AcDbSpline
210
0.0
220
0.0
230
1.0
 70
     8
 71
     3
 72
    10
 73
     6
 74
     0
 42
0.000000001
 43
0.00000001
 40
0.0
 40
0.0
 40
0.0
 40
0.0
 40
0.5604822839617496
 40
0.7809314186747636
 40
1.0
 40
1.0
 40
1.0
 40
1.0
 10
340.9015384615385
 20
162.2411899038461
 30
0.0
 10
340.9492781949592
 20
162.3465889969861
 30
0.0
 10
341.0157949410084
 20
162.4934437070957
 30
0.0
 10
341.1717806393667
 20
162.6387462244815
 30
0.0
 10
341.2623470252475
 20
162.6546414525141
 30
0.0
 10
341.3074879807693
 20
162.6625641025641
 30
0.0
  0
LINE
  5
2A9
330
1F
100
AcDbEntity
  8
0
  6
Continuous
 62
     7
370
    25
100
AcDbLine
 10
340.9015384615
 20
162.6176923077
 30
0.0
 11
340.9015384615
 21
162.2411899038
 31
0.0
  0
LINE
  5
2AA
330
1F
100
AcDbEntity
  8
0
  6
Continuous
 62
     7
370
    25
100
AcDbLine
 10
340.7220512821
 20
162.6176923077
 30
0.0
 11
340.9015384615
 21
162.6176923077
 31
0.0
  0
LINE
  5
2AB
330
1F
100
AcDbEntity
  8
0
  6
Continuous
 62
     7
370
    25
100
AcDbLine
 10
340.7220512821
 20
160.06
 30
0.0
 11
340.7220512821
 21
162.6176923077
 31
0.0
  0
SPLINE
  5
2AC
330
1F
100
AcDbEntity
  8
0
  6
Continuous
 62
     7
370
    25
100
AcDbSpline
210
0.0
220
0.0
230
1.0
 70
     8
 71
     3
 72
     9
 73
     5
 74
     0
 42
0.000000001
 43
0.00000001
 40
0.0
 40
0.0
 40
0.0
 40
0.0
 40
0.5599962873528365
 40
0.9999999999999999
 40
0.9999999999999999
 40
0.9999999999999999
 40
0.9999999999999999
 10
342.3823076923077
 20
161.3318349358974
 30
0.0
 10
342.3905414049672
 20
161.5091806425714
 30
0.0
 10
342.4052445607655
 20
161.8258715040631
 30
0.0
 10
342.5378173293642
 20
162.112825649229
 30
0.0
 10
342.5961498397436
 20
162.2390865384615
 30
0.0
  0
SPLINE
  5
2AD
330
1F
100
AcDbEntity
  8
0
  6
Continuous
 62
     7
370
    25
100
AcDbSpline
210
0.0
220
0.0
230
1.0
 70
     8
 71
     3
 72
    11
 73
     7
 74
     0
 42
0.000000001
 43
0.00000001
 40
0.0
 40
0.0
 40
0.0
 40
0.0
 40
0.1252886638719642
 40
0.2506165783541495
 40
0.5007770309831404
 40
0.9999999999999999
 40
0.9999999999999999
 40
0.9999999999999999
 40
0.9999999999999999
 10
343.1907011217949
 20
160.0151282051282
 30
0.0
 10
343.1195798060236
 20
160.0222029724184
 30
0.0
 10
342.9773148934945
 20
160.0363547233919
 30
0.0
 10
342.7351485120593
 20
160.1967831643542
 30
0.0
 10
342.455827802833
 20
160.6213518564419
 30
0.0
 10
342.4117028068396
 20
161.0477666538396
 30
0.0
 10
342.3823076923077
 20
161.3318349358974
 30
0.0
  0
SPLINE
  5
2AE
330
1F
100
AcDbEntity
  8
0
  6
Continuous
 62
     7
370
    25
100
AcDbSpline
210
0.0
220
0.0
230
1.0
 70
     8
 71
     3
 72
    11
 73
     7
 74
     0
 42
0.000000001
 43
0.00000001
 40
0.0
 40
0.0
 40
0.0
 40
0.0
 40
0.4992172148960858
 40
0.749394329162967
 40
0.8747283359361284
 40
1.0
 40
1.0
 40
1.0
 40
1.0
 10
343.9976923076923
 20
161.3318349358974
 30
0.0
 10
343.9683833938565
 20
161.0478885881487
 30
0.0
 10
343.9243866462141
 20
160.6216457094175
 30
0.0
 10
343.6452429071223
 20
160.1978158265808
 30
0.0
 10
343.404018943677
 20
160.0362301398119
 30
0.0
 10
343.2617952688487
 20
160.0221610167062
 30
0.0
 10
343.1907011217949
 20
160.0151282051282
 30
0.0
  0
SPLINE
  5
2AF
330
1F
100
AcDbEntity
  8
0
  6
Continuous
 62
     7
370
    25
100
AcDbSpline
210
0.0
220
0.0
230
1.0
 70
     8
 71
     3
 72
     9
 73
     5
 74
     0
 42
0.000000001
 43
0.00000001
 40
0.0
 40
0.0
 40
0.0
 40
0.0
 40
0.5593287449576883
 40
1.0
 40
1.0
 40
1.0
 40
1.0
 10
343.7838501602564
 20
162.2411899038461
 30
0.0
 10
343.8547983816629
 20
162.0784637607295
 30
0.0
 10
343.9816436797922
 20
161.7875326319727
 30
0.0
 10
343.9927833675204
 20
161.4712233459504
 30
0.0
 10
343.9976923076923
 20
161.3318349358974
 30
0.0
  0
SPLINE
  5
2B0
330
1F
100
AcDbEntity
  8
0
  6
Continuous
 62
     7
370
    25
100
AcDbSpline
210
0.0
220
0.0
230
1.0
 70
     8
 71
     3
 72
    10
 73
     6
 74
     0
 42
0.000000001
 43
0.00000001
 40
0.0
 40
0.0
 40
0.0
 40
0.0
 40
0.2796914884105177
 40
0.5596858189806797
 40
1.0
 40
1.0
 40
1.0
 40
1.0
 10
343.1907011217949
 20
162.6625641025641
 30
0.0
 10
343.2621275856608
 20
162.6545075342991
 30
0.0
 10
343.4050578519797
 20
162.6383856743414
 30
0.0
 10
343.6237328010695
 20
162.4913882930562
 30
0.0
 10
343.7231052305507
 20
162.3361095530473
 30
0.0
 10
343.7838501602564
 20
162.2411899038461
 30
0.0
  0
SPLINE
  5
2B1
330
1F
100
AcDbEntity
  8
0
  6
Continuous
 62
     7
370
    25
100
AcDbSpline
210
0.0
220
0.0
230
1.0
 70
     8
 71
     3
 72
    10
 73
     6
 74
     0
 42
0.000000001
 43
0.00000001
 40
0.0
 40
0.0
 40
0.0
 40
0.0
 40
0.5586685747843357
 40
0.7793955152712614
 40
1.0
 40
1.0
 40
1.0
 40
1.0
 10
342.5961498397436
 20
162.2390865384615
 30
0.0
 10
342.6762973089538
 20
162.3605362468844
 30
0.0
 10
342.7881106109404
 20
162.5299700800159
 30
0.0
 10
343.0217320002301
 20
162.6482827007034
 30
0.0
 10
343.1343885008328
 20
162.6578045159465
 30
0.0
 10
343.1907011217949
 20
162.6625641025641
 30
0.0
  0
SPLINE
  5
2B2
330
1F
100
AcDbEntity
  8
0
  6
Continuous
 62
     7
370
    25
100
AcDbSpline
210
0.0
220
0.0
230
1.0
 70
     8
 71
     3
 72
    11
 73
     7
 74
     0
 42
0.000000001
 43
0.00000001
 40
0.0
 40
0.0
 40
0.0
 40
0.0
 40
0.1252383510079264
 40
0.2507095095621852
 40
0.500684794879971
 40
1.0
 40
1.0
 40
1.0
 40
1.0
 10
343.19
 20
160.3292307692307
 30
0.0
 10
343.2442482453162
 20
160.3351815617509
 30
0.0
 10
343.3528455788676
 20
160.3470942088132
 30
0.0
 10
343.5388281623408
 20
160.4669539514102
 30
0.0
 10
343.7650123058308
 20
160.7835872653762
 30
0.0
 10
343.7969334127955
 20
161.1113294306582
 30
0.0
 10
343.8182051282051
 20
161.3297315705128
 30
0.0
  0
SPLINE
  5
2B3
330
1F
100
AcDbEntity
  8
0
  6
Continuous
 62
     7
370
    25
100
AcDbSpline
210
0.0
220
0.0
230
1.0
 70
     8
 71
     3
 72
    11
 73
     7
 74
     0
 42
0.000000001
 43
0.00000001
 40
0.0
 40
0.0
 40
0.0
 40
0.0
 40
0.4992930200825775
 40
0.749274692916146
 40
0.8747539920694997
 40
1.0
 40
1.0
 40
1.0
 40
1.0
 10
342.5617948717949
 20
161.3297315705128
 30
0.0
 10
342.5830931339651
 20
161.1113545847388
 30
0.0
 10
342.6150548242058
 20
160.7836425151235
 30
0.0
 10
342.8411542353197
 20
160.4669592117206
 30
0.0
 10
343.0271474946176
 20
160.3470970973162
 30
0.0
 10
343.1357495150133
 20
160.3351825165575
 30
0.0
 10
343.19
 20
160.3292307692307
 30
0.0
  0
SPLINE
  5
2B4
330
1F
100
AcDbEntity
  8
0
  6
Continuous
 62
     7
370
    25
100
AcDbSpline
210
0.0
220
0.0
230
1.0
 70
     8
 71
     3
 72
    11
 73
     7
 74
     0
 42
0.000000001
 43
0.00000001
 40
0.0
 40
0.0
 40
0.0
 40
0.0
 40
0.1252064616421751
 40
0.2505310710863857
 40
0.5009789373972882
 40
0.9999999999999999
 40
0.9999999999999999
 40
0.9999999999999999
 40
0.9999999999999999
 10
343.19
 20
162.3484615384615
 30
0.0
 10
343.1351590742552
 20
162.342101550963
 30
0.0
 10
343.0254254735607
 20
162.3293755745301
 30
0.0
 10
342.8418729067161
 20
162.2011908776619
 30
0.0
 10
342.6176879452123
 20
161.8806931093934
 30
0.0
 10
342.5841353159141
 20
161.5499507268165
 30
0.0
 10
342.5617948717949
 20
161.3297315705128
 30
0.0
  0
SPLINE
  5
2B5
330
1F
100
AcDbEntity
  8
0
  6
Continuous
 62
     7
370
    25
100
AcDbSpline
210
0.0
220
0.0
230
1.0
 70
     8
 71
     3
 72
    11
 73
     7
 74
     0
 42
0.000000001
 43
0.00000001
 40
0.0
 40
0.0
 40
0.0
 40
0.0
 40
0.4989901191017467
 40
0.7494656583161072
 40
0.8748113416411794
 40
1.0
 40
1.0
 40
1.0
 40
1.0
 10
343.8182051282051
 20
161.3297315705128
 30
0.0
 10
343.7956507753205
 20
161.5498295488328
 30
0.0
 10
343.7617749283136
 20
161.8804089929963
 30
0.0
 10
343.5377325258398
 20
162.2006893621103
 30
0.0
 10
343.354509792335
 20
162.3292430730688
 30
0.0
 10
343.2448136797241
 20
162.3420580606389
 30
0.0
 10
343.19
 20
162.3484615384615
 30
0.0
  0
SPLINE
  5
2B6
330
1F
100
AcDbEntity
  8
0
  6
Continuous
 62
     7
370
    25
100
AcDbSpline
210
0.0
220
0.0
230
1.0
 70
     8
 71
     3
 72
    11
 73
     7
 74
     0
 42
0.000000001
 43
0.00000001
 40
0.0
 40
0.0
 40
0.0
 40
0.0
 40
0.125053933695608
 40
0.2504342417755216
 40
0.5004247085281824
 40
1.0
 40
1.0
 40
1.0
 40
1.0
 10
328.2883573717949
 20
160.3292307692307
 30
0.0
 10
328.367885122748
 20
160.338714203411
 30
0.0
 10
328.5271481816658
 20
160.3577058222923
 30
0.0
 10
328.7944573553067
 20
160.5421754503804
 30
0.0
 10
329.121413532079
 20
161.0086018530866
 30
0.0
 10
329.1625698673413
 20
161.490754945763
 30
0.0
 10
329.19
 20
161.8121033653846
 30
0.0
  0
SPLINE
  5
2B7
330
1F
100
AcDbEntity
  8
0
  6
Continuous
 62
     7
370
    25
100
AcDbSpline
210
0.0
220
0.0
230
1.0
 70
     8
 71
     3
 72
    11
 73
     7
 74
     0
 42
0.000000001
 43
0.00000001
 40
0.0
 40
0.0
 40
0.0
 40
0.0
 40
0.4991016982356788
 40
0.7494814255329281
 40
0.8748284505783376
 40
1.0
 40
1.0
 40
1.0
 40
1.0
 10
327.3951282051282
 20
161.7959775641025
 30
0.0
 10
327.425376111803
 20
161.4795136989956
 30
0.0
 10
327.4707982057251
 20
161.0042923371201
 30
0.0
 10
327.7889562222282
 20
160.5414642241363
 30
0.0
 10
328.0517589852745
 20
160.3556797227124
 30
0.0
 10
328.2095280793853
 20
160.3380429691726
 30
0.0
 10
328.2883573717949
 20
160.3292307692307
 30
0.0
  0
SPLINE
  5
2B8
330
1F
100
AcDbEntity
  8
0
  6
Continuous
 62
     7
370
    25
100
AcDbSpline
210
0.0
220
0.0
230
1.0
 70
     8
 71
     3
 72
    11
 73
     7
 74
     0
 42
0.000000001
 43
0.00000001
 40
0.0
 40
0.0
 40
0.0
 40
0.0
 40
0.1249532961511372
 40
0.2503821503405738
 40
0.5004907900907036
 40
1.0
 40
1.0
 40
1.0
 40
1.0
 10
328.2883573717949
 20
163.2907692307692
 30
0.0
 10
328.2089148466876
 20
163.2801780306017
 30
0.0
 10
328.049727447255
 20
163.2589553213632
 30
0.0
 10
327.7890106408047
 20
163.0650505092974
 30
0.0
 10
327.4642544165817
 20
162.5998880294959
 30
0.0
 10
327.4227708528497
 20
162.1174506106836
 30
0.0
 10
327.3951282051282
 20
161.7959775641025
 30
0.0
  0
SPLINE
  5
2B9
330
1F
100
AcDbEntity
  8
0
  6
Continuous
 62
     7
370
    25
100
AcDbSpline
210
0.0
220
0.0
230
1.0
 70
     8
 71
     3
 72
    11
 73
     7
 74
     0
 42
0.000000001
 43
0.00000001
 40
0.0
 40
0.0
 40
0.0
 40
0.0
 40
0.4993741655407384
 40
0.7495033985777361
 40
0.8749658877152766
 40
1.0
 40
1.0
 40
1.0
 40
1.0
 10
329.19
 20
161.8121033653846
 30
0.0
 10
329.1622517290085
 20
162.1326572611715
 30
0.0
 10
329.1206047539588
 20
162.6137719260829
 30
0.0
 10
328.7881985575797
 20
163.07126585346
 30
0.0
 10
328.5261377494517
 20
163.2604418621586
 30
0.0
 10
328.3675270837622
 20
163.2806716396169
 30
0.0
 10
328.2883573717949
 20
163.2907692307692
 30
0.0
  0
SPLINE
  5
2BA
330
1F
100
AcDbEntity
  8
0
  6
Continuous
 62
     7
370
    25
100
AcDbSpline
210
0.0
220
0.0
230
1.0
 70
     8
 71
     3
 72
    11
 73
     7
 74
     0
 42
0.000000001
 43
0.00000001
 40
0.0
 40
0.0
 40
0.0
 40
0.0
 40
0.1250539336956069
 40
0.2504342417755239
 40
0.5004247085281843
 40
1.0
 40
1.0
 40
1.0
 40
1.0
 10
332.4165625
 20
160.3292307692307
 30
0.0
 10
332.4960902509532
 20
160.338714203411
 30
0.0
 10
332.6553533098709
 20
160.3577058222923
 30
0.0
 10
332.9226624835119
 20
160.5421754503804
 30
0.0
 10
333.2496186602842
 20
161.0086018530866
 30
0.0
 10
333.2907749955464
 20
161.490754945763
 30
0.0
 10
333.3182051282051
 20
161.8121033653846
 30
0.0
  0
SPLINE
  5
2BB
330
1F
100
AcDbEntity
  8
0
  6
Continuous
 62
     7
370
    25
100
AcDbSpline
210
0.0
220
0.0
230
1.0
 70
     8
 71
     3
 72
    11
 73
     7
 74
     0
 42
0.000000001
 43
0.00000001
 40
0.0
 40
0.0
 40
0.0
 40
0.0
 40
0.4991016982356786
 40
0.7494814255329307
 40
0.8748284505783404
 40
1.0
 40
1.0
 40
1.0
 40
1.0
 10
331.5233333333333
 20
161.7959775641025
 30
0.0
 10
331.5535812400081
 20
161.4795136989956
 30
0.0
 10
331.5990033339303
 20
161.0042923371201
 30
0.0
 10
331.9171613504334
 20
160.5414642241363
 30
0.0
 10
332.1799641134797
 20
160.3556797227124
 30
0.0
 10
332.3377332075904
 20
160.3380429691726
 30
0.0
 10
332.4165625
 20
160.3292307692307
 30
0.0
  0
SPLINE
  5
2BC
330
1F
100
AcDbEntity
  8
0
  6
Continuous
 62
     7
370
    25
100
AcDbSpline
210
0.0
220
0.0
230
1.0
 70
     8
 71
     3
 72
    11
 73
     7
 74
     0
 42
0.000000001
 43
0.00000001
 40
0.0
 40
0.0
 40
0.0
 40
0.0
 40
0.1249532961511408
 40
0.2503821503405736
 40
0.5004907900907031
 40
1.0
 40
1.0
 40
1.0
 40
1.0
 10
332.4165625
 20
163.2907692307692
 30
0.0
 10
332.3371199748928
 20
163.2801780306017
 30
0.0
 10
332.1779325754601
 20
163.2589553213632
 30
0.0
 10
331.9172157690098
 20
163.0650505092974
 30
0.0
 10
331.5924595447868
 20
162.5998880294959
 30
0.0
 10
331.5509759810549
 20
162.1174506106836
 30
0.0
 10
331.5233333333333
 20
161.7959775641025
 30
0.0
  0
SPLINE
  5
2BD
330
1F
100
AcDbEntity
  8
0
  6
Continuous
 62
     7
370
    25
100
AcDbSpline
210
0.0
220
0.0
230
1.0
 70
     8
 71
     3
 72
    11
 73
     7
 74
     0
 42
0.000000001
 43
0.00000001
 40
0.0
 40
0.0
 40
0.0
 40
0.0
 40
0.4993741655407392
 40
0.749503398577734
 40
0.8749658877152757
 40
1.0
 40
1.0
 40
1.0
 40
1.0
 10
333.3182051282051
 20
161.8121033653846
 30
0.0
 10
333.2904568572137
 20
162.1326572611714
 30
0.0
 10
333.2488098821639
 20
162.6137719260829
 30
0.0
 10
332.9164036857849
 20
163.07126585346
 30
0.0
 10
332.6543428776568
 20
163.2604418621586
 30
0.0
 10
332.4957322119673
 20
163.2806716396169
 30
0.0
 10
332.4165625
 20
163.2907692307692
 30
0.0
  0
LINE
  5
2BE
330
1F
100
AcDbEntity
  8
0
  6
Continuous
 62
     7
370
    25
100
AcDbLine
 10
297.94
 20
158.56
 30
0.0
 11
288.94
 21
158.56
 31
0.0
  0
LINE
  5
2BF
330
1F
100
AcDbEntity
  8
0
  6
Continuous
 62
     7
370
    25
100
AcDbLine
 10
288.94
 20
158.56
 30
0.0
 11
288.94
 21
158.86
 31
0.0
  0
LINE
  5
2C0
330
1F
100
AcDbEntity
  8
0
  6
Continuous
 62
     7
370
    25
100
AcDbLine
 10
297.94
 20
158.86
 30
0.0
 11
297.94
 21
158.56
 31
0.0
  0
LINE
  5
2C1
330
1F
100
AcDbEntity
  8
0
  6
Continuous
 62
     7
370
    25
100
AcDbLine
 10
344.94
 20
158.86
 30
0.0
 11
344.94
 21
158.56
 31
0.0
  0
LINE
  5
2C2
330
1F
100
AcDbEntity
  8
0
  6
Continuous
 62
     7
370
    25
100
AcDbLine
 10
344.94
 20
158.56
 30
0.0
 11
305.94
 21
158.56
 31
0.0
  0
LINE
  5
2C3
330
1F
100
AcDbEntity
  8
0
  6
Continuous
 62
     7
370
    25
100
AcDbLine
 10
305.94
 20
158.56
 30
0.0
 11
305.94
 21
158.86
 31
0.0
  0
LINE
  5
2C4
330
1F
100
AcDbEntity
  8
0
  6
Continuous
 62
     7
370
    25
100
AcDbLine
 10
336.4059455128
 20
161.5407692308
 30
0.0
 11
337.095849359
 21
161.5407692308
 31
0.0
  0
LINE
  5
2C5
330
1F
100
AcDbEntity
  8
0
  6
Continuous
 62
     7
370
    25
100
AcDbLine
 10
336.7508974359
 20
162.8855208333
 30
0.0
 11
336.4059455128
 21
161.5407692308
 31
0.0
  0
LINE
  5
2C6
330
1F
100
AcDbEntity
  8
0
  6
Continuous
 62
     7
370
    25
100
AcDbLine
 10
337.095849359
 20
161.5407692308
 30
0.0
 11
336.7508974359
 21
162.8855208333
 31
0.0
  0
LINE
  5
2C7
330
1F
100
AcDbEntity
  8
0
  6
Continuous
 62
     7
370
    25
100
AcDbLine
 10
319.2200480769
 20
161.5407692308
 30
0.0
 11
319.9099519231
 21
161.5407692308
 31
0.0
  0
LINE
  5
2C8
330
1F
100
AcDbEntity
  8
0
  6
Continuous
 62
     7
370
    25
100
AcDbLine
 10
319.565
 20
162.8855208333
 30
0.0
 11
319.2200480769
 21
161.5407692308
 31
0.0
  0
LINE
  5
2C9
330
1F
100
AcDbEntity
  8
0
  6
Continuous
 62
     7
370
    25
100
AcDbLine
 10
319.9099519231
 20
161.5407692308
 30
0.0
 11
319.565
 21
162.8855208333
 31
0.0
  0
LINE
  5
2CA
330
1F
100
AcDbEntity
  8
0
  6
Continuous
 62
     7
370
    25
100
AcDbLine
 10
288.94
 20
193.56
 30
0.0
 11
344.94
 21
193.56
 31
0.0
  0
LINE
  5
2CB
330
1F
100
AcDbEntity
  8
0
  6
Continuous
 62
     7
370
    25
100
AcDbLine
 10
344.94
 20
193.56
 30
0.0
 11
344.94
 21
193.26
 31
0.0
  0
LINE
  5
2CC
330
1F
100
AcDbEntity
  8
0
  6
Continuous
 62
     7
370
    25
100
AcDbLine
 10
288.94
 20
193.26
 30
0.0
 11
288.94
 21
193.56
 31
0.0
  0
CIRCLE
  5
2CD
330
1F
100
AcDbEntity
  8
0
  6
Continuous
 62
     7
370
    25
100
AcDbCircle
 10
299.44
 20
176.06
 30
0.0
 40
6.579999999999984
  0
CIRCLE
  5
2CE
330
1F
100
AcDbEntity
  8
0
  6
Continuous
 62
     7
370
    25
100
AcDbCircle
 10
324.44
 20
176.06
 30
0.0
 40
6.579999999999984
  0
CIRCLE
  5
2CF
330
1F
100
AcDbEntity
  8
0
  6
Continuous
 62
     7
370
    25
100
AcDbCircle
 10
299.44
 20
176.06
 30
0.0
 40
1.25
  0
CIRCLE
  5
2D0
330
1F
100
AcDbEntity
  8
0
  6
Continuous
 62
     7
370
    25
100
AcDbCircle
 10
324.44
 20
176.06
 30
0.0
 40
1.25
  0
LINE
  5
2D1
330
1F
100
AcDbEntity
  8
0
  6
Continuous
 62
     8
370
    25
100
AcDbLine
 10
318.2079491924
 20
194.06
 30
0.0
 11
318.2079491924
 21
207.06
 31
0.0
  0
LINE
  5
2D2
330
1F
100
AcDbEntity
  8
0
  6
Continuous
 62
     8
370
    25
100
AcDbLine
 10
322.44
 20
195.06
 30
0.0
 11
322.44
 21
206.06
 31
0.0
  0
LINE
  5
2D3
330
1F
100
AcDbEntity
  8
0
  6
Continuous
 62
     8
370
    25
100
AcDbLine
 10
303.6720508076
 20
200.56
 30
0.0
 11
303.6720508076
 21
194.06
 31
0.0
  0
LINE
  5
2D4
330
1F
100
AcDbEntity
  8
0
  6
Continuous
 62
     8
370
    25
100
AcDbLine
 10
303.6720508076
 20
207.06
 30
0.0
 11
303.6720508076
 21
200.56
 31
0.0
  0
LINE
  5
2D5
330
1F
100
AcDbEntity
  8
0
  6
Continuous
 62
     8
370
    25
100
AcDbLine
 10
299.44
 20
200.56
 30
0.0
 11
299.44
 21
195.06
 31
0.0
  0
LINE
  5
2D6
330
1F
100
AcDbEntity
  8
0
  6
Continuous
 62
     8
370
    25
100
AcDbLine
 10
299.44
 20
206.06
 30
0.0
 11
299.44
 21
200.56
 31
0.0
  0
LINE
  5
2D7
330
1F
100
AcDbEntity
  8
0
  6
Continuous
 62
     8
370
    25
100
AcDbLine
 10
332.44
 20
206.76
 30
0.0
 11
327.44
 21
206.76
 31
0.0
  0
ARC
  5
2D8
330
1F
100
AcDbEntity
  8
0
  6
Continuous
 62
     8
370
    25
100
AcDbCircle
 10
327.24
 20
204.86
 30
0.0
 40
0.6000000000000013
100
AcDbArc
 50
180.0
 51
210.0
  0
LINE
  5
2D9
330
1F
100
AcDbEntity
  8
0
  6
Continuous
 62
     8
370
    25
100
AcDbLine
 10
327.6155002002
 20
207.26
 30
0.0
 11
326.94
 21
207.26
 31
0.0
  0
LINE
  5
2DA
330
1F
100
AcDbEntity
  8
0
  6
Continuous
 62
     8
370
    25
100
AcDbLine
 10
326.94
 20
204.86
 30
0.0
 11
327.48
 21
204.86
 31
0.0
  0
LINE
  5
2DB
330
1F
100
AcDbEntity
  8
0
  6
Continuous
 62
     8
370
    25
100
AcDbLine
 10
332.4
 20
204.86
 30
0.0
 11
332.64
 21
204.86
 31
0.0
  0
LINE
  5
2DC
330
1F
100
AcDbEntity
  8
0
  6
Continuous
 62
     8
370
    25
100
AcDbLine
 10
332.64
 20
207.26
 30
0.0
 11
332.2644997998
 21
207.26
 31
0.0
  0
LINE
  5
2DD
330
1F
100
AcDbEntity
  8
0
  6
Continuous
 62
     8
370
    25
100
AcDbLine
 10
468.44
 20
194.06
 30
0.0
 11
468.44
 21
207.06
 31
0.0
  0
LINE
  5
2DE
330
1F
100
AcDbEntity
  8
0
  6
Continuous
 62
     8
370
    25
100
AcDbLine
 10
467.14
 20
207.06
 30
0.0
 11
467.14
 21
194.06
 31
0.0
  0
DIMENSION
  5
2DF
330
1F
100
AcDbEntity
  8
0
  6
Continuous
 62
     7
370
    18
100
AcDbDimension
  2
_D_4
 10
344.94
 20
136.56
 30
0.0
 11
316.94
 21
136.56
 31
0.0
 70
   160
  1
<>
 71
     2
 42
-1.0
  3
SLDDIMSTYLE0
100
AcDbAlignedDimension
 13
288.94
 23
158.56
 33
0.0
 14
344.94
 24
158.56
 34
0.0
100
AcDbRotatedDimension
  0
DIMENSION
  5
2E9
330
1F
100
AcDbEntity
  8
0
  6
Continuous
 62
     7
370
    18
100
AcDbDimension
  2
_D_5
 10
347.94
 20
224.06
 30
0.0
 11
360.1087502436
 21
224.06
 31
0.0
 70
   160
  1
<>
 71
     2
 42
-1.0
  3
SLDDIMSTYLE2
100
AcDbAlignedDimension
 13
344.94
 23
193.56
 33
0.0
 14
347.94
 24
190.06
 34
0.0
100
AcDbRotatedDimension
  0
DIMENSION
  5
2F5
330
1F
100
AcDbEntity
  8
0
  6
Continuous
 62
     7
370
    18
100
AcDbDimension
  2
_D_6
 10
300.6375231672
 20
175.7016171543
 30
0.0
 11
230.94001
 21
196.56001
 31
0.0
 70
   163
  1
<>
 71
     1
 42
-1.0
  3
SLDDIMSTYLE3
100
AcDbDiametricDimension
 15
298.2424768328
 25
176.4183828457
 35
0.0
 40
0.0
  0
DIMENSION
  5
2FF
330
1F
100
AcDbEntity
  8
0
  6
Continuous
 62
     7
370
    18
100
AcDbDimension
  2
_D_7
 10
305.94
 20
148.56
 30
0.0
 11
285.7712497564
 21
148.56
 31
0.0
 70
   160
  1
<>
 71
     2
 42
-1.0
  3
SLDDIMSTYLE0
100
AcDbAlignedDimension
 13
297.94
 23
158.56
 33
0.0
 14
305.94
 24
158.56
 34
0.0
100
AcDbRotatedDimension
  0
DIMENSION
  5
30A
330
1F
100
AcDbEntity
  8
0
  6
Continuous
 62
     7
370
    18
100
AcDbDimension
  2
_D_8
 10
218.94
 20
160.56
 30
0.0
 11
218.94
 21
146.3912497564
 31
0.0
 70
   160
  1
<>
 71
     2
 42
-1.0
  3
SLDDIMSTYLE2
100
AcDbAlignedDimension
 13
288.94
 23
158.56
 33
0.0
 14
297.94
 24
160.56
 34
0.0
 50
90.0
100
AcDbRotatedDimension
  0
DIMENSION
  5
316
330
1F
100
AcDbEntity
  8
0
  6
Continuous
 62
     7
370
    18
100
AcDbDimension
  2
_D_9
 10
305.8129476877
 20
174.4223377118
 30
0.0
 11
212.94001
 21
198.2879953638
 31
0.0
 70
   163
  1
1/4
 71
     1
 42
-1.0
  3
SLDDIMSTYLE4
100
AcDbDiametricDimension
 15
293.0670523123
 25
177.6976622882
 35
0.0
 40
0.0
  0
DIMENSION
  5
31F
330
1F
100
AcDbEntity
  8
0
  6
Continuous
 62
     7
370
    18
100
AcDbDimension
  2
_D_10
 10
512.64
 20
185.06
 30
0.0
 11
512.64
 21
157.4386822987
 31
0.0
 70
   160
  1
%%c<>
 71
     2
 42
-1.0
  3
SLDDIMSTYLE0
100
AcDbAlignedDimension
 13
463.44
 23
167.06
 33
0.0
 14
463.44
 24
185.06
 34
0.0
 50
90.0
100
AcDbRotatedDimension
  0
DIMENSION
  5
32C
330
1F
100
AcDbEntity
  8
0
  6
Continuous
 62
     7
370
    18
100
AcDbDimension
  2
_D_11
 10
524.64
 20
161.06
 30
0.0
 11
524.64
 21
176.06
 31
0.0
 70
   160
  1
%%c<>
 71
     2
 42
-1.0
  3
SLDDIMSTYLE0
100
AcDbAlignedDimension
 13
346.94
 23
191.06
 33
0.0
 14
346.94
 24
161.06
 34
0.0
 50
90.0
100
AcDbRotatedDimension
  0
DIMENSION
  5
337
330
1F
100
AcDbEntity
  8
0
  6
Continuous
 62
     7
370
    18
100
AcDbDimension
  2
_D_12
 10
468.94
 20
148.56
 30
0.0
 11
636.5983366901
 21
148.56
 31
0.0
 70
   160
  1
<>
 71
     2
 42
-1.0
  3
SLDDIMSTYLE0
100
AcDbAlignedDimension
 13
344.94
 23
158.56
 33
0.0
 14
468.94
 24
172.7448831091
 34
0.0
 50
0.0
100
AcDbRotatedDimension
  0
INSERT
  5
34D
330
1F
100
AcDbEntity
  8
0
  6
Continuous
 62
     7
370
     0
100
AcDbBlockReference
  2
SW_CENTERMARKSYMBOL_1
 10
299.44
 20
176.06
 30
0.0
  0
INSERT
  5
359
330
1F
100
AcDbEntity
  8
0
  6
Continuous
 62
     7
370
     0
100
AcDbBlockReference
  2
SW_CENTERMARKSYMBOL_2
 10
324.44
 20
176.06
 30
0.0
  0
LINE
  5
35A
330
1F
100
AcDbEntity
  8
0
  6
CENTERX2
 62
     7
370
    18
100
AcDbLine
 10
465.44
 20
176.06
 30
0.0
 11
324.94
 21
176.06
 31
0.0
  0
LINE
  5
35B
330
1F
100
AcDbEntity
  8
0
  6
CENTERX2
 62
     7
370
    18
100
AcDbLine
 10
461.94
 20
176.06
 30
0.0
 11
470.64
 21
176.06
 31
0.0
  0
LINE
  5
35C
330
1F
100
AcDbEntity
  8
0
  6
CENTERX2
 62
     7
370
    18
100
AcDbLine
 10
286.94
 20
176.06
 30
0.0
 11
323.44
 21
176.06
 31
0.0
  0
LINE
  5
35D
330
1F
100
AcDbEntity
  8
0
  6
Continuous
 62
     7
370
    25
100
AcDbLine
 10
133.94
 20
64.96
 30
0.0
 11
85.94
 21
64.96
 31
0.0
  0
LINE
  5
35E
330
1F
100
AcDbEntity
  8
0
  6
Continuous
 62
     7
370
    25
100
AcDbLine
 10
85.94
 20
61.16
 30
0.0
 11
133.94
 21
61.16
 31
0.0
  0
LINE
  5
35F
330
1F
100
AcDbEntity
  8
0
  6
Continuous
 62
     7
370
    25
100
AcDbLine
 10
247.94
 20
108.96
 30
0.0
 11
199.94
 21
108.96
 31
0.0
  0
LINE
  5
360
330
1F
100
AcDbEntity
  8
0
  6
Continuous
 62
     7
370
    25
100
AcDbLine
 10
199.94
 20
105.16
 30
0.0
 11
247.94
 21
105.16
 31
0.0
  0
LINE
  5
361
330
1F
100
AcDbEntity
  8
0
  6
Continuous
 62
     7
370
    25
100
AcDbLine
 10
328.64
 20
81.56
 30
0.0
 11
329.64
 21
82.56
 31
0.0
  0
LINE
  5
362
330
1F
100
AcDbEntity
  8
0
  6
Continuous
 62
     7
370
    25
100
AcDbLine
 10
329.64
 20
87.56
 30
0.0
 11
328.64
 21
88.56
 31
0.0
  0
LINE
  5
363
330
1F
100
AcDbEntity
  8
0
  6
Continuous
 62
     7
370
    25
100
AcDbLine
 10
326.84
 20
81.56
 30
0.0
 11
328.64
 21
81.56
 31
0.0
  0
LINE
  5
364
330
1F
100
AcDbEntity
  8
0
  6
Continuous
 62
     7
370
    25
100
AcDbLine
 10
328.64
 20
88.56
 30
0.0
 11
326.84
 21
88.56
 31
0.0
  0
LINE
  5
365
330
1F
100
AcDbEntity
  8
0
  6
Continuous
 62
     7
370
    25
100
AcDbLine
 10
326.84
 20
90.06
 30
0.0
 11
325.9181753881
 21
90.8335026919
 31
0.0
  0
LINE
  5
366
330
1F
100
AcDbEntity
  8
0
  6
Continuous
 62
     7
370
    25
100
AcDbLine
 10
325.9181753881
 20
79.2864973081
 30
0.0
 11
326.84
 21
80.06
 31
0.0
  0
LINE
  5
367
330
1F
100
AcDbEntity
  8
0
  6
Continuous
 62
     7
370
    25
100
AcDbLine
 10
160.44
 20
57.56
 30
0.0
 11
160.44
 21
53.16
 31
0.0
  0
LINE
  5
368
330
1F
100
AcDbEntity
  8
0
  6
Continuous
 62
     7
370
    25
100
AcDbLine
 10
178.44
 20
53.16
 30
0.0
 11
178.44
 21
57.56
 31
0.0
  0
LINE
  5
369
330
1F
100
AcDbEntity
  8
0
  6
Continuous
 62
     7
370
    25
100
AcDbLine
 10
160.44
 20
53.16
 30
0.0
 11
160.94
 21
52.66
 31
0.0
  0
LINE
  5
36A
330
1F
100
AcDbEntity
  8
0
  6
Continuous
 62
     7
370
    25
100
AcDbLine
 10
177.94
 20
52.66
 30
0.0
 11
178.44
 21
53.16
 31
0.0
  0
LINE
  5
36B
330
1F
100
AcDbEntity
  8
0
  6
Continuous
 62
     7
370
    25
100
AcDbLine
 10
135.44
 20
53.16
 30
0.0
 11
135.94
 21
52.66
 31
0.0
  0
LINE
  5
36C
330
1F
100
AcDbEntity
  8
0
  6
Continuous
 62
     7
370
    25
100
AcDbLine
 10
152.94
 20
52.66
 30
0.0
 11
153.44
 21
53.16
 31
0.0
  0
LINE
  5
36D
330
1F
100
AcDbEntity
  8
0
  6
Continuous
 62
     7
370
    25
100
AcDbLine
 10
135.44
 20
57.56
 30
0.0
 11
135.44
 21
53.16
 31
0.0
  0
LINE
  5
36E
330
1F
100
AcDbEntity
  8
0
  6
Continuous
 62
     7
370
    25
100
AcDbLine
 10
153.44
 20
53.16
 30
0.0
 11
153.44
 21
57.56
 31
0.0
  0
LINE
  5
36F
330
1F
100
AcDbEntity
  8
0
  6
Continuous
 62
     7
370
    25
100
AcDbLine
 10
192.94
 20
76.06
 30
0.0
 11
308.44
 21
76.06
 31
0.0
  0
LINE
  5
370
330
1F
100
AcDbEntity
  8
0
  6
Continuous
 62
     7
370
    25
100
AcDbLine
 10
308.44
 20
94.06
 30
0.0
 11
192.94
 21
94.06
 31
0.0
  0
LINE
  5
371
330
1F
100
AcDbEntity
  8
0
  6
Continuous
 62
     7
370
    25
100
AcDbLine
 10
308.44
 20
76.06
 30
0.0
 11
308.94
 21
76.56
 31
0.0
  0
LINE
  5
372
330
1F
100
AcDbEntity
  8
0
  6
Continuous
 62
     7
370
    25
100
AcDbLine
 10
308.94
 20
93.56
 30
0.0
 11
308.44
 21
94.06
 31
0.0
  0
LINE
  5
373
330
1F
100
AcDbEntity
  8
0
  6
Continuous
 62
     7
370
    25
100
AcDbLine
 10
191.94
 20
70.06
 30
0.0
 11
192.94
 21
71.06
 31
0.0
  0
LINE
  5
374
330
1F
100
AcDbEntity
  8
0
  6
Continuous
 62
     7
370
    25
100
AcDbLine
 10
192.94
 20
99.06
 30
0.0
 11
191.94
 21
100.06
 31
0.0
  0
LINE
  5
375
330
1F
100
AcDbEntity
  8
0
  6
Continuous
 62
     7
370
    25
100
AcDbLine
 10
189.94
 20
70.06
 30
0.0
 11
191.94
 21
70.06
 31
0.0
  0
LINE
  5
376
330
1F
100
AcDbEntity
  8
0
  6
Continuous
 62
     7
370
    25
100
AcDbLine
 10
191.94
 20
100.06
 30
0.0
 11
189.94
 21
100.06
 31
0.0
  0
LINE
  5
377
330
1F
100
AcDbEntity
  8
0
  6
Continuous
 62
     7
370
    25
100
AcDbLine
 10
85.94
 20
61.16
 30
0.0
 11
85.94
 21
64.96
 31
0.0
  0
LINE
  5
378
330
1F
100
AcDbEntity
  8
0
  6
Continuous
 62
     7
370
    25
100
AcDbLine
 10
199.94
 20
105.16
 30
0.0
 11
199.94
 21
108.96
 31
0.0
  0
ARC
  5
379
330
1F
100
AcDbEntity
  8
0
  6
Continuous
 62
     7
370
    25
100
AcDbCircle
 10
296.94
 20
95.06
 30
0.0
 40
1.500000000000014
100
AcDbArc
 50
318.1896851042
 51
221.8103148958
  0
ARC
  5
37A
330
1F
100
AcDbEntity
  8
0
  6
Continuous
 62
     7
370
    25
100
AcDbCircle
 10
296.94
 20
75.06
 30
0.0
 40
1.500000000000047
100
AcDbArc
 50
213.1576196409
 51
41.8103148958
  0
ARC
  5
37B
330
1F
100
AcDbEntity
  8
0
  6
Continuous
 62
     7
370
    25
100
AcDbCircle
 10
296.94
 20
75.06
 30
0.0
 40
1.500000000000047
100
AcDbArc
 50
138.1896851042
 51
213.1576196409
  0
CIRCLE
  5
37C
330
1F
100
AcDbEntity
  8
0
  6
Continuous
 62
     7
370
    25
100
AcDbCircle
 10
289.74
 20
103.86
 30
0.0
 40
1.099999999999966
  0
CIRCLE
  5
37D
330
1F
100
AcDbEntity
  8
0
  6
Continuous
 62
     7
370
    25
100
AcDbCircle
 10
260.94
 20
97.06
 30
0.0
 40
1.099999999999966
  0
LINE
  5
37E
330
1F
100
AcDbEntity
  8
0
  6
Continuous
 62
     7
370
    25
100
AcDbLine
 10
247.94
 20
101.06
 30
0.0
 11
247.94
 21
114.06
 31
0.0
  0
LINE
  5
37F
330
1F
100
AcDbEntity
  8
0
  6
Continuous
 62
     7
370
    25
100
AcDbLine
 10
301.94
 20
114.06
 30
0.0
 11
301.94
 21
101.06
 31
0.0
  0
LINE
  5
380
330
1F
100
AcDbEntity
  8
0
  6
Continuous
 62
     7
370
    25
100
AcDbLine
 10
301.94
 20
101.06
 30
0.0
 11
291.94
 21
101.06
 31
0.0
  0
LINE
  5
381
330
1F
100
AcDbEntity
  8
0
  6
Continuous
 62
     7
370
    25
100
AcDbLine
 10
291.94
 20
101.06
 30
0.0
 11
291.94
 21
94.06
 31
0.0
  0
LINE
  5
382
330
1F
100
AcDbEntity
  8
0
  6
Continuous
 62
     7
370
    25
100
AcDbLine
 10
257.94
 20
94.06
 30
0.0
 11
257.94
 21
101.06
 31
0.0
  0
CIRCLE
  5
383
330
1F
100
AcDbEntity
  8
0
  6
Continuous
 62
     7
370
    25
100
AcDbCircle
 10
260.94
 20
97.06
 30
0.0
 40
1.600000000000023
  0
CIRCLE
  5
384
330
1F
100
AcDbEntity
  8
0
  6
Continuous
 62
     7
370
    25
100
AcDbCircle
 10
289.74
 20
103.86
 30
0.0
 40
1.600000000000023
  0
LINE
  5
385
330
1F
100
AcDbEntity
  8
0
  6
Continuous
 62
     7
370
    25
100
AcDbLine
 10
257.94
 20
101.06
 30
0.0
 11
247.94
 21
101.06
 31
0.0
  0
LINE
  5
386
330
1F
100
AcDbEntity
  8
0
  6
Continuous
 62
     7
370
    25
100
AcDbLine
 10
247.94
 20
114.06
 30
0.0
 11
301.94
 21
114.06
 31
0.0
  0
LINE
  5
387
330
1F
100
AcDbEntity
  8
0
  6
Continuous
 62
     7
370
    25
100
AcDbLine
 10
187.94
 20
57.56
 30
0.0
 11
187.94
 21
56.06
 31
0.0
  0
LINE
  5
388
330
1F
100
AcDbEntity
  8
0
  6
Continuous
 62
     7
370
    25
100
AcDbLine
 10
187.94
 20
56.06
 30
0.0
 11
178.44
 21
56.06
 31
0.0
  0
LINE
  5
389
330
1F
100
AcDbEntity
  8
0
  6
Continuous
 62
     7
370
    25
100
AcDbLine
 10
160.44
 20
56.06
 30
0.0
 11
153.44
 21
56.06
 31
0.0
  0
LINE
  5
38A
330
1F
100
AcDbEntity
  8
0
  6
Continuous
 62
     7
370
    25
100
AcDbLine
 10
135.44
 20
56.06
 30
0.0
 11
133.94
 21
56.06
 31
0.0
  0
LINE
  5
38B
330
1F
100
AcDbEntity
  8
0
  6
Continuous
 62
     7
370
    25
100
AcDbLine
 10
133.94
 20
56.06
 30
0.0
 11
133.94
 21
57.56
 31
0.0
  0
LINE
  5
38C
330
1F
100
AcDbEntity
  8
0
  6
Continuous
 62
     7
370
    25
100
AcDbLine
 10
329.64
 20
85.4845664177
 30
0.0
 11
329.64
 21
82.56
 31
0.0
  0
LINE
  5
38D
330
1F
100
AcDbEntity
  8
0
  6
Continuous
 62
     7
370
    25
100
AcDbLine
 10
329.64
 20
87.56
 30
0.0
 11
329.64
 21
85.4845664177
 31
0.0
  0
LINE
  5
38E
330
1F
100
AcDbEntity
  8
0
  6
Continuous
 62
     7
370
    25
100
AcDbLine
 10
328.64
 20
85.6543929848
 30
0.0
 11
328.64
 21
88.56
 31
0.0
  0
LINE
  5
38F
330
1F
100
AcDbEntity
  8
0
  6
Continuous
 62
     7
370
    25
100
AcDbLine
 10
328.64
 20
81.56
 30
0.0
 11
328.64
 21
85.6543929848
 31
0.0
  0
LINE
  5
390
330
1F
100
AcDbEntity
  8
0
  6
Continuous
 62
     7
370
    25
100
AcDbLine
 10
301.94
 20
101.06
 30
0.0
 11
301.94
 21
94.06
 31
0.0
  0
LINE
  5
391
330
1F
100
AcDbEntity
  8
0
  6
Continuous
 62
     7
370
    25
100
AcDbLine
 10
301.94
 20
76.06
 30
0.0
 11
301.94
 21
69.06
 31
0.0
  0
LINE
  5
392
330
1F
100
AcDbEntity
  8
0
  6
Continuous
 62
     7
370
    25
100
AcDbLine
 10
301.94
 20
69.06
 30
0.0
 11
291.94
 21
69.06
 31
0.0
  0
LINE
  5
393
330
1F
100
AcDbEntity
  8
0
  6
Continuous
 62
     7
370
    25
100
AcDbLine
 10
291.94
 20
76.06
 30
0.0
 11
291.94
 21
69.06
 31
0.0
  0
ARC
  5
394
330
1F
100
AcDbEntity
  8
0
  6
Continuous
 62
     7
370
    25
100
AcDbCircle
 10
296.94
 20
75.06
 30
0.0
 40
2.000000000000016
100
AcDbArc
 50
150.0
 51
30.0
  0
ARC
  5
395
330
1F
100
AcDbEntity
  8
0
  6
Continuous
 62
     7
370
    25
100
AcDbCircle
 10
296.94
 20
95.06
 30
0.0
 40
2.0
100
AcDbArc
 50
330.0
 51
90.0
  0
ARC
  5
396
330
1F
100
AcDbEntity
  8
0
  6
Continuous
 62
     7
370
    25
100
AcDbCircle
 10
296.94
 20
95.06
 30
0.0
 40
2.000000000000009
100
AcDbArc
 50
90.0
 51
210.0
  0
LINE
  5
397
330
1F
100
AcDbEntity
  8
0
  6
Continuous
 62
     7
370
    25
100
AcDbLine
 10
319.94
 20
75.06
 30
0.0
 11
313.94
 21
75.06
 31
0.0
  0
LINE
  5
398
330
1F
100
AcDbEntity
  8
0
  6
Continuous
 62
     7
370
    25
100
AcDbLine
 10
313.94
 20
79.3
 30
0.0
 11
319.94
 21
79.3
 31
0.0
  0
LINE
  5
399
330
1F
100
AcDbEntity
  8
0
  6
Continuous
 62
     7
370
    25
100
AcDbLine
 10
319.94
 20
79.3
 30
0.0
 11
319.94
 21
75.06
 31
0.0
  0
LINE
  5
39A
330
1F
100
AcDbEntity
  8
0
  6
Continuous
 62
     7
370
    25
100
AcDbLine
 10
313.94
 20
75.06
 30
0.0
 11
313.94
 21
79.3
 31
0.0
  0
LINE
  5
39B
330
1F
100
AcDbEntity
  8
0
  6
Continuous
 62
     7
370
    25
100
AcDbLine
 10
319.94
 20
90.82
 30
0.0
 11
313.94
 21
90.82
 31
0.0
  0
LINE
  5
39C
330
1F
100
AcDbEntity
  8
0
  6
Continuous
 62
     7
370
    25
100
AcDbLine
 10
319.94
 20
90.82
 30
0.0
 11
319.94
 21
79.3
 31
0.0
  0
LINE
  5
39D
330
1F
100
AcDbEntity
  8
0
  6
Continuous
 62
     7
370
    25
100
AcDbLine
 10
313.94
 20
90.82
 30
0.0
 11
313.94
 21
79.3
 31
0.0
  0
LINE
  5
39E
330
1F
100
AcDbEntity
  8
0
  6
Continuous
 62
     7
370
    25
100
AcDbLine
 10
313.94
 20
95.06
 30
0.0
 11
319.94
 21
95.06
 31
0.0
  0
LINE
  5
39F
330
1F
100
AcDbEntity
  8
0
  6
Continuous
 62
     7
370
    25
100
AcDbLine
 10
319.94
 20
95.06
 30
0.0
 11
319.94
 21
90.82
 31
0.0
  0
LINE
  5
3A0
330
1F
100
AcDbEntity
  8
0
  6
Continuous
 62
     7
370
    25
100
AcDbLine
 10
313.94
 20
90.82
 30
0.0
 11
313.94
 21
95.06
 31
0.0
  0
LINE
  5
3A1
330
1F
100
AcDbEntity
  8
0
  6
Continuous
 62
     7
370
    25
100
AcDbLine
 10
326.84
 20
89.3901270189
 30
0.0
 11
326.84
 21
85.06
 31
0.0
  0
SPLINE
  5
3A2
330
1F
100
AcDbEntity
  8
0
  6
Continuous
 62
     7
370
    25
100
AcDbSpline
210
0.0
220
0.0
230
1.0
 70
     8
 71
     3
 72
    10
 73
     6
 74
     0
 42
0.000000001
 43
0.00000001
 40
0.0
 40
0.0
 40
0.0
 40
0.0
 40
0.4564348785715917
 40
0.9595524360150205
 40
1.0
 40
1.0
 40
1.0
 40
1.0
 10
325.9181753880516
 20
87.94675134594807
 30
0.0
 10
326.1416387686292
 20
87.53751798426967
 30
0.0
 10
326.6114206395161
 20
86.67719620008432
 30
0.0
 10
326.8343081969668
 20
85.65545958957007
 30
0.0
 10
326.8396057969748
 20
85.10124035393602
 30
0.0
 10
326.8400000000001
 20
85.05999999999995
 30
0.0
  0
SPLINE
  5
3A3
330
1F
100
AcDbEntity
  8
0
  6
Continuous
 62
     7
370
    25
100
AcDbSpline
210
0.0
220
0.0
230
1.0
 70
     8
 71
     3
 72
    11
 73
     7
 74
     0
 42
0.000000001
 43
0.00000001
 40
0.0
 40
0.0
 40
0.0
 40
0.0
 40
0.2752499309051422
 40
0.587918845279989
 40
0.9093114286132102
 40
1.0
 40
1.0
 40
1.0
 40
1.0
 10
326.8400000000001
 20
89.39012701892224
 30
0.0
 10
326.823164465951
 20
89.24932426250815
 30
0.0
 10
326.7872046831265
 20
88.94857725163341
 30
0.0
 10
326.4995257502515
 20
88.5024044894712
 30
0.0
 10
326.1774474797377
 20
88.16847471546002
 30
0.0
 10
325.9649423558593
 20
87.98674535230921
 30
0.0
 10
325.9181753880517
 20
87.94675134594807
 30
0.0
  0
SPLINE
  5
3A4
330
1F
100
AcDbEntity
  8
0
  6
Continuous
 62
     7
370
    25
100
AcDbSpline
210
0.0
220
0.0
230
1.0
 70
     8
 71
     3
 72
     9
 73
     5
 74
     0
 42
0.000000001
 43
0.00000001
 40
0.0
 40
0.0
 40
0.0
 40
0.0
 40
0.4654453915388685
 40
1.0
 40
1.0
 40
1.0
 40
1.0
 10
326.8400000000001
 20
85.05999999999995
 30
0.0
 10
326.7918632342348
 20
84.58281768601243
 30
0.0
 10
326.6884423675975
 20
83.55760114576518
 30
0.0
 10
326.1864941310872
 20
82.65548108820552
 30
0.0
 10
325.9181753880516
 20
82.17324865405179
 30
0.0
  0
LINE
  5
3A5
330
1F
100
AcDbEntity
  8
0
  6
Continuous
 62
     7
370
    25
100
AcDbLine
 10
326.84
 20
85.06
 30
0.0
 11
326.84
 21
80.7298729811
 31
0.0
  0
SPLINE
  5
3A6
330
1F
100
AcDbEntity
  8
0
  6
Continuous
 62
     7
370
    25
100
AcDbSpline
210
0.0
220
0.0
230
1.0
 70
     8
 71
     3
 72
    10
 73
     6
 74
     0
 42
0.000000001
 43
0.00000001
 40
0.0
 40
0.0
 40
0.0
 40
0.0
 40
0.3835516575406614
 40
0.7791382395785813
 40
1.0
 40
1.0
 40
1.0
 40
1.0
 10
325.9181753880516
 20
82.17324865405179
 30
0.0
 10
326.1070966690839
 20
82.00160693072205
 30
0.0
 10
326.4908671245846
 20
81.65293778140622
 30
0.0
 10
326.7973503417504
 20
81.15759211954786
 30
0.0
 10
326.8287500717238
 20
80.84269474396272
 30
0.0
 10
326.8400000000001
 20
80.72987298107769
 30
0.0
  0
LINE
  5
3A7
330
1F
100
AcDbEntity
  8
0
  6
Continuous
 62
     7
370
    25
100
AcDbLine
 10
325.9181753881
 20
82.1732486541
 30
0.0
 11
323.64
 21
82.1732486541
 31
0.0
  0
LINE
  5
3A8
330
1F
100
AcDbEntity
  8
0
  6
Continuous
 62
     7
370
    25
100
AcDbLine
 10
325.9181753881
 20
87.9467513459
 30
0.0
 11
323.64
 21
87.9467513459
 31
0.0
  0
LINE
  5
3A9
330
1F
100
AcDbEntity
  8
0
  6
Continuous
 62
     7
370
    25
100
AcDbLine
 10
325.9181753881
 20
90.8335026919
 30
0.0
 11
323.64
 21
90.8335026919
 31
0.0
  0
SPLINE
  5
3AA
330
1F
100
AcDbEntity
  8
0
  6
Continuous
 62
     7
370
    25
100
AcDbSpline
210
0.0
220
0.0
230
1.0
 70
     8
 71
     3
 72
    10
 73
     6
 74
     0
 42
0.000000001
 43
0.00000001
 40
0.0
 40
0.0
 40
0.0
 40
0.0
 40
0.3835516575406647
 40
0.7791382395785864
 40
1.0
 40
1.0
 40
1.0
 40
1.0
 10
325.9181753880515
 20
90.83350269189629
 30
0.0
 10
326.1070966690838
 20
90.66186096856653
 30
0.0
 10
326.4908671245846
 20
90.3131918192507
 30
0.0
 10
326.7973503417505
 20
89.81784615739214
 30
0.0
 10
326.8287500717238
 20
89.50294878180719
 30
0.0
 10
326.8400000000001
 20
89.39012701892224
 30
0.0
  0
SPLINE
  5
3AB
330
1F
100
AcDbEntity
  8
0
  6
Continuous
 62
     7
370
    25
100
AcDbSpline
210
0.0
220
0.0
230
1.0
 70
     8
 71
     3
 72
    11
 73
     7
 74
     0
 42
0.000000001
 43
0.00000001
 40
0.0
 40
0.0
 40
0.0
 40
0.0
 40
0.2752499309051273
 40
0.5879188452799495
 40
0.9093114286131433
 40
1.0
 40
1.0
 40
1.0
 40
1.0
 10
326.8400000000001
 20
80.72987298107769
 30
0.0
 10
326.823164465951
 20
80.5890702246637
 30
0.0
 10
326.7872046831266
 20
80.28832321378914
 30
0.0
 10
326.4995257502514
 20
79.84215045162688
 30
0.0
 10
326.1774474797377
 20
79.50822067761568
 30
0.0
 10
325.9649423558591
 20
79.32649131446486
 30
0.0
 10
325.9181753880515
 20
79.28649730810369
 30
0.0
  0
LINE
  5
3AC
330
1F
100
AcDbEntity
  8
0
  6
Continuous
 62
     7
370
    25
100
AcDbLine
 10
325.9181753881
 20
79.2864973081
 30
0.0
 11
323.64
 21
79.2864973081
 31
0.0
  0
LINE
  5
3AD
330
1F
100
AcDbEntity
  8
0
  6
Continuous
 62
     7
370
    25
100
AcDbLine
 10
326.84
 20
90.06
 30
0.0
 11
326.84
 21
89.3901270189
 31
0.0
  0
LINE
  5
3AE
330
1F
100
AcDbEntity
  8
0
  6
Continuous
 62
     7
370
    25
100
AcDbLine
 10
326.84
 20
80.7298729811
 30
0.0
 11
326.84
 21
80.06
 31
0.0
  0
LINE
  5
3AF
330
1F
100
AcDbEntity
  8
0
  6
Continuous
 62
     7
370
    25
100
AcDbLine
 10
323.64
 20
91.06
 30
0.0
 11
319.94
 21
91.06
 31
0.0
  0
LINE
  5
3B0
330
1F
100
AcDbEntity
  8
0
  6
Continuous
 62
     7
370
    25
100
AcDbLine
 10
323.64
 20
91.06
 30
0.0
 11
323.64
 21
85.06
 31
0.0
  0
LINE
  5
3B1
330
1F
100
AcDbEntity
  8
0
  6
Continuous
 62
     7
370
    25
100
AcDbLine
 10
323.64
 20
85.06
 30
0.0
 11
319.94
 21
85.06
 31
0.0
  0
LINE
  5
3B2
330
1F
100
AcDbEntity
  8
0
  6
Continuous
 62
     7
370
    25
100
AcDbLine
 10
323.64
 20
79.06
 30
0.0
 11
319.94
 21
79.06
 31
0.0
  0
LINE
  5
3B3
330
1F
100
AcDbEntity
  8
0
  6
Continuous
 62
     7
370
    25
100
AcDbLine
 10
323.64
 20
85.06
 30
0.0
 11
323.64
 21
79.06
 31
0.0
  0
LINE
  5
3B4
330
1F
100
AcDbEntity
  8
0
  6
Continuous
 62
     7
370
    25
100
AcDbLine
 10
160.44
 20
53.16
 30
0.0
 11
178.44
 21
53.16
 31
0.0
  0
LINE
  5
3B5
330
1F
100
AcDbEntity
  8
0
  6
Continuous
 62
     7
370
    25
100
AcDbLine
 10
177.94
 20
52.66
 30
0.0
 11
160.94
 21
52.66
 31
0.0
  0
LINE
  5
3B6
330
1F
100
AcDbEntity
  8
0
  6
Continuous
 62
     7
370
    25
100
AcDbLine
 10
152.94
 20
52.66
 30
0.0
 11
135.94
 21
52.66
 31
0.0
  0
LINE
  5
3B7
330
1F
100
AcDbEntity
  8
0
  6
Continuous
 62
     7
370
    25
100
AcDbLine
 10
135.44
 20
53.16
 30
0.0
 11
153.44
 21
53.16
 31
0.0
  0
LINE
  5
3B8
330
1F
100
AcDbEntity
  8
0
  6
Continuous
 62
     7
370
    25
100
AcDbLine
 10
308.44
 20
76.06
 30
0.0
 11
308.44
 21
94.06
 31
0.0
  0
LINE
  5
3B9
330
1F
100
AcDbEntity
  8
0
  6
Continuous
 62
     7
370
    25
100
AcDbLine
 10
308.94
 20
93.56
 30
0.0
 11
308.94
 21
92.56
 31
0.0
  0
LINE
  5
3BA
330
1F
100
AcDbEntity
  8
0
  6
Continuous
 62
     7
370
    25
100
AcDbLine
 10
308.94
 20
92.56
 30
0.0
 11
308.94
 21
89.06
 31
0.0
  0
LINE
  5
3BB
330
1F
100
AcDbEntity
  8
0
  6
Continuous
 62
     7
370
    25
100
AcDbLine
 10
308.94
 20
89.06
 30
0.0
 11
308.94
 21
81.06
 31
0.0
  0
LINE
  5
3BC
330
1F
100
AcDbEntity
  8
0
  6
Continuous
 62
     7
370
    25
100
AcDbLine
 10
308.94
 20
81.06
 30
0.0
 11
308.94
 21
77.56
 31
0.0
  0
LINE
  5
3BD
330
1F
100
AcDbEntity
  8
0
  6
Continuous
 62
     7
370
    25
100
AcDbLine
 10
308.94
 20
77.56
 30
0.0
 11
308.94
 21
76.56
 31
0.0
  0
LINE
  5
3BE
330
1F
100
AcDbEntity
  8
0
  6
Continuous
 62
     7
370
    25
100
AcDbLine
 10
308.94
 20
92.56
 30
0.0
 11
313.64
 21
92.56
 31
0.0
  0
LINE
  5
3BF
330
1F
100
AcDbEntity
  8
0
  6
Continuous
 62
     7
370
    25
100
AcDbLine
 10
313.64
 20
89.06
 30
0.0
 11
313.64
 21
92.56
 31
0.0
  0
LINE
  5
3C0
330
1F
100
AcDbEntity
  8
0
  6
Continuous
 62
     7
370
    25
100
AcDbLine
 10
308.94
 20
89.06
 30
0.0
 11
313.64
 21
89.06
 31
0.0
  0
LINE
  5
3C1
330
1F
100
AcDbEntity
  8
0
  6
Continuous
 62
     7
370
    25
100
AcDbLine
 10
313.94
 20
88.3751168909
 30
0.0
 11
313.64
 21
89.06
 31
0.0
  0
LINE
  5
3C2
330
1F
100
AcDbEntity
  8
0
  6
Continuous
 62
     7
370
    25
100
AcDbLine
 10
313.64
 20
81.06
 30
0.0
 11
313.94
 21
81.7448831091
 31
0.0
  0
LINE
  5
3C3
330
1F
100
AcDbEntity
  8
0
  6
Continuous
 62
     7
370
    25
100
AcDbLine
 10
308.94
 20
81.06
 30
0.0
 11
313.64
 21
81.06
 31
0.0
  0
LINE
  5
3C4
330
1F
100
AcDbEntity
  8
0
  6
Continuous
 62
     7
370
    25
100
AcDbLine
 10
313.64
 20
92.56
 30
0.0
 11
313.94
 21
92.56
 31
0.0
  0
LINE
  5
3C5
330
1F
100
AcDbEntity
  8
0
  6
Continuous
 62
     7
370
    25
100
AcDbLine
 10
313.64
 20
77.56
 30
0.0
 11
313.64
 21
81.06
 31
0.0
  0
LINE
  5
3C6
330
1F
100
AcDbEntity
  8
0
  6
Continuous
 62
     7
370
    25
100
AcDbLine
 10
313.94
 20
77.56
 30
0.0
 11
313.64
 21
77.56
 31
0.0
  0
LINE
  5
3C7
330
1F
100
AcDbEntity
  8
0
  6
Continuous
 62
     7
370
    25
100
AcDbLine
 10
308.94
 20
77.56
 30
0.0
 11
313.64
 21
77.56
 31
0.0
  0
LINE
  5
3C8
330
1F
100
AcDbEntity
  8
0
  6
Continuous
 62
     7
370
    25
100
AcDbLine
 10
192.94
 20
99.06
 30
0.0
 11
192.94
 21
71.06
 31
0.0
  0
LINE
  5
3C9
330
1F
100
AcDbEntity
  8
0
  6
Continuous
 62
     7
370
    25
100
AcDbLine
 10
191.94
 20
70.06
 30
0.0
 11
191.94
 21
100.06
 31
0.0
  0
LINE
  5
3CA
330
1F
100
AcDbEntity
  8
0
  6
Continuous
 62
     7
370
    25
100
AcDbLine
 10
179.2282612179
 20
62.201025641
 30
0.0
 11
179.081025641
 21
62.201025641
 31
0.0
  0
SPLINE
  5
3CB
330
1F
100
AcDbEntity
  8
0
  6
Continuous
 62
     7
370
    25
100
AcDbSpline
210
0.0
220
0.0
230
1.0
 70
     8
 71
     3
 72
     9
 73
     5
 74
     0
 42
0.000000001
 43
0.00000001
 40
0.0
 40
0.0
 40
0.0
 40
0.0
 40
0.5588328183272322
 40
1.0
 40
1.0
 40
1.0
 40
1.0
 10
179.8739943910257
 20
62.1028685897436
 30
0.0
 10
179.7560419915921
 20
62.13775785924532
 30
0.0
 10
179.5449727852655
 20
62.20019025111191
 30
0.0
 10
179.3252123221184
 20
62.20076991315553
 30
0.0
 10
179.2282612179488
 20
62.20102564102565
 30
0.0
  0
SPLINE
  5
3CC
330
1F
100
AcDbEntity
  8
0
  6
Continuous
 62
     7
370
    25
100
AcDbSpline
210
0.0
220
0.0
230
1.0
 70
     8
 71
     3
 72
    10
 73
     6
 74
     0
 42
0.000000001
 43
0.00000001
 40
0.0
 40
0.0
 40
0.0
 40
0.0
 40
0.559902288346146
 40
0.780508580994785
 40
1.0
 40
1.0
 40
1.0
 40
1.0
 10
180.4271794871795
 20
60.76653044871795
 30
0.0
 10
180.4076520054193
 20
61.0499083230467
 30
0.0
 10
180.3804305287505
 20
61.44493950470336
 30
0.0
 10
180.1477328915811
 20
61.90792539485369
 30
0.0
 10
179.965086328613
 20
62.03799735933227
 30
0.0
 10
179.8739943910257
 20
62.1028685897436
 30
0.0
  0
SPLINE
  5
3CD
330
1F
100
AcDbEntity
  8
0
  6
Continuous
 62
     7
370
    25
100
AcDbSpline
210
0.0
220
0.0
230
1.0
 70
     8
 71
     3
 72
    10
 73
     6
 74
     0
 42
0.000000001
 43
0.00000001
 40
0.0
 40
0.0
 40
0.0
 40
0.0
 40
0.2782840619999054
 40
0.5588575699718852
 40
1.0
 40
1.0
 40
1.0
 40
1.0
 10
179.9223717948718
 20
59.50801682692308
 30
0.0
 10
180.0250576935891
 20
59.59267498815157
 30
0.0
 10
180.2312742890172
 20
59.7626877942118
 30
0.0
 10
180.3964400264761
 20
60.22084434636448
 30
0.0
 10
180.4155181526909
 20
60.55951874390221
 30
0.0
 10
180.4271794871795
 20
60.76653044871796
 30
0.0
  0
SPLINE
  5
3CE
330
1F
100
AcDbEntity
  8
0
  6
Continuous
 62
     7
370
    25
100
AcDbSpline
210
0.0
220
0.0
230
1.0
 70
     8
 71
     3
 72
     9
 73
     5
 74
     0
 42
0.000000001
 43
0.00000001
 40
0.0
 40
0.0
 40
0.0
 40
0.0
 40
0.5610183281682669
 40
1.0
 40
1.0
 40
1.0
 40
1.0
 10
179.3222115384616
 20
59.41897435897437
 30
0.0
 10
179.4371778828695
 20
59.41870347643191
 30
0.0
 10
179.6421022830819
 20
59.41822063562466
 30
0.0
 10
179.8368716239819
 20
59.48062323119359
 30
0.0
 10
179.9223717948718
 20
59.50801682692308
 30
0.0
  0
LINE
  5
3CF
330
1F
100
AcDbEntity
  8
0
  6
Continuous
 62
     7
370
    25
100
AcDbLine
 10
179.081025641
 20
59.418974359
 30
0.0
 11
179.3222115385
 21
59.418974359
 31
0.0
  0
LINE
  5
3D0
330
1F
100
AcDbEntity
  8
0
  6
Continuous
 62
     7
370
    25
100
AcDbLine
 10
179.081025641
 20
62.201025641
 30
0.0
 11
179.081025641
 21
59.418974359
 31
0.0
  0
SPLINE
  5
3D1
330
1F
100
AcDbEntity
  8
0
  6
Continuous
 62
     7
370
    25
100
AcDbSpline
210
0.0
220
0.0
230
1.0
 70
     8
 71
     3
 72
    11
 73
     7
 74
     0
 42
0.000000001
 43
0.00000001
 40
0.0
 40
0.0
 40
0.0
 40
0.0
 40
0.1252460079305004
 40
0.2507253070838505
 40
0.500706979917423
 40
1.0
 40
1.0
 40
1.0
 40
1.0
 10
188.19
 20
59.32923076923078
 30
0.0
 10
188.2442504849867
 20
59.33518251655753
 30
0.0
 10
188.3528525053824
 20
59.3470970973162
 30
0.0
 10
188.5388457646803
 20
59.46695921172059
 30
0.0
 10
188.7649451757942
 20
59.78364251512358
 30
0.0
 10
188.796906866035
 20
60.11135458473888
 30
0.0
 10
188.8182051282052
 20
60.32973157051283
 30
0.0
  0
SPLINE
  5
3D2
330
1F
100
AcDbEntity
  8
0
  6
Continuous
 62
     7
370
    25
100
AcDbSpline
210
0.0
220
0.0
230
1.0
 70
     8
 71
     3
 72
    11
 73
     7
 74
     0
 42
0.000000001
 43
0.00000001
 40
0.0
 40
0.0
 40
0.0
 40
0.0
 40
0.4993152051200287
 40
0.7492904904378189
 40
0.874761648992074
 40
0.9999999999999999
 40
0.9999999999999999
 40
0.9999999999999999
 40
0.9999999999999999
 10
187.5617948717949
 20
60.32973157051282
 30
0.0
 10
187.5830665872045
 20
60.11132943065824
 30
0.0
 10
187.6149876941692
 20
59.78358726537615
 30
0.0
 10
187.8411718376593
 20
59.4669539514102
 30
0.0
 10
188.0271544211324
 20
59.34709420881325
 30
0.0
 10
188.1357517546838
 20
59.33518156175089
 30
0.0
 10
188.19
 20
59.32923076923078
 30
0.0
  0
SPLINE
  5
3D3
330
1F
100
AcDbEntity
  8
0
  6
Continuous
 62
     7
370
    25
100
AcDbSpline
210
0.0
220
0.0
230
1.0
 70
     8
 71
     3
 72
    11
 73
     7
 74
     0
 42
0.000000001
 43
0.00000001
 40
0.0
 40
0.0
 40
0.0
 40
0.0
 40
0.1252016924080618
 40
0.2505571886795163
 40
0.5009934463009188
 40
1.0
 40
1.0
 40
1.0
 40
1.0
 10
188.19
 20
61.34846153846154
 30
0.0
 10
188.1351469661271
 20
61.342145590172
 30
0.0
 10
188.0253735142399
 20
61.32950593477408
 30
0.0
 10
187.8418855969988
 20
61.20116094233379
 30
0.0
 10
187.6175866874279
 20
60.88077019478036
 30
0.0
 10
187.5840949204983
 20
60.54998230118344
 30
0.0
 10
187.5617948717949
 20
60.32973157051283
 30
0.0
  0
SPLINE
  5
3D4
330
1F
100
AcDbEntity
  8
0
  6
Continuous
 62
     7
370
    25
100
AcDbSpline
210
0.0
220
0.0
230
1.0
 70
     8
 71
     3
 72
    11
 73
     7
 74
     0
 42
0.000000001
 43
0.00000001
 40
0.0
 40
0.0
 40
0.0
 40
0.0
 40
0.4989953754620793
 40
0.7494681080172558
 40
0.8748125599623205
 40
0.9999999999999999
 40
0.9999999999999999
 40
0.9999999999999999
 40
0.9999999999999999
 10
188.8182051282052
 20
60.32973157051283
 30
0.0
 10
188.7956494408299
 20
60.54983150180595
 30
0.0
 10
188.7617718355986
 20
60.88041147747854
 30
0.0
 10
188.5377296689789
 20
61.20069247094421
 30
0.0
 10
188.3545080432109
 20
61.32924346937276
 30
0.0
 10
188.2448130986086
 20
61.34205819248848
 30
0.0
 10
188.19
 20
61.34846153846154
 30
0.0
  0
SPLINE
  5
3D5
330
1F
100
AcDbEntity
  8
0
  6
Continuous
 62
     7
370
    25
100
AcDbSpline
210
0.0
220
0.0
230
1.0
 70
     8
 71
     3
 72
    11
 73
     7
 74
     0
 42
0.000000001
 43
0.00000001
 40
0.0
 40
0.0
 40
0.0
 40
0.0
 40
0.1250490604142644
 40
0.2504153431054256
 40
0.5004166025508203
 40
1.0
 40
1.0
 40
1.0
 40
1.0
 10
177.4165625
 20
59.32923076923077
 30
0.0
 10
177.4960964146649
 20
59.33871727287396
 30
0.0
 10
177.6553660042432
 20
59.35771434535743
 30
0.0
 10
177.9225614677397
 20
59.5423254768825
 30
0.0
 10
178.2502768697899
 20
60.00824057650782
 30
0.0
 10
178.2910383831032
 20
60.49061219231662
 30
0.0
 10
178.3182051282051
 20
60.81210336538462
 30
0.0
  0
SPLINE
  5
3D6
330
1F
100
AcDbEntity
  8
0
  6
Continuous
 62
     7
370
    25
100
AcDbSpline
210
0.0
220
0.0
230
1.0
 70
     8
 71
     3
 72
    11
 73
     7
 74
     0
 42
0.000000001
 43
0.00000001
 40
0.0
 40
0.0
 40
0.0
 40
0.0
 40
0.4991160317194285
 40
0.7495418913814517
 40
0.8748444187760704
 40
1.0
 40
1.0
 40
1.0
 40
1.0
 10
176.5233333333334
 20
60.79597756410256
 30
0.0
 10
176.5535477549578
 20
60.47950105548648
 30
0.0
 10
176.5989219230713
 20
60.00423601535401
 30
0.0
 10
176.9171934374729
 20
59.54143026078657
 30
0.0
 10
177.1800378036324
 20
59.35576990819323
 30
0.0
 10
177.3377517786439
 20
59.33807368803765
 30
0.0
 10
177.4165625
 20
59.32923076923077
 30
0.0
  0
SPLINE
  5
3D7
330
1F
100
AcDbEntity
  8
0
  6
Continuous
 62
     7
370
    25
100
AcDbSpline
210
0.0
220
0.0
230
1.0
 70
     8
 71
     3
 72
    11
 73
     7
 74
     0
 42
0.000000001
 43
0.00000001
 40
0.0
 40
0.0
 40
0.0
 40
0.0
 40
0.1249546649233442
 40
0.2503355151445406
 40
0.5004718750725806
 40
1.0
 40
1.0
 40
1.0
 40
1.0
 10
177.4165625000001
 20
62.29076923076924
 30
0.0
 10
177.3371220743104
 20
62.2801765884092
 30
0.0
 10
177.1779702739313
 20
62.25895517515852
 30
0.0
 10
176.917154303674
 20
62.06520530038478
 30
0.0
 10
176.5925978960869
 20
61.59984949934189
 30
0.0
 10
176.5510309012546
 20
61.11743050686506
 30
0.0
 10
176.5233333333334
 20
60.79597756410256
 30
0.0
  0
SPLINE
  5
3D8
330
1F
100
AcDbEntity
  8
0
  6
Continuous
 62
     7
370
    25
100
AcDbSpline
210
0.0
220
0.0
230
1.0
 70
     8
 71
     3
 72
    11
 73
     7
 74
     0
 42
0.000000001
 43
0.00000001
 40
0.0
 40
0.0
 40
0.0
 40
0.0
 40
0.4993358358504846
 40
0.7495692015935346
 40
0.8749806247542864
 40
0.9999999999999999
 40
0.9999999999999999
 40
0.9999999999999999
 40
0.9999999999999999
 10
178.3182051282051
 20
60.81210336538462
 30
0.0
 10
178.2903145881138
 20
61.1324971952851
 30
0.0
 10
178.2484471947338
 20
61.61345075405572
 30
0.0
 10
177.917017824762
 20
62.07209108769087
 30
0.0
 10
177.6542137661117
 20
62.26027904210522
 30
0.0
 10
177.4956968696199
 20
62.2806164472432
 30
0.0
 10
177.4165625000001
 20
62.29076923076924
 30
0.0
  0
LINE
  5
3D9
330
1F
100
AcDbEntity
  8
0
  6
Continuous
 62
     7
370
    25
100
AcDbLine
 10
150.94
 20
57.86
 30
0.0
 11
189.94
 21
57.86
 31
0.0
  0
LINE
  5
3DA
330
1F
100
AcDbEntity
  8
0
  6
Continuous
 62
     7
370
    25
100
AcDbLine
 10
150.94
 20
57.86
 30
0.0
 11
150.94
 21
112.26
 31
0.0
  0
LINE
  5
3DB
330
1F
100
AcDbEntity
  8
0
  6
Continuous
 62
     7
370
    25
100
AcDbLine
 10
189.94
 20
112.26
 30
0.0
 11
150.94
 21
112.26
 31
0.0
  0
LINE
  5
3DC
330
1F
100
AcDbEntity
  8
0
  6
Continuous
 62
     7
370
    25
100
AcDbLine
 10
189.94
 20
57.86
 30
0.0
 11
189.94
 21
112.26
 31
0.0
  0
CIRCLE
  5
3DD
330
1F
100
AcDbEntity
  8
0
  6
Continuous
 62
     7
370
    25
100
AcDbCircle
 10
156.44
 20
65.06
 30
0.0
 40
3.25
  0
CIRCLE
  5
3DE
330
1F
100
AcDbEntity
  8
0
  6
Continuous
 62
     7
370
    25
100
AcDbCircle
 10
156.44
 20
105.06
 30
0.0
 40
3.25
  0
SPLINE
  5
3DF
330
1F
100
AcDbEntity
  8
0
  6
Continuous
 62
     7
370
    25
100
AcDbSpline
210
0.0
220
0.0
230
1.0
 70
     8
 71
     3
 72
     9
 73
     5
 74
     0
 42
0.000000001
 43
0.00000001
 40
0.0
 40
0.0
 40
0.0
 40
0.0
 40
0.5600019179101271
 40
1.0
 40
1.0
 40
1.0
 40
1.0
 10
187.3823076923077
 20
60.33183493589745
 30
0.0
 10
187.3906110050852
 20
60.50916377980909
 30
0.0
 10
187.4054382985497
 20
60.82582134514998
 30
0.0
 10
187.537877045216
 20
61.11281144496441
 30
0.0
 10
187.5961498397436
 20
61.23908653846154
 30
0.0
  0
SPLINE
  5
3E0
330
1F
100
AcDbEntity
  8
0
  6
Continuous
 62
     7
370
    25
100
AcDbSpline
210
0.0
220
0.0
230
1.0
 70
     8
 71
     3
 72
    11
 73
     7
 74
     0
 42
0.000000001
 43
0.00000001
 40
0.0
 40
0.0
 40
0.0
 40
0.0
 40
0.1252832470308244
 40
0.250580940515384
 40
0.5007620617270917
 40
1.0
 40
1.0
 40
1.0
 40
1.0
 10
188.1907011217949
 20
59.01512820512821
 30
0.0
 10
188.1195655932467
 20
59.02216579959344
 30
0.0
 10
187.9772863334883
 20
59.03624180003129
 30
0.0
 10
187.7356439062542
 20
59.19738880957315
 30
0.0
 10
187.4554412879035
 20
59.62103330597137
 30
0.0
 10
187.4115479604913
 20
60.04764228660895
 30
0.0
 10
187.3823076923077
 20
60.33183493589745
 30
0.0
  0
SPLINE
  5
3E1
330
1F
100
AcDbEntity
  8
0
  6
Continuous
 62
     7
370
    25
100
AcDbSpline
210
0.0
220
0.0
230
1.0
 70
     8
 71
     3
 72
    11
 73
     7
 74
     0
 42
0.000000001
 43
0.00000001
 40
0.0
 40
0.0
 40
0.0
 40
0.0
 40
0.499218813218502
 40
0.7493807953189894
 40
0.8747214212364928
 40
0.9999999999999999
 40
0.9999999999999999
 40
0.9999999999999999
 40
0.9999999999999999
 10
188.9976923076923
 20
60.33183493589745
 30
0.0
 10
188.9683843278245
 20
60.04788652170698
 30
0.0
 10
188.924389917596
 20
59.62164960350316
 30
0.0
 10
188.6452474258023
 20
59.1978288301029
 30
0.0
 10
188.4040310064661
 20
59.03623249989107
 30
0.0
 10
188.2617993456644
 20
59.02216180886342
 30
0.0
 10
188.1907011217949
 20
59.01512820512821
 30
0.0
  0
SPLINE
  5
3E2
330
1F
100
AcDbEntity
  8
0
  6
Continuous
 62
     7
370
    25
100
AcDbSpline
210
0.0
220
0.0
230
1.0
 70
     8
 71
     3
 72
     9
 73
     5
 74
     0
 42
0.000000001
 43
0.00000001
 40
0.0
 40
0.0
 40
0.0
 40
0.0
 40
0.5593287449576955
 40
1.0
 40
1.0
 40
1.0
 40
1.0
 10
188.7838501602565
 20
61.24118990384616
 30
0.0
 10
188.8547983816629
 20
61.07846376072951
 30
0.0
 10
188.9816436797923
 20
60.78753263197273
 30
0.0
 10
188.9927833675204
 20
60.47122334595043
 30
0.0
 10
188.9976923076923
 20
60.33183493589745
 30
0.0
  0
SPLINE
  5
3E3
330
1F
100
AcDbEntity
  8
0
  6
Continuous
 62
     7
370
    25
100
AcDbSpline
210
0.0
220
0.0
230
1.0
 70
     8
 71
     3
 72
    10
 73
     6
 74
     0
 42
0.000000001
 43
0.00000001
 40
0.0
 40
0.0
 40
0.0
 40
0.0
 40
0.2796942056378951
 40
0.5597380375246975
 40
1.0
 40
1.0
 40
1.0
 40
1.0
 10
188.1907011217949
 20
61.6625641025641
 30
0.0
 10
188.262137920666
 20
61.65453613595765
 30
0.0
 10
188.4051008165757
 20
61.63847016754274
 30
0.0
 10
188.6236534941506
 20
61.49127599388538
 30
0.0
 10
188.7230794743691
 20
61.33606018792891
 30
0.0
 10
188.7838501602565
 20
61.24118990384616
 30
0.0
  0
SPLINE
  5
3E4
330
1F
100
AcDbEntity
  8
0
  6
Continuous
 62
     7
370
    25
100
AcDbSpline
210
0.0
220
0.0
230
1.0
 70
     8
 71
     3
 72
    10
 73
     6
 74
     0
 42
0.000000001
 43
0.00000001
 40
0.0
 40
0.0
 40
0.0
 40
0.0
 40
0.5586685747843335
 40
0.7793955152712618
 40
1.0
 40
1.0
 40
1.0
 40
1.0
 10
187.5961498397436
 20
61.23908653846154
 30
0.0
 10
187.6762973089538
 20
61.36053624688445
 30
0.0
 10
187.7881106109404
 20
61.52997008001593
 30
0.0
 10
188.0217320002301
 20
61.64828270070339
 30
0.0
 10
188.1343885008329
 20
61.65780451594649
 30
0.0
 10
188.1907011217949
 20
61.6625641025641
 30
0.0
  0
LINE
  5
3E5
330
1F
100
AcDbEntity
  8
0
  6
Continuous
 62
     7
370
    25
100
AcDbLine
 10
185.9015384615
 20
59.06
 30
0.0
 11
185.7220512821
 21
59.06
 31
0.0
  0
LINE
  5
3E6
330
1F
100
AcDbEntity
  8
0
  6
Continuous
 62
     7
370
    25
100
AcDbLine
 10
185.9015384615
 20
59.9195753205
 30
0.0
 11
185.9015384615
 21
59.06
 31
0.0
  0
SPLINE
  5
3E7
330
1F
100
AcDbEntity
  8
0
  6
Continuous
 62
     7
370
    25
100
AcDbSpline
210
0.0
220
0.0
230
1.0
 70
     8
 71
     3
 72
     9
 73
     5
 74
     0
 42
0.000000001
 43
0.00000001
 40
0.0
 40
0.0
 40
0.0
 40
0.0
 40
0.5598536501505464
 40
1.0
 40
1.0
 40
1.0
 40
1.0
 10
185.9386979166667
 20
60.79737980769232
 30
0.0
 10
185.9248694011019
 20
60.63383347490693
 30
0.0
 10
185.900169168173
 20
60.34171010884259
 30
0.0
 10
185.9011199697118
 20
60.04859074054096
 30
0.0
 10
185.9015384615385
 20
59.91957532051283
 30
0.0
  0
SPLINE
  5
3E8
330
1F
100
AcDbEntity
  8
0
  6
Continuous
 62
     7
370
    25
100
AcDbSpline
210
0.0
220
0.0
230
1.0
 70
     8
 71
     3
 72
    11
 73
     7
 74
     0
 42
0.000000001
 43
0.00000001
 40
0.0
 40
0.0
 40
0.0
 40
0.0
 40
0.1243154872215685
 40
0.2496920049174232
 40
0.4996699758624276
 40
1.0
 40
1.0
 40
1.0
 40
1.0
 10
186.2759375000001
 20
61.34846153846155
 30
0.0
 10
186.2474096621893
 20
61.3432023898863
 30
0.0
 10
186.1901105019791
 20
61.33263920599619
 30
0.0
 10
186.1027629748763
 20
61.2531095898031
 30
0.0
 10
185.9956321226655
 20
61.08125387147074
 30
0.0
 10
185.9614750050199
 20
60.91094641529541
 30
0.0
 10
185.9386979166667
 20
60.79737980769232
 30
0.0
  0
SPLINE
  5
3E9
330
1F
100
AcDbEntity
  8
0
  6
Continuous
 62
     7
370
    25
100
AcDbSpline
210
0.0
220
0.0
230
1.0
 70
     8
 71
     3
 72
     9
 73
     5
 74
     0
 42
0.000000001
 43
0.00000001
 40
0.0
 40
0.0
 40
0.0
 40
0.0
 40
0.5610727427929593
 40
1.0
 40
1.0
 40
1.0
 40
1.0
 10
186.3825080128206
 20
61.30288862179488
 30
0.0
 10
186.3643606522475
 20
61.31580760093312
 30
0.0
 10
186.3320166098643
 20
61.33883309861449
 30
0.0
 10
186.2930437503376
 20
61.34552450000315
 30
0.0
 10
186.2759375000001
 20
61.34846153846155
 30
0.0
  0
LINE
  5
3EA
330
1F
100
AcDbEntity
  8
0
  6
Continuous
 62
     7
370
    25
100
AcDbLine
 10
186.4848717949
 20
61.5749238782
 30
0.0
 11
186.3825080128
 21
61.3028886218
 31
0.0
  0
SPLINE
  5
3EB
330
1F
100
AcDbEntity
  8
0
  6
Continuous
 62
     7
370
    25
100
AcDbSpline
210
0.0
220
0.0
230
1.0
 70
     8
 71
     3
 72
     9
 73
     5
 74
     0
 42
0.000000001
 43
0.00000001
 40
0.0
 40
0.0
 40
0.0
 40
0.0
 40
0.5580894598618646
 40
1.0
 40
1.0
 40
1.0
 40
1.0
 10
186.3074879807693
 20
61.6625641025641
 30
0.0
 10
186.3448924442166
 20
61.65472748696201
 30
0.0
 10
186.4119147876534
 20
61.64068562420396
 30
0.0
 10
186.4625122451152
 20
61.59507825525268
 30
0.0
 10
186.4848717948718
 20
61.57492387820514
 30
0.0
  0
SPLINE
  5
3EC
330
1F
100
AcDbEntity
  8
0
  6
Continuous
 62
     7
370
    25
100
AcDbSpline
210
0.0
220
0.0
230
1.0
 70
     8
 71
     3
 72
    10
 73
     6
 74
     0
 42
0.000000001
 43
0.00000001
 40
0.0
 40
0.0
 40
0.0
 40
0.0
 40
0.5604679869639355
 40
0.7808281323003021
 40
1.0
 40
1.0
 40
1.0
 40
1.0
 10
185.9015384615385
 20
61.24118990384616
 30
0.0
 10
185.9490872876519
 20
61.34676721398684
 30
0.0
 10
186.0153309660614
 20
61.49385453352671
 30
0.0
 10
186.1716814532166
 20
61.63891910766557
 30
0.0
 10
186.262300801583
 20
61.65469665583239
 30
0.0
 10
186.3074879807693
 20
61.6625641025641
 30
0.0
  0
LINE
  5
3ED
330
1F
100
AcDbEntity
  8
0
  6
Continuous
 62
     7
370
    25
100
AcDbLine
 10
185.9015384615
 20
61.6176923077
 30
0.0
 11
185.9015384615
 21
61.2411899038
 31
0.0
  0
LINE
  5
3EE
330
1F
100
AcDbEntity
  8
0
  6
Continuous
 62
     7
370
    25
100
AcDbLine
 10
185.7220512821
 20
61.6176923077
 30
0.0
 11
185.9015384615
 21
61.6176923077
 31
0.0
  0
LINE
  5
3EF
330
1F
100
AcDbEntity
  8
0
  6
Continuous
 62
     7
370
    25
100
AcDbLine
 10
185.7220512821
 20
59.06
 30
0.0
 11
185.7220512821
 21
61.6176923077
 31
0.0
  0
SPLINE
  5
3F0
330
1F
100
AcDbEntity
  8
0
  6
Continuous
 62
     7
370
    25
100
AcDbSpline
210
0.0
220
0.0
230
1.0
 70
     8
 71
     3
 72
    11
 73
     7
 74
     0
 42
0.000000001
 43
0.00000001
 40
0.0
 40
0.0
 40
0.0
 40
0.0
 40
0.4995734263720146
 40
0.7496408895270538
 40
0.8748507448789904
 40
1.0
 40
1.0
 40
1.0
 40
1.0
 10
183.8374358974359
 20
60.9915905448718
 30
0.0
 10
183.8492447130996
 20
61.13635285744564
 30
0.0
 10
183.8669645729061
 20
61.35357767974244
 30
0.0
 10
184.0087304566442
 20
61.5687046808157
 30
0.0
 10
184.1303372154882
 20
61.6515952310937
 30
0.0
 10
184.2024365985273
 20
61.65890840213286
 30
0.0
 10
184.2384775641026
 20
61.6625641025641
 30
0.0
  0
SPLINE
  5
3F1
330
1F
100
AcDbEntity
  8
0
  6
Continuous
 62
     7
370
    25
100
AcDbSpline
210
0.0
220
0.0
230
1.0
 70
     8
 71
     3
 72
     9
 73
     5
 74
     0
 42
0.000000001
 43
0.00000001
 40
0.0
 40
0.0
 40
0.0
 40
0.0
 40
0.5597122590108353
 40
1.0
 40
1.0
 40
1.0
 40
1.0
 10
183.908249198718
 20
60.59756009615385
 30
0.0
 10
183.8846201916106
 20
60.66932834252729
 30
0.0
 10
183.8424038443232
 20
60.79755180952849
 30
0.0
 10
183.8389545704414
 20
60.93227401108667
 30
0.0
 10
183.8374358974359
 20
60.9915905448718
 30
0.0
  0
SPLINE
  5
3F2
330
1F
100
AcDbEntity
  8
0
  6
Continuous
 62
     7
370
    25
100
AcDbSpline
210
0.0
220
0.0
230
1.0
 70
     8
 71
     3
 72
     9
 73
     5
 74
     0
 42
0.000000001
 43
0.00000001
 40
0.0
 40
0.0
 40
0.0
 40
0.0
 40
0.560267315671155
 40
0.9999999999999999
 40
0.9999999999999999
 40
0.9999999999999999
 40
0.9999999999999999
 10
184.1767788461539
 20
60.2484014423077
 30
0.0
 10
184.1161914139271
 20
60.30579942486897
 30
0.0
 10
184.0080511913366
 20
60.4082469190486
 30
0.0
 10
183.9387313837744
 20
60.53973881276323
 30
0.0
 10
183.908249198718
 20
60.59756009615384
 30
0.0
  0
SPLINE
  5
3F3
330
1F
100
AcDbEntity
  8
0
  6
Continuous
 62
     7
370
    25
100
AcDbSpline
210
0.0
220
0.0
230
1.0
 70
     8
 71
     3
 72
     9
 73
     5
 74
     0
 42
0.000000001
 43
0.00000001
 40
0.0
 40
0.0
 40
0.0
 40
0.0
 40
0.5593487126569076
 40
1.0
 40
1.0
 40
1.0
 40
1.0
 10
184.4130568910257
 20
59.9847796474359
 30
0.0
 10
184.3747152568694
 20
60.03915199936394
 30
0.0
 10
184.3061683320465
 20
60.13635853742812
 30
0.0
 10
184.2163551433662
 20
60.21413093513736
 30
0.0
 10
184.1767788461539
 20
60.2484014423077
 30
0.0
  0
SPLINE
  5
3F4
330
1F
100
AcDbEntity
  8
0
  6
Continuous
 62
     7
370
    25
100
AcDbSpline
210
0.0
220
0.0
230
1.0
 70
     8
 71
     3
 72
     9
 73
     5
 74
     0
 42
0.000000001
 43
0.00000001
 40
0.0
 40
0.0
 40
0.0
 40
0.0
 40
0.5600778268018413
 40
1.0
 40
1.0
 40
1.0
 40
1.0
 10
184.465641025641
 20
59.74078926282052
 30
0.0
 10
184.4633375391116
 20
59.78806866102327
 30
0.0
 10
184.4592247418908
 20
59.8724844260121
 30
0.0
 10
184.4271620014702
 20
59.95047143358376
 30
0.0
 10
184.4130568910257
 20
59.9847796474359
 30
0.0
  0
SPLINE
  5
3F5
330
1F
100
AcDbEntity
  8
0
  6
Continuous
 62
     7
370
    25
100
AcDbSpline
210
0.0
220
0.0
230
1.0
 70
     8
 71
     3
 72
    11
 73
     7
 74
     0
 42
0.000000001
 43
0.00000001
 40
0.0
 40
0.0
 40
0.0
 40
0.0
 40
0.1862601302698975
 40
0.3732986476973197
 40
0.5609166544164506
 40
1.0
 40
1.0
 40
1.0
 40
1.0
 10
184.1858934294872
 20
59.32923076923078
 30
0.0
 10
184.220133994505
 20
59.334347406977
 30
0.0
 10
184.2887582169784
 20
59.34460206506543
 30
0.0
 10
184.3647945779901
 20
59.41880046540114
 30
0.0
 10
184.445347112824
 20
59.54392744073456
 30
0.0
 10
184.4572803134331
 20
59.65968587708922
 30
0.0
 10
184.465641025641
 20
59.74078926282052
 30
0.0
  0
SPLINE
  5
3F6
330
1F
100
AcDbEntity
  8
0
  6
Continuous
 62
     7
370
    25
100
AcDbSpline
210
0.0
220
0.0
230
1.0
 70
     8
 71
     3
 72
    10
 73
     6
 74
     0
 42
0.000000001
 43
0.00000001
 40
0.0
 40
0.0
 40
0.0
 40
0.0
 40
0.5602130058460001
 40
0.7805388860236457
 40
0.9999999999999999
 40
0.9999999999999999
 40
0.9999999999999999
 40
0.9999999999999999
 10
183.8710897435898
 20
59.59846153846154
 30
0.0
 10
183.9133448745292
 20
59.52913365107678
 30
0.0
 10
183.9722185038239
 20
59.4325398351086
 30
0.0
 10
184.0906718159475
 20
59.34321649316531
 30
0.0
 10
184.1541945271706
 20
59.33388656196887
 30
0.0
 10
184.1858934294872
 20
59.32923076923078
 30
0.0
  0
LINE
  5
3F7
330
1F
100
AcDbEntity
  8
0
  6
Continuous
 62
     7
370
    25
100
AcDbLine
 10
183.7476923077
 20
59.3614823718
 30
0.0
 11
183.8710897436
 21
59.5984615385
 31
0.0
  0
SPLINE
  5
3F8
330
1F
100
AcDbEntity
  8
0
  6
Continuous
 62
     7
370
    25
100
AcDbSpline
210
0.0
220
0.0
230
1.0
 70
     8
 71
     3
 72
    10
 73
     6
 74
     0
 42
0.000000001
 43
0.00000001
 40
0.0
 40
0.0
 40
0.0
 40
0.0
 40
0.2793901970033615
 40
0.5598447618830583
 40
1.0
 40
1.0
 40
1.0
 40
1.0
 10
184.1908012820513
 20
59.01512820512821
 30
0.0
 10
184.1357172773046
 20
59.02315628590839
 30
0.0
 10
184.0253394191988
 20
59.03924303133099
 30
0.0
 10
183.8634112692532
 20
59.16352158404774
 30
0.0
 10
183.7915722534836
 20
59.28641681194216
 30
0.0
 10
183.7476923076923
 20
59.36148237179488
 30
0.0
  0
SPLINE
  5
3F9
330
1F
100
AcDbEntity
  8
0
  6
Continuous
 62
     7
370
    25
100
AcDbSpline
210
0.0
220
0.0
230
1.0
 70
     8
 71
     3
 72
    11
 73
     7
 74
     0
 42
0.000000001
 43
0.00000001
 40
0.0
 40
0.0
 40
0.0
 40
0.0
 40
0.4992861974134584
 40
0.7494855930319606
 40
0.8747844742604408
 40
0.9999999999999999
 40
0.9999999999999999
 40
0.9999999999999999
 40
0.9999999999999999
 10
184.6451282051282
 20
59.75411057692308
 30
0.0
 10
184.6300288702047
 20
59.59386470270005
 30
0.0
 10
184.6073630443753
 20
59.35331734790604
 30
0.0
 10
184.4459790707737
 20
59.11803096819235
 30
0.0
 10
184.3106362855014
 20
59.02731141221039
 30
0.0
 10
184.2307374214237
 20
59.01918837320956
 30
0.0
 10
184.1908012820513
 20
59.01512820512821
 30
0.0
  0
SPLINE
  5
3FA
330
1F
100
AcDbEntity
  8
0
  6
Continuous
 62
     7
370
    25
100
AcDbSpline
210
0.0
220
0.0
230
1.0
 70
     8
 71
     3
 72
     9
 73
     5
 74
     0
 42
0.000000001
 43
0.00000001
 40
0.0
 40
0.0
 40
0.0
 40
0.0
 40
0.5596909322181038
 40
1.0
 40
1.0
 40
1.0
 40
1.0
 10
184.5722115384616
 20
60.14954326923078
 30
0.0
 10
184.5961928664538
 20
60.07755893231334
 30
0.0
 10
184.6390403142359
 20
59.94894449035312
 30
0.0
 10
184.6432671090458
 20
59.81367219512965
 30
0.0
 10
184.6451282051282
 20
59.75411057692308
 30
0.0
  0
SPLINE
  5
3FB
330
1F
100
AcDbEntity
  8
0
  6
Continuous
 62
     7
370
    25
100
AcDbSpline
210
0.0
220
0.0
230
1.0
 70
     8
 71
     3
 72
     9
 73
     5
 74
     0
 42
0.000000001
 43
0.00000001
 40
0.0
 40
0.0
 40
0.0
 40
0.0
 40
0.5603102752842192
 40
0.9999999999999999
 40
0.9999999999999999
 40
0.9999999999999999
 40
0.9999999999999999
 10
184.2917628205128
 20
60.50851762820513
 30
0.0
 10
184.3544886743298
 20
60.4493438883906
 30
0.0
 10
184.4664371010925
 20
60.34373500983752
 30
0.0
 10
184.5399074020561
 20
60.20885057100811
 30
0.0
 10
184.5722115384616
 20
60.14954326923077
 30
0.0
  0
SPLINE
  5
3FC
330
1F
100
AcDbEntity
  8
0
  6
Continuous
 62
     7
370
    25
100
AcDbSpline
210
0.0
220
0.0
230
1.0
 70
     8
 71
     3
 72
     9
 73
     5
 74
     0
 42
0.000000001
 43
0.00000001
 40
0.0
 40
0.0
 40
0.0
 40
0.0
 40
0.5593347287454993
 40
1.0
 40
1.0
 40
1.0
 40
1.0
 10
184.0695072115385
 20
60.77213942307692
 30
0.0
 10
184.1048308917976
 20
60.71772412344506
 30
0.0
 10
184.167983917068
 20
60.62043837157709
 30
0.0
 10
184.2539017953667
 20
60.54275152397613
 30
0.0
 10
184.2917628205128
 20
60.50851762820513
 30
0.0
  0
SPLINE
  5
3FD
330
1F
100
AcDbEntity
  8
0
  6
Continuous
 62
     7
370
    25
100
AcDbSpline
210
0.0
220
0.0
230
1.0
 70
     8
 71
     3
 72
     9
 73
     5
 74
     0
 42
0.000000001
 43
0.00000001
 40
0.0
 40
0.0
 40
0.0
 40
0.0
 40
0.559881814842868
 40
1.0
 40
1.0
 40
1.0
 40
1.0
 10
184.0169230769231
 20
61.00421073717948
 30
0.0
 10
184.0198021150078
 20
60.95923093330596
 30
0.0
 10
184.0249443396853
 20
60.87889290002629
 30
0.0
 10
184.0558882388128
 20
60.80476462496551
 30
0.0
 10
184.0695072115385
 20
60.77213942307692
 30
0.0
  0
SPLINE
  5
3FE
330
1F
100
AcDbEntity
  8
0
  6
Continuous
 62
     7
370
    25
100
AcDbSpline
210
0.0
220
0.0
230
1.0
 70
     8
 71
     3
 72
    11
 73
     7
 74
     0
 42
0.000000001
 43
0.00000001
 40
0.0
 40
0.0
 40
0.0
 40
0.0
 40
0.1856841555641188
 40
0.3726511068625243
 40
0.560282487850627
 40
1.0
 40
1.0
 40
1.0
 40
1.0
 10
184.2328685897436
 20
61.34846153846155
 30
0.0
 10
184.2051553361431
 20
61.3434641884683
 30
0.0
 10
184.1495373724152
 20
61.33343496437698
 30
0.0
 10
184.0925450259842
 20
61.2682000472698
 30
0.0
 10
184.0322127658474
 20
61.16400954953273
 30
0.0
 10
184.023223663224
 20
61.07006074976001
 30
0.0
 10
184.0169230769231
 20
61.00421073717948
 30
0.0
  0
SPLINE
  5
3FF
330
1F
100
AcDbEntity
  8
0
  6
Continuous
 62
     7
370
    25
100
AcDbSpline
210
0.0
220
0.0
230
1.0
 70
     8
 71
     3
 72
    10
 73
     6
 74
     0
 42
0.000000001
 43
0.00000001
 40
0.0
 40
0.0
 40
0.0
 40
0.0
 40
0.5607562815450916
 40
0.7811275659936755
 40
1.0
 40
1.0
 40
1.0
 40
1.0
 10
184.5189262820513
 20
61.07923076923078
 30
0.0
 10
184.4799466895032
 20
61.14474033320206
 30
0.0
 10
184.4256485295848
 20
61.23599446255965
 30
0.0
 10
184.3223027998635
 20
61.33089578574667
 30
0.0
 10
184.2626120980577
 20
61.34261962280959
 30
0.0
 10
184.2328685897436
 20
61.34846153846155
 30
0.0
  0
LINE
  5
400
330
1F
100
AcDbEntity
  8
0
  6
Continuous
 62
     7
370
    25
100
AcDbLine
 10
184.6451282051
 20
61.298681891
 30
0.0
 11
184.5189262821
 21
61.0792307692
 31
0.0
  0
SPLINE
  5
401
330
1F
100
AcDbEntity
  8
0
  6
Continuous
 62
     7
370
    25
100
AcDbSpline
210
0.0
220
0.0
230
1.0
 70
     8
 71
     3
 72
    10
 73
     6
 74
     0
 42
0.000000001
 43
0.00000001
 40
0.0
 40
0.0
 40
0.0
 40
0.0
 40
0.2777284116762636
 40
0.5583945168819039
 40
1.0
 40
1.0
 40
1.0
 40
1.0
 10
184.2384775641026
 20
61.6625641025641
 30
0.0
 10
184.2907130610717
 20
61.65069869032247
 30
0.0
 10
184.3957365799767
 20
61.62684235853313
 30
0.0
 10
184.5305623178544
 20
61.48485743748913
 30
0.0
 10
184.6016589030517
 20
61.36932177573352
 30
0.0
 10
184.6451282051282
 20
61.29868189102565
 30
0.0
  0
SPLINE
  5
402
330
1F
100
AcDbEntity
  8
0
  6
Continuous
 62
     7
370
    25
100
AcDbSpline
210
0.0
220
0.0
230
1.0
 70
     8
 71
     3
 72
    12
 73
     8
 74
     0
 42
0.000000001
 43
0.00000001
 40
0.0
 40
0.0
 40
0.0
 40
0.0
 40
0.4991309681523949
 40
0.6246161056778281
 40
0.74971680581036
 40
0.8746485800472451
 40
1.0
 40
1.0
 40
1.0
 40
1.0
 10
180.6066666666667
 20
60.76582932692309
 30
0.0
 10
180.5796583754504
 20
60.38533321289592
 30
0.0
 10
180.5458600043677
 20
59.9091776222121
 30
0.0
 10
180.2841270799268
 20
59.40712694288914
 30
0.0
 10
180.0944000055228
 20
59.19169450677501
 30
0.0
 10
179.8283520771971
 20
59.074155608879
 30
0.0
 10
179.6401354796408
 20
59.06472380767499
 30
0.0
 10
179.5458693910257
 20
59.06000000000001
 30
0.0
  0
SPLINE
  5
403
330
1F
100
AcDbEntity
  8
0
  6
Continuous
 62
     7
370
    25
100
AcDbSpline
210
0.0
220
0.0
230
1.0
 70
     8
 71
     3
 72
    10
 73
     6
 74
     0
 42
0.000000001
 43
0.00000001
 40
0.0
 40
0.0
 40
0.0
 40
0.0
 40
0.2783662009923313
 40
0.5589551287586995
 40
1.0
 40
1.0
 40
1.0
 40
1.0
 10
179.9805649038462
 20
62.43379807692308
 30
0.0
 10
180.1090059512824
 20
62.3166256371889
 30
0.0
 10
180.3669136353031
 20
62.08134514729782
 30
0.0
 10
180.5659176659696
 20
61.47881935765628
 30
0.0
 10
180.5912091389546
 20
61.0362914970373
 30
0.0
 10
180.6066666666667
 20
60.76582932692308
 30
0.0
  0
SPLINE
  5
404
330
1F
100
AcDbEntity
  8
0
  6
Continuous
 62
     7
370
    25
100
AcDbSpline
210
0.0
220
0.0
230
1.0
 70
     8
 71
     3
 72
     9
 73
     5
 74
     0
 42
0.000000001
 43
0.00000001
 40
0.0
 40
0.0
 40
0.0
 40
0.0
 40
0.5609894723462309
 40
0.9999999999999999
 40
0.9999999999999999
 40
0.9999999999999999
 40
0.9999999999999999
 10
179.3215104166667
 20
62.56
 30
0.0
 10
179.4494797334493
 20
62.55915381030886
 30
0.0
 10
179.677593313277
 20
62.55764542248186
 30
0.0
 10
179.8881349213799
 20
62.47158118377146
 30
0.0
 10
179.9805649038462
 20
62.43379807692308
 30
0.0
  0
LINE
  5
405
330
1F
100
AcDbEntity
  8
0
  6
Continuous
 62
     7
370
    25
100
AcDbLine
 10
178.9015384615
 20
62.56
 30
0.0
 11
179.3215104167
 21
62.56
 31
0.0
  0
LINE
  5
406
330
1F
100
AcDbEntity
  8
0
  6
Continuous
 62
     7
370
    25
100
AcDbLine
 10
178.9015384615
 20
59.06
 30
0.0
 11
178.9015384615
 21
62.56
 31
0.0
  0
LINE
  5
407
330
1F
100
AcDbEntity
  8
0
  6
Continuous
 62
     7
370
    25
100
AcDbLine
 10
179.545869391
 20
59.06
 30
0.0
 11
178.9015384615
 21
59.06
 31
0.0
  0
LINE
  5
408
330
1F
100
AcDbEntity
  8
0
  6
Continuous
 62
     7
370
    25
100
AcDbLine
 10
175.3286217949
 20
59.06
 30
0.0
 11
174.7733333333
 21
59.06
 31
0.0
  0
SPLINE
  5
409
330
1F
100
AcDbEntity
  8
0
  6
Continuous
 62
     7
370
    25
100
AcDbSpline
210
0.0
220
0.0
230
1.0
 70
     8
 71
     3
 72
    11
 73
     7
 74
     0
 42
0.000000001
 43
0.00000001
 40
0.0
 40
0.0
 40
0.0
 40
0.0
 40
0.4990946872954803
 40
0.7489909372803711
 40
0.8744495343206184
 40
1.0
 40
1.0
 40
1.0
 40
1.0
 10
175.9848717948718
 20
60.05348958333335
 30
0.0
 10
175.9635092170715
 20
59.83159834509399
 30
0.0
 10
175.9314504162533
 20
59.49860636835351
 30
0.0
 10
175.69247433143
 20
59.17884566417705
 30
0.0
 10
175.4942736947991
 20
59.07313206153404
 30
0.0
 10
175.3838525661259
 20
59.06437842178085
 30
0.0
 10
175.3286217948718
 20
59.06
 30
0.0
  0
SPLINE
  5
40A
330
1F
100
AcDbEntity
  8
0
  6
Continuous
 62
     7
370
    25
100
AcDbSpline
210
0.0
220
0.0
230
1.0
 70
     8
 71
     3
 72
    10
 73
     6
 74
     0
 42
0.000000001
 43
0.00000001
 40
0.0
 40
0.0
 40
0.0
 40
0.0
 40
0.2796080239342774
 40
0.5597236367910253
 40
1.0
 40
1.0
 40
1.0
 40
1.0
 10
175.5740144230769
 20
60.94812099358975
 30
0.0
 10
175.65275012206
 20
60.89086489066128
 30
0.0
 10
175.8103644535803
 20
60.77624874442674
 30
0.0
 10
175.9558370763347
 20
60.45158487506641
 30
0.0
 10
175.9738580540367
 20
60.2044990847766
 30
0.0
 10
175.9848717948718
 20
60.05348958333335
 30
0.0
  0
SPLINE
  5
40B
330
1F
100
AcDbEntity
  8
0
  6
Continuous
 62
     7
370
    25
100
AcDbSpline
210
0.0
220
0.0
230
1.0
 70
     8
 71
     3
 72
     9
 73
     5
 74
     0
 42
0.000000001
 43
0.00000001
 40
0.0
 40
0.0
 40
0.0
 40
0.0
 40
0.5610147951224855
 40
1.0
 40
1.0
 40
1.0
 40
1.0
 10
175.8053846153846
 20
61.69271233974359
 30
0.0
 10
175.7990499902619
 20
61.54106942403466
 30
0.0
 10
175.7877586211612
 20
61.2707683249775
 30
0.0
 10
175.6392204726384
 20
61.04654966706905
 30
0.0
 10
175.5740144230769
 20
60.94812099358975
 30
0.0
  0
SPLINE
  5
40C
330
1F
100
AcDbEntity
  8
0
  6
Continuous
 62
     7
370
    25
100
AcDbSpline
210
0.0
220
0.0
230
1.0
 70
     8
 71
     3
 72
    11
 73
     7
 74
     0
 42
0.000000001
 43
0.00000001
 40
0.0
 40
0.0
 40
0.0
 40
0.0
 40
0.249970876008807
 40
0.3753685739471359
 40
0.5011026084581857
 40
0.9999999999999999
 40
0.9999999999999999
 40
0.9999999999999999
 40
0.9999999999999999
 10
175.1659615384616
 20
62.56
 30
0.0
 10
175.2702060524698
 20
62.55336426230361
 30
0.0
 10
175.4267447468564
 20
62.54339971188897
 30
0.0
 10
175.5919100587737
 20
62.41471041774871
 30
0.0
 10
175.7636640768779
 20
62.15939240336577
 30
0.0
 10
175.7868588174623
 20
61.89993930426785
 30
0.0
 10
175.8053846153846
 20
61.69271233974359
 30
0.0
  0
LINE
  5
40D
330
1F
100
AcDbEntity
  8
0
  6
Continuous
 62
     7
370
    25
100
AcDbLine
 10
174.7733333333
 20
62.56
 30
0.0
 11
175.1659615385
 21
62.56
 31
0.0
  0
LINE
  5
40E
330
1F
100
AcDbEntity
  8
0
  6
Continuous
 62
     7
370
    25
100
AcDbLine
 10
174.7733333333
 20
59.06
 30
0.0
 11
174.7733333333
 21
62.56
 31
0.0
  0
LINE
  5
40F
330
1F
100
AcDbEntity
  8
0
  6
Continuous
 62
     7
370
    25
100
AcDbLine
 10
171.048974359
 20
59.06
 30
0.0
 11
171.0041025641
 21
59.06
 31
0.0
  0
LINE
  5
410
330
1F
100
AcDbEntity
  8
0
  6
Continuous
 62
     7
370
    25
100
AcDbLine
 10
171.9464102564
 20
62.56
 30
0.0
 11
171.048974359
 21
59.06
 31
0.0
  0
LINE
  5
411
330
1F
100
AcDbEntity
  8
0
  6
Continuous
 62
     7
370
    25
100
AcDbLine
 10
171.7507972756
 20
62.56
 30
0.0
 11
171.9464102564
 21
62.56
 31
0.0
  0
LINE
  5
412
330
1F
100
AcDbEntity
  8
0
  6
Continuous
 62
     7
370
    25
100
AcDbLine
 10
171.0265384615
 20
59.7344791667
 30
0.0
 11
171.7507972756
 21
62.56
 31
0.0
  0
LINE
  5
413
330
1F
100
AcDbEntity
  8
0
  6
Continuous
 62
     7
370
    25
100
AcDbLine
 10
170.3022796474
 20
62.56
 30
0.0
 11
171.0265384615
 21
59.7344791667
 31
0.0
  0
LINE
  5
414
330
1F
100
AcDbEntity
  8
0
  6
Continuous
 62
     7
370
    25
100
AcDbLine
 10
170.1066666667
 20
62.56
 30
0.0
 11
170.3022796474
 21
62.56
 31
0.0
  0
LINE
  5
415
330
1F
100
AcDbEntity
  8
0
  6
Continuous
 62
     7
370
    25
100
AcDbLine
 10
171.0041025641
 20
59.06
 30
0.0
 11
170.1066666667
 21
62.56
 31
0.0
  0
LINE
  5
416
330
1F
100
AcDbEntity
  8
0
  6
Continuous
 62
     7
370
    25
100
AcDbLine
 10
166.1130769231
 20
61.8126041667
 30
0.0
 11
166.1130769231
 21
59.06
 31
0.0
  0
LINE
  5
417
330
1F
100
AcDbEntity
  8
0
  6
Continuous
 62
     7
370
    25
100
AcDbLine
 10
167.4634375
 20
59.06
 30
0.0
 11
166.1130769231
 21
61.8126041667
 31
0.0
  0
LINE
  5
418
330
1F
100
AcDbEntity
  8
0
  6
Continuous
 62
     7
370
    25
100
AcDbLine
 10
167.5041025641
 20
59.06
 30
0.0
 11
167.4634375
 21
59.06
 31
0.0
  0
LINE
  5
419
330
1F
100
AcDbEntity
  8
0
  6
Continuous
 62
     7
370
    25
100
AcDbLine
 10
167.5041025641
 20
62.56
 30
0.0
 11
167.5041025641
 21
59.06
 31
0.0
  0
LINE
  5
41A
330
1F
100
AcDbEntity
  8
0
  6
Continuous
 62
     7
370
    25
100
AcDbLine
 10
167.3246153846
 20
62.56
 30
0.0
 11
167.5041025641
 21
62.56
 31
0.0
  0
LINE
  5
41B
330
1F
100
AcDbEntity
  8
0
  6
Continuous
 62
     7
370
    25
100
AcDbLine
 10
167.3246153846
 20
59.8010857372
 30
0.0
 11
167.3246153846
 21
62.56
 31
0.0
  0
LINE
  5
41C
330
1F
100
AcDbEntity
  8
0
  6
Continuous
 62
     7
370
    25
100
AcDbLine
 10
165.9714503205
 20
62.56
 30
0.0
 11
167.3246153846
 21
59.8010857372
 31
0.0
  0
LINE
  5
41D
330
1F
100
AcDbEntity
  8
0
  6
Continuous
 62
     7
370
    25
100
AcDbLine
 10
165.9335897436
 20
62.56
 30
0.0
 11
165.9714503205
 21
62.56
 31
0.0
  0
LINE
  5
41E
330
1F
100
AcDbEntity
  8
0
  6
Continuous
 62
     7
370
    25
100
AcDbLine
 10
165.9335897436
 20
59.06
 30
0.0
 11
165.9335897436
 21
62.56
 31
0.0
  0
LINE
  5
41F
330
1F
100
AcDbEntity
  8
0
  6
Continuous
 62
     7
370
    25
100
AcDbLine
 10
166.1130769231
 20
59.06
 30
0.0
 11
165.9335897436
 21
59.06
 31
0.0
  0
SPLINE
  5
420
330
1F
100
AcDbEntity
  8
0
  6
Continuous
 62
     7
370
    25
100
AcDbSpline
210
0.0
220
0.0
230
1.0
 70
     8
 71
     3
 72
    11
 73
     7
 74
     0
 42
0.000000001
 43
0.00000001
 40
0.0
 40
0.0
 40
0.0
 40
0.0
 40
0.1233763181090196
 40
0.2483740556635523
 40
0.497994333179397
 40
1.0
 40
1.0
 40
1.0
 40
1.0
 10
162.8150000000001
 20
59.32923076923078
 30
0.0
 10
162.8570861067083
 20
59.33992631595915
 30
0.0
 10
162.9418114184248
 20
59.36145797097354
 30
0.0
 10
163.045233238932
 20
59.50831151248099
 30
0.0
 10
163.1144446334518
 20
59.80184377098215
 30
0.0
 10
163.1097812845239
 20
60.05949265011712
 30
0.0
 10
163.1066666666667
 20
60.23157451923078
 30
0.0
  0
SPLINE
  5
421
330
1F
100
AcDbEntity
  8
0
  6
Continuous
 62
     7
370
    25
100
AcDbSpline
210
0.0
220
0.0
230
1.0
 70
     8
 71
     3
 72
     9
 73
     5
 74
     0
 42
0.000000001
 43
0.00000001
 40
0.0
 40
0.0
 40
0.0
 40
0.0
 40
0.5603789936930933
 40
0.9999999999999999
 40
0.9999999999999999
 40
0.9999999999999999
 40
0.9999999999999999
 10
162.6775801282052
 20
59.37971153846154
 30
0.0
 10
162.7011818192777
 20
59.36429760813389
 30
0.0
 10
162.7432991922308
 20
59.33679134808287
 30
0.0
 10
162.7931045281179
 20
59.33153956388483
 30
0.0
 10
162.8150000000001
 20
59.32923076923078
 30
0.0
  0
SPLINE
  5
422
330
1F
100
AcDbEntity
  8
0
  6
Continuous
 62
     7
370
    25
100
AcDbSpline
210
0.0
220
0.0
230
1.0
 70
     8
 71
     3
 72
     9
 73
     5
 74
     0
 42
0.000000001
 43
0.00000001
 40
0.0
 40
0.0
 40
0.0
 40
0.0
 40
0.5601340991606547
 40
1.0
 40
1.0
 40
1.0
 40
1.0
 10
162.4083493589744
 20
59.64333333333334
 30
0.0
 10
162.4545647297895
 20
59.58991506811241
 30
0.0
 10
162.5370724201521
 20
59.49454814561837
 30
0.0
 10
162.6346563048535
 20
59.41479307461496
 30
0.0
 10
162.6775801282052
 20
59.37971153846154
 30
0.0
  0
LINE
  5
423
330
1F
100
AcDbEntity
  8
0
  6
Continuous
 62
     7
370
    25
100
AcDbLine
 10
162.298974359
 20
59.3741025641
 30
0.0
 11
162.408349359
 21
59.6433333333
 31
0.0
  0
SPLINE
  5
424
330
1F
100
AcDbEntity
  8
0
  6
Continuous
 62
     7
370
    25
100
AcDbSpline
210
0.0
220
0.0
230
1.0
 70
     8
 71
     3
 72
    10
 73
     6
 74
     0
 42
0.000000001
 43
0.00000001
 40
0.0
 40
0.0
 40
0.0
 40
0.0
 40
0.278380769123111
 40
0.5586591976644288
 40
0.9999999999999999
 40
0.9999999999999999
 40
0.9999999999999999
 40
0.9999999999999999
 10
162.8009775641026
 20
58.97025641025641
 30
0.0
 10
162.7386902225504
 20
58.98143878077625
 30
0.0
 10
162.613690940575
 20
59.00387974953382
 30
0.0
 10
162.4436550467451
 20
59.16011119806644
 30
0.0
 10
162.3538803651996
 20
59.29289330627589
 30
0.0
 10
162.2989743589744
 20
59.37410256410257
 30
0.0
  0
SPLINE
  5
425
330
1F
100
AcDbEntity
  8
0
  6
Continuous
 62
     7
370
    25
100
AcDbSpline
210
0.0
220
0.0
230
1.0
 70
     8
 71
     3
 72
    11
 73
     7
 74
     0
 42
0.000000001
 43
0.00000001
 40
0.0
 40
0.0
 40
0.0
 40
0.0
 40
0.5016739800393254
 40
0.7508217685283782
 40
0.875633037749071
 40
1.0
 40
1.0
 40
1.0
 40
1.0
 10
163.2861538461539
 20
60.19651842948718
 30
0.0
 10
163.2910373684574
 20
59.95268733900001
 30
0.0
 10
163.298346208458
 20
59.58776171425978
 30
0.0
 10
163.1601024419732
 20
59.17877425967115
 30
0.0
 10
162.9841977784316
 20
58.99645642962914
 30
0.0
 10
162.8619783261576
 20
58.97897936232502
 30
0.0
 10
162.8009775641026
 20
58.97025641025641
 30
0.0
  0
LINE
  5
426
330
1F
100
AcDbEntity
  8
0
  6
Continuous
 62
     7
370
    25
100
AcDbLine
 10
163.2861538462
 20
62.56
 30
0.0
 11
163.2861538462
 21
60.1965184295
 31
0.0
  0
LINE
  5
427
330
1F
100
AcDbEntity
  8
0
  6
Continuous
 62
     7
370
    25
100
AcDbLine
 10
163.1066666667
 20
62.56
 30
0.0
 11
163.2861538462
 21
62.56
 31
0.0
  0
LINE
  5
428
330
1F
100
AcDbEntity
  8
0
  6
Continuous
 62
     7
370
    25
100
AcDbLine
 10
163.1066666667
 20
60.2315745192
 30
0.0
 11
163.1066666667
 21
62.56
 31
0.0
  0
LINE
  5
429
330
1F
100
AcDbEntity
  8
0
  6
Continuous
 62
     7
370
    25
100
AcDbLine
 10
163.6451282051
 20
59.06
 30
0.0
 11
164.5425641026
 21
62.56
 31
0.0
  0
LINE
  5
42A
330
1F
100
AcDbEntity
  8
0
  6
Continuous
 62
     7
370
    25
100
AcDbLine
 10
163.8407411859
 20
59.06
 30
0.0
 11
163.6451282051
 21
59.06
 31
0.0
  0
LINE
  5
42B
330
1F
100
AcDbEntity
  8
0
  6
Continuous
 62
     7
370
    25
100
AcDbLine
 10
164.1282011218
 20
60.1817948718
 30
0.0
 11
163.8407411859
 21
59.06
 31
0.0
  0
LINE
  5
42C
330
1F
100
AcDbEntity
  8
0
  6
Continuous
 62
     7
370
    25
100
AcDbLine
 10
165.0017988782
 20
60.1817948718
 30
0.0
 11
164.1282011218
 21
60.1817948718
 31
0.0
  0
LINE
  5
42D
330
1F
100
AcDbEntity
  8
0
  6
Continuous
 62
     7
370
    25
100
AcDbLine
 10
165.2892588141
 20
59.06
 30
0.0
 11
165.0017988782
 21
60.1817948718
 31
0.0
  0
LINE
  5
42E
330
1F
100
AcDbEntity
  8
0
  6
Continuous
 62
     7
370
    25
100
AcDbLine
 10
165.4848717949
 20
59.06
 30
0.0
 11
165.2892588141
 21
59.06
 31
0.0
  0
LINE
  5
42F
330
1F
100
AcDbEntity
  8
0
  6
Continuous
 62
     7
370
    25
100
AcDbLine
 10
164.5874358974
 20
62.56
 30
0.0
 11
165.4848717949
 21
59.06
 31
0.0
  0
LINE
  5
430
330
1F
100
AcDbEntity
  8
0
  6
Continuous
 62
     7
370
    25
100
AcDbLine
 10
164.5425641026
 20
62.56
 30
0.0
 11
164.5874358974
 21
62.56
 31
0.0
  0
SPLINE
  5
431
330
1F
100
AcDbEntity
  8
0
  6
Continuous
 62
     7
370
    25
100
AcDbSpline
210
0.0
220
0.0
230
1.0
 70
     8
 71
     3
 72
    11
 73
     7
 74
     0
 42
0.000000001
 43
0.00000001
 40
0.0
 40
0.0
 40
0.0
 40
0.0
 40
0.4989332970631628
 40
0.7494451748307326
 40
0.8748430229421714
 40
1.0
 40
1.0
 40
1.0
 40
1.0
 10
169.8374358974359
 20
59.91747195512821
 30
0.0
 10
169.8151159269408
 20
59.71306724313924
 30
0.0
 10
169.7815892124713
 20
59.40603196204155
 30
0.0
 10
169.5753591020666
 20
59.10598902584714
 30
0.0
 10
169.4038173426287
 20
58.98733583332741
 30
0.0
 10
169.3016376741302
 20
58.97594590137377
 30
0.0
 10
169.2505969551282
 20
58.97025641025641
 30
0.0
  0
SPLINE
  5
432
330
1F
100
AcDbEntity
  8
0
  6
Continuous
 62
     7
370
    25
100
AcDbSpline
210
0.0
220
0.0
230
1.0
 70
     8
 71
     3
 72
     9
 73
     5
 74
     0
 42
0.000000001
 43
0.00000001
 40
0.0
 40
0.0
 40
0.0
 40
0.0
 40
0.5605225427369381
 40
1.0
 40
1.0
 40
1.0
 40
1.0
 10
169.3522596153846
 20
61.04697916666667
 30
0.0
 10
169.5008851338165
 20
60.85928753768638
 30
0.0
 10
169.7660404257093
 20
60.52443636816194
 30
0.0
 10
169.8156386124446
 20
60.10278029430597
 30
0.0
 10
169.8374358974359
 20
59.91747195512821
 30
0.0
  0
SPLINE
  5
433
330
1F
100
AcDbEntity
  8
0
  6
Continuous
 62
     7
370
    25
100
AcDbSpline
210
0.0
220
0.0
230
1.0
 70
     8
 71
     3
 72
     9
 73
     5
 74
     0
 42
0.000000001
 43
0.00000001
 40
0.0
 40
0.0
 40
0.0
 40
0.0
 40
0.5599316618565399
 40
0.9999999999999999
 40
0.9999999999999999
 40
0.9999999999999999
 40
0.9999999999999999
 10
169.0753165064103
 20
61.39543669871795
 30
0.0
 10
169.1255718864975
 20
61.32925493861485
 30
0.0
 10
169.2153245893909
 20
61.21105880038674
 30
0.0
 10
169.3104138447871
 20
61.0971200175012
 30
0.0
 10
169.3522596153846
 20
61.04697916666667
 30
0.0
  0
SPLINE
  5
434
330
1F
100
AcDbEntity
  8
0
  6
Continuous
 62
     7
370
    25
100
AcDbSpline
210
0.0
220
0.0
230
1.0
 70
     8
 71
     3
 72
     9
 73
     5
 74
     0
 42
0.000000001
 43
0.00000001
 40
0.0
 40
0.0
 40
0.0
 40
0.0
 40
0.5594618219459236
 40
1.0
 40
1.0
 40
1.0
 40
1.0
 10
168.94
 20
61.84766025641026
 30
0.0
 10
168.9473871663269
 20
61.75764241695109
 30
0.0
 10
168.9605912242931
 20
61.5967416442298
 30
0.0
 10
169.0402317946473
 20
61.45699876994945
 30
0.0
 10
169.0753165064103
 20
61.39543669871794
 30
0.0
  0
SPLINE
  5
435
330
1F
100
AcDbEntity
  8
0
  6
Continuous
 62
     7
370
    25
100
AcDbSpline
210
0.0
220
0.0
230
1.0
 70
     8
 71
     3
 72
    11
 73
     7
 74
     0
 42
0.000000001
 43
0.00000001
 40
0.0
 40
0.0
 40
0.0
 40
0.0
 40
0.1255743189565532
 40
0.2515068450936772
 40
0.5014577229488304
 40
1.0
 40
1.0
 40
1.0
 40
1.0
 10
169.2337700320513
 20
62.29076923076924
 30
0.0
 10
169.2090969387908
 20
62.2888895195309
 30
0.0
 10
169.1596803710068
 20
62.28512473508161
 30
0.0
 10
169.0725946061426
 20
62.23552920058291
 30
0.0
 10
168.9644665494806
 20
62.09531880410506
 30
0.0
 10
168.9497812852603
 20
61.94666967758214
 30
0.0
 10
168.94
 20
61.84766025641026
 30
0.0
  0
SPLINE
  5
436
330
1F
100
AcDbEntity
  8
0
  6
Continuous
 62
     7
370
    25
100
AcDbSpline
210
0.0
220
0.0
230
1.0
 70
     8
 71
     3
 72
    10
 73
     6
 74
     0
 42
0.000000001
 43
0.00000001
 40
0.0
 40
0.0
 40
0.0
 40
0.0
 40
0.5618652137534458
 40
0.7817631476607346
 40
1.0
 40
1.0
 40
1.0
 40
1.0
 10
169.6242948717949
 20
61.84205128205128
 30
0.0
 10
169.5775940785543
 20
61.94883981924679
 30
0.0
 10
169.512615933924
 20
62.09742232787791
 30
0.0
 10
169.3716245063726
 20
62.26315173319864
 30
0.0
 10
169.279605233922
 20
62.28158669547219
 30
0.0
 10
169.2337700320513
 20
62.29076923076924
 30
0.0
  0
LINE
  5
437
330
1F
100
AcDbEntity
  8
0
  6
Continuous
 62
     7
370
    25
100
AcDbLine
 10
169.7925641026
 20
62.0572956731
 30
0.0
 11
169.6242948718
 21
61.8420512821
 31
0.0
  0
SPLINE
  5
438
330
1F
100
AcDbEntity
  8
0
  6
Continuous
 62
     7
370
    25
100
AcDbSpline
210
0.0
220
0.0
230
1.0
 70
     8
 71
     3
 72
    10
 73
     6
 74
     0
 42
0.000000001
 43
0.00000001
 40
0.0
 40
0.0
 40
0.0
 40
0.0
 40
0.2771143690014554
 40
0.5575217321915844
 40
1.0
 40
1.0
 40
1.0
 40
1.0
 10
169.2562059294872
 20
62.64974358974359
 30
0.0
 10
169.3341322589342
 20
62.63096040610881
 30
0.0
 10
169.4909109288141
 20
62.59317083527613
 30
0.0
 10
169.6621273493225
 20
62.35326282983009
 30
0.0
 10
169.74303843192
 20
62.1696717600506
 30
0.0
 10
169.7925641025641
 20
62.05729567307693
 30
0.0
  0
SPLINE
  5
439
330
1F
100
AcDbEntity
  8
0
  6
Continuous
 62
     7
370
    25
100
AcDbSpline
210
0.0
220
0.0
230
1.0
 70
     8
 71
     3
 72
    11
 73
     7
 74
     0
 42
0.000000001
 43
0.00000001
 40
0.0
 40
0.0
 40
0.0
 40
0.0
 40
0.4993523446987422
 40
0.7493373823641009
 40
0.8747430891468093
 40
1.0
 40
1.0
 40
1.0
 40
1.0
 10
168.7605128205128
 20
61.83293669871795
 30
0.0
 10
168.7751683714802
 20
62.0099816641297
 30
0.0
 10
168.7971607628559
 20
62.27565862019249
 30
0.0
 10
168.9771557239263
 20
62.53259940627273
 30
0.0
 10
169.124398530272
 20
62.6345117427495
 30
0.0
 10
169.2122875203541
 20
62.64466831709485
 30
0.0
 10
169.2562059294872
 20
62.64974358974359
 30
0.0
  0
SPLINE
  5
43A
330
1F
100
AcDbEntity
  8
0
  6
Continuous
 62
     7
370
    25
100
AcDbSpline
210
0.0
220
0.0
230
1.0
 70
     8
 71
     3
 72
     9
 73
     5
 74
     0
 42
0.000000001
 43
0.00000001
 40
0.0
 40
0.0
 40
0.0
 40
0.0
 40
0.559749521892624
 40
0.9999999999999999
 40
0.9999999999999999
 40
0.9999999999999999
 40
0.9999999999999999
 10
168.8754967948718
 20
61.30008413461539
 30
0.0
 10
168.8381005758293
 20
61.39628605981967
 30
0.0
 10
168.7712917308371
 20
61.56815208460699
 30
0.0
 10
168.7638076782448
 20
61.7519983100628
 30
0.0
 10
168.7605128205128
 20
61.83293669871795
 30
0.0
  0
SPLINE
  5
43B
330
1F
100
AcDbEntity
  8
0
  6
Continuous
 62
     7
370
    25
100
AcDbSpline
210
0.0
220
0.0
230
1.0
 70
     8
 71
     3
 72
     9
 73
     5
 74
     0
 42
0.000000001
 43
0.00000001
 40
0.0
 40
0.0
 40
0.0
 40
0.0
 40
0.5602913181833113
 40
1.0
 40
1.0
 40
1.0
 40
1.0
 10
169.2127363782052
 20
60.82402243589743
 30
0.0
 10
169.1430855739801
 20
60.90827320895057
 30
0.0
 10
169.0187738062181
 20
61.05864279405554
 30
0.0
 10
168.9192557487417
 20
61.22634431840503
 30
0.0
 10
168.8754967948718
 20
61.30008413461539
 30
0.0
  0
SPLINE
  5
43C
330
1F
100
AcDbEntity
  8
0
  6
Continuous
 62
     7
370
    25
100
AcDbSpline
210
0.0
220
0.0
230
1.0
 70
     8
 71
     3
 72
     9
 73
     5
 74
     0
 42
0.000000001
 43
0.00000001
 40
0.0
 40
0.0
 40
0.0
 40
0.0
 40
0.559662603313303
 40
1.0
 40
1.0
 40
1.0
 40
1.0
 10
169.5843309294872
 20
60.26592948717948
 30
0.0
 10
169.5243509552834
 20
60.37636586690101
 30
0.0
 10
169.4171792881957
 20
60.57369257600704
 30
0.0
 10
169.2752383023816
 20
60.74749203470765
 30
0.0
 10
169.2127363782052
 20
60.82402243589743
 30
0.0
  0
SPLINE
  5
43D
330
1F
100
AcDbEntity
  8
0
  6
Continuous
 62
     7
370
    25
100
AcDbSpline
210
0.0
220
0.0
230
1.0
 70
     8
 71
     3
 72
     9
 73
     5
 74
     0
 42
0.000000001
 43
0.00000001
 40
0.0
 40
0.0
 40
0.0
 40
0.0
 40
0.5597943230199004
 40
1.0
 40
1.0
 40
1.0
 40
1.0
 10
169.6579487179488
 20
59.92237980769232
 30
0.0
 10
169.6538792847982
 20
59.98868445867804
 30
0.0
 10
169.6466097699366
 20
60.10712912354713
 30
0.0
 10
169.6033667516338
 20
60.21739140494942
 30
0.0
 10
169.5843309294872
 20
60.26592948717948
 30
0.0
  0
SPLINE
  5
43E
330
1F
100
AcDbEntity
  8
0
  6
Continuous
 62
     7
370
    25
100
AcDbSpline
210
0.0
220
0.0
230
1.0
 70
     8
 71
     3
 72
    11
 73
     7
 74
     0
 42
0.000000001
 43
0.00000001
 40
0.0
 40
0.0
 40
0.0
 40
0.0
 40
0.1254427097772219
 40
0.251108049880821
 40
0.5012246243326215
 40
1.0
 40
1.0
 40
1.0
 40
1.0
 10
169.2541025641026
 20
59.32923076923078
 30
0.0
 10
169.2871593452237
 20
59.33251686618483
 30
0.0
 10
169.3533315752193
 20
59.33909489211653
 30
0.0
 10
169.4689408893898
 20
59.40688701978022
 30
0.0
 10
169.623007763899
 20
59.58753711939794
 30
0.0
 10
169.6439805013239
 20
59.78852097834594
 30
0.0
 10
169.6579487179487
 20
59.92237980769231
 30
0.0
  0
SPLINE
  5
43F
330
1F
100
AcDbEntity
  8
0
  6
Continuous
 62
     7
370
    25
100
AcDbSpline
210
0.0
220
0.0
230
1.0
 70
     8
 71
     3
 72
    10
 73
     6
 74
     0
 42
0.000000001
 43
0.00000001
 40
0.0
 40
0.0
 40
0.0
 40
0.0
 40
0.561795544370285
 40
0.7823693959978608
 40
1.0
 40
1.0
 40
1.0
 40
1.0
 10
168.8011778846154
 20
59.9125641025641
 30
0.0
 10
168.8517403499351
 20
59.77704548523649
 30
0.0
 10
168.9221548020409
 20
59.58831914191188
 30
0.0
 10
169.0853585330899
 20
59.37308490910909
 30
0.0
 10
169.1981069828178
 20
59.34378321318682
 30
0.0
 10
169.2541025641026
 20
59.32923076923077
 30
0.0
  0
LINE
  5
440
330
1F
100
AcDbEntity
  8
0
  6
Continuous
 62
     7
370
    25
100
AcDbLine
 10
168.6258974359
 20
59.7351802885
 30
0.0
 11
168.8011778846
 21
59.9125641026
 31
0.0
  0
SPLINE
  5
441
330
1F
100
AcDbEntity
  8
0
  6
Continuous
 62
     7
370
    25
100
AcDbSpline
210
0.0
220
0.0
230
1.0
 70
     8
 71
     3
 72
    11
 73
     7
 74
     0
 42
0.000000001
 43
0.00000001
 40
0.0
 40
0.0
 40
0.0
 40
0.0
 40
0.1250865710675586
 40
0.2503502093533672
 40
0.5006987011586739
 40
1.0
 40
1.0
 40
1.0
 40
1.0
 10
173.2960697115385
 20
58.97025641025641
 30
0.0
 10
173.198867786754
 20
58.98157590736449
 30
0.0
 10
173.0043263422836
 20
59.00423092497827
 30
0.0
 10
172.6831915707094
 20
59.23875990396179
 30
0.0
 10
172.3062750800656
 20
59.81951602009756
 30
0.0
 10
172.251874390962
 20
60.40476952327839
 30
0.0
 10
172.215641025641
 20
60.79457532051281
 30
0.0
  0
SPLINE
  5
442
330
1F
100
AcDbEntity
  8
0
  6
Continuous
 62
     7
370
    25
100
AcDbSpline
210
0.0
220
0.0
230
1.0
 70
     8
 71
     3
 72
    11
 73
     7
 74
     0
 42
0.000000001
 43
0.00000001
 40
0.0
 40
0.0
 40
0.0
 40
0.0
 40
0.4993949226471852
 40
0.7497375901176881
 40
0.8749888400895294
 40
1.0
 40
1.0
 40
1.0
 40
1.0
 10
174.3694871794872
 20
60.81140224358975
 30
0.0
 10
174.3340805387045
 20
60.4199120993701
 30
0.0
 10
174.2809248330078
 20
59.83217108725447
 30
0.0
 10
173.9080989883527
 20
59.24630583390274
 30
0.0
 10
173.588920991998
 20
59.00598893158691
 30
0.0
 10
173.3936243522016
 20
58.98215963046059
 30
0.0
 10
173.2960697115385
 20
58.97025641025641
 30
0.0
  0
SPLINE
  5
443
330
1F
100
AcDbEntity
  8
0
  6
Continuous
 62
     7
370
    25
100
AcDbSpline
210
0.0
220
0.0
230
1.0
 70
     8
 71
     3
 72
    11
 73
     7
 74
     0
 42
0.000000001
 43
0.00000001
 40
0.0
 40
0.0
 40
0.0
 40
0.0
 40
0.1251371209881689
 40
0.2503888709800607
 40
0.5006159832458824
 40
1.0
 40
1.0
 40
1.0
 40
1.0
 10
173.2792427884616
 20
62.64974358974359
 30
0.0
 10
173.3775405407233
 20
62.63906476111703
 30
0.0
 10
173.5742260886594
 20
62.61769732176664
 30
0.0
 10
173.9007047235561
 20
62.38373599520688
 30
0.0
 10
174.2834072425179
 20
61.7973922500474
 30
0.0
 10
174.3350699563049
 20
61.2056292760728
 30
0.0
 10
174.3694871794872
 20
60.81140224358975
 30
0.0
  0
SPLINE
  5
444
330
1F
100
AcDbEntity
  8
0
  6
Continuous
 62
     7
370
    25
100
AcDbSpline
210
0.0
220
0.0
230
1.0
 70
     8
 71
     3
 72
    11
 73
     7
 74
     0
 42
0.000000001
 43
0.00000001
 40
0.0
 40
0.0
 40
0.0
 40
0.0
 40
0.499818610545497
 40
0.749878701599095
 40
0.8751665768369707
 40
1.0
 40
1.0
 40
1.0
 40
1.0
 10
172.215641025641
 20
60.79457532051281
 30
0.0
 10
172.2497279148793
 20
61.18726861057336
 30
0.0
 10
172.3008685321037
 20
61.77642701377066
 30
0.0
 10
172.6718571043599
 20
62.36350664402637
 30
0.0
 10
172.9866845922147
 20
62.60964504331147
 30
0.0
 10
173.1818415850321
 20
62.63639360766015
 30
0.0
 10
173.2792427884616
 20
62.64974358974359
 30
0.0
  0
SPLINE
  5
445
330
1F
100
AcDbEntity
  8
0
  6
Continuous
 62
     7
370
    25
100
AcDbSpline
210
0.0
220
0.0
230
1.0
 70
     8
 71
     3
 72
    11
 73
     7
 74
     0
 42
0.000000001
 43
0.00000001
 40
0.0
 40
0.0
 40
0.0
 40
0.0
 40
0.1250865710675584
 40
0.2503502093533675
 40
0.5006987011586693
 40
1.0
 40
1.0
 40
1.0
 40
1.0
 10
177.4242748397436
 20
58.97025641025641
 30
0.0
 10
177.3270729149592
 20
58.98157590736449
 30
0.0
 10
177.1325314704887
 20
59.00423092497828
 30
0.0
 10
176.8113966989145
 20
59.23875990396179
 30
0.0
 10
176.4344802082707
 20
59.81951602009757
 30
0.0
 10
176.3800795191671
 20
60.40476952327839
 30
0.0
 10
176.3438461538462
 20
60.79457532051281
 30
0.0
  0
SPLINE
  5
446
330
1F
100
AcDbEntity
  8
0
  6
Continuous
 62
     7
370
    25
100
AcDbSpline
210
0.0
220
0.0
230
1.0
 70
     8
 71
     3
 72
    11
 73
     7
 74
     0
 42
0.000000001
 43
0.00000001
 40
0.0
 40
0.0
 40
0.0
 40
0.0
 40
0.4993949226471824
 40
0.7497375901176874
 40
0.8749888400895274
 40
1.0
 40
1.0
 40
1.0
 40
1.0
 10
178.4976923076923
 20
60.81140224358975
 30
0.0
 10
178.4622856669096
 20
60.41991209937009
 30
0.0
 10
178.409129961213
 20
59.83217108725446
 30
0.0
 10
178.0363041165579
 20
59.24630583390275
 30
0.0
 10
177.7171261202031
 20
59.00598893158691
 30
0.0
 10
177.5218294804068
 20
58.98215963046059
 30
0.0
 10
177.4242748397436
 20
58.97025641025641
 30
0.0
  0
SPLINE
  5
447
330
1F
100
AcDbEntity
  8
0
  6
Continuous
 62
     7
370
    25
100
AcDbSpline
210
0.0
220
0.0
230
1.0
 70
     8
 71
     3
 72
    11
 73
     7
 74
     0
 42
0.000000001
 43
0.00000001
 40
0.0
 40
0.0
 40
0.0
 40
0.0
 40
0.1251371209881685
 40
0.2503888709800565
 40
0.5006159832458824
 40
1.0
 40
1.0
 40
1.0
 40
1.0
 10
177.4074479166667
 20
62.64974358974359
 30
0.0
 10
177.5057456689285
 20
62.63906476111701
 30
0.0
 10
177.7024312168645
 20
62.61769732176663
 30
0.0
 10
178.0289098517613
 20
62.38373599520688
 30
0.0
 10
178.411612370723
 20
61.79739225004741
 30
0.0
 10
178.4632750845101
 20
61.20562927607279
 30
0.0
 10
178.4976923076923
 20
60.81140224358975
 30
0.0
  0
SPLINE
  5
448
330
1F
100
AcDbEntity
  8
0
  6
Continuous
 62
     7
370
    25
100
AcDbSpline
210
0.0
220
0.0
230
1.0
 70
     8
 71
     3
 72
    11
 73
     7
 74
     0
 42
0.000000001
 43
0.00000001
 40
0.0
 40
0.0
 40
0.0
 40
0.0
 40
0.4998186105454961
 40
0.7498787015990951
 40
0.8751665768369716
 40
1.0
 40
1.0
 40
1.0
 40
1.0
 10
176.3438461538462
 20
60.79457532051281
 30
0.0
 10
176.3779330430844
 20
61.18726861057336
 30
0.0
 10
176.4290736603088
 20
61.77642701377066
 30
0.0
 10
176.800062232565
 20
62.36350664402637
 30
0.0
 10
177.1148897204198
 20
62.60964504331147
 30
0.0
 10
177.3100467132372
 20
62.63639360766013
 30
0.0
 10
177.4074479166667
 20
62.64974358974359
 30
0.0
  0
LINE
  5
449
330
1F
100
AcDbEntity
  8
0
  6
Continuous
 62
     7
370
    25
100
AcDbLine
 10
180.831025641
 20
59.06
 30
0.0
 11
181.7284615385
 21
62.56
 31
0.0
  0
LINE
  5
44A
330
1F
100
AcDbEntity
  8
0
  6
Continuous
 62
     7
370
    25
100
AcDbLine
 10
181.0266386218
 20
59.06
 30
0.0
 11
180.831025641
 21
59.06
 31
0.0
  0
LINE
  5
44B
330
1F
100
AcDbEntity
  8
0
  6
Continuous
 62
     7
370
    25
100
AcDbLine
 10
181.3140985577
 20
60.1817948718
 30
0.0
 11
181.0266386218
 21
59.06
 31
0.0
  0
LINE
  5
44C
330
1F
100
AcDbEntity
  8
0
  6
Continuous
 62
     7
370
    25
100
AcDbLine
 10
182.1876963141
 20
60.1817948718
 30
0.0
 11
181.3140985577
 21
60.1817948718
 31
0.0
  0
LINE
  5
44D
330
1F
100
AcDbEntity
  8
0
  6
Continuous
 62
     7
370
    25
100
AcDbLine
 10
182.47515625
 20
59.06
 30
0.0
 11
182.1876963141
 21
60.1817948718
 31
0.0
  0
LINE
  5
44E
330
1F
100
AcDbEntity
  8
0
  6
Continuous
 62
     7
370
    25
100
AcDbLine
 10
182.6707692308
 20
59.06
 30
0.0
 11
182.47515625
 21
59.06
 31
0.0
  0
LINE
  5
44F
330
1F
100
AcDbEntity
  8
0
  6
Continuous
 62
     7
370
    25
100
AcDbLine
 10
181.7733333333
 20
62.56
 30
0.0
 11
182.6707692308
 21
59.06
 31
0.0
  0
LINE
  5
450
330
1F
100
AcDbEntity
  8
0
  6
Continuous
 62
     7
370
    25
100
AcDbLine
 10
181.7284615385
 20
62.56
 30
0.0
 11
181.7733333333
 21
62.56
 31
0.0
  0
SPLINE
  5
451
330
1F
100
AcDbEntity
  8
0
  6
Continuous
 62
     7
370
    25
100
AcDbSpline
210
0.0
220
0.0
230
1.0
 70
     8
 71
     3
 72
    11
 73
     7
 74
     0
 42
0.000000001
 43
0.00000001
 40
0.0
 40
0.0
 40
0.0
 40
0.0
 40
0.1857141050778686
 40
0.3724542555639246
 40
0.5601199017239207
 40
1.0
 40
1.0
 40
1.0
 40
1.0
 10
185.2284615384616
 20
59.01512820512821
 30
0.0
 10
185.2051502858532
 20
59.01955215139846
 30
0.0
 10
185.1583989891066
 20
59.02842448564602
 30
0.0
 10
185.1102052447657
 20
59.0832621407148
 30
0.0
 10
185.060566164374
 20
59.17194214977282
 30
0.0
 10
185.0537512758283
 20
59.25122283461697
 30
0.0
 10
185.0489743589744
 20
59.30679487179488
 30
0.0
  0
SPLINE
  5
452
330
1F
100
AcDbEntity
  8
0
  6
Continuous
 62
     7
370
    25
100
AcDbSpline
210
0.0
220
0.0
230
1.0
 70
     8
 71
     3
 72
    10
 73
     6
 74
     0
 42
0.000000001
 43
0.00000001
 40
0.0
 40
0.0
 40
0.0
 40
0.0
 40
0.5596114125997572
 40
0.780791284150203
 40
1.0
 40
1.0
 40
1.0
 40
1.0
 10
185.4079487179488
 20
59.30679487179488
 30
0.0
 10
185.3995833419703
 20
59.2371824546284
 30
0.0
 10
185.3879116488891
 20
59.14005654302539
 30
0.0
 10
185.3103774305798
 20
59.03411936889493
 30
0.0
 10
185.2556852360578
 20
59.02143967517407
 30
0.0
 10
185.2284615384616
 20
59.01512820512821
 30
0.0
  0
SPLINE
  5
453
330
1F
100
AcDbEntity
  8
0
  6
Continuous
 62
     7
370
    25
100
AcDbSpline
210
0.0
220
0.0
230
1.0
 70
     8
 71
     3
 72
    11
 73
     7
 74
     0
 42
0.000000001
 43
0.00000001
 40
0.0
 40
0.0
 40
0.0
 40
0.0
 40
0.1859027081876066
 40
0.372680286692615
 40
0.5601967664387701
 40
1.0
 40
1.0
 40
1.0
 40
1.0
 10
185.2284615384616
 20
59.59846153846154
 30
0.0
 10
185.2518957160149
 20
59.59423671417858
 30
0.0
 10
185.2988743538956
 20
59.58576718331295
 30
0.0
 10
185.347159700519
 20
59.53072275073579
 30
0.0
 10
185.3968669175152
 20
59.44193452079725
 30
0.0
 10
185.4033814732103
 20
59.36249122317405
 30
0.0
 10
185.4079487179488
 20
59.30679487179488
 30
0.0
  0
SPLINE
  5
454
330
1F
100
AcDbEntity
  8
0
  6
Continuous
 62
     7
370
    25
100
AcDbSpline
210
0.0
220
0.0
230
1.0
 70
     8
 71
     3
 72
    10
 73
     6
 74
     0
 42
0.000000001
 43
0.00000001
 40
0.0
 40
0.0
 40
0.0
 40
0.0
 40
0.5594713163304259
 40
0.7807294745950802
 40
0.9999999999999999
 40
0.9999999999999999
 40
0.9999999999999999
 40
0.9999999999999999
 10
185.0489743589744
 20
59.30679487179488
 30
0.0
 10
185.0570197179267
 20
59.37658250727958
 30
0.0
 10
185.0682468330341
 20
59.4739695625134
 30
0.0
 10
185.146171128189
 20
59.58010519113495
 30
0.0
 10
185.2011140344814
 20
59.59236118873777
 30
0.0
 10
185.2284615384616
 20
59.59846153846154
 30
0.0
  0
SPLINE
  5
455
330
1F
100
AcDbEntity
  8
0
  6
Continuous
 62
     7
370
    25
100
AcDbSpline
210
0.0
220
0.0
230
1.0
 70
     8
 71
     3
 72
    11
 73
     7
 74
     0
 42
0.000000001
 43
0.00000001
 40
0.0
 40
0.0
 40
0.0
 40
0.0
 40
0.1857141050778713
 40
0.3724542555639335
 40
0.5601199017239392
 40
1.0
 40
1.0
 40
1.0
 40
1.0
 10
186.888717948718
 20
59.01512820512821
 30
0.0
 10
186.8654066961096
 20
59.01955215139845
 30
0.0
 10
186.818655399363
 20
59.02842448564602
 30
0.0
 10
186.7704616550221
 20
59.08326214071481
 30
0.0
 10
186.7208225746304
 20
59.17194214977282
 30
0.0
 10
186.7140076860847
 20
59.25122283461697
 30
0.0
 10
186.7092307692308
 20
59.30679487179487
 30
0.0
  0
SPLINE
  5
456
330
1F
100
AcDbEntity
  8
0
  6
Continuous
 62
     7
370
    25
100
AcDbSpline
210
0.0
220
0.0
230
1.0
 70
     8
 71
     3
 72
    10
 73
     6
 74
     0
 42
0.000000001
 43
0.00000001
 40
0.0
 40
0.0
 40
0.0
 40
0.0
 40
0.5596114125997742
 40
0.7807912841502068
 40
1.0
 40
1.0
 40
1.0
 40
1.0
 10
187.0682051282052
 20
59.30679487179488
 30
0.0
 10
187.0598397522267
 20
59.2371824546284
 30
0.0
 10
187.0481680591455
 20
59.14005654302539
 30
0.0
 10
186.9706338408363
 20
59.03411936889493
 30
0.0
 10
186.9159416463142
 20
59.02143967517408
 30
0.0
 10
186.888717948718
 20
59.01512820512821
 30
0.0
  0
SPLINE
  5
457
330
1F
100
AcDbEntity
  8
0
  6
Continuous
 62
     7
370
    25
100
AcDbSpline
210
0.0
220
0.0
230
1.0
 70
     8
 71
     3
 72
    11
 73
     7
 74
     0
 42
0.000000001
 43
0.00000001
 40
0.0
 40
0.0
 40
0.0
 40
0.0
 40
0.1859027081876153
 40
0.3726802866926076
 40
0.5601967664387492
 40
1.0
 40
1.0
 40
1.0
 40
1.0
 10
186.888717948718
 20
59.59846153846154
 30
0.0
 10
186.9121521262713
 20
59.59423671417857
 30
0.0
 10
186.959130764152
 20
59.58576718331292
 30
0.0
 10
187.0074161107754
 20
59.5307227507358
 30
0.0
 10
187.0571233277716
 20
59.44193452079725
 30
0.0
 10
187.0636378834667
 20
59.36249122317405
 30
0.0
 10
187.0682051282052
 20
59.30679487179488
 30
0.0
  0
SPLINE
  5
458
330
1F
100
AcDbEntity
  8
0
  6
Continuous
 62
     7
370
    25
100
AcDbSpline
210
0.0
220
0.0
230
1.0
 70
     8
 71
     3
 72
    10
 73
     6
 74
     0
 42
0.000000001
 43
0.00000001
 40
0.0
 40
0.0
 40
0.0
 40
0.0
 40
0.5594713163304218
 40
0.7807294745950768
 40
1.0
 40
1.0
 40
1.0
 40
1.0
 10
186.7092307692308
 20
59.30679487179488
 30
0.0
 10
186.7172761281831
 20
59.37658250727958
 30
0.0
 10
186.7285032432905
 20
59.47396956251338
 30
0.0
 10
186.8064275384453
 20
59.58010519113495
 30
0.0
 10
186.8613704447378
 20
59.59236118873778
 30
0.0
 10
186.888717948718
 20
59.59846153846154
 30
0.0
  0
SPLINE
  5
459
330
1F
100
AcDbEntity
  8
0
  6
Continuous
 62
     7
370
    25
100
AcDbSpline
210
0.0
220
0.0
230
1.0
 70
     8
 71
     3
 72
    11
 73
     7
 74
     0
 42
0.000000001
 43
0.00000001
 40
0.0
 40
0.0
 40
0.0
 40
0.0
 40
0.1857141050778702
 40
0.3724542555639399
 40
0.5601199017239291
 40
1.0
 40
1.0
 40
1.0
 40
1.0
 10
189.5810256410257
 20
59.01512820512821
 30
0.0
 10
189.5577143884173
 20
59.01955215139844
 30
0.0
 10
189.5109630916707
 20
59.02842448564601
 30
0.0
 10
189.4627693473298
 20
59.08326214071483
 30
0.0
 10
189.4131302669381
 20
59.17194214977281
 30
0.0
 10
189.4063153783924
 20
59.25122283461696
 30
0.0
 10
189.4015384615385
 20
59.30679487179488
 30
0.0
  0
SPLINE
  5
45A
330
1F
100
AcDbEntity
  8
0
  6
Continuous
 62
     7
370
    25
100
AcDbSpline
210
0.0
220
0.0
230
1.0
 70
     8
 71
     3
 72
    10
 73
     6
 74
     0
 42
0.000000001
 43
0.00000001
 40
0.0
 40
0.0
 40
0.0
 40
0.0
 40
0.5596114125997625
 40
0.7807912841501963
 40
1.0
 40
1.0
 40
1.0
 40
1.0
 10
189.7605128205128
 20
59.30679487179488
 30
0.0
 10
189.7521474445344
 20
59.2371824546284
 30
0.0
 10
189.7404757514532
 20
59.14005654302539
 30
0.0
 10
189.6629415331439
 20
59.03411936889494
 30
0.0
 10
189.6082493386218
 20
59.02143967517408
 30
0.0
 10
189.5810256410257
 20
59.01512820512821
 30
0.0
  0
SPLINE
  5
45B
330
1F
100
AcDbEntity
  8
0
  6
Continuous
 62
     7
370
    25
100
AcDbSpline
210
0.0
220
0.0
230
1.0
 70
     8
 71
     3
 72
    11
 73
     7
 74
     0
 42
0.000000001
 43
0.00000001
 40
0.0
 40
0.0
 40
0.0
 40
0.0
 40
0.1859027081876149
 40
0.3726802866925934
 40
0.5601967664387503
 40
1.0
 40
1.0
 40
1.0
 40
1.0
 10
189.5810256410257
 20
59.59846153846154
 30
0.0
 10
189.604459818579
 20
59.59423671417859
 30
0.0
 10
189.6514384564597
 20
59.58576718331294
 30
0.0
 10
189.6997238030831
 20
59.5307227507358
 30
0.0
 10
189.7494310200793
 20
59.44193452079725
 30
0.0
 10
189.7559455757744
 20
59.36249122317405
 30
0.0
 10
189.7605128205128
 20
59.30679487179488
 30
0.0
  0
SPLINE
  5
45C
330
1F
100
AcDbEntity
  8
0
  6
Continuous
 62
     7
370
    25
100
AcDbSpline
210
0.0
220
0.0
230
1.0
 70
     8
 71
     3
 72
    10
 73
     6
 74
     0
 42
0.000000001
 43
0.00000001
 40
0.0
 40
0.0
 40
0.0
 40
0.0
 40
0.5594713163304376
 40
0.780729474595079
 40
1.0
 40
1.0
 40
1.0
 40
1.0
 10
189.4015384615385
 20
59.30679487179488
 30
0.0
 10
189.4095838204908
 20
59.37658250727959
 30
0.0
 10
189.4208109355982
 20
59.4739695625134
 30
0.0
 10
189.4987352307531
 20
59.58010519113495
 30
0.0
 10
189.5536781370455
 20
59.59236118873778
 30
0.0
 10
189.5810256410257
 20
59.59846153846154
 30
0.0
  0
SPLINE
  5
45D
330
1F
100
AcDbEntity
  8
0
  6
Continuous
 62
     7
370
    25
100
AcDbSpline
210
0.0
220
0.0
230
1.0
 70
     8
 71
     3
 72
    10
 73
     6
 74
     0
 42
0.000000001
 43
0.00000001
 40
0.0
 40
0.0
 40
0.0
 40
0.0
 40
0.276490402556675
 40
0.5571898806745151
 40
1.0
 40
1.0
 40
1.0
 40
1.0
 10
169.2505969551282
 20
58.97025641025641
 30
0.0
 10
169.153862455751
 20
58.99495899195903
 30
0.0
 10
168.9589208459637
 20
59.04474020831938
 30
0.0
 10
168.7588712635153
 20
59.35487732263492
 30
0.0
 10
168.6763828693751
 20
59.59079277682446
 30
0.0
 10
168.6258974358975
 20
59.73518028846154
 30
0.0
  0
SPLINE
  5
45E
330
1F
100
AcDbEntity
  8
0
  6
Continuous
 62
     7
370
    25
100
AcDbSpline
210
0.0
220
0.0
230
1.0
 70
     8
 71
     3
 72
    11
 73
     7
 74
     0
 42
0.000000001
 43
0.00000001
 40
0.0
 40
0.0
 40
0.0
 40
0.0
 40
0.2810224925325866
 40
0.560577971011056
 40
0.7796494856786639
 40
1.0
 40
1.0
 40
1.0
 40
1.0
 10
175.6258974358975
 20
61.68640224358975
 30
0.0
 10
175.6221857179296
 20
61.75759171147743
 30
0.0
 10
175.6147816581739
 20
61.89959901881499
 30
0.0
 10
175.530094036491
 20
62.08895077787588
 30
0.0
 10
175.3675472280862
 20
62.19118047382273
 30
0.0
 10
175.2552342188487
 20
62.1977375568537
 30
0.0
 10
175.1989142628205
 20
62.20102564102564
 30
0.0
  0
SPLINE
  5
45F
330
1F
100
AcDbEntity
  8
0
  6
Continuous
 62
     7
370
    25
100
AcDbSpline
210
0.0
220
0.0
230
1.0
 70
     8
 71
     3
 72
    10
 73
     6
 74
     0
 42
0.000000001
 43
0.00000001
 40
0.0
 40
0.0
 40
0.0
 40
0.0
 40
0.2820080937468404
 40
0.5596255006190668
 40
1.0
 40
1.0
 40
1.0
 40
1.0
 10
175.0748157051282
 20
61.07923076923078
 30
0.0
 10
175.1649561042859
 20
61.08055967700727
 30
0.0
 10
175.343833473848
 20
61.08319680231033
 30
0.0
 10
175.5938122463068
 20
61.31556846623018
 30
0.0
 10
175.6136996552688
 20
61.54542289693055
 30
0.0
 10
175.6258974358975
 20
61.68640224358975
 30
0.0
  0
LINE
  5
460
330
1F
100
AcDbEntity
  8
0
  6
Continuous
 62
     7
370
    25
100
AcDbLine
 10
174.9528205128
 20
61.0792307692
 30
0.0
 11
175.0748157051
 21
61.0792307692
 31
0.0
  0
LINE
  5
461
330
1F
100
AcDbEntity
  8
0
  6
Continuous
 62
     7
370
    25
100
AcDbLine
 10
174.9528205128
 20
62.201025641
 30
0.0
 11
174.9528205128
 21
61.0792307692
 31
0.0
  0
LINE
  5
462
330
1F
100
AcDbEntity
  8
0
  6
Continuous
 62
     7
370
    25
100
AcDbLine
 10
175.1989142628
 20
62.201025641
 30
0.0
 11
174.9528205128
 21
62.201025641
 31
0.0
  0
SPLINE
  5
463
330
1F
100
AcDbEntity
  8
0
  6
Continuous
 62
     7
370
    25
100
AcDbSpline
210
0.0
220
0.0
230
1.0
 70
     8
 71
     3
 72
    11
 73
     7
 74
     0
 42
0.000000001
 43
0.00000001
 40
0.0
 40
0.0
 40
0.0
 40
0.0
 40
0.1249546649233451
 40
0.2503355151445391
 40
0.5004718750725822
 40
0.9999999999999999
 40
0.9999999999999999
 40
0.9999999999999999
 40
0.9999999999999999
 10
173.2883573717949
 20
62.29076923076924
 30
0.0
 10
173.2089169461052
 20
62.2801765884092
 30
0.0
 10
173.0497651457261
 20
62.25895517515852
 30
0.0
 10
172.7889491754688
 20
62.06520530038477
 30
0.0
 10
172.4643927678818
 20
61.59984949934191
 30
0.0
 10
172.4228257730495
 20
61.11743050686506
 30
0.0
 10
172.3951282051282
 20
60.79597756410256
 30
0.0
  0
SPLINE
  5
464
330
1F
100
AcDbEntity
  8
0
  6
Continuous
 62
     7
370
    25
100
AcDbSpline
210
0.0
220
0.0
230
1.0
 70
     8
 71
     3
 72
    11
 73
     7
 74
     0
 42
0.000000001
 43
0.00000001
 40
0.0
 40
0.0
 40
0.0
 40
0.0
 40
0.1250490604142626
 40
0.2504153431054252
 40
0.5004166025508178
 40
1.0
 40
1.0
 40
1.0
 40
1.0
 10
173.2883573717949
 20
59.32923076923078
 30
0.0
 10
173.3678912864598
 20
59.33871727287396
 30
0.0
 10
173.5271608760381
 20
59.35771434535743
 30
0.0
 10
173.7943563395345
 20
59.54232547688251
 30
0.0
 10
174.1220717415848
 20
60.0082405765078
 30
0.0
 10
174.162833254898
 20
60.4906121923166
 30
0.0
 10
174.19
 20
60.81210336538461
 30
0.0
  0
SPLINE
  5
465
330
1F
100
AcDbEntity
  8
0
  6
Continuous
 62
     7
370
    25
100
AcDbSpline
210
0.0
220
0.0
230
1.0
 70
     8
 71
     3
 72
    11
 73
     7
 74
     0
 42
0.000000001
 43
0.00000001
 40
0.0
 40
0.0
 40
0.0
 40
0.0
 40
0.4991160317194256
 40
0.749541891381454
 40
0.8748444187760729
 40
1.0
 40
1.0
 40
1.0
 40
1.0
 10
172.3951282051282
 20
60.79597756410256
 30
0.0
 10
172.4253426267527
 20
60.47950105548649
 30
0.0
 10
172.4707167948661
 20
60.00423601535401
 30
0.0
 10
172.7889883092678
 20
59.54143026078658
 30
0.0
 10
173.0518326754273
 20
59.35576990819325
 30
0.0
 10
173.2095466504388
 20
59.33807368803765
 30
0.0
 10
173.2883573717949
 20
59.32923076923078
 30
0.0
  0
SPLINE
  5
466
330
1F
100
AcDbEntity
  8
0
  6
Continuous
 62
     7
370
    25
100
AcDbSpline
210
0.0
220
0.0
230
1.0
 70
     8
 71
     3
 72
    11
 73
     7
 74
     0
 42
0.000000001
 43
0.00000001
 40
0.0
 40
0.0
 40
0.0
 40
0.0
 40
0.4993358358504839
 40
0.7495692015935345
 40
0.8749806247542855
 40
0.9999999999999999
 40
0.9999999999999999
 40
0.9999999999999999
 40
0.9999999999999999
 10
174.19
 20
60.81210336538462
 30
0.0
 10
174.1621094599087
 20
61.1324971952851
 30
0.0
 10
174.1202420665287
 20
61.61345075405572
 30
0.0
 10
173.7888126965569
 20
62.07209108769087
 30
0.0
 10
173.5260086379066
 20
62.26027904210522
 30
0.0
 10
173.3674917414148
 20
62.2806164472432
 30
0.0
 10
173.2883573717949
 20
62.29076923076924
 30
0.0
  0
LINE
  5
467
330
1F
100
AcDbEntity
  8
0
  6
Continuous
 62
     7
370
    25
100
AcDbLine
 10
164.2200480769
 20
60.5407692308
 30
0.0
 11
164.9099519231
 21
60.5407692308
 31
0.0
  0
LINE
  5
468
330
1F
100
AcDbEntity
  8
0
  6
Continuous
 62
     7
370
    25
100
AcDbLine
 10
164.565
 20
61.8855208333
 30
0.0
 11
164.2200480769
 21
60.5407692308
 31
0.0
  0
LINE
  5
469
330
1F
100
AcDbEntity
  8
0
  6
Continuous
 62
     7
370
    25
100
AcDbLine
 10
164.9099519231
 20
60.5407692308
 30
0.0
 11
164.565
 21
61.8855208333
 31
0.0
  0
SPLINE
  5
46A
330
1F
100
AcDbEntity
  8
0
  6
Continuous
 62
     7
370
    25
100
AcDbSpline
210
0.0
220
0.0
230
1.0
 70
     8
 71
     3
 72
     9
 73
     5
 74
     0
 42
0.000000001
 43
0.00000001
 40
0.0
 40
0.0
 40
0.0
 40
0.0
 40
0.5592435255972102
 40
1.0
 40
1.0
 40
1.0
 40
1.0
 10
175.4506169871795
 20
60.67889022435897
 30
0.0
 10
175.3809069264105
 20
60.69390819499279
 30
0.0
 10
175.256256291082
 20
60.72076227545404
 30
0.0
 10
175.1288621376638
 20
60.72041116462677
 30
0.0
 10
175.0727123397436
 20
60.72025641025641
 30
0.0
  0
SPLINE
  5
46B
330
1F
100
AcDbEntity
  8
0
  6
Continuous
 62
     7
370
    25
100
AcDbSpline
210
0.0
220
0.0
230
1.0
 70
     8
 71
     3
 72
    10
 73
     6
 74
     0
 42
0.000000001
 43
0.00000001
 40
0.0
 40
0.0
 40
0.0
 40
0.0
 40
0.2820406501341715
 40
0.5599771541584678
 40
1.0
 40
1.0
 40
1.0
 40
1.0
 10
175.218545673077
 20
59.41897435897437
 30
0.0
 10
175.3132565603352
 20
59.42026195588054
 30
0.0
 10
175.501300138768
 20
59.4228184130823
 30
0.0
 10
175.7646221824502
 20
59.66531365150927
 30
0.0
 10
175.7898952565588
 20
59.90598621165665
 30
0.0
 10
175.8053846153846
 20
60.05348958333334
 30
0.0
  0
LINE
  5
46C
330
1F
100
AcDbEntity
  8
0
  6
Continuous
 62
     7
370
    25
100
AcDbLine
 10
174.9528205128
 20
59.418974359
 30
0.0
 11
175.2185456731
 21
59.418974359
 31
0.0
  0
LINE
  5
46D
330
1F
100
AcDbEntity
  8
0
  6
Continuous
 62
     7
370
    25
100
AcDbLine
 10
174.9528205128
 20
60.7202564103
 30
0.0
 11
174.9528205128
 21
59.418974359
 31
0.0
  0
LINE
  5
46E
330
1F
100
AcDbEntity
  8
0
  6
Continuous
 62
     7
370
    25
100
AcDbLine
 10
175.0727123397
 20
60.7202564103
 30
0.0
 11
174.9528205128
 21
60.7202564103
 31
0.0
  0
SPLINE
  5
46F
330
1F
100
AcDbEntity
  8
0
  6
Continuous
 62
     7
370
    25
100
AcDbSpline
210
0.0
220
0.0
230
1.0
 70
     8
 71
     3
 72
    10
 73
     6
 74
     0
 42
0.000000001
 43
0.00000001
 40
0.0
 40
0.0
 40
0.0
 40
0.0
 40
0.5580099882118047
 40
0.7791152929078794
 40
0.9999999999999999
 40
0.9999999999999999
 40
0.9999999999999999
 40
0.9999999999999999
 10
175.8053846153846
 20
60.05348958333334
 30
0.0
 10
175.7884347316691
 20
60.19733851324545
 30
0.0
 10
175.7647686434364
 20
60.39818599542425
 30
0.0
 10
175.601980856741
 20
60.60328819235401
 30
0.0
 10
175.5010548196087
 20
60.65369793353939
 30
0.0
 10
175.4506169871795
 20
60.67889022435897
 30
0.0
  0
LINE
  5
470
330
1F
100
AcDbEntity
  8
0
  6
Continuous
 62
     7
370
    25
100
AcDbLine
 10
142.94
 20
112.26
 30
0.0
 11
133.94
 21
112.26
 31
0.0
  0
LINE
  5
471
330
1F
100
AcDbEntity
  8
0
  6
Continuous
 62
     7
370
    25
100
AcDbLine
 10
142.94
 20
112.26
 30
0.0
 11
142.94
 21
57.86
 31
0.0
  0
LINE
  5
472
330
1F
100
AcDbEntity
  8
0
  6
Continuous
 62
     7
370
    25
100
AcDbLine
 10
133.94
 20
57.86
 30
0.0
 11
142.94
 21
57.86
 31
0.0
  0
LINE
  5
473
330
1F
100
AcDbEntity
  8
0
  6
Continuous
 62
     7
370
    25
100
AcDbLine
 10
133.94
 20
57.86
 30
0.0
 11
133.94
 21
112.26
 31
0.0
  0
CIRCLE
  5
474
330
1F
100
AcDbEntity
  8
0
  6
Continuous
 62
     7
370
    25
100
AcDbCircle
 10
137.44
 20
105.06
 30
0.0
 40
3.25
  0
CIRCLE
  5
475
330
1F
100
AcDbEntity
  8
0
  6
Continuous
 62
     7
370
    25
100
AcDbCircle
 10
137.44
 20
65.06
 30
0.0
 40
3.249999999999986
  0
LINE
  5
476
330
1F
100
AcDbEntity
  8
0
  6
Continuous
 62
     7
370
    25
100
AcDbLine
 10
189.94
 20
57.56
 30
0.0
 11
150.94
 21
57.56
 31
0.0
  0
LINE
  5
477
330
1F
100
AcDbEntity
  8
0
  6
Continuous
 62
     7
370
    25
100
AcDbLine
 10
150.94
 20
57.56
 30
0.0
 11
150.94
 21
57.86
 31
0.0
  0
LINE
  5
478
330
1F
100
AcDbEntity
  8
0
  6
Continuous
 62
     7
370
    25
100
AcDbLine
 10
189.94
 20
57.86
 30
0.0
 11
189.94
 21
57.56
 31
0.0
  0
LINE
  5
479
330
1F
100
AcDbEntity
  8
0
  6
Continuous
 62
     7
370
    25
100
AcDbLine
 10
142.94
 20
57.56
 30
0.0
 11
133.94
 21
57.56
 31
0.0
  0
LINE
  5
47A
330
1F
100
AcDbEntity
  8
0
  6
Continuous
 62
     7
370
    25
100
AcDbLine
 10
133.94
 20
57.56
 30
0.0
 11
133.94
 21
57.86
 31
0.0
  0
LINE
  5
47B
330
1F
100
AcDbEntity
  8
0
  6
Continuous
 62
     7
370
    25
100
AcDbLine
 10
142.94
 20
57.86
 30
0.0
 11
142.94
 21
57.56
 31
0.0
  0
LINE
  5
47C
330
1F
100
AcDbEntity
  8
0
  6
Continuous
 62
     7
370
    25
100
AcDbLine
 10
181.7508974359
 20
61.8855208333
 30
0.0
 11
181.4059455128
 21
60.5407692308
 31
0.0
  0
LINE
  5
47D
330
1F
100
AcDbEntity
  8
0
  6
Continuous
 62
     7
370
    25
100
AcDbLine
 10
181.4059455128
 20
60.5407692308
 30
0.0
 11
182.095849359
 21
60.5407692308
 31
0.0
  0
LINE
  5
47E
330
1F
100
AcDbEntity
  8
0
  6
Continuous
 62
     7
370
    25
100
AcDbLine
 10
182.095849359
 20
60.5407692308
 30
0.0
 11
181.7508974359
 21
61.8855208333
 31
0.0
  0
LINE
  5
47F
330
1F
100
AcDbEntity
  8
0
  6
Continuous
 62
     7
370
    25
100
AcDbLine
 10
150.94
 20
112.56
 30
0.0
 11
189.94
 21
112.56
 31
0.0
  0
LINE
  5
480
330
1F
100
AcDbEntity
  8
0
  6
Continuous
 62
     7
370
    25
100
AcDbLine
 10
150.94
 20
112.26
 30
0.0
 11
150.94
 21
112.56
 31
0.0
  0
LINE
  5
481
330
1F
100
AcDbEntity
  8
0
  6
Continuous
 62
     7
370
    25
100
AcDbLine
 10
189.94
 20
112.56
 30
0.0
 11
189.94
 21
112.26
 31
0.0
  0
LINE
  5
482
330
1F
100
AcDbEntity
  8
0
  6
Continuous
 62
     7
370
    25
100
AcDbLine
 10
133.94
 20
112.56
 30
0.0
 11
142.94
 21
112.56
 31
0.0
  0
LINE
  5
483
330
1F
100
AcDbEntity
  8
0
  6
Continuous
 62
     7
370
    25
100
AcDbLine
 10
133.94
 20
112.26
 30
0.0
 11
133.94
 21
112.56
 31
0.0
  0
LINE
  5
484
330
1F
100
AcDbEntity
  8
0
  6
Continuous
 62
     7
370
    25
100
AcDbLine
 10
142.94
 20
112.56
 30
0.0
 11
142.94
 21
112.26
 31
0.0
  0
LINE
  5
485
330
1F
100
AcDbEntity
  8
0
  6
Continuous
 62
     7
370
    25
100
AcDbLine
 10
150.94
 20
112.56
 30
0.0
 11
142.94
 21
112.56
 31
0.0
  0
LINE
  5
486
330
1F
100
AcDbEntity
  8
0
  6
Continuous
 62
     7
370
    25
100
AcDbLine
 10
142.94
 20
57.56
 30
0.0
 11
150.94
 21
57.56
 31
0.0
  0
DIMENSION
  5
487
330
1F
100
AcDbEntity
  8
0
  6
Continuous
 62
     7
370
    18
100
AcDbDimension
  2
_D_13
 10
189.94
 20
42.66
 30
0.0
 11
168.44
 21
42.66
 31
0.0
 70
   160
  1
<>
 71
     2
 42
-1.0
  3
SLDDIMSTYLE0
100
AcDbAlignedDimension
 13
146.94
 23
55.56
 33
0.0
 14
189.94
 24
57.56
 34
0.0
100
AcDbRotatedDimension
  0
DIMENSION
  5
491
330
1F
100
AcDbEntity
  8
0
  6
Continuous
 62
     7
370
    18
100
AcDbDimension
  2
_D_14
 10
139.8754439023
 20
107.2120020908
 30
0.0
 11
123.8594809884
 21
93.06001
 31
0.0
 70
   163
  1
<>
 71
     1
 42
-1.0
  3
SLDDIMSTYLE5
100
AcDbDiametricDimension
 15
135.0045560977
 25
102.9079979092
 35
0.0
 40
0.0
  0
DIMENSION
  5
49B
330
1F
100
AcDbEntity
  8
0
  6
Continuous
 62
     7
370
    18
100
AcDbDimension
  2
_D_15
 10
156.44
 20
124.06
 30
0.0
 11
146.94
 21
124.06
 31
0.0
 70
   160
  1
<>
 71
     2
 42
-1.0
  3
SLDDIMSTYLE2
100
AcDbAlignedDimension
 13
137.44
 23
110.81
 33
0.0
 14
156.44
 24
110.81
 34
0.0
100
AcDbRotatedDimension
  0
DIMENSION
  5
4A5
330
1F
100
AcDbEntity
  8
0
  6
Continuous
 62
     7
370
    18
100
AcDbDimension
  2
_D_16
 10
63.94
 20
65.06
 30
0.0
 11
63.94
 21
85.06
 31
0.0
 70
   160
  1
<>
 71
     2
 42
-1.0
  3
SLDDIMSTYLE0
100
AcDbAlignedDimension
 13
131.69
 23
105.06
 33
0.0
 14
131.69
 24
65.06
 34
0.0
 50
90.0
100
AcDbRotatedDimension
  0
DIMENSION
  5
4AF
330
1F
100
AcDbEntity
  8
0
  6
Continuous
 62
     7
370
    18
100
AcDbDimension
  2
_D_17
 10
189.94
 20
124.06
 30
0.0
 11
173.19
 21
124.06
 31
0.0
 70
   160
  1
<>
 71
     2
 42
-1.0
  3
SLDDIMSTYLE6
100
AcDbAlignedDimension
 13
156.44
 23
110.81
 33
0.0
 14
189.94
 24
112.56
 34
0.0
100
AcDbRotatedDimension
  0
INSERT
  5
4C5
330
1F
100
AcDbEntity
  8
0
  6
Continuous
 62
     7
370
     0
100
AcDbBlockReference
  2
SW_CENTERMARKSYMBOL_3
 10
137.44
 20
105.06
 30
0.0
  0
INSERT
  5
4D1
330
1F
100
AcDbEntity
  8
0
  6
Continuous
 62
     7
370
     0
100
AcDbBlockReference
  2
SW_CENTERMARKSYMBOL_4
 10
156.44
 20
105.06
 30
0.0
  0
INSERT
  5
4DD
330
1F
100
AcDbEntity
  8
0
  6
Continuous
 62
     7
370
     0
100
AcDbBlockReference
  2
SW_CENTERMARKSYMBOL_5
 10
137.44
 20
65.06
 30
0.0
  0
INSERT
  5
4E9
330
1F
100
AcDbEntity
  8
0
  6
Continuous
 62
     7
370
     0
100
AcDbBlockReference
  2
SW_CENTERMARKSYMBOL_6
 10
156.44
 20
65.06
 30
0.0
  0
LINE
  5
4EA
330
1F
100
AcDbEntity
  8
0
  6
CENTERX2
 62
     7
370
    18
100
AcDbLine
 10
146.94
 20
55.56
 30
0.0
 11
146.94
 21
114.56
 31
0.0
  0
LINE
  5
4EB
330
1F
100
AcDbEntity
  8
0
  6
CENTERX2
 62
     7
370
    18
100
AcDbLine
 10
310.44
 20
85.06
 30
0.0
 11
169.94
 21
85.06
 31
0.0
  0
LINE
  5
4EC
330
1F
100
AcDbEntity
  8
0
  6
CENTERX2
 62
     7
370
    18
100
AcDbLine
 10
306.94
 20
85.06
 30
0.0
 11
315.64
 21
85.06
 31
0.0
  0
LINE
  5
4ED
330
1F
100
AcDbEntity
  8
0
  6
CENTERX2
 62
     7
370
    18
100
AcDbLine
 10
131.94
 20
85.06
 30
0.0
 11
152.94
 21
85.06
 31
0.0
  0
LINE
  5
4EE
330
1F
100
AcDbEntity
  8
0
  6
CENTERX2
 62
     7
370
    18
100
AcDbLine
 10
140.94
 20
85.06
 30
0.0
 11
191.94
 21
85.06
 31
0.0
  0
LINE
  5
4EF
330
1F
100
AcDbEntity
  8
0
  6
CENTERX2
 62
     7
370
    18
100
AcDbLine
 10
144.44
 20
51.16
 30
0.0
 11
144.44
 21
59.66
 31
0.0
  0
LINE
  5
4F0
330
1F
100
AcDbEntity
  8
0
  6
CENTERX2
 62
     7
370
    18
100
AcDbLine
 10
169.44
 20
51.16
 30
0.0
 11
169.44
 21
59.66
 31
0.0
  0
ENDSEC
  0
SECTION
  2
OBJECTS
  0
DICTIONARY
  5
C
330
0
100
AcDbDictionary
281
     1
  3
ACAD_GROUP
350
D
  3
ACAD_LAYOUT
350
1A
  3
ACAD_MLINESTYLE
350
17
  3
ACAD_PLOTSETTINGS
350
19
  3
ACAD_PLOTSTYLENAME
350
E
  3
ACAD_SCALELIST
350
47
  0
DICTIONARY
  5
D
102
{ACAD_REACTORS
330
C
102
}
330
C
100
AcDbDictionary
281
     1
  0
DICTIONARY
  5
1A
102
{ACAD_REACTORS
330
C
102
}
330
C
100
AcDbDictionary
281
     1
  3
Layout1
350
1E
  3
Layout2
350
26
  3
Model
350
22
  0
DICTIONARY
  5
17
102
{ACAD_REACTORS
330
C
102
}
330
C
100
AcDbDictionary
281
     1
  3
Standard
350
18
  0
DICTIONARY
  5
19
102
{ACAD_REACTORS
330
C
102
}
330
C
100
AcDbDictionary
281
     1
  0
ACDBDICTIONARYWDFLT
  5
E
102
{ACAD_REACTORS
330
C
102
}
330
C
100
AcDbDictionary
281
     1
  3
Normal
350
F
100
AcDbDictionaryWithDefault
340
F
  0
DICTIONARY
  5
47
102
{ACAD_REACTORS
330
C
102
}
330
C
100
AcDbDictionary
281
     1
  3
A0
350
48
  3
A1
350
49
  3
A2
350
4A
  3
A3
350
4B
  3
A4
350
4C
  3
A5
350
4D
  3
A6
350
4E
  3
A7
350
4F
  3
A8
350
50
  3
A9
350
51
  3
B0
350
52
  3
B1
350
53
  3
B2
350
54
  3
B3
350
55
  3
B4
350
56
  3
B5
350
57
  3
B6
350
58
  3
B7
350
59
  3
B8
350
5A
  3
B9
350
5B
  3
C0
350
5C
  3
C1
350
5D
  3
C2
350
5E
  3
C3
350
5F
  3
C4
350
60
  3
C5
350
61
  3
C6
350
62
  3
C7
350
63
  3
C8
350
64
  3
C9
350
65
  3
D0
350
66
  3
D1
350
67
  3
D2
350
68
  0
LAYOUT
  5
1E
102
{ACAD_REACTORS
330
1A
102
}
330
1A
100
AcDbPlotSettings
  1

  2
none_device
  4

  6

 40
0.0
 41
0.0
 42
0.0
 43
0.0
 44
0.0
 45
0.0
 46
0.0
 47
0.0
 48
0.0
 49
0.0
140
0.0
141
0.0
142
1.0
143
1.0
 70
   688
 72
     1
 73
     0
 74
     5
  7

 75
    16
147
1.0
148
0.0
149
0.0
100
AcDbLayout
  1
Layout1
 70
     1
 71
     1
 10
0.0
 20
0.0
 11
420.0
 21
297.0
 12
0.0
 22
0.0
 32
0.0
 14
1.0000000000E+20
 24
1.0000000000E+20
 34
1.0000000000E+20
 15
-1.0000000000E+20
 25
-1.0000000000E+20
 35
-1.0000000000E+20
146
0.0
 13
0.0
 23
0.0
 33
0.0
 16
1.0
 26
0.0
 36
0.0
 17
0.0
 27
1.0
 37
0.0
 76
     0
330
1B
  0
LAYOUT
  5
26
102
{ACAD_REACTORS
330
1A
102
}
330
1A
100
AcDbPlotSettings
  1

  2
none_device
  4

  6

 40
0.0
 41
0.0
 42
0.0
 43
0.0
 44
0.0
 45
0.0
 46
0.0
 47
0.0
 48
0.0
 49
0.0
140
0.0
141
0.0
142
1.0
143
1.0
 70
   688
 72
     1
 73
     0
 74
     5
  7

 75
    16
147
1.0
148
0.0
149
0.0
100
AcDbLayout
  1
Layout2
 70
     1
 71
     2
 10
0.0
 20
0.0
 11
0.0
 21
0.0
 12
0.0
 22
0.0
 32
0.0
 14
0.0
 24
0.0
 34
0.0
 15
0.0
 25
0.0
 35
0.0
146
0.0
 13
0.0
 23
0.0
 33
0.0
 16
1.0
 26
0.0
 36
0.0
 17
0.0
 27
1.0
 37
0.0
 76
     0
330
23
  0
LAYOUT
  5
22
102
{ACAD_REACTORS
330
1A
102
}
330
1A
100
AcDbPlotSettings
  1

  2
none_device
  4
Letter_(8.50_x_11.00_Inches)
  6

 40
6.35
 41
6.35
 42
6.35000508
 43
6.35000508
 44
215.9
 45
279.4
 46
0.0
 47
0.0
 48
0.0
 49
0.0
140
0.0
141
0.0
142
1.0
143
1.0
 70
  1712
 72
     1
 73
     0
 74
     0
  7

 75
     0
147
1.0
148
0.0
149
0.0
100
AcDbLayout
  1
Model
 70
     1
 71
     0
 10
0.0
 20
0.0
 11
420.0
 21
297.0
 12
0.0
 22
0.0
 32
0.0
 14
0.0
 24
0.0
 34
0.0
 15
420.0
 25
297.0
 35
0.0
146
0.0
 13
0.0
 23
0.0
 33
0.0
 16
1.0
 26
0.0
 36
0.0
 17
0.0
 27
1.0
 37
0.0
 76
     0
330
1F
331
29
  0
MLINESTYLE
  5
18
102
{ACAD_REACTORS
330
17
102
}
330
17
100
AcDbMlineStyle
  2
Standard
 70
     0
  3

 62
   256
 51
90.0
 52
90.0
 71
     2
 49
0.5
 62
   256
  6
BYLAYER
 49
-0.5
 62
   256
  6
BYLAYER
  0
ACDBPLACEHOLDER
  5
F
102
{ACAD_REACTORS
330
E
102
}
330
E
  0
SCALE
  5
48
102
{ACAD_REACTORS
330
47
102
}
330
47
100
AcDbScale
 70
     0
300
1:1
140
1.0
141
1.0
290
     1
  0
SCALE
  5
49
102
{ACAD_REACTORS
330
47
102
}
330
47
100
AcDbScale
 70
     0
300
1:2
140
1.0
141
2.0
290
     0
  0
SCALE
  5
4A
102
{ACAD_REACTORS
330
47
102
}
330
47
100
AcDbScale
 70
     0
300
1:4
140
1.0
141
4.0
290
     0
  0
SCALE
  5
4B
102
{ACAD_REACTORS
330
47
102
}
330
47
100
AcDbScale
 70
     0
300
1:5
140
1.0
141
5.0
290
     0
  0
SCALE
  5
4C
102
{ACAD_REACTORS
330
47
102
}
330
47
100
AcDbScale
 70
     0
300
1:8
140
1.0
141
8.0
290
     0
  0
SCALE
  5
4D
102
{ACAD_REACTORS
330
47
102
}
330
47
100
AcDbScale
 70
     0
300
1:10
140
1.0
141
10.0
290
     0
  0
SCALE
  5
4E
102
{ACAD_REACTORS
330
47
102
}
330
47
100
AcDbScale
 70
     0
300
1:16
140
1.0
141
16.0
290
     0
  0
SCALE
  5
4F
102
{ACAD_REACTORS
330
47
102
}
330
47
100
AcDbScale
 70
     0
300
1:20
140
1.0
141
20.0
290
     0
  0
SCALE
  5
50
102
{ACAD_REACTORS
330
47
102
}
330
47
100
AcDbScale
 70
     0
300
1:30
140
1.0
141
30.0
290
     0
  0
SCALE
  5
51
102
{ACAD_REACTORS
330
47
102
}
330
47
100
AcDbScale
 70
     0
300
1:40
140
1.0
141
40.0
290
     0
  0
SCALE
  5
52
102
{ACAD_REACTORS
330
47
102
}
330
47
100
AcDbScale
 70
     0
300
1:50
140
1.0
141
50.0
290
     0
  0
SCALE
  5
53
102
{ACAD_REACTORS
330
47
102
}
330
47
100
AcDbScale
 70
     0
300
1:100
140
1.0
141
100.0
290
     0
  0
SCALE
  5
54
102
{ACAD_REACTORS
330
47
102
}
330
47
100
AcDbScale
 70
     0
300
2:1
140
2.0
141
1.0
290
     0
  0
SCALE
  5
55
102
{ACAD_REACTORS
330
47
102
}
330
47
100
AcDbScale
 70
     0
300
4:1
140
4.0
141
1.0
290
     0
  0
SCALE
  5
56
102
{ACAD_REACTORS
330
47
102
}
330
47
100
AcDbScale
 70
     0
300
8:1
140
8.0
141
1.0
290
     0
  0
SCALE
  5
57
102
{ACAD_REACTORS
330
47
102
}
330
47
100
AcDbScale
 70
     0
300
10:1
140
10.0
141
1.0
290
     0
  0
SCALE
  5
58
102
{ACAD_REACTORS
330
47
102
}
330
47
100
AcDbScale
 70
     0
300
100:1
140
100.0
141
1.0
290
     0
  0
SCALE
  5
59
102
{ACAD_REACTORS
330
47
102
}
330
47
100
AcDbScale
 70
     0
300
1/128" = 1'-0"
140
0.0078125
141
12.0
290
     0
  0
SCALE
  5
5A
102
{ACAD_REACTORS
330
47
102
}
330
47
100
AcDbScale
 70
     0
300
1/64" = 1'-0"
140
0.015625
141
12.0
290
     0
  0
SCALE
  5
5B
102
{ACAD_REACTORS
330
47
102
}
330
47
100
AcDbScale
 70
     0
300
1/32" = 1'-0"
140
0.03125
141
12.0
290
     0
  0
SCALE
  5
5C
102
{ACAD_REACTORS
330
47
102
}
330
47
100
AcDbScale
 70
     0
300
1/16" = 1'-0"
140
0.0625
141
12.0
290
     0
  0
SCALE
  5
5D
102
{ACAD_REACTORS
330
47
102
}
330
47
100
AcDbScale
 70
     0
300
3/32" = 1'-0"
140
0.09375
141
12.0
290
     0
  0
SCALE
  5
5E
102
{ACAD_REACTORS
330
47
102
}
330
47
100
AcDbScale
 70
     0
300
1/8" = 1'-0"
140
0.125
141
12.0
290
     0
  0
SCALE
  5
5F
102
{ACAD_REACTORS
330
47
102
}
330
47
100
AcDbScale
 70
     0
300
3/16" = 1'-0"
140
0.1875
141
12.0
290
     0
  0
SCALE
  5
60
102
{ACAD_REACTORS
330
47
102
}
330
47
100
AcDbScale
 70
     0
300
1/4" = 1'-0"
140
0.25
141
12.0
290
     0
  0
SCALE
  5
61
102
{ACAD_REACTORS
330
47
102
}
330
47
100
AcDbScale
 70
     0
300
3/8" = 1'-0"
140
0.375
141
12.0
290
     0
  0
SCALE
  5
62
102
{ACAD_REACTORS
330
47
102
}
330
47
100
AcDbScale
 70
     0
300
1/2" = 1'-0"
140
0.5
141
12.0
290
     0
  0
SCALE
  5
63
102
{ACAD_REACTORS
330
47
102
}
330
47
100
AcDbScale
 70
     0
300
3/4" = 1'-0"
140
0.75
141
12.0
290
     0
  0
SCALE
  5
64
102
{ACAD_REACTORS
330
47
102
}
330
47
100
AcDbScale
 70
     0
300
1" = 1'-0"
140
1.0
141
12.0
290
     0
  0
SCALE
  5
65
102
{ACAD_REACTORS
330
47
102
}
330
47
100
AcDbScale
 70
     0
300
1-1/2" = 1'-0"
140
1.5
141
12.0
290
     0
  0
SCALE
  5
66
102
{ACAD_REACTORS
330
47
102
}
330
47
100
AcDbScale
 70
     0
300
3" = 1'-0"
140
3.0
141
12.0
290
     0
  0
SCALE
  5
67
102
{ACAD_REACTORS
330
47
102
}
330
47
100
AcDbScale
 70
     0
300
6" = 1'-0"
140
6.0
141
12.0
290
     0
  0
SCALE
  5
68
102
{ACAD_REACTORS
330
47
102
}
330
47
100
AcDbScale
 70
     0
300
1'-0" = 1'-0"
140
12.0
141
12.0
290
     0
  0
ENDSEC
  0
EOF
