  0
SECTION
  2
HEADER
  9
$ACADVER
  1
AC1015
  9
$ACADMAINTVER
 70
     6
  9
$DWGCODEPAGE
  3
ANSI_1250
  9
$INSBASE
 10
0.0
 20
0.0
 30
0.0
  9
$EXTMIN
 10
0.0
 20
0.0
 30
0.0
  9
$EXTMAX
 10
420.0
 20
297.0
 30
0.0
  9
$LIMMIN
 10
0.0
 20
0.0
  9
$LIMMAX
 10
420.0
 20
297.0
  9
$ORTHOMODE
 70
     0
  9
$REGENMODE
 70
     1
  9
$FILLMODE
 70
     1
  9
$QTEXTMODE
 70
     0
  9
$MIRRTEXT
 70
     1
  9
$LTSCALE
 40
1.0
  9
$ATTMODE
 70
     1
  9
$TEXTSIZE
 40
3.5
  9
$TRACEWID
 40
1.0
  9
$TEXTSTYLE
  7
Standard
  9
$CLAYER
  8
0
  9
$CELTYPE
  6
ByLayer
  9
$CECOLOR
 62
   256
  9
$CELTSCALE
 40
1.0
  9
$DISPSILH
 70
     0
  9
$DIMSCALE
 40
1.0
  9
$DIMASZ
 40
3.302
  9
$DIMEXO
 40
1.0
  9
$DIMDLI
 40
3.75
  9
$DIMRND
 40
0.0
  9
$DIMDLE
 40
0.0
  9
$DIMEXE
 40
1.0
  9
$DIMTP
 40
0.0
  9
$DIMTM
 40
0.0
  9
$DIMTXT
 40
3.5
  9
$DIMCEN
 40
2.5
  9
$DIMTSZ
 40
0.0
  9
$DIMTOL
 70
     0
  9
$DIMLIM
 70
     0
  9
$DIMTIH
 70
     1
  9
$DIMTOH
 70
     1
  9
$DIMSE1
 70
     0
  9
$DIMSE2
 70
     0
  9
$DIMTAD
 70
     1
  9
$DIMZIN
 70
     1
  9
$DIMBLK
  1

  9
$DIMASO
 70
     1
  9
$DIMSHO
 70
     1
  9
$DIMPOST
  1

  9
$DIMAPOST
  1

  9
$DIMALT
 70
     0
  9
$DIMALTD
 70
     3
  9
$DIMALTF
 40
0.0393700787
  9
$DIMLFAC
 40
1.0
  9
$DIMTOFL
 70
     1
  9
$DIMTVP
 40
0.0
  9
$DIMTIX
 70
     0
  9
$DIMSOXD
 70
     0
  9
$DIMSAH
 70
     0
  9
$DIMBLK1
  1

  9
$DIMBLK2
  1

  9
$DIMSTYLE
  2
ISO-25
  9
$DIMCLRD
 70
     0
  9
$DIMCLRE
 70
     0
  9
$DIMCLRT
 70
     0
  9
$DIMTFAC
 40
1.0
  9
$DIMGAP
 40
1.524
  9
$DIMJUST
 70
     0
  9
$DIMSD1
 70
     0
  9
$DIMSD2
 70
     0
  9
$DIMTOLJ
 70
     0
  9
$DIMTZIN
 70
     1
  9
$DIMALTZ
 70
     0
  9
$DIMALTTZ
 70
     0
  9
$DIMUPT
 70
     0
  9
$DIMDEC
 70
     2
  9
$DIMTDEC
 70
     2
  9
$DIMALTU
 70
     2
  9
$DIMALTTD
 70
     3
  9
$DIMTXSTY
  7
Standard
  9
$DIMAUNIT
 70
     0
  9
$DIMADEC
 70
     2
  9
$DIMALTRND
 40
0.0
  9
$DIMAZIN
 70
     0
  9
$DIMDSEP
 70
    44
  9
$DIMATFIT
 70
     3
  9
$DIMFRAC
 70
     0
  9
$DIMLDRBLK
  1

  9
$DIMLUNIT
 70
     2
  9
$DIMLWD
 70
    -2
  9
$DIMLWE
 70
    -2
  9
$DIMTMOVE
 70
     0
  9
$LUNITS
 70
     2
  9
$LUPREC
 70
     2
  9
$SKETCHINC
 40
1.0
  9
$FILLETRAD
 40
10.0
  9
$AUNITS
 70
     0
  9
$AUPREC
 70
     2
  9
$MENU
  1
.
  9
$ELEVATION
 40
0.0
  9
$PELEVATION
 40
0.0
  9
$THICKNESS
 40
0.0
  9
$LIMCHECK
 70
     0
  9
$CHAMFERA
 40
0.0
  9
$CHAMFERB
 40
0.0
  9
$CHAMFERC
 40
0.0
  9
$CHAMFERD
 40
0.0
  9
$SKPOLY
 70
     0
  9
$TDCREATE
 40
2460353.654106343
  9
$TDUCREATE
 40
2460353.612439676
  9
$TDUPDATE
 40
2460353.65410941
  9
$TDUUPDATE
 40
2460353.612442743
  9
$TDINDWG
 40
0.0000000116
  9
$TDUSRTIMER
 40
0.0000000116
  9
$USRTIMER
 70
     1
  9
$ANGBASE
 50
0.0
  9
$ANGDIR
 70
     0
  9
$PDMODE
 70
     0
  9
$PDSIZE
 40
-1.0
  9
$PLINEWID
 40
0.0
  9
$SPLFRAME
 70
     0
  9
$SPLINETYPE
 70
     6
  9
$SPLINESEGS
 70
     8
  9
$HANDSEED
  5
3E4
  9
$SURFTAB1
 70
     6
  9
$SURFTAB2
 70
     6
  9
$SURFTYPE
 70
     6
  9
$SURFU
 70
     6
  9
$SURFV
 70
     6
  9
$UCSBASE
  2

  9
$UCSNAME
  2

  9
$UCSORG
 10
0.0
 20
0.0
 30
0.0
  9
$UCSXDIR
 10
1.0
 20
0.0
 30
0.0
  9
$UCSYDIR
 10
0.0
 20
1.0
 30
0.0
  9
$UCSORTHOREF
  2

  9
$UCSORTHOVIEW
 70
     0
  9
$UCSORGTOP
 10
0.0
 20
0.0
 30
0.0
  9
$UCSORGBOTTOM
 10
0.0
 20
0.0
 30
0.0
  9
$UCSORGLEFT
 10
0.0
 20
0.0
 30
0.0
  9
$UCSORGRIGHT
 10
0.0
 20
0.0
 30
0.0
  9
$UCSORGFRONT
 10
0.0
 20
0.0
 30
0.0
  9
$UCSORGBACK
 10
0.0
 20
0.0
 30
0.0
  9
$PUCSBASE
  2

  9
$PUCSNAME
  2

  9
$PUCSORG
 10
0.0
 20
0.0
 30
0.0
  9
$PUCSXDIR
 10
1.0
 20
0.0
 30
0.0
  9
$PUCSYDIR
 10
0.0
 20
1.0
 30
0.0
  9
$PUCSORTHOREF
  2

  9
$PUCSORTHOVIEW
 70
     0
  9
$PUCSORGTOP
 10
0.0
 20
0.0
 30
0.0
  9
$PUCSORGBOTTOM
 10
0.0
 20
0.0
 30
0.0
  9
$PUCSORGLEFT
 10
0.0
 20
0.0
 30
0.0
  9
$PUCSORGRIGHT
 10
0.0
 20
0.0
 30
0.0
  9
$PUCSORGFRONT
 10
0.0
 20
0.0
 30
0.0
  9
$PUCSORGBACK
 10
0.0
 20
0.0
 30
0.0
  9
$USERI1
 70
     0
  9
$USERI2
 70
     0
  9
$USERI3
 70
     0
  9
$USERI4
 70
     0
  9
$USERI5
 70
     0
  9
$USERR1
 40
0.0
  9
$USERR2
 40
0.0
  9
$USERR3
 40
0.0
  9
$USERR4
 40
0.0
  9
$USERR5
 40
0.0
  9
$WORLDVIEW
 70
     1
  9
$SHADEDGE
 70
     3
  9
$SHADEDIF
 70
    70
  9
$TILEMODE
 70
     1
  9
$MAXACTVP
 70
    64
  9
$PINSBASE
 10
0.0
 20
0.0
 30
0.0
  9
$PLIMCHECK
 70
     0
  9
$PEXTMIN
 10
1.0000000000E+20
 20
1.0000000000E+20
 30
1.0000000000E+20
  9
$PEXTMAX
 10
-1.0000000000E+20
 20
-1.0000000000E+20
 30
-1.0000000000E+20
  9
$PLIMMIN
 10
0.0
 20
0.0
  9
$PLIMMAX
 10
420.0
 20
297.0
  9
$UNITMODE
 70
     0
  9
$VISRETAIN
 70
     1
  9
$PLINEGEN
 70
     0
  9
$PSLTSCALE
 70
     1
  9
$TREEDEPTH
 70
  3020
  9
$CMLSTYLE
  2
Standard
  9
$CMLJUST
 70
     0
  9
$CMLSCALE
 40
20.0
  9
$PROXYGRAPHICS
 70
     1
  9
$MEASUREMENT
 70
     1
  9
$CELWEIGHT
370
    -1
  9
$ENDCAPS
280
     0
  9
$JOINSTYLE
280
     0
  9
$LWDISPLAY
290
     1
  9
$INSUNITS
 70
     4
  9
$HYPERLINKBASE
  1

  9
$STYLESHEET
  1

  9
$XEDIT
290
     1
  9
$CEPSNTYPE
380
     0
  9
$PSTYLEMODE
290
     1
  9
$FINGERPRINTGUID
  2
{d31b8d5d-9180-437b-98b0-1e890e32d00d}
  9
$VERSIONGUID
  2
{FAEB1C32-E019-11D5-929B-00C0DF256EC4}
  9
$EXTNAMES
290
     1
  9
$PSVPSCALE
 40
0.0
  9
$OLESTARTUP
290
     0
  0
ENDSEC
  0
SECTION
  2
CLASSES
  0
CLASS
  1
ACDBDICTIONARYWDFLT
  2
AcDbDictionaryWithDefault
  3
ObjectDBX Classes
 90
        0
280
     0
281
     0
  0
CLASS
  1
VISUALSTYLE
  2
AcDbVisualStyle
  3
ObjectDBX Classes
 90
     4095
280
     0
281
     0
  0
CLASS
  1
MATERIAL
  2
AcDbMaterial
  3
ObjectDBX Classes
 90
     1153
280
     0
281
     0
  0
CLASS
  1
SCALE
  2
AcDbScale
  3
ObjectDBX Classes
 90
     1153
280
     0
281
     0
  0
CLASS
  1
TABLESTYLE
  2
AcDbTableStyle
  3
ObjectDBX Classes
 90
     4095
280
     0
281
     0
  0
CLASS
  1
MLEADERSTYLE
  2
AcDbMLeaderStyle
  3
ACDB_MLEADERSTYLE_CLASS
 90
     4095
280
     0
281
     0
  0
CLASS
  1
SUN
  2
AcDbSun
  3
SCENEOE
 90
     1153
280
     0
281
     0
  0
CLASS
  1
ACDBPLACEHOLDER
  2
AcDbPlaceHolder
  3
ObjectDBX Classes
 90
        0
280
     0
281
     0
  0
CLASS
  1
LAYOUT
  2
AcDbLayout
  3
ObjectDBX Classes
 90
        0
280
     0
281
     0
  0
ENDSEC
  0
SECTION
  2
TABLES
  0
TABLE
  2
VPORT
  5
8
330
0
100
AcDbSymbolTable
 70
     1
  0
VPORT
  5
29
330
8
100
AcDbSymbolTableRecord
100
AcDbViewportTableRecord
  2
*Active
 70
     0
 10
0.0
 20
0.0
 11
1.0
 21
1.0
 12
210.0
 22
148.5
 13
0.0
 23
0.0
 14
10.0
 24
10.0
 15
10.0
 25
10.0
 16
0.0
 26
0.0
 36
1.0
 17
0.0
 27
0.0
 37
0.0
 40
297.0
 41
1.4141414141
 42
50.0
 43
0.0
 44
0.0
 50
0.0
 51
0.0
 71
     0
 72
  2000
 73
     1
 74
     3
 75
     0
 76
     0
 77
     0
 78
     0
281
     0
 65
     1
110
0.0
120
0.0
130
0.0
111
1.0
121
0.0
131
0.0
112
0.0
122
1.0
132
0.0
 79
     0
146
0.0
  0
ENDTAB
  0
TABLE
  2
LTYPE
  5
5
330
0
100
AcDbSymbolTable
 70
     6
  0
LTYPE
  5
14
330
5
100
AcDbSymbolTableRecord
100
AcDbLinetypeTableRecord
  2
ByBlock
 70
     0
  3

 72
    65
 73
     0
 40
0.0
  0
LTYPE
  5
15
330
5
100
AcDbSymbolTableRecord
100
AcDbLinetypeTableRecord
  2
ByLayer
 70
     0
  3

 72
    65
 73
     0
 40
0.0
  0
LTYPE
  5
16
330
5
100
AcDbSymbolTableRecord
100
AcDbLinetypeTableRecord
  2
Continuous
 70
     0
  3
Solid line
 72
    65
 73
     0
 40
0.0
  0
LTYPE
  5
6E
330
5
100
AcDbSymbolTableRecord
100
AcDbLinetypeTableRecord
  2
HIDDEN
 70
     0
  3
Hidden __ __ __ __ __ __ __ __ __ __ __ __ __ __
 72
    65
 73
     2
 40
1.905
 49
1.27
 74
     0
 49
-0.635
 74
     0
  0
LTYPE
  5
6F
330
5
100
AcDbSymbolTableRecord
100
AcDbLinetypeTableRecord
  2
PHANTOM
 70
     0
  3
Phantom ______  __  __  ______  __  __  ______
 72
    65
 73
     6
 40
12.7
 49
6.35
 74
     0
 49
-1.27
 74
     0
 49
1.27
 74
     0
 49
-1.27
 74
     0
 49
1.27
 74
     0
 49
-1.27
 74
     0
  0
LTYPE
  5
70
330
5
100
AcDbSymbolTableRecord
100
AcDbLinetypeTableRecord
  2
CENTER
 70
     0
  3
Center ____ _ ____ _ ____ _ ____ _ ____ _ ____
 72
    65
 73
     4
 40
10.16
 49
6.35
 74
     0
 49
-1.27
 74
     0
 49
1.27
 74
     0
 49
-1.27
 74
     0
  0
LTYPE
  5
71
330
5
100
AcDbSymbolTableRecord
100
AcDbLinetypeTableRecord
  2
CENTERX2
 70
     0
  3
Center (2x) ________  __  ________  __  _____
 72
    65
 73
     4
 40
20.32
 49
12.7
 74
     0
 49
-2.54
 74
     0
 49
2.54
 74
     0
 49
-2.54
 74
     0
  0
LTYPE
  5
72
330
5
100
AcDbSymbolTableRecord
100
AcDbLinetypeTableRecord
  2
DOT2
 70
     0
  3
Dot (.5x) ........................................
 72
    65
 73
     2
 40
0.635
 49
0.0
 74
     0
 49
-0.635
 74
     0
  0
ENDTAB
  0
TABLE
  2
LAYER
  5
2
330
0
100
AcDbSymbolTable
 70
     2
  0
LAYER
  5
10
330
2
100
AcDbSymbolTableRecord
100
AcDbLayerTableRecord
  2
0
 70
     0
 62
     7
  6
Continuous
370
    -3
390
F
  0
LAYER
  5
73
330
2
100
AcDbSymbolTableRecord
100
AcDbLayerTableRecord
  2
FORMAT
 70
     0
 62
     7
  6
Continuous
370
    -3
390
F
  0
ENDTAB
  0
TABLE
  2
STYLE
  5
3
330
0
100
AcDbSymbolTable
 70
     4
  0
STYLE
  5
11
330
3
100
AcDbSymbolTableRecord
100
AcDbTextStyleTableRecord
  2
Standard
 70
     0
 40
0.0
 41
1.0
 50
0.0
 71
     0
 42
3.5
  3
txt
  4

  0
STYLE
  5
B1
330
3
100
AcDbSymbolTableRecord
100
AcDbTextStyleTableRecord
  2
SLDTEXTSTYLE0
 70
     0
 40
0.0
 41
0.75
 50
0.0
 71
     0
 42
3.5
  3
TXT
  4

  0
STYLE
  5
D1
330
3
100
AcDbSymbolTableRecord
100
AcDbTextStyleTableRecord
  2
SLDTEXTSTYLE1
 70
     0
 40
0.0
 41
0.6875
 50
0.0
 71
     0
 42
3.5
  3
TXT
  4
bigfont
  0
STYLE
  5
D3
330
3
100
AcDbSymbolTableRecord
100
AcDbTextStyleTableRecord
  2
SLDTEXTSTYLE2
 70
     0
 40
0.0
 41
0.75
 50
0.0
 71
     0
 42
3.5
  3
TXT
  4
bigfont
  0
ENDTAB
  0
TABLE
  2
VIEW
  5
6
330
0
100
AcDbSymbolTable
 70
     0
  0
ENDTAB
  0
TABLE
  2
UCS
  5
7
330
0
100
AcDbSymbolTable
 70
     0
  0
ENDTAB
  0
TABLE
  2
APPID
  5
9
330
0
100
AcDbSymbolTable
 70
     1
  0
APPID
  5
12
330
9
100
AcDbSymbolTableRecord
100
AcDbRegAppTableRecord
  2
ACAD
 70
     0
  0
ENDTAB
  0
TABLE
  2
DIMSTYLE
  5
A
330
0
100
AcDbSymbolTable
 70
     8
100
AcDbDimStyleTable
  0
DIMSTYLE
105
27
330
A
100
AcDbSymbolTableRecord
100
AcDbDimStyleTableRecord
  2
ISO-25
 70
     0
 41
2.5
 42
0.625
 43
3.75
 44
1.25
 73
     0
 74
     0
 77
     1
 78
     8
140
2.5
141
2.5
143
0.0393700787
147
0.625
171
     3
172
     1
178
     0
271
     2
272
     2
274
     3
278
    44
283
     0
284
     8
340
11
  0
DIMSTYLE
105
119
102
{ACAD_REACTORS
330
118
330
123
330
22E
330
25E
330
268
330
37C
330
39A
102
}
330
A
100
AcDbSymbolTableRecord
100
AcDbDimStyleTableRecord
  2
SLDDIMSTYLE0
 70
     0
 41
3.302
 44
0.0
 45
0.000000001
 73
     0
 74
     0
 77
     1
 78
    12
 79
     3
140
3.5
147
0.875
173
     1
178
     0
271
     0
272
     0
276
     2
284
    12
340
B1
  0
DIMSTYLE
105
12E
102
{ACAD_REACTORS
330
12D
102
}
330
A
100
AcDbSymbolTableRecord
100
AcDbDimStyleTableRecord
  2
SLDDIMSTYLE1
 70
     0
  3
<>
 41
3.302
 44
0.0
 45
0.000000001
 73
     0
 74
     0
 77
     1
 78
    12
 79
     3
140
3.5
141
0.0
147
0.875
172
     1
173
     1
178
     0
271
     1
272
     1
276
     2
284
    12
340
B1
341
12F
343
12F
  0
DIMSTYLE
105
220
102
{ACAD_REACTORS
330
21F
330
239
330
245
330
252
330
390
102
}
330
A
100
AcDbSymbolTableRecord
100
AcDbDimStyleTableRecord
  2
SLDDIMSTYLE2
 70
     0
 41
3.302
 44
0.0
 45
0.000000001
 73
     0
 74
     0
 77
     1
 78
    12
 79
     3
140
3.5
147
0.875
172
     1
173
     1
178
     0
271
     0
272
     0
276
     2
284
    12
289
     0
340
B1
  0
DIMSTYLE
105
274
102
{ACAD_REACTORS
330
273
102
}
330
A
100
AcDbSymbolTableRecord
100
AcDbDimStyleTableRecord
  2
SLDDIMSTYLE3
 70
     0
 41
3.302
 44
0.0
 45
0.000000001
 73
     0
 74
     0
 77
     1
 78
    12
 79
     3
140
3.5
141
0.0
147
0.875
172
     1
173
     1
178
     0
271
     1
272
     2
276
     2
284
    12
340
B1
341
12F
343
12F
  0
DIMSTYLE
105
27E
102
{ACAD_REACTORS
330
27D
102
}
330
A
100
AcDbSymbolTableRecord
100
AcDbDimStyleTableRecord
  2
SLDDIMSTYLE4
 70
     0
  3
<>
 41
3.302
 44
0.0
 45
0.000000001
 73
     0
 74
     0
 77
     1
 78
    12
 79
     3
140
3.5
141
0.0
147
0.875
172
     1
173
     1
178
     0
271
     2
272
     2
276
     2
284
    12
340
B1
341
12F
343
12F
  0
DIMSTYLE
105
387
102
{ACAD_REACTORS
330
386
102
}
330
A
100
AcDbSymbolTableRecord
100
AcDbDimStyleTableRecord
  2
SLDDIMSTYLE5
 70
     0
 41
3.302
 44
0.0
 45
0.000000001
 73
     0
 74
     0
 77
     1
 78
    12
 79
     3
140
3.5
141
0.0
147
0.875
172
     1
173
     1
178
     0
271
     1
272
     1
276
     2
284
    12
340
B1
341
12F
343
12F
  0
DIMSTYLE
105
3A5
102
{ACAD_REACTORS
330
3A4
102
}
330
A
100
AcDbSymbolTableRecord
100
AcDbDimStyleTableRecord
  2
SLDDIMSTYLE6
 70
     0
 41
3.302
 44
0.0
 45
0.000000001
 73
     0
 74
     0
 77
     1
 78
    12
 79
     3
140
3.5
147
0.875
173
     1
178
     0
271
     1
272
     1
276
     2
284
    12
340
B1
  0
ENDTAB
  0
TABLE
  2
BLOCK_RECORD
  5
1
330
0
100
AcDbSymbolTable
 70
    28
  0
BLOCK_RECORD
  5
1F
330
1
100
AcDbSymbolTableRecord
100
AcDbBlockTableRecord
  2
*Model_Space
340
22
  0
BLOCK_RECORD
  5
1B
330
1
100
AcDbSymbolTableRecord
100
AcDbBlockTableRecord
  2
*Paper_Space
340
1E
  0
BLOCK_RECORD
  5
23
330
1
100
AcDbSymbolTableRecord
100
AcDbBlockTableRecord
  2
*Paper_Space0
340
26
  0
BLOCK_RECORD
  5
DD
330
1
100
AcDbSymbolTableRecord
100
AcDbBlockTableRecord
  2
SW_NOTE_0
340
0
102
{BLKREFS
331
E2
102
}
  0
BLOCK_RECORD
  5
E4
330
1
100
AcDbSymbolTableRecord
100
AcDbBlockTableRecord
  2
SW_NOTE_0_1
340
0
102
{BLKREFS
331
ED
102
}
  0
BLOCK_RECORD
  5
11A
330
1
100
AcDbSymbolTableRecord
100
AcDbBlockTableRecord
  2
_D
340
0
  0
BLOCK_RECORD
  5
124
330
1
100
AcDbSymbolTableRecord
100
AcDbBlockTableRecord
  2
_D_1
340
0
  0
BLOCK_RECORD
  5
12F
330
1
100
AcDbSymbolTableRecord
100
AcDbBlockTableRecord
  2
_None
340
0
  0
BLOCK_RECORD
  5
132
330
1
100
AcDbSymbolTableRecord
100
AcDbBlockTableRecord
  2
_D_2
340
0
  0
BLOCK_RECORD
  5
139
330
1
100
AcDbSymbolTableRecord
100
AcDbBlockTableRecord
  2
SW_CENTERMARKSYMBOL_0
340
0
102
{BLKREFS
331
144
102
}
  0
BLOCK_RECORD
  5
221
330
1
100
AcDbSymbolTableRecord
100
AcDbBlockTableRecord
  2
_D_3
340
0
  0
BLOCK_RECORD
  5
22F
330
1
100
AcDbSymbolTableRecord
100
AcDbBlockTableRecord
  2
_D_4
340
0
  0
BLOCK_RECORD
  5
23A
330
1
100
AcDbSymbolTableRecord
100
AcDbBlockTableRecord
  2
_D_5
340
0
  0
BLOCK_RECORD
  5
246
330
1
100
AcDbSymbolTableRecord
100
AcDbBlockTableRecord
  2
_D_6
340
0
  0
BLOCK_RECORD
  5
253
330
1
100
AcDbSymbolTableRecord
100
AcDbBlockTableRecord
  2
_D_7
340
0
  0
BLOCK_RECORD
  5
25F
330
1
100
AcDbSymbolTableRecord
100
AcDbBlockTableRecord
  2
_D_8
340
0
  0
BLOCK_RECORD
  5
269
330
1
100
AcDbSymbolTableRecord
100
AcDbBlockTableRecord
  2
_D_9
340
0
  0
BLOCK_RECORD
  5
275
330
1
100
AcDbSymbolTableRecord
100
AcDbBlockTableRecord
  2
_D_10
340
0
  0
BLOCK_RECORD
  5
27F
330
1
100
AcDbSymbolTableRecord
100
AcDbBlockTableRecord
  2
_D_11
340
0
  0
BLOCK_RECORD
  5
287
330
1
100
AcDbSymbolTableRecord
100
AcDbBlockTableRecord
  2
SW_CENTERMARKSYMBOL_1
340
0
102
{BLKREFS
331
292
102
}
  0
BLOCK_RECORD
  5
293
330
1
100
AcDbSymbolTableRecord
100
AcDbBlockTableRecord
  2
SW_CENTERMARKSYMBOL_2
340
0
102
{BLKREFS
331
29E
102
}
  0
BLOCK_RECORD
  5
37D
330
1
100
AcDbSymbolTableRecord
100
AcDbBlockTableRecord
  2
_D_12
340
0
  0
BLOCK_RECORD
  5
388
330
1
100
AcDbSymbolTableRecord
100
AcDbBlockTableRecord
  2
_D_13
340
0
  0
BLOCK_RECORD
  5
391
330
1
100
AcDbSymbolTableRecord
100
AcDbBlockTableRecord
  2
_D_14
340
0
  0
BLOCK_RECORD
  5
39B
330
1
100
AcDbSymbolTableRecord
100
AcDbBlockTableRecord
  2
_D_15
340
0
  0
BLOCK_RECORD
  5
3A6
330
1
100
AcDbSymbolTableRecord
100
AcDbBlockTableRecord
  2
_D_16
340
0
  0
BLOCK_RECORD
  5
3AF
330
1
100
AcDbSymbolTableRecord
100
AcDbBlockTableRecord
  2
SW_CENTERMARKSYMBOL_3
340
0
102
{BLKREFS
331
3BA
102
}
  0
BLOCK_RECORD
  5
3BB
330
1
100
AcDbSymbolTableRecord
100
AcDbBlockTableRecord
  2
SW_CENTERMARKSYMBOL_4
340
0
102
{BLKREFS
331
3C6
102
}
  0
BLOCK_RECORD
  5
3C7
330
1
100
AcDbSymbolTableRecord
100
AcDbBlockTableRecord
  2
SW_CENTERMARKSYMBOL_5
340
0
102
{BLKREFS
331
3D2
102
}
  0
BLOCK_RECORD
  5
3D3
330
1
100
AcDbSymbolTableRecord
100
AcDbBlockTableRecord
  2
SW_CENTERMARKSYMBOL_6
340
0
102
{BLKREFS
331
3DE
102
}
  0
ENDTAB
  0
ENDSEC
  0
SECTION
  2
BLOCKS
  0
BLOCK
  5
20
330
1F
100
AcDbEntity
  8
0
100
AcDbBlockBegin
  2
*Model_Space
 70
     0
 10
0.0
 20
0.0
 30
0.0
  3
*Model_Space
  1

  0
ENDBLK
  5
21
330
1F
100
AcDbEntity
  8
0
100
AcDbBlockEnd
  0
BLOCK
  5
1C
330
1B
100
AcDbEntity
 67
     1
  8
0
100
AcDbBlockBegin
  2
*Paper_Space
 70
     0
 10
0.0
 20
0.0
 30
0.0
  3
*Paper_Space
  1

  0
ENDBLK
  5
1D
330
1B
100
AcDbEntity
 67
     1
  8
0
100
AcDbBlockEnd
  0
BLOCK
  5
24
330
23
100
AcDbEntity
  8
0
100
AcDbBlockBegin
  2
*Paper_Space0
 70
     0
 10
0.0
 20
0.0
 30
0.0
  3
*Paper_Space0
  1

  0
ENDBLK
  5
25
330
23
100
AcDbEntity
  8
0
100
AcDbBlockEnd
  0
BLOCK
  5
DE
330
DD
100
AcDbEntity
  8
0
100
AcDbBlockBegin
  2
SW_NOTE_0
 70
     0
 10
0.0
 20
0.0
 30
0.0
  3
SW_NOTE_0
  1

  0
MTEXT
  5
E0
330
DD
100
AcDbEntity
  8
0
  6
Continuous
 62
     0
370
     0
100
AcDbMText
 10
0.0
 20
1.9336016097
 30
0.0
 40
1.5
 41
0.0
 71
     1
 72
     1
  1
ODSTRANIT
  7
SLDTEXTSTYLE0
 73
     1
 44
1.0
  0
MTEXT
  5
E1
330
DD
100
AcDbEntity
  8
0
  6
Continuous
 62
     0
370
     0
100
AcDbMText
 10
0.0
 20
-0.5663983345
 30
0.0
 40
1.5
 41
0.0
 71
     1
 72
     1
  1
OSTRÉ HRANY
  7
SLDTEXTSTYLE0
 73
     1
 44
1.0
  0
ENDBLK
  5
DF
330
DD
100
AcDbEntity
  8
0
100
AcDbBlockEnd
  0
BLOCK
  5
E5
330
E4
100
AcDbEntity
  8
0
100
AcDbBlockBegin
  2
SW_NOTE_0_1
 70
     0
 10
0.0
 20
0.0
 30
0.0
  3
SW_NOTE_0_1
  1

  0
MTEXT
  5
E7
330
E4
100
AcDbEntity
  8
0
  6
Continuous
 62
     0
370
     0
100
AcDbMText
 10
0.0
 20
1.9336016097
 30
0.0
 40
1.5
 41
0.0
 71
     1
 72
     1
  1
POKUD NENÍ UVEDENO JINAK:
  7
SLDTEXTSTYLE0
 73
     1
 44
1.0
  0
MTEXT
  5
E8
330
E4
100
AcDbEntity
  8
0
  6
Continuous
 62
     0
370
     0
100
AcDbMText
 10
0.0
 20
-0.5663983345
 30
0.0
 40
1.5
 41
0.0
 71
     1
 72
     1
  1
JEDNOTKY JSOU V MILIMETRECH
  7
SLDTEXTSTYLE0
 73
     1
 44
1.0
  0
MTEXT
  5
E9
330
E4
100
AcDbEntity
  8
0
  6
Continuous
 62
     0
370
     0
100
AcDbMText
 10
0.0
 20
-3.0663982786
 30
0.0
 40
1.5
 41
0.0
 71
     1
 72
     1
  1
DRSNOST:
  7
SLDTEXTSTYLE0
 73
     1
 44
1.0
  0
MTEXT
  5
EA
330
E4
100
AcDbEntity
  8
0
  6
Continuous
 62
     0
370
     0
100
AcDbMText
 10
0.0
 20
-5.5663982227
 30
0.0
 40
1.5
 41
0.0
 71
     1
 72
     1
  1
TOLERANCE:
  7
SLDTEXTSTYLE0
 73
     1
 44
1.0
  0
MTEXT
  5
EB
330
E4
100
AcDbEntity
  8
0
  6
Continuous
 62
     0
370
     0
100
AcDbMText
 10
1.6875
 20
-8.0663981668
 30
0.0
 40
1.5
 41
0.0
 71
     1
 72
     1
  1
LINEÁRNÍ:
  7
SLDTEXTSTYLE0
 73
     1
 44
1.0
  0
MTEXT
  5
EC
330
E4
100
AcDbEntity
  8
0
  6
Continuous
 62
     0
370
     0
100
AcDbMText
 10
1.6875
 20
-10.5663981109
 30
0.0
 40
1.5
 41
0.0
 71
     1
 72
     1
  1
ÚHLOVÁ:
  7
SLDTEXTSTYLE0
 73
     1
 44
1.0
  0
ENDBLK
  5
E6
330
E4
100
AcDbEntity
  8
0
100
AcDbBlockEnd
  0
BLOCK
  5
11B
330
11A
100
AcDbEntity
  8
0
100
AcDbBlockBegin
  2
_D
 70
     0
 10
0.0
 20
0.0
 30
0.0
  3
_D
  1

  0
SOLID
  5
11D
330
11A
100
AcDbEntity
  8
0
  6
Continuous
 62
     7
370
    18
100
AcDbTrace
 10
85.94
 20
179.06
 30
0.0
 11
86.448
 21
182.362
 31
0.0
 12
85.432
 22
182.362
 32
0.0
 13
85.432
 23
182.362
 33
0.0
  0
SOLID
  5
11E
330
11A
100
AcDbEntity
  8
0
  6
Continuous
 62
     7
370
    18
100
AcDbTrace
 10
85.94
 20
214.06
 30
0.0
 11
85.432
 21
210.758
 31
0.0
 12
86.448
 22
210.758
 32
0.0
 13
86.448
 23
210.758
 33
0.0
  0
LINE
  5
11F
330
11A
100
AcDbEntity
  8
0
  6
Continuous
 62
     7
370
     0
100
AcDbLine
 10
95.24
 20
179.06
 30
0.0
 11
84.94
 21
179.06
 31
0.0
  0
LINE
  5
120
330
11A
100
AcDbEntity
  8
0
  6
Continuous
 62
     7
370
     0
100
AcDbLine
 10
95.24
 20
214.06
 30
0.0
 11
84.94
 21
214.06
 31
0.0
  0
LINE
  5
121
330
11A
100
AcDbEntity
  8
0
  6
Continuous
 62
     7
370
     0
100
AcDbLine
 10
85.94
 20
179.06
 30
0.0
 11
85.94
 21
214.06
 31
0.0
  0
MTEXT
  5
122
330
11A
100
AcDbEntity
  8
0
  6
Continuous
 62
     7
370
    18
100
AcDbMText
 10
81.4282630854
 20
193.9738888065
 30
0.0
 40
3.5
 41
0.0
 71
     1
 72
     1
  1
35
  7
SLDTEXTSTYLE0
 11
6.123233995736766E-17
 21
1.0
 31
0.0
 73
     1
 44
1.0
  0
ENDBLK
  5
11C
330
11A
100
AcDbEntity
  8
0
100
AcDbBlockEnd
  0
BLOCK
  5
125
330
124
100
AcDbEntity
  8
0
100
AcDbBlockBegin
  2
_D_1
 70
     0
 10
0.0
 20
0.0
 30
0.0
  3
_D_1
  1

  0
SOLID
  5
127
330
124
100
AcDbEntity
  8
0
  6
Continuous
 62
     7
370
    18
100
AcDbTrace
 10
150.94
 20
224.06
 30
0.0
 11
147.638
 21
224.568
 31
0.0
 12
147.638
 22
223.552
 32
0.0
 13
147.638
 23
223.552
 33
0.0
  0
SOLID
  5
128
330
124
100
AcDbEntity
  8
0
  6
Continuous
 62
     7
370
    18
100
AcDbTrace
 10
95.94
 20
224.06
 30
0.0
 11
99.242
 21
223.552
 31
0.0
 12
99.242
 22
224.568
 32
0.0
 13
99.242
 23
224.568
 33
0.0
  0
LINE
  5
129
330
124
100
AcDbEntity
  8
0
  6
Continuous
 62
     7
370
     0
100
AcDbLine
 10
150.94
 20
214.76
 30
0.0
 11
150.94
 21
225.06
 31
0.0
  0
LINE
  5
12A
330
124
100
AcDbEntity
  8
0
  6
Continuous
 62
     7
370
     0
100
AcDbLine
 10
95.94
 20
214.76
 30
0.0
 11
95.94
 21
225.06
 31
0.0
  0
LINE
  5
12B
330
124
100
AcDbEntity
  8
0
  6
Continuous
 62
     7
370
     0
100
AcDbLine
 10
150.94
 20
224.06
 30
0.0
 11
95.94
 21
224.06
 31
0.0
  0
MTEXT
  5
12C
330
124
100
AcDbEntity
  8
0
  6
Continuous
 62
     7
370
    18
100
AcDbMText
 10
120.8538888065
 20
228.5717369146
 30
0.0
 40
3.5
 41
0.0
 71
     1
 72
     1
  1
55
  7
SLDTEXTSTYLE0
 73
     1
 44
1.0
  0
ENDBLK
  5
126
330
124
100
AcDbEntity
  8
0
100
AcDbBlockEnd
  0
BLOCK
  5
130
330
12F
100
AcDbEntity
  8
0
100
AcDbBlockBegin
  2
_None
 70
     0
 10
0.0
 20
0.0
 30
0.0
  3
_None
  1

  0
ENDBLK
  5
131
330
12F
100
AcDbEntity
  8
0
100
AcDbBlockEnd
  0
BLOCK
  5
133
330
132
100
AcDbEntity
  8
0
100
AcDbBlockBegin
  2
_D_2
 70
     0
 10
0.0
 20
0.0
 30
0.0
  3
_D_2
  1

  0
SOLID
  5
135
330
132
100
AcDbEntity
  8
0
  6
Continuous
 62
     7
370
    18
100
AcDbTrace
 10
126.6573358544
 20
193.3426641456
 30
0.0
 11
128.632992201
 21
190.6485873093
 31
0.0
 12
129.3514126907
 22
191.367007799
 32
0.0
 13
129.3514126907
 23
191.367007799
 33
0.0
  0
LINE
  5
136
330
132
100
AcDbEntity
  8
0
  6
Continuous
 62
     7
370
     0
100
AcDbLine
 10
126.6573358544
 20
193.3426641456
 30
0.0
 11
157.2927456269
 21
162.7072543731
 31
0.0
  0
LINE
  5
137
330
132
100
AcDbEntity
  8
0
  6
Continuous
 62
     7
370
     0
100
AcDbLine
 10
126.6573358544
 20
193.3426641456
 30
0.0
 11
120.2226641456
 21
199.7773358544
 31
0.0
  0
MTEXT
  5
138
330
132
100
AcDbEntity
  8
0
  6
Continuous
 62
     7
370
    18
100
AcDbMText
 10
147.632749085
 20
178.73782456
 30
0.0
 40
3.5
 41
0.0
 71
     1
 72
     1
  1
M10x1.5
  7
SLDTEXTSTYLE0
 11
0.7071067811865575
 21
-0.7071067811865377
 31
0.0
 73
     1
 44
1.0
  0
ENDBLK
  5
134
330
132
100
AcDbEntity
  8
0
100
AcDbBlockEnd
  0
BLOCK
  5
13A
330
139
100
AcDbEntity
  8
0
100
AcDbBlockBegin
  2
SW_CENTERMARKSYMBOL_0
 70
     0
 10
0.0
 20
0.0
 30
0.0
  3
SW_CENTERMARKSYMBOL_0
  1

  0
LINE
  5
13C
330
139
100
AcDbEntity
  8
0
  6
Continuous
 62
     0
370
    18
100
AcDbLine
 10
0.0
 20
0.0
 30
0.0
 11
0.0
 21
2.5
 31
0.0
  0
LINE
  5
13D
330
139
100
AcDbEntity
  8
0
  6
Continuous
 62
     0
370
    18
100
AcDbLine
 10
0.0
 20
0.0
 30
0.0
 11
-2.5
 21
0.0
 31
0.0
  0
LINE
  5
13E
330
139
100
AcDbEntity
  8
0
  6
Continuous
 62
     0
370
    18
100
AcDbLine
 10
0.0
 20
0.0
 30
0.0
 11
0.0
 21
-2.5
 31
0.0
  0
LINE
  5
13F
330
139
100
AcDbEntity
  8
0
  6
Continuous
 62
     0
370
    18
100
AcDbLine
 10
0.0
 20
0.0
 30
0.0
 11
2.5
 21
0.0
 31
0.0
  0
LINE
  5
140
330
139
100
AcDbEntity
  8
0
  6
Continuous
 62
     0
370
    18
100
AcDbLine
 10
0.0
 20
5.0
 30
0.0
 11
0.0
 21
16.0
 31
0.0
  0
LINE
  5
141
330
139
100
AcDbEntity
  8
0
  6
Continuous
 62
     0
370
    18
100
AcDbLine
 10
-5.0
 20
0.0
 30
0.0
 11
-16.0
 21
0.0
 31
0.0
  0
LINE
  5
142
330
139
100
AcDbEntity
  8
0
  6
Continuous
 62
     0
370
    18
100
AcDbLine
 10
0.0
 20
-5.0
 30
0.0
 11
0.0
 21
-16.0
 31
0.0
  0
LINE
  5
143
330
139
100
AcDbEntity
  8
0
  6
Continuous
 62
     0
370
    18
100
AcDbLine
 10
5.0
 20
0.0
 30
0.0
 11
16.0
 21
0.0
 31
0.0
  0
ENDBLK
  5
13B
330
139
100
AcDbEntity
  8
0
100
AcDbBlockEnd
  0
BLOCK
  5
222
330
221
100
AcDbEntity
  8
0
100
AcDbBlockBegin
  2
_D_3
 70
     0
 10
0.0
 20
0.0
 30
0.0
  3
_D_3
  1

  0
SOLID
  5
224
330
221
100
AcDbEntity
  8
0
  6
Continuous
 62
     7
370
    18
100
AcDbTrace
 10
230.94
 20
187.56
 30
0.0
 11
230.432
 21
184.258
 31
0.0
 12
231.448
 22
184.258
 32
0.0
 13
231.448
 23
184.258
 33
0.0
  0
SOLID
  5
225
330
221
100
AcDbEntity
  8
0
  6
Continuous
 62
     7
370
    18
100
AcDbTrace
 10
230.94
 20
205.56
 30
0.0
 11
231.448
 21
208.862
 31
0.0
 12
230.432
 22
208.862
 32
0.0
 13
230.432
 23
208.862
 33
0.0
  0
LINE
  5
226
330
221
100
AcDbEntity
  8
0
  6
Continuous
 62
     7
370
     0
100
AcDbLine
 10
245.44
 20
187.56
 30
0.0
 11
241.702
 21
187.56
 31
0.0
  0
LINE
  5
227
330
221
100
AcDbEntity
  8
0
  6
Continuous
 62
     7
370
     0
100
AcDbLine
 10
240.178
 20
187.56
 30
0.0
 11
229.94
 21
187.56
 31
0.0
  0
LINE
  5
228
330
221
100
AcDbEntity
  8
0
  6
Continuous
 62
     7
370
     0
100
AcDbLine
 10
245.44
 20
205.56
 30
0.0
 11
229.94
 21
205.56
 31
0.0
  0
LINE
  5
229
330
221
100
AcDbEntity
  8
0
  6
Continuous
 62
     7
370
     0
100
AcDbLine
 10
230.94
 20
187.56
 30
0.0
 11
230.94
 21
182.322
 31
0.0
  0
LINE
  5
22A
330
221
100
AcDbEntity
  8
0
  6
Continuous
 62
     7
370
     0
100
AcDbLine
 10
230.94
 20
187.56
 30
0.0
 11
230.94
 21
205.56
 31
0.0
  0
LINE
  5
22B
330
221
100
AcDbEntity
  8
0
  6
Continuous
 62
     7
370
     0
100
AcDbLine
 10
230.94
 20
205.56
 30
0.0
 11
230.94
 21
210.798
 31
0.0
  0
MTEXT
  5
22C
330
221
100
AcDbEntity
  8
0
  6
Continuous
 62
     7
370
    18
100
AcDbMText
 10
226.4282629108
 20
191.3346698745
 30
0.0
 40
3.5
 41
0.0
 71
     1
 72
     1
  1
%%c
  7
SLDTEXTSTYLE0
 11
6.123233995736766E-17
 21
1.0
 31
0.0
 73
     1
 44
1.0
  0
MTEXT
  5
22D
330
221
100
AcDbEntity
  8
0
  6
Continuous
 62
     7
370
    18
100
AcDbMText
 10
226.3747907341
 20
196.6131072728
 30
0.0
 40
3.5
 41
0.0
 71
     1
 72
     1
  1
18
  7
SLDTEXTSTYLE0
 11
6.123233995736766E-17
 21
1.0
 31
0.0
 73
     1
 44
1.0
  0
ENDBLK
  5
223
330
221
100
AcDbEntity
  8
0
100
AcDbBlockEnd
  0
BLOCK
  5
230
330
22F
100
AcDbEntity
  8
0
100
AcDbBlockBegin
  2
_D_4
 70
     0
 10
0.0
 20
0.0
 30
0.0
  3
_D_4
  1

  0
SOLID
  5
232
330
22F
100
AcDbEntity
  8
0
  6
Continuous
 62
     7
370
    18
100
AcDbTrace
 10
224.94
 20
181.56
 30
0.0
 11
225.448
 21
184.862
 31
0.0
 12
224.432
 22
184.862
 32
0.0
 13
224.432
 23
184.862
 33
0.0
  0
SOLID
  5
233
330
22F
100
AcDbEntity
  8
0
  6
Continuous
 62
     7
370
    18
100
AcDbTrace
 10
224.94
 20
211.56
 30
0.0
 11
224.432
 21
208.258
 31
0.0
 12
225.448
 22
208.258
 32
0.0
 13
225.448
 23
208.258
 33
0.0
  0
LINE
  5
234
330
22F
100
AcDbEntity
  8
0
  6
Continuous
 62
     7
370
     0
100
AcDbLine
 10
361.94
 20
181.56
 30
0.0
 11
223.94
 21
181.56
 31
0.0
  0
LINE
  5
235
330
22F
100
AcDbEntity
  8
0
  6
Continuous
 62
     7
370
     0
100
AcDbLine
 10
361.94
 20
211.56
 30
0.0
 11
223.94
 21
211.56
 31
0.0
  0
LINE
  5
236
330
22F
100
AcDbEntity
  8
0
  6
Continuous
 62
     7
370
     0
100
AcDbLine
 10
224.94
 20
181.56
 30
0.0
 11
224.94
 21
211.56
 31
0.0
  0
MTEXT
  5
237
330
22F
100
AcDbEntity
  8
0
  6
Continuous
 62
     7
370
    18
100
AcDbMText
 10
220.4282629108
 20
191.3346698745
 30
0.0
 40
3.5
 41
0.0
 71
     1
 72
     1
  1
%%c
  7
SLDTEXTSTYLE0
 11
6.123233995736766E-17
 21
1.0
 31
0.0
 73
     1
 44
1.0
  0
MTEXT
  5
238
330
22F
100
AcDbEntity
  8
0
  6
Continuous
 62
     7
370
    18
100
AcDbMText
 10
220.3747907341
 20
196.6131072728
 30
0.0
 40
3.5
 41
0.0
 71
     1
 72
     1
  1
30
  7
SLDTEXTSTYLE0
 11
6.123233995736766E-17
 21
1.0
 31
0.0
 73
     1
 44
1.0
  0
ENDBLK
  5
231
330
22F
100
AcDbEntity
  8
0
100
AcDbBlockEnd
  0
BLOCK
  5
23B
330
23A
100
AcDbEntity
  8
0
100
AcDbBlockBegin
  2
_D_5
 70
     0
 10
0.0
 20
0.0
 30
0.0
  3
_D_5
  1

  0
SOLID
  5
23D
330
23A
100
AcDbEntity
  8
0
  6
Continuous
 62
     7
370
    18
100
AcDbTrace
 10
361.94
 20
224.06
 30
0.0
 11
358.638
 21
224.568
 31
0.0
 12
358.638
 22
223.552
 32
0.0
 13
358.638
 23
223.552
 33
0.0
  0
SOLID
  5
23E
330
23A
100
AcDbEntity
  8
0
  6
Continuous
 62
     7
370
    18
100
AcDbTrace
 10
364.94
 20
224.06
 30
0.0
 11
368.242
 21
223.552
 31
0.0
 12
368.242
 22
224.568
 32
0.0
 13
368.242
 23
224.568
 33
0.0
  0
LINE
  5
23F
330
23A
100
AcDbEntity
  8
0
  6
Continuous
 62
     7
370
     0
100
AcDbLine
 10
361.94
 20
211.56
 30
0.0
 11
361.94
 21
225.06
 31
0.0
  0
LINE
  5
240
330
23A
100
AcDbEntity
  8
0
  6
Continuous
 62
     7
370
     0
100
AcDbLine
 10
364.94
 20
215.06
 30
0.0
 11
364.94
 21
225.06
 31
0.0
  0
LINE
  5
241
330
23A
100
AcDbEntity
  8
0
  6
Continuous
 62
     7
370
     0
100
AcDbLine
 10
361.94
 20
224.06
 30
0.0
 11
348.4781941596
 21
224.06
 31
0.0
  0
LINE
  5
242
330
23A
100
AcDbEntity
  8
0
  6
Continuous
 62
     7
370
     0
100
AcDbLine
 10
361.94
 20
224.06
 30
0.0
 11
364.94
 21
224.06
 31
0.0
  0
LINE
  5
243
330
23A
100
AcDbEntity
  8
0
  6
Continuous
 62
     7
370
     0
100
AcDbLine
 10
364.94
 20
224.06
 30
0.0
 11
371.29
 21
224.06
 31
0.0
  0
MTEXT
  5
244
330
23A
100
AcDbEntity
  8
0
  6
Continuous
 62
     7
370
    18
100
AcDbMText
 10
348.4781941596
 20
228.5717369146
 30
0.0
 40
3.5
 41
0.0
 71
     1
 72
     1
  1
3
  7
SLDTEXTSTYLE0
 73
     1
 44
1.0
  0
ENDBLK
  5
23C
330
23A
100
AcDbEntity
  8
0
100
AcDbBlockEnd
  0
BLOCK
  5
247
330
246
100
AcDbEntity
  8
0
100
AcDbBlockBegin
  2
_D_6
 70
     0
 10
0.0
 20
0.0
 30
0.0
  3
_D_6
  1

  0
SOLID
  5
249
330
246
100
AcDbEntity
  8
0
  6
Continuous
 62
     7
370
    18
100
AcDbTrace
 10
411.94
 20
169.06
 30
0.0
 11
415.242
 21
168.552
 31
0.0
 12
415.242
 22
169.568
 32
0.0
 13
415.242
 23
169.568
 33
0.0
  0
SOLID
  5
24A
330
246
100
AcDbEntity
  8
0
  6
Continuous
 62
     7
370
    18
100
AcDbTrace
 10
403.94
 20
169.06
 30
0.0
 11
400.638
 21
169.568
 31
0.0
 12
400.638
 22
168.552
 32
0.0
 13
400.638
 23
168.552
 33
0.0
  0
LINE
  5
24B
330
246
100
AcDbEntity
  8
0
  6
Continuous
 62
     7
370
     0
100
AcDbLine
 10
411.94
 20
178.06
 30
0.0
 11
411.94
 21
168.06
 31
0.0
  0
LINE
  5
24C
330
246
100
AcDbEntity
  8
0
  6
Continuous
 62
     7
370
     0
100
AcDbLine
 10
403.94
 20
178.06
 30
0.0
 11
403.94
 21
168.06
 31
0.0
  0
LINE
  5
24D
330
246
100
AcDbEntity
  8
0
  6
Continuous
 62
     7
370
     0
100
AcDbLine
 10
411.94
 20
169.06
 30
0.0
 11
420.178
 21
169.06
 31
0.0
  0
LINE
  5
24E
330
246
100
AcDbEntity
  8
0
  6
Continuous
 62
     7
370
     0
100
AcDbLine
 10
421.702
 20
169.06
 30
0.0
 11
425.4018058404
 21
169.06
 31
0.0
  0
LINE
  5
24F
330
246
100
AcDbEntity
  8
0
  6
Continuous
 62
     7
370
     0
100
AcDbLine
 10
411.94
 20
169.06
 30
0.0
 11
403.94
 21
169.06
 31
0.0
  0
LINE
  5
250
330
246
100
AcDbEntity
  8
0
  6
Continuous
 62
     7
370
     0
100
AcDbLine
 10
403.94
 20
169.06
 30
0.0
 11
397.59
 21
169.06
 31
0.0
  0
MTEXT
  5
251
330
246
100
AcDbEntity
  8
0
  6
Continuous
 62
     7
370
    18
100
AcDbMText
 10
422.8156946469
 20
173.5717369146
 30
0.0
 40
3.5
 41
0.0
 71
     1
 72
     1
  1
8
  7
SLDTEXTSTYLE0
 73
     1
 44
1.0
  0
ENDBLK
  5
248
330
246
100
AcDbEntity
  8
0
100
AcDbBlockEnd
  0
BLOCK
  5
254
330
253
100
AcDbEntity
  8
0
100
AcDbBlockBegin
  2
_D_7
 70
     0
 10
0.0
 20
0.0
 30
0.0
  3
_D_7
  1

  0
SOLID
  5
256
330
253
100
AcDbEntity
  8
0
  6
Continuous
 62
     7
370
    18
100
AcDbTrace
 10
436.94
 20
179.06
 30
0.0
 11
436.432
 21
175.758
 31
0.0
 12
437.448
 22
175.758
 32
0.0
 13
437.448
 23
175.758
 33
0.0
  0
SOLID
  5
257
330
253
100
AcDbEntity
  8
0
  6
Continuous
 62
     7
370
    18
100
AcDbTrace
 10
436.94
 20
181.06
 30
0.0
 11
437.448
 21
184.362
 31
0.0
 12
436.432
 22
184.362
 32
0.0
 13
436.432
 23
184.362
 33
0.0
  0
LINE
  5
258
330
253
100
AcDbEntity
  8
0
  6
Continuous
 62
     7
370
     0
100
AcDbLine
 10
421.94
 20
179.06
 30
0.0
 11
437.94
 21
179.06
 31
0.0
  0
LINE
  5
259
330
253
100
AcDbEntity
  8
0
  6
Continuous
 62
     7
370
     0
100
AcDbLine
 10
412.94
 20
181.06
 30
0.0
 11
437.94
 21
181.06
 31
0.0
  0
LINE
  5
25A
330
253
100
AcDbEntity
  8
0
  6
Continuous
 62
     7
370
     0
100
AcDbLine
 10
436.94
 20
179.06
 30
0.0
 11
436.94
 21
165.5981941596
 31
0.0
  0
LINE
  5
25B
330
253
100
AcDbEntity
  8
0
  6
Continuous
 62
     7
370
     0
100
AcDbLine
 10
436.94
 20
179.06
 30
0.0
 11
436.94
 21
181.06
 31
0.0
  0
LINE
  5
25C
330
253
100
AcDbEntity
  8
0
  6
Continuous
 62
     7
370
     0
100
AcDbLine
 10
436.94
 20
181.06
 30
0.0
 11
436.94
 21
187.41
 31
0.0
  0
MTEXT
  5
25D
330
253
100
AcDbEntity
  8
0
  6
Continuous
 62
     7
370
    18
100
AcDbMText
 10
432.4282630854
 20
165.5981941596
 30
0.0
 40
3.5
 41
0.0
 71
     1
 72
     1
  1
2
  7
SLDTEXTSTYLE0
 11
6.123233995736766E-17
 21
1.0
 31
0.0
 73
     1
 44
1.0
  0
ENDBLK
  5
255
330
253
100
AcDbEntity
  8
0
100
AcDbBlockEnd
  0
BLOCK
  5
260
330
25F
100
AcDbEntity
  8
0
100
AcDbBlockBegin
  2
_D_8
 70
     0
 10
0.0
 20
0.0
 30
0.0
  3
_D_8
  1

  0
SOLID
  5
262
330
25F
100
AcDbEntity
  8
0
  6
Continuous
 62
     7
370
    18
100
AcDbTrace
 10
364.94
 20
163.06
 30
0.0
 11
368.242
 21
162.552
 31
0.0
 12
368.242
 22
163.568
 32
0.0
 13
368.242
 23
163.568
 33
0.0
  0
SOLID
  5
263
330
25F
100
AcDbEntity
  8
0
  6
Continuous
 62
     7
370
    18
100
AcDbTrace
 10
420.94
 20
163.06
 30
0.0
 11
417.638
 21
163.568
 31
0.0
 12
417.638
 22
162.552
 32
0.0
 13
417.638
 23
162.552
 33
0.0
  0
LINE
  5
264
330
25F
100
AcDbEntity
  8
0
  6
Continuous
 62
     7
370
     0
100
AcDbLine
 10
364.94
 20
178.06
 30
0.0
 11
364.94
 21
162.06
 31
0.0
  0
LINE
  5
265
330
25F
100
AcDbEntity
  8
0
  6
Continuous
 62
     7
370
     0
100
AcDbLine
 10
420.94
 20
178.06
 30
0.0
 11
420.94
 21
162.06
 31
0.0
  0
LINE
  5
266
330
25F
100
AcDbEntity
  8
0
  6
Continuous
 62
     7
370
     0
100
AcDbLine
 10
364.94
 20
163.06
 30
0.0
 11
420.94
 21
163.06
 31
0.0
  0
MTEXT
  5
267
330
25F
100
AcDbEntity
  8
0
  6
Continuous
 62
     7
370
    18
100
AcDbMText
 10
390.3538888065
 20
167.5717369146
 30
0.0
 40
3.5
 41
0.0
 71
     1
 72
     1
  1
56
  7
SLDTEXTSTYLE0
 73
     1
 44
1.0
  0
ENDBLK
  5
261
330
25F
100
AcDbEntity
  8
0
100
AcDbBlockEnd
  0
BLOCK
  5
26A
330
269
100
AcDbEntity
  8
0
100
AcDbBlockBegin
  2
_D_9
 70
     0
 10
0.0
 20
0.0
 30
0.0
  3
_D_9
  1

  0
SOLID
  5
26C
330
269
100
AcDbEntity
  8
0
  6
Continuous
 62
     7
370
    18
100
AcDbTrace
 10
364.94
 20
169.06
 30
0.0
 11
361.638
 21
169.568
 31
0.0
 12
361.638
 22
168.552
 32
0.0
 13
361.638
 23
168.552
 33
0.0
  0
SOLID
  5
26D
330
269
100
AcDbEntity
  8
0
  6
Continuous
 62
     7
370
    18
100
AcDbTrace
 10
240.94
 20
169.06
 30
0.0
 11
244.242
 21
168.552
 31
0.0
 12
244.242
 22
169.568
 32
0.0
 13
244.242
 23
169.568
 33
0.0
  0
LINE
  5
26E
330
269
100
AcDbEntity
  8
0
  6
Continuous
 62
     7
370
     0
100
AcDbLine
 10
364.94
 20
178.06
 30
0.0
 11
364.94
 21
168.06
 31
0.0
  0
LINE
  5
26F
330
269
100
AcDbEntity
  8
0
  6
Continuous
 62
     7
370
     0
100
AcDbLine
 10
240.94
 20
188.06
 30
0.0
 11
240.94
 21
168.06
 31
0.0
  0
LINE
  5
270
330
269
100
AcDbEntity
  8
0
  6
Continuous
 62
     7
370
     0
100
AcDbLine
 10
364.94
 20
169.06
 30
0.0
 11
240.94
 21
169.06
 31
0.0
  0
LINE
  5
271
330
269
100
AcDbEntity
  8
0
  6
Continuous
 62
     7
370
     0
100
AcDbLine
 10
240.94
 20
169.06
 30
0.0
 11
69.4024966361
 21
169.06
 31
0.0
  0
MTEXT
  5
272
330
269
100
AcDbEntity
  8
0
  6
Continuous
 62
     7
370
    18
100
AcDbMText
 10
69.4024966361
 20
173.5717369146
 30
0.0
 40
3.5
 41
0.0
 71
     1
 72
     1
  1
124
  7
SLDTEXTSTYLE0
 73
     1
 44
1.0
  0
ENDBLK
  5
26B
330
269
100
AcDbEntity
  8
0
100
AcDbBlockEnd
  0
BLOCK
  5
276
330
275
100
AcDbEntity
  8
0
100
AcDbBlockBegin
  2
_D_10
 70
     0
 10
0.0
 20
0.0
 30
0.0
  3
_D_10
  1

  0
SOLID
  5
278
330
275
100
AcDbEntity
  8
0
  6
Continuous
 62
     7
370
    18
100
AcDbTrace
 10
411.3238834765
 20
197.4438834765
 30
0.0
 11
414.0179603128
 21
199.4195398231
 31
0.0
 12
413.2995398231
 22
200.1379603128
 32
0.0
 13
413.2995398231
 23
200.1379603128
 33
0.0
  0
LINE
  5
279
330
275
100
AcDbEntity
  8
0
  6
Continuous
 62
     7
370
     0
100
AcDbLine
 10
411.3238834765
 20
197.4438834765
 30
0.0
 11
434.9967568869
 21
221.1167568869
 31
0.0
  0
LINE
  5
27A
330
275
100
AcDbEntity
  8
0
  6
Continuous
 62
     7
370
     0
100
AcDbLine
 10
411.3238834765
 20
197.4438834765
 30
0.0
 11
409.5561165235
 21
195.6761165235
 31
0.0
  0
MTEXT
  5
27B
330
275
100
AcDbEntity
  8
0
  6
Continuous
 62
     7
370
    18
100
AcDbMText
 10
423.5116333534
 20
215.9937580311
 30
0.0
 40
3.5
 41
0.0
 71
     1
 72
     1
  1
%%c
  7
SLDTEXTSTYLE0
 11
0.7071067811865471
 21
0.707106781186548
 31
0.0
 73
     1
 44
1.0
  0
MTEXT
  5
27C
330
275
100
AcDbEntity
  8
0
  6
Continuous
 62
     7
370
    18
100
AcDbMText
 10
427.2062416932
 20
219.7639874483
 30
0.0
 40
3.5
 41
0.0
 71
     1
 72
     1
  1
2,5
  7
SLDTEXTSTYLE0
 11
0.7071067811865471
 21
0.707106781186548
 31
0.0
 73
     1
 44
1.0
  0
ENDBLK
  5
277
330
275
100
AcDbEntity
  8
0
100
AcDbBlockEnd
  0
BLOCK
  5
280
330
27F
100
AcDbEntity
  8
0
100
AcDbBlockBegin
  2
_D_11
 70
     0
 10
0.0
 20
0.0
 30
0.0
  3
_D_11
  1

  0
SOLID
  5
282
330
27F
100
AcDbEntity
  8
0
  6
Continuous
 62
     7
370
    18
100
AcDbTrace
 10
413.7358808111
 20
202.2550478206
 30
0.0
 11
415.8295104055
 21
204.8585038163
 31
0.0
 12
414.9501534776
 22
205.3674118564
 32
0.0
 13
414.9501534776
 23
205.3674118564
 33
0.0
  0
LINE
  5
283
330
27F
100
AcDbEntity
  8
0
  6
Continuous
 62
     7
370
     0
100
AcDbLine
 10
413.7358808111
 20
202.2550478206
 30
0.0
 11
435.0641959216
 21
239.1088606397
 31
0.0
  0
LINE
  5
284
330
27F
100
AcDbEntity
  8
0
  6
Continuous
 62
     7
370
     0
100
AcDbLine
 10
413.7358808111
 20
202.2550478206
 30
0.0
 11
410.8216810301
 21
197.2195176959
 31
0.0
  0
LINE
  5
285
330
27F
100
AcDbEntity
  8
0
  6
Continuous
 62
     7
370
     0
100
AcDbLine
 10
410.0583189699
 20
195.9004823041
 30
0.0
 11
407.1441191889
 21
190.8649521794
 31
0.0
  0
MTEXT
  5
286
330
27F
100
AcDbEntity
  8
0
  6
Continuous
 62
     7
370
    18
100
AcDbMText
 10
427.5502984569
 20
235.1225054848
 30
0.0
 40
3.5
 41
0.0
 71
     1
 72
     1
  1
1/4
  7
SLDTEXTSTYLE0
 11
0.5008937402916224
 21
0.8655087873249288
 31
0.0
 73
     1
 44
1.0
  0
ENDBLK
  5
281
330
27F
100
AcDbEntity
  8
0
100
AcDbBlockEnd
  0
BLOCK
  5
288
330
287
100
AcDbEntity
  8
0
100
AcDbBlockBegin
  2
SW_CENTERMARKSYMBOL_1
 70
     0
 10
0.0
 20
0.0
 30
0.0
  3
SW_CENTERMARKSYMBOL_1
  1

  0
LINE
  5
28A
330
287
100
AcDbEntity
  8
0
  6
Continuous
 62
     0
370
    18
100
AcDbLine
 10
0.0
 20
0.0
 30
0.0
 11
0.0
 21
2.5
 31
0.0
  0
LINE
  5
28B
330
287
100
AcDbEntity
  8
0
  6
Continuous
 62
     0
370
    18
100
AcDbLine
 10
0.0
 20
0.0
 30
0.0
 11
-2.5
 21
0.0
 31
0.0
  0
LINE
  5
28C
330
287
100
AcDbEntity
  8
0
  6
Continuous
 62
     0
370
    18
100
AcDbLine
 10
0.0
 20
0.0
 30
0.0
 11
0.0
 21
-2.5
 31
0.0
  0
LINE
  5
28D
330
287
100
AcDbEntity
  8
0
  6
Continuous
 62
     0
370
    18
100
AcDbLine
 10
0.0
 20
0.0
 30
0.0
 11
2.5
 21
0.0
 31
0.0
  0
LINE
  5
28E
330
287
100
AcDbEntity
  8
0
  6
Continuous
 62
     0
370
    18
100
AcDbLine
 10
0.0
 20
5.0
 30
0.0
 11
0.0
 21
12.5
 31
0.0
  0
LINE
  5
28F
330
287
100
AcDbEntity
  8
0
  6
Continuous
 62
     0
370
    18
100
AcDbLine
 10
-5.0
 20
0.0
 30
0.0
 11
-12.5
 21
0.0
 31
0.0
  0
LINE
  5
290
330
287
100
AcDbEntity
  8
0
  6
Continuous
 62
     0
370
    18
100
AcDbLine
 10
0.0
 20
-5.0
 30
0.0
 11
0.0
 21
-12.5
 31
0.0
  0
LINE
  5
291
330
287
100
AcDbEntity
  8
0
  6
Continuous
 62
     0
370
    18
100
AcDbLine
 10
5.0
 20
0.0
 30
0.0
 11
12.5
 21
0.0
 31
0.0
  0
ENDBLK
  5
289
330
287
100
AcDbEntity
  8
0
100
AcDbBlockEnd
  0
BLOCK
  5
294
330
293
100
AcDbEntity
  8
0
100
AcDbBlockBegin
  2
SW_CENTERMARKSYMBOL_2
 70
     0
 10
0.0
 20
0.0
 30
0.0
  3
SW_CENTERMARKSYMBOL_2
  1

  0
LINE
  5
296
330
293
100
AcDbEntity
  8
0
  6
Continuous
 62
     0
370
    18
100
AcDbLine
 10
0.0
 20
0.0
 30
0.0
 11
0.0
 21
2.5
 31
0.0
  0
LINE
  5
297
330
293
100
AcDbEntity
  8
0
  6
Continuous
 62
     0
370
    18
100
AcDbLine
 10
0.0
 20
0.0
 30
0.0
 11
-2.5
 21
0.0
 31
0.0
  0
LINE
  5
298
330
293
100
AcDbEntity
  8
0
  6
Continuous
 62
     0
370
    18
100
AcDbLine
 10
0.0
 20
0.0
 30
0.0
 11
0.0
 21
-2.5
 31
0.0
  0
LINE
  5
299
330
293
100
AcDbEntity
  8
0
  6
Continuous
 62
     0
370
    18
100
AcDbLine
 10
0.0
 20
0.0
 30
0.0
 11
2.5
 21
0.0
 31
0.0
  0
LINE
  5
29A
330
293
100
AcDbEntity
  8
0
  6
Continuous
 62
     0
370
    18
100
AcDbLine
 10
0.0
 20
5.0
 30
0.0
 11
0.0
 21
12.5
 31
0.0
  0
LINE
  5
29B
330
293
100
AcDbEntity
  8
0
  6
Continuous
 62
     0
370
    18
100
AcDbLine
 10
-5.0
 20
0.0
 30
0.0
 11
-12.5
 21
0.0
 31
0.0
  0
LINE
  5
29C
330
293
100
AcDbEntity
  8
0
  6
Continuous
 62
     0
370
    18
100
AcDbLine
 10
0.0
 20
-5.0
 30
0.0
 11
0.0
 21
-12.5
 31
0.0
  0
LINE
  5
29D
330
293
100
AcDbEntity
  8
0
  6
Continuous
 62
     0
370
    18
100
AcDbLine
 10
5.0
 20
0.0
 30
0.0
 11
12.5
 21
0.0
 31
0.0
  0
ENDBLK
  5
295
330
293
100
AcDbEntity
  8
0
100
AcDbBlockEnd
  0
BLOCK
  5
37E
330
37D
100
AcDbEntity
  8
0
100
AcDbBlockBegin
  2
_D_12
 70
     0
 10
0.0
 20
0.0
 30
0.0
  3
_D_12
  1

  0
SOLID
  5
380
330
37D
100
AcDbEntity
  8
0
  6
Continuous
 62
     7
370
    18
100
AcDbTrace
 10
98.94
 20
49.06
 30
0.0
 11
102.242
 21
48.552
 31
0.0
 12
102.242
 22
49.568
 32
0.0
 13
102.242
 23
49.568
 33
0.0
  0
SOLID
  5
381
330
37D
100
AcDbEntity
  8
0
  6
Continuous
 62
     7
370
    18
100
AcDbTrace
 10
141.94
 20
49.06
 30
0.0
 11
138.638
 21
49.568
 31
0.0
 12
138.638
 22
48.552
 32
0.0
 13
138.638
 23
48.552
 33
0.0
  0
LINE
  5
382
330
37D
100
AcDbEntity
  8
0
  6
Continuous
 62
     7
370
     0
100
AcDbLine
 10
98.94
 20
56.06
 30
0.0
 11
98.94
 21
48.06
 31
0.0
  0
LINE
  5
383
330
37D
100
AcDbEntity
  8
0
  6
Continuous
 62
     7
370
     0
100
AcDbLine
 10
141.94
 20
58.06
 30
0.0
 11
141.94
 21
48.06
 31
0.0
  0
LINE
  5
384
330
37D
100
AcDbEntity
  8
0
  6
Continuous
 62
     7
370
     0
100
AcDbLine
 10
98.94
 20
49.06
 30
0.0
 11
141.94
 21
49.06
 31
0.0
  0
MTEXT
  5
385
330
37D
100
AcDbEntity
  8
0
  6
Continuous
 62
     7
370
    18
100
AcDbMText
 10
117.8538888065
 20
53.5717369145
 30
0.0
 40
3.5
 41
0.0
 71
     1
 72
     1
  1
43
  7
SLDTEXTSTYLE0
 73
     1
 44
1.0
  0
ENDBLK
  5
37F
330
37D
100
AcDbEntity
  8
0
100
AcDbBlockEnd
  0
BLOCK
  5
389
330
388
100
AcDbEntity
  8
0
100
AcDbBlockBegin
  2
_D_13
 70
     0
 10
0.0
 20
0.0
 30
0.0
  3
_D_13
  1

  0
SOLID
  5
38B
330
388
100
AcDbEntity
  8
0
  6
Continuous
 62
     7
370
    18
100
AcDbTrace
 10
87.1350793313
 20
104.2687469125
 30
0.0
 11
84.4351394493
 21
102.3011106063
 31
0.0
 12
85.1514204145
 22
101.5805569449
 32
0.0
 13
85.1514204145
 23
101.5805569449
 33
0.0
  0
LINE
  5
38C
330
388
100
AcDbEntity
  8
0
  6
Continuous
 62
     7
370
     0
100
AcDbLine
 10
87.1350793313
 20
104.2687469125
 30
0.0
 11
71.838495954
 21
89.0628683038
 31
0.0
  0
LINE
  5
38D
330
388
100
AcDbEntity
  8
0
  6
Continuous
 62
     7
370
     0
100
AcDbLine
 10
87.1350793313
 20
104.2687469125
 30
0.0
 11
91.7449206687
 21
108.8512530875
 31
0.0
  0
MTEXT
  5
38E
330
388
100
AcDbEntity
  8
0
  6
Continuous
 62
     7
370
    18
100
AcDbMText
 10
68.678594835
 20
92.2416185868
 30
0.0
 40
3.5
 41
0.0
 71
     1
 72
     1
  1
%%c
  7
SLDTEXTSTYLE0
 11
0.7092063596044048
 21
0.7050009499969965
 31
0.0
 73
     1
 44
1.0
  0
MTEXT
  5
38F
330
388
100
AcDbEntity
  8
0
  6
Continuous
 62
     7
370
    18
100
AcDbMText
 10
72.3843982713
 20
96.0008447749
 30
0.0
 40
3.5
 41
0.0
 71
     1
 72
     1
  1
6,5
  7
SLDTEXTSTYLE0
 11
0.7092063596044048
 21
0.7050009499969965
 31
0.0
 73
     1
 44
1.0
  0
ENDBLK
  5
38A
330
388
100
AcDbEntity
  8
0
100
AcDbBlockEnd
  0
BLOCK
  5
392
330
391
100
AcDbEntity
  8
0
100
AcDbBlockBegin
  2
_D_14
 70
     0
 10
0.0
 20
0.0
 30
0.0
  3
_D_14
  1

  0
SOLID
  5
394
330
391
100
AcDbEntity
  8
0
  6
Continuous
 62
     7
370
    18
100
AcDbTrace
 10
89.44
 20
124.06
 30
0.0
 11
92.742
 21
123.552
 31
0.0
 12
92.742
 22
124.568
 32
0.0
 13
92.742
 23
124.568
 33
0.0
  0
SOLID
  5
395
330
391
100
AcDbEntity
  8
0
  6
Continuous
 62
     7
370
    18
100
AcDbTrace
 10
108.44
 20
124.06
 30
0.0
 11
105.138
 21
124.568
 31
0.0
 12
105.138
 22
123.552
 32
0.0
 13
105.138
 23
123.552
 33
0.0
  0
LINE
  5
396
330
391
100
AcDbEntity
  8
0
  6
Continuous
 62
     7
370
     0
100
AcDbLine
 10
89.44
 20
113.31
 30
0.0
 11
89.44
 21
125.06
 31
0.0
  0
LINE
  5
397
330
391
100
AcDbEntity
  8
0
  6
Continuous
 62
     7
370
     0
100
AcDbLine
 10
108.44
 20
113.31
 30
0.0
 11
108.44
 21
125.06
 31
0.0
  0
LINE
  5
398
330
391
100
AcDbEntity
  8
0
  6
Continuous
 62
     7
370
     0
100
AcDbLine
 10
89.44
 20
124.06
 30
0.0
 11
108.44
 21
124.06
 31
0.0
  0
MTEXT
  5
399
330
391
100
AcDbEntity
  8
0
  6
Continuous
 62
     7
370
    18
100
AcDbMText
 10
96.3538888065
 20
128.5717369146
 30
0.0
 40
3.5
 41
0.0
 71
     1
 72
     1
  1
19
  7
SLDTEXTSTYLE0
 73
     1
 44
1.0
  0
ENDBLK
  5
393
330
391
100
AcDbEntity
  8
0
100
AcDbBlockEnd
  0
BLOCK
  5
39C
330
39B
100
AcDbEntity
  8
0
100
AcDbBlockBegin
  2
_D_15
 70
     0
 10
0.0
 20
0.0
 30
0.0
  3
_D_15
  1

  0
SOLID
  5
39E
330
39B
100
AcDbEntity
  8
0
  6
Continuous
 62
     7
370
    18
100
AcDbTrace
 10
63.94
 20
106.56
 30
0.0
 11
63.432
 21
103.258
 31
0.0
 12
64.448
 22
103.258
 32
0.0
 13
64.448
 23
103.258
 33
0.0
  0
SOLID
  5
39F
330
39B
100
AcDbEntity
  8
0
  6
Continuous
 62
     7
370
    18
100
AcDbTrace
 10
63.94
 20
66.56
 30
0.0
 11
64.448
 21
69.862
 31
0.0
 12
63.432
 22
69.862
 32
0.0
 13
63.432
 23
69.862
 33
0.0
  0
LINE
  5
3A0
330
39B
100
AcDbEntity
  8
0
  6
Continuous
 62
     7
370
     0
100
AcDbLine
 10
82.69
 20
106.56
 30
0.0
 11
62.94
 21
106.56
 31
0.0
  0
LINE
  5
3A1
330
39B
100
AcDbEntity
  8
0
  6
Continuous
 62
     7
370
     0
100
AcDbLine
 10
82.69
 20
66.56
 30
0.0
 11
62.94
 21
66.56
 31
0.0
  0
LINE
  5
3A2
330
39B
100
AcDbEntity
  8
0
  6
Continuous
 62
     7
370
     0
100
AcDbLine
 10
63.94
 20
106.56
 30
0.0
 11
63.94
 21
66.56
 31
0.0
  0
MTEXT
  5
3A3
330
39B
100
AcDbEntity
  8
0
  6
Continuous
 62
     7
370
    18
100
AcDbMText
 10
59.4282630854
 20
83.9738888065
 30
0.0
 40
3.5
 41
0.0
 71
     1
 72
     1
  1
40
  7
SLDTEXTSTYLE0
 11
-7.044195017643634E-15
 21
1.0
 31
0.0
 73
     1
 44
1.0
  0
ENDBLK
  5
39D
330
39B
100
AcDbEntity
  8
0
100
AcDbBlockEnd
  0
BLOCK
  5
3A7
330
3A6
100
AcDbEntity
  8
0
100
AcDbBlockBegin
  2
_D_16
 70
     0
 10
0.0
 20
0.0
 30
0.0
  3
_D_16
  1

  0
SOLID
  5
3A9
330
3A6
100
AcDbEntity
  8
0
  6
Continuous
 62
     7
370
    18
100
AcDbTrace
 10
108.44
 20
124.06
 30
0.0
 11
111.742
 21
123.552
 31
0.0
 12
111.742
 22
124.568
 32
0.0
 13
111.742
 23
124.568
 33
0.0
  0
SOLID
  5
3AA
330
3A6
100
AcDbEntity
  8
0
  6
Continuous
 62
     7
370
    18
100
AcDbTrace
 10
141.94
 20
124.06
 30
0.0
 11
138.638
 21
124.568
 31
0.0
 12
138.638
 22
123.552
 32
0.0
 13
138.638
 23
123.552
 33
0.0
  0
LINE
  5
3AB
330
3A6
100
AcDbEntity
  8
0
  6
Continuous
 62
     7
370
     0
100
AcDbLine
 10
108.44
 20
113.31
 30
0.0
 11
108.44
 21
125.06
 31
0.0
  0
LINE
  5
3AC
330
3A6
100
AcDbEntity
  8
0
  6
Continuous
 62
     7
370
     0
100
AcDbLine
 10
141.94
 20
115.06
 30
0.0
 11
141.94
 21
125.06
 31
0.0
  0
LINE
  5
3AD
330
3A6
100
AcDbEntity
  8
0
  6
Continuous
 62
     7
370
     0
100
AcDbLine
 10
108.44
 20
124.06
 30
0.0
 11
141.94
 21
124.06
 31
0.0
  0
MTEXT
  5
3AE
330
3A6
100
AcDbEntity
  8
0
  6
Continuous
 62
     7
370
    18
100
AcDbMText
 10
120.6643054695
 20
128.5717369146
 30
0.0
 40
3.5
 41
0.0
 71
     1
 72
     1
  1
33,5
  7
SLDTEXTSTYLE0
 73
     1
 44
1.0
  0
ENDBLK
  5
3A8
330
3A6
100
AcDbEntity
  8
0
100
AcDbBlockEnd
  0
BLOCK
  5
3B0
330
3AF
100
AcDbEntity
  8
0
100
AcDbBlockBegin
  2
SW_CENTERMARKSYMBOL_3
 70
     0
 10
0.0
 20
0.0
 30
0.0
  3
SW_CENTERMARKSYMBOL_3
  1

  0
LINE
  5
3B2
330
3AF
100
AcDbEntity
  8
0
  6
Continuous
 62
     0
370
    18
100
AcDbLine
 10
0.0
 20
0.0
 30
0.0
 11
0.0
 21
2.5
 31
0.0
  0
LINE
  5
3B3
330
3AF
100
AcDbEntity
  8
0
  6
Continuous
 62
     0
370
    18
100
AcDbLine
 10
0.0
 20
0.0
 30
0.0
 11
-2.5
 21
0.0
 31
0.0
  0
LINE
  5
3B4
330
3AF
100
AcDbEntity
  8
0
  6
Continuous
 62
     0
370
    18
100
AcDbLine
 10
0.0
 20
0.0
 30
0.0
 11
0.0
 21
-2.5
 31
0.0
  0
LINE
  5
3B5
330
3AF
100
AcDbEntity
  8
0
  6
Continuous
 62
     0
370
    18
100
AcDbLine
 10
0.0
 20
0.0
 30
0.0
 11
2.5
 21
0.0
 31
0.0
  0
LINE
  5
3B6
330
3AF
100
AcDbEntity
  8
0
  6
Continuous
 62
     0
370
    18
100
AcDbLine
 10
0.0
 20
5.0
 30
0.0
 11
0.0
 21
5.75
 31
0.0
  0
LINE
  5
3B7
330
3AF
100
AcDbEntity
  8
0
  6
Continuous
 62
     0
370
    18
100
AcDbLine
 10
-5.0
 20
0.0
 30
0.0
 11
-5.75
 21
0.0
 31
0.0
  0
LINE
  5
3B8
330
3AF
100
AcDbEntity
  8
0
  6
Continuous
 62
     0
370
    18
100
AcDbLine
 10
0.0
 20
-5.0
 30
0.0
 11
0.0
 21
-5.75
 31
0.0
  0
LINE
  5
3B9
330
3AF
100
AcDbEntity
  8
0
  6
Continuous
 62
     0
370
    18
100
AcDbLine
 10
5.0
 20
0.0
 30
0.0
 11
5.75
 21
0.0
 31
0.0
  0
ENDBLK
  5
3B1
330
3AF
100
AcDbEntity
  8
0
100
AcDbBlockEnd
  0
BLOCK
  5
3BC
330
3BB
100
AcDbEntity
  8
0
100
AcDbBlockBegin
  2
SW_CENTERMARKSYMBOL_4
 70
     0
 10
0.0
 20
0.0
 30
0.0
  3
SW_CENTERMARKSYMBOL_4
  1

  0
LINE
  5
3BE
330
3BB
100
AcDbEntity
  8
0
  6
Continuous
 62
     0
370
    18
100
AcDbLine
 10
0.0
 20
0.0
 30
0.0
 11
0.0
 21
2.5
 31
0.0
  0
LINE
  5
3BF
330
3BB
100
AcDbEntity
  8
0
  6
Continuous
 62
     0
370
    18
100
AcDbLine
 10
0.0
 20
0.0
 30
0.0
 11
-2.5
 21
0.0
 31
0.0
  0
LINE
  5
3C0
330
3BB
100
AcDbEntity
  8
0
  6
Continuous
 62
     0
370
    18
100
AcDbLine
 10
0.0
 20
0.0
 30
0.0
 11
0.0
 21
-2.5
 31
0.0
  0
LINE
  5
3C1
330
3BB
100
AcDbEntity
  8
0
  6
Continuous
 62
     0
370
    18
100
AcDbLine
 10
0.0
 20
0.0
 30
0.0
 11
2.5
 21
0.0
 31
0.0
  0
LINE
  5
3C2
330
3BB
100
AcDbEntity
  8
0
  6
Continuous
 62
     0
370
    18
100
AcDbLine
 10
0.0
 20
5.0
 30
0.0
 11
0.0
 21
5.75
 31
0.0
  0
LINE
  5
3C3
330
3BB
100
AcDbEntity
  8
0
  6
Continuous
 62
     0
370
    18
100
AcDbLine
 10
-5.0
 20
0.0
 30
0.0
 11
-5.75
 21
0.0
 31
0.0
  0
LINE
  5
3C4
330
3BB
100
AcDbEntity
  8
0
  6
Continuous
 62
     0
370
    18
100
AcDbLine
 10
0.0
 20
-5.0
 30
0.0
 11
0.0
 21
-5.75
 31
0.0
  0
LINE
  5
3C5
330
3BB
100
AcDbEntity
  8
0
  6
Continuous
 62
     0
370
    18
100
AcDbLine
 10
5.0
 20
0.0
 30
0.0
 11
5.75
 21
0.0
 31
0.0
  0
ENDBLK
  5
3BD
330
3BB
100
AcDbEntity
  8
0
100
AcDbBlockEnd
  0
BLOCK
  5
3C8
330
3C7
100
AcDbEntity
  8
0
100
AcDbBlockBegin
  2
SW_CENTERMARKSYMBOL_5
 70
     0
 10
0.0
 20
0.0
 30
0.0
  3
SW_CENTERMARKSYMBOL_5
  1

  0
LINE
  5
3CA
330
3C7
100
AcDbEntity
  8
0
  6
Continuous
 62
     0
370
    18
100
AcDbLine
 10
0.0
 20
0.0
 30
0.0
 11
0.0
 21
2.5
 31
0.0
  0
LINE
  5
3CB
330
3C7
100
AcDbEntity
  8
0
  6
Continuous
 62
     0
370
    18
100
AcDbLine
 10
0.0
 20
0.0
 30
0.0
 11
-2.5
 21
0.0
 31
0.0
  0
LINE
  5
3CC
330
3C7
100
AcDbEntity
  8
0
  6
Continuous
 62
     0
370
    18
100
AcDbLine
 10
0.0
 20
0.0
 30
0.0
 11
0.0
 21
-2.5
 31
0.0
  0
LINE
  5
3CD
330
3C7
100
AcDbEntity
  8
0
  6
Continuous
 62
     0
370
    18
100
AcDbLine
 10
0.0
 20
0.0
 30
0.0
 11
2.5
 21
0.0
 31
0.0
  0
LINE
  5
3CE
330
3C7
100
AcDbEntity
  8
0
  6
Continuous
 62
     0
370
    18
100
AcDbLine
 10
0.0
 20
5.0
 30
0.0
 11
0.0
 21
5.75
 31
0.0
  0
LINE
  5
3CF
330
3C7
100
AcDbEntity
  8
0
  6
Continuous
 62
     0
370
    18
100
AcDbLine
 10
-5.0
 20
0.0
 30
0.0
 11
-5.75
 21
0.0
 31
0.0
  0
LINE
  5
3D0
330
3C7
100
AcDbEntity
  8
0
  6
Continuous
 62
     0
370
    18
100
AcDbLine
 10
0.0
 20
-5.0
 30
0.0
 11
0.0
 21
-5.75
 31
0.0
  0
LINE
  5
3D1
330
3C7
100
AcDbEntity
  8
0
  6
Continuous
 62
     0
370
    18
100
AcDbLine
 10
5.0
 20
0.0
 30
0.0
 11
5.75
 21
0.0
 31
0.0
  0
ENDBLK
  5
3C9
330
3C7
100
AcDbEntity
  8
0
100
AcDbBlockEnd
  0
BLOCK
  5
3D4
330
3D3
100
AcDbEntity
  8
0
100
AcDbBlockBegin
  2
SW_CENTERMARKSYMBOL_6
 70
     0
 10
0.0
 20
0.0
 30
0.0
  3
SW_CENTERMARKSYMBOL_6
  1

  0
LINE
  5
3D6
330
3D3
100
AcDbEntity
  8
0
  6
Continuous
 62
     0
370
    18
100
AcDbLine
 10
0.0
 20
0.0
 30
0.0
 11
0.0
 21
2.5
 31
0.0
  0
LINE
  5
3D7
330
3D3
100
AcDbEntity
  8
0
  6
Continuous
 62
     0
370
    18
100
AcDbLine
 10
0.0
 20
0.0
 30
0.0
 11
-2.5
 21
0.0
 31
0.0
  0
LINE
  5
3D8
330
3D3
100
AcDbEntity
  8
0
  6
Continuous
 62
     0
370
    18
100
AcDbLine
 10
0.0
 20
0.0
 30
0.0
 11
0.0
 21
-2.5
 31
0.0
  0
LINE
  5
3D9
330
3D3
100
AcDbEntity
  8
0
  6
Continuous
 62
     0
370
    18
100
AcDbLine
 10
0.0
 20
0.0
 30
0.0
 11
2.5
 21
0.0
 31
0.0
  0
LINE
  5
3DA
330
3D3
100
AcDbEntity
  8
0
  6
Continuous
 62
     0
370
    18
100
AcDbLine
 10
0.0
 20
5.0
 30
0.0
 11
0.0
 21
5.75
 31
0.0
  0
LINE
  5
3DB
330
3D3
100
AcDbEntity
  8
0
  6
Continuous
 62
     0
370
    18
100
AcDbLine
 10
-5.0
 20
0.0
 30
0.0
 11
-5.75
 21
0.0
 31
0.0
  0
LINE
  5
3DC
330
3D3
100
AcDbEntity
  8
0
  6
Continuous
 62
     0
370
    18
100
AcDbLine
 10
0.0
 20
-5.0
 30
0.0
 11
0.0
 21
-5.75
 31
0.0
  0
LINE
  5
3DD
330
3D3
100
AcDbEntity
  8
0
  6
Continuous
 62
     0
370
    18
100
AcDbLine
 10
5.0
 20
0.0
 30
0.0
 11
5.75
 21
0.0
 31
0.0
  0
ENDBLK
  5
3D5
330
3D3
100
AcDbEntity
  8
0
100
AcDbBlockEnd
  0
ENDSEC
  0
SECTION
  2
ENTITIES
  0
LINE
  5
74
330
1F
100
AcDbEntity
  8
0
  6
Continuous
 62
     7
370
    50
100
AcDbLine
 10
230.0
 20
14.25
 30
0.0
 11
410.0
 21
14.25
 31
0.0
  0
LINE
  5
75
330
1F
100
AcDbEntity
  8
0
  6
Continuous
 62
     7
370
    50
100
AcDbLine
 10
410.0
 20
48.25
 30
0.0
 11
230.0
 21
48.25
 31
0.0
  0
LINE
  5
76
330
1F
100
AcDbEntity
  8
0
  6
Continuous
 62
     7
370
    50
100
AcDbLine
 10
230.0
 20
65.25
 30
0.0
 11
410.0
 21
65.25
 31
0.0
  0
LINE
  5
77
330
1F
100
AcDbEntity
  8
0
  6
Continuous
 62
     7
370
    50
100
AcDbLine
 10
256.9909524338
 20
48.25
 30
0.0
 11
256.9909524338
 21
10.0
 31
0.0
  0
LINE
  5
78
330
1F
100
AcDbEntity
  8
0
  6
Continuous
 62
     7
370
    50
100
AcDbLine
 10
328.8
 20
31.25
 30
0.0
 11
230.0
 21
31.25
 31
0.0
  0
LINE
  5
79
330
1F
100
AcDbEntity
  8
0
  6
Continuous
 62
     7
370
    50
100
AcDbLine
 10
328.8
 20
35.5
 30
0.0
 11
230.0
 21
35.5
 31
0.0
  0
LINE
  5
7A
330
1F
100
AcDbEntity
  8
0
  6
Continuous
 62
     7
370
    50
100
AcDbLine
 10
328.8
 20
39.75
 30
0.0
 11
230.0
 21
39.75
 31
0.0
  0
LINE
  5
7B
330
1F
100
AcDbEntity
  8
0
  6
Continuous
 62
     7
370
    50
100
AcDbLine
 10
328.8
 20
44.0
 30
0.0
 11
230.0
 21
44.0
 31
0.0
  0
LINE
  5
7C
330
1F
100
AcDbEntity
  8
0
  6
Continuous
 62
     7
370
    50
100
AcDbLine
 10
284.6
 20
10.0
 30
0.0
 11
284.6
 21
48.25
 31
0.0
  0
LINE
  5
7D
330
1F
100
AcDbEntity
  8
0
  6
Continuous
 62
     7
370
    50
100
AcDbLine
 10
230.0
 20
65.25
 30
0.0
 11
230.0
 21
10.0
 31
0.0
  0
LINE
  5
7E
330
1F
100
AcDbEntity
  8
0
  6
Continuous
 62
     7
370
    50
100
AcDbLine
 10
242.0703737145
 20
48.25
 30
0.0
 11
242.0703737145
 21
10.0
 31
0.0
  0
LINE
  5
7F
330
1F
100
AcDbEntity
  8
0
  6
Continuous
 62
     7
370
    50
100
AcDbLine
 10
263.8
 20
48.25
 30
0.0
 11
263.8
 21
65.25
 31
0.0
  0
LINE
  5
80
330
1F
100
AcDbEntity
  8
0
  6
Continuous
 62
     7
370
    50
100
AcDbLine
 10
274.3989261635
 20
48.25
 30
0.0
 11
274.3989261635
 21
10.0
 31
0.0
  0
LINE
  5
81
330
1F
100
AcDbEntity
  8
0
  6
Continuous
 62
     7
370
    50
100
AcDbLine
 10
295.0
 20
31.25
 30
0.0
 11
295.0
 21
48.25
 31
0.0
  0
LINE
  5
82
330
1F
100
AcDbEntity
  8
0
  6
Continuous
 62
     7
370
    50
100
AcDbLine
 10
284.6
 20
18.5
 30
0.0
 11
230.0
 21
18.5
 31
0.0
  0
LINE
  5
83
330
1F
100
AcDbEntity
  8
0
  6
Continuous
 62
     7
370
    50
100
AcDbLine
 10
310.6
 20
65.25
 30
0.0
 11
310.6
 21
27.0
 31
0.0
  0
LINE
  5
84
330
1F
100
AcDbEntity
  8
0
  6
Continuous
 62
     7
370
    50
100
AcDbLine
 10
284.6
 20
22.749928
 30
0.0
 11
230.0
 21
22.749928
 31
0.0
  0
LINE
  5
85
330
1F
100
AcDbEntity
  8
0
  6
Continuous
 62
     7
370
    50
100
AcDbLine
 10
284.6
 20
27.0
 30
0.0
 11
230.0
 21
27.0
 31
0.0
  0
LINE
  5
86
330
1F
100
AcDbEntity
  8
0
  6
Continuous
 62
     7
370
    50
100
AcDbLine
 10
284.6
 20
27.0
 30
0.0
 11
410.0
 21
27.0
 31
0.0
  0
LINE
  5
87
330
1F
100
AcDbEntity
  8
0
  6
Continuous
 62
     7
370
    50
100
AcDbLine
 10
328.8
 20
65.25
 30
0.0
 11
328.8
 21
10.0
 31
0.0
  0
LINE
  5
88
330
1F
100
AcDbEntity
  8
0
  6
Continuous
 62
     7
370
    50
100
AcDbLine
 10
373.0
 20
10.0
 30
0.0
 11
373.0
 21
14.25
 31
0.0
  0
LINE
  5
89
330
1F
100
AcDbEntity
  8
0
  6
Continuous
 62
     7
370
    50
100
AcDbLine
 10
380.8
 20
58.875
 30
0.0
 11
380.8
 21
65.25
 31
0.0
  0
LINE
  5
8A
330
1F
100
AcDbEntity
  8
0
  6
Continuous
 62
     7
370
    50
100
AcDbLine
 10
397.0
 20
14.25
 30
0.0
 11
397.0
 21
27.0
 31
0.0
  0
LINE
  5
8B
330
1F
100
AcDbEntity
  8
0
  6
Continuous
 62
     7
370
    50
100
AcDbLine
 10
410.0
 20
58.875
 30
0.0
 11
328.8
 21
58.875
 31
0.0
  0
LINE
  5
8C
330
1F
100
AcDbEntity
  8
0
  6
Continuous
 62
     7
370
    50
100
AcDbLine
 10
410.0
 20
18.5
 30
0.0
 11
397.0
 21
18.5
 31
0.0
  0
LINE
  5
8D
330
1F
100
AcDbEntity
  8
0
  6
Continuous
 62
     7
370
    70
100
AcDbLine
 10
20.0
 20
10.0
 30
0.0
 11
20.0
 21
287.0
 31
0.0
  0
LINE
  5
8E
330
1F
100
AcDbEntity
  8
0
  6
Continuous
 62
     7
370
    70
100
AcDbLine
 10
20.0
 20
287.0
 30
0.0
 11
410.0
 21
287.0
 31
0.0
  0
LINE
  5
8F
330
1F
100
AcDbEntity
  8
0
  6
Continuous
 62
     7
370
    70
100
AcDbLine
 10
410.0
 20
287.0
 30
0.0
 11
410.0
 21
10.0
 31
0.0
  0
LINE
  5
90
330
1F
100
AcDbEntity
  8
0
  6
Continuous
 62
     7
370
    70
100
AcDbLine
 10
410.0
 20
10.0
 30
0.0
 11
20.0
 21
10.0
 31
0.0
  0
LINE
  5
91
330
1F
100
AcDbEntity
  8
0
  6
Continuous
 62
     7
370
    70
100
AcDbLine
 10
15.0
 20
5.0
 30
0.0
 11
15.0
 21
292.0
 31
0.0
  0
LINE
  5
92
330
1F
100
AcDbEntity
  8
0
  6
Continuous
 62
     7
370
    70
100
AcDbLine
 10
15.0
 20
292.0
 30
0.0
 11
415.0
 21
292.0
 31
0.0
  0
LINE
  5
93
330
1F
100
AcDbEntity
  8
0
  6
Continuous
 62
     7
370
    70
100
AcDbLine
 10
415.0
 20
292.0
 30
0.0
 11
415.0
 21
5.0
 31
0.0
  0
LINE
  5
94
330
1F
100
AcDbEntity
  8
0
  6
Continuous
 62
     7
370
    70
100
AcDbLine
 10
415.0
 20
5.0
 30
0.0
 11
15.0
 21
5.0
 31
0.0
  0
LINE
  5
95
330
1F
100
AcDbEntity
  8
0
  6
Continuous
 62
     7
370
    35
100
AcDbLine
 10
15.0
 20
148.5
 30
0.0
 11
25.0
 21
148.5
 31
0.0
  0
LINE
  5
96
330
1F
100
AcDbEntity
  8
0
  6
Continuous
 62
     7
370
    35
100
AcDbLine
 10
215.0
 20
292.0
 30
0.0
 11
215.0
 21
282.0
 31
0.0
  0
LINE
  5
97
330
1F
100
AcDbEntity
  8
0
  6
Continuous
 62
     7
370
    35
100
AcDbLine
 10
415.0
 20
148.5
 30
0.0
 11
405.0
 21
148.5
 31
0.0
  0
LINE
  5
98
330
1F
100
AcDbEntity
  8
0
  6
Continuous
 62
     7
370
    35
100
AcDbLine
 10
215.0
 20
5.0
 30
0.0
 11
215.0
 21
15.0
 31
0.0
  0
LINE
  5
99
330
1F
100
AcDbEntity
  8
0
  6
Continuous
 62
     7
370
    35
100
AcDbLine
 10
20.0
 20
48.5
 30
0.0
 11
15.0
 21
48.5
 31
0.0
  0
LINE
  5
9A
330
1F
100
AcDbEntity
  8
0
  6
Continuous
 62
     7
370
    35
100
AcDbLine
 10
410.0
 20
48.5
 30
0.0
 11
415.0
 21
48.5
 31
0.0
  0
LINE
  5
9B
330
1F
100
AcDbEntity
  8
0
  6
Continuous
 62
     7
370
    35
100
AcDbLine
 10
20.0
 20
98.5
 30
0.0
 11
15.0
 21
98.5
 31
0.0
  0
LINE
  5
9C
330
1F
100
AcDbEntity
  8
0
  6
Continuous
 62
     7
370
    35
100
AcDbLine
 10
410.0
 20
98.5
 30
0.0
 11
415.0
 21
98.5
 31
0.0
  0
LINE
  5
9D
330
1F
100
AcDbEntity
  8
0
  6
Continuous
 62
     7
370
    35
100
AcDbLine
 10
20.0
 20
148.5
 30
0.0
 11
15.0
 21
148.5
 31
0.0
  0
LINE
  5
9E
330
1F
100
AcDbEntity
  8
0
  6
Continuous
 62
     7
370
    35
100
AcDbLine
 10
410.0
 20
148.5
 30
0.0
 11
415.0
 21
148.5
 31
0.0
  0
LINE
  5
9F
330
1F
100
AcDbEntity
  8
0
  6
Continuous
 62
     7
370
    35
100
AcDbLine
 10
20.0
 20
198.5
 30
0.0
 11
15.0
 21
198.5
 31
0.0
  0
LINE
  5
A0
330
1F
100
AcDbEntity
  8
0
  6
Continuous
 62
     7
370
    35
100
AcDbLine
 10
410.0
 20
198.5
 30
0.0
 11
415.0
 21
198.5
 31
0.0
  0
LINE
  5
A1
330
1F
100
AcDbEntity
  8
0
  6
Continuous
 62
     7
370
    35
100
AcDbLine
 10
20.0
 20
248.5
 30
0.0
 11
15.0
 21
248.5
 31
0.0
  0
LINE
  5
A2
330
1F
100
AcDbEntity
  8
0
  6
Continuous
 62
     7
370
    35
100
AcDbLine
 10
410.0
 20
248.5
 30
0.0
 11
415.0
 21
248.5
 31
0.0
  0
LINE
  5
A3
330
1F
100
AcDbEntity
  8
0
  6
Continuous
 62
     7
370
    35
100
AcDbLine
 10
65.0
 20
287.0
 30
0.0
 11
65.0
 21
292.0
 31
0.0
  0
LINE
  5
A4
330
1F
100
AcDbEntity
  8
0
  6
Continuous
 62
     7
370
    35
100
AcDbLine
 10
65.0
 20
10.0
 30
0.0
 11
65.0
 21
5.0
 31
0.0
  0
LINE
  5
A5
330
1F
100
AcDbEntity
  8
0
  6
Continuous
 62
     7
370
    35
100
AcDbLine
 10
115.0
 20
287.0
 30
0.0
 11
115.0
 21
292.0
 31
0.0
  0
LINE
  5
A6
330
1F
100
AcDbEntity
  8
0
  6
Continuous
 62
     7
370
    35
100
AcDbLine
 10
115.0
 20
10.0
 30
0.0
 11
115.0
 21
5.0
 31
0.0
  0
LINE
  5
A7
330
1F
100
AcDbEntity
  8
0
  6
Continuous
 62
     7
370
    35
100
AcDbLine
 10
165.0
 20
287.0
 30
0.0
 11
165.0
 21
292.0
 31
0.0
  0
LINE
  5
A8
330
1F
100
AcDbEntity
  8
0
  6
Continuous
 62
     7
370
    35
100
AcDbLine
 10
165.0
 20
10.0
 30
0.0
 11
165.0
 21
5.0
 31
0.0
  0
LINE
  5
A9
330
1F
100
AcDbEntity
  8
0
  6
Continuous
 62
     7
370
    35
100
AcDbLine
 10
215.0
 20
287.0
 30
0.0
 11
215.0
 21
292.0
 31
0.0
  0
LINE
  5
AA
330
1F
100
AcDbEntity
  8
0
  6
Continuous
 62
     7
370
    35
100
AcDbLine
 10
215.0
 20
10.0
 30
0.0
 11
215.0
 21
5.0
 31
0.0
  0
LINE
  5
AB
330
1F
100
AcDbEntity
  8
0
  6
Continuous
 62
     7
370
    35
100
AcDbLine
 10
265.0
 20
287.0
 30
0.0
 11
265.0
 21
292.0
 31
0.0
  0
LINE
  5
AC
330
1F
100
AcDbEntity
  8
0
  6
Continuous
 62
     7
370
    35
100
AcDbLine
 10
265.0
 20
10.0
 30
0.0
 11
265.0
 21
5.0
 31
0.0
  0
LINE
  5
AD
330
1F
100
AcDbEntity
  8
0
  6
Continuous
 62
     7
370
    35
100
AcDbLine
 10
315.0
 20
287.0
 30
0.0
 11
315.0
 21
292.0
 31
0.0
  0
LINE
  5
AE
330
1F
100
AcDbEntity
  8
0
  6
Continuous
 62
     7
370
    35
100
AcDbLine
 10
315.0
 20
10.0
 30
0.0
 11
315.0
 21
5.0
 31
0.0
  0
LINE
  5
AF
330
1F
100
AcDbEntity
  8
0
  6
Continuous
 62
     7
370
    35
100
AcDbLine
 10
365.0
 20
287.0
 30
0.0
 11
365.0
 21
292.0
 31
0.0
  0
LINE
  5
B0
330
1F
100
AcDbEntity
  8
0
  6
Continuous
 62
     7
370
    35
100
AcDbLine
 10
365.0
 20
10.0
 30
0.0
 11
365.0
 21
5.0
 31
0.0
  0
MTEXT
  5
B2
330
1F
100
AcDbEntity
  8
0
  6
Continuous
 62
     7
370
     0
100
AcDbMText
 10
17.3396881428
 20
31.1962239326
 30
0.0
 40
3.96875
 41
0.0
 71
     2
 72
     1
  1
A
  7
SLDTEXTSTYLE0
 73
     1
 44
1.0
  0
MTEXT
  5
B3
330
1F
100
AcDbEntity
  8
0
  6
Continuous
 62
     7
370
     0
100
AcDbMText
 10
412.3396881428
 20
31.1962239326
 30
0.0
 40
3.96875
 41
0.0
 71
     2
 72
     1
  1
A
  7
SLDTEXTSTYLE0
 73
     1
 44
1.0
  0
MTEXT
  5
B4
330
1F
100
AcDbEntity
  8
0
  6
Continuous
 62
     7
370
     0
100
AcDbMText
 10
17.4706018241
 20
75.4957779464
 30
0.0
 40
3.96875
 41
0.0
 71
     2
 72
     1
  1
B
  7
SLDTEXTSTYLE0
 73
     1
 44
1.0
  0
MTEXT
  5
B5
330
1F
100
AcDbEntity
  8
0
  6
Continuous
 62
     7
370
     0
100
AcDbMText
 10
412.4706018241
 20
75.4957779464
 30
0.0
 40
3.96875
 41
0.0
 71
     2
 72
     1
  1
B
  7
SLDTEXTSTYLE0
 73
     1
 44
1.0
  0
MTEXT
  5
B6
330
1F
100
AcDbEntity
  8
0
  6
Continuous
 62
     7
370
     0
100
AcDbMText
 10
17.458658902
 20
125.4462239326
 30
0.0
 40
3.96875
 41
0.0
 71
     2
 72
     1
  1
C
  7
SLDTEXTSTYLE0
 73
     1
 44
1.0
  0
MTEXT
  5
B7
330
1F
100
AcDbEntity
  8
0
  6
Continuous
 62
     7
370
     0
100
AcDbMText
 10
412.458658902
 20
125.4462239326
 30
0.0
 40
3.96875
 41
0.0
 71
     2
 72
     1
  1
C
  7
SLDTEXTSTYLE0
 73
     1
 44
1.0
  0
MTEXT
  5
B8
330
1F
100
AcDbEntity
  8
0
  6
Continuous
 62
     7
370
     0
100
AcDbMText
 10
17.4526872821
 20
175.4957779464
 30
0.0
 40
3.96875
 41
0.0
 71
     2
 72
     1
  1
D
  7
SLDTEXTSTYLE0
 73
     1
 44
1.0
  0
MTEXT
  5
B9
330
1F
100
AcDbEntity
  8
0
  6
Continuous
 62
     7
370
     0
100
AcDbMText
 10
412.4526872821
 20
175.4957779464
 30
0.0
 40
3.96875
 41
0.0
 71
     2
 72
     1
  1
D
  7
SLDTEXTSTYLE0
 73
     1
 44
1.0
  0
MTEXT
  5
BA
330
1F
100
AcDbEntity
  8
0
  6
Continuous
 62
     7
370
     0
100
AcDbMText
 10
17.5078089051
 20
225.4462239326
 30
0.0
 40
3.96875
 41
0.0
 71
     2
 72
     1
  1
E
  7
SLDTEXTSTYLE0
 73
     1
 44
1.0
  0
MTEXT
  5
BB
330
1F
100
AcDbEntity
  8
0
  6
Continuous
 62
     7
370
     0
100
AcDbMText
 10
412.5078089051
 20
225.4462239326
 30
0.0
 40
3.96875
 41
0.0
 71
     2
 72
     1
  1
E
  7
SLDTEXTSTYLE0
 73
     1
 44
1.0
  0
MTEXT
  5
BC
330
1F
100
AcDbEntity
  8
0
  6
Continuous
 62
     7
370
     0
100
AcDbMText
 10
17.4577402091
 20
269.7457779464
 30
0.0
 40
3.96875
 41
0.0
 71
     2
 72
     1
  1
F
  7
SLDTEXTSTYLE0
 73
     1
 44
1.0
  0
MTEXT
  5
BD
330
1F
100
AcDbEntity
  8
0
  6
Continuous
 62
     7
370
     0
100
AcDbMText
 10
412.4577402091
 20
269.7457779464
 30
0.0
 40
3.96875
 41
0.0
 71
     2
 72
     1
  1
F
  7
SLDTEXTSTYLE0
 73
     1
 44
1.0
  0
MTEXT
  5
BE
330
1F
100
AcDbEntity
  8
0
  6
Continuous
 62
     7
370
     0
100
AcDbMText
 10
42.4600369465
 20
9.4957779464
 30
0.0
 40
3.96875
 41
0.0
 71
     2
 72
     1
  1
8
  7
SLDTEXTSTYLE0
 73
     1
 44
1.0
  0
MTEXT
  5
BF
330
1F
100
AcDbEntity
  8
0
  6
Continuous
 62
     7
370
     0
100
AcDbMText
 10
42.4600369465
 20
291.4462239326
 30
0.0
 40
3.96875
 41
0.0
 71
     2
 72
     1
  1
8
  7
SLDTEXTSTYLE0
 73
     1
 44
1.0
  0
MTEXT
  5
C0
330
1F
100
AcDbEntity
  8
0
  6
Continuous
 62
     7
370
     0
100
AcDbMText
 10
89.9600369465
 20
9.4957779464
 30
0.0
 40
3.96875
 41
0.0
 71
     2
 72
     1
  1
7
  7
SLDTEXTSTYLE0
 73
     1
 44
1.0
  0
MTEXT
  5
C1
330
1F
100
AcDbEntity
  8
0
  6
Continuous
 62
     7
370
     0
100
AcDbMText
 10
89.9600369465
 20
291.4462239326
 30
0.0
 40
3.96875
 41
0.0
 71
     2
 72
     1
  1
7
  7
SLDTEXTSTYLE0
 73
     1
 44
1.0
  0
MTEXT
  5
C2
330
1F
100
AcDbEntity
  8
0
  6
Continuous
 62
     7
370
     0
100
AcDbMText
 10
139.9600369465
 20
9.4957779464
 30
0.0
 40
3.96875
 41
0.0
 71
     2
 72
     1
  1
6
  7
SLDTEXTSTYLE0
 73
     1
 44
1.0
  0
MTEXT
  5
C3
330
1F
100
AcDbEntity
  8
0
  6
Continuous
 62
     7
370
     0
100
AcDbMText
 10
139.9600369465
 20
291.4462239326
 30
0.0
 40
3.96875
 41
0.0
 71
     2
 72
     1
  1
6
  7
SLDTEXTSTYLE0
 73
     1
 44
1.0
  0
MTEXT
  5
C4
330
1F
100
AcDbEntity
  8
0
  6
Continuous
 62
     7
370
     0
100
AcDbMText
 10
189.9600369465
 20
9.4957779464
 30
0.0
 40
3.96875
 41
0.0
 71
     2
 72
     1
  1
5
  7
SLDTEXTSTYLE0
 73
     1
 44
1.0
  0
MTEXT
  5
C5
330
1F
100
AcDbEntity
  8
0
  6
Continuous
 62
     7
370
     0
100
AcDbMText
 10
189.9600369465
 20
291.4462239326
 30
0.0
 40
3.96875
 41
0.0
 71
     2
 72
     1
  1
5
  7
SLDTEXTSTYLE0
 73
     1
 44
1.0
  0
MTEXT
  5
C6
330
1F
100
AcDbEntity
  8
0
  6
Continuous
 62
     7
370
     0
100
AcDbMText
 10
239.9600369465
 20
9.4957779464
 30
0.0
 40
3.96875
 41
0.0
 71
     2
 72
     1
  1
4
  7
SLDTEXTSTYLE0
 73
     1
 44
1.0
  0
MTEXT
  5
C7
330
1F
100
AcDbEntity
  8
0
  6
Continuous
 62
     7
370
     0
100
AcDbMText
 10
239.9600369465
 20
291.4462239326
 30
0.0
 40
3.96875
 41
0.0
 71
     2
 72
     1
  1
4
  7
SLDTEXTSTYLE0
 73
     1
 44
1.0
  0
MTEXT
  5
C8
330
1F
100
AcDbEntity
  8
0
  6
Continuous
 62
     7
370
     0
100
AcDbMText
 10
289.9600369465
 20
9.4957779464
 30
0.0
 40
3.96875
 41
0.0
 71
     2
 72
     1
  1
3
  7
SLDTEXTSTYLE0
 73
     1
 44
1.0
  0
MTEXT
  5
C9
330
1F
100
AcDbEntity
  8
0
  6
Continuous
 62
     7
370
     0
100
AcDbMText
 10
289.9600369465
 20
291.4462239326
 30
0.0
 40
3.96875
 41
0.0
 71
     2
 72
     1
  1
3
  7
SLDTEXTSTYLE0
 73
     1
 44
1.0
  0
MTEXT
  5
CA
330
1F
100
AcDbEntity
  8
0
  6
Continuous
 62
     7
370
     0
100
AcDbMText
 10
339.9600369465
 20
9.4957779464
 30
0.0
 40
3.96875
 41
0.0
 71
     2
 72
     1
  1
2
  7
SLDTEXTSTYLE0
 73
     1
 44
1.0
  0
MTEXT
  5
CB
330
1F
100
AcDbEntity
  8
0
  6
Continuous
 62
     7
370
     0
100
AcDbMText
 10
339.9600369465
 20
291.4462239326
 30
0.0
 40
3.96875
 41
0.0
 71
     2
 72
     1
  1
2
  7
SLDTEXTSTYLE0
 73
     1
 44
1.0
  0
MTEXT
  5
CC
330
1F
100
AcDbEntity
  8
0
  6
Continuous
 62
     7
370
     0
100
AcDbMText
 10
387.4600369465
 20
9.4957779464
 30
0.0
 40
3.96875
 41
0.0
 71
     2
 72
     1
  1
1
  7
SLDTEXTSTYLE0
 73
     1
 44
1.0
  0
MTEXT
  5
CD
330
1F
100
AcDbEntity
  8
0
  6
Continuous
 62
     7
370
     0
100
AcDbMText
 10
387.4600369465
 20
291.4462239326
 30
0.0
 40
3.96875
 41
0.0
 71
     2
 72
     1
  1
1
  7
SLDTEXTSTYLE0
 73
     1
 44
1.0
  0
MTEXT
  5
CE
330
1F
100
AcDbEntity
  8
0
  6
Continuous
 62
     7
370
     0
100
AcDbMText
 10
364.4820030336
 20
23.347828666
 30
0.0
 40
4.2333333333
 41
0.0
 71
     2
 72
     1
  1
CM025EGMG#120_#_#
  7
SLDTEXTSTYLE0
 73
     1
 44
1.0
  0
MTEXT
  5
CF
330
1F
100
AcDbEntity
  8
0
  6
Continuous
 62
     7
370
     0
100
AcDbMText
 10
285.6178111281
 20
12.9493119036
 30
0.0
 40
1.4986
 41
0.0
 71
     1
 72
     1
  1
HMOTNOST:
  7
SLDTEXTSTYLE0
 73
     1
 44
1.0
  0
MTEXT
  5
D0
330
1F
100
AcDbEntity
  8
0
  6
Continuous
 62
     7
370
     0
100
AcDbMText
 10
400.8711564346
 20
24.406388569
 30
0.0
 40
2.9104166667
 41
0.0
 71
     1
 72
     1
  1
A3
  7
SLDTEXTSTYLE0
 73
     1
 44
1.0
  0
MTEXT
  5
D2
330
1F
100
AcDbEntity
  8
0
  6
Continuous
 62
     7
370
     0
100
AcDbMText
 10
374.4782944278
 20
12.9000872745
 30
0.0
 40
1.5
 41
0.0
 71
     1
 72
     1
  1
LIST 1 Z 1 LISTŮ
  7
SLDTEXTSTYLE1
 73
     1
 44
1.0
  0
MTEXT
  5
D4
330
1F
100
AcDbEntity
  8
0
  6
Continuous
 62
     7
370
     0
100
AcDbMText
 10
330.0739661175
 20
12.9000872745
 30
0.0
 40
1.5
 41
0.0
 71
     1
 72
     1
  1
MĚŘÍTKO:1:1
  7
SLDTEXTSTYLE2
 73
     1
 44
1.0
  0
MTEXT
  5
D5
330
1F
100
AcDbEntity
  8
0
  6
Continuous
 62
     7
370
     0
100
AcDbMText
 10
330.2786531243
 20
25.9860562892
 30
0.0
 40
1.5
 41
0.0
 71
     1
 72
     1
  1
Č. VÝKRESU
  7
SLDTEXTSTYLE2
 73
     1
 44
1.0
  0
MTEXT
  5
D6
330
1F
100
AcDbEntity
  8
0
  6
Continuous
 62
     7
370
     0
100
AcDbMText
 10
329.9561869366
 20
46.5761792212
 30
0.0
 40
1.5
 41
0.0
 71
     1
 72
     1
  1
NÁZEV:
  7
SLDTEXTSTYLE0
 73
     1
 44
1.0
  0
MTEXT
  5
D7
330
1F
100
AcDbEntity
  8
0
  6
Continuous
 62
     7
370
     0
100
AcDbMText
 10
383.3275816993
 20
62.3349086805
 30
0.0
 40
1.5
 41
0.0
 71
     1
 72
     1
  1
ZMĚNA
  7
SLDTEXTSTYLE2
 73
     1
 44
1.0
  0
MTEXT
  5
D8
330
1F
100
AcDbEntity
  8
0
  6
Continuous
 62
     7
370
     0
100
AcDbMText
 10
342.6146405229
 20
62.5329935751
 30
0.0
 40
1.5
 41
0.0
 71
     1
 72
     1
  1
NEUPRAVOVAT MĚŘÍTKO VÝKRESU
  7
SLDTEXTSTYLE2
 73
     1
 44
1.0
  0
MTEXT
  5
D9
330
1F
100
AcDbEntity
  8
0
  6
Continuous
 62
     7
370
     0
100
AcDbMText
 10
285.6458623088
 20
25.9860562892
 30
0.0
 40
1.5
 41
0.0
 71
     1
 72
     1
  1
MATERIÁL:
  7
SLDTEXTSTYLE0
 73
     1
 44
1.0
  0
MTEXT
  5
DA
330
1F
100
AcDbEntity
  8
0
  6
Continuous
 62
     7
370
     0
100
AcDbMText
 10
277.2147019657
 20
46.5761792212
 30
0.0
 40
1.5
 41
0.0
 71
     1
 72
     1
  1
DATUM
  7
SLDTEXTSTYLE0
 73
     1
 44
1.0
  0
MTEXT
  5
DB
330
1F
100
AcDbEntity
  8
0
  6
Continuous
 62
     7
370
     0
100
AcDbMText
 10
260.0335875632
 20
46.5617563795
 30
0.0
 40
1.5
 41
0.0
 71
     1
 72
     1
  1
PODPIS
  7
SLDTEXTSTYLE0
 73
     1
 44
1.0
  0
MTEXT
  5
DC
330
1F
100
AcDbEntity
  8
0
  6
Continuous
 62
     7
370
     0
100
AcDbMText
 10
244.3222392177
 20
46.5014826335
 30
0.0
 40
1.5
 41
0.0
 71
     1
 72
     1
  1
JMÉNO
  7
SLDTEXTSTYLE0
 73
     1
 44
1.0
  0
INSERT
  5
E2
330
1F
100
AcDbEntity
  8
0
  6
Continuous
 62
     7
370
     0
100
AcDbBlockReference
  2
SW_NOTE_0
 10
311.3092156863
 20
62.069489643
 30
0.0
  0
MTEXT
  5
E3
330
1F
100
AcDbEntity
  8
0
  6
Continuous
 62
     7
370
     0
100
AcDbMText
 10
264.3712921668
 20
63.9192719951
 30
0.0
 40
1.5
 41
0.0
 71
     1
 72
     1
  1
OPRACOVÁNÍ:
  7
SLDTEXTSTYLE0
 73
     1
 44
1.0
  0
INSERT
  5
ED
330
1F
100
AcDbEntity
  8
0
  6
Continuous
 62
     7
370
     0
100
AcDbBlockReference
  2
SW_NOTE_0_1
 10
230.5936687456
 20
61.9873698743
 30
0.0
  0
MTEXT
  5
EE
330
1F
100
AcDbEntity
  8
0
  6
Continuous
 62
     7
370
     0
100
AcDbMText
 10
230.6690428622
 20
25.3496492073
 30
0.0
 40
1.5
 41
0.0
 71
     1
 72
     1
  1
Z. JAKOSTI
  7
SLDTEXTSTYLE0
 73
     1
 44
1.0
  0
MTEXT
  5
EF
330
1F
100
AcDbEntity
  8
0
  6
Continuous
 62
     7
370
     0
100
AcDbMText
 10
230.4551864991
 20
29.7337046506
 30
0.0
 40
1.5
 41
0.0
 71
     1
 72
     1
  1
VÝROBA
  7
SLDTEXTSTYLE0
 73
     1
 44
1.0
  0
MTEXT
  5
F0
330
1F
100
AcDbEntity
  8
0
  6
Continuous
 62
     7
370
     0
100
AcDbMText
 10
230.4017224083
 20
34.0642960031
 30
0.0
 40
1.5
 41
0.0
 71
     1
 72
     1
  1
SCHVÁLIL
  7
SLDTEXTSTYLE0
 73
     1
 44
1.0
  0
MTEXT
  5
F1
330
1F
100
AcDbEntity
  8
0
  6
Continuous
 62
     7
370
     0
100
AcDbMText
 10
230.4104688676
 20
38.15440716
 30
0.0
 40
1.5
 41
0.0
 71
     1
 72
     1
  1
PŘEZKOUŠEL
  7
SLDTEXTSTYLE2
 73
     1
 44
1.0
  0
MTEXT
  5
F2
330
1F
100
AcDbEntity
  8
0
  6
Continuous
 62
     7
370
     0
100
AcDbMText
 10
230.2121492441
 20
42.4297148859
 30
0.0
 40
1.5
 41
0.0
 71
     1
 72
     1
  1
NAVRHL
  7
SLDTEXTSTYLE0
 73
     1
 44
1.0
  0
ARC
  5
F3
330
1F
100
AcDbEntity
  8
0
  6
Continuous
 62
     7
370
    25
100
AcDbCircle
 10
123.44
 20
196.56
 30
0.0
 40
8.200000000000047
100
AcDbArc
 50
293.8461756987
 51
336.1538243013
  0
ARC
  5
F4
330
1F
100
AcDbEntity
  8
0
  6
Continuous
 62
     7
370
    25
100
AcDbCircle
 10
123.44
 20
196.56
 30
0.0
 40
8.200000000000086
100
AcDbArc
 50
203.8461756987
 51
246.1538243013
  0
LINE
  5
F5
330
1F
100
AcDbEntity
  8
0
  6
Continuous
 62
     7
370
    25
100
AcDbLine
 10
115.94
 20
199.8751168908
 30
0.0
 11
115.94
 21
193.2448831091
 31
0.0
  0
ARC
  5
F6
330
1F
100
AcDbEntity
  8
0
  6
Continuous
 62
     7
370
    25
100
AcDbCircle
 10
123.44
 20
196.56
 30
0.0
 40
8.200000000000086
100
AcDbArc
 50
113.8461756987
 51
156.1538243013
  0
LINE
  5
F7
330
1F
100
AcDbEntity
  8
0
  6
Continuous
 62
     7
370
    25
100
AcDbLine
 10
126.7551168909
 20
204.06
 30
0.0
 11
120.1248831092
 21
204.06
 31
0.0
  0
ARC
  5
F8
330
1F
100
AcDbEntity
  8
0
  6
Continuous
 62
     7
370
    25
100
AcDbCircle
 10
123.44
 20
196.56
 30
0.0
 40
8.200000000000028
100
AcDbArc
 50
23.8461756987
 51
66.1538243013
  0
LINE
  5
F9
330
1F
100
AcDbEntity
  8
0
  6
Continuous
 62
     7
370
    25
100
AcDbLine
 10
130.94
 20
193.2448831091
 30
0.0
 11
130.94
 21
199.8751168908
 31
0.0
  0
CIRCLE
  5
FA
330
1F
100
AcDbEntity
  8
0
  6
Continuous
 62
     7
370
    25
100
AcDbCircle
 10
123.44
 20
196.56
 30
0.0
 40
4.549999999999969
  0
LINE
  5
FB
330
1F
100
AcDbEntity
  8
0
  6
Continuous
 62
     7
370
    25
100
AcDbLine
 10
120.1248831092
 20
189.06
 30
0.0
 11
126.7551168909
 21
189.06
 31
0.0
  0
CIRCLE
  5
FC
330
1F
100
AcDbEntity
  8
0
  6
Continuous
 62
     7
370
    25
100
AcDbCircle
 10
123.44
 20
196.56
 30
0.0
 40
4.25
  0
ARC
  5
FD
330
1F
100
AcDbEntity
  8
0
  6
Continuous
 62
     7
370
    25
100
AcDbCircle
 10
123.44
 20
196.56
 30
0.0
 40
8.500000000000012
100
AcDbArc
 50
118.0724869359
 51
151.9275130641
  0
LINE
  5
FE
330
1F
100
AcDbEntity
  8
0
  6
Continuous
 62
     7
370
    25
100
AcDbLine
 10
115.94
 20
199.8751168908
 30
0.0
 11
115.94
 21
200.56
 31
0.0
  0
LINE
  5
FF
330
1F
100
AcDbEntity
  8
0
  6
Continuous
 62
     7
370
    25
100
AcDbLine
 10
119.44
 20
204.06
 30
0.0
 11
120.1248831092
 21
204.06
 31
0.0
  0
ARC
  5
100
330
1F
100
AcDbEntity
  8
0
  6
Continuous
 62
     7
370
    25
100
AcDbCircle
 10
123.44
 20
196.56
 30
0.0
 40
8.500000000000025
100
AcDbArc
 50
298.0724869359
 51
331.9275130641
  0
LINE
  5
101
330
1F
100
AcDbEntity
  8
0
  6
Continuous
 62
     7
370
    25
100
AcDbLine
 10
130.94
 20
193.2448831091
 30
0.0
 11
130.94
 21
192.56
 31
0.0
  0
LINE
  5
102
330
1F
100
AcDbEntity
  8
0
  6
Continuous
 62
     7
370
    25
100
AcDbLine
 10
127.44
 20
189.06
 30
0.0
 11
126.7551168909
 21
189.06
 31
0.0
  0
ARC
  5
103
330
1F
100
AcDbEntity
  8
0
  6
Continuous
 62
     7
370
    25
100
AcDbCircle
 10
123.44
 20
196.56
 30
0.0
 40
8.500000000000032
100
AcDbArc
 50
208.0724869359
 51
241.9275130641
  0
LINE
  5
104
330
1F
100
AcDbEntity
  8
0
  6
Continuous
 62
     7
370
    25
100
AcDbLine
 10
115.94
 20
192.56
 30
0.0
 11
115.94
 21
193.2448831091
 31
0.0
  0
LINE
  5
105
330
1F
100
AcDbEntity
  8
0
  6
Continuous
 62
     7
370
    25
100
AcDbLine
 10
120.1248831092
 20
189.06
 30
0.0
 11
119.44
 21
189.06
 31
0.0
  0
ARC
  5
106
330
1F
100
AcDbEntity
  8
0
  6
Continuous
 62
     7
370
    25
100
AcDbCircle
 10
123.44
 20
196.56
 30
0.0
 40
8.500000000000012
100
AcDbArc
 50
28.0724869359
 51
61.9275130641
  0
LINE
  5
107
330
1F
100
AcDbEntity
  8
0
  6
Continuous
 62
     7
370
    25
100
AcDbLine
 10
126.7551168909
 20
204.06
 30
0.0
 11
127.44
 21
204.06
 31
0.0
  0
LINE
  5
108
330
1F
100
AcDbEntity
  8
0
  6
Continuous
 62
     7
370
    25
100
AcDbLine
 10
130.94
 20
200.56
 30
0.0
 11
130.94
 21
199.8751168908
 31
0.0
  0
ARC
  5
109
330
1F
100
AcDbEntity
  8
0
  6
Continuous
 62
     7
370
    25
100
AcDbCircle
 10
123.44
 20
196.56
 30
0.0
 40
8.500000000000012
100
AcDbArc
 50
331.9275130641
 51
28.0724869359
  0
ARC
  5
10A
330
1F
100
AcDbEntity
  8
0
  6
Continuous
 62
     7
370
    25
100
AcDbCircle
 10
123.44
 20
196.56
 30
0.0
 40
8.500000000000032
100
AcDbArc
 50
241.9275130641
 51
298.0724869359
  0
ARC
  5
10B
330
1F
100
AcDbEntity
  8
0
  6
Continuous
 62
     7
370
    25
100
AcDbCircle
 10
123.44
 20
196.56
 30
0.0
 40
8.500000000000027
100
AcDbArc
 50
151.9275130641
 51
208.0724869359
  0
ARC
  5
10C
330
1F
100
AcDbEntity
  8
0
  6
Continuous
 62
     7
370
    25
100
AcDbCircle
 10
123.44
 20
196.56
 30
0.0
 40
8.500000000000007
100
AcDbArc
 50
61.9275130641
 51
118.0724869359
  0
CIRCLE
  5
10D
330
1F
100
AcDbEntity
  8
0
  6
Continuous
 62
     7
370
    25
100
AcDbCircle
 10
123.44
 20
196.56
 30
0.0
 40
9.000000000000014
  0
CIRCLE
  5
10E
330
1F
100
AcDbEntity
  8
0
  6
Continuous
 62
     7
370
    25
100
AcDbCircle
 10
123.44
 20
196.56
 30
0.0
 40
14.0
  0
CIRCLE
  5
10F
330
1F
100
AcDbEntity
  8
0
  6
Continuous
 62
     7
370
    25
100
AcDbCircle
 10
123.44
 20
196.56
 30
0.0
 40
15.0
  0
LINE
  5
110
330
1F
100
AcDbEntity
  8
0
  6
Continuous
 62
     7
370
    25
100
AcDbLine
 10
96.24
 20
214.06
 30
0.0
 11
150.64
 21
214.06
 31
0.0
  0
LINE
  5
111
330
1F
100
AcDbEntity
  8
0
  6
Continuous
 62
     7
370
    25
100
AcDbLine
 10
150.94
 20
213.76
 30
0.0
 11
150.64
 21
214.06
 31
0.0
  0
LINE
  5
112
330
1F
100
AcDbEntity
  8
0
  6
Continuous
 62
     7
370
    25
100
AcDbLine
 10
150.94
 20
213.76
 30
0.0
 11
150.94
 21
179.36
 31
0.0
  0
LINE
  5
113
330
1F
100
AcDbEntity
  8
0
  6
Continuous
 62
     7
370
    25
100
AcDbLine
 10
150.64
 20
179.06
 30
0.0
 11
150.94
 21
179.36
 31
0.0
  0
LINE
  5
114
330
1F
100
AcDbEntity
  8
0
  6
Continuous
 62
     7
370
    25
100
AcDbLine
 10
150.64
 20
179.06
 30
0.0
 11
96.24
 21
179.06
 31
0.0
  0
LINE
  5
115
330
1F
100
AcDbEntity
  8
0
  6
Continuous
 62
     7
370
    25
100
AcDbLine
 10
95.94
 20
179.36
 30
0.0
 11
96.24
 21
179.06
 31
0.0
  0
LINE
  5
116
330
1F
100
AcDbEntity
  8
0
  6
Continuous
 62
     7
370
    25
100
AcDbLine
 10
96.24
 20
214.06
 30
0.0
 11
95.94
 21
213.76
 31
0.0
  0
LINE
  5
117
330
1F
100
AcDbEntity
  8
0
  6
Continuous
 62
     7
370
    25
100
AcDbLine
 10
95.94
 20
179.36
 30
0.0
 11
95.94
 21
213.76
 31
0.0
  0
DIMENSION
  5
118
330
1F
100
AcDbEntity
  8
0
  6
Continuous
 62
     7
370
    18
100
AcDbDimension
  2
_D
 10
85.94
 20
214.06
 30
0.0
 11
85.94
 21
196.56
 31
0.0
 70
   160
  1
<>
 71
     2
 42
-1.0
  3
SLDDIMSTYLE0
100
AcDbAlignedDimension
 13
96.24
 23
179.06
 33
0.0
 14
96.24
 24
214.06
 34
0.0
 50
90.0
100
AcDbRotatedDimension
  0
DIMENSION
  5
123
330
1F
100
AcDbEntity
  8
0
  6
Continuous
 62
     7
370
    18
100
AcDbDimension
  2
_D_1
 10
95.94
 20
224.06
 30
0.0
 11
123.44
 21
224.06
 31
0.0
 70
   160
  1
<>
 71
     2
 42
-1.0
  3
SLDDIMSTYLE0
100
AcDbAlignedDimension
 13
150.94
 23
213.76
 33
0.0
 14
95.94
 24
213.76
 34
0.0
100
AcDbRotatedDimension
  0
DIMENSION
  5
12D
330
1F
100
AcDbEntity
  8
0
  6
Continuous
 62
     7
370
    18
100
AcDbDimension
  2
_D_2
 10
120.2226641456
 20
199.7773358544
 30
0.0
 11
150.94001
 21
169.06001
 31
0.0
 70
   163
  1
M10x1.5
 71
     1
 42
-1.0
  3
SLDDIMSTYLE1
100
AcDbDiametricDimension
 15
126.6573358544
 25
193.3426641456
 35
0.0
 40
0.0
  0
INSERT
  5
144
330
1F
100
AcDbEntity
  8
0
  6
Continuous
 62
     7
370
     0
100
AcDbBlockReference
  2
SW_CENTERMARKSYMBOL_0
 10
123.44
 20
196.56
 30
0.0
  0
LINE
  5
145
330
1F
100
AcDbEntity
  8
0
  6
Continuous
 62
     7
370
    25
100
AcDbLine
 10
361.94
 20
205.56
 30
0.0
 11
246.44
 21
205.56
 31
0.0
  0
LINE
  5
146
330
1F
100
AcDbEntity
  8
0
  6
Continuous
 62
     7
370
    25
100
AcDbLine
 10
246.44
 20
187.56
 30
0.0
 11
361.94
 21
187.56
 31
0.0
  0
LINE
  5
147
330
1F
100
AcDbEntity
  8
0
  6
Continuous
 62
     7
370
    25
100
AcDbLine
 10
246.44
 20
205.56
 30
0.0
 11
245.94
 21
205.06
 31
0.0
  0
LINE
  5
148
330
1F
100
AcDbEntity
  8
0
  6
Continuous
 62
     7
370
    25
100
AcDbLine
 10
245.94
 20
188.06
 30
0.0
 11
246.44
 21
187.56
 31
0.0
  0
LINE
  5
149
330
1F
100
AcDbEntity
  8
0
  6
Continuous
 62
     7
370
    25
100
AcDbLine
 10
364.94
 20
211.56
 30
0.0
 11
362.94
 21
211.56
 31
0.0
  0
LINE
  5
14A
330
1F
100
AcDbEntity
  8
0
  6
Continuous
 62
     7
370
    25
100
AcDbLine
 10
362.94
 20
181.56
 30
0.0
 11
364.94
 21
181.56
 31
0.0
  0
LINE
  5
14B
330
1F
100
AcDbEntity
  8
0
  6
Continuous
 62
     7
370
    25
100
AcDbLine
 10
362.94
 20
211.56
 30
0.0
 11
361.94
 21
210.56
 31
0.0
  0
LINE
  5
14C
330
1F
100
AcDbEntity
  8
0
  6
Continuous
 62
     7
370
    25
100
AcDbLine
 10
361.94
 20
182.56
 30
0.0
 11
362.94
 21
181.56
 31
0.0
  0
LINE
  5
14D
330
1F
100
AcDbEntity
  8
0
  6
Continuous
 62
     7
370
    25
100
AcDbLine
 10
246.44
 20
196.56
 30
0.0
 11
246.44
 21
187.56
 31
0.0
  0
LINE
  5
14E
330
1F
100
AcDbEntity
  8
0
  6
Continuous
 62
     7
370
    25
100
AcDbLine
 10
246.44
 20
205.56
 30
0.0
 11
246.44
 21
196.56
 31
0.0
  0
LINE
  5
14F
330
1F
100
AcDbEntity
  8
0
  6
Continuous
 62
     7
370
    25
100
AcDbLine
 10
245.94
 20
188.06
 30
0.0
 11
245.94
 21
189.06
 31
0.0
  0
LINE
  5
150
330
1F
100
AcDbEntity
  8
0
  6
Continuous
 62
     7
370
    25
100
AcDbLine
 10
245.94
 20
189.06
 30
0.0
 11
245.94
 21
192.56
 31
0.0
  0
LINE
  5
151
330
1F
100
AcDbEntity
  8
0
  6
Continuous
 62
     7
370
    25
100
AcDbLine
 10
245.94
 20
192.56
 30
0.0
 11
245.94
 21
200.56
 31
0.0
  0
LINE
  5
152
330
1F
100
AcDbEntity
  8
0
  6
Continuous
 62
     7
370
    25
100
AcDbLine
 10
245.94
 20
200.56
 30
0.0
 11
245.94
 21
204.06
 31
0.0
  0
LINE
  5
153
330
1F
100
AcDbEntity
  8
0
  6
Continuous
 62
     7
370
    25
100
AcDbLine
 10
245.94
 20
204.06
 30
0.0
 11
245.94
 21
205.06
 31
0.0
  0
LINE
  5
154
330
1F
100
AcDbEntity
  8
0
  6
Continuous
 62
     7
370
    25
100
AcDbLine
 10
245.94
 20
192.56
 30
0.0
 11
241.24
 21
192.56
 31
0.0
  0
LINE
  5
155
330
1F
100
AcDbEntity
  8
0
  6
Continuous
 62
     7
370
    25
100
AcDbLine
 10
240.94
 20
193.2448831091
 30
0.0
 11
241.24
 21
192.56
 31
0.0
  0
LINE
  5
156
330
1F
100
AcDbEntity
  8
0
  6
Continuous
 62
     7
370
    25
100
AcDbLine
 10
240.94
 20
193.2448831091
 30
0.0
 11
240.94
 21
199.8751168908
 31
0.0
  0
LINE
  5
157
330
1F
100
AcDbEntity
  8
0
  6
Continuous
 62
     7
370
    25
100
AcDbLine
 10
241.24
 20
200.56
 30
0.0
 11
240.94
 21
199.8751168908
 31
0.0
  0
LINE
  5
158
330
1F
100
AcDbEntity
  8
0
  6
Continuous
 62
     7
370
    25
100
AcDbLine
 10
245.94
 20
200.56
 30
0.0
 11
241.24
 21
200.56
 31
0.0
  0
LINE
  5
159
330
1F
100
AcDbEntity
  8
0
  6
Continuous
 62
     7
370
    25
100
AcDbLine
 10
241.24
 20
204.06
 30
0.0
 11
241.24
 21
200.56
 31
0.0
  0
LINE
  5
15A
330
1F
100
AcDbEntity
  8
0
  6
Continuous
 62
     7
370
    25
100
AcDbLine
 10
245.94
 20
204.06
 30
0.0
 11
241.24
 21
204.06
 31
0.0
  0
LINE
  5
15B
330
1F
100
AcDbEntity
  8
0
  6
Continuous
 62
     7
370
    25
100
AcDbLine
 10
245.94
 20
189.06
 30
0.0
 11
241.24
 21
189.06
 31
0.0
  0
LINE
  5
15C
330
1F
100
AcDbEntity
  8
0
  6
Continuous
 62
     7
370
    25
100
AcDbLine
 10
241.24
 20
192.56
 30
0.0
 11
241.24
 21
189.06
 31
0.0
  0
LINE
  5
15D
330
1F
100
AcDbEntity
  8
0
  6
Continuous
 62
     7
370
    25
100
AcDbLine
 10
241.24
 20
189.06
 30
0.0
 11
240.94
 21
189.06
 31
0.0
  0
LINE
  5
15E
330
1F
100
AcDbEntity
  8
0
  6
Continuous
 62
     7
370
    25
100
AcDbLine
 10
240.94
 20
189.06
 30
0.0
 11
240.94
 21
193.2448831091
 31
0.0
  0
LINE
  5
15F
330
1F
100
AcDbEntity
  8
0
  6
Continuous
 62
     7
370
    25
100
AcDbLine
 10
240.94
 20
199.8751168908
 30
0.0
 11
240.94
 21
204.06
 31
0.0
  0
LINE
  5
160
330
1F
100
AcDbEntity
  8
0
  6
Continuous
 62
     7
370
    25
100
AcDbLine
 10
240.94
 20
204.06
 30
0.0
 11
241.24
 21
204.06
 31
0.0
  0
LINE
  5
161
330
1F
100
AcDbEntity
  8
0
  6
Continuous
 62
     7
370
    25
100
AcDbLine
 10
362.94
 20
196.56
 30
0.0
 11
362.94
 21
181.56
 31
0.0
  0
LINE
  5
162
330
1F
100
AcDbEntity
  8
0
  6
Continuous
 62
     7
370
    25
100
AcDbLine
 10
362.94
 20
211.56
 30
0.0
 11
362.94
 21
196.56
 31
0.0
  0
LINE
  5
163
330
1F
100
AcDbEntity
  8
0
  6
Continuous
 62
     7
370
    25
100
AcDbLine
 10
361.94
 20
196.56
 30
0.0
 11
361.94
 21
210.56
 31
0.0
  0
LINE
  5
164
330
1F
100
AcDbEntity
  8
0
  6
Continuous
 62
     7
370
    25
100
AcDbLine
 10
361.94
 20
182.56
 30
0.0
 11
361.94
 21
196.56
 31
0.0
  0
LINE
  5
165
330
1F
100
AcDbEntity
  8
0
  6
Continuous
 62
     7
370
    25
100
AcDbLine
 10
375.6517387821
 20
209.418974359
 30
0.0
 11
375.798974359
 21
209.418974359
 31
0.0
  0
SPLINE
  5
166
330
1F
100
AcDbEntity
  8
0
  6
Continuous
 62
     7
370
    25
100
AcDbSpline
210
0.0
220
0.0
230
1.0
 70
     8
 71
     3
 72
     9
 73
     5
 74
     0
 42
0.000000001
 43
0.00000001
 40
0.0
 40
0.0
 40
0.0
 40
0.0
 40
0.5588328183272361
 40
1.0
 40
1.0
 40
1.0
 40
1.0
 10
375.0060056089745
 20
209.5171314102539
 30
0.0
 10
375.1239580084081
 20
209.4822421407521
 30
0.0
 10
375.3350272147347
 20
209.4198097488855
 30
0.0
 10
375.5547876778817
 20
209.4192300868419
 30
0.0
 10
375.6517387820514
 20
209.4189743589718
 30
0.0
  0
SPLINE
  5
167
330
1F
100
AcDbEntity
  8
0
  6
Continuous
 62
     7
370
    25
100
AcDbSpline
210
0.0
220
0.0
230
1.0
 70
     8
 71
     3
 72
    10
 73
     6
 74
     0
 42
0.000000001
 43
0.00000001
 40
0.0
 40
0.0
 40
0.0
 40
0.0
 40
0.5599051122412627
 40
0.7805074142072769
 40
1.0
 40
1.0
 40
1.0
 40
1.0
 10
374.4528205128207
 20
210.8534695512795
 30
0.0
 10
374.4728360230083
 20
210.5702946713346
 30
0.0
 10
374.5007376330474
 20
210.175549046617
 30
0.0
 10
374.7321444533637
 20
209.7119595504384
 30
0.0
 10
374.9148721420675
 20
209.5819648614473
 30
0.0
 10
375.0060056089745
 20
209.5171314102539
 30
0.0
  0
SPLINE
  5
168
330
1F
100
AcDbEntity
  8
0
  6
Continuous
 62
     7
370
    25
100
AcDbSpline
210
0.0
220
0.0
230
1.0
 70
     8
 71
     3
 72
    10
 73
     6
 74
     0
 42
0.000000001
 43
0.00000001
 40
0.0
 40
0.0
 40
0.0
 40
0.0
 40
0.2782874991436126
 40
0.5588626993535206
 40
1.0
 40
1.0
 40
1.0
 40
1.0
 10
374.9576282051283
 20
212.1119831730744
 30
0.0
 10
374.8549261919389
 20
212.027334267843
 30
0.0
 10
374.648677889386
 20
211.8573405892894
 30
0.0
 10
374.4838265488783
 20
211.399077997842
 30
0.0
 10
374.4645829253287
 20
211.060450914664
 30
0.0
 10
374.4528205128207
 20
210.8534695512795
 30
0.0
  0
SPLINE
  5
169
330
1F
100
AcDbEntity
  8
0
  6
Continuous
 62
     7
370
    25
100
AcDbSpline
210
0.0
220
0.0
230
1.0
 70
     8
 71
     3
 72
     9
 73
     5
 74
     0
 42
0.000000001
 43
0.00000001
 40
0.0
 40
0.0
 40
0.0
 40
0.0
 40
0.5610175304379389
 40
1.0
 40
1.0
 40
1.0
 40
1.0
 10
375.5577884615386
 20
212.2010256410231
 30
0.0
 10
375.4428139423176
 20
212.2013442705581
 30
0.0
 10
375.2378746793121
 20
212.2019122198962
 30
0.0
 10
375.0431214560369
 20
212.139417332902
 30
0.0
 10
374.9576282051283
 20
212.1119831730744
 30
0.0
  0
LINE
  5
16A
330
1F
100
AcDbEntity
  8
0
  6
Continuous
 62
     7
370
    25
100
AcDbLine
 10
375.798974359
 20
209.418974359
 30
0.0
 11
375.798974359
 21
212.201025641
 31
0.0
  0
LINE
  5
16B
330
1F
100
AcDbEntity
  8
0
  6
Continuous
 62
     7
370
    25
100
AcDbLine
 10
375.798974359
 20
212.201025641
 30
0.0
 11
375.5577884615
 21
212.201025641
 31
0.0
  0
SPLINE
  5
16C
330
1F
100
AcDbEntity
  8
0
  6
Continuous
 62
     7
370
    25
100
AcDbSpline
210
0.0
220
0.0
230
1.0
 70
     8
 71
     3
 72
     9
 73
     5
 74
     0
 42
0.000000001
 43
0.00000001
 40
0.0
 40
0.0
 40
0.0
 40
0.0
 40
0.5592435255972086
 40
0.9999999999999999
 40
0.9999999999999999
 40
0.9999999999999999
 40
0.9999999999999999
 10
379.4293830128207
 20
210.9411097756385
 30
0.0
 10
379.4990930735897
 20
210.9260918050046
 30
0.0
 10
379.6237437089182
 20
210.8992377245434
 30
0.0
 10
379.7511378623364
 20
210.8995888353707
 30
0.0
 10
379.8072876602566
 20
210.899743589741
 30
0.0
  0
SPLINE
  5
16D
330
1F
100
AcDbEntity
  8
0
  6
Continuous
 62
     7
370
    25
100
AcDbSpline
210
0.0
220
0.0
230
1.0
 70
     8
 71
     3
 72
    10
 73
     6
 74
     0
 42
0.000000001
 43
0.00000001
 40
0.0
 40
0.0
 40
0.0
 40
0.0
 40
0.5579341166845264
 40
0.7790958377380325
 40
1.0
 40
1.0
 40
1.0
 40
1.0
 10
379.0746153846155
 20
211.5665104166641
 30
0.0
 10
379.0918541640257
 20
211.4228613157964
 30
0.0
 10
379.115926291692
 20
211.2222705771517
 30
0.0
 10
379.277920243288
 20
211.0166065910641
 30
0.0
 10
379.3789150370189
 20
210.9662656041352
 30
0.0
 10
379.4293830128207
 20
210.9411097756385
 30
0.0
  0
SPLINE
  5
16E
330
1F
100
AcDbEntity
  8
0
  6
Continuous
 62
     7
370
    25
100
AcDbSpline
210
0.0
220
0.0
230
1.0
 70
     8
 71
     3
 72
    10
 73
     6
 74
     0
 42
0.000000001
 43
0.00000001
 40
0.0
 40
0.0
 40
0.0
 40
0.0
 40
0.2820916050813001
 40
0.5599480323354078
 40
1.0
 40
1.0
 40
1.0
 40
1.0
 10
379.6614543269232
 20
212.2010256410231
 30
0.0
 10
379.566719906228
 20
212.1997641293903
 30
0.0
 10
379.3786733585562
 20
212.1972600458095
 30
0.0
 10
379.1158335287861
 20
211.9543901830892
 30
0.0
 10
379.0902792415417
 20
211.7139137820538
 30
0.0
 10
379.0746153846155
 20
211.5665104166641
 30
0.0
  0
LINE
  5
16F
330
1F
100
AcDbEntity
  8
0
  6
Continuous
 62
     7
370
    25
100
AcDbLine
 10
379.9271794872
 20
212.201025641
 30
0.0
 11
379.6614543269
 21
212.201025641
 31
0.0
  0
LINE
  5
170
330
1F
100
AcDbEntity
  8
0
  6
Continuous
 62
     7
370
    25
100
AcDbLine
 10
379.9271794872
 20
210.8997435897
 30
0.0
 11
379.9271794872
 21
212.201025641
 31
0.0
  0
LINE
  5
171
330
1F
100
AcDbEntity
  8
0
  6
Continuous
 62
     7
370
    25
100
AcDbLine
 10
379.8072876603
 20
210.8997435897
 30
0.0
 11
379.9271794872
 21
210.8997435897
 31
0.0
  0
SPLINE
  5
172
330
1F
100
AcDbEntity
  8
0
  6
Continuous
 62
     7
370
    25
100
AcDbSpline
210
0.0
220
0.0
230
1.0
 70
     8
 71
     3
 72
    11
 73
     7
 74
     0
 42
0.000000001
 43
0.00000001
 40
0.0
 40
0.0
 40
0.0
 40
0.0
 40
0.2811257825974711
 40
0.5607008192055891
 40
0.7795609816722253
 40
1.0
 40
1.0
 40
1.0
 40
1.0
 10
379.2541025641027
 20
209.9335977564077
 30
0.0
 10
379.2576769557766
 20
209.8623778646268
 30
0.0
 10
379.2648060220656
 20
209.7203309442186
 30
0.0
 10
379.3511206632186
 20
209.5322462646009
 30
0.0
 10
379.5125313420949
 20
209.4291176526328
 30
0.0
 10
379.6247664798792
 20
209.4223635483506
 30
0.0
 10
379.6810857371796
 20
209.4189743589718
 30
0.0
  0
SPLINE
  5
173
330
1F
100
AcDbEntity
  8
0
  6
Continuous
 62
     7
370
    25
100
AcDbSpline
210
0.0
220
0.0
230
1.0
 70
     8
 71
     3
 72
    10
 73
     6
 74
     0
 42
0.000000001
 43
0.00000001
 40
0.0
 40
0.0
 40
0.0
 40
0.0
 40
0.2820333224778768
 40
0.5596519176540398
 40
1.0
 40
1.0
 40
1.0
 40
1.0
 10
379.8051842948719
 20
210.5407692307667
 30
0.0
 10
379.7150195637054
 20
210.5395100282403
 30
0.0
 10
379.5361014689967
 20
210.5370113337512
 30
0.0
 10
379.2870774081825
 20
210.3038499838855
 30
0.0
 10
379.2666383703095
 20
210.0743538479322
 30
0.0
 10
379.2541025641027
 20
209.9335977564077
 30
0.0
  0
LINE
  5
174
330
1F
100
AcDbEntity
  8
0
  6
Continuous
 62
     7
370
    25
100
AcDbLine
 10
379.9271794872
 20
210.5407692308
 30
0.0
 11
379.8051842949
 21
210.5407692308
 31
0.0
  0
LINE
  5
175
330
1F
100
AcDbEntity
  8
0
  6
Continuous
 62
     7
370
    25
100
AcDbLine
 10
379.6810857372
 20
209.418974359
 30
0.0
 11
379.9271794872
 21
209.418974359
 31
0.0
  0
LINE
  5
176
330
1F
100
AcDbEntity
  8
0
  6
Continuous
 62
     7
370
    25
100
AcDbLine
 10
379.9271794872
 20
209.418974359
 30
0.0
 11
379.9271794872
 21
210.5407692308
 31
0.0
  0
SPLINE
  5
177
330
1F
100
AcDbEntity
  8
0
  6
Continuous
 62
     7
370
    25
100
AcDbSpline
210
0.0
220
0.0
230
1.0
 70
     8
 71
     3
 72
    11
 73
     7
 74
     0
 42
0.000000001
 43
0.00000001
 40
0.0
 40
0.0
 40
0.0
 40
0.0
 40
0.1252409509896356
 40
0.2510938105934032
 40
0.5012549088836648
 40
1.0
 40
1.0
 40
1.0
 40
1.0
 10
365.2989743589745
 20
212.6048717948692
 30
0.0
 10
365.3146648427433
 20
212.6030289024926
 30
0.0
 10
365.3461224716452
 20
212.5993341136418
 30
0.0
 10
365.3986725128121
 20
212.562615619876
 30
0.0
 10
365.4624668305119
 20
212.4706730915655
 30
0.0
 10
365.4720676989343
 20
212.3761525037725
 30
0.0
 10
365.4784615384617
 20
212.3132051282026
 30
0.0
  0
SPLINE
  5
178
330
1F
100
AcDbEntity
  8
0
  6
Continuous
 62
     7
370
    25
100
AcDbSpline
210
0.0
220
0.0
230
1.0
 70
     8
 71
     3
 72
    11
 73
     7
 74
     0
 42
0.000000001
 43
0.00000001
 40
0.0
 40
0.0
 40
0.0
 40
0.0
 40
0.4987450911163368
 40
0.7489061894065994
 40
0.8747590490103624
 40
1.0
 40
1.0
 40
1.0
 40
1.0
 10
365.1194871794873
 20
212.3132051282026
 30
0.0
 10
365.1258810190147
 20
212.3761525037725
 30
0.0
 10
365.1354818874371
 20
212.4706730915655
 30
0.0
 10
365.1992762051368
 20
212.562615619876
 30
0.0
 10
365.2518262463038
 20
212.5993341136418
 30
0.0
 10
365.2832838752057
 20
212.6030289024926
 30
0.0
 10
365.2989743589745
 20
212.6048717948692
 30
0.0
  0
SPLINE
  5
179
330
1F
100
AcDbEntity
  8
0
  6
Continuous
 62
     7
370
    25
100
AcDbSpline
210
0.0
220
0.0
230
1.0
 70
     8
 71
     3
 72
    11
 73
     7
 74
     0
 42
0.000000001
 43
0.00000001
 40
0.0
 40
0.0
 40
0.0
 40
0.0
 40
0.1859027081876175
 40
0.3726802866925907
 40
0.5601967664387532
 40
1.0
 40
1.0
 40
1.0
 40
1.0
 10
365.2989743589745
 20
212.0215384615359
 30
0.0
 10
365.2755401814211
 20
212.0257632858189
 30
0.0
 10
365.2285615435405
 20
212.0342328166845
 30
0.0
 10
365.1802761969171
 20
212.0892772492616
 30
0.0
 10
365.1305689799208
 20
212.1780654792002
 30
0.0
 10
365.1240544242257
 20
212.2575087768234
 30
0.0
 10
365.1194871794873
 20
212.3132051282026
 30
0.0
  0
SPLINE
  5
17A
330
1F
100
AcDbEntity
  8
0
  6
Continuous
 62
     7
370
    25
100
AcDbSpline
210
0.0
220
0.0
230
1.0
 70
     8
 71
     3
 72
    10
 73
     6
 74
     0
 42
0.000000001
 43
0.00000001
 40
0.0
 40
0.0
 40
0.0
 40
0.0
 40
0.5594713163304301
 40
0.7807294745950784
 40
1.0
 40
1.0
 40
1.0
 40
1.0
 10
365.4784615384617
 20
212.3132051282026
 30
0.0
 10
365.4704161795094
 20
212.2434174927179
 30
0.0
 10
365.4591890644019
 20
212.146030437484
 30
0.0
 10
365.3812647692471
 20
212.0398948088625
 30
0.0
 10
365.3263218629547
 20
212.0276388112597
 30
0.0
 10
365.2989743589745
 20
212.0215384615359
 30
0.0
  0
SPLINE
  5
17B
330
1F
100
AcDbEntity
  8
0
  6
Continuous
 62
     7
370
    25
100
AcDbSpline
210
0.0
220
0.0
230
1.0
 70
     8
 71
     3
 72
    11
 73
     7
 74
     0
 42
0.000000001
 43
0.00000001
 40
0.0
 40
0.0
 40
0.0
 40
0.0
 40
0.125240950989636
 40
0.2510938105933991
 40
0.5012549088836663
 40
0.9999999999999999
 40
0.9999999999999999
 40
0.9999999999999999
 40
0.9999999999999999
 10
367.9912820512822
 20
212.6048717948692
 30
0.0
 10
368.0069725350509
 20
212.6030289024926
 30
0.0
 10
368.0384301639529
 20
212.5993341136418
 30
0.0
 10
368.0909802051198
 20
212.562615619876
 30
0.0
 10
368.1547745228195
 20
212.4706730915655
 30
0.0
 10
368.1643753912419
 20
212.3761525037725
 30
0.0
 10
368.1707692307693
 20
212.3132051282026
 30
0.0
  0
SPLINE
  5
17C
330
1F
100
AcDbEntity
  8
0
  6
Continuous
 62
     7
370
    25
100
AcDbSpline
210
0.0
220
0.0
230
1.0
 70
     8
 71
     3
 72
    11
 73
     7
 74
     0
 42
0.000000001
 43
0.00000001
 40
0.0
 40
0.0
 40
0.0
 40
0.0
 40
0.4987450911163347
 40
0.7489061894065973
 40
0.8747590490103647
 40
0.9999999999999999
 40
0.9999999999999999
 40
0.9999999999999999
 40
0.9999999999999999
 10
367.811794871795
 20
212.3132051282026
 30
0.0
 10
367.8181887113224
 20
212.3761525037725
 30
0.0
 10
367.8277895797448
 20
212.4706730915655
 30
0.0
 10
367.8915838974445
 20
212.562615619876
 30
0.0
 10
367.9441339386115
 20
212.5993341136418
 30
0.0
 10
367.9755915675134
 20
212.6030289024926
 30
0.0
 10
367.9912820512822
 20
212.6048717948692
 30
0.0
  0
SPLINE
  5
17D
330
1F
100
AcDbEntity
  8
0
  6
Continuous
 62
     7
370
    25
100
AcDbSpline
210
0.0
220
0.0
230
1.0
 70
     8
 71
     3
 72
    11
 73
     7
 74
     0
 42
0.000000001
 43
0.00000001
 40
0.0
 40
0.0
 40
0.0
 40
0.0
 40
0.1859027081876119
 40
0.3726802866926042
 40
0.5601967664387644
 40
0.9999999999999999
 40
0.9999999999999999
 40
0.9999999999999999
 40
0.9999999999999999
 10
367.9912820512822
 20
212.0215384615359
 30
0.0
 10
367.9678478737288
 20
212.0257632858189
 30
0.0
 10
367.9208692358482
 20
212.0342328166845
 30
0.0
 10
367.8725838892248
 20
212.0892772492616
 30
0.0
 10
367.8228766722286
 20
212.1780654792002
 30
0.0
 10
367.8163621165335
 20
212.2575087768234
 30
0.0
 10
367.811794871795
 20
212.3132051282026
 30
0.0
  0
SPLINE
  5
17E
330
1F
100
AcDbEntity
  8
0
  6
Continuous
 62
     7
370
    25
100
AcDbSpline
210
0.0
220
0.0
230
1.0
 70
     8
 71
     3
 72
    10
 73
     6
 74
     0
 42
0.000000001
 43
0.00000001
 40
0.0
 40
0.0
 40
0.0
 40
0.0
 40
0.5594713163304378
 40
0.7807294745950801
 40
1.0
 40
1.0
 40
1.0
 40
1.0
 10
368.1707692307693
 20
212.3132051282026
 30
0.0
 10
368.1627238718171
 20
212.2434174927179
 30
0.0
 10
368.1514967567097
 20
212.146030437484
 30
0.0
 10
368.0735724615548
 20
212.0398948088625
 30
0.0
 10
368.0186295552624
 20
212.0276388112597
 30
0.0
 10
367.9912820512822
 20
212.0215384615359
 30
0.0
  0
SPLINE
  5
17F
330
1F
100
AcDbEntity
  8
0
  6
Continuous
 62
     7
370
    25
100
AcDbSpline
210
0.0
220
0.0
230
1.0
 70
     8
 71
     3
 72
    11
 73
     7
 74
     0
 42
0.000000001
 43
0.00000001
 40
0.0
 40
0.0
 40
0.0
 40
0.0
 40
0.125240950989634
 40
0.2510938105934084
 40
0.5012549088836474
 40
1.0
 40
1.0
 40
1.0
 40
1.0
 10
369.6515384615386
 20
212.6048717948692
 30
0.0
 10
369.6672289453073
 20
212.6030289024926
 30
0.0
 10
369.6986865742093
 20
212.5993341136418
 30
0.0
 10
369.7512366153762
 20
212.562615619876
 30
0.0
 10
369.8150309330759
 20
212.4706730915655
 30
0.0
 10
369.8246318014984
 20
212.3761525037725
 30
0.0
 10
369.8310256410257
 20
212.3132051282026
 30
0.0
  0
SPLINE
  5
180
330
1F
100
AcDbEntity
  8
0
  6
Continuous
 62
     7
370
    25
100
AcDbSpline
210
0.0
220
0.0
230
1.0
 70
     8
 71
     3
 72
    11
 73
     7
 74
     0
 42
0.000000001
 43
0.00000001
 40
0.0
 40
0.0
 40
0.0
 40
0.0
 40
0.498745091116343
 40
0.7489061894065968
 40
0.8747590490103639
 40
1.0
 40
1.0
 40
1.0
 40
1.0
 10
369.4720512820514
 20
212.3132051282026
 30
0.0
 10
369.4784451215788
 20
212.3761525037725
 30
0.0
 10
369.4880459900012
 20
212.4706730915655
 30
0.0
 10
369.551840307701
 20
212.562615619876
 30
0.0
 10
369.6043903488679
 20
212.5993341136418
 30
0.0
 10
369.6358479777698
 20
212.6030289024926
 30
0.0
 10
369.6515384615386
 20
212.6048717948692
 30
0.0
  0
SPLINE
  5
181
330
1F
100
AcDbEntity
  8
0
  6
Continuous
 62
     7
370
    25
100
AcDbSpline
210
0.0
220
0.0
230
1.0
 70
     8
 71
     3
 72
    11
 73
     7
 74
     0
 42
0.000000001
 43
0.00000001
 40
0.0
 40
0.0
 40
0.0
 40
0.0
 40
0.1859027081876109
 40
0.3726802866926
 40
0.560196766438762
 40
1.0
 40
1.0
 40
1.0
 40
1.0
 10
369.6515384615386
 20
212.0215384615359
 30
0.0
 10
369.6281042839852
 20
212.0257632858189
 30
0.0
 10
369.5811256461046
 20
212.0342328166845
 30
0.0
 10
369.5328402994812
 20
212.0892772492616
 30
0.0
 10
369.483133082485
 20
212.1780654792002
 30
0.0
 10
369.4766185267899
 20
212.2575087768234
 30
0.0
 10
369.4720512820514
 20
212.3132051282026
 30
0.0
  0
SPLINE
  5
182
330
1F
100
AcDbEntity
  8
0
  6
Continuous
 62
     7
370
    25
100
AcDbSpline
210
0.0
220
0.0
230
1.0
 70
     8
 71
     3
 72
    10
 73
     6
 74
     0
 42
0.000000001
 43
0.00000001
 40
0.0
 40
0.0
 40
0.0
 40
0.0
 40
0.5594713163304281
 40
0.7807294745950715
 40
0.9999999999999999
 40
0.9999999999999999
 40
0.9999999999999999
 40
0.9999999999999999
 10
369.8310256410257
 20
212.3132051282026
 30
0.0
 10
369.8229802820735
 20
212.2434174927179
 30
0.0
 10
369.8117531669661
 20
212.146030437484
 30
0.0
 10
369.7338288718112
 20
212.0398948088625
 30
0.0
 10
369.6788859655188
 20
212.0276388112597
 30
0.0
 10
369.6515384615386
 20
212.0215384615359
 30
0.0
  0
LINE
  5
183
330
1F
100
AcDbEntity
  8
0
  6
Continuous
 62
     7
370
    25
100
AcDbLine
 10
374.048974359
 20
212.56
 30
0.0
 11
373.1515384615
 21
209.06
 31
0.0
  0
LINE
  5
184
330
1F
100
AcDbEntity
  8
0
  6
Continuous
 62
     7
370
    25
100
AcDbLine
 10
373.8533613782
 20
212.56
 30
0.0
 11
374.048974359
 21
212.56
 31
0.0
  0
LINE
  5
185
330
1F
100
AcDbEntity
  8
0
  6
Continuous
 62
     7
370
    25
100
AcDbLine
 10
373.5659014423
 20
211.4382051282
 30
0.0
 11
373.8533613782
 21
212.56
 31
0.0
  0
LINE
  5
186
330
1F
100
AcDbEntity
  8
0
  6
Continuous
 62
     7
370
    25
100
AcDbLine
 10
372.6923036859
 20
211.4382051282
 30
0.0
 11
373.5659014423
 21
211.4382051282
 31
0.0
  0
LINE
  5
187
330
1F
100
AcDbEntity
  8
0
  6
Continuous
 62
     7
370
    25
100
AcDbLine
 10
372.40484375
 20
212.56
 30
0.0
 11
372.6923036859
 21
211.4382051282
 31
0.0
  0
LINE
  5
188
330
1F
100
AcDbEntity
  8
0
  6
Continuous
 62
     7
370
    25
100
AcDbLine
 10
372.2092307692
 20
212.56
 30
0.0
 11
372.40484375
 21
212.56
 31
0.0
  0
LINE
  5
189
330
1F
100
AcDbEntity
  8
0
  6
Continuous
 62
     7
370
    25
100
AcDbLine
 10
373.1066666667
 20
209.06
 30
0.0
 11
372.2092307692
 21
212.56
 31
0.0
  0
LINE
  5
18A
330
1F
100
AcDbEntity
  8
0
  6
Continuous
 62
     7
370
    25
100
AcDbLine
 10
373.1515384615
 20
209.06
 30
0.0
 11
373.1066666667
 21
209.06
 31
0.0
  0
SPLINE
  5
18B
330
1F
100
AcDbEntity
  8
0
  6
Continuous
 62
     7
370
    25
100
AcDbSpline
210
0.0
220
0.0
230
1.0
 70
     8
 71
     3
 72
    12
 73
     8
 74
     0
 42
0.000000001
 43
0.00000001
 40
0.0
 40
0.0
 40
0.0
 40
0.0
 40
0.1247092545076039
 40
0.2495950154979547
 40
0.4991872053911579
 40
0.7494623377780306
 40
1.0
 40
1.0
 40
1.0
 40
1.0
 10
377.4557251602566
 20
212.649743589741
 30
0.0
 10
377.5528712789035
 20
212.6384239090773
 30
0.0
 10
377.7473010113638
 20
212.6157685265088
 30
0.0
 10
378.0695105392098
 20
212.3812617901187
 30
0.0
 10
378.3311022392948
 20
211.9652132774688
 30
0.0
 10
378.5097456218563
 20
211.407152433749
 30
0.0
 10
378.52734802895
 20
211.0194016848594
 30
0.0
 10
378.536153846154
 20
210.8254246794846
 30
0.0
  0
SPLINE
  5
18C
330
1F
100
AcDbEntity
  8
0
  6
Continuous
 62
     7
370
    25
100
AcDbSpline
210
0.0
220
0.0
230
1.0
 70
     8
 71
     3
 72
    12
 73
     8
 74
     0
 42
0.000000001
 43
0.00000001
 40
0.0
 40
0.0
 40
0.0
 40
0.0
 40
0.2505616639296431
 40
0.5008162346033304
 40
0.7504333747765956
 40
0.8753187337957796
 40
1.0
 40
1.0
 40
1.0
 40
1.0
 10
376.3823076923078
 20
210.8085977564077
 30
0.0
 10
376.3908000317679
 20
211.003424282409
 30
0.0
 10
376.4077743023116
 20
211.3928385512262
 30
0.0
 10
376.5838252380319
 20
211.9543514576535
 30
0.0
 10
376.8424800313273
 20
212.3740462041136
 30
0.0
 10
377.162793729994
 20
212.614602232711
 30
0.0
 10
377.358134599367
 20
212.6380361920749
 30
0.0
 10
377.4557251602566
 20
212.649743589741
 30
0.0
  0
SPLINE
  5
18D
330
1F
100
AcDbEntity
  8
0
  6
Continuous
 62
     7
370
    25
100
AcDbSpline
210
0.0
220
0.0
230
1.0
 70
     8
 71
     3
 72
    12
 73
     8
 74
     0
 42
0.000000001
 43
0.00000001
 40
0.0
 40
0.0
 40
0.0
 40
0.0
 40
0.1247351532152399
 40
0.2496287468395966
 40
0.4991321244575265
 40
0.7494031660529249
 40
1.0
 40
1.0
 40
1.0
 40
1.0
 10
377.4725520833335
 20
208.9702564102539
 30
0.0
 10
377.374402907171
 20
208.9811519876462
 30
0.0
 10
377.1779798843324
 20
209.0029569821521
 30
0.0
 10
376.8499613941914
 20
209.2359763538134
 30
0.0
 10
376.5844308988816
 20
209.6563810729116
 30
0.0
 10
376.4075176514546
 20
210.2209949804679
 30
0.0
 10
376.3907146552248
 20
210.6126452473816
 30
0.0
 10
376.3823076923078
 20
210.8085977564077
 30
0.0
  0
SPLINE
  5
18E
330
1F
100
AcDbEntity
  8
0
  6
Continuous
 62
     7
370
    25
100
AcDbSpline
210
0.0
220
0.0
230
1.0
 70
     8
 71
     3
 72
    12
 73
     8
 74
     0
 42
0.000000001
 43
0.00000001
 40
0.0
 40
0.0
 40
0.0
 40
0.0
 40
0.2506644186933247
 40
0.5011113703061412
 40
0.7505382295946826
 40
0.8754955201316236
 40
0.9999999999999999
 40
0.9999999999999999
 40
0.9999999999999999
 40
0.9999999999999999
 10
378.536153846154
 20
210.8254246794846
 30
0.0
 10
378.5266404790521
 20
210.6305524616171
 30
0.0
 10
378.50762199829
 20
210.2409770897344
 30
0.0
 10
378.3404589465757
 20
209.6758617650457
 30
0.0
 10
378.0806192741355
 20
209.2566783158237
 30
0.0
 10
377.7650251036564
 20
209.0103396695187
 30
0.0
 10
377.5699250447817
 20
208.9836013186314
 30
0.0
 10
377.4725520833335
 20
208.9702564102539
 30
0.0
  0
SPLINE
  5
18F
330
1F
100
AcDbEntity
  8
0
  6
Continuous
 62
     7
370
    25
100
AcDbSpline
210
0.0
220
0.0
230
1.0
 70
     8
 71
     3
 72
    12
 73
     8
 74
     0
 42
0.000000001
 43
0.00000001
 40
0.0
 40
0.0
 40
0.0
 40
0.0
 40
0.1247092545076057
 40
0.2495950154979523
 40
0.4991872053911603
 40
0.7494623377780311
 40
1.0
 40
1.0
 40
1.0
 40
1.0
 10
381.5839302884617
 20
212.649743589741
 30
0.0
 10
381.6810764071085
 20
212.6384239090773
 30
0.0
 10
381.8755061395689
 20
212.6157685265088
 30
0.0
 10
382.1977156674149
 20
212.3812617901187
 30
0.0
 10
382.4593073674999
 20
211.9652132774688
 30
0.0
 10
382.6379507500613
 20
211.407152433749
 30
0.0
 10
382.6555531571551
 20
211.0194016848594
 30
0.0
 10
382.6643589743591
 20
210.8254246794846
 30
0.0
  0
SPLINE
  5
190
330
1F
100
AcDbEntity
  8
0
  6
Continuous
 62
     7
370
    25
100
AcDbSpline
210
0.0
220
0.0
230
1.0
 70
     8
 71
     3
 72
    12
 73
     8
 74
     0
 42
0.000000001
 43
0.00000001
 40
0.0
 40
0.0
 40
0.0
 40
0.0
 40
0.2505616639296399
 40
0.5008162346033277
 40
0.7504333747765937
 40
0.8753187337957774
 40
1.0
 40
1.0
 40
1.0
 40
1.0
 10
380.510512820513
 20
210.8085977564077
 30
0.0
 10
380.5190051599731
 20
211.003424282409
 30
0.0
 10
380.5359794305168
 20
211.3928385512262
 30
0.0
 10
380.7120303662369
 20
211.9543514576535
 30
0.0
 10
380.9706851595325
 20
212.3740462041136
 30
0.0
 10
381.2909988581991
 20
212.614602232711
 30
0.0
 10
381.4863397275721
 20
212.6380361920749
 30
0.0
 10
381.5839302884617
 20
212.649743589741
 30
0.0
  0
SPLINE
  5
191
330
1F
100
AcDbEntity
  8
0
  6
Continuous
 62
     7
370
    25
100
AcDbSpline
210
0.0
220
0.0
230
1.0
 70
     8
 71
     3
 72
    12
 73
     8
 74
     0
 42
0.000000001
 43
0.00000001
 40
0.0
 40
0.0
 40
0.0
 40
0.0
 40
0.1247351532152367
 40
0.2496287468395943
 40
0.4991321244575245
 40
0.749403166052922
 40
1.0
 40
1.0
 40
1.0
 40
1.0
 10
381.6007572115386
 20
208.9702564102539
 30
0.0
 10
381.5026080353761
 20
208.9811519876462
 30
0.0
 10
381.3061850125375
 20
209.0029569821521
 30
0.0
 10
380.9781665223965
 20
209.2359763538134
 30
0.0
 10
380.7126360270867
 20
209.6563810729116
 30
0.0
 10
380.5357227796596
 20
210.2209949804679
 30
0.0
 10
380.51891978343
 20
210.6126452473816
 30
0.0
 10
380.510512820513
 20
210.8085977564077
 30
0.0
  0
SPLINE
  5
192
330
1F
100
AcDbEntity
  8
0
  6
Continuous
 62
     7
370
    25
100
AcDbSpline
210
0.0
220
0.0
230
1.0
 70
     8
 71
     3
 72
    12
 73
     8
 74
     0
 42
0.000000001
 43
0.00000001
 40
0.0
 40
0.0
 40
0.0
 40
0.0
 40
0.250664418693323
 40
0.5011113703061433
 40
0.7505382295946816
 40
0.8754955201316224
 40
1.0
 40
1.0
 40
1.0
 40
1.0
 10
382.6643589743591
 20
210.8254246794846
 30
0.0
 10
382.6548456072572
 20
210.6305524616171
 30
0.0
 10
382.6358271264951
 20
210.2409770897344
 30
0.0
 10
382.4686640747807
 20
209.6758617650457
 30
0.0
 10
382.2088244023406
 20
209.2566783158237
 30
0.0
 10
381.8932302318615
 20
209.0103396695187
 30
0.0
 10
381.6981301729868
 20
208.9836013186314
 30
0.0
 10
381.6007572115386
 20
208.9702564102539
 30
0.0
  0
SPLINE
  5
193
330
1F
100
AcDbEntity
  8
0
  6
Continuous
 62
     7
370
    25
100
AcDbSpline
210
0.0
220
0.0
230
1.0
 70
     8
 71
     3
 72
    11
 73
     7
 74
     0
 42
0.000000001
 43
0.00000001
 40
0.0
 40
0.0
 40
0.0
 40
0.0
 40
0.4989769471647033
 40
0.7494365610428717
 40
0.8748399993475091
 40
1.0
 40
1.0
 40
1.0
 40
1.0
 10
385.0425641025642
 20
211.7025280448692
 30
0.0
 10
385.0646766559164
 20
211.9070600062129
 30
0.0
 10
385.0978885227858
 20
212.2142560211867
 30
0.0
 10
385.3046618918503
 20
212.5139658058901
 30
0.0
 10
385.4761554312154
 20
212.6326593723395
 30
0.0
 10
385.5783536042377
 20
212.6440525403262
 30
0.0
 10
385.6294030448719
 20
212.649743589741
 30
0.0
  0
SPLINE
  5
194
330
1F
100
AcDbEntity
  8
0
  6
Continuous
 62
     7
370
    25
100
AcDbSpline
210
0.0
220
0.0
230
1.0
 70
     8
 71
     3
 72
     9
 73
     5
 74
     0
 42
0.000000001
 43
0.00000001
 40
0.0
 40
0.0
 40
0.0
 40
0.0
 40
0.5605281984565558
 40
0.9999999999999999
 40
0.9999999999999999
 40
0.9999999999999999
 40
0.9999999999999999
 10
385.5277403846155
 20
210.5730208333308
 30
0.0
 10
385.3795792824897
 20
210.7608899442329
 30
0.0
 10
385.1152551993591
 20
211.0960543684659
 30
0.0
 10
385.0647567479709
 20
211.5173711846433
 30
0.0
 10
385.0425641025642
 20
211.7025280448692
 30
0.0
  0
SPLINE
  5
195
330
1F
100
AcDbEntity
  8
0
  6
Continuous
 62
     7
370
    25
100
AcDbSpline
210
0.0
220
0.0
230
1.0
 70
     8
 71
     3
 72
     9
 73
     5
 74
     0
 42
0.000000001
 43
0.00000001
 40
0.0
 40
0.0
 40
0.0
 40
0.0
 40
0.5599316618565418
 40
1.0
 40
1.0
 40
1.0
 40
1.0
 10
385.8046834935899
 20
210.2245633012795
 30
0.0
 10
385.7544281135026
 20
210.2907450613826
 30
0.0
 10
385.6646754106092
 20
210.4089411996107
 30
0.0
 10
385.569586155213
 20
210.5228799824962
 30
0.0
 10
385.5277403846155
 20
210.5730208333308
 30
0.0
  0
SPLINE
  5
196
330
1F
100
AcDbEntity
  8
0
  6
Continuous
 62
     7
370
    25
100
AcDbSpline
210
0.0
220
0.0
230
1.0
 70
     8
 71
     3
 72
     9
 73
     5
 74
     0
 42
0.000000001
 43
0.00000001
 40
0.0
 40
0.0
 40
0.0
 40
0.0
 40
0.5594503733947884
 40
1.0
 40
1.0
 40
1.0
 40
1.0
 10
385.9400000000001
 20
209.7723397435872
 30
0.0
 10
385.9329889911747
 20
209.8624828872354
 30
0.0
 10
385.9204570327403
 20
210.0236109299269
 30
0.0
 10
385.8400894167885
 20
210.163107943873
 30
0.0
 10
385.8046834935899
 20
210.2245633012795
 30
0.0
  0
SPLINE
  5
197
330
1F
100
AcDbEntity
  8
0
  6
Continuous
 62
     7
370
    25
100
AcDbSpline
210
0.0
220
0.0
230
1.0
 70
     8
 71
     3
 72
    11
 73
     7
 74
     0
 42
0.000000001
 43
0.00000001
 40
0.0
 40
0.0
 40
0.0
 40
0.0
 40
0.1255820757119667
 40
0.2514507149306289
 40
0.5015523628543845
 40
1.0
 40
1.0
 40
1.0
 40
1.0
 10
385.6462299679488
 20
209.3292307692282
 30
0.0
 10
385.6709085499361
 20
209.3310851155935
 30
0.0
 10
385.7203220275283
 20
209.3347980397241
 30
0.0
 10
385.8072309213898
 20
209.3847189292205
 30
0.0
 10
385.915403989262
 20
209.5247149859426
 30
0.0
 10
385.9301685214959
 20
209.6733595671747
 30
0.0
 10
385.9400000000001
 20
209.7723397435872
 30
0.0
  0
SPLINE
  5
198
330
1F
100
AcDbEntity
  8
0
  6
Continuous
 62
     7
370
    25
100
AcDbSpline
210
0.0
220
0.0
230
1.0
 70
     8
 71
     3
 72
    10
 73
     6
 74
     0
 42
0.000000001
 43
0.00000001
 40
0.0
 40
0.0
 40
0.0
 40
0.0
 40
0.5618089425487562
 40
0.7818087503084388
 40
1.0
 40
1.0
 40
1.0
 40
1.0
 10
385.2557051282052
 20
209.7779487179461
 30
0.0
 10
385.302707051919
 20
209.6714212127825
 30
0.0
 10
385.3681145462782
 20
209.5231784039236
 30
0.0
 10
385.5082176852196
 20
209.3565572687396
 30
0.0
 10
385.6003526307419
 20
209.3383145044435
 30
0.0
 10
385.6462299679488
 20
209.3292307692282
 30
0.0
  0
LINE
  5
199
330
1F
100
AcDbEntity
  8
0
  6
Continuous
 62
     7
370
    25
100
AcDbLine
 10
385.0874358974
 20
209.5627043269
 30
0.0
 11
385.2557051282
 21
209.7779487179
 31
0.0
  0
SPLINE
  5
19A
330
1F
100
AcDbEntity
  8
0
  6
Continuous
 62
     7
370
    25
100
AcDbSpline
210
0.0
220
0.0
230
1.0
 70
     8
 71
     3
 72
    10
 73
     6
 74
     0
 42
0.000000001
 43
0.00000001
 40
0.0
 40
0.0
 40
0.0
 40
0.0
 40
0.2769663537678162
 40
0.5575254786335244
 40
1.0
 40
1.0
 40
1.0
 40
1.0
 10
385.6237940705129
 20
208.9702564102539
 30
0.0
 10
385.5460708212005
 20
208.9893020913423
 30
0.0
 10
385.3896161068122
 20
209.0276405115882
 30
0.0
 10
385.2179247555111
 20
209.266786907462
 30
0.0
 10
385.1369747995438
 20
209.4503619837444
 30
0.0
 10
385.087435897436
 20
209.5627043269205
 30
0.0
  0
SPLINE
  5
19B
330
1F
100
AcDbEntity
  8
0
  6
Continuous
 62
     7
370
    25
100
AcDbSpline
210
0.0
220
0.0
230
1.0
 70
     8
 71
     3
 72
    11
 73
     7
 74
     0
 42
0.000000001
 43
0.00000001
 40
0.0
 40
0.0
 40
0.0
 40
0.0
 40
0.4993418457887395
 40
0.7492593172883372
 40
0.8747401350519258
 40
1.0
 40
1.0
 40
1.0
 40
1.0
 10
386.1194871794873
 20
209.7870633012795
 30
0.0
 10
386.1049055488783
 20
209.6099605849329
 30
0.0
 10
386.0830259033264
 20
209.3442190664544
 30
0.0
 10
385.902632345013
 20
209.0877315810708
 30
0.0
 10
385.7556652448222
 20
208.9854097099646
 30
0.0
 10
385.6677252977075
 20
208.9753045419311
 30
0.0
 10
385.6237940705129
 20
208.9702564102539
 30
0.0
  0
SPLINE
  5
19C
330
1F
100
AcDbEntity
  8
0
  6
Continuous
 62
     7
370
    25
100
AcDbSpline
210
0.0
220
0.0
230
1.0
 70
     8
 71
     3
 72
     9
 73
     5
 74
     0
 42
0.000000001
 43
0.00000001
 40
0.0
 40
0.0
 40
0.0
 40
0.0
 40
0.5597588541114086
 40
1.0
 40
1.0
 40
1.0
 40
1.0
 10
386.0045032051283
 20
210.319915865382
 30
0.0
 10
386.0418300699205
 20
210.2236991289862
 30
0.0
 10
386.1085139008559
 20
210.051809509574
 30
0.0
 10
386.1161329573331
 20
209.8679887591043
 30
0.0
 10
386.1194871794873
 20
209.7870633012795
 30
0.0
  0
SPLINE
  5
19D
330
1F
100
AcDbEntity
  8
0
  6
Continuous
 62
     7
370
    25
100
AcDbSpline
210
0.0
220
0.0
230
1.0
 70
     8
 71
     3
 72
     9
 73
     5
 74
     0
 42
0.000000001
 43
0.00000001
 40
0.0
 40
0.0
 40
0.0
 40
0.0
 40
0.5602913181833074
 40
1.0
 40
1.0
 40
1.0
 40
1.0
 10
385.667263621795
 20
210.7959775641
 30
0.0
 10
385.7369144260201
 20
210.7117267910469
 30
0.0
 10
385.861226193782
 20
210.5613572059419
 30
0.0
 10
385.9607442512584
 20
210.3936556815924
 30
0.0
 10
386.0045032051283
 20
210.319915865382
 30
0.0
  0
SPLINE
  5
19E
330
1F
100
AcDbEntity
  8
0
  6
Continuous
 62
     7
370
    25
100
AcDbSpline
210
0.0
220
0.0
230
1.0
 70
     8
 71
     3
 72
     9
 73
     5
 74
     0
 42
0.000000001
 43
0.00000001
 40
0.0
 40
0.0
 40
0.0
 40
0.0
 40
0.5596453470623575
 40
1.0
 40
1.0
 40
1.0
 40
1.0
 10
385.2956690705129
 20
211.354070512818
 30
0.0
 10
385.3556477760588
 20
211.2436379683326
 30
0.0
 10
385.4628204808097
 20
211.0463120277792
 30
0.0
 10
385.6047599264652
 20
210.8725114550045
 30
0.0
 10
385.667263621795
 20
210.7959775641
 30
0.0
  0
SPLINE
  5
19F
330
1F
100
AcDbEntity
  8
0
  6
Continuous
 62
     7
370
    25
100
AcDbSpline
210
0.0
220
0.0
230
1.0
 70
     8
 71
     3
 72
     9
 73
     5
 74
     0
 42
0.000000001
 43
0.00000001
 40
0.0
 40
0.0
 40
0.0
 40
0.0
 40
0.5597808968124873
 40
1.0
 40
1.0
 40
1.0
 40
1.0
 10
385.2220512820514
 20
211.6976201923051
 30
0.0
 10
385.2260533638571
 20
211.6313009676425
 30
0.0
 10
385.2332027357425
 20
211.512827427298
 30
0.0
 10
385.2765755355006
 20
211.40259634223
 30
0.0
 10
385.2956690705129
 20
211.354070512818
 30
0.0
  0
SPLINE
  5
1A0
330
1F
100
AcDbEntity
  8
0
  6
Continuous
 62
     7
370
    25
100
AcDbSpline
210
0.0
220
0.0
230
1.0
 70
     8
 71
     3
 72
    11
 73
     7
 74
     0
 42
0.000000001
 43
0.00000001
 40
0.0
 40
0.0
 40
0.0
 40
0.0
 40
0.1254609496505479
 40
0.2511086606612963
 40
0.5012989882515732
 40
1.0
 40
1.0
 40
1.0
 40
1.0
 10
385.6258974358975
 20
212.2907692307667
 30
0.0
 10
385.5928394566628
 20
212.2874581997292
 30
0.0
 10
385.5266742880353
 20
212.2808312088483
 30
0.0
 10
385.410898161758
 20
212.2132799424561
 30
0.0
 10
385.2568382453229
 20
212.0324781463311
 30
0.0
 10
385.2359567005674
 20
211.8314732095341
 30
0.0
 10
385.2220512820514
 20
211.6976201923051
 30
0.0
  0
SPLINE
  5
1A1
330
1F
100
AcDbEntity
  8
0
  6
Continuous
 62
     7
370
    25
100
AcDbSpline
210
0.0
220
0.0
230
1.0
 70
     8
 71
     3
 72
    10
 73
     6
 74
     0
 42
0.000000001
 43
0.00000001
 40
0.0
 40
0.0
 40
0.0
 40
0.0
 40
0.561710589818094
 40
0.7823353437264984
 40
1.0
 40
1.0
 40
1.0
 40
1.0
 10
386.0788221153848
 20
211.7074358974333
 30
0.0
 10
386.0280151322781
 20
211.8427487943518
 30
0.0
 10
385.9572525379584
 20
212.0312089438313
 30
0.0
 10
385.7947693905934
 20
212.2470524420106
 30
0.0
 10
385.6819340668948
 20
212.276262727515
 30
0.0
 10
385.6258974358975
 20
212.2907692307667
 30
0.0
  0
LINE
  5
1A2
330
1F
100
AcDbEntity
  8
0
  6
Continuous
 62
     7
370
    25
100
AcDbLine
 10
386.2541025641
 20
211.8848197115
 30
0.0
 11
386.0788221154
 21
211.7074358974
 31
0.0
  0
SPLINE
  5
1A3
330
1F
100
AcDbEntity
  8
0
  6
Continuous
 62
     7
370
    25
100
AcDbSpline
210
0.0
220
0.0
230
1.0
 70
     8
 71
     3
 72
    10
 73
     6
 74
     0
 42
0.000000001
 43
0.00000001
 40
0.0
 40
0.0
 40
0.0
 40
0.0
 40
0.2764492944032166
 40
0.5571180767304957
 40
1.0
 40
1.0
 40
1.0
 40
1.0
 10
385.6294030448719
 20
212.649743589741
 30
0.0
 10
385.7260642431622
 20
212.624970179507
 30
0.0
 10
385.9208619944178
 20
212.575045238684
 30
0.0
 10
386.1221148050503
 20
212.2657512989963
 30
0.0
 10
386.2039882316238
 20
212.0294553380723
 30
0.0
 10
386.2541025641027
 20
211.8848197115359
 30
0.0
  0
LINE
  5
1A4
330
1F
100
AcDbEntity
  8
0
  6
Continuous
 62
     7
370
    25
100
AcDbLine
 10
391.2348717949
 20
212.56
 30
0.0
 11
390.3374358974
 21
209.06
 31
0.0
  0
LINE
  5
1A5
330
1F
100
AcDbEntity
  8
0
  6
Continuous
 62
     7
370
    25
100
AcDbLine
 10
391.0392588141
 20
212.56
 30
0.0
 11
391.2348717949
 21
212.56
 31
0.0
  0
LINE
  5
1A6
330
1F
100
AcDbEntity
  8
0
  6
Continuous
 62
     7
370
    25
100
AcDbLine
 10
390.7517988782
 20
211.4382051282
 30
0.0
 11
391.0392588141
 21
212.56
 31
0.0
  0
LINE
  5
1A7
330
1F
100
AcDbEntity
  8
0
  6
Continuous
 62
     7
370
    25
100
AcDbLine
 10
389.8782011218
 20
211.4382051282
 30
0.0
 11
390.7517988782
 21
211.4382051282
 31
0.0
  0
LINE
  5
1A8
330
1F
100
AcDbEntity
  8
0
  6
Continuous
 62
     7
370
    25
100
AcDbLine
 10
389.5907411859
 20
212.56
 30
0.0
 11
389.8782011218
 21
211.4382051282
 31
0.0
  0
LINE
  5
1A9
330
1F
100
AcDbEntity
  8
0
  6
Continuous
 62
     7
370
    25
100
AcDbLine
 10
389.3951282051
 20
212.56
 30
0.0
 11
389.5907411859
 21
212.56
 31
0.0
  0
LINE
  5
1AA
330
1F
100
AcDbEntity
  8
0
  6
Continuous
 62
     7
370
    25
100
AcDbLine
 10
390.2925641026
 20
209.06
 30
0.0
 11
389.3951282051
 21
212.56
 31
0.0
  0
LINE
  5
1AB
330
1F
100
AcDbEntity
  8
0
  6
Continuous
 62
     7
370
    25
100
AcDbLine
 10
390.3374358974
 20
209.06
 30
0.0
 11
390.2925641026
 21
209.06
 31
0.0
  0
CIRCLE
  5
1AC
330
1F
100
AcDbEntity
  8
0
  6
Continuous
 62
     7
370
    25
100
AcDbCircle
 10
410.44
 20
196.56
 30
0.0
 40
10.0
  0
CIRCLE
  5
1AD
330
1F
100
AcDbEntity
  8
0
  6
Continuous
 62
     7
370
    25
100
AcDbCircle
 10
385.44
 20
196.56
 30
0.0
 40
10.0
  0
SPLINE
  5
1AE
330
1F
100
AcDbEntity
  8
0
  6
Continuous
 62
     7
370
    25
100
AcDbSpline
210
0.0
220
0.0
230
1.0
 70
     8
 71
     3
 72
    11
 73
     7
 74
     0
 42
0.000000001
 43
0.00000001
 40
0.0
 40
0.0
 40
0.0
 40
0.0
 40
0.1233922960920571
 40
0.2483969190949638
 40
0.4979855619308479
 40
1.0
 40
1.0
 40
1.0
 40
1.0
 10
392.0650000000001
 20
212.2907692307667
 30
0.0
 10
392.0228746172527
 20
212.2801207846287
 30
0.0
 10
391.9380734131132
 20
212.2586847525782
 30
0.0
 10
391.8351835713333
 20
212.1114146975074
 30
0.0
 10
391.7652593520405
 20
211.8182850143946
 30
0.0
 10
391.7701000862542
 20
211.5605638634525
 30
0.0
 10
391.7733333333335
 20
211.3884254807667
 30
0.0
  0
SPLINE
  5
1AF
330
1F
100
AcDbEntity
  8
0
  6
Continuous
 62
     7
370
    25
100
AcDbSpline
210
0.0
220
0.0
230
1.0
 70
     8
 71
     3
 72
     9
 73
     5
 74
     0
 42
0.000000001
 43
0.00000001
 40
0.0
 40
0.0
 40
0.0
 40
0.0
 40
0.5600962084976817
 40
1.0
 40
1.0
 40
1.0
 40
1.0
 10
392.202419871795
 20
212.2402884615359
 30
0.0
 10
392.1788252075827
 20
212.2556776027167
 30
0.0
 10
392.1366991159323
 20
212.2831534915861
 30
0.0
 10
392.0869047363666
 20
212.2884425527203
 30
0.0
 10
392.0650000000001
 20
212.2907692307667
 30
0.0
  0
SPLINE
  5
1B0
330
1F
100
AcDbEntity
  8
0
  6
Continuous
 62
     7
370
    25
100
AcDbSpline
210
0.0
220
0.0
230
1.0
 70
     8
 71
     3
 72
     9
 73
     5
 74
     0
 42
0.000000001
 43
0.00000001
 40
0.0
 40
0.0
 40
0.0
 40
0.0
 40
0.5601489926679277
 40
1.0
 40
1.0
 40
1.0
 40
1.0
 10
392.4716506410258
 20
211.9766666666641
 30
0.0
 10
392.4250586869854
 20
212.0296927557633
 30
0.0
 10
392.3418808992
 20
212.1243570143682
 30
0.0
 10
392.2450229418872
 20
212.2048732945787
 30
0.0
 10
392.202419871795
 20
212.2402884615359
 30
0.0
  0
LINE
  5
1B1
330
1F
100
AcDbEntity
  8
0
  6
Continuous
 62
     7
370
    25
100
AcDbLine
 10
392.581025641
 20
212.2458974359
 30
0.0
 11
392.471650641
 21
211.9766666667
 31
0.0
  0
SPLINE
  5
1B2
330
1F
100
AcDbEntity
  8
0
  6
Continuous
 62
     7
370
    25
100
AcDbSpline
210
0.0
220
0.0
230
1.0
 70
     8
 71
     3
 72
    10
 73
     6
 74
     0
 42
0.000000001
 43
0.00000001
 40
0.0
 40
0.0
 40
0.0
 40
0.0
 40
0.2785120356168423
 40
0.5586533459909648
 40
0.9999999999999999
 40
0.9999999999999999
 40
0.9999999999999999
 40
0.9999999999999999
 10
392.0790224358976
 20
212.649743589741
 30
0.0
 10
392.141451948566
 20
212.6388097379696
 30
0.0
 10
392.2666761819231
 20
212.6168780722045
 30
0.0
 10
392.4363949656917
 20
212.4599386399324
 30
0.0
 10
392.5261319668815
 20
212.3271354449186
 30
0.0
 10
392.5810256410257
 20
212.2458974358949
 30
0.0
  0
SPLINE
  5
1B3
330
1F
100
AcDbEntity
  8
0
  6
Continuous
 62
     7
370
    25
100
AcDbSpline
210
0.0
220
0.0
230
1.0
 70
     8
 71
     3
 72
    11
 73
     7
 74
     0
 42
0.000000001
 43
0.00000001
 40
0.0
 40
0.0
 40
0.0
 40
0.0
 40
0.501673909257497
 40
0.7508675155329281
 40
0.8756480043680461
 40
1.0
 40
1.0
 40
1.0
 40
1.0
 10
391.5938461538463
 20
211.4234815705102
 30
0.0
 10
391.5890645275771
 20
211.6672573785678
 30
0.0
 10
391.5819077514907
 20
212.0321225468882
 30
0.0
 10
391.719559703855
 20
212.4415567981915
 30
0.0
 10
391.8958956128898
 20
212.6234361859284
 30
0.0
 10
392.0180501944574
 20
212.6409845158348
 30
0.0
 10
392.0790224358976
 20
212.649743589741
 30
0.0
  0
LINE
  5
1B4
330
1F
100
AcDbEntity
  8
0
  6
Continuous
 62
     7
370
    25
100
AcDbLine
 10
391.5938461538
 20
209.06
 30
0.0
 11
391.5938461538
 21
211.4234815705
 31
0.0
  0
LINE
  5
1B5
330
1F
100
AcDbEntity
  8
0
  6
Continuous
 62
     7
370
    25
100
AcDbLine
 10
391.7733333333
 20
209.06
 30
0.0
 11
391.5938461538
 21
209.06
 31
0.0
  0
LINE
  5
1B6
330
1F
100
AcDbEntity
  8
0
  6
Continuous
 62
     7
370
    25
100
AcDbLine
 10
391.7733333333
 20
211.3884254808
 30
0.0
 11
391.7733333333
 21
209.06
 31
0.0
  0
LINE
  5
1B7
330
1F
100
AcDbEntity
  8
0
  6
Continuous
 62
     7
370
    25
100
AcDbLine
 10
388.7669230769
 20
209.8073958333
 30
0.0
 11
388.7669230769
 21
212.56
 31
0.0
  0
LINE
  5
1B8
330
1F
100
AcDbEntity
  8
0
  6
Continuous
 62
     7
370
    25
100
AcDbLine
 10
387.4165625
 20
212.56
 30
0.0
 11
388.7669230769
 21
209.8073958333
 31
0.0
  0
LINE
  5
1B9
330
1F
100
AcDbEntity
  8
0
  6
Continuous
 62
     7
370
    25
100
AcDbLine
 10
387.3758974359
 20
212.56
 30
0.0
 11
387.4165625
 21
212.56
 31
0.0
  0
LINE
  5
1BA
330
1F
100
AcDbEntity
  8
0
  6
Continuous
 62
     7
370
    25
100
AcDbLine
 10
387.3758974359
 20
209.06
 30
0.0
 11
387.3758974359
 21
212.56
 31
0.0
  0
LINE
  5
1BB
330
1F
100
AcDbEntity
  8
0
  6
Continuous
 62
     7
370
    25
100
AcDbLine
 10
387.5553846154
 20
209.06
 30
0.0
 11
387.3758974359
 21
209.06
 31
0.0
  0
LINE
  5
1BC
330
1F
100
AcDbEntity
  8
0
  6
Continuous
 62
     7
370
    25
100
AcDbLine
 10
387.5553846154
 20
211.8189142628
 30
0.0
 11
387.5553846154
 21
209.06
 31
0.0
  0
LINE
  5
1BD
330
1F
100
AcDbEntity
  8
0
  6
Continuous
 62
     7
370
    25
100
AcDbLine
 10
388.9085496795
 20
209.06
 30
0.0
 11
387.5553846154
 21
211.8189142628
 31
0.0
  0
LINE
  5
1BE
330
1F
100
AcDbEntity
  8
0
  6
Continuous
 62
     7
370
    25
100
AcDbLine
 10
388.9464102564
 20
209.06
 30
0.0
 11
388.9085496795
 21
209.06
 31
0.0
  0
LINE
  5
1BF
330
1F
100
AcDbEntity
  8
0
  6
Continuous
 62
     7
370
    25
100
AcDbLine
 10
388.9464102564
 20
212.56
 30
0.0
 11
388.9464102564
 21
209.06
 31
0.0
  0
LINE
  5
1C0
330
1F
100
AcDbEntity
  8
0
  6
Continuous
 62
     7
370
    25
100
AcDbLine
 10
388.7669230769
 20
212.56
 30
0.0
 11
388.9464102564
 21
212.56
 31
0.0
  0
LINE
  5
1C1
330
1F
100
AcDbEntity
  8
0
  6
Continuous
 62
     7
370
    25
100
AcDbLine
 10
383.831025641
 20
212.56
 30
0.0
 11
383.8758974359
 21
212.56
 31
0.0
  0
LINE
  5
1C2
330
1F
100
AcDbEntity
  8
0
  6
Continuous
 62
     7
370
    25
100
AcDbLine
 10
382.9335897436
 20
209.06
 30
0.0
 11
383.831025641
 21
212.56
 31
0.0
  0
LINE
  5
1C3
330
1F
100
AcDbEntity
  8
0
  6
Continuous
 62
     7
370
    25
100
AcDbLine
 10
383.1292027244
 20
209.06
 30
0.0
 11
382.9335897436
 21
209.06
 31
0.0
  0
LINE
  5
1C4
330
1F
100
AcDbEntity
  8
0
  6
Continuous
 62
     7
370
    25
100
AcDbLine
 10
383.8534615385
 20
211.8855208333
 30
0.0
 11
383.1292027244
 21
209.06
 31
0.0
  0
LINE
  5
1C5
330
1F
100
AcDbEntity
  8
0
  6
Continuous
 62
     7
370
    25
100
AcDbLine
 10
384.5777203526
 20
209.06
 30
0.0
 11
383.8534615385
 21
211.8855208333
 31
0.0
  0
LINE
  5
1C6
330
1F
100
AcDbEntity
  8
0
  6
Continuous
 62
     7
370
    25
100
AcDbLine
 10
384.7733333333
 20
209.06
 30
0.0
 11
384.5777203526
 21
209.06
 31
0.0
  0
LINE
  5
1C7
330
1F
100
AcDbEntity
  8
0
  6
Continuous
 62
     7
370
    25
100
AcDbLine
 10
383.8758974359
 20
212.56
 30
0.0
 11
384.7733333333
 21
209.06
 31
0.0
  0
LINE
  5
1C8
330
1F
100
AcDbEntity
  8
0
  6
Continuous
 62
     7
370
    25
100
AcDbLine
 10
379.5513782051
 20
212.56
 30
0.0
 11
380.1066666667
 21
212.56
 31
0.0
  0
SPLINE
  5
1C9
330
1F
100
AcDbEntity
  8
0
  6
Continuous
 62
     7
370
    25
100
AcDbSpline
210
0.0
220
0.0
230
1.0
 70
     8
 71
     3
 72
    11
 73
     7
 74
     0
 42
0.000000001
 43
0.00000001
 40
0.0
 40
0.0
 40
0.0
 40
0.0
 40
0.499123696560026
 40
0.749027846152389
 40
0.8744534873773988
 40
1.0
 40
1.0
 40
1.0
 40
1.0
 10
378.8951282051283
 20
211.5665104166641
 30
0.0
 10
378.9163012118113
 20
211.7885068196261
 30
0.0
 10
378.9480752423805
 20
212.121653670217
 30
0.0
 10
379.187468932439
 20
212.4412458698695
 30
0.0
 10
379.3857364700705
 20
212.5468019408891
 30
0.0
 10
379.4961465684708
 20
212.5555992346649
 30
0.0
 10
379.5513782051283
 20
212.5599999999974
 30
0.0
  0
SPLINE
  5
1CA
330
1F
100
AcDbEntity
  8
0
  6
Continuous
 62
     7
370
    25
100
AcDbSpline
210
0.0
220
0.0
230
1.0
 70
     8
 71
     3
 72
    10
 73
     6
 74
     0
 42
0.000000001
 43
0.00000001
 40
0.0
 40
0.0
 40
0.0
 40
0.0
 40
0.2796112770017492
 40
0.5597236900679835
 40
1.0
 40
1.0
 40
1.0
 40
1.0
 10
379.3059855769232
 20
210.6718790064077
 30
0.0
 10
379.2272723311928
 20
210.7291568271316
 30
0.0
 10
379.0697047651422
 20
210.8438151253175
 30
0.0
 10
378.9252589126911
 20
211.1687806332888
 30
0.0
 10
378.906557718696
 20
211.4156391519957
 30
0.0
 10
378.8951282051283
 20
211.5665104166641
 30
0.0
  0
SPLINE
  5
1CB
330
1F
100
AcDbEntity
  8
0
  6
Continuous
 62
     7
370
    25
100
AcDbSpline
210
0.0
220
0.0
230
1.0
 70
     8
 71
     3
 72
     9
 73
     5
 74
     0
 42
0.000000001
 43
0.00000001
 40
0.0
 40
0.0
 40
0.0
 40
0.0
 40
0.5610465972453196
 40
1.0
 40
1.0
 40
1.0
 40
1.0
 10
379.0746153846155
 20
209.9272876602539
 30
0.0
 10
379.0808630096781
 20
210.0789712419244
 30
0.0
 10
379.0919986713028
 20
210.3493295016755
 30
0.0
 10
379.2407087721377
 20
210.5734851304226
 30
0.0
 10
379.3059855769232
 20
210.6718790064077
 30
0.0
  0
SPLINE
  5
1CC
330
1F
100
AcDbEntity
  8
0
  6
Continuous
 62
     7
370
    25
100
AcDbSpline
210
0.0
220
0.0
230
1.0
 70
     8
 71
     3
 72
    11
 73
     7
 74
     0
 42
0.000000001
 43
0.00000001
 40
0.0
 40
0.0
 40
0.0
 40
0.0
 40
0.24992172783581
 40
0.3753610129494628
 40
0.5010264763867516
 40
1.0
 40
1.0
 40
1.0
 40
1.0
 10
379.7140384615386
 20
209.0599999999974
 30
0.0
 10
379.6096195870928
 20
209.066370771345
 30
0.0
 10
379.4527913880304
 20
209.0759391238327
 30
0.0
 10
379.2892837085921
 20
209.206430156689
 30
0.0
 10
379.1148679385316
 20
209.4595309105378
 30
0.0
 10
379.0924907272904
 20
209.7195663761059
 30
0.0
 10
379.0746153846155
 20
209.9272876602539
 30
0.0
  0
LINE
  5
1CD
330
1F
100
AcDbEntity
  8
0
  6
Continuous
 62
     7
370
    25
100
AcDbLine
 10
380.1066666667
 20
209.06
 30
0.0
 11
379.7140384615
 21
209.06
 31
0.0
  0
LINE
  5
1CE
330
1F
100
AcDbEntity
  8
0
  6
Continuous
 62
     7
370
    25
100
AcDbLine
 10
380.1066666667
 20
212.56
 30
0.0
 11
380.1066666667
 21
209.06
 31
0.0
  0
SPLINE
  5
1CF
330
1F
100
AcDbEntity
  8
0
  6
Continuous
 62
     7
370
    25
100
AcDbSpline
210
0.0
220
0.0
230
1.0
 70
     8
 71
     3
 72
    13
 73
     9
 74
     0
 42
0.000000001
 43
0.00000001
 40
0.0
 40
0.0
 40
0.0
 40
0.0
 40
0.2503710534593078
 40
0.500424224768094
 40
0.6255435697061346
 40
0.750354897407658
 40
0.874969982966407
 40
0.9999999999999999
 40
0.9999999999999999
 40
0.9999999999999999
 40
0.9999999999999999
 10
374.2733333333335
 20
210.8541706730743
 30
0.0
 10
374.2802803765798
 20
211.0425576013213
 30
0.0
 10
374.2941656427993
 20
211.4190922734485
 30
0.0
 10
374.4238675213959
 20
211.8774615528511
 30
0.0
 10
374.5962759530037
 20
212.2122758757534
 30
0.0
 10
374.7851236392229
 20
212.429282768052
 30
0.0
 10
375.051774060052
 20
212.5456153608693
 30
0.0
 10
375.2399075280382
 20
212.5551998102303
 30
0.0
 10
375.3341306089745
 20
212.5599999999974
 30
0.0
  0
SPLINE
  5
1D0
330
1F
100
AcDbEntity
  8
0
  6
Continuous
 62
     7
370
    25
100
AcDbSpline
210
0.0
220
0.0
230
1.0
 70
     8
 71
     3
 72
    10
 73
     6
 74
     0
 42
0.000000001
 43
0.00000001
 40
0.0
 40
0.0
 40
0.0
 40
0.0
 40
0.2783445426919828
 40
0.5589399508783482
 40
1.0
 40
1.0
 40
1.0
 40
1.0
 10
374.899435096154
 20
209.1862019230743
 30
0.0
 10
374.7711213518499
 20
209.3034464985627
 30
0.0
 10
374.5134562392356
 20
209.5388837614257
 30
0.0
 10
374.3140062007507
 20
210.1411470682015
 30
0.0
 10
374.2887620231564
 20
210.5836950283865
 30
0.0
 10
374.2733333333335
 20
210.8541706730743
 30
0.0
  0
SPLINE
  5
1D1
330
1F
100
AcDbEntity
  8
0
  6
Continuous
 62
     7
370
    25
100
AcDbSpline
210
0.0
220
0.0
230
1.0
 70
     8
 71
     3
 72
     9
 73
     5
 74
     0
 42
0.000000001
 43
0.00000001
 40
0.0
 40
0.0
 40
0.0
 40
0.0
 40
0.5609859186653898
 40
1.0
 40
1.0
 40
1.0
 40
1.0
 10
375.5584895833335
 20
209.0599999999974
 30
0.0
 10
375.4305057586103
 20
209.0607777865518
 30
0.0
 10
375.2023648722441
 20
209.0621642501482
 30
0.0
 10
374.9918528418065
 20
209.1483605386592
 30
0.0
 10
374.899435096154
 20
209.1862019230743
 30
0.0
  0
LINE
  5
1D2
330
1F
100
AcDbEntity
  8
0
  6
Continuous
 62
     7
370
    25
100
AcDbLine
 10
375.9784615385
 20
209.06
 30
0.0
 11
375.5584895833
 21
209.06
 31
0.0
  0
LINE
  5
1D3
330
1F
100
AcDbEntity
  8
0
  6
Continuous
 62
     7
370
    25
100
AcDbLine
 10
375.9784615385
 20
212.56
 30
0.0
 11
375.9784615385
 21
209.06
 31
0.0
  0
LINE
  5
1D4
330
1F
100
AcDbEntity
  8
0
  6
Continuous
 62
     7
370
    25
100
AcDbLine
 10
375.334130609
 20
212.56
 30
0.0
 11
375.9784615385
 21
212.56
 31
0.0
  0
SPLINE
  5
1D5
330
1F
100
AcDbEntity
  8
0
  6
Continuous
 62
     7
370
    25
100
AcDbSpline
210
0.0
220
0.0
230
1.0
 70
     8
 71
     3
 72
    11
 73
     7
 74
     0
 42
0.000000001
 43
0.00000001
 40
0.0
 40
0.0
 40
0.0
 40
0.0
 40
0.4995887937591625
 40
0.7496477070127117
 40
0.8748502498721045
 40
0.9999999999999999
 40
0.9999999999999999
 40
0.9999999999999999
 40
0.9999999999999999
 10
371.0425641025643
 20
210.6284094551256
 30
0.0
 10
371.030794855819
 20
210.4835647133146
 30
0.0
 10
371.0131347542593
 20
210.2662209099148
 30
0.0
 10
370.8706533570702
 20
210.0520514149835
 30
0.0
 10
370.749729578747
 20
209.968200835452
 30
0.0
 10
370.6775864124803
 20
209.9610237056167
 30
0.0
 10
370.6415224358975
 20
209.9574358974334
 30
0.0
  0
SPLINE
  5
1D6
330
1F
100
AcDbEntity
  8
0
  6
Continuous
 62
     7
370
    25
100
AcDbSpline
210
0.0
220
0.0
230
1.0
 70
     8
 71
     3
 72
     9
 73
     5
 74
     0
 42
0.000000001
 43
0.00000001
 40
0.0
 40
0.0
 40
0.0
 40
0.0
 40
0.5597236944495728
 40
0.9999999999999999
 40
0.9999999999999999
 40
0.9999999999999999
 40
0.9999999999999999
 10
370.9717508012822
 20
211.0224399038436
 30
0.0
 10
370.9953239405766
 20
210.9506613944778
 30
0.0
 10
371.0374396121628
 20
210.8224222113279
 30
0.0
 10
371.0409976033494
 20
210.6877169777178
 30
0.0
 10
371.0425641025643
 20
210.6284094551256
 30
0.0
  0
SPLINE
  5
1D7
330
1F
100
AcDbEntity
  8
0
  6
Continuous
 62
     7
370
    25
100
AcDbSpline
210
0.0
220
0.0
230
1.0
 70
     8
 71
     3
 72
     9
 73
     5
 74
     0
 42
0.000000001
 43
0.00000001
 40
0.0
 40
0.0
 40
0.0
 40
0.0
 40
0.5602673156711518
 40
0.9999999999999999
 40
0.9999999999999999
 40
0.9999999999999999
 40
0.9999999999999999
 10
370.7032211538463
 20
211.3715985576897
 30
0.0
 10
370.7638085860731
 20
211.3142005751285
 30
0.0
 10
370.8719488086636
 20
211.2117530809488
 30
0.0
 10
370.9412686162257
 20
211.0802611872342
 30
0.0
 10
370.9717508012822
 20
211.0224399038436
 30
0.0
  0
SPLINE
  5
1D8
330
1F
100
AcDbEntity
  8
0
  6
Continuous
 62
     7
370
    25
100
AcDbSpline
210
0.0
220
0.0
230
1.0
 70
     8
 71
     3
 72
     9
 73
     5
 74
     0
 42
0.000000001
 43
0.00000001
 40
0.0
 40
0.0
 40
0.0
 40
0.0
 40
0.5592962946024351
 40
0.9999999999999999
 40
0.9999999999999999
 40
0.9999999999999999
 40
0.9999999999999999
 10
370.4669431089745
 20
211.6352203525616
 30
0.0
 10
370.5051715855833
 20
211.5807510705475
 30
0.0
 10
370.5735226134332
 20
211.4833621149264
 30
0.0
 10
370.6635470507462
 20
211.405786443525
 30
0.0
 10
370.7032211538463
 20
211.3715985576897
 30
0.0
  0
SPLINE
  5
1D9
330
1F
100
AcDbEntity
  8
0
  6
Continuous
 62
     7
370
    25
100
AcDbSpline
210
0.0
220
0.0
230
1.0
 70
     8
 71
     3
 72
     9
 73
     5
 74
     0
 42
0.000000001
 43
0.00000001
 40
0.0
 40
0.0
 40
0.0
 40
0.0
 40
0.5600579277096368
 40
1.0
 40
1.0
 40
1.0
 40
1.0
 10
370.4143589743591
 20
211.8792107371769
 30
0.0
 10
370.4165916838
 20
211.8319157558678
 30
0.0
 10
370.4205782525644
 20
211.7474691674541
 30
0.0
 10
370.4527773648081
 20
211.669515465668
 30
0.0
 10
370.4669431089745
 20
211.6352203525616
 30
0.0
  0
SPLINE
  5
1DA
330
1F
100
AcDbEntity
  8
0
  6
Continuous
 62
     7
370
    25
100
AcDbSpline
210
0.0
220
0.0
230
1.0
 70
     8
 71
     3
 72
    11
 73
     7
 74
     0
 42
0.000000001
 43
0.00000001
 40
0.0
 40
0.0
 40
0.0
 40
0.0
 40
0.1862800291095628
 40
0.373277681167715
 40
0.560976309485279
 40
1.0
 40
1.0
 40
1.0
 40
1.0
 10
370.6941065705129
 20
212.2907692307667
 30
0.0
 10
370.6598768870749
 20
212.2856674178874
 30
0.0
 10
370.591285654177
 20
212.2754441379661
 30
0.0
 10
370.5153470339256
 20
212.201119246759
 30
0.0
 10
370.43563303549
 20
212.075638252568
 30
0.0
 10
370.4231226166791
 20
211.9601271393678
 30
0.0
 10
370.4143589743591
 20
211.8792107371769
 30
0.0
  0
SPLINE
  5
1DB
330
1F
100
AcDbEntity
  8
0
  6
Continuous
 62
     7
370
    25
100
AcDbSpline
210
0.0
220
0.0
230
1.0
 70
     8
 71
     3
 72
    10
 73
     6
 74
     0
 42
0.000000001
 43
0.00000001
 40
0.0
 40
0.0
 40
0.0
 40
0.0
 40
0.5602130058460041
 40
0.7805388860236455
 40
0.9999999999999999
 40
0.9999999999999999
 40
0.9999999999999999
 40
0.9999999999999999
 10
371.0089102564104
 20
212.0215384615359
 30
0.0
 10
370.9666551254709
 20
212.0908663489207
 30
0.0
 10
370.9077814961762
 20
212.1874601648889
 30
0.0
 10
370.7893281840526
 20
212.2767835068321
 30
0.0
 10
370.7258054728296
 20
212.2861134380286
 30
0.0
 10
370.6941065705129
 20
212.2907692307667
 30
0.0
  0
LINE
  5
1DC
330
1F
100
AcDbEntity
  8
0
  6
Continuous
 62
     7
370
    25
100
AcDbLine
 10
371.1323076923
 20
212.2585176282
 30
0.0
 11
371.0089102564
 21
212.0215384615
 31
0.0
  0
SPLINE
  5
1DD
330
1F
100
AcDbEntity
  8
0
  6
Continuous
 62
     7
370
    25
100
AcDbSpline
210
0.0
220
0.0
230
1.0
 70
     8
 71
     3
 72
    10
 73
     6
 74
     0
 42
0.000000001
 43
0.00000001
 40
0.0
 40
0.0
 40
0.0
 40
0.0
 40
0.2793360855017056
 40
0.5596860779239603
 40
1.0
 40
1.0
 40
1.0
 40
1.0
 10
370.6891987179488
 20
212.6048717948692
 30
0.0
 10
370.7442297157242
 20
212.5967348112104
 30
0.0
 10
370.8544914574315
 20
212.5804313090617
 30
0.0
 10
371.0173586807506
 20
212.4573251718996
 30
0.0
 10
371.0887119848593
 20
212.3339176285694
 30
0.0
 10
371.1323076923078
 20
212.2585176282026
 30
0.0
  0
SPLINE
  5
1DE
330
1F
100
AcDbEntity
  8
0
  6
Continuous
 62
     7
370
    25
100
AcDbSpline
210
0.0
220
0.0
230
1.0
 70
     8
 71
     3
 72
    11
 73
     7
 74
     0
 42
0.000000001
 43
0.00000001
 40
0.0
 40
0.0
 40
0.0
 40
0.0
 40
0.4993703836106166
 40
0.7494702244905823
 40
0.8747779228264972
 40
0.9999999999999999
 40
0.9999999999999999
 40
0.9999999999999999
 40
0.9999999999999999
 10
370.2348717948719
 20
211.8658894230743
 30
0.0
 10
370.2498568200655
 20
212.0262249640445
 30
0.0
 10
370.2723468005777
 20
212.2668614091133
 30
0.0
 10
370.4340464351084
 20
212.5019453078057
 30
0.0
 10
370.5693439414637
 20
212.5926841431328
 30
0.0
 10
370.6492562294063
 20
212.6008101700085
 30
0.0
 10
370.6891987179488
 20
212.6048717948692
 30
0.0
  0
SPLINE
  5
1DF
330
1F
100
AcDbEntity
  8
0
  6
Continuous
 62
     7
370
    25
100
AcDbSpline
210
0.0
220
0.0
230
1.0
 70
     8
 71
     3
 72
     9
 73
     5
 74
     0
 42
0.000000001
 43
0.00000001
 40
0.0
 40
0.0
 40
0.0
 40
0.0
 40
0.5597312972336572
 40
0.9999999999999999
 40
0.9999999999999999
 40
0.9999999999999999
 40
0.9999999999999999
 10
370.3077884615386
 20
211.4704567307667
 30
0.0
 10
370.2836769050841
 20
211.5424257522754
 30
0.0
 10
370.2405998847822
 20
211.6710035571335
 30
0.0
 10
370.2366227866898
 20
211.8063157149041
 30
0.0
 10
370.2348717948719
 20
211.8658894230743
 30
0.0
  0
SPLINE
  5
1E0
330
1F
100
AcDbEntity
  8
0
  6
Continuous
 62
     7
370
    25
100
AcDbSpline
210
0.0
220
0.0
230
1.0
 70
     8
 71
     3
 72
     9
 73
     5
 74
     0
 42
0.000000001
 43
0.00000001
 40
0.0
 40
0.0
 40
0.0
 40
0.0
 40
0.5602678590759818
 40
1.0
 40
1.0
 40
1.0
 40
1.0
 10
370.5882371794873
 20
211.1114823717923
 30
0.0
 10
370.5250882663349
 20
211.1703348877507
 30
0.0
 10
370.4123762623722
 20
211.2753784218478
 30
0.0
 10
370.3397323323934
 20
211.4108746738059
 30
0.0
 10
370.3077884615386
 20
211.4704567307667
 30
0.0
  0
SPLINE
  5
1E1
330
1F
100
AcDbEntity
  8
0
  6
Continuous
 62
     7
370
    25
100
AcDbSpline
210
0.0
220
0.0
230
1.0
 70
     8
 71
     3
 72
     9
 73
     5
 74
     0
 42
0.000000001
 43
0.00000001
 40
0.0
 40
0.0
 40
0.0
 40
0.0
 40
0.5593044693552227
 40
1.0
 40
1.0
 40
1.0
 40
1.0
 10
370.8104927884617
 20
210.8478605769205
 30
0.0
 10
370.7750879204791
 20
210.9021998448933
 30
0.0
 10
370.7117863201479
 20
210.9993549204383
 30
0.0
 10
370.6260297268688
 20
211.0771836142664
 30
0.0
 10
370.5882371794873
 20
211.1114823717923
 30
0.0
  0
SPLINE
  5
1E2
330
1F
100
AcDbEntity
  8
0
  6
Continuous
 62
     7
370
    25
100
AcDbSpline
210
0.0
220
0.0
230
1.0
 70
     8
 71
     3
 72
     9
 73
     5
 74
     0
 42
0.000000001
 43
0.00000001
 40
0.0
 40
0.0
 40
0.0
 40
0.0
 40
0.559881814842881
 40
1.0
 40
1.0
 40
1.0
 40
1.0
 10
370.8630769230771
 20
210.615789262818
 30
0.0
 10
370.8601978849923
 20
210.6607690666915
 30
0.0
 10
370.8550556603149
 20
210.7411070999711
 30
0.0
 10
370.8241117611873
 20
210.8152353750319
 30
0.0
 10
370.8104927884617
 20
210.8478605769205
 30
0.0
  0
SPLINE
  5
1E3
330
1F
100
AcDbEntity
  8
0
  6
Continuous
 62
     7
370
    25
100
AcDbSpline
210
0.0
220
0.0
230
1.0
 70
     8
 71
     3
 72
    11
 73
     7
 74
     0
 42
0.000000001
 43
0.00000001
 40
0.0
 40
0.0
 40
0.0
 40
0.0
 40
0.1252743077973432
 40
0.251101150056386
 40
0.5014001565339458
 40
0.9999999999999999
 40
0.9999999999999999
 40
0.9999999999999999
 40
0.9999999999999999
 10
370.6471314102565
 20
210.2715384615359
 30
0.0
 10
370.6657862148476
 20
210.2734927321769
 30
0.0
 10
370.7031781028512
 20
210.2774098929587
 30
0.0
 10
370.765294936795
 20
210.3213495765338
 30
0.0
 10
370.8418055421772
 20
210.4293487642346
 30
0.0
 10
370.8545751849646
 20
210.5412727892533
 30
0.0
 10
370.8630769230771
 20
210.615789262818
 30
0.0
  0
SPLINE
  5
1E4
330
1F
100
AcDbEntity
  8
0
  6
Continuous
 62
     7
370
    25
100
AcDbSpline
210
0.0
220
0.0
230
1.0
 70
     8
 71
     3
 72
    10
 73
     6
 74
     0
 42
0.000000001
 43
0.00000001
 40
0.0
 40
0.0
 40
0.0
 40
0.0
 40
0.5608664427299723
 40
0.7811909556284055
 40
1.0
 40
1.0
 40
1.0
 40
1.0
 10
370.3610737179488
 20
210.5407692307667
 30
0.0
 10
370.3998281119021
 20
210.4750058547842
 30
0.0
 10
370.4538063493944
 20
210.3834087282402
 30
0.0
 10
370.5577971393871
 20
210.2892530222377
 30
0.0
 10
370.6174219091697
 20
210.2774297141907
 30
0.0
 10
370.6471314102565
 20
210.2715384615359
 30
0.0
  0
LINE
  5
1E5
330
1F
100
AcDbEntity
  8
0
  6
Continuous
 62
     7
370
    25
100
AcDbLine
 10
370.2348717949
 20
210.321318109
 30
0.0
 11
370.3610737179
 21
210.5407692308
 31
0.0
  0
SPLINE
  5
1E6
330
1F
100
AcDbEntity
  8
0
  6
Continuous
 62
     7
370
    25
100
AcDbSpline
210
0.0
220
0.0
230
1.0
 70
     8
 71
     3
 72
    10
 73
     6
 74
     0
 42
0.000000001
 43
0.00000001
 40
0.0
 40
0.0
 40
0.0
 40
0.0
 40
0.277728411676265
 40
0.5583945168818977
 40
1.0
 40
1.0
 40
1.0
 40
1.0
 10
370.6415224358975
 20
209.9574358974334
 30
0.0
 10
370.5892869389285
 20
209.969301309675
 30
0.0
 10
370.4842634200235
 20
209.9931576414643
 30
0.0
 10
370.3494376821458
 20
210.1351425625083
 30
0.0
 10
370.2783410969485
 20
210.2506782242639
 30
0.0
 10
370.2348717948719
 20
210.3213181089718
 30
0.0
  0
LINE
  5
1E7
330
1F
100
AcDbEntity
  8
0
  6
Continuous
 62
     7
370
    25
100
AcDbLine
 10
368.9784615385
 20
212.56
 30
0.0
 11
369.1579487179
 21
212.56
 31
0.0
  0
LINE
  5
1E8
330
1F
100
AcDbEntity
  8
0
  6
Continuous
 62
     7
370
    25
100
AcDbLine
 10
368.9784615385
 20
211.7004246795
 30
0.0
 11
368.9784615385
 21
212.56
 31
0.0
  0
SPLINE
  5
1E9
330
1F
100
AcDbEntity
  8
0
  6
Continuous
 62
     7
370
    25
100
AcDbSpline
210
0.0
220
0.0
230
1.0
 70
     8
 71
     3
 72
     9
 73
     5
 74
     0
 42
0.000000001
 43
0.00000001
 40
0.0
 40
0.0
 40
0.0
 40
0.0
 40
0.5598529206449104
 40
1.0
 40
1.0
 40
1.0
 40
1.0
 10
368.9413020833335
 20
210.8226201923051
 30
0.0
 10
368.9551322125565
 20
210.986166254038
 30
0.0
 10
368.97983535996
 20
211.2782895165987
 30
0.0
 10
368.9788814146873
 20
211.5714089965028
 30
0.0
 10
368.9784615384617
 20
211.7004246794846
 30
0.0
  0
SPLINE
  5
1EA
330
1F
100
AcDbEntity
  8
0
  6
Continuous
 62
     7
370
    25
100
AcDbSpline
210
0.0
220
0.0
230
1.0
 70
     8
 71
     3
 72
    11
 73
     7
 74
     0
 42
0.000000001
 43
0.00000001
 40
0.0
 40
0.0
 40
0.0
 40
0.0
 40
0.1243538791098461
 40
0.2497154802031543
 40
0.4996181121087911
 40
1.0
 40
1.0
 40
1.0
 40
1.0
 10
368.6040625000001
 20
210.2715384615359
 30
0.0
 10
368.6326433396843
 20
210.2767333425261
 30
0.0
 10
368.6900366285582
 20
210.2871652020737
 30
0.0
 10
368.7765537858406
 20
210.3676306190062
 30
0.0
 10
368.8853691818923
 20
210.5381146058078
 30
0.0
 10
368.9189237651454
 20
210.7087917232489
 30
0.0
 10
368.9413020833335
 20
210.8226201923051
 30
0.0
  0
SPLINE
  5
1EB
330
1F
100
AcDbEntity
  8
0
  6
Continuous
 62
     7
370
    25
100
AcDbSpline
210
0.0
220
0.0
230
1.0
 70
     8
 71
     3
 72
     9
 73
     5
 74
     0
 42
0.000000001
 43
0.00000001
 40
0.0
 40
0.0
 40
0.0
 40
0.0
 40
0.5610727427929559
 40
1.0
 40
1.0
 40
1.0
 40
1.0
 10
368.4974919871796
 20
210.3171113782026
 30
0.0
 10
368.5156393477526
 20
210.3041923990643
 30
0.0
 10
368.5479833901359
 20
210.281166901383
 30
0.0
 10
368.5869562496626
 20
210.2744754999943
 30
0.0
 10
368.6040625000001
 20
210.2715384615359
 30
0.0
  0
LINE
  5
1EC
330
1F
100
AcDbEntity
  8
0
  6
Continuous
 62
     7
370
    25
100
AcDbLine
 10
368.3951282051
 20
210.0450761218
 30
0.0
 11
368.4974919872
 21
210.3171113782
 31
0.0
  0
SPLINE
  5
1ED
330
1F
100
AcDbEntity
  8
0
  6
Continuous
 62
     7
370
    25
100
AcDbSpline
210
0.0
220
0.0
230
1.0
 70
     8
 71
     3
 72
     9
 73
     5
 74
     0
 42
0.000000001
 43
0.00000001
 40
0.0
 40
0.0
 40
0.0
 40
0.0
 40
0.5580894598618757
 40
1.0
 40
1.0
 40
1.0
 40
1.0
 10
368.5725120192309
 20
209.9574358974334
 30
0.0
 10
368.5351075557836
 20
209.9652725130354
 30
0.0
 10
368.4680852123467
 20
209.9793143757935
 30
0.0
 10
368.4174877548849
 20
210.0249217447448
 30
0.0
 10
368.3951282051283
 20
210.0450761217923
 30
0.0
  0
SPLINE
  5
1EE
330
1F
100
AcDbEntity
  8
0
  6
Continuous
 62
     7
370
    25
100
AcDbSpline
210
0.0
220
0.0
230
1.0
 70
     8
 71
     3
 72
    10
 73
     6
 74
     0
 42
0.000000001
 43
0.00000001
 40
0.0
 40
0.0
 40
0.0
 40
0.0
 40
0.5604822839617496
 40
0.7809314186747636
 40
1.0
 40
1.0
 40
1.0
 40
1.0
 10
368.9784615384617
 20
210.3788100961513
 30
0.0
 10
368.9307218050409
 20
210.2734110030114
 30
0.0
 10
368.8642050589917
 20
210.1265562929017
 30
0.0
 10
368.7082193606334
 20
209.981253775516
 30
0.0
 10
368.6176529747526
 20
209.9653585474833
 30
0.0
 10
368.5725120192309
 20
209.9574358974334
 30
0.0
  0
LINE
  5
1EF
330
1F
100
AcDbEntity
  8
0
  6
Continuous
 62
     7
370
    25
100
AcDbLine
 10
368.9784615385
 20
210.0023076923
 30
0.0
 11
368.9784615385
 21
210.3788100962
 31
0.0
  0
LINE
  5
1F0
330
1F
100
AcDbEntity
  8
0
  6
Continuous
 62
     7
370
    25
100
AcDbLine
 10
369.1579487179
 20
210.0023076923
 30
0.0
 11
368.9784615385
 21
210.0023076923
 31
0.0
  0
LINE
  5
1F1
330
1F
100
AcDbEntity
  8
0
  6
Continuous
 62
     7
370
    25
100
AcDbLine
 10
369.1579487179
 20
212.56
 30
0.0
 11
369.1579487179
 21
210.0023076923
 31
0.0
  0
SPLINE
  5
1F2
330
1F
100
AcDbEntity
  8
0
  6
Continuous
 62
     7
370
    25
100
AcDbSpline
210
0.0
220
0.0
230
1.0
 70
     8
 71
     3
 72
     9
 73
     5
 74
     0
 42
0.000000001
 43
0.00000001
 40
0.0
 40
0.0
 40
0.0
 40
0.0
 40
0.5599962873528365
 40
0.9999999999999999
 40
0.9999999999999999
 40
0.9999999999999999
 40
0.9999999999999999
 10
367.4976923076924
 20
211.2881650641
 30
0.0
 10
367.489458595033
 20
211.110819357426
 30
0.0
 10
367.4747554392346
 20
210.7941284959343
 30
0.0
 10
367.3421826706359
 20
210.5071743507684
 30
0.0
 10
367.2838501602566
 20
210.3809134615359
 30
0.0
  0
SPLINE
  5
1F3
330
1F
100
AcDbEntity
  8
0
  6
Continuous
 62
     7
370
    25
100
AcDbSpline
210
0.0
220
0.0
230
1.0
 70
     8
 71
     3
 72
    11
 73
     7
 74
     0
 42
0.000000001
 43
0.00000001
 40
0.0
 40
0.0
 40
0.0
 40
0.0
 40
0.1252886638719645
 40
0.2506165783541497
 40
0.5007770309831405
 40
1.0
 40
1.0
 40
1.0
 40
1.0
 10
366.6892988782052
 20
212.6048717948692
 30
0.0
 10
366.7604201939765
 20
212.597797027579
 30
0.0
 10
366.9026851065057
 20
212.5836452766056
 30
0.0
 10
367.1448514879408
 20
212.4232168356432
 30
0.0
 10
367.4241721971671
 20
211.9986481435555
 30
0.0
 10
367.4682971931605
 20
211.5722333461578
 30
0.0
 10
367.4976923076924
 20
211.2881650641
 30
0.0
  0
SPLINE
  5
1F4
330
1F
100
AcDbEntity
  8
0
  6
Continuous
 62
     7
370
    25
100
AcDbSpline
210
0.0
220
0.0
230
1.0
 70
     8
 71
     3
 72
    11
 73
     7
 74
     0
 42
0.000000001
 43
0.00000001
 40
0.0
 40
0.0
 40
0.0
 40
0.0
 40
0.4992172148960858
 40
0.749394329162967
 40
0.8747283359361284
 40
1.0
 40
1.0
 40
1.0
 40
1.0
 10
365.8823076923078
 20
211.2881650641
 30
0.0
 10
365.9116166061436
 20
211.5721114118488
 30
0.0
 10
365.955613353786
 20
211.9983542905799
 30
0.0
 10
366.2347570928778
 20
212.4221841734166
 30
0.0
 10
366.4759810563231
 20
212.5837698601855
 30
0.0
 10
366.6182047311514
 20
212.5978389832912
 30
0.0
 10
366.6892988782052
 20
212.6048717948692
 30
0.0
  0
SPLINE
  5
1F5
330
1F
100
AcDbEntity
  8
0
  6
Continuous
 62
     7
370
    25
100
AcDbSpline
210
0.0
220
0.0
230
1.0
 70
     8
 71
     3
 72
     9
 73
     5
 74
     0
 42
0.000000001
 43
0.00000001
 40
0.0
 40
0.0
 40
0.0
 40
0.0
 40
0.5593287449576883
 40
1.0
 40
1.0
 40
1.0
 40
1.0
 10
366.0961498397437
 20
210.3788100961513
 30
0.0
 10
366.0252016183372
 20
210.5415362392679
 30
0.0
 10
365.8983563202079
 20
210.8324673680247
 30
0.0
 10
365.8872166324797
 20
211.148776654047
 30
0.0
 10
365.8823076923078
 20
211.2881650641
 30
0.0
  0
SPLINE
  5
1F6
330
1F
100
AcDbEntity
  8
0
  6
Continuous
 62
     7
370
    25
100
AcDbSpline
210
0.0
220
0.0
230
1.0
 70
     8
 71
     3
 72
    10
 73
     6
 74
     0
 42
0.000000001
 43
0.00000001
 40
0.0
 40
0.0
 40
0.0
 40
0.0
 40
0.2796914884105177
 40
0.5596858189806797
 40
1.0
 40
1.0
 40
1.0
 40
1.0
 10
366.6892988782052
 20
209.9574358974334
 30
0.0
 10
366.6178724143393
 20
209.9654924656983
 30
0.0
 10
366.4749421480204
 20
209.9816143256561
 30
0.0
 10
366.2562671989306
 20
210.1286117069412
 30
0.0
 10
366.1568947694494
 20
210.2838904469501
 30
0.0
 10
366.0961498397437
 20
210.3788100961513
 30
0.0
  0
SPLINE
  5
1F7
330
1F
100
AcDbEntity
  8
0
  6
Continuous
 62
     7
370
    25
100
AcDbSpline
210
0.0
220
0.0
230
1.0
 70
     8
 71
     3
 72
    10
 73
     6
 74
     0
 42
0.000000001
 43
0.00000001
 40
0.0
 40
0.0
 40
0.0
 40
0.0
 40
0.5586685747843354
 40
0.7793955152712615
 40
1.0
 40
1.0
 40
1.0
 40
1.0
 10
367.2838501602566
 20
210.3809134615359
 30
0.0
 10
367.2037026910464
 20
210.259463753113
 30
0.0
 10
367.0918893890598
 20
210.0900299199815
 30
0.0
 10
366.85826799977
 20
209.9717172992941
 30
0.0
 10
366.7456114991673
 20
209.962195484051
 30
0.0
 10
366.6892988782052
 20
209.9574358974334
 30
0.0
  0
LINE
  5
1F8
330
1F
100
AcDbEntity
  8
0
  6
Continuous
 62
     7
370
    25
100
AcDbLine
 10
411.94
 20
181.06
 30
0.0
 11
403.94
 21
181.06
 31
0.0
  0
LINE
  5
1F9
330
1F
100
AcDbEntity
  8
0
  6
Continuous
 62
     7
370
    25
100
AcDbLine
 10
403.94
 20
181.06
 30
0.0
 11
403.94
 21
179.36
 31
0.0
  0
LINE
  5
1FA
330
1F
100
AcDbEntity
  8
0
  6
Continuous
 62
     7
370
    25
100
AcDbLine
 10
364.94
 20
179.36
 30
0.0
 11
403.94
 21
179.36
 31
0.0
  0
LINE
  5
1FB
330
1F
100
AcDbEntity
  8
0
  6
Continuous
 62
     7
370
    25
100
AcDbLine
 10
364.94
 20
213.76
 30
0.0
 11
364.94
 21
179.36
 31
0.0
  0
LINE
  5
1FC
330
1F
100
AcDbEntity
  8
0
  6
Continuous
 62
     7
370
    25
100
AcDbLine
 10
420.94
 20
213.76
 30
0.0
 11
364.94
 21
213.76
 31
0.0
  0
LINE
  5
1FD
330
1F
100
AcDbEntity
  8
0
  6
Continuous
 62
     7
370
    25
100
AcDbLine
 10
420.94
 20
213.76
 30
0.0
 11
420.94
 21
179.36
 31
0.0
  0
LINE
  5
1FE
330
1F
100
AcDbEntity
  8
0
  6
Continuous
 62
     7
370
    25
100
AcDbLine
 10
411.94
 20
179.36
 30
0.0
 11
420.94
 21
179.36
 31
0.0
  0
LINE
  5
1FF
330
1F
100
AcDbEntity
  8
0
  6
Continuous
 62
     7
370
    25
100
AcDbLine
 10
411.94
 20
181.06
 30
0.0
 11
411.94
 21
179.36
 31
0.0
  0
LINE
  5
200
330
1F
100
AcDbEntity
  8
0
  6
Continuous
 62
     7
370
    25
100
AcDbLine
 10
420.94
 20
179.06
 30
0.0
 11
411.94
 21
179.06
 31
0.0
  0
LINE
  5
201
330
1F
100
AcDbEntity
  8
0
  6
Continuous
 62
     7
370
    25
100
AcDbLine
 10
411.94
 20
179.06
 30
0.0
 11
411.94
 21
179.36
 31
0.0
  0
LINE
  5
202
330
1F
100
AcDbEntity
  8
0
  6
Continuous
 62
     7
370
    25
100
AcDbLine
 10
420.94
 20
179.36
 30
0.0
 11
420.94
 21
179.06
 31
0.0
  0
LINE
  5
203
330
1F
100
AcDbEntity
  8
0
  6
Continuous
 62
     7
370
    25
100
AcDbLine
 10
364.94
 20
213.76
 30
0.0
 11
364.94
 21
214.06
 31
0.0
  0
LINE
  5
204
330
1F
100
AcDbEntity
  8
0
  6
Continuous
 62
     7
370
    25
100
AcDbLine
 10
364.94
 20
214.06
 30
0.0
 11
420.94
 21
214.06
 31
0.0
  0
LINE
  5
205
330
1F
100
AcDbEntity
  8
0
  6
Continuous
 62
     7
370
    25
100
AcDbLine
 10
420.94
 20
214.06
 30
0.0
 11
420.94
 21
213.76
 31
0.0
  0
LINE
  5
206
330
1F
100
AcDbEntity
  8
0
  6
Continuous
 62
     7
370
    25
100
AcDbLine
 10
403.94
 20
179.06
 30
0.0
 11
364.94
 21
179.06
 31
0.0
  0
LINE
  5
207
330
1F
100
AcDbEntity
  8
0
  6
Continuous
 62
     7
370
    25
100
AcDbLine
 10
364.94
 20
179.06
 30
0.0
 11
364.94
 21
179.36
 31
0.0
  0
LINE
  5
208
330
1F
100
AcDbEntity
  8
0
  6
Continuous
 62
     7
370
    25
100
AcDbLine
 10
403.94
 20
179.36
 30
0.0
 11
403.94
 21
179.06
 31
0.0
  0
LINE
  5
209
330
1F
100
AcDbEntity
  8
0
  6
Continuous
 62
     7
370
    25
100
AcDbLine
 10
389.9700480769
 20
211.0792307692
 30
0.0
 11
390.315
 21
209.7344791667
 31
0.0
  0
LINE
  5
20A
330
1F
100
AcDbEntity
  8
0
  6
Continuous
 62
     7
370
    25
100
AcDbLine
 10
390.6599519231
 20
211.0792307692
 30
0.0
 11
389.9700480769
 21
211.0792307692
 31
0.0
  0
LINE
  5
20B
330
1F
100
AcDbEntity
  8
0
  6
Continuous
 62
     7
370
    25
100
AcDbLine
 10
390.315
 20
209.7344791667
 30
0.0
 11
390.6599519231
 21
211.0792307692
 31
0.0
  0
SPLINE
  5
20C
330
1F
100
AcDbEntity
  8
0
  6
Continuous
 62
     7
370
    25
100
AcDbSpline
210
0.0
220
0.0
230
1.0
 70
     8
 71
     3
 72
    12
 73
     8
 74
     0
 42
0.000000001
 43
0.00000001
 40
0.0
 40
0.0
 40
0.0
 40
0.0
 40
0.12467637093388
 40
0.2496781308627198
 40
0.4989138265478621
 40
0.7493123986008622
 40
1.0
 40
1.0
 40
1.0
 40
1.0
 10
381.5916426282052
 20
212.2907692307667
 30
0.0
 10
381.5121494476667
 20
212.2812905848279
 30
0.0
 10
381.3529556198024
 20
212.2623085549262
 30
0.0
 10
381.0849536658783
 20
212.0777429719788
 30
0.0
 10
380.8561914762423
 20
211.7444891862593
 30
0.0
 10
380.7130481022019
 20
211.2847722997162
 30
0.0
 10
380.6976856544497
 20
210.966916303361
 30
0.0
 10
380.6900000000001
 20
210.8078966346128
 30
0.0
  0
SPLINE
  5
20D
330
1F
100
AcDbEntity
  8
0
  6
Continuous
 62
     7
370
    25
100
AcDbSpline
210
0.0
220
0.0
230
1.0
 70
     8
 71
     3
 72
    12
 73
     8
 74
     0
 42
0.000000001
 43
0.00000001
 40
0.0
 40
0.0
 40
0.0
 40
0.0
 40
0.2506351414332831
 40
0.5009640909924613
 40
0.750298944661772
 40
0.8753629805214633
 40
0.9999999999999999
 40
0.9999999999999999
 40
0.9999999999999999
 40
0.9999999999999999
 10
380.6900000000001
 20
210.8078966346128
 30
0.0
 10
380.6976536514909
 20
210.6496295671568
 30
0.0
 10
380.7129516042837
 20
210.3332887813884
 30
0.0
 10
380.8586300232221
 20
209.8755059201391
 30
0.0
 10
381.0911937567308
 20
209.5488477882131
 30
0.0
 10
381.3539692510321
 20
209.3595381279645
 30
0.0
 10
381.5125085423799
 20
209.339321698031
 30
0.0
 10
381.5916426282052
 20
209.3292307692282
 30
0.0
  0
SPLINE
  5
20E
330
1F
100
AcDbEntity
  8
0
  6
Continuous
 62
     7
370
    25
100
AcDbSpline
210
0.0
220
0.0
230
1.0
 70
     8
 71
     3
 72
    12
 73
     8
 74
     0
 42
0.000000001
 43
0.00000001
 40
0.0
 40
0.0
 40
0.0
 40
0.0
 40
0.1245769724718812
 40
0.2496280707369255
 40
0.4989834546192737
 40
0.749341528271184
 40
1.0
 40
1.0
 40
1.0
 40
1.0
 10
381.5916426282052
 20
209.3292307692282
 30
0.0
 10
381.6710496143149
 20
209.3398163476099
 30
0.0
 10
381.8301658004951
 20
209.3610277918809
 30
0.0
 10
382.0915959758023
 20
209.5550454491927
 30
0.0
 10
382.3186428331771
 20
209.8872911395481
 30
0.0
 10
382.462010098106
 20
210.3473742757363
 30
0.0
 10
382.4772481838139
 20
210.6650762202323
 30
0.0
 10
382.4848717948719
 20
210.8240224358949
 30
0.0
  0
SPLINE
  5
20F
330
1F
100
AcDbEntity
  8
0
  6
Continuous
 62
     7
370
    25
100
AcDbSpline
210
0.0
220
0.0
230
1.0
 70
     8
 71
     3
 72
    12
 73
     8
 74
     0
 42
0.000000001
 43
0.00000001
 40
0.0
 40
0.0
 40
0.0
 40
0.0
 40
0.2505491776646414
 40
0.5007740908799114
 40
0.7503178536455941
 40
0.8752463716968213
 40
0.9999999999999999
 40
0.9999999999999999
 40
0.9999999999999999
 40
0.9999999999999999
 10
382.4848717948719
 20
210.8240224358949
 30
0.0
 10
382.4778995082333
 20
210.981359995576
 30
0.0
 10
382.4639639585924
 20
211.2958314863427
 30
0.0
 10
382.3124925342833
 20
211.7469107041204
 30
0.0
 10
382.0918449977416
 20
212.0785384597827
 30
0.0
 10
381.8280997554916
 20
212.2643198040957
 30
0.0
 10
381.6704248561964
 20
212.2819568731687
 30
0.0
 10
381.5916426282052
 20
212.2907692307667
 30
0.0
  0
SPLINE
  5
210
330
1F
100
AcDbEntity
  8
0
  6
Continuous
 62
     7
370
    25
100
AcDbSpline
210
0.0
220
0.0
230
1.0
 70
     8
 71
     3
 72
    12
 73
     8
 74
     0
 42
0.000000001
 43
0.00000001
 40
0.0
 40
0.0
 40
0.0
 40
0.0
 40
0.1246763709338788
 40
0.249678130862722
 40
0.4989138265478639
 40
0.7493123986008626
 40
1.0
 40
1.0
 40
1.0
 40
1.0
 10
377.4634375000001
 20
212.2907692307667
 30
0.0
 10
377.3839443194616
 20
212.2812905848279
 30
0.0
 10
377.2247504915973
 20
212.2623085549262
 30
0.0
 10
376.9567485376732
 20
212.0777429719788
 30
0.0
 10
376.7279863480372
 20
211.7444891862592
 30
0.0
 10
376.5848429739967
 20
211.2847722997162
 30
0.0
 10
376.5694805262445
 20
210.966916303361
 30
0.0
 10
376.561794871795
 20
210.8078966346128
 30
0.0
  0
SPLINE
  5
211
330
1F
100
AcDbEntity
  8
0
  6
Continuous
 62
     7
370
    25
100
AcDbSpline
210
0.0
220
0.0
230
1.0
 70
     8
 71
     3
 72
    12
 73
     8
 74
     0
 42
0.000000001
 43
0.00000001
 40
0.0
 40
0.0
 40
0.0
 40
0.0
 40
0.2505491776646441
 40
0.5007740908799113
 40
0.7503178536455968
 40
0.8752463716968242
 40
1.0
 40
1.0
 40
1.0
 40
1.0
 10
378.3566666666668
 20
210.8240224358949
 30
0.0
 10
378.3496943800282
 20
210.981359995576
 30
0.0
 10
378.3357588303873
 20
211.2958314863427
 30
0.0
 10
378.1842874060781
 20
211.7469107041204
 30
0.0
 10
377.9636398695365
 20
212.0785384597827
 30
0.0
 10
377.6998946272864
 20
212.2643198040957
 30
0.0
 10
377.5422197279913
 20
212.2819568731687
 30
0.0
 10
377.4634375000001
 20
212.2907692307667
 30
0.0
  0
SPLINE
  5
212
330
1F
100
AcDbEntity
  8
0
  6
Continuous
 62
     7
370
    25
100
AcDbSpline
210
0.0
220
0.0
230
1.0
 70
     8
 71
     3
 72
    12
 73
     8
 74
     0
 42
0.000000001
 43
0.00000001
 40
0.0
 40
0.0
 40
0.0
 40
0.0
 40
0.2506351414332839
 40
0.5009640909924623
 40
0.75029894466177
 40
0.8753629805214626
 40
0.9999999999999999
 40
0.9999999999999999
 40
0.9999999999999999
 40
0.9999999999999999
 10
376.561794871795
 20
210.8078966346128
 30
0.0
 10
376.5694485232858
 20
210.6496295671568
 30
0.0
 10
376.5847464760785
 20
210.3332887813884
 30
0.0
 10
376.7304248950169
 20
209.8755059201391
 30
0.0
 10
376.9629886285257
 20
209.5488477882132
 30
0.0
 10
377.2257641228269
 20
209.3595381279645
 30
0.0
 10
377.3843034141747
 20
209.339321698031
 30
0.0
 10
377.4634375000001
 20
209.3292307692282
 30
0.0
  0
SPLINE
  5
213
330
1F
100
AcDbEntity
  8
0
  6
Continuous
 62
     7
370
    25
100
AcDbSpline
210
0.0
220
0.0
230
1.0
 70
     8
 71
     3
 72
    12
 73
     8
 74
     0
 42
0.000000001
 43
0.00000001
 40
0.0
 40
0.0
 40
0.0
 40
0.0
 40
0.1245769724718847
 40
0.2496280707369253
 40
0.4989834546192732
 40
0.7493415282711854
 40
1.0
 40
1.0
 40
1.0
 40
1.0
 10
377.4634375000001
 20
209.3292307692282
 30
0.0
 10
377.5428444861098
 20
209.3398163476099
 30
0.0
 10
377.7019606722899
 20
209.3610277918809
 30
0.0
 10
377.9633908475972
 20
209.5550454491927
 30
0.0
 10
378.1904377049719
 20
209.8872911395481
 30
0.0
 10
378.3338049699009
 20
210.3473742757363
 30
0.0
 10
378.3490430556088
 20
210.6650762202323
 30
0.0
 10
378.3566666666668
 20
210.8240224358949
 30
0.0
  0
LINE
  5
214
330
1F
100
AcDbEntity
  8
0
  6
Continuous
 62
     7
370
    25
100
AcDbLine
 10
373.4740544872
 20
211.0792307692
 30
0.0
 11
372.784150641
 21
211.0792307692
 31
0.0
  0
LINE
  5
215
330
1F
100
AcDbEntity
  8
0
  6
Continuous
 62
     7
370
    25
100
AcDbLine
 10
372.784150641
 20
211.0792307692
 30
0.0
 11
373.1291025641
 21
209.7344791667
 31
0.0
  0
LINE
  5
216
330
1F
100
AcDbEntity
  8
0
  6
Continuous
 62
     7
370
    25
100
AcDbLine
 10
373.1291025641
 20
209.7344791667
 30
0.0
 11
373.4740544872
 21
211.0792307692
 31
0.0
  0
SPLINE
  5
217
330
1F
100
AcDbEntity
  8
0
  6
Continuous
 62
     7
370
    25
100
AcDbSpline
210
0.0
220
0.0
230
1.0
 70
     8
 71
     3
 72
    11
 73
     7
 74
     0
 42
0.000000001
 43
0.00000001
 40
0.0
 40
0.0
 40
0.0
 40
0.0
 40
0.1252383510079264
 40
0.2507095095621852
 40
0.500684794879971
 40
1.0
 40
1.0
 40
1.0
 40
1.0
 10
366.6900000000001
 20
212.2907692307667
 30
0.0
 10
366.635751754684
 20
212.2848184382465
 30
0.0
 10
366.5271544211325
 20
212.2729057911842
 30
0.0
 10
366.3411718376594
 20
212.1530460485872
 30
0.0
 10
366.1149876941693
 20
211.8364127346213
 30
0.0
 10
366.0830665872047
 20
211.5086705693392
 30
0.0
 10
366.061794871795
 20
211.2902684294846
 30
0.0
  0
SPLINE
  5
218
330
1F
100
AcDbEntity
  8
0
  6
Continuous
 62
     7
370
    25
100
AcDbSpline
210
0.0
220
0.0
230
1.0
 70
     8
 71
     3
 72
    11
 73
     7
 74
     0
 42
0.000000001
 43
0.00000001
 40
0.0
 40
0.0
 40
0.0
 40
0.0
 40
0.4992930200825774
 40
0.7492746929161459
 40
0.8747539920694997
 40
1.0
 40
1.0
 40
1.0
 40
1.0
 10
367.3182051282052
 20
211.2902684294846
 30
0.0
 10
367.296906866035
 20
211.5086454152586
 30
0.0
 10
367.2649451757943
 20
211.8363574848739
 30
0.0
 10
367.0388457646804
 20
212.1530407882769
 30
0.0
 10
366.8528525053825
 20
212.2729029026812
 30
0.0
 10
366.7442504849868
 20
212.2848174834399
 30
0.0
 10
366.6900000000001
 20
212.2907692307667
 30
0.0
  0
SPLINE
  5
219
330
1F
100
AcDbEntity
  8
0
  6
Continuous
 62
     7
370
    25
100
AcDbSpline
210
0.0
220
0.0
230
1.0
 70
     8
 71
     3
 72
    11
 73
     7
 74
     0
 42
0.000000001
 43
0.00000001
 40
0.0
 40
0.0
 40
0.0
 40
0.0
 40
0.4989901191017467
 40
0.7494656583161072
 40
0.8748113416411794
 40
1.0
 40
1.0
 40
1.0
 40
1.0
 10
366.061794871795
 20
211.2902684294846
 30
0.0
 10
366.0843492246797
 20
211.0701704511646
 30
0.0
 10
366.1182250716865
 20
210.7395910070012
 30
0.0
 10
366.3422674741604
 20
210.4193106378871
 30
0.0
 10
366.5254902076651
 20
210.2907569269287
 30
0.0
 10
366.635186320276
 20
210.2779419393586
 30
0.0
 10
366.6900000000001
 20
210.2715384615359
 30
0.0
  0
SPLINE
  5
21A
330
1F
100
AcDbEntity
  8
0
  6
Continuous
 62
     7
370
    25
100
AcDbSpline
210
0.0
220
0.0
230
1.0
 70
     8
 71
     3
 72
    11
 73
     7
 74
     0
 42
0.000000001
 43
0.00000001
 40
0.0
 40
0.0
 40
0.0
 40
0.0
 40
0.1252064616421751
 40
0.2505310710863859
 40
0.5009789373972884
 40
1.0
 40
1.0
 40
1.0
 40
1.0
 10
366.6900000000001
 20
210.2715384615359
 30
0.0
 10
366.7448409257449
 20
210.2778984490344
 30
0.0
 10
366.8545745264394
 20
210.2906244254673
 30
0.0
 10
367.0381270932841
 20
210.4188091223355
 30
0.0
 10
367.2623120547878
 20
210.739306890604
 30
0.0
 10
367.295864684086
 20
211.0700492731809
 30
0.0
 10
367.3182051282052
 20
211.2902684294846
 30
0.0
  0
CIRCLE
  5
21B
330
1F
100
AcDbEntity
  8
0
  6
Continuous
 62
     7
370
    25
100
AcDbCircle
 10
410.44
 20
196.56
 30
0.0
 40
6.579999999999984
  0
CIRCLE
  5
21C
330
1F
100
AcDbEntity
  8
0
  6
Continuous
 62
     7
370
    25
100
AcDbCircle
 10
385.44
 20
196.56
 30
0.0
 40
6.579999999999984
  0
CIRCLE
  5
21D
330
1F
100
AcDbEntity
  8
0
  6
Continuous
 62
     7
370
    25
100
AcDbCircle
 10
410.44
 20
196.56
 30
0.0
 40
1.25
  0
CIRCLE
  5
21E
330
1F
100
AcDbEntity
  8
0
  6
Continuous
 62
     7
370
    25
100
AcDbCircle
 10
385.44
 20
196.56
 30
0.0
 40
1.249999999999943
  0
DIMENSION
  5
21F
330
1F
100
AcDbEntity
  8
0
  6
Continuous
 62
     7
370
    18
100
AcDbDimension
  2
_D_3
 10
230.94
 20
205.56
 30
0.0
 11
230.94
 21
196.56
 31
0.0
 70
   160
  1
%%c<>
 71
     2
 42
-1.0
  3
SLDDIMSTYLE2
100
AcDbAlignedDimension
 13
246.44
 23
187.56
 33
0.0
 14
246.44
 24
205.56
 34
0.0
 50
90.0
100
AcDbRotatedDimension
  0
DIMENSION
  5
22E
330
1F
100
AcDbEntity
  8
0
  6
Continuous
 62
     7
370
    18
100
AcDbDimension
  2
_D_4
 10
224.94
 20
211.56
 30
0.0
 11
224.94
 21
196.56
 31
0.0
 70
   160
  1
%%c<>
 71
     2
 42
-1.0
  3
SLDDIMSTYLE0
100
AcDbAlignedDimension
 13
362.94
 23
181.56
 33
0.0
 14
362.94
 24
211.56
 34
0.0
 50
90.0
100
AcDbRotatedDimension
  0
DIMENSION
  5
239
330
1F
100
AcDbEntity
  8
0
  6
Continuous
 62
     7
370
    18
100
AcDbDimension
  2
_D_5
 10
364.94
 20
224.06
 30
0.0
 11
349.7712497564
 21
224.06
 31
0.0
 70
   160
  1
<>
 71
     2
 42
-1.0
  3
SLDDIMSTYLE2
100
AcDbAlignedDimension
 13
361.94
 23
210.56
 33
0.0
 14
364.94
 24
214.06
 34
0.0
100
AcDbRotatedDimension
  0
DIMENSION
  5
245
330
1F
100
AcDbEntity
  8
0
  6
Continuous
 62
     7
370
    18
100
AcDbDimension
  2
_D_6
 10
403.94
 20
169.06
 30
0.0
 11
424.1087502436
 21
169.06
 31
0.0
 70
   160
  1
<>
 71
     2
 42
-1.0
  3
SLDDIMSTYLE2
100
AcDbAlignedDimension
 13
411.94
 23
179.06
 33
0.0
 14
403.94
 24
179.06
 34
0.0
 50
0.0
100
AcDbRotatedDimension
  0
DIMENSION
  5
252
330
1F
100
AcDbEntity
  8
0
  6
Continuous
 62
     7
370
    18
100
AcDbDimension
  2
_D_7
 10
436.94
 20
181.06
 30
0.0
 11
436.94
 21
166.8912497564
 31
0.0
 70
   160
  1
<>
 71
     2
 42
-1.0
  3
SLDDIMSTYLE2
100
AcDbAlignedDimension
 13
420.94
 23
179.06
 33
0.0
 14
411.94
 24
181.06
 34
0.0
 50
90.0
100
AcDbRotatedDimension
  0
DIMENSION
  5
25E
330
1F
100
AcDbEntity
  8
0
  6
Continuous
 62
     7
370
    18
100
AcDbDimension
  2
_D_8
 10
420.94
 20
163.06
 30
0.0
 11
392.94
 21
163.06
 31
0.0
 70
   160
  1
<>
 71
     2
 42
-1.0
  3
SLDDIMSTYLE0
100
AcDbAlignedDimension
 13
364.94
 23
179.06
 33
0.0
 14
420.94
 24
179.06
 34
0.0
100
AcDbRotatedDimension
  0
DIMENSION
  5
268
330
1F
100
AcDbEntity
  8
0
  6
Continuous
 62
     7
370
    18
100
AcDbDimension
  2
_D_9
 10
240.94
 20
169.06
 30
0.0
 11
73.2816633099
 21
169.06
 31
0.0
 70
   160
  1
<>
 71
     2
 42
-1.0
  3
SLDDIMSTYLE0
100
AcDbAlignedDimension
 13
364.94
 23
179.06
 33
0.0
 14
240.94
 24
189.06
 34
0.0
 50
0.0
100
AcDbRotatedDimension
  0
DIMENSION
  5
273
330
1F
100
AcDbEntity
  8
0
  6
Continuous
 62
     7
370
    18
100
AcDbDimension
  2
_D_10
 10
409.5561165235
 20
195.6761165235
 30
0.0
 11
430.94001
 21
217.06001
 31
0.0
 70
   163
  1
<>
 71
     1
 42
-1.0
  3
SLDDIMSTYLE3
100
AcDbDiametricDimension
 15
411.3238834765
 25
197.4438834765
 35
0.0
 40
0.0
  0
DIMENSION
  5
27D
330
1F
100
AcDbEntity
  8
0
  6
Continuous
 62
     7
370
    18
100
AcDbDimension
  2
_D_11
 10
407.1441191889
 20
190.8649521794
 30
0.0
 11
433.2997464132
 21
236.06001
 31
0.0
 70
   163
  1
1/4
 71
     1
 42
-1.0
  3
SLDDIMSTYLE4
100
AcDbDiametricDimension
 15
413.7358808111
 25
202.2550478206
 35
0.0
 40
0.0
  0
INSERT
  5
292
330
1F
100
AcDbEntity
  8
0
  6
Continuous
 62
     7
370
     0
100
AcDbBlockReference
  2
SW_CENTERMARKSYMBOL_1
 10
385.44
 20
196.56
 30
0.0
  0
INSERT
  5
29E
330
1F
100
AcDbEntity
  8
0
  6
Continuous
 62
     7
370
     0
100
AcDbBlockReference
  2
SW_CENTERMARKSYMBOL_2
 10
410.44
 20
196.56
 30
0.0
  0
LINE
  5
29F
330
1F
100
AcDbEntity
  8
0
  6
CENTERX2
 62
     7
370
    18
100
AcDbLine
 10
384.94
 20
196.56
 30
0.0
 11
244.44
 21
196.56
 31
0.0
  0
LINE
  5
2A0
330
1F
100
AcDbEntity
  8
0
  6
CENTERX2
 62
     7
370
    18
100
AcDbLine
 10
247.94
 20
196.56
 30
0.0
 11
239.24
 21
196.56
 31
0.0
  0
LINE
  5
2A1
330
1F
100
AcDbEntity
  8
0
  6
CENTERX2
 62
     7
370
    18
100
AcDbLine
 10
386.44
 20
196.56
 30
0.0
 11
422.94
 21
196.56
 31
0.0
  0
LINE
  5
2A2
330
1F
100
AcDbEntity
  8
0
  6
Continuous
 62
     7
370
    25
100
AcDbLine
 10
260.44
 20
77.56
 30
0.0
 11
260.94
 21
78.06
 31
0.0
  0
LINE
  5
2A3
330
1F
100
AcDbEntity
  8
0
  6
Continuous
 62
     7
370
    25
100
AcDbLine
 10
260.94
 20
95.06
 30
0.0
 11
260.44
 21
95.56
 31
0.0
  0
LINE
  5
2A4
330
1F
100
AcDbEntity
  8
0
  6
Continuous
 62
     7
370
    25
100
AcDbLine
 10
144.94
 20
77.56
 30
0.0
 11
260.44
 21
77.56
 31
0.0
  0
LINE
  5
2A5
330
1F
100
AcDbEntity
  8
0
  6
Continuous
 62
     7
370
    25
100
AcDbLine
 10
260.44
 20
95.56
 30
0.0
 11
144.94
 21
95.56
 31
0.0
  0
LINE
  5
2A6
330
1F
100
AcDbEntity
  8
0
  6
Continuous
 62
     7
370
    25
100
AcDbLine
 10
143.94
 20
71.56
 30
0.0
 11
144.94
 21
72.56
 31
0.0
  0
LINE
  5
2A7
330
1F
100
AcDbEntity
  8
0
  6
Continuous
 62
     7
370
    25
100
AcDbLine
 10
144.94
 20
100.56
 30
0.0
 11
143.94
 21
101.56
 31
0.0
  0
LINE
  5
2A8
330
1F
100
AcDbEntity
  8
0
  6
Continuous
 62
     7
370
    25
100
AcDbLine
 10
141.94
 20
71.56
 30
0.0
 11
143.94
 21
71.56
 31
0.0
  0
LINE
  5
2A9
330
1F
100
AcDbEntity
  8
0
  6
Continuous
 62
     7
370
    25
100
AcDbLine
 10
143.94
 20
101.56
 30
0.0
 11
141.94
 21
101.56
 31
0.0
  0
LINE
  5
2AA
330
1F
100
AcDbEntity
  8
0
  6
Continuous
 62
     7
370
    25
100
AcDbLine
 10
260.44
 20
77.56
 30
0.0
 11
260.44
 21
95.56
 31
0.0
  0
LINE
  5
2AB
330
1F
100
AcDbEntity
  8
0
  6
Continuous
 62
     7
370
    25
100
AcDbLine
 10
260.94
 20
95.06
 30
0.0
 11
260.94
 21
94.06
 31
0.0
  0
LINE
  5
2AC
330
1F
100
AcDbEntity
  8
0
  6
Continuous
 62
     7
370
    25
100
AcDbLine
 10
260.94
 20
94.06
 30
0.0
 11
260.94
 21
90.56
 31
0.0
  0
LINE
  5
2AD
330
1F
100
AcDbEntity
  8
0
  6
Continuous
 62
     7
370
    25
100
AcDbLine
 10
260.94
 20
90.56
 30
0.0
 11
260.94
 21
82.56
 31
0.0
  0
LINE
  5
2AE
330
1F
100
AcDbEntity
  8
0
  6
Continuous
 62
     7
370
    25
100
AcDbLine
 10
260.94
 20
82.56
 30
0.0
 11
260.94
 21
79.06
 31
0.0
  0
LINE
  5
2AF
330
1F
100
AcDbEntity
  8
0
  6
Continuous
 62
     7
370
    25
100
AcDbLine
 10
260.94
 20
79.06
 30
0.0
 11
260.94
 21
78.06
 31
0.0
  0
LINE
  5
2B0
330
1F
100
AcDbEntity
  8
0
  6
Continuous
 62
     7
370
    25
100
AcDbLine
 10
260.94
 20
82.56
 30
0.0
 11
265.64
 21
82.56
 31
0.0
  0
LINE
  5
2B1
330
1F
100
AcDbEntity
  8
0
  6
Continuous
 62
     7
370
    25
100
AcDbLine
 10
265.64
 20
79.06
 30
0.0
 11
265.64
 21
82.56
 31
0.0
  0
LINE
  5
2B2
330
1F
100
AcDbEntity
  8
0
  6
Continuous
 62
     7
370
    25
100
AcDbLine
 10
260.94
 20
79.06
 30
0.0
 11
265.64
 21
79.06
 31
0.0
  0
LINE
  5
2B3
330
1F
100
AcDbEntity
  8
0
  6
Continuous
 62
     7
370
    25
100
AcDbLine
 10
265.64
 20
82.56
 30
0.0
 11
265.94
 21
83.2448831091
 31
0.0
  0
LINE
  5
2B4
330
1F
100
AcDbEntity
  8
0
  6
Continuous
 62
     7
370
    25
100
AcDbLine
 10
265.94
 20
83.2448831091
 30
0.0
 11
265.94
 21
79.06
 31
0.0
  0
LINE
  5
2B5
330
1F
100
AcDbEntity
  8
0
  6
Continuous
 62
     7
370
    25
100
AcDbLine
 10
265.94
 20
79.06
 30
0.0
 11
265.64
 21
79.06
 31
0.0
  0
LINE
  5
2B6
330
1F
100
AcDbEntity
  8
0
  6
Continuous
 62
     7
370
    25
100
AcDbLine
 10
265.64
 20
90.56
 30
0.0
 11
265.64
 21
94.06
 31
0.0
  0
LINE
  5
2B7
330
1F
100
AcDbEntity
  8
0
  6
Continuous
 62
     7
370
    25
100
AcDbLine
 10
265.64
 20
94.06
 30
0.0
 11
265.94
 21
94.06
 31
0.0
  0
LINE
  5
2B8
330
1F
100
AcDbEntity
  8
0
  6
Continuous
 62
     7
370
    25
100
AcDbLine
 10
265.94
 20
94.06
 30
0.0
 11
265.94
 21
89.8751168908
 31
0.0
  0
LINE
  5
2B9
330
1F
100
AcDbEntity
  8
0
  6
Continuous
 62
     7
370
    25
100
AcDbLine
 10
265.94
 20
89.8751168908
 30
0.0
 11
265.64
 21
90.56
 31
0.0
  0
LINE
  5
2BA
330
1F
100
AcDbEntity
  8
0
  6
Continuous
 62
     7
370
    25
100
AcDbLine
 10
260.94
 20
90.56
 30
0.0
 11
265.64
 21
90.56
 31
0.0
  0
LINE
  5
2BB
330
1F
100
AcDbEntity
  8
0
  6
Continuous
 62
     7
370
    25
100
AcDbLine
 10
265.94
 20
89.8751168908
 30
0.0
 11
265.94
 21
83.2448831091
 31
0.0
  0
LINE
  5
2BC
330
1F
100
AcDbEntity
  8
0
  6
Continuous
 62
     7
370
    25
100
AcDbLine
 10
260.94
 20
94.06
 30
0.0
 11
265.64
 21
94.06
 31
0.0
  0
LINE
  5
2BD
330
1F
100
AcDbEntity
  8
0
  6
Continuous
 62
     7
370
    25
100
AcDbLine
 10
144.94
 20
100.56
 30
0.0
 11
144.94
 21
72.56
 31
0.0
  0
LINE
  5
2BE
330
1F
100
AcDbEntity
  8
0
  6
Continuous
 62
     7
370
    25
100
AcDbLine
 10
143.94
 20
71.56
 30
0.0
 11
143.94
 21
101.56
 31
0.0
  0
LINE
  5
2BF
330
1F
100
AcDbEntity
  8
0
  6
Continuous
 62
     7
370
    25
100
AcDbLine
 10
131.2282612179
 20
63.701025641
 30
0.0
 11
131.081025641
 21
63.701025641
 31
0.0
  0
SPLINE
  5
2C0
330
1F
100
AcDbEntity
  8
0
  6
Continuous
 62
     7
370
    25
100
AcDbSpline
210
0.0
220
0.0
230
1.0
 70
     8
 71
     3
 72
     9
 73
     5
 74
     0
 42
0.000000001
 43
0.00000001
 40
0.0
 40
0.0
 40
0.0
 40
0.0
 40
0.5588328183272322
 40
1.0
 40
1.0
 40
1.0
 40
1.0
 10
131.8739943910256
 20
63.60286858972871
 30
0.0
 10
131.756041991592
 20
63.63775785923044
 30
0.0
 10
131.5449727852655
 20
63.70019025109703
 30
0.0
 10
131.3252123221184
 20
63.70076991314066
 30
0.0
 10
131.2282612179487
 20
63.70102564101077
 30
0.0
  0
SPLINE
  5
2C1
330
1F
100
AcDbEntity
  8
0
  6
Continuous
 62
     7
370
    25
100
AcDbSpline
210
0.0
220
0.0
230
1.0
 70
     8
 71
     3
 72
    10
 73
     6
 74
     0
 42
0.000000001
 43
0.00000001
 40
0.0
 40
0.0
 40
0.0
 40
0.0
 40
0.559902288346146
 40
0.780508580994785
 40
1.0
 40
1.0
 40
1.0
 40
1.0
 10
132.4271794871795
 20
62.26653044870307
 30
0.0
 10
132.4076520054193
 20
62.54990832303182
 30
0.0
 10
132.3804305287504
 20
62.94493950468849
 30
0.0
 10
132.1477328915811
 20
63.40792539483882
 30
0.0
 10
131.965086328613
 20
63.53799735931739
 30
0.0
 10
131.8739943910256
 20
63.60286858972871
 30
0.0
  0
SPLINE
  5
2C2
330
1F
100
AcDbEntity
  8
0
  6
Continuous
 62
     7
370
    25
100
AcDbSpline
210
0.0
220
0.0
230
1.0
 70
     8
 71
     3
 72
    10
 73
     6
 74
     0
 42
0.000000001
 43
0.00000001
 40
0.0
 40
0.0
 40
0.0
 40
0.0
 40
0.2782840619999054
 40
0.5588575699718852
 40
1.0
 40
1.0
 40
1.0
 40
1.0
 10
131.9223717948718
 20
61.0080168269082
 30
0.0
 10
132.0250576935891
 20
61.0926749881367
 30
0.0
 10
132.2312742890172
 20
61.26268779419693
 30
0.0
 10
132.396440026476
 20
61.72084434634961
 30
0.0
 10
132.4155181526909
 20
62.05951874388734
 30
0.0
 10
132.4271794871795
 20
62.26653044870308
 30
0.0
  0
SPLINE
  5
2C3
330
1F
100
AcDbEntity
  8
0
  6
Continuous
 62
     7
370
    25
100
AcDbSpline
210
0.0
220
0.0
230
1.0
 70
     8
 71
     3
 72
     9
 73
     5
 74
     0
 42
0.000000001
 43
0.00000001
 40
0.0
 40
0.0
 40
0.0
 40
0.0
 40
0.5610183281682669
 40
1.0
 40
1.0
 40
1.0
 40
1.0
 10
131.3222115384615
 20
60.91897435895949
 30
0.0
 10
131.4371778828695
 20
60.91870347641704
 30
0.0
 10
131.6421022830819
 20
60.91822063560979
 30
0.0
 10
131.8368716239819
 20
60.98062323117871
 30
0.0
 10
131.9223717948718
 20
61.0080168269082
 30
0.0
  0
LINE
  5
2C4
330
1F
100
AcDbEntity
  8
0
  6
Continuous
 62
     7
370
    25
100
AcDbLine
 10
131.081025641
 20
60.918974359
 30
0.0
 11
131.3222115385
 21
60.918974359
 31
0.0
  0
LINE
  5
2C5
330
1F
100
AcDbEntity
  8
0
  6
Continuous
 62
     7
370
    25
100
AcDbLine
 10
131.081025641
 20
63.701025641
 30
0.0
 11
131.081025641
 21
60.918974359
 31
0.0
  0
SPLINE
  5
2C6
330
1F
100
AcDbEntity
  8
0
  6
Continuous
 62
     7
370
    25
100
AcDbSpline
210
0.0
220
0.0
230
1.0
 70
     8
 71
     3
 72
    11
 73
     7
 74
     0
 42
0.000000001
 43
0.00000001
 40
0.0
 40
0.0
 40
0.0
 40
0.0
 40
0.4993152051200287
 40
0.7492904904378189
 40
0.874761648992074
 40
0.9999999999999999
 40
0.9999999999999999
 40
0.9999999999999999
 40
0.9999999999999999
 10
139.5617948717949
 20
61.82973157049795
 30
0.0
 10
139.5830665872045
 20
61.61132943064336
 30
0.0
 10
139.6149876941692
 20
61.28358726536128
 30
0.0
 10
139.8411718376592
 20
60.96695395139532
 30
0.0
 10
140.0271544211324
 20
60.84709420879837
 30
0.0
 10
140.1357517546838
 20
60.83518156173602
 30
0.0
 10
140.19
 20
60.8292307692159
 30
0.0
  0
SPLINE
  5
2C7
330
1F
100
AcDbEntity
  8
0
  6
Continuous
 62
     7
370
    25
100
AcDbSpline
210
0.0
220
0.0
230
1.0
 70
     8
 71
     3
 72
    11
 73
     7
 74
     0
 42
0.000000001
 43
0.00000001
 40
0.0
 40
0.0
 40
0.0
 40
0.0
 40
0.1252016924080618
 40
0.2505571886795163
 40
0.5009934463009188
 40
1.0
 40
1.0
 40
1.0
 40
1.0
 10
140.19
 20
62.84846153844667
 30
0.0
 10
140.1351469661271
 20
62.84214559015712
 30
0.0
 10
140.0253735142399
 20
62.8295059347592
 30
0.0
 10
139.8418855969988
 20
62.70116094231891
 30
0.0
 10
139.6175866874279
 20
62.38077019476548
 30
0.0
 10
139.5840949204982
 20
62.04998230116857
 30
0.0
 10
139.5617948717949
 20
61.82973157049796
 30
0.0
  0
SPLINE
  5
2C8
330
1F
100
AcDbEntity
  8
0
  6
Continuous
 62
     7
370
    25
100
AcDbSpline
210
0.0
220
0.0
230
1.0
 70
     8
 71
     3
 72
    11
 73
     7
 74
     0
 42
0.000000001
 43
0.00000001
 40
0.0
 40
0.0
 40
0.0
 40
0.0
 40
0.4989953754620793
 40
0.7494681080172558
 40
0.8748125599623205
 40
0.9999999999999999
 40
0.9999999999999999
 40
0.9999999999999999
 40
0.9999999999999999
 10
140.8182051282051
 20
61.82973157049796
 30
0.0
 10
140.7956494408299
 20
62.04983150179108
 30
0.0
 10
140.7617718355985
 20
62.38041147746366
 30
0.0
 10
140.5377296689788
 20
62.70069247092934
 30
0.0
 10
140.3545080432109
 20
62.82924346935788
 30
0.0
 10
140.2448130986086
 20
62.8420581924736
 30
0.0
 10
140.19
 20
62.84846153844667
 30
0.0
  0
SPLINE
  5
2C9
330
1F
100
AcDbEntity
  8
0
  6
Continuous
 62
     7
370
    25
100
AcDbSpline
210
0.0
220
0.0
230
1.0
 70
     8
 71
     3
 72
    11
 73
     7
 74
     0
 42
0.000000001
 43
0.00000001
 40
0.0
 40
0.0
 40
0.0
 40
0.0
 40
0.1252460079305004
 40
0.2507253070838505
 40
0.500706979917423
 40
1.0
 40
1.0
 40
1.0
 40
1.0
 10
140.19
 20
60.8292307692159
 30
0.0
 10
140.2442504849867
 20
60.83518251654266
 30
0.0
 10
140.3528525053824
 20
60.84709709730132
 30
0.0
 10
140.5388457646803
 20
60.96695921170571
 30
0.0
 10
140.7649451757942
 20
61.2836425151087
 30
0.0
 10
140.7969068660349
 20
61.611354584724
 30
0.0
 10
140.8182051282051
 20
61.82973157049796
 30
0.0
  0
SPLINE
  5
2CA
330
1F
100
AcDbEntity
  8
0
  6
Continuous
 62
     7
370
    25
100
AcDbSpline
210
0.0
220
0.0
230
1.0
 70
     8
 71
     3
 72
    12
 73
     8
 74
     0
 42
0.000000001
 43
0.00000001
 40
0.0
 40
0.0
 40
0.0
 40
0.0
 40
0.1246747136910702
 40
0.2496657000227945
 40
0.4989185559859257
 40
0.7493134090849689
 40
1.0
 40
1.0
 40
1.0
 40
1.0
 10
129.4165625
 20
60.82923076921589
 30
0.0
 10
129.4960630566412
 20
60.8387118945685
 30
0.0
 10
129.6552658455502
 20
60.85769819682729
 30
0.0
 10
129.9231297793482
 20
61.04241710534659
 30
0.0
 10
130.1526168604943
 20
61.37520413477345
 30
0.0
 10
130.2949317451831
 20
61.83528849448908
 30
0.0
 10
130.3104443233055
 20
62.15310339606413
 30
0.0
 10
130.3182051282051
 20
62.31210336536974
 30
0.0
  0
SPLINE
  5
2CB
330
1F
100
AcDbEntity
  8
0
  6
Continuous
 62
     7
370
    25
100
AcDbSpline
210
0.0
220
0.0
230
1.0
 70
     8
 71
     3
 72
    12
 73
     8
 74
     0
 42
0.000000001
 43
0.00000001
 40
0.0
 40
0.0
 40
0.0
 40
0.0
 40
0.2505529109482905
 40
0.5007529510956316
 40
0.7503604037653322
 40
0.875253434853484
 40
1.0
 40
1.0
 40
1.0
 40
1.0
 10
128.5233333333333
 20
62.29597756408769
 30
0.0
 10
128.5306064097242
 20
62.13869397158411
 30
0.0
 10
128.545142319335
 20
61.82434829981764
 30
0.0
 10
128.6954291191558
 20
61.37293696776786
 30
0.0
 10
128.9164237831526
 20
61.04143675761166
 30
0.0
 10
129.1801734915662
 20
60.8557687628034
 30
0.0
 10
129.3377969902607
 20
60.83807330638047
 30
0.0
 10
129.4165625
 20
60.82923076921589
 30
0.0
  0
SPLINE
  5
2CC
330
1F
100
AcDbEntity
  8
0
  6
Continuous
 62
     7
370
    25
100
AcDbSpline
210
0.0
220
0.0
230
1.0
 70
     8
 71
     3
 72
    12
 73
     8
 74
     0
 42
0.000000001
 43
0.00000001
 40
0.0
 40
0.0
 40
0.0
 40
0.0
 40
0.1245774920443291
 40
0.2495798829556606
 40
0.4989612118404155
 40
0.7493407093882948
 40
1.0
 40
1.0
 40
1.0
 40
1.0
 10
129.4165625
 20
63.79076923075436
 30
0.0
 10
129.3371579225155
 20
63.78018203703477
 30
0.0
 10
129.1780779408149
 20
63.75897153964874
 30
0.0
 10
128.9165426003144
 20
63.56511232635224
 30
0.0
 10
128.6896864747329
 20
63.23269937452567
 30
0.0
 10
128.5461152320209
 20
62.77267000929969
 30
0.0
 10
128.5309301261483
 20
62.45493418980118
 30
0.0
 10
128.5233333333333
 20
62.29597756408769
 30
0.0
  0
SPLINE
  5
2CD
330
1F
100
AcDbEntity
  8
0
  6
Continuous
 62
     7
370
    25
100
AcDbSpline
210
0.0
220
0.0
230
1.0
 70
     8
 71
     3
 72
    12
 73
     8
 74
     0
 42
0.000000001
 43
0.00000001
 40
0.0
 40
0.0
 40
0.0
 40
0.0
 40
0.2506051305367916
 40
0.500918683194011
 40
0.750360937356505
 40
0.8753758729069742
 40
1.0
 40
1.0
 40
1.0
 40
1.0
 10
130.3182051282051
 20
62.31210336536974
 30
0.0
 10
130.3105196830599
 20
62.47037779666154
 30
0.0
 10
130.2951577347483
 20
62.78674250769576
 30
0.0
 10
130.1494627848192
 20
63.24441468545705
 30
0.0
 10
129.917629480294
 20
63.57198630713454
 30
0.0
 10
129.6541060814781
 20
63.76029748916329
 30
0.0
 10
129.4956610122237
 20
63.78062258983178
 30
0.0
 10
129.4165625
 20
63.79076923075436
 30
0.0
  0
LINE
  5
2CE
330
1F
100
AcDbEntity
  8
0
  6
Continuous
 62
     7
370
    25
100
AcDbLine
 10
102.94
 20
59.36
 30
0.0
 11
141.94
 21
59.36
 31
0.0
  0
LINE
  5
2CF
330
1F
100
AcDbEntity
  8
0
  6
Continuous
 62
     7
370
    25
100
AcDbLine
 10
102.94
 20
59.36
 30
0.0
 11
102.94
 21
113.76
 31
0.0
  0
LINE
  5
2D0
330
1F
100
AcDbEntity
  8
0
  6
Continuous
 62
     7
370
    25
100
AcDbLine
 10
141.94
 20
113.76
 30
0.0
 11
102.94
 21
113.76
 31
0.0
  0
LINE
  5
2D1
330
1F
100
AcDbEntity
  8
0
  6
Continuous
 62
     7
370
    25
100
AcDbLine
 10
141.94
 20
59.36
 30
0.0
 11
141.94
 21
113.76
 31
0.0
  0
CIRCLE
  5
2D2
330
1F
100
AcDbEntity
  8
0
  6
Continuous
 62
     7
370
    25
100
AcDbCircle
 10
108.44
 20
66.56
 30
0.0
 40
3.250000000000007
  0
CIRCLE
  5
2D3
330
1F
100
AcDbEntity
  8
0
  6
Continuous
 62
     7
370
    25
100
AcDbCircle
 10
108.44
 20
106.56
 30
0.0
 40
3.25
  0
SPLINE
  5
2D4
330
1F
100
AcDbEntity
  8
0
  6
Continuous
 62
     7
370
    25
100
AcDbSpline
210
0.0
220
0.0
230
1.0
 70
     8
 71
     3
 72
     9
 73
     5
 74
     0
 42
0.000000001
 43
0.00000001
 40
0.0
 40
0.0
 40
0.0
 40
0.0
 40
0.5600019179101271
 40
1.0
 40
1.0
 40
1.0
 40
1.0
 10
139.3823076923077
 20
61.83183493588257
 30
0.0
 10
139.3906110050852
 20
62.00916377979421
 30
0.0
 10
139.4054382985496
 20
62.3258213451351
 30
0.0
 10
139.537877045216
 20
62.61281144494954
 30
0.0
 10
139.5961498397436
 20
62.73908653844668
 30
0.0
  0
SPLINE
  5
2D5
330
1F
100
AcDbEntity
  8
0
  6
Continuous
 62
     7
370
    25
100
AcDbSpline
210
0.0
220
0.0
230
1.0
 70
     8
 71
     3
 72
    11
 73
     7
 74
     0
 42
0.000000001
 43
0.00000001
 40
0.0
 40
0.0
 40
0.0
 40
0.0
 40
0.1252832470308244
 40
0.250580940515384
 40
0.5007620617270917
 40
1.0
 40
1.0
 40
1.0
 40
1.0
 10
140.1907011217949
 20
60.51512820511333
 30
0.0
 10
140.1195655932466
 20
60.52216579957856
 30
0.0
 10
139.9772863334883
 20
60.53624180001642
 30
0.0
 10
139.7356439062542
 20
60.69738880955827
 30
0.0
 10
139.4554412879034
 20
61.12103330595649
 30
0.0
 10
139.4115479604912
 20
61.54764228659408
 30
0.0
 10
139.3823076923077
 20
61.83183493588257
 30
0.0
  0
SPLINE
  5
2D6
330
1F
100
AcDbEntity
  8
0
  6
Continuous
 62
     7
370
    25
100
AcDbSpline
210
0.0
220
0.0
230
1.0
 70
     8
 71
     3
 72
    11
 73
     7
 74
     0
 42
0.000000001
 43
0.00000001
 40
0.0
 40
0.0
 40
0.0
 40
0.0
 40
0.499218813218502
 40
0.7493807953189894
 40
0.8747214212364928
 40
0.9999999999999999
 40
0.9999999999999999
 40
0.9999999999999999
 40
0.9999999999999999
 10
140.9976923076923
 20
61.83183493588257
 30
0.0
 10
140.9683843278245
 20
61.5478865216921
 30
0.0
 10
140.9243899175959
 20
61.12164960348828
 30
0.0
 10
140.6452474258023
 20
60.69782883008802
 30
0.0
 10
140.404031006466
 20
60.5362324998762
 30
0.0
 10
140.2617993456643
 20
60.52216180884855
 30
0.0
 10
140.1907011217949
 20
60.51512820511333
 30
0.0
  0
SPLINE
  5
2D7
330
1F
100
AcDbEntity
  8
0
  6
Continuous
 62
     7
370
    25
100
AcDbSpline
210
0.0
220
0.0
230
1.0
 70
     8
 71
     3
 72
     9
 73
     5
 74
     0
 42
0.000000001
 43
0.00000001
 40
0.0
 40
0.0
 40
0.0
 40
0.0
 40
0.5593287449576955
 40
1.0
 40
1.0
 40
1.0
 40
1.0
 10
140.7838501602564
 20
62.74118990383129
 30
0.0
 10
140.8547983816629
 20
62.57846376071463
 30
0.0
 10
140.9816436797922
 20
62.28753263195785
 30
0.0
 10
140.9927833675204
 20
61.97122334593555
 30
0.0
 10
140.9976923076923
 20
61.83183493588257
 30
0.0
  0
SPLINE
  5
2D8
330
1F
100
AcDbEntity
  8
0
  6
Continuous
 62
     7
370
    25
100
AcDbSpline
210
0.0
220
0.0
230
1.0
 70
     8
 71
     3
 72
    10
 73
     6
 74
     0
 42
0.000000001
 43
0.00000001
 40
0.0
 40
0.0
 40
0.0
 40
0.0
 40
0.2796942056378951
 40
0.5597380375246975
 40
1.0
 40
1.0
 40
1.0
 40
1.0
 10
140.1907011217949
 20
63.16256410254923
 30
0.0
 10
140.2621379206659
 20
63.15453613594277
 30
0.0
 10
140.4051008165756
 20
63.13847016752787
 30
0.0
 10
140.6236534941506
 20
62.9912759938705
 30
0.0
 10
140.7230794743691
 20
62.83606018791403
 30
0.0
 10
140.7838501602564
 20
62.74118990383129
 30
0.0
  0
SPLINE
  5
2D9
330
1F
100
AcDbEntity
  8
0
  6
Continuous
 62
     7
370
    25
100
AcDbSpline
210
0.0
220
0.0
230
1.0
 70
     8
 71
     3
 72
    10
 73
     6
 74
     0
 42
0.000000001
 43
0.00000001
 40
0.0
 40
0.0
 40
0.0
 40
0.0
 40
0.5586685747843335
 40
0.7793955152712618
 40
1.0
 40
1.0
 40
1.0
 40
1.0
 10
139.5961498397436
 20
62.73908653844668
 30
0.0
 10
139.6762973089538
 20
62.86053624686957
 30
0.0
 10
139.7881106109404
 20
63.02997008000105
 30
0.0
 10
140.0217320002301
 20
63.1482827006885
 30
0.0
 10
140.1343885008328
 20
63.15780451593162
 30
0.0
 10
140.1907011217949
 20
63.16256410254923
 30
0.0
  0
LINE
  5
2DA
330
1F
100
AcDbEntity
  8
0
  6
Continuous
 62
     7
370
    25
100
AcDbLine
 10
137.9015384615
 20
60.56
 30
0.0
 11
137.7220512821
 21
60.56
 31
0.0
  0
LINE
  5
2DB
330
1F
100
AcDbEntity
  8
0
  6
Continuous
 62
     7
370
    25
100
AcDbLine
 10
137.9015384615
 20
61.4195753205
 30
0.0
 11
137.9015384615
 21
60.56
 31
0.0
  0
SPLINE
  5
2DC
330
1F
100
AcDbEntity
  8
0
  6
Continuous
 62
     7
370
    25
100
AcDbSpline
210
0.0
220
0.0
230
1.0
 70
     8
 71
     3
 72
     9
 73
     5
 74
     0
 42
0.000000001
 43
0.00000001
 40
0.0
 40
0.0
 40
0.0
 40
0.0
 40
0.5598536501505464
 40
1.0
 40
1.0
 40
1.0
 40
1.0
 10
137.9386979166667
 20
62.29737980767744
 30
0.0
 10
137.9248694011018
 20
62.13383347489206
 30
0.0
 10
137.9001691681729
 20
61.84171010882772
 30
0.0
 10
137.9011199697117
 20
61.54859074052609
 30
0.0
 10
137.9015384615385
 20
61.41957532049795
 30
0.0
  0
SPLINE
  5
2DD
330
1F
100
AcDbEntity
  8
0
  6
Continuous
 62
     7
370
    25
100
AcDbSpline
210
0.0
220
0.0
230
1.0
 70
     8
 71
     3
 72
    11
 73
     7
 74
     0
 42
0.000000001
 43
0.00000001
 40
0.0
 40
0.0
 40
0.0
 40
0.0
 40
0.1243154872215685
 40
0.2496920049174232
 40
0.4996699758624276
 40
1.0
 40
1.0
 40
1.0
 40
1.0
 10
138.2759375
 20
62.84846153844667
 30
0.0
 10
138.2474096621893
 20
62.84320238987143
 30
0.0
 10
138.1901105019791
 20
62.83263920598131
 30
0.0
 10
138.1027629748762
 20
62.75310958978822
 30
0.0
 10
137.9956321226655
 20
62.58125387145587
 30
0.0
 10
137.9614750050198
 20
62.41094641528054
 30
0.0
 10
137.9386979166667
 20
62.29737980767744
 30
0.0
  0
SPLINE
  5
2DE
330
1F
100
AcDbEntity
  8
0
  6
Continuous
 62
     7
370
    25
100
AcDbSpline
210
0.0
220
0.0
230
1.0
 70
     8
 71
     3
 72
     9
 73
     5
 74
     0
 42
0.000000001
 43
0.00000001
 40
0.0
 40
0.0
 40
0.0
 40
0.0
 40
0.5610727427929593
 40
1.0
 40
1.0
 40
1.0
 40
1.0
 10
138.3825080128205
 20
62.80288862178001
 30
0.0
 10
138.3643606522475
 20
62.81580760091825
 30
0.0
 10
138.3320166098642
 20
62.83883309859961
 30
0.0
 10
138.2930437503375
 20
62.84552449998827
 30
0.0
 10
138.2759375
 20
62.84846153844667
 30
0.0
  0
LINE
  5
2DF
330
1F
100
AcDbEntity
  8
0
  6
Continuous
 62
     7
370
    25
100
AcDbLine
 10
138.4848717949
 20
63.0749238782
 30
0.0
 11
138.3825080128
 21
62.8028886218
 31
0.0
  0
SPLINE
  5
2E0
330
1F
100
AcDbEntity
  8
0
  6
Continuous
 62
     7
370
    25
100
AcDbSpline
210
0.0
220
0.0
230
1.0
 70
     8
 71
     3
 72
     9
 73
     5
 74
     0
 42
0.000000001
 43
0.00000001
 40
0.0
 40
0.0
 40
0.0
 40
0.0
 40
0.5580894598618646
 40
1.0
 40
1.0
 40
1.0
 40
1.0
 10
138.3074879807692
 20
63.16256410254923
 30
0.0
 10
138.3448924442166
 20
63.15472748694715
 30
0.0
 10
138.4119147876534
 20
63.14068562418909
 30
0.0
 10
138.4625122451152
 20
63.0950782552378
 30
0.0
 10
138.4848717948718
 20
63.07492387819026
 30
0.0
  0
SPLINE
  5
2E1
330
1F
100
AcDbEntity
  8
0
  6
Continuous
 62
     7
370
    25
100
AcDbSpline
210
0.0
220
0.0
230
1.0
 70
     8
 71
     3
 72
    10
 73
     6
 74
     0
 42
0.000000001
 43
0.00000001
 40
0.0
 40
0.0
 40
0.0
 40
0.0
 40
0.5604679869639355
 40
0.7808281323003021
 40
1.0
 40
1.0
 40
1.0
 40
1.0
 10
137.9015384615385
 20
62.74118990383129
 30
0.0
 10
137.9490872876519
 20
62.84676721397197
 30
0.0
 10
138.0153309660614
 20
62.99385453351184
 30
0.0
 10
138.1716814532166
 20
63.13891910765069
 30
0.0
 10
138.2623008015829
 20
63.15469665581752
 30
0.0
 10
138.3074879807692
 20
63.16256410254923
 30
0.0
  0
LINE
  5
2E2
330
1F
100
AcDbEntity
  8
0
  6
Continuous
 62
     7
370
    25
100
AcDbLine
 10
137.9015384615
 20
63.1176923077
 30
0.0
 11
137.9015384615
 21
62.7411899038
 31
0.0
  0
LINE
  5
2E3
330
1F
100
AcDbEntity
  8
0
  6
Continuous
 62
     7
370
    25
100
AcDbLine
 10
137.7220512821
 20
63.1176923077
 30
0.0
 11
137.9015384615
 21
63.1176923077
 31
0.0
  0
LINE
  5
2E4
330
1F
100
AcDbEntity
  8
0
  6
Continuous
 62
     7
370
    25
100
AcDbLine
 10
137.7220512821
 20
60.56
 30
0.0
 11
137.7220512821
 21
63.1176923077
 31
0.0
  0
SPLINE
  5
2E5
330
1F
100
AcDbEntity
  8
0
  6
Continuous
 62
     7
370
    25
100
AcDbSpline
210
0.0
220
0.0
230
1.0
 70
     8
 71
     3
 72
    11
 73
     7
 74
     0
 42
0.000000001
 43
0.00000001
 40
0.0
 40
0.0
 40
0.0
 40
0.0
 40
0.4995734263720146
 40
0.7496408895270538
 40
0.8748507448789904
 40
1.0
 40
1.0
 40
1.0
 40
1.0
 10
135.8374358974359
 20
62.49159054485693
 30
0.0
 10
135.8492447130996
 20
62.63635285743077
 30
0.0
 10
135.8669645729061
 20
62.85357767972756
 30
0.0
 10
136.0087304566442
 20
63.06870468080082
 30
0.0
 10
136.1303372154882
 20
63.15159523107883
 30
0.0
 10
136.2024365985272
 20
63.15890840211799
 30
0.0
 10
136.2384775641026
 20
63.16256410254923
 30
0.0
  0
SPLINE
  5
2E6
330
1F
100
AcDbEntity
  8
0
  6
Continuous
 62
     7
370
    25
100
AcDbSpline
210
0.0
220
0.0
230
1.0
 70
     8
 71
     3
 72
     9
 73
     5
 74
     0
 42
0.000000001
 43
0.00000001
 40
0.0
 40
0.0
 40
0.0
 40
0.0
 40
0.5597122590108353
 40
1.0
 40
1.0
 40
1.0
 40
1.0
 10
135.908249198718
 20
62.09756009613898
 30
0.0
 10
135.8846201916105
 20
62.16932834251242
 30
0.0
 10
135.8424038443232
 20
62.29755180951361
 30
0.0
 10
135.8389545704414
 20
62.43227401107179
 30
0.0
 10
135.8374358974359
 20
62.49159054485693
 30
0.0
  0
SPLINE
  5
2E7
330
1F
100
AcDbEntity
  8
0
  6
Continuous
 62
     7
370
    25
100
AcDbSpline
210
0.0
220
0.0
230
1.0
 70
     8
 71
     3
 72
     9
 73
     5
 74
     0
 42
0.000000001
 43
0.00000001
 40
0.0
 40
0.0
 40
0.0
 40
0.0
 40
0.560267315671155
 40
0.9999999999999999
 40
0.9999999999999999
 40
0.9999999999999999
 40
0.9999999999999999
 10
136.1767788461538
 20
61.74840144229282
 30
0.0
 10
136.116191413927
 20
61.80579942485409
 30
0.0
 10
136.0080511913366
 20
61.90824691903372
 30
0.0
 10
135.9387313837744
 20
62.03973881274835
 30
0.0
 10
135.908249198718
 20
62.09756009613897
 30
0.0
  0
SPLINE
  5
2E8
330
1F
100
AcDbEntity
  8
0
  6
Continuous
 62
     7
370
    25
100
AcDbSpline
210
0.0
220
0.0
230
1.0
 70
     8
 71
     3
 72
     9
 73
     5
 74
     0
 42
0.000000001
 43
0.00000001
 40
0.0
 40
0.0
 40
0.0
 40
0.0
 40
0.5593487126569076
 40
1.0
 40
1.0
 40
1.0
 40
1.0
 10
136.4130568910256
 20
61.48477964742102
 30
0.0
 10
136.3747152568693
 20
61.53915199934906
 30
0.0
 10
136.3061683320464
 20
61.63635853741324
 30
0.0
 10
136.2163551433662
 20
61.71413093512248
 30
0.0
 10
136.1767788461538
 20
61.74840144229282
 30
0.0
  0
SPLINE
  5
2E9
330
1F
100
AcDbEntity
  8
0
  6
Continuous
 62
     7
370
    25
100
AcDbSpline
210
0.0
220
0.0
230
1.0
 70
     8
 71
     3
 72
     9
 73
     5
 74
     0
 42
0.000000001
 43
0.00000001
 40
0.0
 40
0.0
 40
0.0
 40
0.0
 40
0.5600778268018413
 40
1.0
 40
1.0
 40
1.0
 40
1.0
 10
136.465641025641
 20
61.24078926280564
 30
0.0
 10
136.4633375391115
 20
61.2880686610084
 30
0.0
 10
136.4592247418907
 20
61.37248442599722
 30
0.0
 10
136.4271620014702
 20
61.45047143356888
 30
0.0
 10
136.4130568910256
 20
61.48477964742102
 30
0.0
  0
SPLINE
  5
2EA
330
1F
100
AcDbEntity
  8
0
  6
Continuous
 62
     7
370
    25
100
AcDbSpline
210
0.0
220
0.0
230
1.0
 70
     8
 71
     3
 72
    11
 73
     7
 74
     0
 42
0.000000001
 43
0.00000001
 40
0.0
 40
0.0
 40
0.0
 40
0.0
 40
0.1862601302698975
 40
0.3732986476973197
 40
0.5609166544164506
 40
1.0
 40
1.0
 40
1.0
 40
1.0
 10
136.1858934294872
 20
60.8292307692159
 30
0.0
 10
136.220133994505
 20
60.83434740696213
 30
0.0
 10
136.2887582169784
 20
60.84460206505055
 30
0.0
 10
136.3647945779901
 20
60.91880046538627
 30
0.0
 10
136.445347112824
 20
61.04392744071968
 30
0.0
 10
136.457280313433
 20
61.15968587707435
 30
0.0
 10
136.465641025641
 20
61.24078926280564
 30
0.0
  0
SPLINE
  5
2EB
330
1F
100
AcDbEntity
  8
0
  6
Continuous
 62
     7
370
    25
100
AcDbSpline
210
0.0
220
0.0
230
1.0
 70
     8
 71
     3
 72
    10
 73
     6
 74
     0
 42
0.000000001
 43
0.00000001
 40
0.0
 40
0.0
 40
0.0
 40
0.0
 40
0.5602130058460001
 40
0.7805388860236457
 40
0.9999999999999999
 40
0.9999999999999999
 40
0.9999999999999999
 40
0.9999999999999999
 10
135.8710897435897
 20
61.09846153844667
 30
0.0
 10
135.9133448745292
 20
61.0291336510619
 30
0.0
 10
135.9722185038239
 20
60.93253983509372
 30
0.0
 10
136.0906718159475
 20
60.84321649315044
 30
0.0
 10
136.1541945271705
 20
60.833886561954
 30
0.0
 10
136.1858934294872
 20
60.8292307692159
 30
0.0
  0
LINE
  5
2EC
330
1F
100
AcDbEntity
  8
0
  6
Continuous
 62
     7
370
    25
100
AcDbLine
 10
135.7476923077
 20
60.8614823718
 30
0.0
 11
135.8710897436
 21
61.0984615384
 31
0.0
  0
SPLINE
  5
2ED
330
1F
100
AcDbEntity
  8
0
  6
Continuous
 62
     7
370
    25
100
AcDbSpline
210
0.0
220
0.0
230
1.0
 70
     8
 71
     3
 72
    10
 73
     6
 74
     0
 42
0.000000001
 43
0.00000001
 40
0.0
 40
0.0
 40
0.0
 40
0.0
 40
0.2793901970033615
 40
0.5598447618830583
 40
1.0
 40
1.0
 40
1.0
 40
1.0
 10
136.1908012820513
 20
60.51512820511333
 30
0.0
 10
136.1357172773046
 20
60.52315628589352
 30
0.0
 10
136.0253394191988
 20
60.53924303131612
 30
0.0
 10
135.8634112692531
 20
60.66352158403286
 30
0.0
 10
135.7915722534836
 20
60.78641681192728
 30
0.0
 10
135.7476923076923
 20
60.86148237178001
 30
0.0
  0
SPLINE
  5
2EE
330
1F
100
AcDbEntity
  8
0
  6
Continuous
 62
     7
370
    25
100
AcDbSpline
210
0.0
220
0.0
230
1.0
 70
     8
 71
     3
 72
    11
 73
     7
 74
     0
 42
0.000000001
 43
0.00000001
 40
0.0
 40
0.0
 40
0.0
 40
0.0
 40
0.4992861974134584
 40
0.7494855930319606
 40
0.8747844742604408
 40
0.9999999999999999
 40
0.9999999999999999
 40
0.9999999999999999
 40
0.9999999999999999
 10
136.6451282051282
 20
61.2541105769082
 30
0.0
 10
136.6300288702047
 20
61.09386470268517
 30
0.0
 10
136.6073630443753
 20
60.85331734789116
 30
0.0
 10
136.4459790707737
 20
60.61803096817747
 30
0.0
 10
136.3106362855013
 20
60.52731141219552
 30
0.0
 10
136.2307374214237
 20
60.51918837319469
 30
0.0
 10
136.1908012820513
 20
60.51512820511333
 30
0.0
  0
SPLINE
  5
2EF
330
1F
100
AcDbEntity
  8
0
  6
Continuous
 62
     7
370
    25
100
AcDbSpline
210
0.0
220
0.0
230
1.0
 70
     8
 71
     3
 72
     9
 73
     5
 74
     0
 42
0.000000001
 43
0.00000001
 40
0.0
 40
0.0
 40
0.0
 40
0.0
 40
0.5596909322181038
 40
1.0
 40
1.0
 40
1.0
 40
1.0
 10
136.5722115384615
 20
61.6495432692159
 30
0.0
 10
136.5961928664538
 20
61.57755893229847
 30
0.0
 10
136.6390403142358
 20
61.44894449033825
 30
0.0
 10
136.6432671090457
 20
61.31367219511477
 30
0.0
 10
136.6451282051282
 20
61.2541105769082
 30
0.0
  0
SPLINE
  5
2F0
330
1F
100
AcDbEntity
  8
0
  6
Continuous
 62
     7
370
    25
100
AcDbSpline
210
0.0
220
0.0
230
1.0
 70
     8
 71
     3
 72
     9
 73
     5
 74
     0
 42
0.000000001
 43
0.00000001
 40
0.0
 40
0.0
 40
0.0
 40
0.0
 40
0.5603102752842192
 40
0.9999999999999999
 40
0.9999999999999999
 40
0.9999999999999999
 40
0.9999999999999999
 10
136.2917628205128
 20
62.00851762819025
 30
0.0
 10
136.3544886743298
 20
61.94934388837572
 30
0.0
 10
136.4664371010925
 20
61.84373500982264
 30
0.0
 10
136.5399074020561
 20
61.70885057099323
 30
0.0
 10
136.5722115384615
 20
61.6495432692159
 30
0.0
  0
SPLINE
  5
2F1
330
1F
100
AcDbEntity
  8
0
  6
Continuous
 62
     7
370
    25
100
AcDbSpline
210
0.0
220
0.0
230
1.0
 70
     8
 71
     3
 72
     9
 73
     5
 74
     0
 42
0.000000001
 43
0.00000001
 40
0.0
 40
0.0
 40
0.0
 40
0.0
 40
0.559881814842868
 40
1.0
 40
1.0
 40
1.0
 40
1.0
 10
136.0169230769231
 20
62.50421073716461
 30
0.0
 10
136.0198021150078
 20
62.45923093329109
 30
0.0
 10
136.0249443396852
 20
62.37889290001142
 30
0.0
 10
136.0558882388128
 20
62.30476462495063
 30
0.0
 10
136.0695072115385
 20
62.27213942306205
 30
0.0
  0
SPLINE
  5
2F2
330
1F
100
AcDbEntity
  8
0
  6
Continuous
 62
     7
370
    25
100
AcDbSpline
210
0.0
220
0.0
230
1.0
 70
     8
 71
     3
 72
    11
 73
     7
 74
     0
 42
0.000000001
 43
0.00000001
 40
0.0
 40
0.0
 40
0.0
 40
0.0
 40
0.1856841555641188
 40
0.3726511068625243
 40
0.560282487850627
 40
1.0
 40
1.0
 40
1.0
 40
1.0
 10
136.2328685897436
 20
62.84846153844667
 30
0.0
 10
136.205155336143
 20
62.84346418845342
 30
0.0
 10
136.1495373724152
 20
62.83343496436211
 30
0.0
 10
136.0925450259842
 20
62.76820004725492
 30
0.0
 10
136.0322127658473
 20
62.66400954951786
 30
0.0
 10
136.023223663224
 20
62.57006074974514
 30
0.0
 10
136.0169230769231
 20
62.50421073716461
 30
0.0
  0
SPLINE
  5
2F3
330
1F
100
AcDbEntity
  8
0
  6
Continuous
 62
     7
370
    25
100
AcDbSpline
210
0.0
220
0.0
230
1.0
 70
     8
 71
     3
 72
    10
 73
     6
 74
     0
 42
0.000000001
 43
0.00000001
 40
0.0
 40
0.0
 40
0.0
 40
0.0
 40
0.5607562815450916
 40
0.7811275659936755
 40
1.0
 40
1.0
 40
1.0
 40
1.0
 10
136.5189262820513
 20
62.5792307692159
 30
0.0
 10
136.4799466895032
 20
62.64474033318718
 30
0.0
 10
136.4256485295848
 20
62.73599446254477
 30
0.0
 10
136.3223027998635
 20
62.8308957857318
 30
0.0
 10
136.2626120980577
 20
62.84261962279472
 30
0.0
 10
136.2328685897436
 20
62.84846153844667
 30
0.0
  0
LINE
  5
2F4
330
1F
100
AcDbEntity
  8
0
  6
Continuous
 62
     7
370
    25
100
AcDbLine
 10
136.6451282051
 20
62.798681891
 30
0.0
 11
136.5189262821
 21
62.5792307692
 31
0.0
  0
SPLINE
  5
2F5
330
1F
100
AcDbEntity
  8
0
  6
Continuous
 62
     7
370
    25
100
AcDbSpline
210
0.0
220
0.0
230
1.0
 70
     8
 71
     3
 72
    10
 73
     6
 74
     0
 42
0.000000001
 43
0.00000001
 40
0.0
 40
0.0
 40
0.0
 40
0.0
 40
0.2777284116762636
 40
0.5583945168819039
 40
1.0
 40
1.0
 40
1.0
 40
1.0
 10
136.2384775641026
 20
63.16256410254923
 30
0.0
 10
136.2907130610716
 20
63.15069869030759
 30
0.0
 10
136.3957365799767
 20
63.12684235851826
 30
0.0
 10
136.5305623178543
 20
62.98485743747425
 30
0.0
 10
136.6016589030517
 20
62.86932177571863
 30
0.0
 10
136.6451282051282
 20
62.79868189101077
 30
0.0
  0
SPLINE
  5
2F6
330
1F
100
AcDbEntity
  8
0
  6
Continuous
 62
     7
370
    25
100
AcDbSpline
210
0.0
220
0.0
230
1.0
 70
     8
 71
     3
 72
    10
 73
     6
 74
     0
 42
0.000000001
 43
0.00000001
 40
0.0
 40
0.0
 40
0.0
 40
0.0
 40
0.2783662009923313
 40
0.5589551287586995
 40
1.0
 40
1.0
 40
1.0
 40
1.0
 10
131.9805649038461
 20
63.93379807690822
 30
0.0
 10
132.1090059512823
 20
63.81662563717402
 30
0.0
 10
132.3669136353031
 20
63.58134514728295
 30
0.0
 10
132.5659176659696
 20
62.97881935764141
 30
0.0
 10
132.5912091389546
 20
62.53629149702243
 30
0.0
 10
132.6066666666667
 20
62.2658293269082
 30
0.0
  0
SPLINE
  5
2F7
330
1F
100
AcDbEntity
  8
0
  6
Continuous
 62
     7
370
    25
100
AcDbSpline
210
0.0
220
0.0
230
1.0
 70
     8
 71
     3
 72
     9
 73
     5
 74
     0
 42
0.000000001
 43
0.00000001
 40
0.0
 40
0.0
 40
0.0
 40
0.0
 40
0.5609894723462309
 40
0.9999999999999999
 40
0.9999999999999999
 40
0.9999999999999999
 40
0.9999999999999999
 10
131.3215104166667
 20
64.05999999998512
 30
0.0
 10
131.4494797334492
 20
64.05915381029398
 30
0.0
 10
131.677593313277
 20
64.05764542246699
 30
0.0
 10
131.8881349213798
 20
63.97158118375659
 30
0.0
 10
131.9805649038461
 20
63.93379807690822
 30
0.0
  0
LINE
  5
2F8
330
1F
100
AcDbEntity
  8
0
  6
Continuous
 62
     7
370
    25
100
AcDbLine
 10
130.9015384615
 20
64.06
 30
0.0
 11
131.3215104167
 21
64.06
 31
0.0
  0
LINE
  5
2F9
330
1F
100
AcDbEntity
  8
0
  6
Continuous
 62
     7
370
    25
100
AcDbLine
 10
130.9015384615
 20
60.56
 30
0.0
 11
130.9015384615
 21
64.06
 31
0.0
  0
LINE
  5
2FA
330
1F
100
AcDbEntity
  8
0
  6
Continuous
 62
     7
370
    25
100
AcDbLine
 10
131.545869391
 20
60.56
 30
0.0
 11
130.9015384615
 21
60.56
 31
0.0
  0
LINE
  5
2FB
330
1F
100
AcDbEntity
  8
0
  6
Continuous
 62
     7
370
    25
100
AcDbLine
 10
127.3286217949
 20
60.56
 30
0.0
 11
126.7733333333
 21
60.56
 31
0.0
  0
SPLINE
  5
2FC
330
1F
100
AcDbEntity
  8
0
  6
Continuous
 62
     7
370
    25
100
AcDbSpline
210
0.0
220
0.0
230
1.0
 70
     8
 71
     3
 72
    11
 73
     7
 74
     0
 42
0.000000001
 43
0.00000001
 40
0.0
 40
0.0
 40
0.0
 40
0.0
 40
0.4990946872954803
 40
0.7489909372803711
 40
0.8744495343206184
 40
1.0
 40
1.0
 40
1.0
 40
1.0
 10
127.9848717948718
 20
61.55348958331847
 30
0.0
 10
127.9635092170714
 20
61.33159834507912
 30
0.0
 10
127.9314504162532
 20
60.99860636833863
 30
0.0
 10
127.6924743314299
 20
60.67884566416217
 30
0.0
 10
127.4942736947991
 20
60.57313206151917
 30
0.0
 10
127.3838525661259
 20
60.56437842176598
 30
0.0
 10
127.3286217948718
 20
60.55999999998512
 30
0.0
  0
SPLINE
  5
2FD
330
1F
100
AcDbEntity
  8
0
  6
Continuous
 62
     7
370
    25
100
AcDbSpline
210
0.0
220
0.0
230
1.0
 70
     8
 71
     3
 72
    10
 73
     6
 74
     0
 42
0.000000001
 43
0.00000001
 40
0.0
 40
0.0
 40
0.0
 40
0.0
 40
0.2796080239342774
 40
0.5597236367910253
 40
1.0
 40
1.0
 40
1.0
 40
1.0
 10
127.5740144230769
 20
62.44812099357487
 30
0.0
 10
127.65275012206
 20
62.39086489064641
 30
0.0
 10
127.8103644535802
 20
62.27624874441187
 30
0.0
 10
127.9558370763346
 20
61.95158487505154
 30
0.0
 10
127.9738580540366
 20
61.70449908476172
 30
0.0
 10
127.9848717948718
 20
61.55348958331847
 30
0.0
  0
SPLINE
  5
2FE
330
1F
100
AcDbEntity
  8
0
  6
Continuous
 62
     7
370
    25
100
AcDbSpline
210
0.0
220
0.0
230
1.0
 70
     8
 71
     3
 72
     9
 73
     5
 74
     0
 42
0.000000001
 43
0.00000001
 40
0.0
 40
0.0
 40
0.0
 40
0.0
 40
0.5610147951224855
 40
1.0
 40
1.0
 40
1.0
 40
1.0
 10
127.8053846153846
 20
63.19271233972871
 30
0.0
 10
127.7990499902619
 20
63.04106942401978
 30
0.0
 10
127.7877586211611
 20
62.77076832496262
 30
0.0
 10
127.6392204726383
 20
62.54654966705417
 30
0.0
 10
127.5740144230769
 20
62.44812099357487
 30
0.0
  0
SPLINE
  5
2FF
330
1F
100
AcDbEntity
  8
0
  6
Continuous
 62
     7
370
    25
100
AcDbSpline
210
0.0
220
0.0
230
1.0
 70
     8
 71
     3
 72
    11
 73
     7
 74
     0
 42
0.000000001
 43
0.00000001
 40
0.0
 40
0.0
 40
0.0
 40
0.0
 40
0.249970876008807
 40
0.3753685739471359
 40
0.5011026084581857
 40
0.9999999999999999
 40
0.9999999999999999
 40
0.9999999999999999
 40
0.9999999999999999
 10
127.1659615384615
 20
64.05999999998512
 30
0.0
 10
127.2702060524698
 20
64.05336426228874
 30
0.0
 10
127.4267447468563
 20
64.04339971187409
 30
0.0
 10
127.5919100587737
 20
63.91471041773384
 30
0.0
 10
127.7636640768779
 20
63.65939240335089
 30
0.0
 10
127.7868588174622
 20
63.39993930425297
 30
0.0
 10
127.8053846153846
 20
63.19271233972871
 30
0.0
  0
LINE
  5
300
330
1F
100
AcDbEntity
  8
0
  6
Continuous
 62
     7
370
    25
100
AcDbLine
 10
126.7733333333
 20
64.06
 30
0.0
 11
127.1659615385
 21
64.06
 31
0.0
  0
LINE
  5
301
330
1F
100
AcDbEntity
  8
0
  6
Continuous
 62
     7
370
    25
100
AcDbLine
 10
126.7733333333
 20
60.56
 30
0.0
 11
126.7733333333
 21
64.06
 31
0.0
  0
LINE
  5
302
330
1F
100
AcDbEntity
  8
0
  6
Continuous
 62
     7
370
    25
100
AcDbLine
 10
123.048974359
 20
60.56
 30
0.0
 11
123.0041025641
 21
60.56
 31
0.0
  0
LINE
  5
303
330
1F
100
AcDbEntity
  8
0
  6
Continuous
 62
     7
370
    25
100
AcDbLine
 10
123.9464102564
 20
64.06
 30
0.0
 11
123.048974359
 21
60.56
 31
0.0
  0
LINE
  5
304
330
1F
100
AcDbEntity
  8
0
  6
Continuous
 62
     7
370
    25
100
AcDbLine
 10
123.7507972756
 20
64.06
 30
0.0
 11
123.9464102564
 21
64.06
 31
0.0
  0
LINE
  5
305
330
1F
100
AcDbEntity
  8
0
  6
Continuous
 62
     7
370
    25
100
AcDbLine
 10
123.0265384615
 20
61.2344791667
 30
0.0
 11
123.7507972756
 21
64.06
 31
0.0
  0
LINE
  5
306
330
1F
100
AcDbEntity
  8
0
  6
Continuous
 62
     7
370
    25
100
AcDbLine
 10
122.3022796474
 20
64.06
 30
0.0
 11
123.0265384615
 21
61.2344791667
 31
0.0
  0
LINE
  5
307
330
1F
100
AcDbEntity
  8
0
  6
Continuous
 62
     7
370
    25
100
AcDbLine
 10
122.1066666667
 20
64.06
 30
0.0
 11
122.3022796474
 21
64.06
 31
0.0
  0
LINE
  5
308
330
1F
100
AcDbEntity
  8
0
  6
Continuous
 62
     7
370
    25
100
AcDbLine
 10
123.0041025641
 20
60.56
 30
0.0
 11
122.1066666667
 21
64.06
 31
0.0
  0
LINE
  5
309
330
1F
100
AcDbEntity
  8
0
  6
Continuous
 62
     7
370
    25
100
AcDbLine
 10
118.1130769231
 20
63.3126041667
 30
0.0
 11
118.1130769231
 21
60.56
 31
0.0
  0
LINE
  5
30A
330
1F
100
AcDbEntity
  8
0
  6
Continuous
 62
     7
370
    25
100
AcDbLine
 10
119.4634375
 20
60.56
 30
0.0
 11
118.1130769231
 21
63.3126041667
 31
0.0
  0
LINE
  5
30B
330
1F
100
AcDbEntity
  8
0
  6
Continuous
 62
     7
370
    25
100
AcDbLine
 10
119.5041025641
 20
60.56
 30
0.0
 11
119.4634375
 21
60.56
 31
0.0
  0
LINE
  5
30C
330
1F
100
AcDbEntity
  8
0
  6
Continuous
 62
     7
370
    25
100
AcDbLine
 10
119.5041025641
 20
64.06
 30
0.0
 11
119.5041025641
 21
60.56
 31
0.0
  0
LINE
  5
30D
330
1F
100
AcDbEntity
  8
0
  6
Continuous
 62
     7
370
    25
100
AcDbLine
 10
119.3246153846
 20
64.06
 30
0.0
 11
119.5041025641
 21
64.06
 31
0.0
  0
LINE
  5
30E
330
1F
100
AcDbEntity
  8
0
  6
Continuous
 62
     7
370
    25
100
AcDbLine
 10
119.3246153846
 20
61.3010857372
 30
0.0
 11
119.3246153846
 21
64.06
 31
0.0
  0
LINE
  5
30F
330
1F
100
AcDbEntity
  8
0
  6
Continuous
 62
     7
370
    25
100
AcDbLine
 10
117.9714503205
 20
64.06
 30
0.0
 11
119.3246153846
 21
61.3010857372
 31
0.0
  0
LINE
  5
310
330
1F
100
AcDbEntity
  8
0
  6
Continuous
 62
     7
370
    25
100
AcDbLine
 10
117.9335897436
 20
64.06
 30
0.0
 11
117.9714503205
 21
64.06
 31
0.0
  0
LINE
  5
311
330
1F
100
AcDbEntity
  8
0
  6
Continuous
 62
     7
370
    25
100
AcDbLine
 10
117.9335897436
 20
60.56
 30
0.0
 11
117.9335897436
 21
64.06
 31
0.0
  0
LINE
  5
312
330
1F
100
AcDbEntity
  8
0
  6
Continuous
 62
     7
370
    25
100
AcDbLine
 10
118.1130769231
 20
60.56
 30
0.0
 11
117.9335897436
 21
60.56
 31
0.0
  0
SPLINE
  5
313
330
1F
100
AcDbEntity
  8
0
  6
Continuous
 62
     7
370
    25
100
AcDbSpline
210
0.0
220
0.0
230
1.0
 70
     8
 71
     3
 72
    11
 73
     7
 74
     0
 42
0.000000001
 43
0.00000001
 40
0.0
 40
0.0
 40
0.0
 40
0.0
 40
0.1233763181090196
 40
0.2483740556635523
 40
0.497994333179397
 40
1.0
 40
1.0
 40
1.0
 40
1.0
 10
114.815
 20
60.8292307692159
 30
0.0
 10
114.8570861067083
 20
60.83992631594428
 30
0.0
 10
114.9418114184248
 20
60.86145797095866
 30
0.0
 10
115.045233238932
 20
61.00831151246612
 30
0.0
 10
115.1144446334518
 20
61.30184377096727
 30
0.0
 10
115.1097812845239
 20
61.55949265010224
 30
0.0
 10
115.1066666666667
 20
61.7315745192159
 30
0.0
  0
SPLINE
  5
314
330
1F
100
AcDbEntity
  8
0
  6
Continuous
 62
     7
370
    25
100
AcDbSpline
210
0.0
220
0.0
230
1.0
 70
     8
 71
     3
 72
     9
 73
     5
 74
     0
 42
0.000000001
 43
0.00000001
 40
0.0
 40
0.0
 40
0.0
 40
0.0
 40
0.5603789936930933
 40
0.9999999999999999
 40
0.9999999999999999
 40
0.9999999999999999
 40
0.9999999999999999
 10
114.6775801282051
 20
60.87971153844666
 30
0.0
 10
114.7011818192776
 20
60.86429760811901
 30
0.0
 10
114.7432991922308
 20
60.83679134806799
 30
0.0
 10
114.7931045281179
 20
60.83153956386995
 30
0.0
 10
114.815
 20
60.8292307692159
 30
0.0
  0
SPLINE
  5
315
330
1F
100
AcDbEntity
  8
0
  6
Continuous
 62
     7
370
    25
100
AcDbSpline
210
0.0
220
0.0
230
1.0
 70
     8
 71
     3
 72
     9
 73
     5
 74
     0
 42
0.000000001
 43
0.00000001
 40
0.0
 40
0.0
 40
0.0
 40
0.0
 40
0.5601340991606547
 40
1.0
 40
1.0
 40
1.0
 40
1.0
 10
114.4083493589743
 20
61.14333333331847
 30
0.0
 10
114.4545647297894
 20
61.08991506809754
 30
0.0
 10
114.5370724201521
 20
60.9945481456035
 30
0.0
 10
114.6346563048535
 20
60.91479307460008
 30
0.0
 10
114.6775801282051
 20
60.87971153844666
 30
0.0
  0
LINE
  5
316
330
1F
100
AcDbEntity
  8
0
  6
Continuous
 62
     7
370
    25
100
AcDbLine
 10
114.298974359
 20
60.8741025641
 30
0.0
 11
114.408349359
 21
61.1433333333
 31
0.0
  0
SPLINE
  5
317
330
1F
100
AcDbEntity
  8
0
  6
Continuous
 62
     7
370
    25
100
AcDbSpline
210
0.0
220
0.0
230
1.0
 70
     8
 71
     3
 72
    10
 73
     6
 74
     0
 42
0.000000001
 43
0.00000001
 40
0.0
 40
0.0
 40
0.0
 40
0.0
 40
0.278380769123111
 40
0.5586591976644288
 40
0.9999999999999999
 40
0.9999999999999999
 40
0.9999999999999999
 40
0.9999999999999999
 10
114.8009775641025
 20
60.47025641024153
 30
0.0
 10
114.7386902225504
 20
60.48143878076138
 30
0.0
 10
114.6136909405749
 20
60.50387974951895
 30
0.0
 10
114.4436550467451
 20
60.66011119805157
 30
0.0
 10
114.3538803651995
 20
60.79289330626101
 30
0.0
 10
114.2989743589743
 20
60.87410256408769
 30
0.0
  0
SPLINE
  5
318
330
1F
100
AcDbEntity
  8
0
  6
Continuous
 62
     7
370
    25
100
AcDbSpline
210
0.0
220
0.0
230
1.0
 70
     8
 71
     3
 72
    11
 73
     7
 74
     0
 42
0.000000001
 43
0.00000001
 40
0.0
 40
0.0
 40
0.0
 40
0.0
 40
0.5016739800393254
 40
0.7508217685283782
 40
0.875633037749071
 40
1.0
 40
1.0
 40
1.0
 40
1.0
 10
115.2861538461538
 20
61.69651842947231
 30
0.0
 10
115.2910373684574
 20
61.45268733898514
 30
0.0
 10
115.298346208458
 20
61.08776171424491
 30
0.0
 10
115.1601024419731
 20
60.67877425965627
 30
0.0
 10
114.9841977784316
 20
60.49645642961426
 30
0.0
 10
114.8619783261576
 20
60.47897936231014
 30
0.0
 10
114.8009775641025
 20
60.47025641024153
 30
0.0
  0
LINE
  5
319
330
1F
100
AcDbEntity
  8
0
  6
Continuous
 62
     7
370
    25
100
AcDbLine
 10
115.2861538462
 20
64.06
 30
0.0
 11
115.2861538462
 21
61.6965184295
 31
0.0
  0
LINE
  5
31A
330
1F
100
AcDbEntity
  8
0
  6
Continuous
 62
     7
370
    25
100
AcDbLine
 10
115.1066666667
 20
64.06
 30
0.0
 11
115.2861538462
 21
64.06
 31
0.0
  0
LINE
  5
31B
330
1F
100
AcDbEntity
  8
0
  6
Continuous
 62
     7
370
    25
100
AcDbLine
 10
115.1066666667
 20
61.7315745192
 30
0.0
 11
115.1066666667
 21
64.06
 31
0.0
  0
LINE
  5
31C
330
1F
100
AcDbEntity
  8
0
  6
Continuous
 62
     7
370
    25
100
AcDbLine
 10
115.6451282051
 20
60.56
 30
0.0
 11
116.5425641026
 21
64.06
 31
0.0
  0
LINE
  5
31D
330
1F
100
AcDbEntity
  8
0
  6
Continuous
 62
     7
370
    25
100
AcDbLine
 10
115.8407411859
 20
60.56
 30
0.0
 11
115.6451282051
 21
60.56
 31
0.0
  0
LINE
  5
31E
330
1F
100
AcDbEntity
  8
0
  6
Continuous
 62
     7
370
    25
100
AcDbLine
 10
116.1282011218
 20
61.6817948718
 30
0.0
 11
115.8407411859
 21
60.56
 31
0.0
  0
LINE
  5
31F
330
1F
100
AcDbEntity
  8
0
  6
Continuous
 62
     7
370
    25
100
AcDbLine
 10
117.0017988782
 20
61.6817948718
 30
0.0
 11
116.1282011218
 21
61.6817948718
 31
0.0
  0
LINE
  5
320
330
1F
100
AcDbEntity
  8
0
  6
Continuous
 62
     7
370
    25
100
AcDbLine
 10
117.2892588141
 20
60.56
 30
0.0
 11
117.0017988782
 21
61.6817948718
 31
0.0
  0
LINE
  5
321
330
1F
100
AcDbEntity
  8
0
  6
Continuous
 62
     7
370
    25
100
AcDbLine
 10
117.4848717949
 20
60.56
 30
0.0
 11
117.2892588141
 21
60.56
 31
0.0
  0
LINE
  5
322
330
1F
100
AcDbEntity
  8
0
  6
Continuous
 62
     7
370
    25
100
AcDbLine
 10
116.5874358974
 20
64.06
 30
0.0
 11
117.4848717949
 21
60.56
 31
0.0
  0
LINE
  5
323
330
1F
100
AcDbEntity
  8
0
  6
Continuous
 62
     7
370
    25
100
AcDbLine
 10
116.5425641026
 20
64.06
 30
0.0
 11
116.5874358974
 21
64.06
 31
0.0
  0
SPLINE
  5
324
330
1F
100
AcDbEntity
  8
0
  6
Continuous
 62
     7
370
    25
100
AcDbSpline
210
0.0
220
0.0
230
1.0
 70
     8
 71
     3
 72
     9
 73
     5
 74
     0
 42
0.000000001
 43
0.00000001
 40
0.0
 40
0.0
 40
0.0
 40
0.0
 40
0.5605225427369381
 40
1.0
 40
1.0
 40
1.0
 40
1.0
 10
121.3522596153846
 20
62.54697916665179
 30
0.0
 10
121.5008851338165
 20
62.35928753767151
 30
0.0
 10
121.7660404257092
 20
62.02443636814707
 30
0.0
 10
121.8156386124446
 20
61.60278029429109
 30
0.0
 10
121.8374358974359
 20
61.41747195511333
 30
0.0
  0
SPLINE
  5
325
330
1F
100
AcDbEntity
  8
0
  6
Continuous
 62
     7
370
    25
100
AcDbSpline
210
0.0
220
0.0
230
1.0
 70
     8
 71
     3
 72
     9
 73
     5
 74
     0
 42
0.000000001
 43
0.00000001
 40
0.0
 40
0.0
 40
0.0
 40
0.0
 40
0.5599316618565399
 40
0.9999999999999999
 40
0.9999999999999999
 40
0.9999999999999999
 40
0.9999999999999999
 10
121.0753165064102
 20
62.89543669870307
 30
0.0
 10
121.1255718864975
 20
62.82925493859997
 30
0.0
 10
121.2153245893909
 20
62.71105880037187
 30
0.0
 10
121.3104138447871
 20
62.59712001748633
 30
0.0
 10
121.3522596153846
 20
62.54697916665179
 30
0.0
  0
SPLINE
  5
326
330
1F
100
AcDbEntity
  8
0
  6
Continuous
 62
     7
370
    25
100
AcDbSpline
210
0.0
220
0.0
230
1.0
 70
     8
 71
     3
 72
     9
 73
     5
 74
     0
 42
0.000000001
 43
0.00000001
 40
0.0
 40
0.0
 40
0.0
 40
0.0
 40
0.5594618219459236
 40
1.0
 40
1.0
 40
1.0
 40
1.0
 10
120.94
 20
63.34766025639538
 30
0.0
 10
120.9473871663268
 20
63.25764241693621
 30
0.0
 10
120.9605912242931
 20
63.09674164421493
 30
0.0
 10
121.0402317946472
 20
62.95699876993457
 30
0.0
 10
121.0753165064102
 20
62.89543669870307
 30
0.0
  0
SPLINE
  5
327
330
1F
100
AcDbEntity
  8
0
  6
Continuous
 62
     7
370
    25
100
AcDbSpline
210
0.0
220
0.0
230
1.0
 70
     8
 71
     3
 72
    11
 73
     7
 74
     0
 42
0.000000001
 43
0.00000001
 40
0.0
 40
0.0
 40
0.0
 40
0.0
 40
0.1255743189565532
 40
0.2515068450936772
 40
0.5014577229488304
 40
1.0
 40
1.0
 40
1.0
 40
1.0
 10
121.2337700320513
 20
63.79076923075436
 30
0.0
 10
121.2090969387908
 20
63.78888951951603
 30
0.0
 10
121.1596803710068
 20
63.78512473506673
 30
0.0
 10
121.0725946061426
 20
63.73552920056803
 30
0.0
 10
120.9644665494805
 20
63.59531880409018
 30
0.0
 10
120.9497812852602
 20
63.44666967756726
 30
0.0
 10
120.94
 20
63.34766025639538
 30
0.0
  0
SPLINE
  5
328
330
1F
100
AcDbEntity
  8
0
  6
Continuous
 62
     7
370
    25
100
AcDbSpline
210
0.0
220
0.0
230
1.0
 70
     8
 71
     3
 72
    10
 73
     6
 74
     0
 42
0.000000001
 43
0.00000001
 40
0.0
 40
0.0
 40
0.0
 40
0.0
 40
0.5618652137534458
 40
0.7817631476607346
 40
1.0
 40
1.0
 40
1.0
 40
1.0
 10
121.6242948717949
 20
63.34205128203641
 30
0.0
 10
121.5775940785543
 20
63.44883981923191
 30
0.0
 10
121.512615933924
 20
63.59742232786303
 30
0.0
 10
121.3716245063726
 20
63.76315173318377
 30
0.0
 10
121.279605233922
 20
63.78158669545732
 30
0.0
 10
121.2337700320513
 20
63.79076923075436
 30
0.0
  0
LINE
  5
329
330
1F
100
AcDbEntity
  8
0
  6
Continuous
 62
     7
370
    25
100
AcDbLine
 10
121.7925641026
 20
63.5572956731
 30
0.0
 11
121.6242948718
 21
63.342051282
 31
0.0
  0
SPLINE
  5
32A
330
1F
100
AcDbEntity
  8
0
  6
Continuous
 62
     7
370
    25
100
AcDbSpline
210
0.0
220
0.0
230
1.0
 70
     8
 71
     3
 72
    11
 73
     7
 74
     0
 42
0.000000001
 43
0.00000001
 40
0.0
 40
0.0
 40
0.0
 40
0.0
 40
0.4993523446987422
 40
0.7493373823641009
 40
0.8747430891468093
 40
1.0
 40
1.0
 40
1.0
 40
1.0
 10
120.7605128205128
 20
63.33293669870307
 30
0.0
 10
120.7751683714801
 20
63.50998166411481
 30
0.0
 10
120.7971607628558
 20
63.77565862017762
 30
0.0
 10
120.9771557239262
 20
64.03259940625786
 30
0.0
 10
121.124398530272
 20
64.13451174273463
 30
0.0
 10
121.2122875203541
 20
64.14466831707998
 30
0.0
 10
121.2562059294872
 20
64.14974358972871
 30
0.0
  0
SPLINE
  5
32B
330
1F
100
AcDbEntity
  8
0
  6
Continuous
 62
     7
370
    25
100
AcDbSpline
210
0.0
220
0.0
230
1.0
 70
     8
 71
     3
 72
     9
 73
     5
 74
     0
 42
0.000000001
 43
0.00000001
 40
0.0
 40
0.0
 40
0.0
 40
0.0
 40
0.559749521892624
 40
0.9999999999999999
 40
0.9999999999999999
 40
0.9999999999999999
 40
0.9999999999999999
 10
120.8754967948718
 20
62.8000841346005
 30
0.0
 10
120.8381005758292
 20
62.89628605980479
 30
0.0
 10
120.771291730837
 20
63.06815208459211
 30
0.0
 10
120.7638076782448
 20
63.25199831004792
 30
0.0
 10
120.7605128205128
 20
63.33293669870307
 30
0.0
  0
SPLINE
  5
32C
330
1F
100
AcDbEntity
  8
0
  6
Continuous
 62
     7
370
    25
100
AcDbSpline
210
0.0
220
0.0
230
1.0
 70
     8
 71
     3
 72
     9
 73
     5
 74
     0
 42
0.000000001
 43
0.00000001
 40
0.0
 40
0.0
 40
0.0
 40
0.0
 40
0.5602913181833113
 40
1.0
 40
1.0
 40
1.0
 40
1.0
 10
121.2127363782051
 20
62.32402243588256
 30
0.0
 10
121.1430855739801
 20
62.4082732089357
 30
0.0
 10
121.0187738062181
 20
62.55864279404067
 30
0.0
 10
120.9192557487417
 20
62.72634431839015
 30
0.0
 10
120.8754967948718
 20
62.8000841346005
 30
0.0
  0
SPLINE
  5
32D
330
1F
100
AcDbEntity
  8
0
  6
Continuous
 62
     7
370
    25
100
AcDbSpline
210
0.0
220
0.0
230
1.0
 70
     8
 71
     3
 72
     9
 73
     5
 74
     0
 42
0.000000001
 43
0.00000001
 40
0.0
 40
0.0
 40
0.0
 40
0.0
 40
0.559662603313303
 40
1.0
 40
1.0
 40
1.0
 40
1.0
 10
121.5843309294872
 20
61.76592948716461
 30
0.0
 10
121.5243509552834
 20
61.87636586688613
 30
0.0
 10
121.4171792881956
 20
62.07369257599216
 30
0.0
 10
121.2752383023816
 20
62.24749203469278
 30
0.0
 10
121.2127363782051
 20
62.32402243588256
 30
0.0
  0
SPLINE
  5
32E
330
1F
100
AcDbEntity
  8
0
  6
Continuous
 62
     7
370
    25
100
AcDbSpline
210
0.0
220
0.0
230
1.0
 70
     8
 71
     3
 72
     9
 73
     5
 74
     0
 42
0.000000001
 43
0.00000001
 40
0.0
 40
0.0
 40
0.0
 40
0.0
 40
0.5597943230199004
 40
1.0
 40
1.0
 40
1.0
 40
1.0
 10
121.6579487179487
 20
61.42237980767744
 30
0.0
 10
121.6538792847981
 20
61.48868445866316
 30
0.0
 10
121.6466097699366
 20
61.60712912353226
 30
0.0
 10
121.6033667516338
 20
61.71739140493454
 30
0.0
 10
121.5843309294872
 20
61.76592948716461
 30
0.0
  0
SPLINE
  5
32F
330
1F
100
AcDbEntity
  8
0
  6
Continuous
 62
     7
370
    25
100
AcDbSpline
210
0.0
220
0.0
230
1.0
 70
     8
 71
     3
 72
    11
 73
     7
 74
     0
 42
0.000000001
 43
0.00000001
 40
0.0
 40
0.0
 40
0.0
 40
0.0
 40
0.1254427097772219
 40
0.251108049880821
 40
0.5012246243326215
 40
1.0
 40
1.0
 40
1.0
 40
1.0
 10
121.2541025641025
 20
60.8292307692159
 30
0.0
 10
121.2871593452236
 20
60.83251686616996
 30
0.0
 10
121.3533315752192
 20
60.83909489210166
 30
0.0
 10
121.4689408893898
 20
60.90688701976535
 30
0.0
 10
121.623007763899
 20
61.08753711938307
 30
0.0
 10
121.6439805013239
 20
61.28852097833107
 30
0.0
 10
121.6579487179487
 20
61.42237980767743
 30
0.0
  0
SPLINE
  5
330
330
1F
100
AcDbEntity
  8
0
  6
Continuous
 62
     7
370
    25
100
AcDbSpline
210
0.0
220
0.0
230
1.0
 70
     8
 71
     3
 72
    10
 73
     6
 74
     0
 42
0.000000001
 43
0.00000001
 40
0.0
 40
0.0
 40
0.0
 40
0.0
 40
0.561795544370285
 40
0.7823693959978608
 40
1.0
 40
1.0
 40
1.0
 40
1.0
 10
120.8011778846154
 20
61.41256410254923
 30
0.0
 10
120.851740349935
 20
61.27704548522161
 30
0.0
 10
120.9221548020409
 20
61.088319141897
 30
0.0
 10
121.0853585330899
 20
60.87308490909421
 30
0.0
 10
121.1981069828177
 20
60.84378321317195
 30
0.0
 10
121.2541025641025
 20
60.82923076921589
 30
0.0
  0
LINE
  5
331
330
1F
100
AcDbEntity
  8
0
  6
Continuous
 62
     7
370
    25
100
AcDbLine
 10
120.6258974359
 20
61.2351802884
 30
0.0
 11
120.8011778846
 21
61.4125641025
 31
0.0
  0
SPLINE
  5
332
330
1F
100
AcDbEntity
  8
0
  6
Continuous
 62
     7
370
    25
100
AcDbSpline
210
0.0
220
0.0
230
1.0
 70
     8
 71
     3
 72
    10
 73
     6
 74
     0
 42
0.000000001
 43
0.00000001
 40
0.0
 40
0.0
 40
0.0
 40
0.0
 40
0.276490402556675
 40
0.5571898806745151
 40
1.0
 40
1.0
 40
1.0
 40
1.0
 10
121.2505969551282
 20
60.47025641024153
 30
0.0
 10
121.1538624557509
 20
60.49495899194415
 30
0.0
 10
120.9589208459637
 20
60.5447402083045
 30
0.0
 10
120.7588712635152
 20
60.85487732262004
 30
0.0
 10
120.6763828693751
 20
61.09079277680958
 30
0.0
 10
120.6258974358974
 20
61.23518028844666
 30
0.0
  0
SPLINE
  5
333
330
1F
100
AcDbEntity
  8
0
  6
Continuous
 62
     7
370
    25
100
AcDbSpline
210
0.0
220
0.0
230
1.0
 70
     8
 71
     3
 72
    12
 73
     8
 74
     0
 42
0.000000001
 43
0.00000001
 40
0.0
 40
0.0
 40
0.0
 40
0.0
 40
0.1247093436109282
 40
0.249595220452998
 40
0.4991887285375984
 40
0.7494516917125972
 40
1.0
 40
1.0
 40
1.0
 40
1.0
 10
125.2960697115385
 20
60.47025641024153
 30
0.0
 10
125.1989221643522
 20
60.48157667735643
 30
0.0
 10
125.0044895520527
 20
60.50423323607382
 30
0.0
 10
124.682265538156
 20
60.73874679098496
 30
0.0
 10
124.4207555217794
 20
61.15481659817261
 30
0.0
 10
124.2417550477257
 20
61.71278980523554
 30
0.0
 10
124.2243490054582
 20
62.10057316685048
 30
0.0
 10
124.215641025641
 20
62.29457532049794
 30
0.0
  0
SPLINE
  5
334
330
1F
100
AcDbEntity
  8
0
  6
Continuous
 62
     7
370
    25
100
AcDbSpline
210
0.0
220
0.0
230
1.0
 70
     8
 71
     3
 72
    12
 73
     8
 74
     0
 42
0.000000001
 43
0.00000001
 40
0.0
 40
0.0
 40
0.0
 40
0.0
 40
0.2505828292360021
 40
0.5008573904419283
 40
0.7504687067827908
 40
0.8753540477224988
 40
1.0
 40
1.0
 40
1.0
 40
1.0
 10
126.3694871794872
 20
62.31140224357487
 30
0.0
 10
126.3610296067857
 20
62.11658940627544
 30
0.0
 10
126.3441248659234
 20
61.72720339123256
 30
0.0
 10
126.1676937878205
 20
61.16590708241178
 30
0.0
 10
125.9090096469674
 20
60.74629989446306
 30
0.0
 10
125.5887605957178
 20
60.50598997769583
 30
0.0
 10
125.3935709209806
 20
60.48215997893055
 30
0.0
 10
125.2960697115385
 20
60.47025641024153
 30
0.0
  0
SPLINE
  5
335
330
1F
100
AcDbEntity
  8
0
  6
Continuous
 62
     7
370
    25
100
AcDbSpline
210
0.0
220
0.0
230
1.0
 70
     8
 71
     3
 72
    12
 73
     8
 74
     0
 42
0.000000001
 43
0.00000001
 40
0.0
 40
0.0
 40
0.0
 40
0.0
 40
0.2506573523135966
 40
0.5011268930735296
 40
0.7505329229105748
 40
0.875493093156614
 40
1.0
 40
1.0
 40
1.0
 40
1.0
 10
124.215641025641
 20
62.29457532049794
 30
0.0
 10
124.2252084042249
 20
62.489435300737
 30
0.0
 10
124.2443359927851
 20
62.87900925729664
 30
0.0
 10
124.4122472042461
 20
63.44371504475099
 30
0.0
 10
124.6711229278733
 20
63.8634499205564
 30
0.0
 10
124.986813747237
 20
64.10965502198597
 30
0.0
 10
125.1818845845267
 20
64.1363969298436
 30
0.0
 10
125.2792427884615
 20
64.14974358972871
 30
0.0
  0
SPLINE
  5
336
330
1F
100
AcDbEntity
  8
0
  6
Continuous
 62
     7
370
    25
100
AcDbSpline
210
0.0
220
0.0
230
1.0
 70
     8
 71
     3
 72
    12
 73
     8
 74
     0
 42
0.000000001
 43
0.00000001
 40
0.0
 40
0.0
 40
0.0
 40
0.0
 40
0.124709343610928
 40
0.2495952204529982
 40
0.4991887285375938
 40
0.7494516917125947
 40
1.0
 40
1.0
 40
1.0
 40
1.0
 10
129.4242748397436
 20
60.47025641024153
 30
0.0
 10
129.3271272925573
 20
60.48157667735643
 30
0.0
 10
129.1326946802578
 20
60.50423323607383
 30
0.0
 10
128.8104706663612
 20
60.73874679098497
 30
0.0
 10
128.5489606499846
 20
61.15481659817261
 30
0.0
 10
128.3699601759309
 20
61.71278980523553
 30
0.0
 10
128.3525541336633
 20
62.10057316685048
 30
0.0
 10
128.3438461538461
 20
62.29457532049794
 30
0.0
  0
SPLINE
  5
337
330
1F
100
AcDbEntity
  8
0
  6
Continuous
 62
     7
370
    25
100
AcDbSpline
210
0.0
220
0.0
230
1.0
 70
     8
 71
     3
 72
    12
 73
     8
 74
     0
 42
0.000000001
 43
0.00000001
 40
0.0
 40
0.0
 40
0.0
 40
0.0
 40
0.2505828292360022
 40
0.5008573904419256
 40
0.7504687067827901
 40
0.8753540477224969
 40
1.0
 40
1.0
 40
1.0
 40
1.0
 10
130.4976923076923
 20
62.31140224357487
 30
0.0
 10
130.4892347349908
 20
62.11658940627544
 30
0.0
 10
130.4723299941286
 20
61.72720339123257
 30
0.0
 10
130.2958989160256
 20
61.16590708241178
 30
0.0
 10
130.0372147751725
 20
60.74629989446306
 30
0.0
 10
129.7169657239229
 20
60.50598997769583
 30
0.0
 10
129.5217760491857
 20
60.48215997893055
 30
0.0
 10
129.4242748397436
 20
60.47025641024153
 30
0.0
  0
SPLINE
  5
338
330
1F
100
AcDbEntity
  8
0
  6
Continuous
 62
     7
370
    25
100
AcDbSpline
210
0.0
220
0.0
230
1.0
 70
     8
 71
     3
 72
    12
 73
     8
 74
     0
 42
0.000000001
 43
0.00000001
 40
0.0
 40
0.0
 40
0.0
 40
0.0
 40
0.1247685152723245
 40
0.2496513218955151
 40
0.4991413615556108
 40
0.7494245220454574
 40
0.9999999999999999
 40
0.9999999999999999
 40
0.9999999999999999
 40
0.9999999999999999
 10
129.4074479166666
 20
64.14974358972871
 30
0.0
 10
129.5056955333057
 20
64.139065828535
 30
0.0
 10
129.7022807640708
 20
64.11770052502811
 30
0.0
 10
130.0297627978196
 20
63.88371783519724
 30
0.0
 10
130.2960434247263
 20
63.4639945487432
 30
0.0
 10
130.4721155130279
 20
62.89893624031034
 30
0.0
 10
130.4891633929043
 20
62.50732309522858
 30
0.0
 10
130.4976923076923
 20
62.31140224357487
 30
0.0
  0
SPLINE
  5
339
330
1F
100
AcDbEntity
  8
0
  6
Continuous
 62
     7
370
    25
100
AcDbSpline
210
0.0
220
0.0
230
1.0
 70
     8
 71
     3
 72
    12
 73
     8
 74
     0
 42
0.000000001
 43
0.00000001
 40
0.0
 40
0.0
 40
0.0
 40
0.0
 40
0.250657352313597
 40
0.5011268930735285
 40
0.7505329229105748
 40
0.8754930931566147
 40
0.9999999999999999
 40
0.9999999999999999
 40
0.9999999999999999
 40
0.9999999999999999
 10
128.3438461538461
 20
62.29457532049794
 30
0.0
 10
128.3534135324301
 20
62.489435300737
 30
0.0
 10
128.3725411209902
 20
62.87900925729664
 30
0.0
 10
128.5404523324512
 20
63.44371504475099
 30
0.0
 10
128.7993280560785
 20
63.8634499205564
 30
0.0
 10
129.1150188754421
 20
64.10965502198599
 30
0.0
 10
129.3100897127318
 20
64.1363969298436
 30
0.0
 10
129.4074479166666
 20
64.14974358972871
 30
0.0
  0
LINE
  5
33A
330
1F
100
AcDbEntity
  8
0
  6
Continuous
 62
     7
370
    25
100
AcDbLine
 10
132.831025641
 20
60.56
 30
0.0
 11
133.7284615385
 21
64.06
 31
0.0
  0
LINE
  5
33B
330
1F
100
AcDbEntity
  8
0
  6
Continuous
 62
     7
370
    25
100
AcDbLine
 10
133.0266386218
 20
60.56
 30
0.0
 11
132.831025641
 21
60.56
 31
0.0
  0
LINE
  5
33C
330
1F
100
AcDbEntity
  8
0
  6
Continuous
 62
     7
370
    25
100
AcDbLine
 10
133.3140985577
 20
61.6817948718
 30
0.0
 11
133.0266386218
 21
60.56
 31
0.0
  0
LINE
  5
33D
330
1F
100
AcDbEntity
  8
0
  6
Continuous
 62
     7
370
    25
100
AcDbLine
 10
134.1876963141
 20
61.6817948718
 30
0.0
 11
133.3140985577
 21
61.6817948718
 31
0.0
  0
LINE
  5
33E
330
1F
100
AcDbEntity
  8
0
  6
Continuous
 62
     7
370
    25
100
AcDbLine
 10
134.47515625
 20
60.56
 30
0.0
 11
134.1876963141
 21
61.6817948718
 31
0.0
  0
LINE
  5
33F
330
1F
100
AcDbEntity
  8
0
  6
Continuous
 62
     7
370
    25
100
AcDbLine
 10
134.6707692308
 20
60.56
 30
0.0
 11
134.47515625
 21
60.56
 31
0.0
  0
LINE
  5
340
330
1F
100
AcDbEntity
  8
0
  6
Continuous
 62
     7
370
    25
100
AcDbLine
 10
133.7733333333
 20
64.06
 30
0.0
 11
134.6707692308
 21
60.56
 31
0.0
  0
LINE
  5
341
330
1F
100
AcDbEntity
  8
0
  6
Continuous
 62
     7
370
    25
100
AcDbLine
 10
133.7284615385
 20
64.06
 30
0.0
 11
133.7733333333
 21
64.06
 31
0.0
  0
SPLINE
  5
342
330
1F
100
AcDbEntity
  8
0
  6
Continuous
 62
     7
370
    25
100
AcDbSpline
210
0.0
220
0.0
230
1.0
 70
     8
 71
     3
 72
    11
 73
     7
 74
     0
 42
0.000000001
 43
0.00000001
 40
0.0
 40
0.0
 40
0.0
 40
0.0
 40
0.1857141050778686
 40
0.3724542555639246
 40
0.5601199017239207
 40
1.0
 40
1.0
 40
1.0
 40
1.0
 10
137.2284615384615
 20
60.51512820511333
 30
0.0
 10
137.2051502858531
 20
60.51955215138359
 30
0.0
 10
137.1583989891065
 20
60.52842448563114
 30
0.0
 10
137.1102052447656
 20
60.58326214069992
 30
0.0
 10
137.060566164374
 20
60.67194214975794
 30
0.0
 10
137.0537512758283
 20
60.75122283460209
 30
0.0
 10
137.0489743589743
 20
60.80679487178
 30
0.0
  0
SPLINE
  5
343
330
1F
100
AcDbEntity
  8
0
  6
Continuous
 62
     7
370
    25
100
AcDbSpline
210
0.0
220
0.0
230
1.0
 70
     8
 71
     3
 72
    10
 73
     6
 74
     0
 42
0.000000001
 43
0.00000001
 40
0.0
 40
0.0
 40
0.0
 40
0.0
 40
0.5596114125997572
 40
0.780791284150203
 40
1.0
 40
1.0
 40
1.0
 40
1.0
 10
137.4079487179487
 20
60.80679487178
 30
0.0
 10
137.3995833419702
 20
60.73718245461353
 30
0.0
 10
137.387911648889
 20
60.64005654301051
 30
0.0
 10
137.3103774305798
 20
60.53411936888005
 30
0.0
 10
137.2556852360577
 20
60.52143967515919
 30
0.0
 10
137.2284615384615
 20
60.51512820511333
 30
0.0
  0
SPLINE
  5
344
330
1F
100
AcDbEntity
  8
0
  6
Continuous
 62
     7
370
    25
100
AcDbSpline
210
0.0
220
0.0
230
1.0
 70
     8
 71
     3
 72
    11
 73
     7
 74
     0
 42
0.000000001
 43
0.00000001
 40
0.0
 40
0.0
 40
0.0
 40
0.0
 40
0.1859027081876066
 40
0.372680286692615
 40
0.5601967664387701
 40
1.0
 40
1.0
 40
1.0
 40
1.0
 10
137.2284615384615
 20
61.09846153844667
 30
0.0
 10
137.2518957160149
 20
61.09423671416371
 30
0.0
 10
137.2988743538955
 20
61.08576718329807
 30
0.0
 10
137.3471597005189
 20
61.03072275072092
 30
0.0
 10
137.3968669175152
 20
60.94193452078238
 30
0.0
 10
137.4033814732103
 20
60.86249122315918
 30
0.0
 10
137.4079487179487
 20
60.80679487178
 30
0.0
  0
SPLINE
  5
345
330
1F
100
AcDbEntity
  8
0
  6
Continuous
 62
     7
370
    25
100
AcDbSpline
210
0.0
220
0.0
230
1.0
 70
     8
 71
     3
 72
    10
 73
     6
 74
     0
 42
0.000000001
 43
0.00000001
 40
0.0
 40
0.0
 40
0.0
 40
0.0
 40
0.5594713163304259
 40
0.7807294745950802
 40
0.9999999999999999
 40
0.9999999999999999
 40
0.9999999999999999
 40
0.9999999999999999
 10
137.0489743589743
 20
60.80679487178
 30
0.0
 10
137.0570197179266
 20
60.8765825072647
 30
0.0
 10
137.068246833034
 20
60.97396956249852
 30
0.0
 10
137.1461711281889
 20
61.08010519112008
 30
0.0
 10
137.2011140344814
 20
61.0923611887229
 30
0.0
 10
137.2284615384615
 20
61.09846153844667
 30
0.0
  0
SPLINE
  5
346
330
1F
100
AcDbEntity
  8
0
  6
Continuous
 62
     7
370
    25
100
AcDbSpline
210
0.0
220
0.0
230
1.0
 70
     8
 71
     3
 72
    11
 73
     7
 74
     0
 42
0.000000001
 43
0.00000001
 40
0.0
 40
0.0
 40
0.0
 40
0.0
 40
0.1857141050778713
 40
0.3724542555639335
 40
0.5601199017239392
 40
1.0
 40
1.0
 40
1.0
 40
1.0
 10
138.8887179487179
 20
60.51512820511333
 30
0.0
 10
138.8654066961095
 20
60.51955215138358
 30
0.0
 10
138.8186553993629
 20
60.52842448563114
 30
0.0
 10
138.770461655022
 20
60.58326214069993
 30
0.0
 10
138.7208225746304
 20
60.67194214975795
 30
0.0
 10
138.7140076860847
 20
60.75122283460209
 30
0.0
 10
138.7092307692307
 20
60.80679487177999
 30
0.0
  0
SPLINE
  5
347
330
1F
100
AcDbEntity
  8
0
  6
Continuous
 62
     7
370
    25
100
AcDbSpline
210
0.0
220
0.0
230
1.0
 70
     8
 71
     3
 72
    10
 73
     6
 74
     0
 42
0.000000001
 43
0.00000001
 40
0.0
 40
0.0
 40
0.0
 40
0.0
 40
0.5596114125997742
 40
0.7807912841502068
 40
1.0
 40
1.0
 40
1.0
 40
1.0
 10
139.0682051282051
 20
60.80679487178
 30
0.0
 10
139.0598397522267
 20
60.73718245461353
 30
0.0
 10
139.0481680591454
 20
60.64005654301051
 30
0.0
 10
138.9706338408362
 20
60.53411936888005
 30
0.0
 10
138.9159416463141
 20
60.5214396751592
 30
0.0
 10
138.8887179487179
 20
60.51512820511333
 30
0.0
  0
SPLINE
  5
348
330
1F
100
AcDbEntity
  8
0
  6
Continuous
 62
     7
370
    25
100
AcDbSpline
210
0.0
220
0.0
230
1.0
 70
     8
 71
     3
 72
    11
 73
     7
 74
     0
 42
0.000000001
 43
0.00000001
 40
0.0
 40
0.0
 40
0.0
 40
0.0
 40
0.1859027081876153
 40
0.3726802866926076
 40
0.5601967664387492
 40
1.0
 40
1.0
 40
1.0
 40
1.0
 10
138.8887179487179
 20
61.09846153844667
 30
0.0
 10
138.9121521262713
 20
61.0942367141637
 30
0.0
 10
138.959130764152
 20
61.08576718329805
 30
0.0
 10
139.0074161107753
 20
61.03072275072093
 30
0.0
 10
139.0571233277716
 20
60.94193452078238
 30
0.0
 10
139.0636378834667
 20
60.86249122315918
 30
0.0
 10
139.0682051282051
 20
60.80679487178
 30
0.0
  0
SPLINE
  5
349
330
1F
100
AcDbEntity
  8
0
  6
Continuous
 62
     7
370
    25
100
AcDbSpline
210
0.0
220
0.0
230
1.0
 70
     8
 71
     3
 72
    10
 73
     6
 74
     0
 42
0.000000001
 43
0.00000001
 40
0.0
 40
0.0
 40
0.0
 40
0.0
 40
0.5594713163304218
 40
0.7807294745950768
 40
1.0
 40
1.0
 40
1.0
 40
1.0
 10
138.7092307692307
 20
60.80679487178
 30
0.0
 10
138.717276128183
 20
60.8765825072647
 30
0.0
 10
138.7285032432905
 20
60.97396956249851
 30
0.0
 10
138.8064275384453
 20
61.08010519112008
 30
0.0
 10
138.8613704447378
 20
61.0923611887229
 30
0.0
 10
138.8887179487179
 20
61.09846153844667
 30
0.0
  0
SPLINE
  5
34A
330
1F
100
AcDbEntity
  8
0
  6
Continuous
 62
     7
370
    25
100
AcDbSpline
210
0.0
220
0.0
230
1.0
 70
     8
 71
     3
 72
    11
 73
     7
 74
     0
 42
0.000000001
 43
0.00000001
 40
0.0
 40
0.0
 40
0.0
 40
0.0
 40
0.1857141050778702
 40
0.3724542555639399
 40
0.5601199017239291
 40
1.0
 40
1.0
 40
1.0
 40
1.0
 10
141.5810256410256
 20
60.51512820511333
 30
0.0
 10
141.5577143884172
 20
60.51955215138357
 30
0.0
 10
141.5109630916706
 20
60.52842448563113
 30
0.0
 10
141.4627693473297
 20
60.58326214069995
 30
0.0
 10
141.4131302669381
 20
60.67194214975793
 30
0.0
 10
141.4063153783924
 20
60.75122283460208
 30
0.0
 10
141.4015384615385
 20
60.80679487178
 30
0.0
  0
SPLINE
  5
34B
330
1F
100
AcDbEntity
  8
0
  6
Continuous
 62
     7
370
    25
100
AcDbSpline
210
0.0
220
0.0
230
1.0
 70
     8
 71
     3
 72
    10
 73
     6
 74
     0
 42
0.000000001
 43
0.00000001
 40
0.0
 40
0.0
 40
0.0
 40
0.0
 40
0.5596114125997625
 40
0.7807912841501963
 40
1.0
 40
1.0
 40
1.0
 40
1.0
 10
141.7605128205128
 20
60.80679487178
 30
0.0
 10
141.7521474445344
 20
60.73718245461353
 30
0.0
 10
141.7404757514531
 20
60.64005654301052
 30
0.0
 10
141.6629415331439
 20
60.53411936888006
 30
0.0
 10
141.6082493386218
 20
60.5214396751592
 30
0.0
 10
141.5810256410256
 20
60.51512820511333
 30
0.0
  0
SPLINE
  5
34C
330
1F
100
AcDbEntity
  8
0
  6
Continuous
 62
     7
370
    25
100
AcDbSpline
210
0.0
220
0.0
230
1.0
 70
     8
 71
     3
 72
    11
 73
     7
 74
     0
 42
0.000000001
 43
0.00000001
 40
0.0
 40
0.0
 40
0.0
 40
0.0
 40
0.1859027081876149
 40
0.3726802866925934
 40
0.5601967664387503
 40
1.0
 40
1.0
 40
1.0
 40
1.0
 10
141.5810256410256
 20
61.09846153844667
 30
0.0
 10
141.604459818579
 20
61.09423671416371
 30
0.0
 10
141.6514384564596
 20
61.08576718329806
 30
0.0
 10
141.699723803083
 20
61.03072275072093
 30
0.0
 10
141.7494310200792
 20
60.94193452078238
 30
0.0
 10
141.7559455757744
 20
60.86249122315918
 30
0.0
 10
141.7605128205128
 20
60.80679487178
 30
0.0
  0
SPLINE
  5
34D
330
1F
100
AcDbEntity
  8
0
  6
Continuous
 62
     7
370
    25
100
AcDbSpline
210
0.0
220
0.0
230
1.0
 70
     8
 71
     3
 72
    10
 73
     6
 74
     0
 42
0.000000001
 43
0.00000001
 40
0.0
 40
0.0
 40
0.0
 40
0.0
 40
0.5594713163304376
 40
0.780729474595079
 40
1.0
 40
1.0
 40
1.0
 40
1.0
 10
141.4015384615385
 20
60.80679487178
 30
0.0
 10
141.4095838204907
 20
60.87658250726471
 30
0.0
 10
141.4208109355982
 20
60.97396956249852
 30
0.0
 10
141.498735230753
 20
61.08010519112008
 30
0.0
 10
141.5536781370455
 20
61.09236118872291
 30
0.0
 10
141.5810256410256
 20
61.09846153844667
 30
0.0
  0
SPLINE
  5
34E
330
1F
100
AcDbEntity
  8
0
  6
Continuous
 62
     7
370
    25
100
AcDbSpline
210
0.0
220
0.0
230
1.0
 70
     8
 71
     3
 72
    13
 73
     9
 74
     0
 42
0.000000001
 43
0.00000001
 40
0.0
 40
0.0
 40
0.0
 40
0.0
 40
0.2503726932161079
 40
0.5004093052718432
 40
0.6255741748249362
 40
0.7503555881609607
 40
0.8749685067404769
 40
1.0
 40
1.0
 40
1.0
 40
1.0
 10
132.6066666666667
 20
62.26582932690821
 30
0.0
 10
132.5996087182006
 20
62.07744739521321
 30
0.0
 10
132.5855022953189
 20
61.70093640132499
 30
0.0
 10
132.4567812491289
 20
61.24240810119239
 30
0.0
 10
132.284566635412
 20
60.90720035499682
 30
0.0
 10
132.0942831322096
 20
60.69167498722669
 30
0.0
 10
131.8283813935434
 20
60.57416050511791
 30
0.0
 10
131.6401452626733
 20
60.56472544156802
 30
0.0
 10
131.5458693910256
 20
60.55999999998513
 30
0.0
  0
SPLINE
  5
34F
330
1F
100
AcDbEntity
  8
0
  6
Continuous
 62
     7
370
    25
100
AcDbSpline
210
0.0
220
0.0
230
1.0
 70
     8
 71
     3
 72
    12
 73
     8
 74
     0
 42
0.000000001
 43
0.00000001
 40
0.0
 40
0.0
 40
0.0
 40
0.0
 40
0.124768515272325
 40
0.2496513218955195
 40
0.4991413615556112
 40
0.7494245220454585
 40
1.0
 40
1.0
 40
1.0
 40
1.0
 10
125.2792427884615
 20
64.14974358972871
 30
0.0
 10
125.3774904051006
 20
64.13906582853498
 30
0.0
 10
125.5740756358656
 20
64.1177005250281
 30
0.0
 10
125.9015576696145
 20
63.88371783519724
 30
0.0
 10
126.1678382965212
 20
63.4639945487432
 30
0.0
 10
126.3439103848228
 20
62.89893624031034
 30
0.0
 10
126.3609582646991
 20
62.50732309522858
 30
0.0
 10
126.3694871794872
 20
62.31140224357487
 30
0.0
  0
SPLINE
  5
350
330
1F
100
AcDbEntity
  8
0
  6
Continuous
 62
     7
370
    25
100
AcDbSpline
210
0.0
220
0.0
230
1.0
 70
     8
 71
     3
 72
     9
 73
     5
 74
     0
 42
0.000000001
 43
0.00000001
 40
0.0
 40
0.0
 40
0.0
 40
0.0
 40
0.5593347287454993
 40
1.0
 40
1.0
 40
1.0
 40
1.0
 10
136.0695072115385
 20
62.27213942306205
 30
0.0
 10
136.1048308917975
 20
62.21772412343019
 30
0.0
 10
136.167983917068
 20
62.12043837156222
 30
0.0
 10
136.2539017953667
 20
62.04275152396126
 30
0.0
 10
136.2917628205128
 20
62.00851762819025
 30
0.0
  0
SPLINE
  5
351
330
1F
100
AcDbEntity
  8
0
  6
Continuous
 62
     7
370
    25
100
AcDbSpline
210
0.0
220
0.0
230
1.0
 70
     8
 71
     3
 72
    10
 73
     6
 74
     0
 42
0.000000001
 43
0.00000001
 40
0.0
 40
0.0
 40
0.0
 40
0.0
 40
0.2771143690014554
 40
0.5575217321915844
 40
1.0
 40
1.0
 40
1.0
 40
1.0
 10
121.2562059294872
 20
64.14974358972871
 30
0.0
 10
121.3341322589342
 20
64.13096040609393
 30
0.0
 10
121.4909109288141
 20
64.09317083526125
 30
0.0
 10
121.6621273493224
 20
63.85326282981521
 30
0.0
 10
121.7430384319199
 20
63.66967176003573
 30
0.0
 10
121.7925641025641
 20
63.55729567306205
 30
0.0
  0
SPLINE
  5
352
330
1F
100
AcDbEntity
  8
0
  6
Continuous
 62
     7
370
    25
100
AcDbSpline
210
0.0
220
0.0
230
1.0
 70
     8
 71
     3
 72
    11
 73
     7
 74
     0
 42
0.000000001
 43
0.00000001
 40
0.0
 40
0.0
 40
0.0
 40
0.0
 40
0.4989332970631628
 40
0.7494451748307326
 40
0.8748430229421714
 40
1.0
 40
1.0
 40
1.0
 40
1.0
 10
121.8374358974359
 20
61.41747195511333
 30
0.0
 10
121.8151159269407
 20
61.21306724312436
 30
0.0
 10
121.7815892124713
 20
60.90603196202668
 30
0.0
 10
121.5753591020665
 20
60.60598902583227
 30
0.0
 10
121.4038173426287
 20
60.48733583331254
 30
0.0
 10
121.3016376741301
 20
60.47594590135889
 30
0.0
 10
121.2505969551282
 20
60.47025641024153
 30
0.0
  0
SPLINE
  5
353
330
1F
100
AcDbEntity
  8
0
  6
Continuous
 62
     7
370
    25
100
AcDbSpline
210
0.0
220
0.0
230
1.0
 70
     8
 71
     3
 72
    11
 73
     7
 74
     0
 42
0.000000001
 43
0.00000001
 40
0.0
 40
0.0
 40
0.0
 40
0.0
 40
0.2810224925325866
 40
0.560577971011056
 40
0.7796494856786639
 40
1.0
 40
1.0
 40
1.0
 40
1.0
 10
127.6258974358974
 20
63.18640224357487
 30
0.0
 10
127.6221857179296
 20
63.25759171146256
 30
0.0
 10
127.6147816581739
 20
63.39959901880012
 30
0.0
 10
127.5300940364909
 20
63.588950777861
 30
0.0
 10
127.3675472280861
 20
63.69118047380787
 30
0.0
 10
127.2552342188486
 20
63.69773755683883
 30
0.0
 10
127.1989142628205
 20
63.70102564101077
 30
0.0
  0
SPLINE
  5
354
330
1F
100
AcDbEntity
  8
0
  6
Continuous
 62
     7
370
    25
100
AcDbSpline
210
0.0
220
0.0
230
1.0
 70
     8
 71
     3
 72
    10
 73
     6
 74
     0
 42
0.000000001
 43
0.00000001
 40
0.0
 40
0.0
 40
0.0
 40
0.0
 40
0.2820080937468404
 40
0.5596255006190668
 40
1.0
 40
1.0
 40
1.0
 40
1.0
 10
127.0748157051282
 20
62.5792307692159
 30
0.0
 10
127.1649561042859
 20
62.58055967699239
 30
0.0
 10
127.343833473848
 20
62.58319680229546
 30
0.0
 10
127.5938122463068
 20
62.8155684662153
 30
0.0
 10
127.6136996552687
 20
63.04542289691567
 30
0.0
 10
127.6258974358974
 20
63.18640224357487
 30
0.0
  0
LINE
  5
355
330
1F
100
AcDbEntity
  8
0
  6
Continuous
 62
     7
370
    25
100
AcDbLine
 10
126.9528205128
 20
62.5792307692
 30
0.0
 11
127.0748157051
 21
62.5792307692
 31
0.0
  0
LINE
  5
356
330
1F
100
AcDbEntity
  8
0
  6
Continuous
 62
     7
370
    25
100
AcDbLine
 10
126.9528205128
 20
63.701025641
 30
0.0
 11
126.9528205128
 21
62.5792307692
 31
0.0
  0
LINE
  5
357
330
1F
100
AcDbEntity
  8
0
  6
Continuous
 62
     7
370
    25
100
AcDbLine
 10
127.1989142628
 20
63.701025641
 30
0.0
 11
126.9528205128
 21
63.701025641
 31
0.0
  0
SPLINE
  5
358
330
1F
100
AcDbEntity
  8
0
  6
Continuous
 62
     7
370
    25
100
AcDbSpline
210
0.0
220
0.0
230
1.0
 70
     8
 71
     3
 72
    12
 73
     8
 74
     0
 42
0.000000001
 43
0.00000001
 40
0.0
 40
0.0
 40
0.0
 40
0.0
 40
0.1246747136910684
 40
0.2496657000227941
 40
0.4989185559859233
 40
0.7493134090849682
 40
1.0
 40
1.0
 40
1.0
 40
1.0
 10
125.2883573717949
 20
60.82923076921589
 30
0.0
 10
125.3678579284361
 20
60.8387118945685
 30
0.0
 10
125.5270607173451
 20
60.85769819682728
 30
0.0
 10
125.794924651143
 20
61.04241710534659
 30
0.0
 10
126.0244117322892
 20
61.37520413477345
 30
0.0
 10
126.166726616978
 20
61.83528849448906
 30
0.0
 10
126.1822391951004
 20
62.15310339606413
 30
0.0
 10
126.19
 20
62.31210336536974
 30
0.0
  0
SPLINE
  5
359
330
1F
100
AcDbEntity
  8
0
  6
Continuous
 62
     7
370
    25
100
AcDbSpline
210
0.0
220
0.0
230
1.0
 70
     8
 71
     3
 72
    12
 73
     8
 74
     0
 42
0.000000001
 43
0.00000001
 40
0.0
 40
0.0
 40
0.0
 40
0.0
 40
0.1245774920443301
 40
0.2495798829556591
 40
0.4989612118404171
 40
0.7493407093882982
 40
1.0
 40
1.0
 40
1.0
 40
1.0
 10
125.2883573717949
 20
63.79076923075436
 30
0.0
 10
125.2089527943104
 20
63.78018203703477
 30
0.0
 10
125.0498728126098
 20
63.75897153964874
 30
0.0
 10
124.7883374721093
 20
63.56511232635226
 30
0.0
 10
124.5614813465278
 20
63.23269937452567
 30
0.0
 10
124.4179101038158
 20
62.77267000929969
 30
0.0
 10
124.4027249979432
 20
62.45493418980118
 30
0.0
 10
124.3951282051282
 20
62.29597756408769
 30
0.0
  0
SPLINE
  5
35A
330
1F
100
AcDbEntity
  8
0
  6
Continuous
 62
     7
370
    25
100
AcDbSpline
210
0.0
220
0.0
230
1.0
 70
     8
 71
     3
 72
    12
 73
     8
 74
     0
 42
0.000000001
 43
0.00000001
 40
0.0
 40
0.0
 40
0.0
 40
0.0
 40
0.2505529109482877
 40
0.5007529510956286
 40
0.7503604037653345
 40
0.8752534348534864
 40
1.0
 40
1.0
 40
1.0
 40
1.0
 10
124.3951282051282
 20
62.29597756408769
 30
0.0
 10
124.402401281519
 20
62.13869397158412
 30
0.0
 10
124.4169371911299
 20
61.82434829981764
 30
0.0
 10
124.5672239909507
 20
61.37293696776787
 30
0.0
 10
124.7882186549474
 20
61.04143675761164
 30
0.0
 10
125.0519683633611
 20
60.85576876280341
 30
0.0
 10
125.2095918620556
 20
60.83807330638048
 30
0.0
 10
125.2883573717949
 20
60.8292307692159
 30
0.0
  0
SPLINE
  5
35B
330
1F
100
AcDbEntity
  8
0
  6
Continuous
 62
     7
370
    25
100
AcDbSpline
210
0.0
220
0.0
230
1.0
 70
     8
 71
     3
 72
    12
 73
     8
 74
     0
 42
0.000000001
 43
0.00000001
 40
0.0
 40
0.0
 40
0.0
 40
0.0
 40
0.2506051305367923
 40
0.5009186831940102
 40
0.750360937356505
 40
0.8753758729069732
 40
1.0
 40
1.0
 40
1.0
 40
1.0
 10
126.19
 20
62.31210336536974
 30
0.0
 10
126.1823145548547
 20
62.47037779666153
 30
0.0
 10
126.1669526065431
 20
62.78674250769574
 30
0.0
 10
126.0212576566141
 20
63.24441468545705
 30
0.0
 10
125.7894243520888
 20
63.57198630713454
 30
0.0
 10
125.525900953273
 20
63.76029748916329
 30
0.0
 10
125.3674558840186
 20
63.78062258983179
 30
0.0
 10
125.2883573717949
 20
63.79076923075436
 30
0.0
  0
LINE
  5
35C
330
1F
100
AcDbEntity
  8
0
  6
Continuous
 62
     7
370
    25
100
AcDbLine
 10
116.565
 20
63.3855208333
 30
0.0
 11
116.2200480769
 21
62.0407692308
 31
0.0
  0
LINE
  5
35D
330
1F
100
AcDbEntity
  8
0
  6
Continuous
 62
     7
370
    25
100
AcDbLine
 10
116.9099519231
 20
62.0407692308
 30
0.0
 11
116.565
 21
63.3855208333
 31
0.0
  0
LINE
  5
35E
330
1F
100
AcDbEntity
  8
0
  6
Continuous
 62
     7
370
    25
100
AcDbLine
 10
116.2200480769
 20
62.0407692308
 30
0.0
 11
116.9099519231
 21
62.0407692308
 31
0.0
  0
LINE
  5
35F
330
1F
100
AcDbEntity
  8
0
  6
Continuous
 62
     7
370
    25
100
AcDbLine
 10
85.94
 20
59.36
 30
0.0
 11
94.94
 21
59.36
 31
0.0
  0
LINE
  5
360
330
1F
100
AcDbEntity
  8
0
  6
Continuous
 62
     7
370
    25
100
AcDbLine
 10
94.94
 20
59.06
 30
0.0
 11
85.94
 21
59.06
 31
0.0
  0
LINE
  5
361
330
1F
100
AcDbEntity
  8
0
  6
Continuous
 62
     7
370
    25
100
AcDbLine
 10
85.94
 20
59.06
 30
0.0
 11
85.94
 21
59.36
 31
0.0
  0
LINE
  5
362
330
1F
100
AcDbEntity
  8
0
  6
Continuous
 62
     7
370
    25
100
AcDbLine
 10
94.94
 20
59.36
 30
0.0
 11
94.94
 21
59.06
 31
0.0
  0
SPLINE
  5
363
330
1F
100
AcDbEntity
  8
0
  6
Continuous
 62
     7
370
    25
100
AcDbSpline
210
0.0
220
0.0
230
1.0
 70
     8
 71
     3
 72
     9
 73
     5
 74
     0
 42
0.000000001
 43
0.00000001
 40
0.0
 40
0.0
 40
0.0
 40
0.0
 40
0.5592435255972102
 40
1.0
 40
1.0
 40
1.0
 40
1.0
 10
127.4506169871795
 20
62.1788902243441
 30
0.0
 10
127.3809069264104
 20
62.19390819497792
 30
0.0
 10
127.2562562910819
 20
62.22076227543916
 30
0.0
 10
127.1288621376637
 20
62.22041116461189
 30
0.0
 10
127.0727123397436
 20
62.22025641024154
 30
0.0
  0
LINE
  5
364
330
1F
100
AcDbEntity
  8
0
  6
Continuous
 62
     7
370
    25
100
AcDbLine
 10
126.9528205128
 20
62.2202564102
 30
0.0
 11
126.9528205128
 21
60.918974359
 31
0.0
  0
LINE
  5
365
330
1F
100
AcDbEntity
  8
0
  6
Continuous
 62
     7
370
    25
100
AcDbLine
 10
127.0727123397
 20
62.2202564102
 30
0.0
 11
126.9528205128
 21
62.2202564102
 31
0.0
  0
SPLINE
  5
366
330
1F
100
AcDbEntity
  8
0
  6
Continuous
 62
     7
370
    25
100
AcDbSpline
210
0.0
220
0.0
230
1.0
 70
     8
 71
     3
 72
    10
 73
     6
 74
     0
 42
0.000000001
 43
0.00000001
 40
0.0
 40
0.0
 40
0.0
 40
0.0
 40
0.5580099882118047
 40
0.7791152929078794
 40
0.9999999999999999
 40
0.9999999999999999
 40
0.9999999999999999
 40
0.9999999999999999
 10
127.8053846153846
 20
61.55348958331846
 30
0.0
 10
127.7884347316691
 20
61.69733851323058
 30
0.0
 10
127.7647686434364
 20
61.89818599540938
 30
0.0
 10
127.601980856741
 20
62.10328819233914
 30
0.0
 10
127.5010548196086
 20
62.15369793352451
 30
0.0
 10
127.4506169871795
 20
62.1788902243441
 30
0.0
  0
LINE
  5
367
330
1F
100
AcDbEntity
  8
0
  6
Continuous
 62
     7
370
    25
100
AcDbLine
 10
126.9528205128
 20
60.918974359
 30
0.0
 11
127.2185456731
 21
60.918974359
 31
0.0
  0
SPLINE
  5
368
330
1F
100
AcDbEntity
  8
0
  6
Continuous
 62
     7
370
    25
100
AcDbSpline
210
0.0
220
0.0
230
1.0
 70
     8
 71
     3
 72
    10
 73
     6
 74
     0
 42
0.000000001
 43
0.00000001
 40
0.0
 40
0.0
 40
0.0
 40
0.0
 40
0.2820406501341715
 40
0.5599771541584678
 40
1.0
 40
1.0
 40
1.0
 40
1.0
 10
127.2185456730769
 20
60.91897435895949
 30
0.0
 10
127.3132565603352
 20
60.92026195586567
 30
0.0
 10
127.5013001387679
 20
60.92281841306743
 30
0.0
 10
127.7646221824502
 20
61.1653136514944
 30
0.0
 10
127.7898952565588
 20
61.40598621164177
 30
0.0
 10
127.8053846153846
 20
61.55348958331846
 30
0.0
  0
LINE
  5
369
330
1F
100
AcDbEntity
  8
0
  6
Continuous
 62
     7
370
    25
100
AcDbLine
 10
94.94
 20
113.76
 30
0.0
 11
85.94
 21
113.76
 31
0.0
  0
CIRCLE
  5
36A
330
1F
100
AcDbEntity
  8
0
  6
Continuous
 62
     7
370
    25
100
AcDbCircle
 10
89.44
 20
106.56
 30
0.0
 40
3.25
  0
LINE
  5
36B
330
1F
100
AcDbEntity
  8
0
  6
Continuous
 62
     7
370
    25
100
AcDbLine
 10
85.94
 20
59.36
 30
0.0
 11
85.94
 21
113.76
 31
0.0
  0
LINE
  5
36C
330
1F
100
AcDbEntity
  8
0
  6
Continuous
 62
     7
370
    25
100
AcDbLine
 10
94.94
 20
113.76
 30
0.0
 11
94.94
 21
59.36
 31
0.0
  0
CIRCLE
  5
36D
330
1F
100
AcDbEntity
  8
0
  6
Continuous
 62
     7
370
    25
100
AcDbCircle
 10
89.44
 20
66.56
 30
0.0
 40
3.249999999999993
  0
LINE
  5
36E
330
1F
100
AcDbEntity
  8
0
  6
Continuous
 62
     7
370
    25
100
AcDbLine
 10
141.94
 20
59.06
 30
0.0
 11
102.94
 21
59.06
 31
0.0
  0
LINE
  5
36F
330
1F
100
AcDbEntity
  8
0
  6
Continuous
 62
     7
370
    25
100
AcDbLine
 10
102.94
 20
59.06
 30
0.0
 11
102.94
 21
59.36
 31
0.0
  0
LINE
  5
370
330
1F
100
AcDbEntity
  8
0
  6
Continuous
 62
     7
370
    25
100
AcDbLine
 10
141.94
 20
59.36
 30
0.0
 11
141.94
 21
59.06
 31
0.0
  0
LINE
  5
371
330
1F
100
AcDbEntity
  8
0
  6
Continuous
 62
     7
370
    25
100
AcDbLine
 10
133.4059455128
 20
62.0407692308
 30
0.0
 11
134.095849359
 21
62.0407692308
 31
0.0
  0
LINE
  5
372
330
1F
100
AcDbEntity
  8
0
  6
Continuous
 62
     7
370
    25
100
AcDbLine
 10
133.7508974359
 20
63.3855208333
 30
0.0
 11
133.4059455128
 21
62.0407692308
 31
0.0
  0
LINE
  5
373
330
1F
100
AcDbEntity
  8
0
  6
Continuous
 62
     7
370
    25
100
AcDbLine
 10
134.095849359
 20
62.0407692308
 30
0.0
 11
133.7508974359
 21
63.3855208333
 31
0.0
  0
LINE
  5
374
330
1F
100
AcDbEntity
  8
0
  6
Continuous
 62
     7
370
    25
100
AcDbLine
 10
102.94
 20
114.06
 30
0.0
 11
141.94
 21
114.06
 31
0.0
  0
LINE
  5
375
330
1F
100
AcDbEntity
  8
0
  6
Continuous
 62
     7
370
    25
100
AcDbLine
 10
102.94
 20
113.76
 30
0.0
 11
102.94
 21
114.06
 31
0.0
  0
LINE
  5
376
330
1F
100
AcDbEntity
  8
0
  6
Continuous
 62
     7
370
    25
100
AcDbLine
 10
141.94
 20
114.06
 30
0.0
 11
141.94
 21
113.76
 31
0.0
  0
LINE
  5
377
330
1F
100
AcDbEntity
  8
0
  6
Continuous
 62
     7
370
    25
100
AcDbLine
 10
85.94
 20
114.06
 30
0.0
 11
94.94
 21
114.06
 31
0.0
  0
LINE
  5
378
330
1F
100
AcDbEntity
  8
0
  6
Continuous
 62
     7
370
    25
100
AcDbLine
 10
85.94
 20
113.76
 30
0.0
 11
85.94
 21
114.06
 31
0.0
  0
LINE
  5
379
330
1F
100
AcDbEntity
  8
0
  6
Continuous
 62
     7
370
    25
100
AcDbLine
 10
94.94
 20
114.06
 30
0.0
 11
94.94
 21
113.76
 31
0.0
  0
LINE
  5
37A
330
1F
100
AcDbEntity
  8
0
  6
Continuous
 62
     7
370
    25
100
AcDbLine
 10
94.94
 20
59.06
 30
0.0
 11
102.94
 21
59.06
 31
0.0
  0
LINE
  5
37B
330
1F
100
AcDbEntity
  8
0
  6
Continuous
 62
     7
370
    25
100
AcDbLine
 10
102.94
 20
114.06
 30
0.0
 11
94.94
 21
114.06
 31
0.0
  0
DIMENSION
  5
37C
330
1F
100
AcDbEntity
  8
0
  6
Continuous
 62
     7
370
    18
100
AcDbDimension
  2
_D_12
 10
141.94
 20
49.06
 30
0.0
 11
120.44
 21
49.06
 31
0.0
 70
   160
  1
<>
 71
     2
 42
-1.0
  3
SLDDIMSTYLE0
100
AcDbAlignedDimension
 13
98.94
 23
57.06
 33
0.0
 14
141.94
 24
59.06
 34
0.0
100
AcDbRotatedDimension
  0
DIMENSION
  5
386
330
1F
100
AcDbEntity
  8
0
  6
Continuous
 62
     7
370
    18
100
AcDbDimension
  2
_D_13
 10
91.7449206687
 20
108.8512530875
 30
0.0
 11
75.8594809884
 21
93.06001
 31
0.0
 70
   163
  1
<>
 71
     1
 42
-1.0
  3
SLDDIMSTYLE5
100
AcDbDiametricDimension
 15
87.1350793313
 25
104.2687469125
 35
0.0
 40
0.0
  0
DIMENSION
  5
390
330
1F
100
AcDbEntity
  8
0
  6
Continuous
 62
     7
370
    18
100
AcDbDimension
  2
_D_14
 10
108.44
 20
124.06
 30
0.0
 11
98.94
 21
124.06
 31
0.0
 70
   160
  1
<>
 71
     2
 42
-1.0
  3
SLDDIMSTYLE2
100
AcDbAlignedDimension
 13
89.44
 23
112.31
 33
0.0
 14
108.44
 24
112.31
 34
0.0
100
AcDbRotatedDimension
  0
DIMENSION
  5
39A
330
1F
100
AcDbEntity
  8
0
  6
Continuous
 62
     7
370
    18
100
AcDbDimension
  2
_D_15
 10
63.94
 20
66.56
 30
0.0
 11
63.94
 21
86.56
 31
0.0
 70
   160
  1
<>
 71
     2
 42
-1.0
  3
SLDDIMSTYLE0
100
AcDbAlignedDimension
 13
83.69
 23
106.56
 33
0.0
 14
83.69
 24
66.56
 34
0.0
 50
90.0
100
AcDbRotatedDimension
  0
DIMENSION
  5
3A4
330
1F
100
AcDbEntity
  8
0
  6
Continuous
 62
     7
370
    18
100
AcDbDimension
  2
_D_16
 10
141.94
 20
124.06
 30
0.0
 11
125.19
 21
124.06
 31
0.0
 70
   160
  1
<>
 71
     2
 42
-1.0
  3
SLDDIMSTYLE6
100
AcDbAlignedDimension
 13
108.44
 23
112.31
 33
0.0
 14
141.94
 24
114.06
 34
0.0
100
AcDbRotatedDimension
  0
INSERT
  5
3BA
330
1F
100
AcDbEntity
  8
0
  6
Continuous
 62
     7
370
     0
100
AcDbBlockReference
  2
SW_CENTERMARKSYMBOL_3
 10
89.44
 20
106.56
 30
0.0
  0
INSERT
  5
3C6
330
1F
100
AcDbEntity
  8
0
  6
Continuous
 62
     7
370
     0
100
AcDbBlockReference
  2
SW_CENTERMARKSYMBOL_4
 10
108.44
 20
106.56
 30
0.0
  0
INSERT
  5
3D2
330
1F
100
AcDbEntity
  8
0
  6
Continuous
 62
     7
370
     0
100
AcDbBlockReference
  2
SW_CENTERMARKSYMBOL_5
 10
89.44
 20
66.56
 30
0.0
  0
INSERT
  5
3DE
330
1F
100
AcDbEntity
  8
0
  6
Continuous
 62
     7
370
     0
100
AcDbBlockReference
  2
SW_CENTERMARKSYMBOL_6
 10
108.44
 20
66.56
 30
0.0
  0
LINE
  5
3DF
330
1F
100
AcDbEntity
  8
0
  6
CENTERX2
 62
     7
370
    18
100
AcDbLine
 10
98.94
 20
57.06
 30
0.0
 11
98.94
 21
116.06
 31
0.0
  0
LINE
  5
3E0
330
1F
100
AcDbEntity
  8
0
  6
CENTERX2
 62
     7
370
    18
100
AcDbLine
 10
262.44
 20
86.56
 30
0.0
 11
121.94
 21
86.56
 31
0.0
  0
LINE
  5
3E1
330
1F
100
AcDbEntity
  8
0
  6
CENTERX2
 62
     7
370
    18
100
AcDbLine
 10
258.94
 20
86.56
 30
0.0
 11
267.64
 21
86.56
 31
0.0
  0
LINE
  5
3E2
330
1F
100
AcDbEntity
  8
0
  6
CENTERX2
 62
     7
370
    18
100
AcDbLine
 10
83.94
 20
86.56
 30
0.0
 11
104.94
 21
86.56
 31
0.0
  0
LINE
  5
3E3
330
1F
100
AcDbEntity
  8
0
  6
CENTERX2
 62
     7
370
    18
100
AcDbLine
 10
92.94
 20
86.56
 30
0.0
 11
143.94
 21
86.56
 31
0.0
  0
ENDSEC
  0
SECTION
  2
OBJECTS
  0
DICTIONARY
  5
C
330
0
100
AcDbDictionary
281
     1
  3
ACAD_GROUP
350
D
  3
ACAD_LAYOUT
350
1A
  3
ACAD_MLINESTYLE
350
17
  3
ACAD_PLOTSETTINGS
350
19
  3
ACAD_PLOTSTYLENAME
350
E
  3
ACAD_SCALELIST
350
47
  0
DICTIONARY
  5
D
102
{ACAD_REACTORS
330
C
102
}
330
C
100
AcDbDictionary
281
     1
  0
DICTIONARY
  5
1A
102
{ACAD_REACTORS
330
C
102
}
330
C
100
AcDbDictionary
281
     1
  3
Layout1
350
1E
  3
Layout2
350
26
  3
Model
350
22
  0
DICTIONARY
  5
17
102
{ACAD_REACTORS
330
C
102
}
330
C
100
AcDbDictionary
281
     1
  3
Standard
350
18
  0
DICTIONARY
  5
19
102
{ACAD_REACTORS
330
C
102
}
330
C
100
AcDbDictionary
281
     1
  0
ACDBDICTIONARYWDFLT
  5
E
102
{ACAD_REACTORS
330
C
102
}
330
C
100
AcDbDictionary
281
     1
  3
Normal
350
F
100
AcDbDictionaryWithDefault
340
F
  0
DICTIONARY
  5
47
102
{ACAD_REACTORS
330
C
102
}
330
C
100
AcDbDictionary
281
     1
  3
A0
350
48
  3
A1
350
49
  3
A2
350
4A
  3
A3
350
4B
  3
A4
350
4C
  3
A5
350
4D
  3
A6
350
4E
  3
A7
350
4F
  3
A8
350
50
  3
A9
350
51
  3
B0
350
52
  3
B1
350
53
  3
B2
350
54
  3
B3
350
55
  3
B4
350
56
  3
B5
350
57
  3
B6
350
58
  3
B7
350
59
  3
B8
350
5A
  3
B9
350
5B
  3
C0
350
5C
  3
C1
350
5D
  3
C2
350
5E
  3
C3
350
5F
  3
C4
350
60
  3
C5
350
61
  3
C6
350
62
  3
C7
350
63
  3
C8
350
64
  3
C9
350
65
  3
D0
350
66
  3
D1
350
67
  3
D2
350
68
  0
LAYOUT
  5
1E
102
{ACAD_REACTORS
330
1A
102
}
330
1A
100
AcDbPlotSettings
  1

  2
none_device
  4

  6

 40
0.0
 41
0.0
 42
0.0
 43
0.0
 44
0.0
 45
0.0
 46
0.0
 47
0.0
 48
0.0
 49
0.0
140
0.0
141
0.0
142
1.0
143
1.0
 70
   688
 72
     1
 73
     0
 74
     5
  7

 75
    16
147
1.0
148
0.0
149
0.0
100
AcDbLayout
  1
Layout1
 70
     1
 71
     1
 10
0.0
 20
0.0
 11
420.0
 21
297.0
 12
0.0
 22
0.0
 32
0.0
 14
1.0000000000E+20
 24
1.0000000000E+20
 34
1.0000000000E+20
 15
-1.0000000000E+20
 25
-1.0000000000E+20
 35
-1.0000000000E+20
146
0.0
 13
0.0
 23
0.0
 33
0.0
 16
1.0
 26
0.0
 36
0.0
 17
0.0
 27
1.0
 37
0.0
 76
     0
330
1B
  0
LAYOUT
  5
26
102
{ACAD_REACTORS
330
1A
102
}
330
1A
100
AcDbPlotSettings
  1

  2
none_device
  4

  6

 40
0.0
 41
0.0
 42
0.0
 43
0.0
 44
0.0
 45
0.0
 46
0.0
 47
0.0
 48
0.0
 49
0.0
140
0.0
141
0.0
142
1.0
143
1.0
 70
   688
 72
     1
 73
     0
 74
     5
  7

 75
    16
147
1.0
148
0.0
149
0.0
100
AcDbLayout
  1
Layout2
 70
     1
 71
     2
 10
0.0
 20
0.0
 11
0.0
 21
0.0
 12
0.0
 22
0.0
 32
0.0
 14
0.0
 24
0.0
 34
0.0
 15
0.0
 25
0.0
 35
0.0
146
0.0
 13
0.0
 23
0.0
 33
0.0
 16
1.0
 26
0.0
 36
0.0
 17
0.0
 27
1.0
 37
0.0
 76
     0
330
23
  0
LAYOUT
  5
22
102
{ACAD_REACTORS
330
1A
102
}
330
1A
100
AcDbPlotSettings
  1

  2
none_device
  4
Letter_(8.50_x_11.00_Inches)
  6

 40
6.35
 41
6.35
 42
6.35000508
 43
6.35000508
 44
215.9
 45
279.4
 46
0.0
 47
0.0
 48
0.0
 49
0.0
140
0.0
141
0.0
142
1.0
143
1.0
 70
  1712
 72
     1
 73
     0
 74
     0
  7

 75
     0
147
1.0
148
0.0
149
0.0
100
AcDbLayout
  1
Model
 70
     1
 71
     0
 10
0.0
 20
0.0
 11
420.0
 21
297.0
 12
0.0
 22
0.0
 32
0.0
 14
0.0
 24
0.0
 34
0.0
 15
420.0
 25
297.0
 35
0.0
146
0.0
 13
0.0
 23
0.0
 33
0.0
 16
1.0
 26
0.0
 36
0.0
 17
0.0
 27
1.0
 37
0.0
 76
     0
330
1F
331
29
  0
MLINESTYLE
  5
18
102
{ACAD_REACTORS
330
17
102
}
330
17
100
AcDbMlineStyle
  2
Standard
 70
     0
  3

 62
   256
 51
90.0
 52
90.0
 71
     2
 49
0.5
 62
   256
  6
BYLAYER
 49
-0.5
 62
   256
  6
BYLAYER
  0
ACDBPLACEHOLDER
  5
F
102
{ACAD_REACTORS
330
E
102
}
330
E
  0
SCALE
  5
48
102
{ACAD_REACTORS
330
47
102
}
330
47
100
AcDbScale
 70
     0
300
1:1
140
1.0
141
1.0
290
     1
  0
SCALE
  5
49
102
{ACAD_REACTORS
330
47
102
}
330
47
100
AcDbScale
 70
     0
300
1:2
140
1.0
141
2.0
290
     0
  0
SCALE
  5
4A
102
{ACAD_REACTORS
330
47
102
}
330
47
100
AcDbScale
 70
     0
300
1:4
140
1.0
141
4.0
290
     0
  0
SCALE
  5
4B
102
{ACAD_REACTORS
330
47
102
}
330
47
100
AcDbScale
 70
     0
300
1:5
140
1.0
141
5.0
290
     0
  0
SCALE
  5
4C
102
{ACAD_REACTORS
330
47
102
}
330
47
100
AcDbScale
 70
     0
300
1:8
140
1.0
141
8.0
290
     0
  0
SCALE
  5
4D
102
{ACAD_REACTORS
330
47
102
}
330
47
100
AcDbScale
 70
     0
300
1:10
140
1.0
141
10.0
290
     0
  0
SCALE
  5
4E
102
{ACAD_REACTORS
330
47
102
}
330
47
100
AcDbScale
 70
     0
300
1:16
140
1.0
141
16.0
290
     0
  0
SCALE
  5
4F
102
{ACAD_REACTORS
330
47
102
}
330
47
100
AcDbScale
 70
     0
300
1:20
140
1.0
141
20.0
290
     0
  0
SCALE
  5
50
102
{ACAD_REACTORS
330
47
102
}
330
47
100
AcDbScale
 70
     0
300
1:30
140
1.0
141
30.0
290
     0
  0
SCALE
  5
51
102
{ACAD_REACTORS
330
47
102
}
330
47
100
AcDbScale
 70
     0
300
1:40
140
1.0
141
40.0
290
     0
  0
SCALE
  5
52
102
{ACAD_REACTORS
330
47
102
}
330
47
100
AcDbScale
 70
     0
300
1:50
140
1.0
141
50.0
290
     0
  0
SCALE
  5
53
102
{ACAD_REACTORS
330
47
102
}
330
47
100
AcDbScale
 70
     0
300
1:100
140
1.0
141
100.0
290
     0
  0
SCALE
  5
54
102
{ACAD_REACTORS
330
47
102
}
330
47
100
AcDbScale
 70
     0
300
2:1
140
2.0
141
1.0
290
     0
  0
SCALE
  5
55
102
{ACAD_REACTORS
330
47
102
}
330
47
100
AcDbScale
 70
     0
300
4:1
140
4.0
141
1.0
290
     0
  0
SCALE
  5
56
102
{ACAD_REACTORS
330
47
102
}
330
47
100
AcDbScale
 70
     0
300
8:1
140
8.0
141
1.0
290
     0
  0
SCALE
  5
57
102
{ACAD_REACTORS
330
47
102
}
330
47
100
AcDbScale
 70
     0
300
10:1
140
10.0
141
1.0
290
     0
  0
SCALE
  5
58
102
{ACAD_REACTORS
330
47
102
}
330
47
100
AcDbScale
 70
     0
300
100:1
140
100.0
141
1.0
290
     0
  0
SCALE
  5
59
102
{ACAD_REACTORS
330
47
102
}
330
47
100
AcDbScale
 70
     0
300
1/128" = 1'-0"
140
0.0078125
141
12.0
290
     0
  0
SCALE
  5
5A
102
{ACAD_REACTORS
330
47
102
}
330
47
100
AcDbScale
 70
     0
300
1/64" = 1'-0"
140
0.015625
141
12.0
290
     0
  0
SCALE
  5
5B
102
{ACAD_REACTORS
330
47
102
}
330
47
100
AcDbScale
 70
     0
300
1/32" = 1'-0"
140
0.03125
141
12.0
290
     0
  0
SCALE
  5
5C
102
{ACAD_REACTORS
330
47
102
}
330
47
100
AcDbScale
 70
     0
300
1/16" = 1'-0"
140
0.0625
141
12.0
290
     0
  0
SCALE
  5
5D
102
{ACAD_REACTORS
330
47
102
}
330
47
100
AcDbScale
 70
     0
300
3/32" = 1'-0"
140
0.09375
141
12.0
290
     0
  0
SCALE
  5
5E
102
{ACAD_REACTORS
330
47
102
}
330
47
100
AcDbScale
 70
     0
300
1/8" = 1'-0"
140
0.125
141
12.0
290
     0
  0
SCALE
  5
5F
102
{ACAD_REACTORS
330
47
102
}
330
47
100
AcDbScale
 70
     0
300
3/16" = 1'-0"
140
0.1875
141
12.0
290
     0
  0
SCALE
  5
60
102
{ACAD_REACTORS
330
47
102
}
330
47
100
AcDbScale
 70
     0
300
1/4" = 1'-0"
140
0.25
141
12.0
290
     0
  0
SCALE
  5
61
102
{ACAD_REACTORS
330
47
102
}
330
47
100
AcDbScale
 70
     0
300
3/8" = 1'-0"
140
0.375
141
12.0
290
     0
  0
SCALE
  5
62
102
{ACAD_REACTORS
330
47
102
}
330
47
100
AcDbScale
 70
     0
300
1/2" = 1'-0"
140
0.5
141
12.0
290
     0
  0
SCALE
  5
63
102
{ACAD_REACTORS
330
47
102
}
330
47
100
AcDbScale
 70
     0
300
3/4" = 1'-0"
140
0.75
141
12.0
290
     0
  0
SCALE
  5
64
102
{ACAD_REACTORS
330
47
102
}
330
47
100
AcDbScale
 70
     0
300
1" = 1'-0"
140
1.0
141
12.0
290
     0
  0
SCALE
  5
65
102
{ACAD_REACTORS
330
47
102
}
330
47
100
AcDbScale
 70
     0
300
1-1/2" = 1'-0"
140
1.5
141
12.0
290
     0
  0
SCALE
  5
66
102
{ACAD_REACTORS
330
47
102
}
330
47
100
AcDbScale
 70
     0
300
3" = 1'-0"
140
3.0
141
12.0
290
     0
  0
SCALE
  5
67
102
{ACAD_REACTORS
330
47
102
}
330
47
100
AcDbScale
 70
     0
300
6" = 1'-0"
140
6.0
141
12.0
290
     0
  0
SCALE
  5
68
102
{ACAD_REACTORS
330
47
102
}
330
47
100
AcDbScale
 70
     0
300
1'-0" = 1'-0"
140
12.0
141
12.0
290
     0
  0
ENDSEC
  0
EOF
