  0
SECTION
  2
HEADER
  9
$ACADVER
  1
AC1015
  9
$ACADMAINTVER
 70
     6
  9
$DWGCODEPAGE
  3
ANSI_1250
  9
$INSBASE
 10
0.0
 20
0.0
 30
0.0
  9
$EXTMIN
 10
0.0
 20
0.0
 30
0.0
  9
$EXTMAX
 10
420.0
 20
297.0
 30
0.0
  9
$LIMMIN
 10
0.0
 20
0.0
  9
$LIMMAX
 10
420.0
 20
297.0
  9
$ORTHOMODE
 70
     0
  9
$REGENMODE
 70
     1
  9
$FILLMODE
 70
     1
  9
$QTEXTMODE
 70
     0
  9
$MIRRTEXT
 70
     1
  9
$LTSCALE
 40
1.0
  9
$ATTMODE
 70
     1
  9
$TEXTSIZE
 40
3.5
  9
$TRACEWID
 40
1.0
  9
$TEXTSTYLE
  7
Standard
  9
$CLAYER
  8
0
  9
$CELTYPE
  6
ByLayer
  9
$CECOLOR
 62
   256
  9
$CELTSCALE
 40
1.0
  9
$DISPSILH
 70
     0
  9
$DIMSCALE
 40
1.0
  9
$DIMASZ
 40
3.302
  9
$DIMEXO
 40
1.0
  9
$DIMDLI
 40
3.75
  9
$DIMRND
 40
0.0
  9
$DIMDLE
 40
0.0
  9
$DIMEXE
 40
1.0
  9
$DIMTP
 40
0.0
  9
$DIMTM
 40
0.0
  9
$DIMTXT
 40
3.5
  9
$DIMCEN
 40
2.5
  9
$DIMTSZ
 40
0.0
  9
$DIMTOL
 70
     0
  9
$DIMLIM
 70
     0
  9
$DIMTIH
 70
     1
  9
$DIMTOH
 70
     1
  9
$DIMSE1
 70
     0
  9
$DIMSE2
 70
     0
  9
$DIMTAD
 70
     1
  9
$DIMZIN
 70
     1
  9
$DIMBLK
  1

  9
$DIMASO
 70
     1
  9
$DIMSHO
 70
     1
  9
$DIMPOST
  1

  9
$DIMAPOST
  1

  9
$DIMALT
 70
     0
  9
$DIMALTD
 70
     3
  9
$DIMALTF
 40
0.0393700787
  9
$DIMLFAC
 40
1.0
  9
$DIMTOFL
 70
     1
  9
$DIMTVP
 40
0.0
  9
$DIMTIX
 70
     0
  9
$DIMSOXD
 70
     0
  9
$DIMSAH
 70
     0
  9
$DIMBLK1
  1

  9
$DIMBLK2
  1

  9
$DIMSTYLE
  2
ISO-25
  9
$DIMCLRD
 70
     0
  9
$DIMCLRE
 70
     0
  9
$DIMCLRT
 70
     0
  9
$DIMTFAC
 40
1.0
  9
$DIMGAP
 40
1.524
  9
$DIMJUST
 70
     0
  9
$DIMSD1
 70
     0
  9
$DIMSD2
 70
     0
  9
$DIMTOLJ
 70
     0
  9
$DIMTZIN
 70
     1
  9
$DIMALTZ
 70
     0
  9
$DIMALTTZ
 70
     0
  9
$DIMUPT
 70
     0
  9
$DIMDEC
 70
     2
  9
$DIMTDEC
 70
     2
  9
$DIMALTU
 70
     2
  9
$DIMALTTD
 70
     3
  9
$DIMTXSTY
  7
Standard
  9
$DIMAUNIT
 70
     0
  9
$DIMADEC
 70
     2
  9
$DIMALTRND
 40
0.0
  9
$DIMAZIN
 70
     0
  9
$DIMDSEP
 70
    44
  9
$DIMATFIT
 70
     3
  9
$DIMFRAC
 70
     0
  9
$DIMLDRBLK
  1

  9
$DIMLUNIT
 70
     2
  9
$DIMLWD
 70
    -2
  9
$DIMLWE
 70
    -2
  9
$DIMTMOVE
 70
     0
  9
$LUNITS
 70
     2
  9
$LUPREC
 70
     2
  9
$SKETCHINC
 40
1.0
  9
$FILLETRAD
 40
10.0
  9
$AUNITS
 70
     0
  9
$AUPREC
 70
     2
  9
$MENU
  1
.
  9
$ELEVATION
 40
0.0
  9
$PELEVATION
 40
0.0
  9
$THICKNESS
 40
0.0
  9
$LIMCHECK
 70
     0
  9
$CHAMFERA
 40
0.0
  9
$CHAMFERB
 40
0.0
  9
$CHAMFERC
 40
0.0
  9
$CHAMFERD
 40
0.0
  9
$SKPOLY
 70
     0
  9
$TDCREATE
 40
2460353.651896319
  9
$TDUCREATE
 40
2460353.610229653
  9
$TDUPDATE
 40
2460353.651899572
  9
$TDUUPDATE
 40
2460353.610232905
  9
$TDINDWG
 40
0.0000000116
  9
$TDUSRTIMER
 40
0.0000000116
  9
$USRTIMER
 70
     1
  9
$ANGBASE
 50
0.0
  9
$ANGDIR
 70
     0
  9
$PDMODE
 70
     0
  9
$PDSIZE
 40
-1.0
  9
$PLINEWID
 40
0.0
  9
$SPLFRAME
 70
     0
  9
$SPLINETYPE
 70
     6
  9
$SPLINESEGS
 70
     8
  9
$HANDSEED
  5
473
  9
$SURFTAB1
 70
     6
  9
$SURFTAB2
 70
     6
  9
$SURFTYPE
 70
     6
  9
$SURFU
 70
     6
  9
$SURFV
 70
     6
  9
$UCSBASE
  2

  9
$UCSNAME
  2

  9
$UCSORG
 10
0.0
 20
0.0
 30
0.0
  9
$UCSXDIR
 10
1.0
 20
0.0
 30
0.0
  9
$UCSYDIR
 10
0.0
 20
1.0
 30
0.0
  9
$UCSORTHOREF
  2

  9
$UCSORTHOVIEW
 70
     0
  9
$UCSORGTOP
 10
0.0
 20
0.0
 30
0.0
  9
$UCSORGBOTTOM
 10
0.0
 20
0.0
 30
0.0
  9
$UCSORGLEFT
 10
0.0
 20
0.0
 30
0.0
  9
$UCSORGRIGHT
 10
0.0
 20
0.0
 30
0.0
  9
$UCSORGFRONT
 10
0.0
 20
0.0
 30
0.0
  9
$UCSORGBACK
 10
0.0
 20
0.0
 30
0.0
  9
$PUCSBASE
  2

  9
$PUCSNAME
  2

  9
$PUCSORG
 10
0.0
 20
0.0
 30
0.0
  9
$PUCSXDIR
 10
1.0
 20
0.0
 30
0.0
  9
$PUCSYDIR
 10
0.0
 20
1.0
 30
0.0
  9
$PUCSORTHOREF
  2

  9
$PUCSORTHOVIEW
 70
     0
  9
$PUCSORGTOP
 10
0.0
 20
0.0
 30
0.0
  9
$PUCSORGBOTTOM
 10
0.0
 20
0.0
 30
0.0
  9
$PUCSORGLEFT
 10
0.0
 20
0.0
 30
0.0
  9
$PUCSORGRIGHT
 10
0.0
 20
0.0
 30
0.0
  9
$PUCSORGFRONT
 10
0.0
 20
0.0
 30
0.0
  9
$PUCSORGBACK
 10
0.0
 20
0.0
 30
0.0
  9
$USERI1
 70
     0
  9
$USERI2
 70
     0
  9
$USERI3
 70
     0
  9
$USERI4
 70
     0
  9
$USERI5
 70
     0
  9
$USERR1
 40
0.0
  9
$USERR2
 40
0.0
  9
$USERR3
 40
0.0
  9
$USERR4
 40
0.0
  9
$USERR5
 40
0.0
  9
$WORLDVIEW
 70
     1
  9
$SHADEDGE
 70
     3
  9
$SHADEDIF
 70
    70
  9
$TILEMODE
 70
     1
  9
$MAXACTVP
 70
    64
  9
$PINSBASE
 10
0.0
 20
0.0
 30
0.0
  9
$PLIMCHECK
 70
     0
  9
$PEXTMIN
 10
1.0000000000E+20
 20
1.0000000000E+20
 30
1.0000000000E+20
  9
$PEXTMAX
 10
-1.0000000000E+20
 20
-1.0000000000E+20
 30
-1.0000000000E+20
  9
$PLIMMIN
 10
0.0
 20
0.0
  9
$PLIMMAX
 10
420.0
 20
297.0
  9
$UNITMODE
 70
     0
  9
$VISRETAIN
 70
     1
  9
$PLINEGEN
 70
     0
  9
$PSLTSCALE
 70
     1
  9
$TREEDEPTH
 70
  3020
  9
$CMLSTYLE
  2
Standard
  9
$CMLJUST
 70
     0
  9
$CMLSCALE
 40
20.0
  9
$PROXYGRAPHICS
 70
     1
  9
$MEASUREMENT
 70
     1
  9
$CELWEIGHT
370
    -1
  9
$ENDCAPS
280
     0
  9
$JOINSTYLE
280
     0
  9
$LWDISPLAY
290
     1
  9
$INSUNITS
 70
     4
  9
$HYPERLINKBASE
  1

  9
$STYLESHEET
  1

  9
$XEDIT
290
     1
  9
$CEPSNTYPE
380
     0
  9
$PSTYLEMODE
290
     1
  9
$FINGERPRINTGUID
  2
{5e1f164d-0848-420d-881a-20cc353f7542}
  9
$VERSIONGUID
  2
{FAEB1C32-E019-11D5-929B-00C0DF256EC4}
  9
$EXTNAMES
290
     1
  9
$PSVPSCALE
 40
0.0
  9
$OLESTARTUP
290
     0
  0
ENDSEC
  0
SECTION
  2
CLASSES
  0
CLASS
  1
ACDBDICTIONARYWDFLT
  2
AcDbDictionaryWithDefault
  3
ObjectDBX Classes
 90
        0
280
     0
281
     0
  0
CLASS
  1
VISUALSTYLE
  2
AcDbVisualStyle
  3
ObjectDBX Classes
 90
     4095
280
     0
281
     0
  0
CLASS
  1
MATERIAL
  2
AcDbMaterial
  3
ObjectDBX Classes
 90
     1153
280
     0
281
     0
  0
CLASS
  1
SCALE
  2
AcDbScale
  3
ObjectDBX Classes
 90
     1153
280
     0
281
     0
  0
CLASS
  1
TABLESTYLE
  2
AcDbTableStyle
  3
ObjectDBX Classes
 90
     4095
280
     0
281
     0
  0
CLASS
  1
MLEADERSTYLE
  2
AcDbMLeaderStyle
  3
ACDB_MLEADERSTYLE_CLASS
 90
     4095
280
     0
281
     0
  0
CLASS
  1
SUN
  2
AcDbSun
  3
SCENEOE
 90
     1153
280
     0
281
     0
  0
CLASS
  1
ACDBPLACEHOLDER
  2
AcDbPlaceHolder
  3
ObjectDBX Classes
 90
        0
280
     0
281
     0
  0
CLASS
  1
LAYOUT
  2
AcDbLayout
  3
ObjectDBX Classes
 90
        0
280
     0
281
     0
  0
ENDSEC
  0
SECTION
  2
TABLES
  0
TABLE
  2
VPORT
  5
8
330
0
100
AcDbSymbolTable
 70
     1
  0
VPORT
  5
29
330
8
100
AcDbSymbolTableRecord
100
AcDbViewportTableRecord
  2
*Active
 70
     0
 10
0.0
 20
0.0
 11
1.0
 21
1.0
 12
210.0
 22
148.5
 13
0.0
 23
0.0
 14
10.0
 24
10.0
 15
10.0
 25
10.0
 16
0.0
 26
0.0
 36
1.0
 17
0.0
 27
0.0
 37
0.0
 40
297.0
 41
1.4141414141
 42
50.0
 43
0.0
 44
0.0
 50
0.0
 51
0.0
 71
     0
 72
  2000
 73
     1
 74
     3
 75
     0
 76
     0
 77
     0
 78
     0
281
     0
 65
     1
110
0.0
120
0.0
130
0.0
111
1.0
121
0.0
131
0.0
112
0.0
122
1.0
132
0.0
 79
     0
146
0.0
  0
ENDTAB
  0
TABLE
  2
LTYPE
  5
5
330
0
100
AcDbSymbolTable
 70
     6
  0
LTYPE
  5
14
330
5
100
AcDbSymbolTableRecord
100
AcDbLinetypeTableRecord
  2
ByBlock
 70
     0
  3

 72
    65
 73
     0
 40
0.0
  0
LTYPE
  5
15
330
5
100
AcDbSymbolTableRecord
100
AcDbLinetypeTableRecord
  2
ByLayer
 70
     0
  3

 72
    65
 73
     0
 40
0.0
  0
LTYPE
  5
16
330
5
100
AcDbSymbolTableRecord
100
AcDbLinetypeTableRecord
  2
Continuous
 70
     0
  3
Solid line
 72
    65
 73
     0
 40
0.0
  0
LTYPE
  5
6E
330
5
100
AcDbSymbolTableRecord
100
AcDbLinetypeTableRecord
  2
HIDDEN
 70
     0
  3
Hidden __ __ __ __ __ __ __ __ __ __ __ __ __ __
 72
    65
 73
     2
 40
1.905
 49
1.27
 74
     0
 49
-0.635
 74
     0
  0
LTYPE
  5
6F
330
5
100
AcDbSymbolTableRecord
100
AcDbLinetypeTableRecord
  2
PHANTOM
 70
     0
  3
Phantom ______  __  __  ______  __  __  ______
 72
    65
 73
     6
 40
12.7
 49
6.35
 74
     0
 49
-1.27
 74
     0
 49
1.27
 74
     0
 49
-1.27
 74
     0
 49
1.27
 74
     0
 49
-1.27
 74
     0
  0
LTYPE
  5
70
330
5
100
AcDbSymbolTableRecord
100
AcDbLinetypeTableRecord
  2
CENTER
 70
     0
  3
Center ____ _ ____ _ ____ _ ____ _ ____ _ ____
 72
    65
 73
     4
 40
10.16
 49
6.35
 74
     0
 49
-1.27
 74
     0
 49
1.27
 74
     0
 49
-1.27
 74
     0
  0
LTYPE
  5
71
330
5
100
AcDbSymbolTableRecord
100
AcDbLinetypeTableRecord
  2
CENTERX2
 70
     0
  3
Center (2x) ________  __  ________  __  _____
 72
    65
 73
     4
 40
20.32
 49
12.7
 74
     0
 49
-2.54
 74
     0
 49
2.54
 74
     0
 49
-2.54
 74
     0
  0
LTYPE
  5
72
330
5
100
AcDbSymbolTableRecord
100
AcDbLinetypeTableRecord
  2
DOT2
 70
     0
  3
Dot (.5x) ........................................
 72
    65
 73
     2
 40
0.635
 49
0.0
 74
     0
 49
-0.635
 74
     0
  0
ENDTAB
  0
TABLE
  2
LAYER
  5
2
330
0
100
AcDbSymbolTable
 70
     2
  0
LAYER
  5
10
330
2
100
AcDbSymbolTableRecord
100
AcDbLayerTableRecord
  2
0
 70
     0
 62
     7
  6
Continuous
370
    -3
390
F
  0
LAYER
  5
73
330
2
100
AcDbSymbolTableRecord
100
AcDbLayerTableRecord
  2
FORMAT
 70
     0
 62
     7
  6
Continuous
370
    -3
390
F
  0
ENDTAB
  0
TABLE
  2
STYLE
  5
3
330
0
100
AcDbSymbolTable
 70
     4
  0
STYLE
  5
11
330
3
100
AcDbSymbolTableRecord
100
AcDbTextStyleTableRecord
  2
Standard
 70
     0
 40
0.0
 41
1.0
 50
0.0
 71
     0
 42
3.5
  3
txt
  4

  0
STYLE
  5
B1
330
3
100
AcDbSymbolTableRecord
100
AcDbTextStyleTableRecord
  2
SLDTEXTSTYLE0
 70
     0
 40
0.0
 41
0.75
 50
0.0
 71
     0
 42
3.5
  3
TXT
  4

  0
STYLE
  5
D1
330
3
100
AcDbSymbolTableRecord
100
AcDbTextStyleTableRecord
  2
SLDTEXTSTYLE1
 70
     0
 40
0.0
 41
0.6875
 50
0.0
 71
     0
 42
3.5
  3
TXT
  4
bigfont
  0
STYLE
  5
D3
330
3
100
AcDbSymbolTableRecord
100
AcDbTextStyleTableRecord
  2
SLDTEXTSTYLE2
 70
     0
 40
0.0
 41
0.75
 50
0.0
 71
     0
 42
3.5
  3
TXT
  4
bigfont
  0
ENDTAB
  0
TABLE
  2
VIEW
  5
6
330
0
100
AcDbSymbolTable
 70
     0
  0
ENDTAB
  0
TABLE
  2
UCS
  5
7
330
0
100
AcDbSymbolTable
 70
     0
  0
ENDTAB
  0
TABLE
  2
APPID
  5
9
330
0
100
AcDbSymbolTable
 70
     1
  0
APPID
  5
12
330
9
100
AcDbSymbolTableRecord
100
AcDbRegAppTableRecord
  2
ACAD
 70
     0
  0
ENDTAB
  0
TABLE
  2
DIMSTYLE
  5
A
330
0
100
AcDbSymbolTable
 70
     8
100
AcDbDimStyleTable
  0
DIMSTYLE
105
27
330
A
100
AcDbSymbolTableRecord
100
AcDbDimStyleTableRecord
  2
ISO-25
 70
     0
 41
2.5
 42
0.625
 43
3.75
 44
1.25
 73
     0
 74
     0
 77
     1
 78
     8
140
2.5
141
2.5
143
0.0393700787
147
0.625
171
     3
172
     1
178
     0
271
     2
272
     2
274
     3
278
    44
283
     0
284
     8
340
11
  0
DIMSTYLE
105
121
102
{ACAD_REACTORS
330
120
330
12B
330
272
330
292
330
2B2
330
2BF
330
2CA
330
409
330
427
102
}
330
A
100
AcDbSymbolTableRecord
100
AcDbDimStyleTableRecord
  2
SLDDIMSTYLE0
 70
     0
 41
3.302
 44
0.0
 45
0.000000001
 73
     0
 74
     0
 77
     1
 78
    12
 79
     3
140
3.5
147
0.875
173
     1
178
     0
271
     0
272
     0
276
     2
284
    12
340
B1
  0
DIMSTYLE
105
136
102
{ACAD_REACTORS
330
135
102
}
330
A
100
AcDbSymbolTableRecord
100
AcDbDimStyleTableRecord
  2
SLDDIMSTYLE1
 70
     0
  3
<>
 41
3.302
 44
0.0
 45
0.000000001
 73
     0
 74
     0
 77
     1
 78
    12
 79
     3
140
3.5
141
0.0
147
0.875
172
     1
173
     1
178
     0
271
     1
272
     1
276
     2
284
    12
340
B1
341
137
343
137
  0
DIMSTYLE
105
142
102
{ACAD_REACTORS
330
141
330
27C
330
29D
330
41D
102
}
330
A
100
AcDbSymbolTableRecord
100
AcDbDimStyleTableRecord
  2
SLDDIMSTYLE2
 70
     0
 41
3.302
 44
0.0
 45
0.000000001
 73
     0
 74
     0
 77
     1
 78
    12
 79
     3
140
3.5
147
0.875
172
     1
173
     1
178
     0
271
     0
272
     0
276
     2
284
    12
289
     0
340
B1
  0
DIMSTYLE
105
289
102
{ACAD_REACTORS
330
288
102
}
330
A
100
AcDbSymbolTableRecord
100
AcDbDimStyleTableRecord
  2
SLDDIMSTYLE3
 70
     0
 41
3.302
 44
0.0
 45
0.000000001
 73
     0
 74
     0
 77
     1
 78
    12
 79
     3
140
3.5
141
0.0
147
0.875
172
     1
173
     1
178
     0
271
     1
272
     2
276
     2
284
    12
340
B1
341
137
343
137
  0
DIMSTYLE
105
2AA
102
{ACAD_REACTORS
330
2A9
102
}
330
A
100
AcDbSymbolTableRecord
100
AcDbDimStyleTableRecord
  2
SLDDIMSTYLE4
 70
     0
  3
<>
 41
3.302
 44
0.0
 45
0.000000001
 73
     0
 74
     0
 77
     1
 78
    12
 79
     3
140
3.5
141
0.0
147
0.875
172
     1
173
     1
178
     0
271
     2
272
     2
276
     2
284
    12
340
B1
341
137
343
137
  0
DIMSTYLE
105
414
102
{ACAD_REACTORS
330
413
102
}
330
A
100
AcDbSymbolTableRecord
100
AcDbDimStyleTableRecord
  2
SLDDIMSTYLE5
 70
     0
 41
3.302
 44
0.0
 45
0.000000001
 73
     0
 74
     0
 77
     1
 78
    12
 79
     3
140
3.5
141
0.0
147
0.875
172
     1
173
     1
178
     0
271
     1
272
     1
276
     2
284
    12
340
B1
341
137
343
137
  0
DIMSTYLE
105
432
102
{ACAD_REACTORS
330
431
102
}
330
A
100
AcDbSymbolTableRecord
100
AcDbDimStyleTableRecord
  2
SLDDIMSTYLE6
 70
     0
 41
3.302
 44
0.0
 45
0.000000001
 73
     0
 74
     0
 77
     1
 78
    12
 79
     3
140
3.5
147
0.875
173
     1
178
     0
271
     1
272
     1
276
     2
284
    12
340
B1
  0
ENDTAB
  0
TABLE
  2
BLOCK_RECORD
  5
1
330
0
100
AcDbSymbolTable
 70
    29
  0
BLOCK_RECORD
  5
1F
330
1
100
AcDbSymbolTableRecord
100
AcDbBlockTableRecord
  2
*Model_Space
340
22
  0
BLOCK_RECORD
  5
1B
330
1
100
AcDbSymbolTableRecord
100
AcDbBlockTableRecord
  2
*Paper_Space
340
1E
  0
BLOCK_RECORD
  5
23
330
1
100
AcDbSymbolTableRecord
100
AcDbBlockTableRecord
  2
*Paper_Space0
340
26
  0
BLOCK_RECORD
  5
DD
330
1
100
AcDbSymbolTableRecord
100
AcDbBlockTableRecord
  2
SW_NOTE_0
340
0
102
{BLKREFS
331
E2
102
}
  0
BLOCK_RECORD
  5
E4
330
1
100
AcDbSymbolTableRecord
100
AcDbBlockTableRecord
  2
SW_NOTE_0_1
340
0
102
{BLKREFS
331
ED
102
}
  0
BLOCK_RECORD
  5
122
330
1
100
AcDbSymbolTableRecord
100
AcDbBlockTableRecord
  2
_D
340
0
  0
BLOCK_RECORD
  5
12C
330
1
100
AcDbSymbolTableRecord
100
AcDbBlockTableRecord
  2
_D_1
340
0
  0
BLOCK_RECORD
  5
137
330
1
100
AcDbSymbolTableRecord
100
AcDbBlockTableRecord
  2
_None
340
0
  0
BLOCK_RECORD
  5
13A
330
1
100
AcDbSymbolTableRecord
100
AcDbBlockTableRecord
  2
_D_2
340
0
  0
BLOCK_RECORD
  5
143
330
1
100
AcDbSymbolTableRecord
100
AcDbBlockTableRecord
  2
_D_3
340
0
  0
BLOCK_RECORD
  5
14E
330
1
100
AcDbSymbolTableRecord
100
AcDbBlockTableRecord
  2
SW_CENTERMARKSYMBOL_0
340
0
102
{BLKREFS
331
159
102
}
  0
BLOCK_RECORD
  5
273
330
1
100
AcDbSymbolTableRecord
100
AcDbBlockTableRecord
  2
_D_4
340
0
  0
BLOCK_RECORD
  5
27D
330
1
100
AcDbSymbolTableRecord
100
AcDbBlockTableRecord
  2
_D_5
340
0
  0
BLOCK_RECORD
  5
28A
330
1
100
AcDbSymbolTableRecord
100
AcDbBlockTableRecord
  2
_D_6
340
0
  0
BLOCK_RECORD
  5
293
330
1
100
AcDbSymbolTableRecord
100
AcDbBlockTableRecord
  2
_D_7
340
0
  0
BLOCK_RECORD
  5
29E
330
1
100
AcDbSymbolTableRecord
100
AcDbBlockTableRecord
  2
_D_8
340
0
  0
BLOCK_RECORD
  5
2AB
330
1
100
AcDbSymbolTableRecord
100
AcDbBlockTableRecord
  2
_D_9
340
0
  0
BLOCK_RECORD
  5
2B3
330
1
100
AcDbSymbolTableRecord
100
AcDbBlockTableRecord
  2
_D_10
340
0
  0
BLOCK_RECORD
  5
2C0
330
1
100
AcDbSymbolTableRecord
100
AcDbBlockTableRecord
  2
_D_11
340
0
  0
BLOCK_RECORD
  5
2CB
330
1
100
AcDbSymbolTableRecord
100
AcDbBlockTableRecord
  2
_D_12
340
0
  0
BLOCK_RECORD
  5
2D5
330
1
100
AcDbSymbolTableRecord
100
AcDbBlockTableRecord
  2
SW_CENTERMARKSYMBOL_1
340
0
102
{BLKREFS
331
2E0
102
}
  0
BLOCK_RECORD
  5
2E1
330
1
100
AcDbSymbolTableRecord
100
AcDbBlockTableRecord
  2
SW_CENTERMARKSYMBOL_2
340
0
102
{BLKREFS
331
2EC
102
}
  0
BLOCK_RECORD
  5
40A
330
1
100
AcDbSymbolTableRecord
100
AcDbBlockTableRecord
  2
_D_13
340
0
  0
BLOCK_RECORD
  5
415
330
1
100
AcDbSymbolTableRecord
100
AcDbBlockTableRecord
  2
_D_14
340
0
  0
BLOCK_RECORD
  5
41E
330
1
100
AcDbSymbolTableRecord
100
AcDbBlockTableRecord
  2
_D_15
340
0
  0
BLOCK_RECORD
  5
428
330
1
100
AcDbSymbolTableRecord
100
AcDbBlockTableRecord
  2
_D_16
340
0
  0
BLOCK_RECORD
  5
433
330
1
100
AcDbSymbolTableRecord
100
AcDbBlockTableRecord
  2
_D_17
340
0
  0
BLOCK_RECORD
  5
43C
330
1
100
AcDbSymbolTableRecord
100
AcDbBlockTableRecord
  2
SW_CENTERMARKSYMBOL_3
340
0
102
{BLKREFS
331
447
102
}
  0
BLOCK_RECORD
  5
448
330
1
100
AcDbSymbolTableRecord
100
AcDbBlockTableRecord
  2
SW_CENTERMARKSYMBOL_4
340
0
102
{BLKREFS
331
453
102
}
  0
BLOCK_RECORD
  5
454
330
1
100
AcDbSymbolTableRecord
100
AcDbBlockTableRecord
  2
SW_CENTERMARKSYMBOL_5
340
0
102
{BLKREFS
331
45F
102
}
  0
BLOCK_RECORD
  5
460
330
1
100
AcDbSymbolTableRecord
100
AcDbBlockTableRecord
  2
SW_CENTERMARKSYMBOL_6
340
0
102
{BLKREFS
331
46B
102
}
  0
ENDTAB
  0
ENDSEC
  0
SECTION
  2
BLOCKS
  0
BLOCK
  5
20
330
1F
100
AcDbEntity
  8
0
100
AcDbBlockBegin
  2
*Model_Space
 70
     0
 10
0.0
 20
0.0
 30
0.0
  3
*Model_Space
  1

  0
ENDBLK
  5
21
330
1F
100
AcDbEntity
  8
0
100
AcDbBlockEnd
  0
BLOCK
  5
1C
330
1B
100
AcDbEntity
 67
     1
  8
0
100
AcDbBlockBegin
  2
*Paper_Space
 70
     0
 10
0.0
 20
0.0
 30
0.0
  3
*Paper_Space
  1

  0
ENDBLK
  5
1D
330
1B
100
AcDbEntity
 67
     1
  8
0
100
AcDbBlockEnd
  0
BLOCK
  5
24
330
23
100
AcDbEntity
  8
0
100
AcDbBlockBegin
  2
*Paper_Space0
 70
     0
 10
0.0
 20
0.0
 30
0.0
  3
*Paper_Space0
  1

  0
ENDBLK
  5
25
330
23
100
AcDbEntity
  8
0
100
AcDbBlockEnd
  0
BLOCK
  5
DE
330
DD
100
AcDbEntity
  8
0
100
AcDbBlockBegin
  2
SW_NOTE_0
 70
     0
 10
0.0
 20
0.0
 30
0.0
  3
SW_NOTE_0
  1

  0
MTEXT
  5
E0
330
DD
100
AcDbEntity
  8
0
  6
Continuous
 62
     0
370
     0
100
AcDbMText
 10
0.0
 20
1.9336016097
 30
0.0
 40
1.5
 41
0.0
 71
     1
 72
     1
  1
ODSTRANIT
  7
SLDTEXTSTYLE0
 73
     1
 44
1.0
  0
MTEXT
  5
E1
330
DD
100
AcDbEntity
  8
0
  6
Continuous
 62
     0
370
     0
100
AcDbMText
 10
0.0
 20
-0.5663983345
 30
0.0
 40
1.5
 41
0.0
 71
     1
 72
     1
  1
OSTRÉ HRANY
  7
SLDTEXTSTYLE0
 73
     1
 44
1.0
  0
ENDBLK
  5
DF
330
DD
100
AcDbEntity
  8
0
100
AcDbBlockEnd
  0
BLOCK
  5
E5
330
E4
100
AcDbEntity
  8
0
100
AcDbBlockBegin
  2
SW_NOTE_0_1
 70
     0
 10
0.0
 20
0.0
 30
0.0
  3
SW_NOTE_0_1
  1

  0
MTEXT
  5
E7
330
E4
100
AcDbEntity
  8
0
  6
Continuous
 62
     0
370
     0
100
AcDbMText
 10
0.0
 20
1.9336016097
 30
0.0
 40
1.5
 41
0.0
 71
     1
 72
     1
  1
POKUD NENÍ UVEDENO JINAK:
  7
SLDTEXTSTYLE0
 73
     1
 44
1.0
  0
MTEXT
  5
E8
330
E4
100
AcDbEntity
  8
0
  6
Continuous
 62
     0
370
     0
100
AcDbMText
 10
0.0
 20
-0.5663983345
 30
0.0
 40
1.5
 41
0.0
 71
     1
 72
     1
  1
JEDNOTKY JSOU V MILIMETRECH
  7
SLDTEXTSTYLE0
 73
     1
 44
1.0
  0
MTEXT
  5
E9
330
E4
100
AcDbEntity
  8
0
  6
Continuous
 62
     0
370
     0
100
AcDbMText
 10
0.0
 20
-3.0663982786
 30
0.0
 40
1.5
 41
0.0
 71
     1
 72
     1
  1
DRSNOST:
  7
SLDTEXTSTYLE0
 73
     1
 44
1.0
  0
MTEXT
  5
EA
330
E4
100
AcDbEntity
  8
0
  6
Continuous
 62
     0
370
     0
100
AcDbMText
 10
0.0
 20
-5.5663982227
 30
0.0
 40
1.5
 41
0.0
 71
     1
 72
     1
  1
TOLERANCE:
  7
SLDTEXTSTYLE0
 73
     1
 44
1.0
  0
MTEXT
  5
EB
330
E4
100
AcDbEntity
  8
0
  6
Continuous
 62
     0
370
     0
100
AcDbMText
 10
1.6875
 20
-8.0663981668
 30
0.0
 40
1.5
 41
0.0
 71
     1
 72
     1
  1
LINEÁRNÍ:
  7
SLDTEXTSTYLE0
 73
     1
 44
1.0
  0
MTEXT
  5
EC
330
E4
100
AcDbEntity
  8
0
  6
Continuous
 62
     0
370
     0
100
AcDbMText
 10
1.6875
 20
-10.5663981109
 30
0.0
 40
1.5
 41
0.0
 71
     1
 72
     1
  1
ÚHLOVÁ:
  7
SLDTEXTSTYLE0
 73
     1
 44
1.0
  0
ENDBLK
  5
E6
330
E4
100
AcDbEntity
  8
0
100
AcDbBlockEnd
  0
BLOCK
  5
123
330
122
100
AcDbEntity
  8
0
100
AcDbBlockBegin
  2
_D
 70
     0
 10
0.0
 20
0.0
 30
0.0
  3
_D
  1

  0
SOLID
  5
125
330
122
100
AcDbEntity
  8
0
  6
Continuous
 62
     7
370
    18
100
AcDbTrace
 10
85.94
 20
179.06
 30
0.0
 11
86.448
 21
182.362
 31
0.0
 12
85.432
 22
182.362
 32
0.0
 13
85.432
 23
182.362
 33
0.0
  0
SOLID
  5
126
330
122
100
AcDbEntity
  8
0
  6
Continuous
 62
     7
370
    18
100
AcDbTrace
 10
85.94
 20
214.06
 30
0.0
 11
85.432
 21
210.758
 31
0.0
 12
86.448
 22
210.758
 32
0.0
 13
86.448
 23
210.758
 33
0.0
  0
LINE
  5
127
330
122
100
AcDbEntity
  8
0
  6
Continuous
 62
     7
370
     0
100
AcDbLine
 10
95.24
 20
179.06
 30
0.0
 11
84.94
 21
179.06
 31
0.0
  0
LINE
  5
128
330
122
100
AcDbEntity
  8
0
  6
Continuous
 62
     7
370
     0
100
AcDbLine
 10
95.24
 20
214.06
 30
0.0
 11
84.94
 21
214.06
 31
0.0
  0
LINE
  5
129
330
122
100
AcDbEntity
  8
0
  6
Continuous
 62
     7
370
     0
100
AcDbLine
 10
85.94
 20
179.06
 30
0.0
 11
85.94
 21
214.06
 31
0.0
  0
MTEXT
  5
12A
330
122
100
AcDbEntity
  8
0
  6
Continuous
 62
     7
370
    18
100
AcDbMText
 10
81.4282630854
 20
193.9738888065
 30
0.0
 40
3.5
 41
0.0
 71
     1
 72
     1
  1
35
  7
SLDTEXTSTYLE0
 11
6.123233995736766E-17
 21
1.0
 31
0.0
 73
     1
 44
1.0
  0
ENDBLK
  5
124
330
122
100
AcDbEntity
  8
0
100
AcDbBlockEnd
  0
BLOCK
  5
12D
330
12C
100
AcDbEntity
  8
0
100
AcDbBlockBegin
  2
_D_1
 70
     0
 10
0.0
 20
0.0
 30
0.0
  3
_D_1
  1

  0
SOLID
  5
12F
330
12C
100
AcDbEntity
  8
0
  6
Continuous
 62
     7
370
    18
100
AcDbTrace
 10
150.94
 20
224.06
 30
0.0
 11
147.638
 21
224.568
 31
0.0
 12
147.638
 22
223.552
 32
0.0
 13
147.638
 23
223.552
 33
0.0
  0
SOLID
  5
130
330
12C
100
AcDbEntity
  8
0
  6
Continuous
 62
     7
370
    18
100
AcDbTrace
 10
95.94
 20
224.06
 30
0.0
 11
99.242
 21
223.552
 31
0.0
 12
99.242
 22
224.568
 32
0.0
 13
99.242
 23
224.568
 33
0.0
  0
LINE
  5
131
330
12C
100
AcDbEntity
  8
0
  6
Continuous
 62
     7
370
     0
100
AcDbLine
 10
150.94
 20
214.76
 30
0.0
 11
150.94
 21
225.06
 31
0.0
  0
LINE
  5
132
330
12C
100
AcDbEntity
  8
0
  6
Continuous
 62
     7
370
     0
100
AcDbLine
 10
95.94
 20
214.76
 30
0.0
 11
95.94
 21
225.06
 31
0.0
  0
LINE
  5
133
330
12C
100
AcDbEntity
  8
0
  6
Continuous
 62
     7
370
     0
100
AcDbLine
 10
150.94
 20
224.06
 30
0.0
 11
95.94
 21
224.06
 31
0.0
  0
MTEXT
  5
134
330
12C
100
AcDbEntity
  8
0
  6
Continuous
 62
     7
370
    18
100
AcDbMText
 10
120.8538888065
 20
228.5717369146
 30
0.0
 40
3.5
 41
0.0
 71
     1
 72
     1
  1
55
  7
SLDTEXTSTYLE0
 73
     1
 44
1.0
  0
ENDBLK
  5
12E
330
12C
100
AcDbEntity
  8
0
100
AcDbBlockEnd
  0
BLOCK
  5
138
330
137
100
AcDbEntity
  8
0
100
AcDbBlockBegin
  2
_None
 70
     0
 10
0.0
 20
0.0
 30
0.0
  3
_None
  1

  0
ENDBLK
  5
139
330
137
100
AcDbEntity
  8
0
100
AcDbBlockEnd
  0
BLOCK
  5
13B
330
13A
100
AcDbEntity
  8
0
100
AcDbBlockBegin
  2
_D_2
 70
     0
 10
0.0
 20
0.0
 30
0.0
  3
_D_2
  1

  0
SOLID
  5
13D
330
13A
100
AcDbEntity
  8
0
  6
Continuous
 62
     7
370
    18
100
AcDbTrace
 10
126.6573358544
 20
193.3426641456
 30
0.0
 11
128.632992201
 21
190.6485873093
 31
0.0
 12
129.3514126907
 22
191.367007799
 32
0.0
 13
129.3514126907
 23
191.367007799
 33
0.0
  0
LINE
  5
13E
330
13A
100
AcDbEntity
  8
0
  6
Continuous
 62
     7
370
     0
100
AcDbLine
 10
126.6573358544
 20
193.3426641456
 30
0.0
 11
157.2927456269
 21
162.7072543731
 31
0.0
  0
LINE
  5
13F
330
13A
100
AcDbEntity
  8
0
  6
Continuous
 62
     7
370
     0
100
AcDbLine
 10
126.6573358544
 20
193.3426641456
 30
0.0
 11
120.2226641456
 21
199.7773358544
 31
0.0
  0
MTEXT
  5
140
330
13A
100
AcDbEntity
  8
0
  6
Continuous
 62
     7
370
    18
100
AcDbMText
 10
147.632749085
 20
178.73782456
 30
0.0
 40
3.5
 41
0.0
 71
     1
 72
     1
  1
M10x1.5
  7
SLDTEXTSTYLE0
 11
0.7071067811865575
 21
-0.7071067811865377
 31
0.0
 73
     1
 44
1.0
  0
ENDBLK
  5
13C
330
13A
100
AcDbEntity
  8
0
100
AcDbBlockEnd
  0
BLOCK
  5
144
330
143
100
AcDbEntity
  8
0
100
AcDbBlockBegin
  2
_D_3
 70
     0
 10
0.0
 20
0.0
 30
0.0
  3
_D_3
  1

  0
SOLID
  5
146
330
143
100
AcDbEntity
  8
0
  6
Continuous
 62
     7
370
    18
100
AcDbTrace
 10
155.84
 20
224.06
 30
0.0
 11
159.142
 21
223.552
 31
0.0
 12
159.142
 22
224.568
 32
0.0
 13
159.142
 23
224.568
 33
0.0
  0
SOLID
  5
147
330
143
100
AcDbEntity
  8
0
  6
Continuous
 62
     7
370
    18
100
AcDbTrace
 10
150.94
 20
224.06
 30
0.0
 11
147.638
 21
224.568
 31
0.0
 12
147.638
 22
223.552
 32
0.0
 13
147.638
 23
223.552
 33
0.0
  0
LINE
  5
148
330
143
100
AcDbEntity
  8
0
  6
Continuous
 62
     7
370
     0
100
AcDbLine
 10
155.84
 20
206.06
 30
0.0
 11
155.84
 21
225.06
 31
0.0
  0
LINE
  5
149
330
143
100
AcDbEntity
  8
0
  6
Continuous
 62
     7
370
     0
100
AcDbLine
 10
150.94
 20
214.76
 30
0.0
 11
150.94
 21
225.06
 31
0.0
  0
LINE
  5
14A
330
143
100
AcDbEntity
  8
0
  6
Continuous
 62
     7
370
     0
100
AcDbLine
 10
155.84
 20
224.06
 30
0.0
 11
166.0691667903
 21
224.06
 31
0.0
  0
LINE
  5
14B
330
143
100
AcDbEntity
  8
0
  6
Continuous
 62
     7
370
     0
100
AcDbLine
 10
155.84
 20
224.06
 30
0.0
 11
150.94
 21
224.06
 31
0.0
  0
LINE
  5
14C
330
143
100
AcDbEntity
  8
0
  6
Continuous
 62
     7
370
     0
100
AcDbLine
 10
150.94
 20
224.06
 30
0.0
 11
144.59
 21
224.06
 31
0.0
  0
MTEXT
  5
14D
330
143
100
AcDbEntity
  8
0
  6
Continuous
 62
     7
370
    18
100
AcDbMText
 10
163.4830555968
 20
228.5717369146
 30
0.0
 40
3.5
 41
0.0
 71
     1
 72
     1
  1
5
  7
SLDTEXTSTYLE0
 73
     1
 44
1.0
  0
ENDBLK
  5
145
330
143
100
AcDbEntity
  8
0
100
AcDbBlockEnd
  0
BLOCK
  5
14F
330
14E
100
AcDbEntity
  8
0
100
AcDbBlockBegin
  2
SW_CENTERMARKSYMBOL_0
 70
     0
 10
0.0
 20
0.0
 30
0.0
  3
SW_CENTERMARKSYMBOL_0
  1

  0
LINE
  5
151
330
14E
100
AcDbEntity
  8
0
  6
Continuous
 62
     0
370
    18
100
AcDbLine
 10
0.0
 20
0.0
 30
0.0
 11
0.0
 21
2.5
 31
0.0
  0
LINE
  5
152
330
14E
100
AcDbEntity
  8
0
  6
Continuous
 62
     0
370
    18
100
AcDbLine
 10
0.0
 20
0.0
 30
0.0
 11
-2.5
 21
0.0
 31
0.0
  0
LINE
  5
153
330
14E
100
AcDbEntity
  8
0
  6
Continuous
 62
     0
370
    18
100
AcDbLine
 10
0.0
 20
0.0
 30
0.0
 11
0.0
 21
-2.5
 31
0.0
  0
LINE
  5
154
330
14E
100
AcDbEntity
  8
0
  6
Continuous
 62
     0
370
    18
100
AcDbLine
 10
0.0
 20
0.0
 30
0.0
 11
2.5
 21
0.0
 31
0.0
  0
LINE
  5
155
330
14E
100
AcDbEntity
  8
0
  6
Continuous
 62
     0
370
    18
100
AcDbLine
 10
0.0
 20
5.0
 30
0.0
 11
0.0
 21
16.0
 31
0.0
  0
LINE
  5
156
330
14E
100
AcDbEntity
  8
0
  6
Continuous
 62
     0
370
    18
100
AcDbLine
 10
-5.0
 20
0.0
 30
0.0
 11
-16.0
 21
0.0
 31
0.0
  0
LINE
  5
157
330
14E
100
AcDbEntity
  8
0
  6
Continuous
 62
     0
370
    18
100
AcDbLine
 10
0.0
 20
-5.0
 30
0.0
 11
0.0
 21
-16.0
 31
0.0
  0
LINE
  5
158
330
14E
100
AcDbEntity
  8
0
  6
Continuous
 62
     0
370
    18
100
AcDbLine
 10
5.0
 20
0.0
 30
0.0
 11
16.0
 21
0.0
 31
0.0
  0
ENDBLK
  5
150
330
14E
100
AcDbEntity
  8
0
100
AcDbBlockEnd
  0
BLOCK
  5
274
330
273
100
AcDbEntity
  8
0
100
AcDbBlockBegin
  2
_D_4
 70
     0
 10
0.0
 20
0.0
 30
0.0
  3
_D_4
  1

  0
SOLID
  5
276
330
273
100
AcDbEntity
  8
0
  6
Continuous
 62
     7
370
    18
100
AcDbTrace
 10
240.94
 20
157.06
 30
0.0
 11
244.242
 21
156.552
 31
0.0
 12
244.242
 22
157.568
 32
0.0
 13
244.242
 23
157.568
 33
0.0
  0
SOLID
  5
277
330
273
100
AcDbEntity
  8
0
  6
Continuous
 62
     7
370
    18
100
AcDbTrace
 10
296.94
 20
157.06
 30
0.0
 11
293.638
 21
157.568
 31
0.0
 12
293.638
 22
156.552
 32
0.0
 13
293.638
 23
156.552
 33
0.0
  0
LINE
  5
278
330
273
100
AcDbEntity
  8
0
  6
Continuous
 62
     7
370
     0
100
AcDbLine
 10
240.94
 20
178.06
 30
0.0
 11
240.94
 21
156.06
 31
0.0
  0
LINE
  5
279
330
273
100
AcDbEntity
  8
0
  6
Continuous
 62
     7
370
     0
100
AcDbLine
 10
296.94
 20
178.06
 30
0.0
 11
296.94
 21
156.06
 31
0.0
  0
LINE
  5
27A
330
273
100
AcDbEntity
  8
0
  6
Continuous
 62
     7
370
     0
100
AcDbLine
 10
240.94
 20
157.06
 30
0.0
 11
296.94
 21
157.06
 31
0.0
  0
MTEXT
  5
27B
330
273
100
AcDbEntity
  8
0
  6
Continuous
 62
     7
370
    18
100
AcDbMText
 10
266.3538888065
 20
161.5717369146
 30
0.0
 40
3.5
 41
0.0
 71
     1
 72
     1
  1
56
  7
SLDTEXTSTYLE0
 73
     1
 44
1.0
  0
ENDBLK
  5
275
330
273
100
AcDbEntity
  8
0
100
AcDbBlockEnd
  0
BLOCK
  5
27E
330
27D
100
AcDbEntity
  8
0
100
AcDbBlockBegin
  2
_D_5
 70
     0
 10
0.0
 20
0.0
 30
0.0
  3
_D_5
  1

  0
SOLID
  5
280
330
27D
100
AcDbEntity
  8
0
  6
Continuous
 62
     7
370
    18
100
AcDbTrace
 10
296.94
 20
224.06
 30
0.0
 11
293.638
 21
224.568
 31
0.0
 12
293.638
 22
223.552
 32
0.0
 13
293.638
 23
223.552
 33
0.0
  0
SOLID
  5
281
330
27D
100
AcDbEntity
  8
0
  6
Continuous
 62
     7
370
    18
100
AcDbTrace
 10
299.94
 20
224.06
 30
0.0
 11
303.242
 21
223.552
 31
0.0
 12
303.242
 22
224.568
 32
0.0
 13
303.242
 23
224.568
 33
0.0
  0
LINE
  5
282
330
27D
100
AcDbEntity
  8
0
  6
Continuous
 62
     7
370
     0
100
AcDbLine
 10
296.94
 20
215.06
 30
0.0
 11
296.94
 21
225.06
 31
0.0
  0
LINE
  5
283
330
27D
100
AcDbEntity
  8
0
  6
Continuous
 62
     7
370
     0
100
AcDbLine
 10
299.94
 20
211.56
 30
0.0
 11
299.94
 21
225.06
 31
0.0
  0
LINE
  5
284
330
27D
100
AcDbEntity
  8
0
  6
Continuous
 62
     7
370
     0
100
AcDbLine
 10
296.94
 20
224.06
 30
0.0
 11
290.59
 21
224.06
 31
0.0
  0
LINE
  5
285
330
27D
100
AcDbEntity
  8
0
  6
Continuous
 62
     7
370
     0
100
AcDbLine
 10
296.94
 20
224.06
 30
0.0
 11
299.94
 21
224.06
 31
0.0
  0
LINE
  5
286
330
27D
100
AcDbEntity
  8
0
  6
Continuous
 62
     7
370
     0
100
AcDbLine
 10
299.94
 20
224.06
 30
0.0
 11
313.4018058404
 21
224.06
 31
0.0
  0
MTEXT
  5
287
330
27D
100
AcDbEntity
  8
0
  6
Continuous
 62
     7
370
    18
100
AcDbMText
 10
310.8156946469
 20
228.5717369146
 30
0.0
 40
3.5
 41
0.0
 71
     1
 72
     1
  1
3
  7
SLDTEXTSTYLE0
 73
     1
 44
1.0
  0
ENDBLK
  5
27F
330
27D
100
AcDbEntity
  8
0
100
AcDbBlockEnd
  0
BLOCK
  5
28B
330
28A
100
AcDbEntity
  8
0
100
AcDbBlockBegin
  2
_D_6
 70
     0
 10
0.0
 20
0.0
 30
0.0
  3
_D_6
  1

  0
SOLID
  5
28D
330
28A
100
AcDbEntity
  8
0
  6
Continuous
 62
     7
370
    18
100
AcDbTrace
 10
250.5561165235
 20
197.4438834765
 30
0.0
 11
248.5804601769
 21
200.1379603128
 31
0.0
 12
247.8620396872
 22
199.4195398231
 32
0.0
 13
247.8620396872
 23
199.4195398231
 33
0.0
  0
LINE
  5
28E
330
28A
100
AcDbEntity
  8
0
  6
Continuous
 62
     7
370
     0
100
AcDbLine
 10
250.5561165235
 20
197.4438834765
 30
0.0
 11
226.8832431131
 21
221.1167568869
 31
0.0
  0
LINE
  5
28F
330
28A
100
AcDbEntity
  8
0
  6
Continuous
 62
     7
370
     0
100
AcDbLine
 10
250.5561165235
 20
197.4438834765
 30
0.0
 11
252.3238834765
 21
195.6761165235
 31
0.0
  0
MTEXT
  5
290
330
28A
100
AcDbEntity
  8
0
  6
Continuous
 62
     7
370
    18
100
AcDbMText
 10
230.0643054519
 20
224.2978192258
 30
0.0
 40
3.5
 41
0.0
 71
     1
 72
     1
  1
%%c
  7
SLDTEXTSTYLE0
 11
0.7071067811865422
 21
-0.7071067811865528
 31
0.0
 73
     1
 44
1.0
  0
MTEXT
  5
291
330
28A
100
AcDbEntity
  8
0
  6
Continuous
 62
     7
370
    18
100
AcDbMText
 10
233.8345348691
 20
220.603210886
 30
0.0
 40
3.5
 41
0.0
 71
     1
 72
     1
  1
2,5
  7
SLDTEXTSTYLE0
 11
0.7071067811865422
 21
-0.7071067811865528
 31
0.0
 73
     1
 44
1.0
  0
ENDBLK
  5
28C
330
28A
100
AcDbEntity
  8
0
100
AcDbBlockEnd
  0
BLOCK
  5
294
330
293
100
AcDbEntity
  8
0
100
AcDbBlockBegin
  2
_D_7
 70
     0
 10
0.0
 20
0.0
 30
0.0
  3
_D_7
  1

  0
SOLID
  5
296
330
293
100
AcDbEntity
  8
0
  6
Continuous
 62
     7
370
    18
100
AcDbTrace
 10
249.94
 20
169.06
 30
0.0
 11
253.242
 21
168.552
 31
0.0
 12
253.242
 22
169.568
 32
0.0
 13
253.242
 23
169.568
 33
0.0
  0
SOLID
  5
297
330
293
100
AcDbEntity
  8
0
  6
Continuous
 62
     7
370
    18
100
AcDbTrace
 10
257.94
 20
169.06
 30
0.0
 11
254.638
 21
169.568
 31
0.0
 12
254.638
 22
168.552
 32
0.0
 13
254.638
 23
168.552
 33
0.0
  0
LINE
  5
298
330
293
100
AcDbEntity
  8
0
  6
Continuous
 62
     7
370
     0
100
AcDbLine
 10
249.94
 20
178.06
 30
0.0
 11
249.94
 21
168.06
 31
0.0
  0
LINE
  5
299
330
293
100
AcDbEntity
  8
0
  6
Continuous
 62
     7
370
     0
100
AcDbLine
 10
257.94
 20
178.06
 30
0.0
 11
257.94
 21
168.06
 31
0.0
  0
LINE
  5
29A
330
293
100
AcDbEntity
  8
0
  6
Continuous
 62
     7
370
     0
100
AcDbLine
 10
249.94
 20
169.06
 30
0.0
 11
236.4781941596
 21
169.06
 31
0.0
  0
LINE
  5
29B
330
293
100
AcDbEntity
  8
0
  6
Continuous
 62
     7
370
     0
100
AcDbLine
 10
249.94
 20
169.06
 30
0.0
 11
257.94
 21
169.06
 31
0.0
  0
MTEXT
  5
29C
330
293
100
AcDbEntity
  8
0
  6
Continuous
 62
     7
370
    18
100
AcDbMText
 10
236.4781941596
 20
173.5717369146
 30
0.0
 40
3.5
 41
0.0
 71
     1
 72
     1
  1
8
  7
SLDTEXTSTYLE0
 73
     1
 44
1.0
  0
ENDBLK
  5
295
330
293
100
AcDbEntity
  8
0
100
AcDbBlockEnd
  0
BLOCK
  5
29F
330
29E
100
AcDbEntity
  8
0
100
AcDbBlockBegin
  2
_D_8
 70
     0
 10
0.0
 20
0.0
 30
0.0
  3
_D_8
  1

  0
SOLID
  5
2A1
330
29E
100
AcDbEntity
  8
0
  6
Continuous
 62
     7
370
    18
100
AcDbTrace
 10
218.94
 20
179.06
 30
0.0
 11
218.432
 21
175.758
 31
0.0
 12
219.448
 22
175.758
 32
0.0
 13
219.448
 23
175.758
 33
0.0
  0
SOLID
  5
2A2
330
29E
100
AcDbEntity
  8
0
  6
Continuous
 62
     7
370
    18
100
AcDbTrace
 10
218.94
 20
181.06
 30
0.0
 11
219.448
 21
184.362
 31
0.0
 12
218.432
 22
184.362
 32
0.0
 13
218.432
 23
184.362
 33
0.0
  0
LINE
  5
2A3
330
29E
100
AcDbEntity
  8
0
  6
Continuous
 62
     7
370
     0
100
AcDbLine
 10
239.94
 20
179.06
 30
0.0
 11
217.94
 21
179.06
 31
0.0
  0
LINE
  5
2A4
330
29E
100
AcDbEntity
  8
0
  6
Continuous
 62
     7
370
     0
100
AcDbLine
 10
248.94
 20
181.06
 30
0.0
 11
217.94
 21
181.06
 31
0.0
  0
LINE
  5
2A5
330
29E
100
AcDbEntity
  8
0
  6
Continuous
 62
     7
370
     0
100
AcDbLine
 10
218.94
 20
179.06
 30
0.0
 11
218.94
 21
165.5981941596
 31
0.0
  0
LINE
  5
2A6
330
29E
100
AcDbEntity
  8
0
  6
Continuous
 62
     7
370
     0
100
AcDbLine
 10
218.94
 20
179.06
 30
0.0
 11
218.94
 21
181.06
 31
0.0
  0
LINE
  5
2A7
330
29E
100
AcDbEntity
  8
0
  6
Continuous
 62
     7
370
     0
100
AcDbLine
 10
218.94
 20
181.06
 30
0.0
 11
218.94
 21
187.41
 31
0.0
  0
MTEXT
  5
2A8
330
29E
100
AcDbEntity
  8
0
  6
Continuous
 62
     7
370
    18
100
AcDbMText
 10
214.4282630854
 20
165.5981941596
 30
0.0
 40
3.5
 41
0.0
 71
     1
 72
     1
  1
2
  7
SLDTEXTSTYLE0
 11
6.123233995736766E-17
 21
1.0
 31
0.0
 73
     1
 44
1.0
  0
ENDBLK
  5
2A0
330
29E
100
AcDbEntity
  8
0
100
AcDbBlockEnd
  0
BLOCK
  5
2AC
330
2AB
100
AcDbEntity
  8
0
100
AcDbBlockBegin
  2
_D_9
 70
     0
 10
0.0
 20
0.0
 30
0.0
  3
_D_9
  1

  0
SOLID
  5
2AE
330
2AB
100
AcDbEntity
  8
0
  6
Continuous
 62
     7
370
    18
100
AcDbTrace
 10
245.7415528431
 20
199.85
 30
0.0
 11
243.1359369598
 21
201.9409409051
 31
0.0
 12
242.6279369598
 22
201.0610590949
 32
0.0
 13
242.6279369598
 23
201.0610590949
 33
0.0
  0
LINE
  5
2AF
330
2AB
100
AcDbEntity
  8
0
  6
Continuous
 62
     7
370
     0
100
AcDbLine
 10
245.7415528431
 20
199.85
 30
0.0
 11
209.8912498128
 21
220.5481821051
 31
0.0
  0
LINE
  5
2B0
330
2AB
100
AcDbEntity
  8
0
  6
Continuous
 62
     7
370
     0
100
AcDbLine
 10
245.7415528431
 20
199.85
 30
0.0
 11
257.1384471569
 21
193.27
 31
0.0
  0
MTEXT
  5
2B1
330
2AB
100
AcDbEntity
  8
0
  6
Continuous
 62
     7
370
    18
100
AcDbMText
 10
212.1444139044
 20
224.4507767894
 30
0.0
 40
3.5
 41
0.0
 71
     1
 72
     1
  1
1/4
  7
SLDTEXTSTYLE0
 11
0.8660254037844356
 21
-0.5000000000000052
 31
0.0
 73
     1
 44
1.0
  0
ENDBLK
  5
2AD
330
2AB
100
AcDbEntity
  8
0
100
AcDbBlockEnd
  0
BLOCK
  5
2B4
330
2B3
100
AcDbEntity
  8
0
100
AcDbBlockBegin
  2
_D_10
 70
     0
 10
0.0
 20
0.0
 30
0.0
  3
_D_10
  1

  0
SOLID
  5
2B6
330
2B3
100
AcDbEntity
  8
0
  6
Continuous
 62
     7
370
    18
100
AcDbTrace
 10
476.94
 20
187.56
 30
0.0
 11
477.448
 21
190.862
 31
0.0
 12
476.432
 22
190.862
 32
0.0
 13
476.432
 23
190.862
 33
0.0
  0
SOLID
  5
2B7
330
2B3
100
AcDbEntity
  8
0
  6
Continuous
 62
     7
370
    18
100
AcDbTrace
 10
476.94
 20
205.56
 30
0.0
 11
476.432
 21
202.258
 31
0.0
 12
477.448
 22
202.258
 32
0.0
 13
477.448
 23
202.258
 33
0.0
  0
LINE
  5
2B8
330
2B3
100
AcDbEntity
  8
0
  6
Continuous
 62
     7
370
     0
100
AcDbLine
 10
416.44
 20
187.56
 30
0.0
 11
477.94
 21
187.56
 31
0.0
  0
LINE
  5
2B9
330
2B3
100
AcDbEntity
  8
0
  6
Continuous
 62
     7
370
     0
100
AcDbLine
 10
416.44
 20
205.56
 30
0.0
 11
477.94
 21
205.56
 31
0.0
  0
LINE
  5
2BA
330
2B3
100
AcDbEntity
  8
0
  6
Continuous
 62
     7
370
     0
100
AcDbLine
 10
476.94
 20
187.56
 30
0.0
 11
476.94
 21
182.322
 31
0.0
  0
LINE
  5
2BB
330
2B3
100
AcDbEntity
  8
0
  6
Continuous
 62
     7
370
     0
100
AcDbLine
 10
476.94
 20
180.798
 30
0.0
 11
476.94
 21
172.7133521732
 31
0.0
  0
LINE
  5
2BC
330
2B3
100
AcDbEntity
  8
0
  6
Continuous
 62
     7
370
     0
100
AcDbLine
 10
476.94
 20
187.56
 30
0.0
 11
476.94
 21
205.56
 31
0.0
  0
MTEXT
  5
2BD
330
2B3
100
AcDbEntity
  8
0
  6
Continuous
 62
     7
370
    18
100
AcDbMText
 10
472.4282629108
 20
172.7133521732
 30
0.0
 40
3.5
 41
0.0
 71
     1
 72
     1
  1
%%c
  7
SLDTEXTSTYLE0
 11
6.123233995736766E-17
 21
1.0
 31
0.0
 73
     1
 44
1.0
  0
MTEXT
  5
2BE
330
2B3
100
AcDbEntity
  8
0
  6
Continuous
 62
     7
370
    18
100
AcDbMText
 10
472.3747907341
 20
177.9917895715
 30
0.0
 40
3.5
 41
0.0
 71
     1
 72
     1
  1
18
  7
SLDTEXTSTYLE0
 11
6.123233995736766E-17
 21
1.0
 31
0.0
 73
     1
 44
1.0
  0
ENDBLK
  5
2B5
330
2B3
100
AcDbEntity
  8
0
100
AcDbBlockEnd
  0
BLOCK
  5
2C1
330
2C0
100
AcDbEntity
  8
0
100
AcDbBlockBegin
  2
_D_11
 70
     0
 10
0.0
 20
0.0
 30
0.0
  3
_D_11
  1

  0
SOLID
  5
2C3
330
2C0
100
AcDbEntity
  8
0
  6
Continuous
 62
     7
370
    18
100
AcDbTrace
 10
488.94
 20
211.56
 30
0.0
 11
488.432
 21
208.258
 31
0.0
 12
489.448
 22
208.258
 32
0.0
 13
489.448
 23
208.258
 33
0.0
  0
SOLID
  5
2C4
330
2C0
100
AcDbEntity
  8
0
  6
Continuous
 62
     7
370
    18
100
AcDbTrace
 10
488.94
 20
181.56
 30
0.0
 11
489.448
 21
184.862
 31
0.0
 12
488.432
 22
184.862
 32
0.0
 13
488.432
 23
184.862
 33
0.0
  0
LINE
  5
2C5
330
2C0
100
AcDbEntity
  8
0
  6
Continuous
 62
     7
370
     0
100
AcDbLine
 10
299.94
 20
211.56
 30
0.0
 11
489.94
 21
211.56
 31
0.0
  0
LINE
  5
2C6
330
2C0
100
AcDbEntity
  8
0
  6
Continuous
 62
     7
370
     0
100
AcDbLine
 10
299.94
 20
181.56
 30
0.0
 11
489.94
 21
181.56
 31
0.0
  0
LINE
  5
2C7
330
2C0
100
AcDbEntity
  8
0
  6
Continuous
 62
     7
370
     0
100
AcDbLine
 10
488.94
 20
211.56
 30
0.0
 11
488.94
 21
181.56
 31
0.0
  0
MTEXT
  5
2C8
330
2C0
100
AcDbEntity
  8
0
  6
Continuous
 62
     7
370
    18
100
AcDbMText
 10
484.4282629108
 20
191.3346698745
 30
0.0
 40
3.5
 41
0.0
 71
     1
 72
     1
  1
%%c
  7
SLDTEXTSTYLE0
 11
-7.044195017643634E-15
 21
1.0
 31
0.0
 73
     1
 44
1.0
  0
MTEXT
  5
2C9
330
2C0
100
AcDbEntity
  8
0
  6
Continuous
 62
     7
370
    18
100
AcDbMText
 10
484.3747907341
 20
196.6131072728
 30
0.0
 40
3.5
 41
0.0
 71
     1
 72
     1
  1
30
  7
SLDTEXTSTYLE0
 11
-7.044195017643634E-15
 21
1.0
 31
0.0
 73
     1
 44
1.0
  0
ENDBLK
  5
2C2
330
2C0
100
AcDbEntity
  8
0
100
AcDbBlockEnd
  0
BLOCK
  5
2CC
330
2CB
100
AcDbEntity
  8
0
100
AcDbBlockBegin
  2
_D_12
 70
     0
 10
0.0
 20
0.0
 30
0.0
  3
_D_12
  1

  0
SOLID
  5
2CE
330
2CB
100
AcDbEntity
  8
0
  6
Continuous
 62
     7
370
    18
100
AcDbTrace
 10
296.94
 20
169.06
 30
0.0
 11
300.242
 21
168.552
 31
0.0
 12
300.242
 22
169.568
 32
0.0
 13
300.242
 23
169.568
 33
0.0
  0
SOLID
  5
2CF
330
2CB
100
AcDbEntity
  8
0
  6
Continuous
 62
     7
370
    18
100
AcDbTrace
 10
420.94
 20
169.06
 30
0.0
 11
417.638
 21
169.568
 31
0.0
 12
417.638
 22
168.552
 32
0.0
 13
417.638
 23
168.552
 33
0.0
  0
LINE
  5
2D0
330
2CB
100
AcDbEntity
  8
0
  6
Continuous
 62
     7
370
     0
100
AcDbLine
 10
296.94
 20
178.06
 30
0.0
 11
296.94
 21
168.06
 31
0.0
  0
LINE
  5
2D1
330
2CB
100
AcDbEntity
  8
0
  6
Continuous
 62
     7
370
     0
100
AcDbLine
 10
420.94
 20
188.06
 30
0.0
 11
420.94
 21
168.06
 31
0.0
  0
LINE
  5
2D2
330
2CB
100
AcDbEntity
  8
0
  6
Continuous
 62
     7
370
     0
100
AcDbLine
 10
296.94
 20
169.06
 30
0.0
 11
420.94
 21
169.06
 31
0.0
  0
LINE
  5
2D3
330
2CB
100
AcDbEntity
  8
0
  6
Continuous
 62
     7
370
     0
100
AcDbLine
 10
420.94
 20
169.06
 30
0.0
 11
592.4775033639
 21
169.06
 31
0.0
  0
MTEXT
  5
2D4
330
2CB
100
AcDbEntity
  8
0
  6
Continuous
 62
     7
370
    18
100
AcDbMText
 10
584.7191700162
 20
173.5717369146
 30
0.0
 40
3.5
 41
0.0
 71
     1
 72
     1
  1
124
  7
SLDTEXTSTYLE0
 73
     1
 44
1.0
  0
ENDBLK
  5
2CD
330
2CB
100
AcDbEntity
  8
0
100
AcDbBlockEnd
  0
BLOCK
  5
2D6
330
2D5
100
AcDbEntity
  8
0
100
AcDbBlockBegin
  2
SW_CENTERMARKSYMBOL_1
 70
     0
 10
0.0
 20
0.0
 30
0.0
  3
SW_CENTERMARKSYMBOL_1
  1

  0
LINE
  5
2D8
330
2D5
100
AcDbEntity
  8
0
  6
Continuous
 62
     0
370
    18
100
AcDbLine
 10
0.0
 20
0.0
 30
0.0
 11
0.0
 21
2.5
 31
0.0
  0
LINE
  5
2D9
330
2D5
100
AcDbEntity
  8
0
  6
Continuous
 62
     0
370
    18
100
AcDbLine
 10
0.0
 20
0.0
 30
0.0
 11
-2.5
 21
0.0
 31
0.0
  0
LINE
  5
2DA
330
2D5
100
AcDbEntity
  8
0
  6
Continuous
 62
     0
370
    18
100
AcDbLine
 10
0.0
 20
0.0
 30
0.0
 11
0.0
 21
-2.5
 31
0.0
  0
LINE
  5
2DB
330
2D5
100
AcDbEntity
  8
0
  6
Continuous
 62
     0
370
    18
100
AcDbLine
 10
0.0
 20
0.0
 30
0.0
 11
2.5
 21
0.0
 31
0.0
  0
LINE
  5
2DC
330
2D5
100
AcDbEntity
  8
0
  6
Continuous
 62
     0
370
    18
100
AcDbLine
 10
0.0
 20
5.0
 30
0.0
 11
0.0
 21
12.5
 31
0.0
  0
LINE
  5
2DD
330
2D5
100
AcDbEntity
  8
0
  6
Continuous
 62
     0
370
    18
100
AcDbLine
 10
-5.0
 20
0.0
 30
0.0
 11
-12.5
 21
0.0
 31
0.0
  0
LINE
  5
2DE
330
2D5
100
AcDbEntity
  8
0
  6
Continuous
 62
     0
370
    18
100
AcDbLine
 10
0.0
 20
-5.0
 30
0.0
 11
0.0
 21
-12.5
 31
0.0
  0
LINE
  5
2DF
330
2D5
100
AcDbEntity
  8
0
  6
Continuous
 62
     0
370
    18
100
AcDbLine
 10
5.0
 20
0.0
 30
0.0
 11
12.5
 21
0.0
 31
0.0
  0
ENDBLK
  5
2D7
330
2D5
100
AcDbEntity
  8
0
100
AcDbBlockEnd
  0
BLOCK
  5
2E2
330
2E1
100
AcDbEntity
  8
0
100
AcDbBlockBegin
  2
SW_CENTERMARKSYMBOL_2
 70
     0
 10
0.0
 20
0.0
 30
0.0
  3
SW_CENTERMARKSYMBOL_2
  1

  0
LINE
  5
2E4
330
2E1
100
AcDbEntity
  8
0
  6
Continuous
 62
     0
370
    18
100
AcDbLine
 10
0.0
 20
0.0
 30
0.0
 11
0.0
 21
2.5
 31
0.0
  0
LINE
  5
2E5
330
2E1
100
AcDbEntity
  8
0
  6
Continuous
 62
     0
370
    18
100
AcDbLine
 10
0.0
 20
0.0
 30
0.0
 11
-2.5
 21
0.0
 31
0.0
  0
LINE
  5
2E6
330
2E1
100
AcDbEntity
  8
0
  6
Continuous
 62
     0
370
    18
100
AcDbLine
 10
0.0
 20
0.0
 30
0.0
 11
0.0
 21
-2.5
 31
0.0
  0
LINE
  5
2E7
330
2E1
100
AcDbEntity
  8
0
  6
Continuous
 62
     0
370
    18
100
AcDbLine
 10
0.0
 20
0.0
 30
0.0
 11
2.5
 21
0.0
 31
0.0
  0
LINE
  5
2E8
330
2E1
100
AcDbEntity
  8
0
  6
Continuous
 62
     0
370
    18
100
AcDbLine
 10
0.0
 20
5.0
 30
0.0
 11
0.0
 21
12.5
 31
0.0
  0
LINE
  5
2E9
330
2E1
100
AcDbEntity
  8
0
  6
Continuous
 62
     0
370
    18
100
AcDbLine
 10
-5.0
 20
0.0
 30
0.0
 11
-12.5
 21
0.0
 31
0.0
  0
LINE
  5
2EA
330
2E1
100
AcDbEntity
  8
0
  6
Continuous
 62
     0
370
    18
100
AcDbLine
 10
0.0
 20
-5.0
 30
0.0
 11
0.0
 21
-12.5
 31
0.0
  0
LINE
  5
2EB
330
2E1
100
AcDbEntity
  8
0
  6
Continuous
 62
     0
370
    18
100
AcDbLine
 10
5.0
 20
0.0
 30
0.0
 11
12.5
 21
0.0
 31
0.0
  0
ENDBLK
  5
2E3
330
2E1
100
AcDbEntity
  8
0
100
AcDbBlockEnd
  0
BLOCK
  5
40B
330
40A
100
AcDbEntity
  8
0
100
AcDbBlockBegin
  2
_D_13
 70
     0
 10
0.0
 20
0.0
 30
0.0
  3
_D_13
  1

  0
SOLID
  5
40D
330
40A
100
AcDbEntity
  8
0
  6
Continuous
 62
     7
370
    18
100
AcDbTrace
 10
98.94
 20
44.16
 30
0.0
 11
102.242
 21
43.652
 31
0.0
 12
102.242
 22
44.668
 32
0.0
 13
102.242
 23
44.668
 33
0.0
  0
SOLID
  5
40E
330
40A
100
AcDbEntity
  8
0
  6
Continuous
 62
     7
370
    18
100
AcDbTrace
 10
141.94
 20
44.16
 30
0.0
 11
138.638
 21
44.668
 31
0.0
 12
138.638
 22
43.652
 32
0.0
 13
138.638
 23
43.652
 33
0.0
  0
LINE
  5
40F
330
40A
100
AcDbEntity
  8
0
  6
Continuous
 62
     7
370
     0
100
AcDbLine
 10
98.94
 20
56.06
 30
0.0
 11
98.94
 21
43.16
 31
0.0
  0
LINE
  5
410
330
40A
100
AcDbEntity
  8
0
  6
Continuous
 62
     7
370
     0
100
AcDbLine
 10
141.94
 20
58.06
 30
0.0
 11
141.94
 21
43.16
 31
0.0
  0
LINE
  5
411
330
40A
100
AcDbEntity
  8
0
  6
Continuous
 62
     7
370
     0
100
AcDbLine
 10
98.94
 20
44.16
 30
0.0
 11
141.94
 21
44.16
 31
0.0
  0
MTEXT
  5
412
330
40A
100
AcDbEntity
  8
0
  6
Continuous
 62
     7
370
    18
100
AcDbMText
 10
117.8538888065
 20
48.6717369146
 30
0.0
 40
3.5
 41
0.0
 71
     1
 72
     1
  1
43
  7
SLDTEXTSTYLE0
 73
     1
 44
1.0
  0
ENDBLK
  5
40C
330
40A
100
AcDbEntity
  8
0
100
AcDbBlockEnd
  0
BLOCK
  5
416
330
415
100
AcDbEntity
  8
0
100
AcDbBlockBegin
  2
_D_14
 70
     0
 10
0.0
 20
0.0
 30
0.0
  3
_D_14
  1

  0
SOLID
  5
418
330
415
100
AcDbEntity
  8
0
  6
Continuous
 62
     7
370
    18
100
AcDbTrace
 10
87.1350793313
 20
104.2687469125
 30
0.0
 11
84.4351394493
 21
102.3011106063
 31
0.0
 12
85.1514204145
 22
101.5805569449
 32
0.0
 13
85.1514204145
 23
101.5805569449
 33
0.0
  0
LINE
  5
419
330
415
100
AcDbEntity
  8
0
  6
Continuous
 62
     7
370
     0
100
AcDbLine
 10
87.1350793313
 20
104.2687469125
 30
0.0
 11
71.838495954
 21
89.0628683038
 31
0.0
  0
LINE
  5
41A
330
415
100
AcDbEntity
  8
0
  6
Continuous
 62
     7
370
     0
100
AcDbLine
 10
87.1350793313
 20
104.2687469125
 30
0.0
 11
91.7449206687
 21
108.8512530875
 31
0.0
  0
MTEXT
  5
41B
330
415
100
AcDbEntity
  8
0
  6
Continuous
 62
     7
370
    18
100
AcDbMText
 10
68.678594835
 20
92.2416185868
 30
0.0
 40
3.5
 41
0.0
 71
     1
 72
     1
  1
%%c
  7
SLDTEXTSTYLE0
 11
0.7092063596044048
 21
0.7050009499969965
 31
0.0
 73
     1
 44
1.0
  0
MTEXT
  5
41C
330
415
100
AcDbEntity
  8
0
  6
Continuous
 62
     7
370
    18
100
AcDbMText
 10
72.3843982713
 20
96.0008447749
 30
0.0
 40
3.5
 41
0.0
 71
     1
 72
     1
  1
6,5
  7
SLDTEXTSTYLE0
 11
0.7092063596044048
 21
0.7050009499969965
 31
0.0
 73
     1
 44
1.0
  0
ENDBLK
  5
417
330
415
100
AcDbEntity
  8
0
100
AcDbBlockEnd
  0
BLOCK
  5
41F
330
41E
100
AcDbEntity
  8
0
100
AcDbBlockBegin
  2
_D_15
 70
     0
 10
0.0
 20
0.0
 30
0.0
  3
_D_15
  1

  0
SOLID
  5
421
330
41E
100
AcDbEntity
  8
0
  6
Continuous
 62
     7
370
    18
100
AcDbTrace
 10
89.44
 20
124.06
 30
0.0
 11
92.742
 21
123.552
 31
0.0
 12
92.742
 22
124.568
 32
0.0
 13
92.742
 23
124.568
 33
0.0
  0
SOLID
  5
422
330
41E
100
AcDbEntity
  8
0
  6
Continuous
 62
     7
370
    18
100
AcDbTrace
 10
108.44
 20
124.06
 30
0.0
 11
105.138
 21
124.568
 31
0.0
 12
105.138
 22
123.552
 32
0.0
 13
105.138
 23
123.552
 33
0.0
  0
LINE
  5
423
330
41E
100
AcDbEntity
  8
0
  6
Continuous
 62
     7
370
     0
100
AcDbLine
 10
89.44
 20
113.31
 30
0.0
 11
89.44
 21
125.06
 31
0.0
  0
LINE
  5
424
330
41E
100
AcDbEntity
  8
0
  6
Continuous
 62
     7
370
     0
100
AcDbLine
 10
108.44
 20
113.31
 30
0.0
 11
108.44
 21
125.06
 31
0.0
  0
LINE
  5
425
330
41E
100
AcDbEntity
  8
0
  6
Continuous
 62
     7
370
     0
100
AcDbLine
 10
89.44
 20
124.06
 30
0.0
 11
108.44
 21
124.06
 31
0.0
  0
MTEXT
  5
426
330
41E
100
AcDbEntity
  8
0
  6
Continuous
 62
     7
370
    18
100
AcDbMText
 10
96.3538888065
 20
128.5717369146
 30
0.0
 40
3.5
 41
0.0
 71
     1
 72
     1
  1
19
  7
SLDTEXTSTYLE0
 73
     1
 44
1.0
  0
ENDBLK
  5
420
330
41E
100
AcDbEntity
  8
0
100
AcDbBlockEnd
  0
BLOCK
  5
429
330
428
100
AcDbEntity
  8
0
100
AcDbBlockBegin
  2
_D_16
 70
     0
 10
0.0
 20
0.0
 30
0.0
  3
_D_16
  1

  0
SOLID
  5
42B
330
428
100
AcDbEntity
  8
0
  6
Continuous
 62
     7
370
    18
100
AcDbTrace
 10
63.94
 20
106.56
 30
0.0
 11
63.432
 21
103.258
 31
0.0
 12
64.448
 22
103.258
 32
0.0
 13
64.448
 23
103.258
 33
0.0
  0
SOLID
  5
42C
330
428
100
AcDbEntity
  8
0
  6
Continuous
 62
     7
370
    18
100
AcDbTrace
 10
63.94
 20
66.56
 30
0.0
 11
64.448
 21
69.862
 31
0.0
 12
63.432
 22
69.862
 32
0.0
 13
63.432
 23
69.862
 33
0.0
  0
LINE
  5
42D
330
428
100
AcDbEntity
  8
0
  6
Continuous
 62
     7
370
     0
100
AcDbLine
 10
82.69
 20
106.56
 30
0.0
 11
62.94
 21
106.56
 31
0.0
  0
LINE
  5
42E
330
428
100
AcDbEntity
  8
0
  6
Continuous
 62
     7
370
     0
100
AcDbLine
 10
82.69
 20
66.56
 30
0.0
 11
62.94
 21
66.56
 31
0.0
  0
LINE
  5
42F
330
428
100
AcDbEntity
  8
0
  6
Continuous
 62
     7
370
     0
100
AcDbLine
 10
63.94
 20
106.56
 30
0.0
 11
63.94
 21
66.56
 31
0.0
  0
MTEXT
  5
430
330
428
100
AcDbEntity
  8
0
  6
Continuous
 62
     7
370
    18
100
AcDbMText
 10
59.4282630854
 20
83.9738888065
 30
0.0
 40
3.5
 41
0.0
 71
     1
 72
     1
  1
40
  7
SLDTEXTSTYLE0
 11
-7.044195017643634E-15
 21
1.0
 31
0.0
 73
     1
 44
1.0
  0
ENDBLK
  5
42A
330
428
100
AcDbEntity
  8
0
100
AcDbBlockEnd
  0
BLOCK
  5
434
330
433
100
AcDbEntity
  8
0
100
AcDbBlockBegin
  2
_D_17
 70
     0
 10
0.0
 20
0.0
 30
0.0
  3
_D_17
  1

  0
SOLID
  5
436
330
433
100
AcDbEntity
  8
0
  6
Continuous
 62
     7
370
    18
100
AcDbTrace
 10
108.44
 20
124.06
 30
0.0
 11
111.742
 21
123.552
 31
0.0
 12
111.742
 22
124.568
 32
0.0
 13
111.742
 23
124.568
 33
0.0
  0
SOLID
  5
437
330
433
100
AcDbEntity
  8
0
  6
Continuous
 62
     7
370
    18
100
AcDbTrace
 10
141.94
 20
124.06
 30
0.0
 11
138.638
 21
124.568
 31
0.0
 12
138.638
 22
123.552
 32
0.0
 13
138.638
 23
123.552
 33
0.0
  0
LINE
  5
438
330
433
100
AcDbEntity
  8
0
  6
Continuous
 62
     7
370
     0
100
AcDbLine
 10
108.44
 20
113.31
 30
0.0
 11
108.44
 21
125.06
 31
0.0
  0
LINE
  5
439
330
433
100
AcDbEntity
  8
0
  6
Continuous
 62
     7
370
     0
100
AcDbLine
 10
141.94
 20
115.06
 30
0.0
 11
141.94
 21
125.06
 31
0.0
  0
LINE
  5
43A
330
433
100
AcDbEntity
  8
0
  6
Continuous
 62
     7
370
     0
100
AcDbLine
 10
108.44
 20
124.06
 30
0.0
 11
141.94
 21
124.06
 31
0.0
  0
MTEXT
  5
43B
330
433
100
AcDbEntity
  8
0
  6
Continuous
 62
     7
370
    18
100
AcDbMText
 10
120.6643054695
 20
128.5717369146
 30
0.0
 40
3.5
 41
0.0
 71
     1
 72
     1
  1
33,5
  7
SLDTEXTSTYLE0
 73
     1
 44
1.0
  0
ENDBLK
  5
435
330
433
100
AcDbEntity
  8
0
100
AcDbBlockEnd
  0
BLOCK
  5
43D
330
43C
100
AcDbEntity
  8
0
100
AcDbBlockBegin
  2
SW_CENTERMARKSYMBOL_3
 70
     0
 10
0.0
 20
0.0
 30
0.0
  3
SW_CENTERMARKSYMBOL_3
  1

  0
LINE
  5
43F
330
43C
100
AcDbEntity
  8
0
  6
Continuous
 62
     0
370
    18
100
AcDbLine
 10
0.0
 20
0.0
 30
0.0
 11
0.0
 21
2.5
 31
0.0
  0
LINE
  5
440
330
43C
100
AcDbEntity
  8
0
  6
Continuous
 62
     0
370
    18
100
AcDbLine
 10
0.0
 20
0.0
 30
0.0
 11
-2.5
 21
0.0
 31
0.0
  0
LINE
  5
441
330
43C
100
AcDbEntity
  8
0
  6
Continuous
 62
     0
370
    18
100
AcDbLine
 10
0.0
 20
0.0
 30
0.0
 11
0.0
 21
-2.5
 31
0.0
  0
LINE
  5
442
330
43C
100
AcDbEntity
  8
0
  6
Continuous
 62
     0
370
    18
100
AcDbLine
 10
0.0
 20
0.0
 30
0.0
 11
2.5
 21
0.0
 31
0.0
  0
LINE
  5
443
330
43C
100
AcDbEntity
  8
0
  6
Continuous
 62
     0
370
    18
100
AcDbLine
 10
0.0
 20
5.0
 30
0.0
 11
0.0
 21
5.75
 31
0.0
  0
LINE
  5
444
330
43C
100
AcDbEntity
  8
0
  6
Continuous
 62
     0
370
    18
100
AcDbLine
 10
-5.0
 20
0.0
 30
0.0
 11
-5.75
 21
0.0
 31
0.0
  0
LINE
  5
445
330
43C
100
AcDbEntity
  8
0
  6
Continuous
 62
     0
370
    18
100
AcDbLine
 10
0.0
 20
-5.0
 30
0.0
 11
0.0
 21
-5.75
 31
0.0
  0
LINE
  5
446
330
43C
100
AcDbEntity
  8
0
  6
Continuous
 62
     0
370
    18
100
AcDbLine
 10
5.0
 20
0.0
 30
0.0
 11
5.75
 21
0.0
 31
0.0
  0
ENDBLK
  5
43E
330
43C
100
AcDbEntity
  8
0
100
AcDbBlockEnd
  0
BLOCK
  5
449
330
448
100
AcDbEntity
  8
0
100
AcDbBlockBegin
  2
SW_CENTERMARKSYMBOL_4
 70
     0
 10
0.0
 20
0.0
 30
0.0
  3
SW_CENTERMARKSYMBOL_4
  1

  0
LINE
  5
44B
330
448
100
AcDbEntity
  8
0
  6
Continuous
 62
     0
370
    18
100
AcDbLine
 10
0.0
 20
0.0
 30
0.0
 11
0.0
 21
2.5
 31
0.0
  0
LINE
  5
44C
330
448
100
AcDbEntity
  8
0
  6
Continuous
 62
     0
370
    18
100
AcDbLine
 10
0.0
 20
0.0
 30
0.0
 11
-2.5
 21
0.0
 31
0.0
  0
LINE
  5
44D
330
448
100
AcDbEntity
  8
0
  6
Continuous
 62
     0
370
    18
100
AcDbLine
 10
0.0
 20
0.0
 30
0.0
 11
0.0
 21
-2.5
 31
0.0
  0
LINE
  5
44E
330
448
100
AcDbEntity
  8
0
  6
Continuous
 62
     0
370
    18
100
AcDbLine
 10
0.0
 20
0.0
 30
0.0
 11
2.5
 21
0.0
 31
0.0
  0
LINE
  5
44F
330
448
100
AcDbEntity
  8
0
  6
Continuous
 62
     0
370
    18
100
AcDbLine
 10
0.0
 20
5.0
 30
0.0
 11
0.0
 21
5.75
 31
0.0
  0
LINE
  5
450
330
448
100
AcDbEntity
  8
0
  6
Continuous
 62
     0
370
    18
100
AcDbLine
 10
-5.0
 20
0.0
 30
0.0
 11
-5.75
 21
0.0
 31
0.0
  0
LINE
  5
451
330
448
100
AcDbEntity
  8
0
  6
Continuous
 62
     0
370
    18
100
AcDbLine
 10
0.0
 20
-5.0
 30
0.0
 11
0.0
 21
-5.75
 31
0.0
  0
LINE
  5
452
330
448
100
AcDbEntity
  8
0
  6
Continuous
 62
     0
370
    18
100
AcDbLine
 10
5.0
 20
0.0
 30
0.0
 11
5.75
 21
0.0
 31
0.0
  0
ENDBLK
  5
44A
330
448
100
AcDbEntity
  8
0
100
AcDbBlockEnd
  0
BLOCK
  5
455
330
454
100
AcDbEntity
  8
0
100
AcDbBlockBegin
  2
SW_CENTERMARKSYMBOL_5
 70
     0
 10
0.0
 20
0.0
 30
0.0
  3
SW_CENTERMARKSYMBOL_5
  1

  0
LINE
  5
457
330
454
100
AcDbEntity
  8
0
  6
Continuous
 62
     0
370
    18
100
AcDbLine
 10
0.0
 20
0.0
 30
0.0
 11
0.0
 21
2.5
 31
0.0
  0
LINE
  5
458
330
454
100
AcDbEntity
  8
0
  6
Continuous
 62
     0
370
    18
100
AcDbLine
 10
0.0
 20
0.0
 30
0.0
 11
-2.5
 21
0.0
 31
0.0
  0
LINE
  5
459
330
454
100
AcDbEntity
  8
0
  6
Continuous
 62
     0
370
    18
100
AcDbLine
 10
0.0
 20
0.0
 30
0.0
 11
0.0
 21
-2.5
 31
0.0
  0
LINE
  5
45A
330
454
100
AcDbEntity
  8
0
  6
Continuous
 62
     0
370
    18
100
AcDbLine
 10
0.0
 20
0.0
 30
0.0
 11
2.5
 21
0.0
 31
0.0
  0
LINE
  5
45B
330
454
100
AcDbEntity
  8
0
  6
Continuous
 62
     0
370
    18
100
AcDbLine
 10
0.0
 20
5.0
 30
0.0
 11
0.0
 21
5.75
 31
0.0
  0
LINE
  5
45C
330
454
100
AcDbEntity
  8
0
  6
Continuous
 62
     0
370
    18
100
AcDbLine
 10
-5.0
 20
0.0
 30
0.0
 11
-5.75
 21
0.0
 31
0.0
  0
LINE
  5
45D
330
454
100
AcDbEntity
  8
0
  6
Continuous
 62
     0
370
    18
100
AcDbLine
 10
0.0
 20
-5.0
 30
0.0
 11
0.0
 21
-5.75
 31
0.0
  0
LINE
  5
45E
330
454
100
AcDbEntity
  8
0
  6
Continuous
 62
     0
370
    18
100
AcDbLine
 10
5.0
 20
0.0
 30
0.0
 11
5.75
 21
0.0
 31
0.0
  0
ENDBLK
  5
456
330
454
100
AcDbEntity
  8
0
100
AcDbBlockEnd
  0
BLOCK
  5
461
330
460
100
AcDbEntity
  8
0
100
AcDbBlockBegin
  2
SW_CENTERMARKSYMBOL_6
 70
     0
 10
0.0
 20
0.0
 30
0.0
  3
SW_CENTERMARKSYMBOL_6
  1

  0
LINE
  5
463
330
460
100
AcDbEntity
  8
0
  6
Continuous
 62
     0
370
    18
100
AcDbLine
 10
0.0
 20
0.0
 30
0.0
 11
0.0
 21
2.5
 31
0.0
  0
LINE
  5
464
330
460
100
AcDbEntity
  8
0
  6
Continuous
 62
     0
370
    18
100
AcDbLine
 10
0.0
 20
0.0
 30
0.0
 11
-2.5
 21
0.0
 31
0.0
  0
LINE
  5
465
330
460
100
AcDbEntity
  8
0
  6
Continuous
 62
     0
370
    18
100
AcDbLine
 10
0.0
 20
0.0
 30
0.0
 11
0.0
 21
-2.5
 31
0.0
  0
LINE
  5
466
330
460
100
AcDbEntity
  8
0
  6
Continuous
 62
     0
370
    18
100
AcDbLine
 10
0.0
 20
0.0
 30
0.0
 11
2.5
 21
0.0
 31
0.0
  0
LINE
  5
467
330
460
100
AcDbEntity
  8
0
  6
Continuous
 62
     0
370
    18
100
AcDbLine
 10
0.0
 20
5.0
 30
0.0
 11
0.0
 21
5.75
 31
0.0
  0
LINE
  5
468
330
460
100
AcDbEntity
  8
0
  6
Continuous
 62
     0
370
    18
100
AcDbLine
 10
-5.0
 20
0.0
 30
0.0
 11
-5.75
 21
0.0
 31
0.0
  0
LINE
  5
469
330
460
100
AcDbEntity
  8
0
  6
Continuous
 62
     0
370
    18
100
AcDbLine
 10
0.0
 20
-5.0
 30
0.0
 11
0.0
 21
-5.75
 31
0.0
  0
LINE
  5
46A
330
460
100
AcDbEntity
  8
0
  6
Continuous
 62
     0
370
    18
100
AcDbLine
 10
5.0
 20
0.0
 30
0.0
 11
5.75
 21
0.0
 31
0.0
  0
ENDBLK
  5
462
330
460
100
AcDbEntity
  8
0
100
AcDbBlockEnd
  0
ENDSEC
  0
SECTION
  2
ENTITIES
  0
LINE
  5
74
330
1F
100
AcDbEntity
  8
0
  6
Continuous
 62
     7
370
    50
100
AcDbLine
 10
230.0
 20
14.25
 30
0.0
 11
410.0
 21
14.25
 31
0.0
  0
LINE
  5
75
330
1F
100
AcDbEntity
  8
0
  6
Continuous
 62
     7
370
    50
100
AcDbLine
 10
410.0
 20
48.25
 30
0.0
 11
230.0
 21
48.25
 31
0.0
  0
LINE
  5
76
330
1F
100
AcDbEntity
  8
0
  6
Continuous
 62
     7
370
    50
100
AcDbLine
 10
230.0
 20
65.25
 30
0.0
 11
410.0
 21
65.25
 31
0.0
  0
LINE
  5
77
330
1F
100
AcDbEntity
  8
0
  6
Continuous
 62
     7
370
    50
100
AcDbLine
 10
256.9909524338
 20
48.25
 30
0.0
 11
256.9909524338
 21
10.0
 31
0.0
  0
LINE
  5
78
330
1F
100
AcDbEntity
  8
0
  6
Continuous
 62
     7
370
    50
100
AcDbLine
 10
328.8
 20
31.25
 30
0.0
 11
230.0
 21
31.25
 31
0.0
  0
LINE
  5
79
330
1F
100
AcDbEntity
  8
0
  6
Continuous
 62
     7
370
    50
100
AcDbLine
 10
328.8
 20
35.5
 30
0.0
 11
230.0
 21
35.5
 31
0.0
  0
LINE
  5
7A
330
1F
100
AcDbEntity
  8
0
  6
Continuous
 62
     7
370
    50
100
AcDbLine
 10
328.8
 20
39.75
 30
0.0
 11
230.0
 21
39.75
 31
0.0
  0
LINE
  5
7B
330
1F
100
AcDbEntity
  8
0
  6
Continuous
 62
     7
370
    50
100
AcDbLine
 10
328.8
 20
44.0
 30
0.0
 11
230.0
 21
44.0
 31
0.0
  0
LINE
  5
7C
330
1F
100
AcDbEntity
  8
0
  6
Continuous
 62
     7
370
    50
100
AcDbLine
 10
284.6
 20
10.0
 30
0.0
 11
284.6
 21
48.25
 31
0.0
  0
LINE
  5
7D
330
1F
100
AcDbEntity
  8
0
  6
Continuous
 62
     7
370
    50
100
AcDbLine
 10
230.0
 20
65.25
 30
0.0
 11
230.0
 21
10.0
 31
0.0
  0
LINE
  5
7E
330
1F
100
AcDbEntity
  8
0
  6
Continuous
 62
     7
370
    50
100
AcDbLine
 10
242.0703737145
 20
48.25
 30
0.0
 11
242.0703737145
 21
10.0
 31
0.0
  0
LINE
  5
7F
330
1F
100
AcDbEntity
  8
0
  6
Continuous
 62
     7
370
    50
100
AcDbLine
 10
263.8
 20
48.25
 30
0.0
 11
263.8
 21
65.25
 31
0.0
  0
LINE
  5
80
330
1F
100
AcDbEntity
  8
0
  6
Continuous
 62
     7
370
    50
100
AcDbLine
 10
274.3989261635
 20
48.25
 30
0.0
 11
274.3989261635
 21
10.0
 31
0.0
  0
LINE
  5
81
330
1F
100
AcDbEntity
  8
0
  6
Continuous
 62
     7
370
    50
100
AcDbLine
 10
295.0
 20
31.25
 30
0.0
 11
295.0
 21
48.25
 31
0.0
  0
LINE
  5
82
330
1F
100
AcDbEntity
  8
0
  6
Continuous
 62
     7
370
    50
100
AcDbLine
 10
284.6
 20
18.5
 30
0.0
 11
230.0
 21
18.5
 31
0.0
  0
LINE
  5
83
330
1F
100
AcDbEntity
  8
0
  6
Continuous
 62
     7
370
    50
100
AcDbLine
 10
310.6
 20
65.25
 30
0.0
 11
310.6
 21
27.0
 31
0.0
  0
LINE
  5
84
330
1F
100
AcDbEntity
  8
0
  6
Continuous
 62
     7
370
    50
100
AcDbLine
 10
284.6
 20
22.749928
 30
0.0
 11
230.0
 21
22.749928
 31
0.0
  0
LINE
  5
85
330
1F
100
AcDbEntity
  8
0
  6
Continuous
 62
     7
370
    50
100
AcDbLine
 10
284.6
 20
27.0
 30
0.0
 11
230.0
 21
27.0
 31
0.0
  0
LINE
  5
86
330
1F
100
AcDbEntity
  8
0
  6
Continuous
 62
     7
370
    50
100
AcDbLine
 10
284.6
 20
27.0
 30
0.0
 11
410.0
 21
27.0
 31
0.0
  0
LINE
  5
87
330
1F
100
AcDbEntity
  8
0
  6
Continuous
 62
     7
370
    50
100
AcDbLine
 10
328.8
 20
65.25
 30
0.0
 11
328.8
 21
10.0
 31
0.0
  0
LINE
  5
88
330
1F
100
AcDbEntity
  8
0
  6
Continuous
 62
     7
370
    50
100
AcDbLine
 10
373.0
 20
10.0
 30
0.0
 11
373.0
 21
14.25
 31
0.0
  0
LINE
  5
89
330
1F
100
AcDbEntity
  8
0
  6
Continuous
 62
     7
370
    50
100
AcDbLine
 10
380.8
 20
58.875
 30
0.0
 11
380.8
 21
65.25
 31
0.0
  0
LINE
  5
8A
330
1F
100
AcDbEntity
  8
0
  6
Continuous
 62
     7
370
    50
100
AcDbLine
 10
397.0
 20
14.25
 30
0.0
 11
397.0
 21
27.0
 31
0.0
  0
LINE
  5
8B
330
1F
100
AcDbEntity
  8
0
  6
Continuous
 62
     7
370
    50
100
AcDbLine
 10
410.0
 20
58.875
 30
0.0
 11
328.8
 21
58.875
 31
0.0
  0
LINE
  5
8C
330
1F
100
AcDbEntity
  8
0
  6
Continuous
 62
     7
370
    50
100
AcDbLine
 10
410.0
 20
18.5
 30
0.0
 11
397.0
 21
18.5
 31
0.0
  0
LINE
  5
8D
330
1F
100
AcDbEntity
  8
0
  6
Continuous
 62
     7
370
    70
100
AcDbLine
 10
20.0
 20
10.0
 30
0.0
 11
20.0
 21
287.0
 31
0.0
  0
LINE
  5
8E
330
1F
100
AcDbEntity
  8
0
  6
Continuous
 62
     7
370
    70
100
AcDbLine
 10
20.0
 20
287.0
 30
0.0
 11
410.0
 21
287.0
 31
0.0
  0
LINE
  5
8F
330
1F
100
AcDbEntity
  8
0
  6
Continuous
 62
     7
370
    70
100
AcDbLine
 10
410.0
 20
287.0
 30
0.0
 11
410.0
 21
10.0
 31
0.0
  0
LINE
  5
90
330
1F
100
AcDbEntity
  8
0
  6
Continuous
 62
     7
370
    70
100
AcDbLine
 10
410.0
 20
10.0
 30
0.0
 11
20.0
 21
10.0
 31
0.0
  0
LINE
  5
91
330
1F
100
AcDbEntity
  8
0
  6
Continuous
 62
     7
370
    70
100
AcDbLine
 10
15.0
 20
5.0
 30
0.0
 11
15.0
 21
292.0
 31
0.0
  0
LINE
  5
92
330
1F
100
AcDbEntity
  8
0
  6
Continuous
 62
     7
370
    70
100
AcDbLine
 10
15.0
 20
292.0
 30
0.0
 11
415.0
 21
292.0
 31
0.0
  0
LINE
  5
93
330
1F
100
AcDbEntity
  8
0
  6
Continuous
 62
     7
370
    70
100
AcDbLine
 10
415.0
 20
292.0
 30
0.0
 11
415.0
 21
5.0
 31
0.0
  0
LINE
  5
94
330
1F
100
AcDbEntity
  8
0
  6
Continuous
 62
     7
370
    70
100
AcDbLine
 10
415.0
 20
5.0
 30
0.0
 11
15.0
 21
5.0
 31
0.0
  0
LINE
  5
95
330
1F
100
AcDbEntity
  8
0
  6
Continuous
 62
     7
370
    35
100
AcDbLine
 10
15.0
 20
148.5
 30
0.0
 11
25.0
 21
148.5
 31
0.0
  0
LINE
  5
96
330
1F
100
AcDbEntity
  8
0
  6
Continuous
 62
     7
370
    35
100
AcDbLine
 10
215.0
 20
292.0
 30
0.0
 11
215.0
 21
282.0
 31
0.0
  0
LINE
  5
97
330
1F
100
AcDbEntity
  8
0
  6
Continuous
 62
     7
370
    35
100
AcDbLine
 10
415.0
 20
148.5
 30
0.0
 11
405.0
 21
148.5
 31
0.0
  0
LINE
  5
98
330
1F
100
AcDbEntity
  8
0
  6
Continuous
 62
     7
370
    35
100
AcDbLine
 10
215.0
 20
5.0
 30
0.0
 11
215.0
 21
15.0
 31
0.0
  0
LINE
  5
99
330
1F
100
AcDbEntity
  8
0
  6
Continuous
 62
     7
370
    35
100
AcDbLine
 10
20.0
 20
48.5
 30
0.0
 11
15.0
 21
48.5
 31
0.0
  0
LINE
  5
9A
330
1F
100
AcDbEntity
  8
0
  6
Continuous
 62
     7
370
    35
100
AcDbLine
 10
410.0
 20
48.5
 30
0.0
 11
415.0
 21
48.5
 31
0.0
  0
LINE
  5
9B
330
1F
100
AcDbEntity
  8
0
  6
Continuous
 62
     7
370
    35
100
AcDbLine
 10
20.0
 20
98.5
 30
0.0
 11
15.0
 21
98.5
 31
0.0
  0
LINE
  5
9C
330
1F
100
AcDbEntity
  8
0
  6
Continuous
 62
     7
370
    35
100
AcDbLine
 10
410.0
 20
98.5
 30
0.0
 11
415.0
 21
98.5
 31
0.0
  0
LINE
  5
9D
330
1F
100
AcDbEntity
  8
0
  6
Continuous
 62
     7
370
    35
100
AcDbLine
 10
20.0
 20
148.5
 30
0.0
 11
15.0
 21
148.5
 31
0.0
  0
LINE
  5
9E
330
1F
100
AcDbEntity
  8
0
  6
Continuous
 62
     7
370
    35
100
AcDbLine
 10
410.0
 20
148.5
 30
0.0
 11
415.0
 21
148.5
 31
0.0
  0
LINE
  5
9F
330
1F
100
AcDbEntity
  8
0
  6
Continuous
 62
     7
370
    35
100
AcDbLine
 10
20.0
 20
198.5
 30
0.0
 11
15.0
 21
198.5
 31
0.0
  0
LINE
  5
A0
330
1F
100
AcDbEntity
  8
0
  6
Continuous
 62
     7
370
    35
100
AcDbLine
 10
410.0
 20
198.5
 30
0.0
 11
415.0
 21
198.5
 31
0.0
  0
LINE
  5
A1
330
1F
100
AcDbEntity
  8
0
  6
Continuous
 62
     7
370
    35
100
AcDbLine
 10
20.0
 20
248.5
 30
0.0
 11
15.0
 21
248.5
 31
0.0
  0
LINE
  5
A2
330
1F
100
AcDbEntity
  8
0
  6
Continuous
 62
     7
370
    35
100
AcDbLine
 10
410.0
 20
248.5
 30
0.0
 11
415.0
 21
248.5
 31
0.0
  0
LINE
  5
A3
330
1F
100
AcDbEntity
  8
0
  6
Continuous
 62
     7
370
    35
100
AcDbLine
 10
65.0
 20
287.0
 30
0.0
 11
65.0
 21
292.0
 31
0.0
  0
LINE
  5
A4
330
1F
100
AcDbEntity
  8
0
  6
Continuous
 62
     7
370
    35
100
AcDbLine
 10
65.0
 20
10.0
 30
0.0
 11
65.0
 21
5.0
 31
0.0
  0
LINE
  5
A5
330
1F
100
AcDbEntity
  8
0
  6
Continuous
 62
     7
370
    35
100
AcDbLine
 10
115.0
 20
287.0
 30
0.0
 11
115.0
 21
292.0
 31
0.0
  0
LINE
  5
A6
330
1F
100
AcDbEntity
  8
0
  6
Continuous
 62
     7
370
    35
100
AcDbLine
 10
115.0
 20
10.0
 30
0.0
 11
115.0
 21
5.0
 31
0.0
  0
LINE
  5
A7
330
1F
100
AcDbEntity
  8
0
  6
Continuous
 62
     7
370
    35
100
AcDbLine
 10
165.0
 20
287.0
 30
0.0
 11
165.0
 21
292.0
 31
0.0
  0
LINE
  5
A8
330
1F
100
AcDbEntity
  8
0
  6
Continuous
 62
     7
370
    35
100
AcDbLine
 10
165.0
 20
10.0
 30
0.0
 11
165.0
 21
5.0
 31
0.0
  0
LINE
  5
A9
330
1F
100
AcDbEntity
  8
0
  6
Continuous
 62
     7
370
    35
100
AcDbLine
 10
215.0
 20
287.0
 30
0.0
 11
215.0
 21
292.0
 31
0.0
  0
LINE
  5
AA
330
1F
100
AcDbEntity
  8
0
  6
Continuous
 62
     7
370
    35
100
AcDbLine
 10
215.0
 20
10.0
 30
0.0
 11
215.0
 21
5.0
 31
0.0
  0
LINE
  5
AB
330
1F
100
AcDbEntity
  8
0
  6
Continuous
 62
     7
370
    35
100
AcDbLine
 10
265.0
 20
287.0
 30
0.0
 11
265.0
 21
292.0
 31
0.0
  0
LINE
  5
AC
330
1F
100
AcDbEntity
  8
0
  6
Continuous
 62
     7
370
    35
100
AcDbLine
 10
265.0
 20
10.0
 30
0.0
 11
265.0
 21
5.0
 31
0.0
  0
LINE
  5
AD
330
1F
100
AcDbEntity
  8
0
  6
Continuous
 62
     7
370
    35
100
AcDbLine
 10
315.0
 20
287.0
 30
0.0
 11
315.0
 21
292.0
 31
0.0
  0
LINE
  5
AE
330
1F
100
AcDbEntity
  8
0
  6
Continuous
 62
     7
370
    35
100
AcDbLine
 10
315.0
 20
10.0
 30
0.0
 11
315.0
 21
5.0
 31
0.0
  0
LINE
  5
AF
330
1F
100
AcDbEntity
  8
0
  6
Continuous
 62
     7
370
    35
100
AcDbLine
 10
365.0
 20
287.0
 30
0.0
 11
365.0
 21
292.0
 31
0.0
  0
LINE
  5
B0
330
1F
100
AcDbEntity
  8
0
  6
Continuous
 62
     7
370
    35
100
AcDbLine
 10
365.0
 20
10.0
 30
0.0
 11
365.0
 21
5.0
 31
0.0
  0
MTEXT
  5
B2
330
1F
100
AcDbEntity
  8
0
  6
Continuous
 62
     7
370
     0
100
AcDbMText
 10
17.3396881428
 20
31.1962239326
 30
0.0
 40
3.96875
 41
0.0
 71
     2
 72
     1
  1
A
  7
SLDTEXTSTYLE0
 73
     1
 44
1.0
  0
MTEXT
  5
B3
330
1F
100
AcDbEntity
  8
0
  6
Continuous
 62
     7
370
     0
100
AcDbMText
 10
412.3396881428
 20
31.1962239326
 30
0.0
 40
3.96875
 41
0.0
 71
     2
 72
     1
  1
A
  7
SLDTEXTSTYLE0
 73
     1
 44
1.0
  0
MTEXT
  5
B4
330
1F
100
AcDbEntity
  8
0
  6
Continuous
 62
     7
370
     0
100
AcDbMText
 10
17.4706018241
 20
75.4957779464
 30
0.0
 40
3.96875
 41
0.0
 71
     2
 72
     1
  1
B
  7
SLDTEXTSTYLE0
 73
     1
 44
1.0
  0
MTEXT
  5
B5
330
1F
100
AcDbEntity
  8
0
  6
Continuous
 62
     7
370
     0
100
AcDbMText
 10
412.4706018241
 20
75.4957779464
 30
0.0
 40
3.96875
 41
0.0
 71
     2
 72
     1
  1
B
  7
SLDTEXTSTYLE0
 73
     1
 44
1.0
  0
MTEXT
  5
B6
330
1F
100
AcDbEntity
  8
0
  6
Continuous
 62
     7
370
     0
100
AcDbMText
 10
17.458658902
 20
125.4462239326
 30
0.0
 40
3.96875
 41
0.0
 71
     2
 72
     1
  1
C
  7
SLDTEXTSTYLE0
 73
     1
 44
1.0
  0
MTEXT
  5
B7
330
1F
100
AcDbEntity
  8
0
  6
Continuous
 62
     7
370
     0
100
AcDbMText
 10
412.458658902
 20
125.4462239326
 30
0.0
 40
3.96875
 41
0.0
 71
     2
 72
     1
  1
C
  7
SLDTEXTSTYLE0
 73
     1
 44
1.0
  0
MTEXT
  5
B8
330
1F
100
AcDbEntity
  8
0
  6
Continuous
 62
     7
370
     0
100
AcDbMText
 10
17.4526872821
 20
175.4957779464
 30
0.0
 40
3.96875
 41
0.0
 71
     2
 72
     1
  1
D
  7
SLDTEXTSTYLE0
 73
     1
 44
1.0
  0
MTEXT
  5
B9
330
1F
100
AcDbEntity
  8
0
  6
Continuous
 62
     7
370
     0
100
AcDbMText
 10
412.4526872821
 20
175.4957779464
 30
0.0
 40
3.96875
 41
0.0
 71
     2
 72
     1
  1
D
  7
SLDTEXTSTYLE0
 73
     1
 44
1.0
  0
MTEXT
  5
BA
330
1F
100
AcDbEntity
  8
0
  6
Continuous
 62
     7
370
     0
100
AcDbMText
 10
17.5078089051
 20
225.4462239326
 30
0.0
 40
3.96875
 41
0.0
 71
     2
 72
     1
  1
E
  7
SLDTEXTSTYLE0
 73
     1
 44
1.0
  0
MTEXT
  5
BB
330
1F
100
AcDbEntity
  8
0
  6
Continuous
 62
     7
370
     0
100
AcDbMText
 10
412.5078089051
 20
225.4462239326
 30
0.0
 40
3.96875
 41
0.0
 71
     2
 72
     1
  1
E
  7
SLDTEXTSTYLE0
 73
     1
 44
1.0
  0
MTEXT
  5
BC
330
1F
100
AcDbEntity
  8
0
  6
Continuous
 62
     7
370
     0
100
AcDbMText
 10
17.4577402091
 20
269.7457779464
 30
0.0
 40
3.96875
 41
0.0
 71
     2
 72
     1
  1
F
  7
SLDTEXTSTYLE0
 73
     1
 44
1.0
  0
MTEXT
  5
BD
330
1F
100
AcDbEntity
  8
0
  6
Continuous
 62
     7
370
     0
100
AcDbMText
 10
412.4577402091
 20
269.7457779464
 30
0.0
 40
3.96875
 41
0.0
 71
     2
 72
     1
  1
F
  7
SLDTEXTSTYLE0
 73
     1
 44
1.0
  0
MTEXT
  5
BE
330
1F
100
AcDbEntity
  8
0
  6
Continuous
 62
     7
370
     0
100
AcDbMText
 10
42.4600369465
 20
9.4957779464
 30
0.0
 40
3.96875
 41
0.0
 71
     2
 72
     1
  1
8
  7
SLDTEXTSTYLE0
 73
     1
 44
1.0
  0
MTEXT
  5
BF
330
1F
100
AcDbEntity
  8
0
  6
Continuous
 62
     7
370
     0
100
AcDbMText
 10
42.4600369465
 20
291.4462239326
 30
0.0
 40
3.96875
 41
0.0
 71
     2
 72
     1
  1
8
  7
SLDTEXTSTYLE0
 73
     1
 44
1.0
  0
MTEXT
  5
C0
330
1F
100
AcDbEntity
  8
0
  6
Continuous
 62
     7
370
     0
100
AcDbMText
 10
89.9600369465
 20
9.4957779464
 30
0.0
 40
3.96875
 41
0.0
 71
     2
 72
     1
  1
7
  7
SLDTEXTSTYLE0
 73
     1
 44
1.0
  0
MTEXT
  5
C1
330
1F
100
AcDbEntity
  8
0
  6
Continuous
 62
     7
370
     0
100
AcDbMText
 10
89.9600369465
 20
291.4462239326
 30
0.0
 40
3.96875
 41
0.0
 71
     2
 72
     1
  1
7
  7
SLDTEXTSTYLE0
 73
     1
 44
1.0
  0
MTEXT
  5
C2
330
1F
100
AcDbEntity
  8
0
  6
Continuous
 62
     7
370
     0
100
AcDbMText
 10
139.9600369465
 20
9.4957779464
 30
0.0
 40
3.96875
 41
0.0
 71
     2
 72
     1
  1
6
  7
SLDTEXTSTYLE0
 73
     1
 44
1.0
  0
MTEXT
  5
C3
330
1F
100
AcDbEntity
  8
0
  6
Continuous
 62
     7
370
     0
100
AcDbMText
 10
139.9600369465
 20
291.4462239326
 30
0.0
 40
3.96875
 41
0.0
 71
     2
 72
     1
  1
6
  7
SLDTEXTSTYLE0
 73
     1
 44
1.0
  0
MTEXT
  5
C4
330
1F
100
AcDbEntity
  8
0
  6
Continuous
 62
     7
370
     0
100
AcDbMText
 10
189.9600369465
 20
9.4957779464
 30
0.0
 40
3.96875
 41
0.0
 71
     2
 72
     1
  1
5
  7
SLDTEXTSTYLE0
 73
     1
 44
1.0
  0
MTEXT
  5
C5
330
1F
100
AcDbEntity
  8
0
  6
Continuous
 62
     7
370
     0
100
AcDbMText
 10
189.9600369465
 20
291.4462239326
 30
0.0
 40
3.96875
 41
0.0
 71
     2
 72
     1
  1
5
  7
SLDTEXTSTYLE0
 73
     1
 44
1.0
  0
MTEXT
  5
C6
330
1F
100
AcDbEntity
  8
0
  6
Continuous
 62
     7
370
     0
100
AcDbMText
 10
239.9600369465
 20
9.4957779464
 30
0.0
 40
3.96875
 41
0.0
 71
     2
 72
     1
  1
4
  7
SLDTEXTSTYLE0
 73
     1
 44
1.0
  0
MTEXT
  5
C7
330
1F
100
AcDbEntity
  8
0
  6
Continuous
 62
     7
370
     0
100
AcDbMText
 10
239.9600369465
 20
291.4462239326
 30
0.0
 40
3.96875
 41
0.0
 71
     2
 72
     1
  1
4
  7
SLDTEXTSTYLE0
 73
     1
 44
1.0
  0
MTEXT
  5
C8
330
1F
100
AcDbEntity
  8
0
  6
Continuous
 62
     7
370
     0
100
AcDbMText
 10
289.9600369465
 20
9.4957779464
 30
0.0
 40
3.96875
 41
0.0
 71
     2
 72
     1
  1
3
  7
SLDTEXTSTYLE0
 73
     1
 44
1.0
  0
MTEXT
  5
C9
330
1F
100
AcDbEntity
  8
0
  6
Continuous
 62
     7
370
     0
100
AcDbMText
 10
289.9600369465
 20
291.4462239326
 30
0.0
 40
3.96875
 41
0.0
 71
     2
 72
     1
  1
3
  7
SLDTEXTSTYLE0
 73
     1
 44
1.0
  0
MTEXT
  5
CA
330
1F
100
AcDbEntity
  8
0
  6
Continuous
 62
     7
370
     0
100
AcDbMText
 10
339.9600369465
 20
9.4957779464
 30
0.0
 40
3.96875
 41
0.0
 71
     2
 72
     1
  1
2
  7
SLDTEXTSTYLE0
 73
     1
 44
1.0
  0
MTEXT
  5
CB
330
1F
100
AcDbEntity
  8
0
  6
Continuous
 62
     7
370
     0
100
AcDbMText
 10
339.9600369465
 20
291.4462239326
 30
0.0
 40
3.96875
 41
0.0
 71
     2
 72
     1
  1
2
  7
SLDTEXTSTYLE0
 73
     1
 44
1.0
  0
MTEXT
  5
CC
330
1F
100
AcDbEntity
  8
0
  6
Continuous
 62
     7
370
     0
100
AcDbMText
 10
387.4600369465
 20
9.4957779464
 30
0.0
 40
3.96875
 41
0.0
 71
     2
 72
     1
  1
1
  7
SLDTEXTSTYLE0
 73
     1
 44
1.0
  0
MTEXT
  5
CD
330
1F
100
AcDbEntity
  8
0
  6
Continuous
 62
     7
370
     0
100
AcDbMText
 10
387.4600369465
 20
291.4462239326
 30
0.0
 40
3.96875
 41
0.0
 71
     2
 72
     1
  1
1
  7
SLDTEXTSTYLE0
 73
     1
 44
1.0
  0
MTEXT
  5
CE
330
1F
100
AcDbEntity
  8
0
  6
Continuous
 62
     7
370
     0
100
AcDbMText
 10
364.3987178688
 20
23.347828666
 30
0.0
 40
4.2333333333
 41
0.0
 71
     2
 72
     1
  1
CM025EGDG#120_MTA10x150_#
  7
SLDTEXTSTYLE0
 73
     1
 44
1.0
  0
MTEXT
  5
CF
330
1F
100
AcDbEntity
  8
0
  6
Continuous
 62
     7
370
     0
100
AcDbMText
 10
285.6178111281
 20
12.9493119036
 30
0.0
 40
1.4986
 41
0.0
 71
     1
 72
     1
  1
HMOTNOST:
  7
SLDTEXTSTYLE0
 73
     1
 44
1.0
  0
MTEXT
  5
D0
330
1F
100
AcDbEntity
  8
0
  6
Continuous
 62
     7
370
     0
100
AcDbMText
 10
400.8711564346
 20
24.406388569
 30
0.0
 40
2.9104166667
 41
0.0
 71
     1
 72
     1
  1
A3
  7
SLDTEXTSTYLE0
 73
     1
 44
1.0
  0
MTEXT
  5
D2
330
1F
100
AcDbEntity
  8
0
  6
Continuous
 62
     7
370
     0
100
AcDbMText
 10
374.4782944278
 20
12.9000872745
 30
0.0
 40
1.5
 41
0.0
 71
     1
 72
     1
  1
LIST 1 Z 1 LISTŮ
  7
SLDTEXTSTYLE1
 73
     1
 44
1.0
  0
MTEXT
  5
D4
330
1F
100
AcDbEntity
  8
0
  6
Continuous
 62
     7
370
     0
100
AcDbMText
 10
330.0739661175
 20
12.9000872745
 30
0.0
 40
1.5
 41
0.0
 71
     1
 72
     1
  1
MĚŘÍTKO:1:1
  7
SLDTEXTSTYLE2
 73
     1
 44
1.0
  0
MTEXT
  5
D5
330
1F
100
AcDbEntity
  8
0
  6
Continuous
 62
     7
370
     0
100
AcDbMText
 10
330.2786531243
 20
25.9860562892
 30
0.0
 40
1.5
 41
0.0
 71
     1
 72
     1
  1
Č. VÝKRESU
  7
SLDTEXTSTYLE2
 73
     1
 44
1.0
  0
MTEXT
  5
D6
330
1F
100
AcDbEntity
  8
0
  6
Continuous
 62
     7
370
     0
100
AcDbMText
 10
329.9561869366
 20
46.5761792212
 30
0.0
 40
1.5
 41
0.0
 71
     1
 72
     1
  1
NÁZEV:
  7
SLDTEXTSTYLE0
 73
     1
 44
1.0
  0
MTEXT
  5
D7
330
1F
100
AcDbEntity
  8
0
  6
Continuous
 62
     7
370
     0
100
AcDbMText
 10
383.3275816993
 20
62.3349086805
 30
0.0
 40
1.5
 41
0.0
 71
     1
 72
     1
  1
ZMĚNA
  7
SLDTEXTSTYLE2
 73
     1
 44
1.0
  0
MTEXT
  5
D8
330
1F
100
AcDbEntity
  8
0
  6
Continuous
 62
     7
370
     0
100
AcDbMText
 10
342.6146405229
 20
62.5329935751
 30
0.0
 40
1.5
 41
0.0
 71
     1
 72
     1
  1
NEUPRAVOVAT MĚŘÍTKO VÝKRESU
  7
SLDTEXTSTYLE2
 73
     1
 44
1.0
  0
MTEXT
  5
D9
330
1F
100
AcDbEntity
  8
0
  6
Continuous
 62
     7
370
     0
100
AcDbMText
 10
285.6458623088
 20
25.9860562892
 30
0.0
 40
1.5
 41
0.0
 71
     1
 72
     1
  1
MATERIÁL:
  7
SLDTEXTSTYLE0
 73
     1
 44
1.0
  0
MTEXT
  5
DA
330
1F
100
AcDbEntity
  8
0
  6
Continuous
 62
     7
370
     0
100
AcDbMText
 10
277.2147019657
 20
46.5761792212
 30
0.0
 40
1.5
 41
0.0
 71
     1
 72
     1
  1
DATUM
  7
SLDTEXTSTYLE0
 73
     1
 44
1.0
  0
MTEXT
  5
DB
330
1F
100
AcDbEntity
  8
0
  6
Continuous
 62
     7
370
     0
100
AcDbMText
 10
260.0335875632
 20
46.5617563795
 30
0.0
 40
1.5
 41
0.0
 71
     1
 72
     1
  1
PODPIS
  7
SLDTEXTSTYLE0
 73
     1
 44
1.0
  0
MTEXT
  5
DC
330
1F
100
AcDbEntity
  8
0
  6
Continuous
 62
     7
370
     0
100
AcDbMText
 10
244.3222392177
 20
46.5014826335
 30
0.0
 40
1.5
 41
0.0
 71
     1
 72
     1
  1
JMÉNO
  7
SLDTEXTSTYLE0
 73
     1
 44
1.0
  0
INSERT
  5
E2
330
1F
100
AcDbEntity
  8
0
  6
Continuous
 62
     7
370
     0
100
AcDbBlockReference
  2
SW_NOTE_0
 10
311.3092156863
 20
62.069489643
 30
0.0
  0
MTEXT
  5
E3
330
1F
100
AcDbEntity
  8
0
  6
Continuous
 62
     7
370
     0
100
AcDbMText
 10
264.3712921668
 20
63.9192719951
 30
0.0
 40
1.5
 41
0.0
 71
     1
 72
     1
  1
OPRACOVÁNÍ:
  7
SLDTEXTSTYLE0
 73
     1
 44
1.0
  0
INSERT
  5
ED
330
1F
100
AcDbEntity
  8
0
  6
Continuous
 62
     7
370
     0
100
AcDbBlockReference
  2
SW_NOTE_0_1
 10
230.5936687456
 20
61.9873698743
 30
0.0
  0
MTEXT
  5
EE
330
1F
100
AcDbEntity
  8
0
  6
Continuous
 62
     7
370
     0
100
AcDbMText
 10
230.6690428622
 20
25.3496492073
 30
0.0
 40
1.5
 41
0.0
 71
     1
 72
     1
  1
Z. JAKOSTI
  7
SLDTEXTSTYLE0
 73
     1
 44
1.0
  0
MTEXT
  5
EF
330
1F
100
AcDbEntity
  8
0
  6
Continuous
 62
     7
370
     0
100
AcDbMText
 10
230.4551864991
 20
29.7337046506
 30
0.0
 40
1.5
 41
0.0
 71
     1
 72
     1
  1
VÝROBA
  7
SLDTEXTSTYLE0
 73
     1
 44
1.0
  0
MTEXT
  5
F0
330
1F
100
AcDbEntity
  8
0
  6
Continuous
 62
     7
370
     0
100
AcDbMText
 10
230.4017224083
 20
34.0642960031
 30
0.0
 40
1.5
 41
0.0
 71
     1
 72
     1
  1
SCHVÁLIL
  7
SLDTEXTSTYLE0
 73
     1
 44
1.0
  0
MTEXT
  5
F1
330
1F
100
AcDbEntity
  8
0
  6
Continuous
 62
     7
370
     0
100
AcDbMText
 10
230.4104688676
 20
38.15440716
 30
0.0
 40
1.5
 41
0.0
 71
     1
 72
     1
  1
PŘEZKOUŠEL
  7
SLDTEXTSTYLE2
 73
     1
 44
1.0
  0
MTEXT
  5
F2
330
1F
100
AcDbEntity
  8
0
  6
Continuous
 62
     7
370
     0
100
AcDbMText
 10
230.2121492441
 20
42.4297148859
 30
0.0
 40
1.5
 41
0.0
 71
     1
 72
     1
  1
NAVRHL
  7
SLDTEXTSTYLE0
 73
     1
 44
1.0
  0
LINE
  5
F3
330
1F
100
AcDbEntity
  8
0
  6
Continuous
 62
     7
370
    25
100
AcDbLine
 10
150.94
 20
187.56
 30
0.0
 11
155.34
 21
187.56
 31
0.0
  0
LINE
  5
F4
330
1F
100
AcDbEntity
  8
0
  6
Continuous
 62
     7
370
    25
100
AcDbLine
 10
155.34
 20
205.56
 30
0.0
 11
150.94
 21
205.56
 31
0.0
  0
LINE
  5
F5
330
1F
100
AcDbEntity
  8
0
  6
Continuous
 62
     7
370
    25
100
AcDbLine
 10
155.34
 20
187.56
 30
0.0
 11
155.84
 21
188.06
 31
0.0
  0
LINE
  5
F6
330
1F
100
AcDbEntity
  8
0
  6
Continuous
 62
     7
370
    25
100
AcDbLine
 10
155.84
 20
205.06
 30
0.0
 11
155.34
 21
205.56
 31
0.0
  0
CIRCLE
  5
F7
330
1F
100
AcDbEntity
  8
0
  6
Continuous
 62
     7
370
    25
100
AcDbCircle
 10
123.44
 20
196.56
 30
0.0
 40
4.0
  0
CIRCLE
  5
F8
330
1F
100
AcDbEntity
  8
0
  6
Continuous
 62
     7
370
    25
100
AcDbCircle
 10
123.44
 20
196.56
 30
0.0
 40
4.999999999999986
  0
SPLINE
  5
F9
330
1F
100
AcDbEntity
  8
0
  6
Continuous
 62
     7
370
    25
100
AcDbSpline
210
0.0
220
0.0
230
1.0
 70
    24
 71
     3
 72
    10
 73
     6
 74
     0
 42
0.000000001
 43
0.00000001
 40
0.0
 40
0.0
 40
0.0
 40
0.0
 40
0.2497057580813435
 40
0.5046223899004497
 40
1.0
 40
1.0
 40
1.0
 40
1.0
 10
119.1900000000149
 20
189.1987840678297
 30
0.0
 10
119.5593547247885
 20
188.9855370180552
 30
0.0
 10
120.3057718894082
 20
188.5545928671342
 30
0.0
 10
121.7566163541684
 20
187.7169474248527
 30
0.0
 10
122.7705535755741
 20
187.1315504971327
 30
0.0
 10
123.4400000000149
 20
186.7450454237738
 30
0.0
  0
ARC
  5
FA
330
1F
100
AcDbEntity
  8
0
  6
Continuous
 62
     7
370
    25
100
AcDbCircle
 10
123.44
 20
196.56
 30
0.0
 40
8.500000000000014
100
AcDbArc
 50
240.0
 51
300.0
  0
SPLINE
  5
FB
330
1F
100
AcDbEntity
  8
0
  6
Continuous
 62
     7
370
    25
100
AcDbSpline
210
0.0
220
0.0
230
1.0
 70
    24
 71
     3
 72
    11
 73
     7
 74
     0
 42
0.000000001
 43
0.00000001
 40
0.0
 40
0.0
 40
0.0
 40
0.0
 40
0.4320483217019641
 40
0.6559233426691434
 40
0.8796467455562382
 40
1.0
 40
1.0
 40
1.0
 40
1.0
 10
123.4400000000149
 20
186.7450454237738
 30
0.0
 10
124.0221431284502
 20
187.0811459156828
 30
0.0
 10
124.9059360921887
 20
187.5914040212051
 30
0.0
 10
126.1690527749356
 20
188.320664778007
 30
0.0
 10
127.0028736913351
 20
188.8020715085462
 30
0.0
 10
127.5119367759053
 20
189.0959792174573
 30
0.0
 10
127.6900000000149
 20
189.1987840678297
 30
0.0
  0
ARC
  5
FC
330
1F
100
AcDbEntity
  8
0
  6
Continuous
 62
     7
370
    25
100
AcDbCircle
 10
123.44
 20
196.56
 30
0.0
 40
8.500000000000014
100
AcDbArc
 50
0.0
 51
60.0
  0
SPLINE
  5
FD
330
1F
100
AcDbEntity
  8
0
  6
Continuous
 62
     7
370
    25
100
AcDbSpline
210
0.0
220
0.0
230
1.0
 70
    24
 71
     3
 72
    11
 73
     7
 74
     0
 42
0.000000001
 43
0.00000001
 40
0.0
 40
0.0
 40
0.0
 40
0.0
 40
0.2468650516632576
 40
0.4987789882867773
 40
0.7482074274950002
 40
1.0
 40
1.0
 40
1.0
 40
1.0
 10
131.9400000000149
 20
196.5599999999974
 30
0.0
 10
131.9400000000149
 20
196.9820940813855
 30
0.0
 10
131.9400000000149
 20
197.8349149138934
 30
0.0
 10
131.9400000000149
 20
199.0859633515902
 30
0.0
 10
131.9400000000149
 20
200.304904782735
 30
0.0
 10
131.9400000000149
 20
201.0787364632599
 30
0.0
 10
131.9400000000149
 20
201.4674772881093
 30
0.0
  0
SPLINE
  5
FE
330
1F
100
AcDbEntity
  8
0
  6
Continuous
 62
     7
370
    25
100
AcDbSpline
210
0.0
220
0.0
230
1.0
 70
    24
 71
     3
 72
    11
 73
     7
 74
     0
 42
0.000000001
 43
0.00000001
 40
0.0
 40
0.0
 40
0.0
 40
0.0
 40
0.4320483217019626
 40
0.6559233426691423
 40
0.8796467455562375
 40
1.0
 40
1.0
 40
1.0
 40
1.0
 10
131.9400000000149
 20
201.4674772881093
 30
0.0
 10
131.3578568715795
 20
201.8035777800183
 30
0.0
 10
130.474063907841
 20
202.3138358855406
 30
0.0
 10
129.2109472250941
 20
203.0430966423424
 30
0.0
 10
128.3771263086946
 20
203.5245033728816
 30
0.0
 10
127.8680632241245
 20
203.8184110817927
 30
0.0
 10
127.6900000000149
 20
203.9212159321652
 30
0.0
  0
ARC
  5
FF
330
1F
100
AcDbEntity
  8
0
  6
Continuous
 62
     7
370
    25
100
AcDbCircle
 10
123.44
 20
196.56
 30
0.0
 40
8.499999999999991
100
AcDbArc
 50
60.0
 51
120.0
  0
SPLINE
  5
100
330
1F
100
AcDbEntity
  8
0
  6
Continuous
 62
     7
370
    25
100
AcDbSpline
210
0.0
220
0.0
230
1.0
 70
    24
 71
     3
 72
    10
 73
     6
 74
     0
 42
0.000000001
 43
0.00000001
 40
0.0
 40
0.0
 40
0.0
 40
0.0
 40
0.2497057580813438
 40
0.5046223899004502
 40
1.0
 40
1.0
 40
1.0
 40
1.0
 10
127.6900000000149
 20
203.9212159321652
 30
0.0
 10
127.3206452752413
 20
204.1344629819397
 30
0.0
 10
126.5742281106215
 20
204.5654071328606
 30
0.0
 10
125.1233836458614
 20
205.4030525751422
 30
0.0
 10
124.1094464244557
 20
205.9884495028622
 30
0.0
 10
123.4400000000149
 20
206.3749545762211
 30
0.0
  0
SPLINE
  5
101
330
1F
100
AcDbEntity
  8
0
  6
Continuous
 62
     7
370
    25
100
AcDbSpline
210
0.0
220
0.0
230
1.0
 70
    24
 71
     3
 72
    11
 73
     7
 74
     0
 42
0.000000001
 43
0.00000001
 40
0.0
 40
0.0
 40
0.0
 40
0.0
 40
0.4320483217019629
 40
0.6559233426691425
 40
0.8796467455562376
 40
1.0
 40
1.0
 40
1.0
 40
1.0
 10
123.4400000000149
 20
206.3749545762211
 30
0.0
 10
122.8578568715795
 20
206.038854084312
 30
0.0
 10
121.9740639078411
 20
205.5285959787897
 30
0.0
 10
120.7109472250941
 20
204.7993352219879
 30
0.0
 10
119.8771263086946
 20
204.3179284914487
 30
0.0
 10
119.3680632241245
 20
204.0240207825376
 30
0.0
 10
119.1900000000149
 20
203.9212159321652
 30
0.0
  0
ARC
  5
102
330
1F
100
AcDbEntity
  8
0
  6
Continuous
 62
     7
370
    25
100
AcDbCircle
 10
123.44
 20
196.56
 30
0.0
 40
8.500000000000014
100
AcDbArc
 50
120.0
 51
180.0
  0
SPLINE
  5
103
330
1F
100
AcDbEntity
  8
0
  6
Continuous
 62
     7
370
    25
100
AcDbSpline
210
0.0
220
0.0
230
1.0
 70
    24
 71
     3
 72
    11
 73
     7
 74
     0
 42
0.000000001
 43
0.00000001
 40
0.0
 40
0.0
 40
0.0
 40
0.0
 40
0.1474359376230583
 40
0.4794671065464745
 40
0.8188674347468179
 40
1.0
 40
1.0
 40
1.0
 40
1.0
 10
114.9400000000149
 20
201.4674772881093
 30
0.0
 10
114.9400000000149
 20
201.2408432683074
 30
0.0
 10
114.9400000000149
 20
200.5038210777123
 30
0.0
 10
114.9400000000149
 20
199.1915566112729
 30
0.0
 10
114.9400000000149
 20
197.7588738617778
 30
0.0
 10
114.9400000000149
 20
196.8694852330308
 30
0.0
 10
114.9400000000149
 20
196.5599999999974
 30
0.0
  0
SPLINE
  5
104
330
1F
100
AcDbEntity
  8
0
  6
Continuous
 62
     7
370
    25
100
AcDbSpline
210
0.0
220
0.0
230
1.0
 70
    24
 71
     3
 72
    10
 73
     6
 74
     0
 42
0.000000001
 43
0.00000001
 40
0.0
 40
0.0
 40
0.0
 40
0.0
 40
0.2497057580813437
 40
0.5046223899004502
 40
1.0
 40
1.0
 40
1.0
 40
1.0
 10
119.1900000000149
 20
203.9212159321652
 30
0.0
 10
118.8206452752412
 20
203.7079688823906
 30
0.0
 10
118.0742281106215
 20
203.2770247314697
 30
0.0
 10
116.6233836458614
 20
202.4393792891881
 30
0.0
 10
115.6094464244556
 20
201.8539823614682
 30
0.0
 10
114.9400000000149
 20
201.4674772881093
 30
0.0
  0
ARC
  5
105
330
1F
100
AcDbEntity
  8
0
  6
Continuous
 62
     7
370
    25
100
AcDbCircle
 10
123.44
 20
196.56
 30
0.0
 40
8.500000000000014
100
AcDbArc
 50
180.0
 51
240.0
  0
SPLINE
  5
106
330
1F
100
AcDbEntity
  8
0
  6
Continuous
 62
     7
370
    25
100
AcDbSpline
210
0.0
220
0.0
230
1.0
 70
    24
 71
     3
 72
    11
 73
     7
 74
     0
 42
0.000000001
 43
0.00000001
 40
0.0
 40
0.0
 40
0.0
 40
0.0
 40
0.2468650516632566
 40
0.4987789882867753
 40
0.7482074274949995
 40
1.0
 40
1.0
 40
1.0
 40
1.0
 10
114.9400000000149
 20
196.5599999999974
 30
0.0
 10
114.9400000000149
 20
196.1379059186094
 30
0.0
 10
114.9400000000149
 20
195.2850850861014
 30
0.0
 10
114.9400000000149
 20
194.0340366484047
 30
0.0
 10
114.9400000000149
 20
192.8150952172599
 30
0.0
 10
114.9400000000149
 20
192.041263536735
 30
0.0
 10
114.9400000000149
 20
191.6525227118856
 30
0.0
  0
SPLINE
  5
107
330
1F
100
AcDbEntity
  8
0
  6
Continuous
 62
     7
370
    25
100
AcDbSpline
210
0.0
220
0.0
230
1.0
 70
    24
 71
     3
 72
    11
 73
     7
 74
     0
 42
0.000000001
 43
0.00000001
 40
0.0
 40
0.0
 40
0.0
 40
0.0
 40
0.4320483217019629
 40
0.655923342669143
 40
0.879646745556238
 40
1.0
 40
1.0
 40
1.0
 40
1.0
 10
114.9400000000149
 20
191.6525227118856
 30
0.0
 10
115.5221431284502
 20
191.3164222199766
 30
0.0
 10
116.4059360921887
 20
190.8061641144543
 30
0.0
 10
117.6690527749356
 20
190.0769033576524
 30
0.0
 10
118.5028736913351
 20
189.5954966271132
 30
0.0
 10
119.0119367759052
 20
189.3015889182022
 30
0.0
 10
119.1900000000149
 20
189.1987840678297
 30
0.0
  0
ARC
  5
108
330
1F
100
AcDbEntity
  8
0
  6
Continuous
 62
     7
370
    25
100
AcDbCircle
 10
123.44
 20
196.56
 30
0.0
 40
8.500000000000014
100
AcDbArc
 50
300.0
 51
0.0
  0
SPLINE
  5
109
330
1F
100
AcDbEntity
  8
0
  6
Continuous
 62
     7
370
    25
100
AcDbSpline
210
0.0
220
0.0
230
1.0
 70
    24
 71
     3
 72
    10
 73
     6
 74
     0
 42
0.000000001
 43
0.00000001
 40
0.0
 40
0.0
 40
0.0
 40
0.0
 40
0.2497057580813441
 40
0.5046223899004507
 40
1.0
 40
1.0
 40
1.0
 40
1.0
 10
127.6900000000149
 20
189.1987840678297
 30
0.0
 10
128.0593547247885
 20
189.4120311176042
 30
0.0
 10
128.8057718894082
 20
189.8429752685252
 30
0.0
 10
130.2566163541684
 20
190.6806207108067
 30
0.0
 10
131.2705535755741
 20
191.2660176385267
 30
0.0
 10
131.9400000000149
 20
191.6525227118856
 30
0.0
  0
SPLINE
  5
10A
330
1F
100
AcDbEntity
  8
0
  6
Continuous
 62
     7
370
    25
100
AcDbSpline
210
0.0
220
0.0
230
1.0
 70
    24
 71
     3
 72
    11
 73
     7
 74
     0
 42
0.000000001
 43
0.00000001
 40
0.0
 40
0.0
 40
0.0
 40
0.0
 40
0.14743593762306
 40
0.4794671065464761
 40
0.8188674347468198
 40
1.0
 40
1.0
 40
1.0
 40
1.0
 10
131.9400000000149
 20
191.6525227118856
 30
0.0
 10
131.9400000000149
 20
191.8791567316875
 30
0.0
 10
131.9400000000149
 20
192.6161789222826
 30
0.0
 10
131.9400000000149
 20
193.928443388722
 30
0.0
 10
131.9400000000149
 20
195.3611261382171
 30
0.0
 10
131.9400000000149
 20
196.2505147669642
 30
0.0
 10
131.9400000000149
 20
196.5599999999974
 30
0.0
  0
LINE
  5
10B
330
1F
100
AcDbEntity
  8
0
  6
Continuous
 62
     7
370
    25
100
AcDbLine
 10
155.34
 20
196.56
 30
0.0
 11
155.34
 21
205.56
 31
0.0
  0
LINE
  5
10C
330
1F
100
AcDbEntity
  8
0
  6
Continuous
 62
     7
370
    25
100
AcDbLine
 10
155.34
 20
187.56
 30
0.0
 11
155.34
 21
196.56
 31
0.0
  0
LINE
  5
10D
330
1F
100
AcDbEntity
  8
0
  6
Continuous
 62
     7
370
    25
100
AcDbLine
 10
155.84
 20
196.56
 30
0.0
 11
155.84
 21
188.06
 31
0.0
  0
LINE
  5
10E
330
1F
100
AcDbEntity
  8
0
  6
Continuous
 62
     7
370
    25
100
AcDbLine
 10
155.84
 20
205.06
 30
0.0
 11
155.84
 21
196.56
 31
0.0
  0
ARC
  5
10F
330
1F
100
AcDbEntity
  8
0
  6
Continuous
 62
     7
370
    25
100
AcDbCircle
 10
123.44
 20
196.56
 30
0.0
 40
9.000000000000014
100
AcDbArc
 50
341.7984043388
 51
0.0
  0
ARC
  5
110
330
1F
100
AcDbEntity
  8
0
  6
Continuous
 62
     7
370
    25
100
AcDbCircle
 10
123.44
 20
196.56
 30
0.0
 40
9.000000000000014
100
AcDbArc
 50
281.9383460244
 51
318.3610792676
  0
ARC
  5
111
330
1F
100
AcDbEntity
  8
0
  6
Continuous
 62
     7
370
    25
100
AcDbCircle
 10
123.44
 20
196.56
 30
0.0
 40
9.000000000000021
100
AcDbArc
 50
222.0560910167
 51
258.5378213171
  0
ARC
  5
112
330
1F
100
AcDbEntity
  8
0
  6
Continuous
 62
     7
370
    25
100
AcDbCircle
 10
123.44
 20
196.56
 30
0.0
 40
9.000000000000014
100
AcDbArc
 50
162.1485323215
 51
198.7298454462
  0
ARC
  5
113
330
1F
100
AcDbEntity
  8
0
  6
Continuous
 62
     7
370
    25
100
AcDbCircle
 10
123.44
 20
196.56
 30
0.0
 40
8.999999999999984
100
AcDbArc
 50
102.2120077168
 51
138.9354310615
  0
ARC
  5
114
330
1F
100
AcDbEntity
  8
0
  6
Continuous
 62
     7
370
    25
100
AcDbCircle
 10
123.44
 20
196.56
 30
0.0
 40
9.000000000000004
100
AcDbArc
 50
42.2421673034
 51
79.153071932
  0
ARC
  5
115
330
1F
100
AcDbEntity
  8
0
  6
Continuous
 62
     7
370
    25
100
AcDbCircle
 10
123.44
 20
196.56
 30
0.0
 40
9.000000000000014
100
AcDbArc
 50
0.0
 51
18.7932886665
  0
CIRCLE
  5
116
330
1F
100
AcDbEntity
  8
0
  6
Continuous
 62
     7
370
    25
100
AcDbCircle
 10
123.44
 20
196.56
 30
0.0
 40
14.0
  0
CIRCLE
  5
117
330
1F
100
AcDbEntity
  8
0
  6
Continuous
 62
     7
370
    25
100
AcDbCircle
 10
123.44
 20
196.56
 30
0.0
 40
15.0
  0
LINE
  5
118
330
1F
100
AcDbEntity
  8
0
  6
Continuous
 62
     7
370
    25
100
AcDbLine
 10
96.24
 20
214.06
 30
0.0
 11
150.64
 21
214.06
 31
0.0
  0
LINE
  5
119
330
1F
100
AcDbEntity
  8
0
  6
Continuous
 62
     7
370
    25
100
AcDbLine
 10
150.94
 20
213.76
 30
0.0
 11
150.64
 21
214.06
 31
0.0
  0
LINE
  5
11A
330
1F
100
AcDbEntity
  8
0
  6
Continuous
 62
     7
370
    25
100
AcDbLine
 10
150.94
 20
213.76
 30
0.0
 11
150.94
 21
179.36
 31
0.0
  0
LINE
  5
11B
330
1F
100
AcDbEntity
  8
0
  6
Continuous
 62
     7
370
    25
100
AcDbLine
 10
150.64
 20
179.06
 30
0.0
 11
150.94
 21
179.36
 31
0.0
  0
LINE
  5
11C
330
1F
100
AcDbEntity
  8
0
  6
Continuous
 62
     7
370
    25
100
AcDbLine
 10
150.64
 20
179.06
 30
0.0
 11
96.24
 21
179.06
 31
0.0
  0
LINE
  5
11D
330
1F
100
AcDbEntity
  8
0
  6
Continuous
 62
     7
370
    25
100
AcDbLine
 10
96.24
 20
214.06
 30
0.0
 11
95.94
 21
213.76
 31
0.0
  0
LINE
  5
11E
330
1F
100
AcDbEntity
  8
0
  6
Continuous
 62
     7
370
    25
100
AcDbLine
 10
95.94
 20
179.36
 30
0.0
 11
95.94
 21
213.76
 31
0.0
  0
LINE
  5
11F
330
1F
100
AcDbEntity
  8
0
  6
Continuous
 62
     7
370
    25
100
AcDbLine
 10
95.94
 20
179.36
 30
0.0
 11
96.24
 21
179.06
 31
0.0
  0
DIMENSION
  5
120
330
1F
100
AcDbEntity
  8
0
  6
Continuous
 62
     7
370
    18
100
AcDbDimension
  2
_D
 10
85.94
 20
214.06
 30
0.0
 11
85.94
 21
196.56
 31
0.0
 70
   160
  1
<>
 71
     2
 42
-1.0
  3
SLDDIMSTYLE0
100
AcDbAlignedDimension
 13
96.24
 23
179.06
 33
0.0
 14
96.24
 24
214.06
 34
0.0
 50
90.0
100
AcDbRotatedDimension
  0
DIMENSION
  5
12B
330
1F
100
AcDbEntity
  8
0
  6
Continuous
 62
     7
370
    18
100
AcDbDimension
  2
_D_1
 10
95.94
 20
224.06
 30
0.0
 11
123.44
 21
224.06
 31
0.0
 70
   160
  1
<>
 71
     2
 42
-1.0
  3
SLDDIMSTYLE0
100
AcDbAlignedDimension
 13
150.94
 23
213.76
 33
0.0
 14
95.94
 24
213.76
 34
0.0
100
AcDbRotatedDimension
  0
DIMENSION
  5
135
330
1F
100
AcDbEntity
  8
0
  6
Continuous
 62
     7
370
    18
100
AcDbDimension
  2
_D_2
 10
120.2226641456
 20
199.7773358544
 30
0.0
 11
150.94001
 21
169.06001
 31
0.0
 70
   163
  1
M10x1.5
 71
     1
 42
-1.0
  3
SLDDIMSTYLE1
100
AcDbDiametricDimension
 15
126.6573358544
 25
193.3426641456
 35
0.0
 40
0.0
  0
DIMENSION
  5
141
330
1F
100
AcDbEntity
  8
0
  6
Continuous
 62
     7
370
    18
100
AcDbDimension
  2
_D_3
 10
150.94
 20
224.06
 30
0.0
 11
164.7761111935
 21
224.06
 31
0.0
 70
   160
  1
<>
 71
     2
 42
-1.0
  3
SLDDIMSTYLE2
100
AcDbAlignedDimension
 13
155.84
 23
205.06
 33
0.0
 14
150.94
 24
213.76
 34
0.0
100
AcDbRotatedDimension
  0
INSERT
  5
159
330
1F
100
AcDbEntity
  8
0
  6
Continuous
 62
     7
370
     0
100
AcDbBlockReference
  2
SW_CENTERMARKSYMBOL_0
 10
123.44
 20
196.56
 30
0.0
  0
LINE
  5
15A
330
1F
100
AcDbEntity
  8
0
  6
CENTERX2
 62
     7
370
    18
100
AcDbLine
 10
157.34
 20
196.56
 30
0.0
 11
148.84
 21
196.56
 31
0.0
  0
ARC
  5
15B
330
1F
100
AcDbEntity
  8
0
  6
Continuous
 62
     7
370
    25
100
AcDbCircle
 10
435.94
 20
201.56
 30
0.0
 40
1.0
100
AcDbArc
 50
180.0
 51
270.0
  0
ARC
  5
15C
330
1F
100
AcDbEntity
  8
0
  6
Continuous
 62
     7
370
    25
100
AcDbCircle
 10
435.94
 20
191.56
 30
0.0
 40
1.0
100
AcDbArc
 50
90.0
 51
180.0
  0
LINE
  5
15D
330
1F
100
AcDbEntity
  8
0
  6
Continuous
 62
     7
370
    25
100
AcDbLine
 10
437.94
 20
191.56
 30
0.0
 11
447.94
 21
191.56
 31
0.0
  0
LINE
  5
15E
330
1F
100
AcDbEntity
  8
0
  6
Continuous
 62
     7
370
    25
100
AcDbLine
 10
447.94
 20
201.56
 30
0.0
 11
437.94
 21
201.56
 31
0.0
  0
LINE
  5
15F
330
1F
100
AcDbEntity
  8
0
  6
Continuous
 62
     7
370
    25
100
AcDbLine
 10
437.94
 20
201.56
 30
0.0
 11
436.94
 21
200.56
 31
0.0
  0
LINE
  5
160
330
1F
100
AcDbEntity
  8
0
  6
Continuous
 62
     7
370
    25
100
AcDbLine
 10
436.94
 20
192.56
 30
0.0
 11
437.94
 21
191.56
 31
0.0
  0
LINE
  5
161
330
1F
100
AcDbEntity
  8
0
  6
Continuous
 62
     7
370
    25
100
AcDbLine
 10
447.94
 20
191.56
 30
0.0
 11
448.94
 21
192.56
 31
0.0
  0
LINE
  5
162
330
1F
100
AcDbEntity
  8
0
  6
Continuous
 62
     7
370
    25
100
AcDbLine
 10
448.94
 20
200.56
 30
0.0
 11
447.94
 21
201.56
 31
0.0
  0
LINE
  5
163
330
1F
100
AcDbEntity
  8
0
  6
Continuous
 62
     7
370
    25
100
AcDbLine
 10
433.6250454238
 20
186.7450454238
 30
0.0
 11
434.94
 21
188.06
 31
0.0
  0
LINE
  5
164
330
1F
100
AcDbEntity
  8
0
  6
Continuous
 62
     7
370
    25
100
AcDbLine
 10
434.94
 20
205.06
 30
0.0
 11
433.6250454238
 21
206.3749545762
 31
0.0
  0
LINE
  5
165
330
1F
100
AcDbEntity
  8
0
  6
Continuous
 62
     7
370
    25
100
AcDbLine
 10
420.94
 20
188.06
 30
0.0
 11
422.2549545762
 21
186.7450454238
 31
0.0
  0
LINE
  5
166
330
1F
100
AcDbEntity
  8
0
  6
Continuous
 62
     7
370
    25
100
AcDbLine
 10
427.6250454238
 20
186.7450454238
 30
0.0
 11
428.94
 21
188.06
 31
0.0
  0
LINE
  5
167
330
1F
100
AcDbEntity
  8
0
  6
Continuous
 62
     7
370
    25
100
AcDbLine
 10
422.2549545762
 20
206.3749545762
 30
0.0
 11
420.94
 21
205.06
 31
0.0
  0
LINE
  5
168
330
1F
100
AcDbEntity
  8
0
  6
Continuous
 62
     7
370
    25
100
AcDbLine
 10
428.94
 20
188.06
 30
0.0
 11
430.2549545762
 21
186.7450454238
 31
0.0
  0
LINE
  5
169
330
1F
100
AcDbEntity
  8
0
  6
Continuous
 62
     7
370
    25
100
AcDbLine
 10
428.94
 20
205.06
 30
0.0
 11
427.6250454238
 21
206.3749545762
 31
0.0
  0
LINE
  5
16A
330
1F
100
AcDbEntity
  8
0
  6
Continuous
 62
     7
370
    25
100
AcDbLine
 10
430.2549545762
 20
206.3749545762
 30
0.0
 11
428.94
 21
205.06
 31
0.0
  0
LINE
  5
16B
330
1F
100
AcDbEntity
  8
0
  6
Continuous
 62
     7
370
    25
100
AcDbLine
 10
435.94
 20
192.56
 30
0.0
 11
436.94
 21
192.56
 31
0.0
  0
LINE
  5
16C
330
1F
100
AcDbEntity
  8
0
  6
Continuous
 62
     7
370
    25
100
AcDbLine
 10
436.94
 20
200.56
 30
0.0
 11
435.94
 21
200.56
 31
0.0
  0
LINE
  5
16D
330
1F
100
AcDbEntity
  8
0
  6
Continuous
 62
     7
370
    25
100
AcDbLine
 10
299.94
 20
187.56
 30
0.0
 11
415.44
 21
187.56
 31
0.0
  0
LINE
  5
16E
330
1F
100
AcDbEntity
  8
0
  6
Continuous
 62
     7
370
    25
100
AcDbLine
 10
415.44
 20
205.56
 30
0.0
 11
299.94
 21
205.56
 31
0.0
  0
LINE
  5
16F
330
1F
100
AcDbEntity
  8
0
  6
Continuous
 62
     7
370
    25
100
AcDbLine
 10
415.44
 20
187.56
 30
0.0
 11
415.94
 21
188.06
 31
0.0
  0
LINE
  5
170
330
1F
100
AcDbEntity
  8
0
  6
Continuous
 62
     7
370
    25
100
AcDbLine
 10
415.94
 20
205.06
 30
0.0
 11
415.44
 21
205.56
 31
0.0
  0
LINE
  5
171
330
1F
100
AcDbEntity
  8
0
  6
Continuous
 62
     7
370
    25
100
AcDbLine
 10
296.94
 20
181.56
 30
0.0
 11
298.94
 21
181.56
 31
0.0
  0
LINE
  5
172
330
1F
100
AcDbEntity
  8
0
  6
Continuous
 62
     7
370
    25
100
AcDbLine
 10
298.94
 20
211.56
 30
0.0
 11
296.94
 21
211.56
 31
0.0
  0
LINE
  5
173
330
1F
100
AcDbEntity
  8
0
  6
Continuous
 62
     7
370
    25
100
AcDbLine
 10
298.94
 20
181.56
 30
0.0
 11
299.94
 21
182.56
 31
0.0
  0
LINE
  5
174
330
1F
100
AcDbEntity
  8
0
  6
Continuous
 62
     7
370
    25
100
AcDbLine
 10
299.94
 20
210.56
 30
0.0
 11
298.94
 21
211.56
 31
0.0
  0
LINE
  5
175
330
1F
100
AcDbEntity
  8
0
  6
Continuous
 62
     7
370
    25
100
AcDbLine
 10
420.94
 20
196.56
 30
0.0
 11
420.94
 21
203.9212159322
 31
0.0
  0
SPLINE
  5
176
330
1F
100
AcDbEntity
  8
0
  6
Continuous
 62
     7
370
    25
100
AcDbSpline
210
0.0
220
0.0
230
1.0
 70
     8
 71
     3
 72
    12
 73
     8
 74
     0
 42
0.000000001
 43
0.00000001
 40
0.0
 40
0.0
 40
0.0
 40
0.0
 40
0.2155166871398611
 40
0.432225631065085
 40
0.654456665441955
 40
0.8796869185624285
 40
1.0
 40
1.0
 40
1.0
 40
1.0
 10
422.2549545762237
 20
201.4674772881093
 30
0.0
 10
422.095991156802
 20
201.6336198914857
 30
0.0
 10
421.7771849186976
 20
201.9668242133607
 30
0.0
 10
421.3889746179446
 20
202.4921738061009
 30
0.0
 10
421.0978836146866
 20
203.0413625607387
 30
0.0
 10
420.9574489730873
 20
203.5231990165934
 30
0.0
 10
420.9445064093741
 20
203.8184232262316
 30
0.0
 10
420.94
 20
203.9212159321652
 30
0.0
  0
SPLINE
  5
177
330
1F
100
AcDbEntity
  8
0
  6
Continuous
 62
     7
370
    25
100
AcDbSpline
210
0.0
220
0.0
230
1.0
 70
     8
 71
     3
 72
    11
 73
     7
 74
     0
 42
0.000000001
 43
0.00000001
 40
0.0
 40
0.0
 40
0.0
 40
0.0
 40
0.2548051944591289
 40
0.6218775796891824
 40
0.9992051938695931
 40
1.0
 40
1.0
 40
1.0
 40
1.0
 10
420.94
 20
196.5599999999974
 30
0.0
 10
420.9600612178075
 20
196.9954436496942
 30
0.0
 10
421.0090226277277
 20
198.0581874588982
 30
0.0
 10
421.4597457956494
 20
199.7191400263879
 30
0.0
 10
421.9656521762884
 20
200.8887675640401
 30
0.0
 10
422.254347743636
 20
201.466263402848
 30
0.0
 10
422.2549545762237
 20
201.4674772881093
 30
0.0
  0
SPLINE
  5
178
330
1F
100
AcDbEntity
  8
0
  6
Continuous
 62
     7
370
    25
100
AcDbSpline
210
0.0
220
0.0
230
1.0
 70
     8
 71
     3
 72
    14
 73
    10
 74
     0
 42
0.000000001
 43
0.00000001
 40
0.0
 40
0.0
 40
0.0
 40
0.0
 40
0.12448228915663
 40
0.2496517336499242
 40
0.3767766887834364
 40
0.5044798147218974
 40
0.6276452239118763
 40
0.8754394741865485
 40
1.0
 40
1.0
 40
1.0
 40
1.0
 10
420.94
 20
203.9212159321652
 30
0.0
 10
420.9446304110984
 20
204.0276017293569
 30
0.0
 10
420.9539167936517
 20
204.2409605845369
 30
0.0
 10
421.0286220272312
 20
204.5611619786592
 30
0.0
 10
421.1463373663711
 20
204.8806553647231
 30
0.0
 10
421.3062758942856
 20
205.1938319073245
 30
0.0
 10
421.5657442438772
 20
205.5998265910795
 30
0.0
 10
421.8832065132211
 20
205.9932097756914
 30
0.0
 10
422.1617694116281
 20
206.2792635542329
 30
0.0
 10
422.2549545762237
 20
206.3749545762211
 30
0.0
  0
LINE
  5
179
330
1F
100
AcDbEntity
  8
0
  6
Continuous
 62
     7
370
    25
100
AcDbLine
 10
427.6250454238
 20
206.3749545762
 30
0.0
 11
422.2549545762
 21
206.3749545762
 31
0.0
  0
SPLINE
  5
17A
330
1F
100
AcDbEntity
  8
0
  6
Continuous
 62
     7
370
    25
100
AcDbSpline
210
0.0
220
0.0
230
1.0
 70
     8
 71
     3
 72
    11
 73
     7
 74
     0
 42
0.000000001
 43
0.00000001
 40
0.0
 40
0.0
 40
0.0
 40
0.0
 40
0.4320430193638704
 40
0.6543455292941845
 40
0.8796482225985368
 40
1.0
 40
1.0
 40
1.0
 40
1.0
 10
427.6250454237763
 20
206.3749545762211
 30
0.0
 10
427.9342199059056
 20
206.0388312453873
 30
0.0
 10
428.402476378261
 20
205.5297597201804
 30
0.0
 10
428.780978325532
 20
204.8007611774397
 30
0.0
 10
428.9226884352373
 20
204.3192700506141
 30
0.0
 10
428.9355290779957
 20
204.0240182461939
 30
0.0
 10
428.94
 20
203.9212159321652
 30
0.0
  0
SPLINE
  5
17B
330
1F
100
AcDbEntity
  8
0
  6
Continuous
 62
     7
370
    25
100
AcDbSpline
210
0.0
220
0.0
230
1.0
 70
     8
 71
     3
 72
    10
 73
     6
 74
     0
 42
0.000000001
 43
0.00000001
 40
0.0
 40
0.0
 40
0.0
 40
0.0
 40
0.2497057580813442
 40
0.5046223899004513
 40
1.0
 40
1.0
 40
1.0
 40
1.0
 10
428.94
 20
203.9212159321652
 30
0.0
 10
428.9207271020136
 20
203.7079688823906
 30
0.0
 10
428.8817791181269
 20
203.2770247314697
 30
0.0
 10
428.50240412957
 20
202.4393792891881
 30
0.0
 10
427.9739526084189
 20
201.8539823614682
 30
0.0
 10
427.6250454237763
 20
201.4674772881093
 30
0.0
  0
LINE
  5
17C
330
1F
100
AcDbEntity
  8
0
  6
Continuous
 62
     7
370
    25
100
AcDbLine
 10
427.6250454238
 20
201.4674772881
 30
0.0
 11
422.2549545762
 21
201.4674772881
 31
0.0
  0
SPLINE
  5
17D
330
1F
100
AcDbEntity
  8
0
  6
Continuous
 62
     7
370
    25
100
AcDbSpline
210
0.0
220
0.0
230
1.0
 70
     8
 71
     3
 72
    10
 73
     6
 74
     0
 42
0.000000001
 43
0.00000001
 40
0.0
 40
0.0
 40
0.0
 40
0.0
 40
0.2497057580813441
 40
0.5046223899004497
 40
1.0
 40
1.0
 40
1.0
 40
1.0
 10
428.94
 20
189.1987840678297
 30
0.0
 10
428.9592728979864
 20
189.4120311176042
 30
0.0
 10
428.9982208818731
 20
189.8429752685252
 30
0.0
 10
429.3775958704299
 20
190.6806207108067
 30
0.0
 10
429.9060473915811
 20
191.2660176385267
 30
0.0
 10
430.2549545762237
 20
191.6525227118856
 30
0.0
  0
LINE
  5
17E
330
1F
100
AcDbEntity
  8
0
  6
Continuous
 62
     7
370
    25
100
AcDbLine
 10
428.94
 20
196.56
 30
0.0
 11
428.94
 21
189.1987840678
 31
0.0
  0
SPLINE
  5
17F
330
1F
100
AcDbEntity
  8
0
  6
Continuous
 62
     7
370
    25
100
AcDbSpline
210
0.0
220
0.0
230
1.0
 70
     8
 71
     3
 72
    11
 73
     7
 74
     0
 42
0.000000001
 43
0.00000001
 40
0.0
 40
0.0
 40
0.0
 40
0.0
 40
0.1474359376230618
 40
0.4794671065464775
 40
0.8188674347468204
 40
0.9999999999999999
 40
0.9999999999999999
 40
0.9999999999999999
 40
0.9999999999999999
 10
430.2549545762237
 20
191.6525227118856
 30
0.0
 10
430.1451224305292
 20
191.8791567316875
 30
0.0
 10
429.7879442421519
 20
192.6161789222826
 30
0.0
 10
429.2954047534173
 20
193.928443388722
 30
0.0
 10
428.9794473300294
 20
195.3611261382171
 30
0.0
 10
428.950183194843
 20
196.2505147669641
 30
0.0
 10
428.94
 20
196.5599999999974
 30
0.0
  0
SPLINE
  5
180
330
1F
100
AcDbEntity
  8
0
  6
Continuous
 62
     7
370
    25
100
AcDbSpline
210
0.0
220
0.0
230
1.0
 70
     8
 71
     3
 72
    10
 73
     6
 74
     0
 42
0.000000001
 43
0.00000001
 40
0.0
 40
0.0
 40
0.0
 40
0.0
 40
0.2497057580813442
 40
0.504622389900451
 40
1.0
 40
1.0
 40
1.0
 40
1.0
 10
420.94
 20
189.1987840678297
 30
0.0
 10
420.9592728979863
 20
189.4120311176042
 30
0.0
 10
420.9982208818731
 20
189.8429752685252
 30
0.0
 10
421.37759587043
 20
190.6806207108067
 30
0.0
 10
421.9060473915811
 20
191.2660176385267
 30
0.0
 10
422.2549545762237
 20
191.6525227118856
 30
0.0
  0
LINE
  5
181
330
1F
100
AcDbEntity
  8
0
  6
Continuous
 62
     7
370
    25
100
AcDbLine
 10
420.94
 20
196.56
 30
0.0
 11
420.94
 21
189.1987840678
 31
0.0
  0
SPLINE
  5
182
330
1F
100
AcDbEntity
  8
0
  6
Continuous
 62
     7
370
    25
100
AcDbSpline
210
0.0
220
0.0
230
1.0
 70
     8
 71
     3
 72
    10
 73
     6
 74
     0
 42
0.000000001
 43
0.00000001
 40
0.0
 40
0.0
 40
0.0
 40
0.0
 40
0.3327966051279221
 40
0.671131415823687
 40
1.0
 40
1.0
 40
1.0
 40
1.0
 10
422.2549545762237
 20
191.6525227118856
 30
0.0
 10
422.0155055427252
 20
192.1678881988242
 30
0.0
 10
421.532622705601
 20
193.2071955823318
 30
0.0
 10
421.0417169906444
 20
194.8577656150918
 30
0.0
 10
420.9735834391525
 20
195.997980965354
 30
0.0
 10
420.94
 20
196.5599999999974
 30
0.0
  0
SPLINE
  5
183
330
1F
100
AcDbEntity
  8
0
  6
Continuous
 62
     7
370
    25
100
AcDbSpline
210
0.0
220
0.0
230
1.0
 70
     8
 71
     3
 72
    11
 73
     7
 74
     0
 42
0.000000001
 43
0.00000001
 40
0.0
 40
0.0
 40
0.0
 40
0.0
 40
0.2468650516632574
 40
0.4987789882867756
 40
0.7482074274949984
 40
1.0
 40
1.0
 40
1.0
 40
1.0
 10
428.94
 20
196.5599999999974
 30
0.0
 10
428.9583401463468
 20
196.9820940813855
 30
0.0
 10
428.9953955317821
 20
197.8349149138934
 30
0.0
 10
429.2843249499524
 20
199.0859633515902
 30
0.0
 10
429.7021934918506
 20
200.304904782735
 30
0.0
 10
430.070122405421
 20
201.0787364632599
 30
0.0
 10
430.2549545762237
 20
201.4674772881093
 30
0.0
  0
LINE
  5
184
330
1F
100
AcDbEntity
  8
0
  6
Continuous
 62
     7
370
    25
100
AcDbLine
 10
428.94
 20
203.9212159322
 30
0.0
 11
428.94
 21
196.56
 31
0.0
  0
SPLINE
  5
185
330
1F
100
AcDbEntity
  8
0
  6
Continuous
 62
     7
370
    25
100
AcDbSpline
210
0.0
220
0.0
230
1.0
 70
     8
 71
     3
 72
    11
 73
     7
 74
     0
 42
0.000000001
 43
0.00000001
 40
0.0
 40
0.0
 40
0.0
 40
0.0
 40
0.4320430193638692
 40
0.6543455292941814
 40
0.8796482225985337
 40
1.0
 40
1.0
 40
1.0
 40
1.0
 10
430.2549545762237
 20
201.4674772881093
 30
0.0
 10
429.9457800940943
 20
201.803600618943
 30
0.0
 10
429.4775236217388
 20
202.3126721441499
 30
0.0
 10
429.0990216744681
 20
203.0416706868906
 30
0.0
 10
428.9573115647628
 20
203.5231618137162
 30
0.0
 10
428.9444709220043
 20
203.8184136181364
 30
0.0
 10
428.94
 20
203.9212159321652
 30
0.0
  0
SPLINE
  5
186
330
1F
100
AcDbEntity
  8
0
  6
Continuous
 62
     7
370
    25
100
AcDbSpline
210
0.0
220
0.0
230
1.0
 70
     8
 71
     3
 72
    11
 73
     7
 74
     0
 42
0.000000001
 43
0.00000001
 40
0.0
 40
0.0
 40
0.0
 40
0.0
 40
0.0035612647728532
 40
0.3440427754292038
 40
0.690592026664838
 40
0.9999999999999999
 40
0.9999999999999999
 40
0.9999999999999999
 40
0.9999999999999999
 10
427.6250454237763
 20
201.4674772881093
 30
0.0
 10
427.6277631099348
 20
201.4620375425168
 30
0.0
 10
427.8903103644469
 20
200.9365205448738
 30
0.0
 10
428.3626977814922
 20
199.8550584879357
 30
0.0
 10
428.8485263285062
 20
198.2103719671962
 30
0.0
 10
428.910681889743
 20
197.0889586228355
 30
0.0
 10
428.94
 20
196.5599999999974
 30
0.0
  0
SPLINE
  5
187
330
1F
100
AcDbEntity
  8
0
  6
Continuous
 62
     7
370
    25
100
AcDbSpline
210
0.0
220
0.0
230
1.0
 70
     8
 71
     3
 72
    10
 73
     6
 74
     0
 42
0.000000001
 43
0.00000001
 40
0.0
 40
0.0
 40
0.0
 40
0.0
 40
0.274584477196565
 40
0.6326482916133181
 40
1.0
 40
1.0
 40
1.0
 40
1.0
 10
428.94
 20
196.5599999999974
 30
0.0
 10
428.9163517617275
 20
196.090901501497
 30
0.0
 10
428.861865733619
 20
195.0100888980147
 30
0.0
 10
428.4075351898118
 20
193.3472461558126
 30
0.0
 10
427.88809225035
 20
192.2222319185677
 30
0.0
 10
427.6250454237763
 20
191.6525227118856
 30
0.0
  0
LINE
  5
188
330
1F
100
AcDbEntity
  8
0
  6
Continuous
 62
     7
370
    25
100
AcDbLine
 10
427.6250454238
 20
191.6525227119
 30
0.0
 11
422.2549545762
 21
191.6525227119
 31
0.0
  0
SPLINE
  5
189
330
1F
100
AcDbEntity
  8
0
  6
Continuous
 62
     7
370
    25
100
AcDbSpline
210
0.0
220
0.0
230
1.0
 70
     8
 71
     3
 72
    11
 73
     7
 74
     0
 42
0.000000001
 43
0.00000001
 40
0.0
 40
0.0
 40
0.0
 40
0.0
 40
0.4320430193638704
 40
0.6543455292941827
 40
0.8796482225985359
 40
1.0
 40
1.0
 40
1.0
 40
1.0
 10
427.6250454237763
 20
191.6525227118856
 30
0.0
 10
427.9342199059056
 20
191.3163993810518
 30
0.0
 10
428.402476378261
 20
190.807327855845
 30
0.0
 10
428.780978325532
 20
190.0783293131043
 30
0.0
 10
428.9226884352371
 20
189.5968381862786
 30
0.0
 10
428.9355290779957
 20
189.3015863818585
 30
0.0
 10
428.94
 20
189.1987840678297
 30
0.0
  0
SPLINE
  5
18A
330
1F
100
AcDbEntity
  8
0
  6
Continuous
 62
     7
370
    25
100
AcDbSpline
210
0.0
220
0.0
230
1.0
 70
     8
 71
     3
 72
    10
 73
     6
 74
     0
 42
0.000000001
 43
0.00000001
 40
0.0
 40
0.0
 40
0.0
 40
0.0
 40
0.2497057580813443
 40
0.5046223899004513
 40
1.0
 40
1.0
 40
1.0
 40
1.0
 10
428.94
 20
189.1987840678297
 30
0.0
 10
428.9207271020137
 20
188.9855370180552
 30
0.0
 10
428.8817791181269
 20
188.5545928671342
 30
0.0
 10
428.50240412957
 20
187.7169474248527
 30
0.0
 10
427.9739526084189
 20
187.1315504971327
 30
0.0
 10
427.6250454237763
 20
186.7450454237738
 30
0.0
  0
LINE
  5
18B
330
1F
100
AcDbEntity
  8
0
  6
Continuous
 62
     7
370
    25
100
AcDbLine
 10
427.6250454238
 20
186.7450454238
 30
0.0
 11
422.2549545762
 21
186.7450454238
 31
0.0
  0
SPLINE
  5
18C
330
1F
100
AcDbEntity
  8
0
  6
Continuous
 62
     7
370
    25
100
AcDbSpline
210
0.0
220
0.0
230
1.0
 70
     8
 71
     3
 72
    13
 73
     9
 74
     0
 42
0.000000001
 43
0.00000001
 40
0.0
 40
0.0
 40
0.0
 40
0.0
 40
0.2155124587266794
 40
0.4322171508467775
 40
0.6544438250757277
 40
0.8796696592039465
 40
0.9397957081739265
 40
1.0
 40
1.0
 40
1.0
 40
1.0
 10
422.2549545762237
 20
186.7450454237738
 30
0.0
 10
422.0959589032207
 20
186.9111876373196
 30
0.0
 10
421.7770879795241
 20
187.2443911773766
 30
0.0
 10
421.3893690243887
 20
187.7697467087317
 30
0.0
 10
421.0963540376217
 20
188.3189122092755
 30
0.0
 10
420.9763299899003
 20
188.7497392654569
 30
0.0
 10
420.9432570583223
 20
189.0445443797723
 30
0.0
 10
420.9410861566386
 20
189.1473485562267
 30
0.0
 10
420.94
 20
189.1987840678297
 30
0.0
  0
SPLINE
  5
18D
330
1F
100
AcDbEntity
  8
0
  6
Continuous
 62
     7
370
    25
100
AcDbSpline
210
0.0
220
0.0
230
1.0
 70
     8
 71
     3
 72
    11
 73
     7
 74
     0
 42
0.000000001
 43
0.00000001
 40
0.0
 40
0.0
 40
0.0
 40
0.0
 40
0.1474359376230583
 40
0.4794671065464745
 40
0.8188674347468179
 40
1.0
 40
1.0
 40
1.0
 40
1.0
 10
433.6250454237763
 20
201.4674772881093
 30
0.0
 10
433.7348775694708
 20
201.2408432683074
 30
0.0
 10
434.092055757848
 20
200.5038210777123
 30
0.0
 10
434.5845952465826
 20
199.1915566112729
 30
0.0
 10
434.9005526699705
 20
197.7588738617778
 30
0.0
 10
434.929816805157
 20
196.8694852330308
 30
0.0
 10
434.94
 20
196.5599999999974
 30
0.0
  0
SPLINE
  5
18E
330
1F
100
AcDbEntity
  8
0
  6
Continuous
 62
     7
370
    25
100
AcDbSpline
210
0.0
220
0.0
230
1.0
 70
     8
 71
     3
 72
    10
 73
     6
 74
     0
 42
0.000000001
 43
0.00000001
 40
0.0
 40
0.0
 40
0.0
 40
0.0
 40
0.2497057580813437
 40
0.5046223899004502
 40
1.0
 40
1.0
 40
1.0
 40
1.0
 10
434.94
 20
203.9212159321652
 30
0.0
 10
434.9207271020137
 20
203.7079688823906
 30
0.0
 10
434.8817791181269
 20
203.2770247314697
 30
0.0
 10
434.50240412957
 20
202.4393792891881
 30
0.0
 10
433.9739526084189
 20
201.8539823614682
 30
0.0
 10
433.6250454237763
 20
201.4674772881093
 30
0.0
  0
LINE
  5
18F
330
1F
100
AcDbEntity
  8
0
  6
Continuous
 62
     7
370
    25
100
AcDbLine
 10
434.94
 20
203.9212159322
 30
0.0
 11
434.94
 21
196.56
 31
0.0
  0
SPLINE
  5
190
330
1F
100
AcDbEntity
  8
0
  6
Continuous
 62
     7
370
    25
100
AcDbSpline
210
0.0
220
0.0
230
1.0
 70
     8
 71
     3
 72
    11
 73
     7
 74
     0
 42
0.000000001
 43
0.00000001
 40
0.0
 40
0.0
 40
0.0
 40
0.0
 40
0.4320430193638687
 40
0.6543455292941818
 40
0.8796482225985357
 40
1.0
 40
1.0
 40
1.0
 40
1.0
 10
433.6250454237763
 20
191.6525227118856
 30
0.0
 10
433.9342199059056
 20
191.3163993810518
 30
0.0
 10
434.4024763782611
 20
190.807327855845
 30
0.0
 10
434.780978325532
 20
190.0783293131043
 30
0.0
 10
434.9226884352372
 20
189.5968381862786
 30
0.0
 10
434.9355290779957
 20
189.3015863818585
 30
0.0
 10
434.94
 20
189.1987840678297
 30
0.0
  0
SPLINE
  5
191
330
1F
100
AcDbEntity
  8
0
  6
Continuous
 62
     7
370
    25
100
AcDbSpline
210
0.0
220
0.0
230
1.0
 70
     8
 71
     3
 72
    11
 73
     7
 74
     0
 42
0.000000001
 43
0.00000001
 40
0.0
 40
0.0
 40
0.0
 40
0.0
 40
0.2468650516632566
 40
0.4987789882867753
 40
0.7482074274949995
 40
1.0
 40
1.0
 40
1.0
 40
1.0
 10
434.94
 20
196.5599999999974
 30
0.0
 10
434.9216598536532
 20
196.1379059186094
 30
0.0
 10
434.8846044682178
 20
195.2850850861014
 30
0.0
 10
434.5956750500475
 20
194.0340366484047
 30
0.0
 10
434.1778065081493
 20
192.8150952172599
 30
0.0
 10
433.809877594579
 20
192.041263536735
 30
0.0
 10
433.6250454237763
 20
191.6525227118856
 30
0.0
  0
LINE
  5
192
330
1F
100
AcDbEntity
  8
0
  6
Continuous
 62
     7
370
    25
100
AcDbLine
 10
434.94
 20
196.56
 30
0.0
 11
434.94
 21
189.1987840678
 31
0.0
  0
LINE
  5
193
330
1F
100
AcDbEntity
  8
0
  6
Continuous
 62
     7
370
    25
100
AcDbLine
 10
433.6250454238
 20
201.4674772881
 30
0.0
 11
430.2549545762
 21
201.4674772881
 31
0.0
  0
LINE
  5
194
330
1F
100
AcDbEntity
  8
0
  6
Continuous
 62
     7
370
    25
100
AcDbLine
 10
433.6250454238
 20
191.6525227119
 30
0.0
 11
430.2549545762
 21
191.6525227119
 31
0.0
  0
SPLINE
  5
195
330
1F
100
AcDbEntity
  8
0
  6
Continuous
 62
     7
370
    25
100
AcDbSpline
210
0.0
220
0.0
230
1.0
 70
     8
 71
     3
 72
    10
 73
     6
 74
     0
 42
0.000000001
 43
0.00000001
 40
0.0
 40
0.0
 40
0.0
 40
0.0
 40
0.2497057580813427
 40
0.5046223899004469
 40
1.0
 40
1.0
 40
1.0
 40
1.0
 10
428.94
 20
203.9212159321652
 30
0.0
 10
428.9592728979863
 20
204.1344629819397
 30
0.0
 10
428.9982208818731
 20
204.5654071328606
 30
0.0
 10
429.3775958704299
 20
205.4030525751422
 30
0.0
 10
429.9060473915811
 20
205.9884495028622
 30
0.0
 10
430.2549545762237
 20
206.3749545762211
 30
0.0
  0
LINE
  5
196
330
1F
100
AcDbEntity
  8
0
  6
Continuous
 62
     7
370
    25
100
AcDbLine
 10
433.6250454238
 20
206.3749545762
 30
0.0
 11
430.2549545762
 21
206.3749545762
 31
0.0
  0
SPLINE
  5
197
330
1F
100
AcDbEntity
  8
0
  6
Continuous
 62
     7
370
    25
100
AcDbSpline
210
0.0
220
0.0
230
1.0
 70
     8
 71
     3
 72
    11
 73
     7
 74
     0
 42
0.000000001
 43
0.00000001
 40
0.0
 40
0.0
 40
0.0
 40
0.0
 40
0.4320430193638686
 40
0.6543455292941812
 40
0.8796482225985353
 40
1.0
 40
1.0
 40
1.0
 40
1.0
 10
433.6250454237764
 20
206.3749545762211
 30
0.0
 10
433.9342199059056
 20
206.0388312453873
 30
0.0
 10
434.4024763782611
 20
205.5297597201804
 30
0.0
 10
434.7809783255319
 20
204.8007611774397
 30
0.0
 10
434.9226884352372
 20
204.3192700506141
 30
0.0
 10
434.9355290779957
 20
204.0240182461939
 30
0.0
 10
434.94
 20
203.9212159321652
 30
0.0
  0
SPLINE
  5
198
330
1F
100
AcDbEntity
  8
0
  6
Continuous
 62
     7
370
    25
100
AcDbSpline
210
0.0
220
0.0
230
1.0
 70
     8
 71
     3
 72
    10
 73
     6
 74
     0
 42
0.000000001
 43
0.00000001
 40
0.0
 40
0.0
 40
0.0
 40
0.0
 40
0.2497057580813435
 40
0.5046223899004497
 40
1.0
 40
1.0
 40
1.0
 40
1.0
 10
434.94
 20
189.1987840678297
 30
0.0
 10
434.9207271020136
 20
188.9855370180552
 30
0.0
 10
434.8817791181269
 20
188.5545928671342
 30
0.0
 10
434.50240412957
 20
187.7169474248527
 30
0.0
 10
433.9739526084189
 20
187.1315504971327
 30
0.0
 10
433.6250454237763
 20
186.7450454237738
 30
0.0
  0
LINE
  5
199
330
1F
100
AcDbEntity
  8
0
  6
Continuous
 62
     7
370
    25
100
AcDbLine
 10
433.6250454238
 20
186.7450454238
 30
0.0
 11
430.2549545762
 21
186.7450454238
 31
0.0
  0
SPLINE
  5
19A
330
1F
100
AcDbEntity
  8
0
  6
Continuous
 62
     7
370
    25
100
AcDbSpline
210
0.0
220
0.0
230
1.0
 70
     8
 71
     3
 72
    11
 73
     7
 74
     0
 42
0.000000001
 43
0.00000001
 40
0.0
 40
0.0
 40
0.0
 40
0.0
 40
0.4320430193638708
 40
0.6543455292941842
 40
0.8796482225985374
 40
1.0
 40
1.0
 40
1.0
 40
1.0
 10
430.2549545762237
 20
186.7450454237738
 30
0.0
 10
429.9457800940944
 20
187.0811687546076
 30
0.0
 10
429.4775236217389
 20
187.5902402798145
 30
0.0
 10
429.099021674468
 20
188.3192388225551
 30
0.0
 10
428.9573115647627
 20
188.8007299493808
 30
0.0
 10
428.9444709220043
 20
189.0959817538009
 30
0.0
 10
428.94
 20
189.1987840678297
 30
0.0
  0
LINE
  5
19B
330
1F
100
AcDbEntity
  8
0
  6
Continuous
 62
     7
370
    25
100
AcDbLine
 10
437.94
 20
201.56
 30
0.0
 11
437.94
 21
191.56
 31
0.0
  0
LINE
  5
19C
330
1F
100
AcDbEntity
  8
0
  6
Continuous
 62
     7
370
    25
100
AcDbLine
 10
447.94
 20
191.56
 30
0.0
 11
447.94
 21
201.56
 31
0.0
  0
LINE
  5
19D
330
1F
100
AcDbEntity
  8
0
  6
Continuous
 62
     7
370
    25
100
AcDbLine
 10
436.94
 20
200.56
 30
0.0
 11
436.94
 21
192.56
 31
0.0
  0
LINE
  5
19E
330
1F
100
AcDbEntity
  8
0
  6
Continuous
 62
     7
370
    25
100
AcDbLine
 10
448.94
 20
200.56
 30
0.0
 11
448.94
 21
192.56
 31
0.0
  0
LINE
  5
19F
330
1F
100
AcDbEntity
  8
0
  6
Continuous
 62
     7
370
    25
100
AcDbLine
 10
434.94
 20
189.1987840678
 30
0.0
 11
434.94
 21
188.06
 31
0.0
  0
LINE
  5
1A0
330
1F
100
AcDbEntity
  8
0
  6
Continuous
 62
     7
370
    25
100
AcDbLine
 10
434.94
 20
205.06
 30
0.0
 11
434.94
 21
203.9212159322
 31
0.0
  0
LINE
  5
1A1
330
1F
100
AcDbEntity
  8
0
  6
Continuous
 62
     7
370
    25
100
AcDbLine
 10
420.94
 20
189.1987840678
 30
0.0
 11
420.94
 21
188.06
 31
0.0
  0
LINE
  5
1A2
330
1F
100
AcDbEntity
  8
0
  6
Continuous
 62
     7
370
    25
100
AcDbLine
 10
428.94
 20
189.1987840678
 30
0.0
 11
428.94
 21
188.06
 31
0.0
  0
LINE
  5
1A3
330
1F
100
AcDbEntity
  8
0
  6
Continuous
 62
     7
370
    25
100
AcDbLine
 10
420.94
 20
205.06
 30
0.0
 11
420.94
 21
203.9212159322
 31
0.0
  0
LINE
  5
1A4
330
1F
100
AcDbEntity
  8
0
  6
Continuous
 62
     7
370
    25
100
AcDbLine
 10
428.94
 20
205.06
 30
0.0
 11
428.94
 21
203.9212159322
 31
0.0
  0
LINE
  5
1A5
330
1F
100
AcDbEntity
  8
0
  6
Continuous
 62
     7
370
    25
100
AcDbLine
 10
415.44
 20
187.56
 30
0.0
 11
415.44
 21
205.56
 31
0.0
  0
LINE
  5
1A6
330
1F
100
AcDbEntity
  8
0
  6
Continuous
 62
     7
370
    25
100
AcDbLine
 10
415.94
 20
204.06
 30
0.0
 11
415.94
 21
200.56
 31
0.0
  0
LINE
  5
1A7
330
1F
100
AcDbEntity
  8
0
  6
Continuous
 62
     7
370
    25
100
AcDbLine
 10
415.94
 20
200.56
 30
0.0
 11
415.94
 21
192.56
 31
0.0
  0
LINE
  5
1A8
330
1F
100
AcDbEntity
  8
0
  6
Continuous
 62
     7
370
    25
100
AcDbLine
 10
415.94
 20
192.56
 30
0.0
 11
415.94
 21
189.06
 31
0.0
  0
LINE
  5
1A9
330
1F
100
AcDbEntity
  8
0
  6
Continuous
 62
     7
370
    25
100
AcDbLine
 10
415.94
 20
189.06
 30
0.0
 11
415.94
 21
188.06
 31
0.0
  0
LINE
  5
1AA
330
1F
100
AcDbEntity
  8
0
  6
Continuous
 62
     7
370
    25
100
AcDbLine
 10
415.94
 20
205.06
 30
0.0
 11
415.94
 21
204.06
 31
0.0
  0
LINE
  5
1AB
330
1F
100
AcDbEntity
  8
0
  6
Continuous
 62
     7
370
    25
100
AcDbLine
 10
420.64
 20
200.56
 30
0.0
 11
420.64
 21
204.06
 31
0.0
  0
LINE
  5
1AC
330
1F
100
AcDbEntity
  8
0
  6
Continuous
 62
     7
370
    25
100
AcDbLine
 10
420.64
 20
204.06
 30
0.0
 11
420.94
 21
204.06
 31
0.0
  0
LINE
  5
1AD
330
1F
100
AcDbEntity
  8
0
  6
Continuous
 62
     7
370
    25
100
AcDbLine
 10
420.94
 20
199.8751168908
 30
0.0
 11
420.64
 21
200.56
 31
0.0
  0
LINE
  5
1AE
330
1F
100
AcDbEntity
  8
0
  6
Continuous
 62
     7
370
    25
100
AcDbLine
 10
420.64
 20
189.06
 30
0.0
 11
420.64
 21
192.56
 31
0.0
  0
LINE
  5
1AF
330
1F
100
AcDbEntity
  8
0
  6
Continuous
 62
     7
370
    25
100
AcDbLine
 10
420.64
 20
192.56
 30
0.0
 11
420.94
 21
193.2448831091
 31
0.0
  0
LINE
  5
1B0
330
1F
100
AcDbEntity
  8
0
  6
Continuous
 62
     7
370
    25
100
AcDbLine
 10
420.94
 20
189.06
 30
0.0
 11
420.64
 21
189.06
 31
0.0
  0
LINE
  5
1B1
330
1F
100
AcDbEntity
  8
0
  6
Continuous
 62
     7
370
    25
100
AcDbLine
 10
415.94
 20
200.56
 30
0.0
 11
420.64
 21
200.56
 31
0.0
  0
LINE
  5
1B2
330
1F
100
AcDbEntity
  8
0
  6
Continuous
 62
     7
370
    25
100
AcDbLine
 10
415.94
 20
192.56
 30
0.0
 11
420.64
 21
192.56
 31
0.0
  0
LINE
  5
1B3
330
1F
100
AcDbEntity
  8
0
  6
Continuous
 62
     7
370
    25
100
AcDbLine
 10
415.94
 20
189.06
 30
0.0
 11
420.64
 21
189.06
 31
0.0
  0
LINE
  5
1B4
330
1F
100
AcDbEntity
  8
0
  6
Continuous
 62
     7
370
    25
100
AcDbLine
 10
415.94
 20
204.06
 30
0.0
 11
420.64
 21
204.06
 31
0.0
  0
LINE
  5
1B5
330
1F
100
AcDbEntity
  8
0
  6
Continuous
 62
     7
370
    25
100
AcDbLine
 10
298.94
 20
181.56
 30
0.0
 11
298.94
 21
211.56
 31
0.0
  0
LINE
  5
1B6
330
1F
100
AcDbEntity
  8
0
  6
Continuous
 62
     7
370
    25
100
AcDbLine
 10
299.94
 20
210.56
 30
0.0
 11
299.94
 21
182.56
 31
0.0
  0
LINE
  5
1B7
330
1F
100
AcDbEntity
  8
0
  6
Continuous
 62
     7
370
    25
100
AcDbLine
 10
286.2282612179
 20
183.701025641
 30
0.0
 11
286.081025641
 21
183.701025641
 31
0.0
  0
SPLINE
  5
1B8
330
1F
100
AcDbEntity
  8
0
  6
Continuous
 62
     7
370
    25
100
AcDbSpline
210
0.0
220
0.0
230
1.0
 70
     8
 71
     3
 72
     9
 73
     5
 74
     0
 42
0.000000001
 43
0.00000001
 40
0.0
 40
0.0
 40
0.0
 40
0.0
 40
0.5588328183272361
 40
1.0
 40
1.0
 40
1.0
 40
1.0
 10
286.8739943910256
 20
183.602868589741
 30
0.0
 10
286.756041991592
 20
183.6377578592428
 30
0.0
 10
286.5449727852655
 20
183.7001902511093
 30
0.0
 10
286.3252123221184
 20
183.700769913153
 30
0.0
 10
286.2282612179487
 20
183.7010256410231
 30
0.0
  0
SPLINE
  5
1B9
330
1F
100
AcDbEntity
  8
0
  6
Continuous
 62
     7
370
    25
100
AcDbSpline
210
0.0
220
0.0
230
1.0
 70
     8
 71
     3
 72
    10
 73
     6
 74
     0
 42
0.000000001
 43
0.00000001
 40
0.0
 40
0.0
 40
0.0
 40
0.0
 40
0.5599051122412627
 40
0.7805074142072769
 40
1.0
 40
1.0
 40
1.0
 40
1.0
 10
287.4271794871794
 20
182.2665304487154
 30
0.0
 10
287.4071639769918
 20
182.5497053286603
 30
0.0
 10
287.3792623669528
 20
182.9444509533779
 30
0.0
 10
287.1478555466364
 20
183.4080404495565
 30
0.0
 10
286.9651278579327
 20
183.5380351385476
 30
0.0
 10
286.8739943910256
 20
183.602868589741
 30
0.0
  0
SPLINE
  5
1BA
330
1F
100
AcDbEntity
  8
0
  6
Continuous
 62
     7
370
    25
100
AcDbSpline
210
0.0
220
0.0
230
1.0
 70
     8
 71
     3
 72
    10
 73
     6
 74
     0
 42
0.000000001
 43
0.00000001
 40
0.0
 40
0.0
 40
0.0
 40
0.0
 40
0.2782874991436126
 40
0.5588626993535206
 40
1.0
 40
1.0
 40
1.0
 40
1.0
 10
286.9223717948717
 20
181.0080168269205
 30
0.0
 10
287.0250738080612
 20
181.0926657321518
 30
0.0
 10
287.231322110614
 20
181.2626594107054
 30
0.0
 10
287.3961734511218
 20
181.7209220021529
 30
0.0
 10
287.4154170746714
 20
182.0595490853308
 30
0.0
 10
287.4271794871794
 20
182.2665304487154
 30
0.0
  0
SPLINE
  5
1BB
330
1F
100
AcDbEntity
  8
0
  6
Continuous
 62
     7
370
    25
100
AcDbSpline
210
0.0
220
0.0
230
1.0
 70
     8
 71
     3
 72
     9
 73
     5
 74
     0
 42
0.000000001
 43
0.00000001
 40
0.0
 40
0.0
 40
0.0
 40
0.0
 40
0.5610175304379389
 40
1.0
 40
1.0
 40
1.0
 40
1.0
 10
286.3222115384615
 20
180.9189743589718
 30
0.0
 10
286.4371860576825
 20
180.9186557294368
 30
0.0
 10
286.642125320688
 20
180.9180877800987
 30
0.0
 10
286.8368785439632
 20
180.9805826670928
 30
0.0
 10
286.9223717948717
 20
181.0080168269205
 30
0.0
  0
LINE
  5
1BC
330
1F
100
AcDbEntity
  8
0
  6
Continuous
 62
     7
370
    25
100
AcDbLine
 10
286.081025641
 20
180.918974359
 30
0.0
 11
286.3222115385
 21
180.918974359
 31
0.0
  0
LINE
  5
1BD
330
1F
100
AcDbEntity
  8
0
  6
Continuous
 62
     7
370
    25
100
AcDbLine
 10
286.081025641
 20
183.701025641
 30
0.0
 11
286.081025641
 21
180.918974359
 31
0.0
  0
SPLINE
  5
1BE
330
1F
100
AcDbEntity
  8
0
  6
Continuous
 62
     7
370
    25
100
AcDbSpline
210
0.0
220
0.0
230
1.0
 70
     8
 71
     3
 72
     9
 73
     5
 74
     0
 42
0.000000001
 43
0.00000001
 40
0.0
 40
0.0
 40
0.0
 40
0.0
 40
0.5592435255972086
 40
0.9999999999999999
 40
0.9999999999999999
 40
0.9999999999999999
 40
0.9999999999999999
 10
282.4506169871794
 20
182.1788902243564
 30
0.0
 10
282.3809069264104
 20
182.1939081949902
 30
0.0
 10
282.2562562910819
 20
182.2207622754515
 30
0.0
 10
282.1288621376637
 20
182.2204111646242
 30
0.0
 10
282.0727123397436
 20
182.2202564102538
 30
0.0
  0
SPLINE
  5
1BF
330
1F
100
AcDbEntity
  8
0
  6
Continuous
 62
     7
370
    25
100
AcDbSpline
210
0.0
220
0.0
230
1.0
 70
     8
 71
     3
 72
    10
 73
     6
 74
     0
 42
0.000000001
 43
0.00000001
 40
0.0
 40
0.0
 40
0.0
 40
0.0
 40
0.5579341166845264
 40
0.7790958377380325
 40
1.0
 40
1.0
 40
1.0
 40
1.0
 10
282.8053846153846
 20
181.5534895833308
 30
0.0
 10
282.7881458359743
 20
181.6971386841984
 30
0.0
 10
282.7640737083081
 20
181.8977294228432
 30
0.0
 10
282.6020797567121
 20
182.1033934089308
 30
0.0
 10
282.5010849629812
 20
182.1537343958596
 30
0.0
 10
282.4506169871794
 20
182.1788902243564
 30
0.0
  0
SPLINE
  5
1C0
330
1F
100
AcDbEntity
  8
0
  6
Continuous
 62
     7
370
    25
100
AcDbSpline
210
0.0
220
0.0
230
1.0
 70
     8
 71
     3
 72
    10
 73
     6
 74
     0
 42
0.000000001
 43
0.00000001
 40
0.0
 40
0.0
 40
0.0
 40
0.0
 40
0.2820916050813001
 40
0.5599480323354078
 40
1.0
 40
1.0
 40
1.0
 40
1.0
 10
282.2185456730768
 20
180.9189743589718
 30
0.0
 10
282.3132800937721
 20
180.9202358706046
 30
0.0
 10
282.5013266414438
 20
180.9227399541854
 30
0.0
 10
282.764166471214
 20
181.1656098169057
 30
0.0
 10
282.7897207584583
 20
181.4060862179411
 30
0.0
 10
282.8053846153846
 20
181.5534895833308
 30
0.0
  0
LINE
  5
1C1
330
1F
100
AcDbEntity
  8
0
  6
Continuous
 62
     7
370
    25
100
AcDbLine
 10
281.9528205128
 20
180.918974359
 30
0.0
 11
282.2185456731
 21
180.918974359
 31
0.0
  0
LINE
  5
1C2
330
1F
100
AcDbEntity
  8
0
  6
Continuous
 62
     7
370
    25
100
AcDbLine
 10
282.0727123397
 20
182.2202564103
 30
0.0
 11
281.9528205128
 21
182.2202564103
 31
0.0
  0
LINE
  5
1C3
330
1F
100
AcDbEntity
  8
0
  6
Continuous
 62
     7
370
    25
100
AcDbLine
 10
281.9528205128
 20
182.2202564103
 30
0.0
 11
281.9528205128
 21
180.918974359
 31
0.0
  0
SPLINE
  5
1C4
330
1F
100
AcDbEntity
  8
0
  6
Continuous
 62
     7
370
    25
100
AcDbSpline
210
0.0
220
0.0
230
1.0
 70
     8
 71
     3
 72
    11
 73
     7
 74
     0
 42
0.000000001
 43
0.00000001
 40
0.0
 40
0.0
 40
0.0
 40
0.0
 40
0.2811257825974711
 40
0.5607008192055891
 40
0.7795609816722253
 40
1.0
 40
1.0
 40
1.0
 40
1.0
 10
282.6258974358974
 20
183.1864022435872
 30
0.0
 10
282.6223230442235
 20
183.2576221353681
 30
0.0
 10
282.6151939779345
 20
183.3996690557762
 30
0.0
 10
282.5288793367815
 20
183.5877537353939
 30
0.0
 10
282.3674686579052
 20
183.690882347362
 30
0.0
 10
282.255233520121
 20
183.6976364516443
 30
0.0
 10
282.1989142628204
 20
183.7010256410231
 30
0.0
  0
SPLINE
  5
1C5
330
1F
100
AcDbEntity
  8
0
  6
Continuous
 62
     7
370
    25
100
AcDbSpline
210
0.0
220
0.0
230
1.0
 70
     8
 71
     3
 72
    10
 73
     6
 74
     0
 42
0.000000001
 43
0.00000001
 40
0.0
 40
0.0
 40
0.0
 40
0.0
 40
0.2820333224778768
 40
0.5596519176540398
 40
1.0
 40
1.0
 40
1.0
 40
1.0
 10
282.0748157051282
 20
182.5792307692282
 30
0.0
 10
282.1649804362947
 20
182.5804899717546
 30
0.0
 10
282.3438985310034
 20
182.5829886662436
 30
0.0
 10
282.5929225918176
 20
182.8161500161093
 30
0.0
 10
282.6133616296906
 20
183.0456461520627
 30
0.0
 10
282.6258974358974
 20
183.1864022435872
 30
0.0
  0
LINE
  5
1C6
330
1F
100
AcDbEntity
  8
0
  6
Continuous
 62
     7
370
    25
100
AcDbLine
 10
281.9528205128
 20
182.5792307692
 30
0.0
 11
282.0748157051
 21
182.5792307692
 31
0.0
  0
LINE
  5
1C7
330
1F
100
AcDbEntity
  8
0
  6
Continuous
 62
     7
370
    25
100
AcDbLine
 10
281.9528205128
 20
183.701025641
 30
0.0
 11
281.9528205128
 21
182.5792307692
 31
0.0
  0
LINE
  5
1C8
330
1F
100
AcDbEntity
  8
0
  6
Continuous
 62
     7
370
    25
100
AcDbLine
 10
282.1989142628
 20
183.701025641
 30
0.0
 11
281.9528205128
 21
183.701025641
 31
0.0
  0
SPLINE
  5
1C9
330
1F
100
AcDbEntity
  8
0
  6
Continuous
 62
     7
370
    25
100
AcDbSpline
210
0.0
220
0.0
230
1.0
 70
     8
 71
     3
 72
    11
 73
     7
 74
     0
 42
0.000000001
 43
0.00000001
 40
0.0
 40
0.0
 40
0.0
 40
0.0
 40
0.1252409509896356
 40
0.2510938105934032
 40
0.5012549088836648
 40
1.0
 40
1.0
 40
1.0
 40
1.0
 10
296.5810256410256
 20
180.5151282051256
 30
0.0
 10
296.5653351572568
 20
180.5169710975023
 30
0.0
 10
296.5338775283549
 20
180.520665886353
 30
0.0
 10
296.481327487188
 20
180.5573843801188
 30
0.0
 10
296.4175331694883
 20
180.6493269084294
 30
0.0
 10
296.4079323010658
 20
180.7438474962224
 30
0.0
 10
296.4015384615385
 20
180.8067948717923
 30
0.0
  0
SPLINE
  5
1CA
330
1F
100
AcDbEntity
  8
0
  6
Continuous
 62
     7
370
    25
100
AcDbSpline
210
0.0
220
0.0
230
1.0
 70
     8
 71
     3
 72
    11
 73
     7
 74
     0
 42
0.000000001
 43
0.00000001
 40
0.0
 40
0.0
 40
0.0
 40
0.0
 40
0.4987450911163368
 40
0.7489061894065994
 40
0.8747590490103624
 40
1.0
 40
1.0
 40
1.0
 40
1.0
 10
296.7605128205128
 20
180.8067948717923
 30
0.0
 10
296.7541189809854
 20
180.7438474962224
 30
0.0
 10
296.744518112563
 20
180.6493269084294
 30
0.0
 10
296.6807237948632
 20
180.5573843801188
 30
0.0
 10
296.6281737536963
 20
180.520665886353
 30
0.0
 10
296.5967161247944
 20
180.5169710975023
 30
0.0
 10
296.5810256410256
 20
180.5151282051256
 30
0.0
  0
SPLINE
  5
1CB
330
1F
100
AcDbEntity
  8
0
  6
Continuous
 62
     7
370
    25
100
AcDbSpline
210
0.0
220
0.0
230
1.0
 70
     8
 71
     3
 72
    11
 73
     7
 74
     0
 42
0.000000001
 43
0.00000001
 40
0.0
 40
0.0
 40
0.0
 40
0.0
 40
0.1859027081876175
 40
0.3726802866925907
 40
0.5601967664387532
 40
1.0
 40
1.0
 40
1.0
 40
1.0
 10
296.5810256410256
 20
181.098461538459
 30
0.0
 10
296.604459818579
 20
181.094236714176
 30
0.0
 10
296.6514384564596
 20
181.0857671833103
 30
0.0
 10
296.699723803083
 20
181.0307227507332
 30
0.0
 10
296.7494310200792
 20
180.9419345207947
 30
0.0
 10
296.7559455757743
 20
180.8624912231715
 30
0.0
 10
296.7605128205128
 20
180.8067948717923
 30
0.0
  0
SPLINE
  5
1CC
330
1F
100
AcDbEntity
  8
0
  6
Continuous
 62
     7
370
    25
100
AcDbSpline
210
0.0
220
0.0
230
1.0
 70
     8
 71
     3
 72
    10
 73
     6
 74
     0
 42
0.000000001
 43
0.00000001
 40
0.0
 40
0.0
 40
0.0
 40
0.0
 40
0.5594713163304301
 40
0.7807294745950784
 40
1.0
 40
1.0
 40
1.0
 40
1.0
 10
296.4015384615385
 20
180.8067948717923
 30
0.0
 10
296.4095838204907
 20
180.876582507277
 30
0.0
 10
296.4208109355981
 20
180.9739695625108
 30
0.0
 10
296.498735230753
 20
181.0801051911324
 30
0.0
 10
296.5536781370455
 20
181.0923611887352
 30
0.0
 10
296.5810256410256
 20
181.098461538459
 30
0.0
  0
SPLINE
  5
1CD
330
1F
100
AcDbEntity
  8
0
  6
Continuous
 62
     7
370
    25
100
AcDbSpline
210
0.0
220
0.0
230
1.0
 70
     8
 71
     3
 72
    11
 73
     7
 74
     0
 42
0.000000001
 43
0.00000001
 40
0.0
 40
0.0
 40
0.0
 40
0.0
 40
0.125240950989636
 40
0.2510938105933991
 40
0.5012549088836663
 40
0.9999999999999999
 40
0.9999999999999999
 40
0.9999999999999999
 40
0.9999999999999999
 10
293.8887179487179
 20
180.5151282051256
 30
0.0
 10
293.8730274649491
 20
180.5169710975023
 30
0.0
 10
293.8415698360472
 20
180.520665886353
 30
0.0
 10
293.7890197948802
 20
180.5573843801188
 30
0.0
 10
293.7252254771806
 20
180.6493269084294
 30
0.0
 10
293.7156246087581
 20
180.7438474962224
 30
0.0
 10
293.7092307692307
 20
180.8067948717923
 30
0.0
  0
SPLINE
  5
1CE
330
1F
100
AcDbEntity
  8
0
  6
Continuous
 62
     7
370
    25
100
AcDbSpline
210
0.0
220
0.0
230
1.0
 70
     8
 71
     3
 72
    11
 73
     7
 74
     0
 42
0.000000001
 43
0.00000001
 40
0.0
 40
0.0
 40
0.0
 40
0.0
 40
0.4987450911163347
 40
0.7489061894065973
 40
0.8747590490103647
 40
0.9999999999999999
 40
0.9999999999999999
 40
0.9999999999999999
 40
0.9999999999999999
 10
294.0682051282051
 20
180.8067948717923
 30
0.0
 10
294.0618112886777
 20
180.7438474962224
 30
0.0
 10
294.0522104202553
 20
180.6493269084294
 30
0.0
 10
293.9884161025556
 20
180.5573843801188
 30
0.0
 10
293.9358660613886
 20
180.520665886353
 30
0.0
 10
293.9044084324867
 20
180.5169710975023
 30
0.0
 10
293.8887179487179
 20
180.5151282051256
 30
0.0
  0
SPLINE
  5
1CF
330
1F
100
AcDbEntity
  8
0
  6
Continuous
 62
     7
370
    25
100
AcDbSpline
210
0.0
220
0.0
230
1.0
 70
     8
 71
     3
 72
    11
 73
     7
 74
     0
 42
0.000000001
 43
0.00000001
 40
0.0
 40
0.0
 40
0.0
 40
0.0
 40
0.1859027081876119
 40
0.3726802866926042
 40
0.5601967664387644
 40
0.9999999999999999
 40
0.9999999999999999
 40
0.9999999999999999
 40
0.9999999999999999
 10
293.8887179487179
 20
181.098461538459
 30
0.0
 10
293.9121521262713
 20
181.094236714176
 30
0.0
 10
293.9591307641519
 20
181.0857671833103
 30
0.0
 10
294.0074161107753
 20
181.0307227507332
 30
0.0
 10
294.0571233277715
 20
180.9419345207947
 30
0.0
 10
294.0636378834666
 20
180.8624912231715
 30
0.0
 10
294.0682051282051
 20
180.8067948717923
 30
0.0
  0
SPLINE
  5
1D0
330
1F
100
AcDbEntity
  8
0
  6
Continuous
 62
     7
370
    25
100
AcDbSpline
210
0.0
220
0.0
230
1.0
 70
     8
 71
     3
 72
    10
 73
     6
 74
     0
 42
0.000000001
 43
0.00000001
 40
0.0
 40
0.0
 40
0.0
 40
0.0
 40
0.5594713163304378
 40
0.7807294745950801
 40
1.0
 40
1.0
 40
1.0
 40
1.0
 10
293.7092307692307
 20
180.8067948717923
 30
0.0
 10
293.717276128183
 20
180.876582507277
 30
0.0
 10
293.7285032432904
 20
180.9739695625108
 30
0.0
 10
293.8064275384453
 20
181.0801051911324
 30
0.0
 10
293.8613704447378
 20
181.0923611887352
 30
0.0
 10
293.8887179487179
 20
181.098461538459
 30
0.0
  0
SPLINE
  5
1D1
330
1F
100
AcDbEntity
  8
0
  6
Continuous
 62
     7
370
    25
100
AcDbSpline
210
0.0
220
0.0
230
1.0
 70
     8
 71
     3
 72
    11
 73
     7
 74
     0
 42
0.000000001
 43
0.00000001
 40
0.0
 40
0.0
 40
0.0
 40
0.0
 40
0.125240950989634
 40
0.2510938105934084
 40
0.5012549088836474
 40
1.0
 40
1.0
 40
1.0
 40
1.0
 10
292.2284615384615
 20
180.5151282051256
 30
0.0
 10
292.2127710546927
 20
180.5169710975023
 30
0.0
 10
292.1813134257908
 20
180.520665886353
 30
0.0
 10
292.1287633846238
 20
180.5573843801188
 30
0.0
 10
292.0649690669242
 20
180.6493269084294
 30
0.0
 10
292.0553681985017
 20
180.7438474962224
 30
0.0
 10
292.0489743589743
 20
180.8067948717923
 30
0.0
  0
SPLINE
  5
1D2
330
1F
100
AcDbEntity
  8
0
  6
Continuous
 62
     7
370
    25
100
AcDbSpline
210
0.0
220
0.0
230
1.0
 70
     8
 71
     3
 72
    11
 73
     7
 74
     0
 42
0.000000001
 43
0.00000001
 40
0.0
 40
0.0
 40
0.0
 40
0.0
 40
0.498745091116343
 40
0.7489061894065968
 40
0.8747590490103639
 40
1.0
 40
1.0
 40
1.0
 40
1.0
 10
292.4079487179487
 20
180.8067948717923
 30
0.0
 10
292.4015548784213
 20
180.7438474962224
 30
0.0
 10
292.3919540099989
 20
180.6493269084294
 30
0.0
 10
292.3281596922992
 20
180.5573843801188
 30
0.0
 10
292.2756096511322
 20
180.520665886353
 30
0.0
 10
292.2441520222303
 20
180.5169710975023
 30
0.0
 10
292.2284615384615
 20
180.5151282051256
 30
0.0
  0
SPLINE
  5
1D3
330
1F
100
AcDbEntity
  8
0
  6
Continuous
 62
     7
370
    25
100
AcDbSpline
210
0.0
220
0.0
230
1.0
 70
     8
 71
     3
 72
    11
 73
     7
 74
     0
 42
0.000000001
 43
0.00000001
 40
0.0
 40
0.0
 40
0.0
 40
0.0
 40
0.1859027081876109
 40
0.3726802866926
 40
0.560196766438762
 40
1.0
 40
1.0
 40
1.0
 40
1.0
 10
292.2284615384615
 20
181.098461538459
 30
0.0
 10
292.2518957160148
 20
181.094236714176
 30
0.0
 10
292.2988743538955
 20
181.0857671833103
 30
0.0
 10
292.3471597005189
 20
181.0307227507332
 30
0.0
 10
292.3968669175151
 20
180.9419345207947
 30
0.0
 10
292.4033814732102
 20
180.8624912231715
 30
0.0
 10
292.4079487179487
 20
180.8067948717923
 30
0.0
  0
SPLINE
  5
1D4
330
1F
100
AcDbEntity
  8
0
  6
Continuous
 62
     7
370
    25
100
AcDbSpline
210
0.0
220
0.0
230
1.0
 70
     8
 71
     3
 72
    10
 73
     6
 74
     0
 42
0.000000001
 43
0.00000001
 40
0.0
 40
0.0
 40
0.0
 40
0.0
 40
0.5594713163304281
 40
0.7807294745950715
 40
0.9999999999999999
 40
0.9999999999999999
 40
0.9999999999999999
 40
0.9999999999999999
 10
292.0489743589743
 20
180.8067948717923
 30
0.0
 10
292.0570197179266
 20
180.876582507277
 30
0.0
 10
292.068246833034
 20
180.9739695625108
 30
0.0
 10
292.1461711281889
 20
181.0801051911324
 30
0.0
 10
292.2011140344813
 20
181.0923611887352
 30
0.0
 10
292.2284615384615
 20
181.098461538459
 30
0.0
  0
LINE
  5
1D5
330
1F
100
AcDbEntity
  8
0
  6
Continuous
 62
     7
370
    25
100
AcDbLine
 10
287.831025641
 20
180.56
 30
0.0
 11
288.7284615385
 21
184.06
 31
0.0
  0
LINE
  5
1D6
330
1F
100
AcDbEntity
  8
0
  6
Continuous
 62
     7
370
    25
100
AcDbLine
 10
288.0266386218
 20
180.56
 30
0.0
 11
287.831025641
 21
180.56
 31
0.0
  0
LINE
  5
1D7
330
1F
100
AcDbEntity
  8
0
  6
Continuous
 62
     7
370
    25
100
AcDbLine
 10
288.3140985577
 20
181.6817948718
 30
0.0
 11
288.0266386218
 21
180.56
 31
0.0
  0
LINE
  5
1D8
330
1F
100
AcDbEntity
  8
0
  6
Continuous
 62
     7
370
    25
100
AcDbLine
 10
289.1876963141
 20
181.6817948718
 30
0.0
 11
288.3140985577
 21
181.6817948718
 31
0.0
  0
LINE
  5
1D9
330
1F
100
AcDbEntity
  8
0
  6
Continuous
 62
     7
370
    25
100
AcDbLine
 10
289.47515625
 20
180.56
 30
0.0
 11
289.1876963141
 21
181.6817948718
 31
0.0
  0
LINE
  5
1DA
330
1F
100
AcDbEntity
  8
0
  6
Continuous
 62
     7
370
    25
100
AcDbLine
 10
289.6707692308
 20
180.56
 30
0.0
 11
289.47515625
 21
180.56
 31
0.0
  0
LINE
  5
1DB
330
1F
100
AcDbEntity
  8
0
  6
Continuous
 62
     7
370
    25
100
AcDbLine
 10
288.7733333333
 20
184.06
 30
0.0
 11
289.6707692308
 21
180.56
 31
0.0
  0
LINE
  5
1DC
330
1F
100
AcDbEntity
  8
0
  6
Continuous
 62
     7
370
    25
100
AcDbLine
 10
288.7284615385
 20
184.06
 30
0.0
 11
288.7733333333
 21
184.06
 31
0.0
  0
SPLINE
  5
1DD
330
1F
100
AcDbEntity
  8
0
  6
Continuous
 62
     7
370
    25
100
AcDbSpline
210
0.0
220
0.0
230
1.0
 70
     8
 71
     3
 72
    12
 73
     8
 74
     0
 42
0.000000001
 43
0.00000001
 40
0.0
 40
0.0
 40
0.0
 40
0.0
 40
0.1247092545076039
 40
0.2495950154979547
 40
0.4991872053911579
 40
0.7494623377780306
 40
1.0
 40
1.0
 40
1.0
 40
1.0
 10
284.4242748397435
 20
180.4702564102538
 30
0.0
 10
284.3271287210966
 20
180.4815760909176
 30
0.0
 10
284.1326989886363
 20
180.5042314734861
 30
0.0
 10
283.8104894607903
 20
180.7387382098761
 30
0.0
 10
283.5488977607054
 20
181.1547867225261
 30
0.0
 10
283.3702543781438
 20
181.7128475662459
 30
0.0
 10
283.3526519710501
 20
182.1005983151354
 30
0.0
 10
283.3438461538461
 20
182.2945753205102
 30
0.0
  0
SPLINE
  5
1DE
330
1F
100
AcDbEntity
  8
0
  6
Continuous
 62
     7
370
    25
100
AcDbSpline
210
0.0
220
0.0
230
1.0
 70
     8
 71
     3
 72
    12
 73
     8
 74
     0
 42
0.000000001
 43
0.00000001
 40
0.0
 40
0.0
 40
0.0
 40
0.0
 40
0.2505616639296431
 40
0.5008162346033304
 40
0.7504333747765956
 40
0.8753187337957796
 40
1.0
 40
1.0
 40
1.0
 40
1.0
 10
285.4976923076923
 20
182.3114022435872
 30
0.0
 10
285.4891999682321
 20
182.1165757175859
 30
0.0
 10
285.4722256976885
 20
181.7271614487686
 30
0.0
 10
285.2961747619682
 20
181.1656485423414
 30
0.0
 10
285.0375199686727
 20
180.7459537958813
 30
0.0
 10
284.7172062700061
 20
180.5053977672839
 30
0.0
 10
284.5218654006331
 20
180.4819638079199
 30
0.0
 10
284.4242748397435
 20
180.4702564102538
 30
0.0
  0
SPLINE
  5
1DF
330
1F
100
AcDbEntity
  8
0
  6
Continuous
 62
     7
370
    25
100
AcDbSpline
210
0.0
220
0.0
230
1.0
 70
     8
 71
     3
 72
    12
 73
     8
 74
     0
 42
0.000000001
 43
0.00000001
 40
0.0
 40
0.0
 40
0.0
 40
0.0
 40
0.1247351532152399
 40
0.2496287468395966
 40
0.4991321244575265
 40
0.7494031660529249
 40
1.0
 40
1.0
 40
1.0
 40
1.0
 10
284.4074479166666
 20
184.149743589741
 30
0.0
 10
284.5055970928291
 20
184.1388480123486
 30
0.0
 10
284.7020201156677
 20
184.1170430178427
 30
0.0
 10
285.0300386058087
 20
183.8840236461815
 30
0.0
 10
285.2955691011185
 20
183.4636189270832
 30
0.0
 10
285.4724823485456
 20
182.899005019527
 30
0.0
 10
285.4892853447753
 20
182.5073547526132
 30
0.0
 10
285.4976923076923
 20
182.3114022435872
 30
0.0
  0
SPLINE
  5
1E0
330
1F
100
AcDbEntity
  8
0
  6
Continuous
 62
     7
370
    25
100
AcDbSpline
210
0.0
220
0.0
230
1.0
 70
     8
 71
     3
 72
    12
 73
     8
 74
     0
 42
0.000000001
 43
0.00000001
 40
0.0
 40
0.0
 40
0.0
 40
0.0
 40
0.2506644186933247
 40
0.5011113703061412
 40
0.7505382295946826
 40
0.8754955201316236
 40
0.9999999999999999
 40
0.9999999999999999
 40
0.9999999999999999
 40
0.9999999999999999
 10
283.3438461538461
 20
182.2945753205102
 30
0.0
 10
283.3533595209481
 20
182.4894475383778
 30
0.0
 10
283.37237800171
 20
182.8790229102605
 30
0.0
 10
283.5395410534244
 20
183.4441382349492
 30
0.0
 10
283.7993807258646
 20
183.8633216841711
 30
0.0
 10
284.1149748963437
 20
184.1096603304761
 30
0.0
 10
284.3100749552185
 20
184.1363986813634
 30
0.0
 10
284.4074479166666
 20
184.149743589741
 30
0.0
  0
SPLINE
  5
1E1
330
1F
100
AcDbEntity
  8
0
  6
Continuous
 62
     7
370
    25
100
AcDbSpline
210
0.0
220
0.0
230
1.0
 70
     8
 71
     3
 72
    12
 73
     8
 74
     0
 42
0.000000001
 43
0.00000001
 40
0.0
 40
0.0
 40
0.0
 40
0.0
 40
0.1247092545076057
 40
0.2495950154979523
 40
0.4991872053911603
 40
0.7494623377780311
 40
1.0
 40
1.0
 40
1.0
 40
1.0
 10
280.2960697115384
 20
180.4702564102538
 30
0.0
 10
280.1989235928915
 20
180.4815760909176
 30
0.0
 10
280.0044938604312
 20
180.5042314734861
 30
0.0
 10
279.6822843325852
 20
180.7387382098761
 30
0.0
 10
279.4206926325002
 20
181.1547867225261
 30
0.0
 10
279.2420492499387
 20
181.7128475662459
 30
0.0
 10
279.224446842845
 20
182.1005983151354
 30
0.0
 10
279.215641025641
 20
182.2945753205102
 30
0.0
  0
SPLINE
  5
1E2
330
1F
100
AcDbEntity
  8
0
  6
Continuous
 62
     7
370
    25
100
AcDbSpline
210
0.0
220
0.0
230
1.0
 70
     8
 71
     3
 72
    12
 73
     8
 74
     0
 42
0.000000001
 43
0.00000001
 40
0.0
 40
0.0
 40
0.0
 40
0.0
 40
0.2505616639296398
 40
0.500816234603328
 40
0.7504333747765938
 40
0.8753187337957774
 40
1.0
 40
1.0
 40
1.0
 40
1.0
 10
281.3694871794871
 20
182.3114022435872
 30
0.0
 10
281.360994840027
 20
182.1165757175859
 30
0.0
 10
281.3440205694834
 20
181.7271614487687
 30
0.0
 10
281.1679696337631
 20
181.1656485423414
 30
0.0
 10
280.9093148404676
 20
180.7459537958813
 30
0.0
 10
280.589001141801
 20
180.5053977672839
 30
0.0
 10
280.393660272428
 20
180.4819638079199
 30
0.0
 10
280.2960697115384
 20
180.4702564102538
 30
0.0
  0
SPLINE
  5
1E3
330
1F
100
AcDbEntity
  8
0
  6
Continuous
 62
     7
370
    25
100
AcDbSpline
210
0.0
220
0.0
230
1.0
 70
     8
 71
     3
 72
    12
 73
     8
 74
     0
 42
0.000000001
 43
0.00000001
 40
0.0
 40
0.0
 40
0.0
 40
0.0
 40
0.1247351532152366
 40
0.2496287468395942
 40
0.4991321244575243
 40
0.749403166052922
 40
0.9999999999999999
 40
0.9999999999999999
 40
0.9999999999999999
 40
0.9999999999999999
 10
280.2792427884615
 20
184.149743589741
 30
0.0
 10
280.3773919646239
 20
184.1388480123486
 30
0.0
 10
280.5738149874625
 20
184.1170430178427
 30
0.0
 10
280.9018334776036
 20
183.8840236461815
 30
0.0
 10
281.1673639729134
 20
183.4636189270832
 30
0.0
 10
281.3442772203404
 20
182.899005019527
 30
0.0
 10
281.3610802165701
 20
182.5073547526132
 30
0.0
 10
281.3694871794871
 20
182.3114022435872
 30
0.0
  0
SPLINE
  5
1E4
330
1F
100
AcDbEntity
  8
0
  6
Continuous
 62
     7
370
    25
100
AcDbSpline
210
0.0
220
0.0
230
1.0
 70
     8
 71
     3
 72
    12
 73
     8
 74
     0
 42
0.000000001
 43
0.00000001
 40
0.0
 40
0.0
 40
0.0
 40
0.0
 40
0.250664418693323
 40
0.5011113703061433
 40
0.7505382295946816
 40
0.8754955201316224
 40
1.0
 40
1.0
 40
1.0
 40
1.0
 10
279.215641025641
 20
182.2945753205102
 30
0.0
 10
279.2251543927429
 20
182.4894475383778
 30
0.0
 10
279.244172873505
 20
182.8790229102605
 30
0.0
 10
279.4113359252193
 20
183.4441382349492
 30
0.0
 10
279.6711755976595
 20
183.8633216841711
 30
0.0
 10
279.9867697681386
 20
184.1096603304761
 30
0.0
 10
280.1818698270133
 20
184.1363986813634
 30
0.0
 10
280.2792427884615
 20
184.149743589741
 30
0.0
  0
SPLINE
  5
1E5
330
1F
100
AcDbEntity
  8
0
  6
Continuous
 62
     7
370
    25
100
AcDbSpline
210
0.0
220
0.0
230
1.0
 70
     8
 71
     3
 72
    11
 73
     7
 74
     0
 42
0.000000001
 43
0.00000001
 40
0.0
 40
0.0
 40
0.0
 40
0.0
 40
0.4989769471647033
 40
0.7494365610428717
 40
0.8748399993475091
 40
1.0
 40
1.0
 40
1.0
 40
1.0
 10
276.8374358974359
 20
181.4174719551256
 30
0.0
 10
276.8153233440837
 20
181.2129399937819
 30
0.0
 10
276.7821114772142
 20
180.9057439788082
 30
0.0
 10
276.5753381081497
 20
180.6060341941047
 30
0.0
 10
276.4038445687847
 20
180.4873406276554
 30
0.0
 10
276.3016463957624
 20
180.4759474596687
 30
0.0
 10
276.2505969551282
 20
180.4702564102538
 30
0.0
  0
SPLINE
  5
1E6
330
1F
100
AcDbEntity
  8
0
  6
Continuous
 62
     7
370
    25
100
AcDbSpline
210
0.0
220
0.0
230
1.0
 70
     8
 71
     3
 72
     9
 73
     5
 74
     0
 42
0.000000001
 43
0.00000001
 40
0.0
 40
0.0
 40
0.0
 40
0.0
 40
0.5605281984565558
 40
0.9999999999999999
 40
0.9999999999999999
 40
0.9999999999999999
 40
0.9999999999999999
 10
276.3522596153846
 20
182.5469791666641
 30
0.0
 10
276.5004207175104
 20
182.359110055762
 30
0.0
 10
276.764744800641
 20
182.0239456315289
 30
0.0
 10
276.8152432520292
 20
181.6026288153516
 30
0.0
 10
276.8374358974359
 20
181.4174719551256
 30
0.0
  0
SPLINE
  5
1E7
330
1F
100
AcDbEntity
  8
0
  6
Continuous
 62
     7
370
    25
100
AcDbSpline
210
0.0
220
0.0
230
1.0
 70
     8
 71
     3
 72
     9
 73
     5
 74
     0
 42
0.000000001
 43
0.00000001
 40
0.0
 40
0.0
 40
0.0
 40
0.0
 40
0.5599316618565418
 40
1.0
 40
1.0
 40
1.0
 40
1.0
 10
276.0753165064102
 20
182.8954366987154
 30
0.0
 10
276.1255718864974
 20
182.8292549386123
 30
0.0
 10
276.2153245893908
 20
182.7110588003842
 30
0.0
 10
276.310413844787
 20
182.5971200174986
 30
0.0
 10
276.3522596153846
 20
182.5469791666641
 30
0.0
  0
SPLINE
  5
1E8
330
1F
100
AcDbEntity
  8
0
  6
Continuous
 62
     7
370
    25
100
AcDbSpline
210
0.0
220
0.0
230
1.0
 70
     8
 71
     3
 72
     9
 73
     5
 74
     0
 42
0.000000001
 43
0.00000001
 40
0.0
 40
0.0
 40
0.0
 40
0.0
 40
0.5594503733947884
 40
1.0
 40
1.0
 40
1.0
 40
1.0
 10
275.9399999999999
 20
183.3476602564077
 30
0.0
 10
275.9470110088255
 20
183.2575171127595
 30
0.0
 10
275.9595429672598
 20
183.0963890700679
 30
0.0
 10
276.0399105832115
 20
182.9568920561219
 30
0.0
 10
276.0753165064102
 20
182.8954366987154
 30
0.0
  0
SPLINE
  5
1E9
330
1F
100
AcDbEntity
  8
0
  6
Continuous
 62
     7
370
    25
100
AcDbSpline
210
0.0
220
0.0
230
1.0
 70
     8
 71
     3
 72
    11
 73
     7
 74
     0
 42
0.000000001
 43
0.00000001
 40
0.0
 40
0.0
 40
0.0
 40
0.0
 40
0.1255820757119667
 40
0.2514507149306289
 40
0.5015523628543845
 40
1.0
 40
1.0
 40
1.0
 40
1.0
 10
276.2337700320513
 20
183.7907692307666
 30
0.0
 10
276.209091450064
 20
183.7889148844014
 30
0.0
 10
276.1596779724718
 20
183.7852019602708
 30
0.0
 10
276.0727690786103
 20
183.7352810707744
 30
0.0
 10
275.9645960107381
 20
183.5952850140523
 30
0.0
 10
275.9498314785042
 20
183.4466404328202
 30
0.0
 10
275.9399999999999
 20
183.3476602564077
 30
0.0
  0
SPLINE
  5
1EA
330
1F
100
AcDbEntity
  8
0
  6
Continuous
 62
     7
370
    25
100
AcDbSpline
210
0.0
220
0.0
230
1.0
 70
     8
 71
     3
 72
    10
 73
     6
 74
     0
 42
0.000000001
 43
0.00000001
 40
0.0
 40
0.0
 40
0.0
 40
0.0
 40
0.5618089425487562
 40
0.7818087503084388
 40
1.0
 40
1.0
 40
1.0
 40
1.0
 10
276.6242948717949
 20
183.3420512820487
 30
0.0
 10
276.5772929480811
 20
183.4485787872124
 30
0.0
 10
276.5118854537218
 20
183.5968215960713
 30
0.0
 10
276.3717823147804
 20
183.7634427312553
 30
0.0
 10
276.2796473692582
 20
183.7816854955514
 30
0.0
 10
276.2337700320513
 20
183.7907692307666
 30
0.0
  0
LINE
  5
1EB
330
1F
100
AcDbEntity
  8
0
  6
Continuous
 62
     7
370
    25
100
AcDbLine
 10
276.7925641026
 20
183.5572956731
 30
0.0
 11
276.6242948718
 21
183.342051282
 31
0.0
  0
SPLINE
  5
1EC
330
1F
100
AcDbEntity
  8
0
  6
Continuous
 62
     7
370
    25
100
AcDbSpline
210
0.0
220
0.0
230
1.0
 70
     8
 71
     3
 72
    10
 73
     6
 74
     0
 42
0.000000001
 43
0.00000001
 40
0.0
 40
0.0
 40
0.0
 40
0.0
 40
0.2769663537678162
 40
0.5575254786335244
 40
1.0
 40
1.0
 40
1.0
 40
1.0
 10
276.2562059294871
 20
184.149743589741
 30
0.0
 10
276.3339291787996
 20
184.1306979086526
 30
0.0
 10
276.4903838931879
 20
184.0923594884066
 30
0.0
 10
276.662075244489
 20
183.8532130925329
 30
0.0
 10
276.7430252004563
 20
183.6696380162504
 30
0.0
 10
276.7925641025641
 20
183.5572956730743
 30
0.0
  0
SPLINE
  5
1ED
330
1F
100
AcDbEntity
  8
0
  6
Continuous
 62
     7
370
    25
100
AcDbSpline
210
0.0
220
0.0
230
1.0
 70
     8
 71
     3
 72
    11
 73
     7
 74
     0
 42
0.000000001
 43
0.00000001
 40
0.0
 40
0.0
 40
0.0
 40
0.0
 40
0.4993418457887395
 40
0.7492593172883372
 40
0.8747401350519258
 40
1.0
 40
1.0
 40
1.0
 40
1.0
 10
275.7605128205128
 20
183.3329366987154
 30
0.0
 10
275.7750944511218
 20
183.510039415062
 30
0.0
 10
275.7969740966737
 20
183.7757809335405
 30
0.0
 10
275.9773676549871
 20
184.0322684189241
 30
0.0
 10
276.1243347551778
 20
184.1345902900303
 30
0.0
 10
276.2122747022926
 20
184.1446954580638
 30
0.0
 10
276.2562059294871
 20
184.149743589741
 30
0.0
  0
SPLINE
  5
1EE
330
1F
100
AcDbEntity
  8
0
  6
Continuous
 62
     7
370
    25
100
AcDbSpline
210
0.0
220
0.0
230
1.0
 70
     8
 71
     3
 72
     9
 73
     5
 74
     0
 42
0.000000001
 43
0.00000001
 40
0.0
 40
0.0
 40
0.0
 40
0.0
 40
0.5597588541114086
 40
1.0
 40
1.0
 40
1.0
 40
1.0
 10
275.8754967948718
 20
182.8000841346128
 30
0.0
 10
275.8381699300796
 20
182.8963008710086
 30
0.0
 10
275.7714860991442
 20
183.0681904904209
 30
0.0
 10
275.7638670426669
 20
183.2520112408905
 30
0.0
 10
275.7605128205128
 20
183.3329366987154
 30
0.0
  0
SPLINE
  5
1EF
330
1F
100
AcDbEntity
  8
0
  6
Continuous
 62
     7
370
    25
100
AcDbSpline
210
0.0
220
0.0
230
1.0
 70
     8
 71
     3
 72
     9
 73
     5
 74
     0
 42
0.000000001
 43
0.00000001
 40
0.0
 40
0.0
 40
0.0
 40
0.0
 40
0.5602913181833074
 40
1.0
 40
1.0
 40
1.0
 40
1.0
 10
276.2127363782051
 20
182.3240224358948
 30
0.0
 10
276.14308557398
 20
182.408273208948
 30
0.0
 10
276.0187738062181
 20
182.558642794053
 30
0.0
 10
275.9192557487416
 20
182.7263443184025
 30
0.0
 10
275.8754967948718
 20
182.8000841346128
 30
0.0
  0
SPLINE
  5
1F0
330
1F
100
AcDbEntity
  8
0
  6
Continuous
 62
     7
370
    25
100
AcDbSpline
210
0.0
220
0.0
230
1.0
 70
     8
 71
     3
 72
     9
 73
     5
 74
     0
 42
0.000000001
 43
0.00000001
 40
0.0
 40
0.0
 40
0.0
 40
0.0
 40
0.5596453470623575
 40
1.0
 40
1.0
 40
1.0
 40
1.0
 10
276.5843309294871
 20
181.7659294871769
 30
0.0
 10
276.5243522239412
 20
181.8763620316623
 30
0.0
 10
276.4171795191904
 20
182.0736879722157
 30
0.0
 10
276.2752400735349
 20
182.2474885449903
 30
0.0
 10
276.2127363782051
 20
182.3240224358948
 30
0.0
  0
SPLINE
  5
1F1
330
1F
100
AcDbEntity
  8
0
  6
Continuous
 62
     7
370
    25
100
AcDbSpline
210
0.0
220
0.0
230
1.0
 70
     8
 71
     3
 72
     9
 73
     5
 74
     0
 42
0.000000001
 43
0.00000001
 40
0.0
 40
0.0
 40
0.0
 40
0.0
 40
0.5597808968124873
 40
1.0
 40
1.0
 40
1.0
 40
1.0
 10
276.6579487179487
 20
181.4223798076897
 30
0.0
 10
276.653946636143
 20
181.4886990323523
 30
0.0
 10
276.6467972642576
 20
181.6071725726968
 30
0.0
 10
276.6034244644994
 20
181.7174036577649
 30
0.0
 10
276.5843309294871
 20
181.7659294871769
 30
0.0
  0
SPLINE
  5
1F2
330
1F
100
AcDbEntity
  8
0
  6
Continuous
 62
     7
370
    25
100
AcDbSpline
210
0.0
220
0.0
230
1.0
 70
     8
 71
     3
 72
    11
 73
     7
 74
     0
 42
0.000000001
 43
0.00000001
 40
0.0
 40
0.0
 40
0.0
 40
0.0
 40
0.1254609496505479
 40
0.2511086606612963
 40
0.5012989882515732
 40
1.0
 40
1.0
 40
1.0
 40
1.0
 10
276.2541025641025
 20
180.8292307692282
 30
0.0
 10
276.2871605433372
 20
180.8325418002657
 30
0.0
 10
276.3533257119648
 20
180.8391687911465
 30
0.0
 10
276.469101838242
 20
180.9067200575388
 30
0.0
 10
276.6231617546771
 20
181.0875218536637
 30
0.0
 10
276.6440432994327
 20
181.2885267904608
 30
0.0
 10
276.6579487179487
 20
181.4223798076897
 30
0.0
  0
SPLINE
  5
1F3
330
1F
100
AcDbEntity
  8
0
  6
Continuous
 62
     7
370
    25
100
AcDbSpline
210
0.0
220
0.0
230
1.0
 70
     8
 71
     3
 72
    10
 73
     6
 74
     0
 42
0.000000001
 43
0.00000001
 40
0.0
 40
0.0
 40
0.0
 40
0.0
 40
0.561710589818094
 40
0.7823353437264984
 40
1.0
 40
1.0
 40
1.0
 40
1.0
 10
275.8011778846154
 20
181.4125641025615
 30
0.0
 10
275.851984867722
 20
181.2772512056431
 30
0.0
 10
275.9227474620417
 20
181.0887910561636
 30
0.0
 10
276.0852306094067
 20
180.8729475579842
 30
0.0
 10
276.1980659331052
 20
180.8437372724798
 30
0.0
 10
276.2541025641025
 20
180.8292307692282
 30
0.0
  0
LINE
  5
1F4
330
1F
100
AcDbEntity
  8
0
  6
Continuous
 62
     7
370
    25
100
AcDbLine
 10
275.6258974359
 20
181.2351802885
 30
0.0
 11
275.8011778846
 21
181.4125641026
 31
0.0
  0
SPLINE
  5
1F5
330
1F
100
AcDbEntity
  8
0
  6
Continuous
 62
     7
370
    25
100
AcDbSpline
210
0.0
220
0.0
230
1.0
 70
     8
 71
     3
 72
    10
 73
     6
 74
     0
 42
0.000000001
 43
0.00000001
 40
0.0
 40
0.0
 40
0.0
 40
0.0
 40
0.2764492944032166
 40
0.5571180767304957
 40
1.0
 40
1.0
 40
1.0
 40
1.0
 10
276.2505969551282
 20
180.4702564102538
 30
0.0
 10
276.1539357568379
 20
180.4950298204878
 30
0.0
 10
275.9591380055823
 20
180.5449547613108
 30
0.0
 10
275.7578851949498
 20
180.8542487009985
 30
0.0
 10
275.6760117683763
 20
181.0905446619225
 30
0.0
 10
275.6258974358974
 20
181.235180288459
 30
0.0
  0
LINE
  5
1F6
330
1F
100
AcDbEntity
  8
0
  6
Continuous
 62
     7
370
    25
100
AcDbLine
 10
270.6451282051
 20
180.56
 30
0.0
 11
271.5425641026
 21
184.06
 31
0.0
  0
LINE
  5
1F7
330
1F
100
AcDbEntity
  8
0
  6
Continuous
 62
     7
370
    25
100
AcDbLine
 10
270.8407411859
 20
180.56
 30
0.0
 11
270.6451282051
 21
180.56
 31
0.0
  0
LINE
  5
1F8
330
1F
100
AcDbEntity
  8
0
  6
Continuous
 62
     7
370
    25
100
AcDbLine
 10
271.1282011218
 20
181.6817948718
 30
0.0
 11
270.8407411859
 21
180.56
 31
0.0
  0
LINE
  5
1F9
330
1F
100
AcDbEntity
  8
0
  6
Continuous
 62
     7
370
    25
100
AcDbLine
 10
272.0017988782
 20
181.6817948718
 30
0.0
 11
271.1282011218
 21
181.6817948718
 31
0.0
  0
LINE
  5
1FA
330
1F
100
AcDbEntity
  8
0
  6
Continuous
 62
     7
370
    25
100
AcDbLine
 10
272.2892588141
 20
180.56
 30
0.0
 11
272.0017988782
 21
181.6817948718
 31
0.0
  0
LINE
  5
1FB
330
1F
100
AcDbEntity
  8
0
  6
Continuous
 62
     7
370
    25
100
AcDbLine
 10
272.4848717949
 20
180.56
 30
0.0
 11
272.2892588141
 21
180.56
 31
0.0
  0
LINE
  5
1FC
330
1F
100
AcDbEntity
  8
0
  6
Continuous
 62
     7
370
    25
100
AcDbLine
 10
271.5874358974
 20
184.06
 30
0.0
 11
272.4848717949
 21
180.56
 31
0.0
  0
LINE
  5
1FD
330
1F
100
AcDbEntity
  8
0
  6
Continuous
 62
     7
370
    25
100
AcDbLine
 10
271.5425641026
 20
184.06
 30
0.0
 11
271.5874358974
 21
184.06
 31
0.0
  0
LINE
  5
1FE
330
1F
100
AcDbEntity
  8
0
  6
Continuous
 62
     7
370
    25
100
AcDbLine
 10
296.94
 20
213.76
 30
0.0
 11
240.94
 21
213.76
 31
0.0
  0
LINE
  5
1FF
330
1F
100
AcDbEntity
  8
0
  6
Continuous
 62
     7
370
    25
100
AcDbLine
 10
296.94
 20
179.36
 30
0.0
 11
296.94
 21
213.76
 31
0.0
  0
LINE
  5
200
330
1F
100
AcDbEntity
  8
0
  6
Continuous
 62
     7
370
    25
100
AcDbLine
 10
257.94
 20
179.36
 30
0.0
 11
296.94
 21
179.36
 31
0.0
  0
LINE
  5
201
330
1F
100
AcDbEntity
  8
0
  6
Continuous
 62
     7
370
    25
100
AcDbLine
 10
257.94
 20
181.06
 30
0.0
 11
257.94
 21
179.36
 31
0.0
  0
LINE
  5
202
330
1F
100
AcDbEntity
  8
0
  6
Continuous
 62
     7
370
    25
100
AcDbLine
 10
257.94
 20
181.06
 30
0.0
 11
249.94
 21
181.06
 31
0.0
  0
LINE
  5
203
330
1F
100
AcDbEntity
  8
0
  6
Continuous
 62
     7
370
    25
100
AcDbLine
 10
249.94
 20
181.06
 30
0.0
 11
249.94
 21
179.36
 31
0.0
  0
LINE
  5
204
330
1F
100
AcDbEntity
  8
0
  6
Continuous
 62
     7
370
    25
100
AcDbLine
 10
240.94
 20
179.36
 30
0.0
 11
249.94
 21
179.36
 31
0.0
  0
LINE
  5
205
330
1F
100
AcDbEntity
  8
0
  6
Continuous
 62
     7
370
    25
100
AcDbLine
 10
240.94
 20
179.36
 30
0.0
 11
240.94
 21
213.76
 31
0.0
  0
CIRCLE
  5
206
330
1F
100
AcDbEntity
  8
0
  6
Continuous
 62
     7
370
    25
100
AcDbCircle
 10
276.44
 20
196.56
 30
0.0
 40
10.0
  0
CIRCLE
  5
207
330
1F
100
AcDbEntity
  8
0
  6
Continuous
 62
     7
370
    25
100
AcDbCircle
 10
251.44
 20
196.56
 30
0.0
 40
9.999999999999972
  0
SPLINE
  5
208
330
1F
100
AcDbEntity
  8
0
  6
Continuous
 62
     7
370
    25
100
AcDbSpline
210
0.0
220
0.0
230
1.0
 70
     8
 71
     3
 72
    11
 73
     7
 74
     0
 42
0.000000001
 43
0.00000001
 40
0.0
 40
0.0
 40
0.0
 40
0.0
 40
0.1233922960920571
 40
0.2483969190949638
 40
0.4979855619308479
 40
1.0
 40
1.0
 40
1.0
 40
1.0
 10
269.815
 20
180.8292307692282
 30
0.0
 10
269.8571253827474
 20
180.8398792153662
 30
0.0
 10
269.941926586887
 20
180.8613152474166
 30
0.0
 10
270.0448164286667
 20
181.0085853024875
 30
0.0
 10
270.1147406479595
 20
181.3017149856003
 30
0.0
 10
270.1098999137459
 20
181.5594361365423
 30
0.0
 10
270.1066666666666
 20
181.7315745192282
 30
0.0
  0
SPLINE
  5
209
330
1F
100
AcDbEntity
  8
0
  6
Continuous
 62
     7
370
    25
100
AcDbSpline
210
0.0
220
0.0
230
1.0
 70
     8
 71
     3
 72
     9
 73
     5
 74
     0
 42
0.000000001
 43
0.00000001
 40
0.0
 40
0.0
 40
0.0
 40
0.0
 40
0.5600962084976817
 40
1.0
 40
1.0
 40
1.0
 40
1.0
 10
269.6775801282051
 20
180.879711538459
 30
0.0
 10
269.7011747924174
 20
180.8643223972782
 30
0.0
 10
269.7433008840678
 20
180.8368465084088
 30
0.0
 10
269.7930952636335
 20
180.8315574472746
 30
0.0
 10
269.815
 20
180.8292307692282
 30
0.0
  0
SPLINE
  5
20A
330
1F
100
AcDbEntity
  8
0
  6
Continuous
 62
     7
370
    25
100
AcDbSpline
210
0.0
220
0.0
230
1.0
 70
     8
 71
     3
 72
     9
 73
     5
 74
     0
 42
0.000000001
 43
0.00000001
 40
0.0
 40
0.0
 40
0.0
 40
0.0
 40
0.5601489926679277
 40
1.0
 40
1.0
 40
1.0
 40
1.0
 10
269.4083493589743
 20
181.1433333333308
 30
0.0
 10
269.4549413130147
 20
181.0903072442316
 30
0.0
 10
269.5381191008001
 20
180.9956429856266
 30
0.0
 10
269.6349770581129
 20
180.9151267054162
 30
0.0
 10
269.6775801282051
 20
180.879711538459
 30
0.0
  0
LINE
  5
20B
330
1F
100
AcDbEntity
  8
0
  6
Continuous
 62
     7
370
    25
100
AcDbLine
 10
269.298974359
 20
180.8741025641
 30
0.0
 11
269.408349359
 21
181.1433333333
 31
0.0
  0
SPLINE
  5
20C
330
1F
100
AcDbEntity
  8
0
  6
Continuous
 62
     7
370
    25
100
AcDbSpline
210
0.0
220
0.0
230
1.0
 70
     8
 71
     3
 72
    10
 73
     6
 74
     0
 42
0.000000001
 43
0.00000001
 40
0.0
 40
0.0
 40
0.0
 40
0.0
 40
0.2785120356168423
 40
0.5586533459909648
 40
0.9999999999999999
 40
0.9999999999999999
 40
0.9999999999999999
 40
0.9999999999999999
 10
269.8009775641025
 20
180.4702564102538
 30
0.0
 10
269.7385480514341
 20
180.4811902620253
 30
0.0
 10
269.613323818077
 20
180.5031219277903
 30
0.0
 10
269.4436050343084
 20
180.6600613600624
 30
0.0
 10
269.3538680331187
 20
180.7928645550763
 30
0.0
 10
269.2989743589743
 20
180.8741025641
 30
0.0
  0
SPLINE
  5
20D
330
1F
100
AcDbEntity
  8
0
  6
Continuous
 62
     7
370
    25
100
AcDbSpline
210
0.0
220
0.0
230
1.0
 70
     8
 71
     3
 72
    11
 73
     7
 74
     0
 42
0.000000001
 43
0.00000001
 40
0.0
 40
0.0
 40
0.0
 40
0.0
 40
0.501673909257497
 40
0.7508675155329281
 40
0.8756480043680461
 40
1.0
 40
1.0
 40
1.0
 40
1.0
 10
270.2861538461538
 20
181.6965184294846
 30
0.0
 10
270.2909354724229
 20
181.4527426214271
 30
0.0
 10
270.2980922485093
 20
181.0878774531067
 30
0.0
 10
270.1604402961451
 20
180.6784432018033
 30
0.0
 10
269.9841043871102
 20
180.4965638140664
 30
0.0
 10
269.8619498055427
 20
180.47901548416
 30
0.0
 10
269.8009775641025
 20
180.4702564102538
 30
0.0
  0
LINE
  5
20E
330
1F
100
AcDbEntity
  8
0
  6
Continuous
 62
     7
370
    25
100
AcDbLine
 10
270.2861538462
 20
184.06
 30
0.0
 11
270.2861538462
 21
181.6965184295
 31
0.0
  0
LINE
  5
20F
330
1F
100
AcDbEntity
  8
0
  6
Continuous
 62
     7
370
    25
100
AcDbLine
 10
270.1066666667
 20
184.06
 30
0.0
 11
270.2861538462
 21
184.06
 31
0.0
  0
LINE
  5
210
330
1F
100
AcDbEntity
  8
0
  6
Continuous
 62
     7
370
    25
100
AcDbLine
 10
270.1066666667
 20
181.7315745192
 30
0.0
 11
270.1066666667
 21
184.06
 31
0.0
  0
LINE
  5
211
330
1F
100
AcDbEntity
  8
0
  6
Continuous
 62
     7
370
    25
100
AcDbLine
 10
273.1130769231
 20
183.3126041667
 30
0.0
 11
273.1130769231
 21
180.56
 31
0.0
  0
LINE
  5
212
330
1F
100
AcDbEntity
  8
0
  6
Continuous
 62
     7
370
    25
100
AcDbLine
 10
274.4634375
 20
180.56
 30
0.0
 11
273.1130769231
 21
183.3126041667
 31
0.0
  0
LINE
  5
213
330
1F
100
AcDbEntity
  8
0
  6
Continuous
 62
     7
370
    25
100
AcDbLine
 10
274.5041025641
 20
180.56
 30
0.0
 11
274.4634375
 21
180.56
 31
0.0
  0
LINE
  5
214
330
1F
100
AcDbEntity
  8
0
  6
Continuous
 62
     7
370
    25
100
AcDbLine
 10
274.5041025641
 20
184.06
 30
0.0
 11
274.5041025641
 21
180.56
 31
0.0
  0
LINE
  5
215
330
1F
100
AcDbEntity
  8
0
  6
Continuous
 62
     7
370
    25
100
AcDbLine
 10
274.3246153846
 20
184.06
 30
0.0
 11
274.5041025641
 21
184.06
 31
0.0
  0
LINE
  5
216
330
1F
100
AcDbEntity
  8
0
  6
Continuous
 62
     7
370
    25
100
AcDbLine
 10
274.3246153846
 20
181.3010857372
 30
0.0
 11
274.3246153846
 21
184.06
 31
0.0
  0
LINE
  5
217
330
1F
100
AcDbEntity
  8
0
  6
Continuous
 62
     7
370
    25
100
AcDbLine
 10
272.9714503205
 20
184.06
 30
0.0
 11
274.3246153846
 21
181.3010857372
 31
0.0
  0
LINE
  5
218
330
1F
100
AcDbEntity
  8
0
  6
Continuous
 62
     7
370
    25
100
AcDbLine
 10
272.9335897436
 20
184.06
 30
0.0
 11
272.9714503205
 21
184.06
 31
0.0
  0
LINE
  5
219
330
1F
100
AcDbEntity
  8
0
  6
Continuous
 62
     7
370
    25
100
AcDbLine
 10
272.9335897436
 20
180.56
 30
0.0
 11
272.9335897436
 21
184.06
 31
0.0
  0
LINE
  5
21A
330
1F
100
AcDbEntity
  8
0
  6
Continuous
 62
     7
370
    25
100
AcDbLine
 10
273.1130769231
 20
180.56
 30
0.0
 11
272.9335897436
 21
180.56
 31
0.0
  0
LINE
  5
21B
330
1F
100
AcDbEntity
  8
0
  6
Continuous
 62
     7
370
    25
100
AcDbLine
 10
278.048974359
 20
180.56
 30
0.0
 11
278.0041025641
 21
180.56
 31
0.0
  0
LINE
  5
21C
330
1F
100
AcDbEntity
  8
0
  6
Continuous
 62
     7
370
    25
100
AcDbLine
 10
278.9464102564
 20
184.06
 30
0.0
 11
278.048974359
 21
180.56
 31
0.0
  0
LINE
  5
21D
330
1F
100
AcDbEntity
  8
0
  6
Continuous
 62
     7
370
    25
100
AcDbLine
 10
278.7507972756
 20
184.06
 30
0.0
 11
278.9464102564
 21
184.06
 31
0.0
  0
LINE
  5
21E
330
1F
100
AcDbEntity
  8
0
  6
Continuous
 62
     7
370
    25
100
AcDbLine
 10
278.0265384615
 20
181.2344791667
 30
0.0
 11
278.7507972756
 21
184.06
 31
0.0
  0
LINE
  5
21F
330
1F
100
AcDbEntity
  8
0
  6
Continuous
 62
     7
370
    25
100
AcDbLine
 10
277.3022796474
 20
184.06
 30
0.0
 11
278.0265384615
 21
181.2344791667
 31
0.0
  0
LINE
  5
220
330
1F
100
AcDbEntity
  8
0
  6
Continuous
 62
     7
370
    25
100
AcDbLine
 10
277.1066666667
 20
184.06
 30
0.0
 11
277.3022796474
 21
184.06
 31
0.0
  0
LINE
  5
221
330
1F
100
AcDbEntity
  8
0
  6
Continuous
 62
     7
370
    25
100
AcDbLine
 10
278.0041025641
 20
180.56
 30
0.0
 11
277.1066666667
 21
184.06
 31
0.0
  0
LINE
  5
222
330
1F
100
AcDbEntity
  8
0
  6
Continuous
 62
     7
370
    25
100
AcDbLine
 10
282.3286217949
 20
180.56
 30
0.0
 11
281.7733333333
 21
180.56
 31
0.0
  0
SPLINE
  5
223
330
1F
100
AcDbEntity
  8
0
  6
Continuous
 62
     7
370
    25
100
AcDbSpline
210
0.0
220
0.0
230
1.0
 70
     8
 71
     3
 72
    11
 73
     7
 74
     0
 42
0.000000001
 43
0.00000001
 40
0.0
 40
0.0
 40
0.0
 40
0.0
 40
0.499123696560026
 40
0.749027846152389
 40
0.8744534873773988
 40
1.0
 40
1.0
 40
1.0
 40
1.0
 10
282.9848717948718
 20
181.5534895833308
 30
0.0
 10
282.9636987881888
 20
181.3314931803687
 30
0.0
 10
282.9319247576196
 20
180.9983463297779
 30
0.0
 10
282.6925310675611
 20
180.6787541301254
 30
0.0
 10
282.4942635299296
 20
180.5731980591058
 30
0.0
 10
282.3838534315292
 20
180.5644007653299
 30
0.0
 10
282.3286217948717
 20
180.5599999999974
 30
0.0
  0
SPLINE
  5
224
330
1F
100
AcDbEntity
  8
0
  6
Continuous
 62
     7
370
    25
100
AcDbSpline
210
0.0
220
0.0
230
1.0
 70
     8
 71
     3
 72
    10
 73
     6
 74
     0
 42
0.000000001
 43
0.00000001
 40
0.0
 40
0.0
 40
0.0
 40
0.0
 40
0.2796112770017492
 40
0.5597236900679835
 40
1.0
 40
1.0
 40
1.0
 40
1.0
 10
282.5740144230769
 20
182.4481209935872
 30
0.0
 10
282.6527276688073
 20
182.3908431728633
 30
0.0
 10
282.8102952348579
 20
182.2761848746773
 30
0.0
 10
282.954741087309
 20
181.9512193667061
 30
0.0
 10
282.9734422813041
 20
181.7043608479991
 30
0.0
 10
282.9848717948718
 20
181.5534895833308
 30
0.0
  0
SPLINE
  5
225
330
1F
100
AcDbEntity
  8
0
  6
Continuous
 62
     7
370
    25
100
AcDbSpline
210
0.0
220
0.0
230
1.0
 70
     8
 71
     3
 72
     9
 73
     5
 74
     0
 42
0.000000001
 43
0.00000001
 40
0.0
 40
0.0
 40
0.0
 40
0.0
 40
0.5610465972453196
 40
1.0
 40
1.0
 40
1.0
 40
1.0
 10
282.8053846153846
 20
183.192712339741
 30
0.0
 10
282.799136990322
 20
183.0410287580705
 30
0.0
 10
282.7880013286973
 20
182.7706704983194
 30
0.0
 10
282.6392912278624
 20
182.5465148695723
 30
0.0
 10
282.5740144230769
 20
182.4481209935872
 30
0.0
  0
SPLINE
  5
226
330
1F
100
AcDbEntity
  8
0
  6
Continuous
 62
     7
370
    25
100
AcDbSpline
210
0.0
220
0.0
230
1.0
 70
     8
 71
     3
 72
    11
 73
     7
 74
     0
 42
0.000000001
 43
0.00000001
 40
0.0
 40
0.0
 40
0.0
 40
0.0
 40
0.24992172783581
 40
0.3753610129494628
 40
0.5010264763867516
 40
1.0
 40
1.0
 40
1.0
 40
1.0
 10
282.1659615384615
 20
184.0599999999974
 30
0.0
 10
282.2703804129073
 20
184.0536292286499
 30
0.0
 10
282.4272086119696
 20
184.0440608761622
 30
0.0
 10
282.590716291408
 20
183.9135698433058
 30
0.0
 10
282.7651320614686
 20
183.6604690894571
 30
0.0
 10
282.7875092727097
 20
183.4004336238889
 30
0.0
 10
282.8053846153846
 20
183.192712339741
 30
0.0
  0
LINE
  5
227
330
1F
100
AcDbEntity
  8
0
  6
Continuous
 62
     7
370
    25
100
AcDbLine
 10
281.7733333333
 20
184.06
 30
0.0
 11
282.1659615385
 21
184.06
 31
0.0
  0
LINE
  5
228
330
1F
100
AcDbEntity
  8
0
  6
Continuous
 62
     7
370
    25
100
AcDbLine
 10
281.7733333333
 20
180.56
 30
0.0
 11
281.7733333333
 21
184.06
 31
0.0
  0
SPLINE
  5
229
330
1F
100
AcDbEntity
  8
0
  6
Continuous
 62
     7
370
    25
100
AcDbSpline
210
0.0
220
0.0
230
1.0
 70
     8
 71
     3
 72
    12
 73
     8
 74
     0
 42
0.000000001
 43
0.00000001
 40
0.0
 40
0.0
 40
0.0
 40
0.0
 40
0.4991267232808719
 40
0.6245710290040145
 40
0.749706517506249
 40
0.8746452541843256
 40
1.0
 40
1.0
 40
1.0
 40
1.0
 10
287.6066666666666
 20
182.2658293269205
 30
0.0
 10
287.579459294815
 20
181.8852791849847
 30
0.0
 10
287.5454139603513
 20
181.4090863011932
 30
0.0
 10
287.2832700257387
 20
180.9076506349756
 30
0.0
 10
287.0949970813476
 20
180.6907367721427
 30
0.0
 10
286.8281956623986
 20
180.5743797383091
 30
0.0
 10
286.6400823682685
 20
180.5647985543499
 30
0.0
 10
286.5458693910256
 20
180.5599999999974
 30
0.0
  0
SPLINE
  5
22A
330
1F
100
AcDbEntity
  8
0
  6
Continuous
 62
     7
370
    25
100
AcDbSpline
210
0.0
220
0.0
230
1.0
 70
     8
 71
     3
 72
    10
 73
     6
 74
     0
 42
0.000000001
 43
0.00000001
 40
0.0
 40
0.0
 40
0.0
 40
0.0
 40
0.2783445426919828
 40
0.5589399508783482
 40
1.0
 40
1.0
 40
1.0
 40
1.0
 10
286.9805649038461
 20
183.9337980769205
 30
0.0
 10
287.1088786481502
 20
183.8165535014321
 30
0.0
 10
287.3665437607646
 20
183.5811162385692
 30
0.0
 10
287.5659937992494
 20
182.9788529317934
 30
0.0
 10
287.5912379768438
 20
182.5363049716084
 30
0.0
 10
287.6066666666666
 20
182.2658293269205
 30
0.0
  0
SPLINE
  5
22B
330
1F
100
AcDbEntity
  8
0
  6
Continuous
 62
     7
370
    25
100
AcDbSpline
210
0.0
220
0.0
230
1.0
 70
     8
 71
     3
 72
     9
 73
     5
 74
     0
 42
0.000000001
 43
0.00000001
 40
0.0
 40
0.0
 40
0.0
 40
0.0
 40
0.5609859186653898
 40
1.0
 40
1.0
 40
1.0
 40
1.0
 10
286.3215104166666
 20
184.0599999999974
 30
0.0
 10
286.4494942413899
 20
184.0592222134431
 30
0.0
 10
286.6776351277559
 20
184.0578357498467
 30
0.0
 10
286.8881471581936
 20
183.9716394613356
 30
0.0
 10
286.9805649038461
 20
183.9337980769205
 30
0.0
  0
LINE
  5
22C
330
1F
100
AcDbEntity
  8
0
  6
Continuous
 62
     7
370
    25
100
AcDbLine
 10
285.9015384615
 20
184.06
 30
0.0
 11
286.3215104167
 21
184.06
 31
0.0
  0
LINE
  5
22D
330
1F
100
AcDbEntity
  8
0
  6
Continuous
 62
     7
370
    25
100
AcDbLine
 10
285.9015384615
 20
180.56
 30
0.0
 11
285.9015384615
 21
184.06
 31
0.0
  0
LINE
  5
22E
330
1F
100
AcDbEntity
  8
0
  6
Continuous
 62
     7
370
    25
100
AcDbLine
 10
286.545869391
 20
180.56
 30
0.0
 11
285.9015384615
 21
180.56
 31
0.0
  0
SPLINE
  5
22F
330
1F
100
AcDbEntity
  8
0
  6
Continuous
 62
     7
370
    25
100
AcDbSpline
210
0.0
220
0.0
230
1.0
 70
     8
 71
     3
 72
    11
 73
     7
 74
     0
 42
0.000000001
 43
0.00000001
 40
0.0
 40
0.0
 40
0.0
 40
0.0
 40
0.4995887937591625
 40
0.7496477070127117
 40
0.8748502498721045
 40
0.9999999999999999
 40
0.9999999999999999
 40
0.9999999999999999
 40
0.9999999999999999
 10
290.8374358974359
 20
182.4915905448692
 30
0.0
 10
290.8492051441811
 20
182.6364352866803
 30
0.0
 10
290.8668652457408
 20
182.8537790900801
 30
0.0
 10
291.0093466429299
 20
183.0679485850114
 30
0.0
 10
291.130270421253
 20
183.1517991645429
 30
0.0
 10
291.2024135875198
 20
183.1589762943781
 30
0.0
 10
291.2384775641025
 20
183.1625641025615
 30
0.0
  0
SPLINE
  5
230
330
1F
100
AcDbEntity
  8
0
  6
Continuous
 62
     7
370
    25
100
AcDbSpline
210
0.0
220
0.0
230
1.0
 70
     8
 71
     3
 72
     9
 73
     5
 74
     0
 42
0.000000001
 43
0.00000001
 40
0.0
 40
0.0
 40
0.0
 40
0.0
 40
0.5597236944495728
 40
0.9999999999999999
 40
0.9999999999999999
 40
0.9999999999999999
 40
0.9999999999999999
 10
290.908249198718
 20
182.0975600961513
 30
0.0
 10
290.8846760594235
 20
182.1693386055171
 30
0.0
 10
290.8425603878374
 20
182.297577788667
 30
0.0
 10
290.8390023966506
 20
182.4322830222771
 30
0.0
 10
290.8374358974359
 20
182.4915905448692
 30
0.0
  0
SPLINE
  5
231
330
1F
100
AcDbEntity
  8
0
  6
Continuous
 62
     7
370
    25
100
AcDbSpline
210
0.0
220
0.0
230
1.0
 70
     8
 71
     3
 72
     9
 73
     5
 74
     0
 42
0.000000001
 43
0.00000001
 40
0.0
 40
0.0
 40
0.0
 40
0.0
 40
0.5602673156711518
 40
0.9999999999999999
 40
0.9999999999999999
 40
0.9999999999999999
 40
0.9999999999999999
 10
291.1767788461538
 20
181.7484014423051
 30
0.0
 10
291.116191413927
 20
181.8057994248664
 30
0.0
 10
291.0080511913366
 20
181.908246919046
 30
0.0
 10
290.9387313837743
 20
182.0397388127606
 30
0.0
 10
290.908249198718
 20
182.0975600961513
 30
0.0
  0
SPLINE
  5
232
330
1F
100
AcDbEntity
  8
0
  6
Continuous
 62
     7
370
    25
100
AcDbSpline
210
0.0
220
0.0
230
1.0
 70
     8
 71
     3
 72
     9
 73
     5
 74
     0
 42
0.000000001
 43
0.00000001
 40
0.0
 40
0.0
 40
0.0
 40
0.0
 40
0.5592962946024351
 40
0.9999999999999999
 40
0.9999999999999999
 40
0.9999999999999999
 40
0.9999999999999999
 10
291.4130568910256
 20
181.4847796474333
 30
0.0
 10
291.3748284144169
 20
181.5392489294474
 30
0.0
 10
291.3064773865668
 20
181.6366378850685
 30
0.0
 10
291.2164529492539
 20
181.7142135564698
 30
0.0
 10
291.1767788461538
 20
181.7484014423051
 30
0.0
  0
SPLINE
  5
233
330
1F
100
AcDbEntity
  8
0
  6
Continuous
 62
     7
370
    25
100
AcDbSpline
210
0.0
220
0.0
230
1.0
 70
     8
 71
     3
 72
     9
 73
     5
 74
     0
 42
0.000000001
 43
0.00000001
 40
0.0
 40
0.0
 40
0.0
 40
0.0
 40
0.5600579277096368
 40
1.0
 40
1.0
 40
1.0
 40
1.0
 10
291.465641025641
 20
181.2407892628179
 30
0.0
 10
291.4634083162001
 20
181.2880842441271
 30
0.0
 10
291.4594217474357
 20
181.3725308325408
 30
0.0
 10
291.427222635192
 20
181.4504845343268
 30
0.0
 10
291.4130568910256
 20
181.4847796474333
 30
0.0
  0
SPLINE
  5
234
330
1F
100
AcDbEntity
  8
0
  6
Continuous
 62
     7
370
    25
100
AcDbSpline
210
0.0
220
0.0
230
1.0
 70
     8
 71
     3
 72
    11
 73
     7
 74
     0
 42
0.000000001
 43
0.00000001
 40
0.0
 40
0.0
 40
0.0
 40
0.0
 40
0.1862800291095628
 40
0.373277681167715
 40
0.560976309485279
 40
1.0
 40
1.0
 40
1.0
 40
1.0
 10
291.1858934294871
 20
180.8292307692282
 30
0.0
 10
291.2201231129252
 20
180.8343325821075
 30
0.0
 10
291.2887143458231
 20
180.8445558620288
 30
0.0
 10
291.3646529660746
 20
180.9188807532359
 30
0.0
 10
291.4443669645102
 20
181.0443617474268
 30
0.0
 10
291.456877383321
 20
181.1598728606271
 30
0.0
 10
291.465641025641
 20
181.2407892628179
 30
0.0
  0
SPLINE
  5
235
330
1F
100
AcDbEntity
  8
0
  6
Continuous
 62
     7
370
    25
100
AcDbSpline
210
0.0
220
0.0
230
1.0
 70
     8
 71
     3
 72
    10
 73
     6
 74
     0
 42
0.000000001
 43
0.00000001
 40
0.0
 40
0.0
 40
0.0
 40
0.0
 40
0.5602130058460041
 40
0.7805388860236455
 40
0.9999999999999999
 40
0.9999999999999999
 40
0.9999999999999999
 40
0.9999999999999999
 10
290.8710897435897
 20
181.098461538459
 30
0.0
 10
290.9133448745291
 20
181.0291336510742
 30
0.0
 10
290.9722185038239
 20
180.932539835106
 30
0.0
 10
291.0906718159475
 20
180.8432164931627
 30
0.0
 10
291.1541945271705
 20
180.8338865619663
 30
0.0
 10
291.1858934294871
 20
180.8292307692282
 30
0.0
  0
LINE
  5
236
330
1F
100
AcDbEntity
  8
0
  6
Continuous
 62
     7
370
    25
100
AcDbLine
 10
290.7476923077
 20
180.8614823718
 30
0.0
 11
290.8710897436
 21
181.0984615385
 31
0.0
  0
SPLINE
  5
237
330
1F
100
AcDbEntity
  8
0
  6
Continuous
 62
     7
370
    25
100
AcDbSpline
210
0.0
220
0.0
230
1.0
 70
     8
 71
     3
 72
    10
 73
     6
 74
     0
 42
0.000000001
 43
0.00000001
 40
0.0
 40
0.0
 40
0.0
 40
0.0
 40
0.2793360855017056
 40
0.5596860779239603
 40
1.0
 40
1.0
 40
1.0
 40
1.0
 10
291.1908012820512
 20
180.5151282051256
 30
0.0
 10
291.1357702842759
 20
180.5232651887845
 30
0.0
 10
291.0255085425686
 20
180.5395686909331
 30
0.0
 10
290.8626413192495
 20
180.6626748280952
 30
0.0
 10
290.7912880151408
 20
180.7860823714255
 30
0.0
 10
290.7476923076923
 20
180.8614823717923
 30
0.0
  0
SPLINE
  5
238
330
1F
100
AcDbEntity
  8
0
  6
Continuous
 62
     7
370
    25
100
AcDbSpline
210
0.0
220
0.0
230
1.0
 70
     8
 71
     3
 72
    11
 73
     7
 74
     0
 42
0.000000001
 43
0.00000001
 40
0.0
 40
0.0
 40
0.0
 40
0.0
 40
0.4993703836106166
 40
0.7494702244905823
 40
0.8747779228264972
 40
0.9999999999999999
 40
0.9999999999999999
 40
0.9999999999999999
 40
0.9999999999999999
 10
291.6451282051282
 20
181.2541105769205
 30
0.0
 10
291.6301431799346
 20
181.0937750359504
 30
0.0
 10
291.6076531994224
 20
180.8531385908816
 30
0.0
 10
291.4459535648917
 20
180.6180546921891
 30
0.0
 10
291.3106560585364
 20
180.5273158568621
 30
0.0
 10
291.2307437705938
 20
180.5191898299863
 30
0.0
 10
291.1908012820512
 20
180.5151282051256
 30
0.0
  0
SPLINE
  5
239
330
1F
100
AcDbEntity
  8
0
  6
Continuous
 62
     7
370
    25
100
AcDbSpline
210
0.0
220
0.0
230
1.0
 70
     8
 71
     3
 72
     9
 73
     5
 74
     0
 42
0.000000001
 43
0.00000001
 40
0.0
 40
0.0
 40
0.0
 40
0.0
 40
0.5597312972336572
 40
0.9999999999999999
 40
0.9999999999999999
 40
0.9999999999999999
 40
0.9999999999999999
 10
291.5722115384615
 20
181.6495432692282
 30
0.0
 10
291.596323094916
 20
181.5775742477195
 30
0.0
 10
291.6394001152179
 20
181.4489964428614
 30
0.0
 10
291.6433772133103
 20
181.3136842850907
 30
0.0
 10
291.6451282051282
 20
181.2541105769205
 30
0.0
  0
SPLINE
  5
23A
330
1F
100
AcDbEntity
  8
0
  6
Continuous
 62
     7
370
    25
100
AcDbSpline
210
0.0
220
0.0
230
1.0
 70
     8
 71
     3
 72
     9
 73
     5
 74
     0
 42
0.000000001
 43
0.00000001
 40
0.0
 40
0.0
 40
0.0
 40
0.0
 40
0.5602678590759818
 40
1.0
 40
1.0
 40
1.0
 40
1.0
 10
291.2917628205128
 20
182.0085176282026
 30
0.0
 10
291.3549117336651
 20
181.9496651122442
 30
0.0
 10
291.4676237376278
 20
181.8446215781471
 30
0.0
 10
291.5402676676068
 20
181.7091253261889
 30
0.0
 10
291.5722115384615
 20
181.6495432692282
 30
0.0
  0
SPLINE
  5
23B
330
1F
100
AcDbEntity
  8
0
  6
Continuous
 62
     7
370
    25
100
AcDbSpline
210
0.0
220
0.0
230
1.0
 70
     8
 71
     3
 72
     9
 73
     5
 74
     0
 42
0.000000001
 43
0.00000001
 40
0.0
 40
0.0
 40
0.0
 40
0.0
 40
0.5593044693552227
 40
1.0
 40
1.0
 40
1.0
 40
1.0
 10
291.0695072115384
 20
182.2721394230743
 30
0.0
 10
291.104912079521
 20
182.2178001551015
 30
0.0
 10
291.1682136798522
 20
182.1206450795566
 30
0.0
 10
291.2539702731313
 20
182.0428163857285
 30
0.0
 10
291.2917628205128
 20
182.0085176282026
 30
0.0
  0
SPLINE
  5
23C
330
1F
100
AcDbEntity
  8
0
  6
Continuous
 62
     7
370
    25
100
AcDbSpline
210
0.0
220
0.0
230
1.0
 70
     8
 71
     3
 72
     9
 73
     5
 74
     0
 42
0.000000001
 43
0.00000001
 40
0.0
 40
0.0
 40
0.0
 40
0.0
 40
0.559881814842881
 40
1.0
 40
1.0
 40
1.0
 40
1.0
 10
291.016923076923
 20
182.5042107371769
 30
0.0
 10
291.0198021150078
 20
182.4592309333034
 30
0.0
 10
291.0249443396852
 20
182.3788929000237
 30
0.0
 10
291.0558882388127
 20
182.3047646249629
 30
0.0
 10
291.0695072115384
 20
182.2721394230743
 30
0.0
  0
SPLINE
  5
23D
330
1F
100
AcDbEntity
  8
0
  6
Continuous
 62
     7
370
    25
100
AcDbSpline
210
0.0
220
0.0
230
1.0
 70
     8
 71
     3
 72
    11
 73
     7
 74
     0
 42
0.000000001
 43
0.00000001
 40
0.0
 40
0.0
 40
0.0
 40
0.0
 40
0.1252743077973432
 40
0.251101150056386
 40
0.5014001565339458
 40
0.9999999999999999
 40
0.9999999999999999
 40
0.9999999999999999
 40
0.9999999999999999
 10
291.2328685897436
 20
182.848461538459
 30
0.0
 10
291.2142137851525
 20
182.846507267818
 30
0.0
 10
291.1768218971489
 20
182.8425901070362
 30
0.0
 10
291.114705063205
 20
182.7986504234611
 30
0.0
 10
291.0381944578229
 20
182.6906512357602
 30
0.0
 10
291.0254248150355
 20
182.5787272107416
 30
0.0
 10
291.016923076923
 20
182.5042107371769
 30
0.0
  0
SPLINE
  5
23E
330
1F
100
AcDbEntity
  8
0
  6
Continuous
 62
     7
370
    25
100
AcDbSpline
210
0.0
220
0.0
230
1.0
 70
     8
 71
     3
 72
    10
 73
     6
 74
     0
 42
0.000000001
 43
0.00000001
 40
0.0
 40
0.0
 40
0.0
 40
0.0
 40
0.5608664427299723
 40
0.7811909556284055
 40
1.0
 40
1.0
 40
1.0
 40
1.0
 10
291.5189262820512
 20
182.5792307692282
 30
0.0
 10
291.4801718880979
 20
182.6449941452106
 30
0.0
 10
291.4261936506056
 20
182.7365912717547
 30
0.0
 10
291.322202860613
 20
182.8307469777572
 30
0.0
 10
291.2625780908305
 20
182.8425702858042
 30
0.0
 10
291.2328685897436
 20
182.848461538459
 30
0.0
  0
LINE
  5
23F
330
1F
100
AcDbEntity
  8
0
  6
Continuous
 62
     7
370
    25
100
AcDbLine
 10
291.6451282051
 20
182.798681891
 30
0.0
 11
291.5189262821
 21
182.5792307692
 31
0.0
  0
SPLINE
  5
240
330
1F
100
AcDbEntity
  8
0
  6
Continuous
 62
     7
370
    25
100
AcDbSpline
210
0.0
220
0.0
230
1.0
 70
     8
 71
     3
 72
    10
 73
     6
 74
     0
 42
0.000000001
 43
0.00000001
 40
0.0
 40
0.0
 40
0.0
 40
0.0
 40
0.277728411676265
 40
0.5583945168818977
 40
1.0
 40
1.0
 40
1.0
 40
1.0
 10
291.2384775641025
 20
183.1625641025615
 30
0.0
 10
291.2907130610716
 20
183.1506986903199
 30
0.0
 10
291.3957365799766
 20
183.1268423585306
 30
0.0
 10
291.5305623178543
 20
182.9848574374865
 30
0.0
 10
291.6016589030517
 20
182.8693217757309
 30
0.0
 10
291.6451282051282
 20
182.7986818910231
 30
0.0
  0
LINE
  5
241
330
1F
100
AcDbEntity
  8
0
  6
Continuous
 62
     7
370
    25
100
AcDbLine
 10
292.9015384615
 20
180.56
 30
0.0
 11
292.7220512821
 21
180.56
 31
0.0
  0
LINE
  5
242
330
1F
100
AcDbEntity
  8
0
  6
Continuous
 62
     7
370
    25
100
AcDbLine
 10
292.9015384615
 20
181.4195753205
 30
0.0
 11
292.9015384615
 21
180.56
 31
0.0
  0
SPLINE
  5
243
330
1F
100
AcDbEntity
  8
0
  6
Continuous
 62
     7
370
    25
100
AcDbSpline
210
0.0
220
0.0
230
1.0
 70
     8
 71
     3
 72
     9
 73
     5
 74
     0
 42
0.000000001
 43
0.00000001
 40
0.0
 40
0.0
 40
0.0
 40
0.0
 40
0.5598529206449104
 40
1.0
 40
1.0
 40
1.0
 40
1.0
 10
292.9386979166666
 20
182.2973798076897
 30
0.0
 10
292.9248677874436
 20
182.1338337459568
 30
0.0
 10
292.9001646400401
 20
181.8417104833962
 30
0.0
 10
292.9011185853128
 20
181.5485910034921
 30
0.0
 10
292.9015384615385
 20
181.4195753205103
 30
0.0
  0
SPLINE
  5
244
330
1F
100
AcDbEntity
  8
0
  6
Continuous
 62
     7
370
    25
100
AcDbSpline
210
0.0
220
0.0
230
1.0
 70
     8
 71
     3
 72
    11
 73
     7
 74
     0
 42
0.000000001
 43
0.00000001
 40
0.0
 40
0.0
 40
0.0
 40
0.0
 40
0.1243538791098461
 40
0.2497154802031543
 40
0.4996181121087911
 40
1.0
 40
1.0
 40
1.0
 40
1.0
 10
293.2759375
 20
182.848461538459
 30
0.0
 10
293.2473566603157
 20
182.8432666574687
 30
0.0
 10
293.1899633714418
 20
182.8328347979212
 30
0.0
 10
293.1034462141595
 20
182.7523693809887
 30
0.0
 10
292.9946308181079
 20
182.5818853941871
 30
0.0
 10
292.9610762348547
 20
182.4112082767459
 30
0.0
 10
292.9386979166666
 20
182.2973798076897
 30
0.0
  0
SPLINE
  5
245
330
1F
100
AcDbEntity
  8
0
  6
Continuous
 62
     7
370
    25
100
AcDbSpline
210
0.0
220
0.0
230
1.0
 70
     8
 71
     3
 72
     9
 73
     5
 74
     0
 42
0.000000001
 43
0.00000001
 40
0.0
 40
0.0
 40
0.0
 40
0.0
 40
0.5610727427929559
 40
1.0
 40
1.0
 40
1.0
 40
1.0
 10
293.3825080128204
 20
182.8028886217923
 30
0.0
 10
293.3643606522475
 20
182.8158076009306
 30
0.0
 10
293.3320166098642
 20
182.8388330986119
 30
0.0
 10
293.2930437503375
 20
182.8455245000006
 30
0.0
 10
293.2759375
 20
182.848461538459
 30
0.0
  0
LINE
  5
246
330
1F
100
AcDbEntity
  8
0
  6
Continuous
 62
     7
370
    25
100
AcDbLine
 10
293.4848717949
 20
183.0749238782
 30
0.0
 11
293.3825080128
 21
182.8028886218
 31
0.0
  0
SPLINE
  5
247
330
1F
100
AcDbEntity
  8
0
  6
Continuous
 62
     7
370
    25
100
AcDbSpline
210
0.0
220
0.0
230
1.0
 70
     8
 71
     3
 72
     9
 73
     5
 74
     0
 42
0.000000001
 43
0.00000001
 40
0.0
 40
0.0
 40
0.0
 40
0.0
 40
0.5580894598618757
 40
1.0
 40
1.0
 40
1.0
 40
1.0
 10
293.3074879807692
 20
183.1625641025615
 30
0.0
 10
293.3448924442165
 20
183.1547274869594
 30
0.0
 10
293.4119147876534
 20
183.1406856242014
 30
0.0
 10
293.4625122451152
 20
183.0950782552501
 30
0.0
 10
293.4848717948718
 20
183.0749238782026
 30
0.0
  0
SPLINE
  5
248
330
1F
100
AcDbEntity
  8
0
  6
Continuous
 62
     7
370
    25
100
AcDbSpline
210
0.0
220
0.0
230
1.0
 70
     8
 71
     3
 72
    10
 73
     6
 74
     0
 42
0.000000001
 43
0.00000001
 40
0.0
 40
0.0
 40
0.0
 40
0.0
 40
0.5604822839617496
 40
0.7809314186747636
 40
1.0
 40
1.0
 40
1.0
 40
1.0
 10
292.9015384615385
 20
182.7411899038436
 30
0.0
 10
292.9492781949592
 20
182.8465889969835
 30
0.0
 10
293.0157949410084
 20
182.9934437070931
 30
0.0
 10
293.1717806393666
 20
183.1387462244789
 30
0.0
 10
293.2623470252475
 20
183.1546414525115
 30
0.0
 10
293.3074879807692
 20
183.1625641025615
 30
0.0
  0
LINE
  5
249
330
1F
100
AcDbEntity
  8
0
  6
Continuous
 62
     7
370
    25
100
AcDbLine
 10
292.9015384615
 20
183.1176923077
 30
0.0
 11
292.9015384615
 21
182.7411899038
 31
0.0
  0
LINE
  5
24A
330
1F
100
AcDbEntity
  8
0
  6
Continuous
 62
     7
370
    25
100
AcDbLine
 10
292.7220512821
 20
183.1176923077
 30
0.0
 11
292.9015384615
 21
183.1176923077
 31
0.0
  0
LINE
  5
24B
330
1F
100
AcDbEntity
  8
0
  6
Continuous
 62
     7
370
    25
100
AcDbLine
 10
292.7220512821
 20
180.56
 30
0.0
 11
292.7220512821
 21
183.1176923077
 31
0.0
  0
SPLINE
  5
24C
330
1F
100
AcDbEntity
  8
0
  6
Continuous
 62
     7
370
    25
100
AcDbSpline
210
0.0
220
0.0
230
1.0
 70
     8
 71
     3
 72
     9
 73
     5
 74
     0
 42
0.000000001
 43
0.00000001
 40
0.0
 40
0.0
 40
0.0
 40
0.0
 40
0.5599962873528365
 40
0.9999999999999999
 40
0.9999999999999999
 40
0.9999999999999999
 40
0.9999999999999999
 10
294.3823076923077
 20
181.8318349358948
 30
0.0
 10
294.3905414049671
 20
182.0091806425688
 30
0.0
 10
294.4052445607654
 20
182.3258715040606
 30
0.0
 10
294.5378173293642
 20
182.6128256492265
 30
0.0
 10
294.5961498397436
 20
182.739086538459
 30
0.0
  0
SPLINE
  5
24D
330
1F
100
AcDbEntity
  8
0
  6
Continuous
 62
     7
370
    25
100
AcDbSpline
210
0.0
220
0.0
230
1.0
 70
     8
 71
     3
 72
    11
 73
     7
 74
     0
 42
0.000000001
 43
0.00000001
 40
0.0
 40
0.0
 40
0.0
 40
0.0
 40
0.1252886638719642
 40
0.2506165783541495
 40
0.5007770309831404
 40
0.9999999999999999
 40
0.9999999999999999
 40
0.9999999999999999
 40
0.9999999999999999
 10
295.1907011217949
 20
180.5151282051256
 30
0.0
 10
295.1195798060235
 20
180.5222029724158
 30
0.0
 10
294.9773148934945
 20
180.5363547233893
 30
0.0
 10
294.7351485120593
 20
180.6967831643516
 30
0.0
 10
294.4558278028329
 20
181.1213518564394
 30
0.0
 10
294.4117028068396
 20
181.547766653837
 30
0.0
 10
294.3823076923077
 20
181.8318349358948
 30
0.0
  0
SPLINE
  5
24E
330
1F
100
AcDbEntity
  8
0
  6
Continuous
 62
     7
370
    25
100
AcDbSpline
210
0.0
220
0.0
230
1.0
 70
     8
 71
     3
 72
    11
 73
     7
 74
     0
 42
0.000000001
 43
0.00000001
 40
0.0
 40
0.0
 40
0.0
 40
0.0
 40
0.4992172148960858
 40
0.749394329162967
 40
0.8747283359361284
 40
1.0
 40
1.0
 40
1.0
 40
1.0
 10
295.9976923076923
 20
181.8318349358948
 30
0.0
 10
295.9683833938565
 20
181.5478885881461
 30
0.0
 10
295.9243866462141
 20
181.1216457094149
 30
0.0
 10
295.6452429071223
 20
180.6978158265783
 30
0.0
 10
295.404018943677
 20
180.5362301398094
 30
0.0
 10
295.2617952688487
 20
180.5221610167036
 30
0.0
 10
295.1907011217949
 20
180.5151282051256
 30
0.0
  0
SPLINE
  5
24F
330
1F
100
AcDbEntity
  8
0
  6
Continuous
 62
     7
370
    25
100
AcDbSpline
210
0.0
220
0.0
230
1.0
 70
     8
 71
     3
 72
     9
 73
     5
 74
     0
 42
0.000000001
 43
0.00000001
 40
0.0
 40
0.0
 40
0.0
 40
0.0
 40
0.5593287449576883
 40
1.0
 40
1.0
 40
1.0
 40
1.0
 10
295.7838501602564
 20
182.7411899038436
 30
0.0
 10
295.8547983816628
 20
182.5784637607269
 30
0.0
 10
295.9816436797922
 20
182.2875326319702
 30
0.0
 10
295.9927833675203
 20
181.9712233459478
 30
0.0
 10
295.9976923076923
 20
181.8318349358948
 30
0.0
  0
SPLINE
  5
250
330
1F
100
AcDbEntity
  8
0
  6
Continuous
 62
     7
370
    25
100
AcDbSpline
210
0.0
220
0.0
230
1.0
 70
     8
 71
     3
 72
    10
 73
     6
 74
     0
 42
0.000000001
 43
0.00000001
 40
0.0
 40
0.0
 40
0.0
 40
0.0
 40
0.2796914884105177
 40
0.5596858189806797
 40
1.0
 40
1.0
 40
1.0
 40
1.0
 10
295.1907011217949
 20
183.1625641025615
 30
0.0
 10
295.2621275856607
 20
183.1545075342966
 30
0.0
 10
295.4050578519797
 20
183.1383856743388
 30
0.0
 10
295.6237328010695
 20
182.9913882930536
 30
0.0
 10
295.7231052305507
 20
182.8361095530448
 30
0.0
 10
295.7838501602564
 20
182.7411899038436
 30
0.0
  0
SPLINE
  5
251
330
1F
100
AcDbEntity
  8
0
  6
Continuous
 62
     7
370
    25
100
AcDbSpline
210
0.0
220
0.0
230
1.0
 70
     8
 71
     3
 72
    10
 73
     6
 74
     0
 42
0.000000001
 43
0.00000001
 40
0.0
 40
0.0
 40
0.0
 40
0.0
 40
0.5586685747843357
 40
0.7793955152712614
 40
1.0
 40
1.0
 40
1.0
 40
1.0
 10
294.5961498397436
 20
182.739086538459
 30
0.0
 10
294.6762973089538
 20
182.8605362468819
 30
0.0
 10
294.7881106109404
 20
183.0299700800134
 30
0.0
 10
295.0217320002301
 20
183.1482827007008
 30
0.0
 10
295.1343885008328
 20
183.1578045159439
 30
0.0
 10
295.1907011217949
 20
183.1625641025615
 30
0.0
  0
SPLINE
  5
252
330
1F
100
AcDbEntity
  8
0
  6
Continuous
 62
     7
370
    25
100
AcDbSpline
210
0.0
220
0.0
230
1.0
 70
     8
 71
     3
 72
    11
 73
     7
 74
     0
 42
0.000000001
 43
0.00000001
 40
0.0
 40
0.0
 40
0.0
 40
0.0
 40
0.1250539336956069
 40
0.2504342417755239
 40
0.5004247085281843
 40
1.0
 40
1.0
 40
1.0
 40
1.0
 10
284.4165625
 20
180.8292307692282
 30
0.0
 10
284.4960902509531
 20
180.8387142034084
 30
0.0
 10
284.6553533098709
 20
180.8577058222897
 30
0.0
 10
284.9226624835118
 20
181.0421754503778
 30
0.0
 10
285.2496186602842
 20
181.508601853084
 30
0.0
 10
285.2907749955463
 20
181.9907549457605
 30
0.0
 10
285.3182051282051
 20
182.312103365382
 30
0.0
  0
SPLINE
  5
253
330
1F
100
AcDbEntity
  8
0
  6
Continuous
 62
     7
370
    25
100
AcDbSpline
210
0.0
220
0.0
230
1.0
 70
     8
 71
     3
 72
    11
 73
     7
 74
     0
 42
0.000000001
 43
0.00000001
 40
0.0
 40
0.0
 40
0.0
 40
0.0
 40
0.4991016982356786
 40
0.7494814255329307
 40
0.8748284505783404
 40
1.0
 40
1.0
 40
1.0
 40
1.0
 10
283.5233333333333
 20
182.2959775641
 30
0.0
 10
283.553581240008
 20
181.9795136989931
 30
0.0
 10
283.5990033339302
 20
181.5042923371175
 30
0.0
 10
283.9171613504333
 20
181.0414642241337
 30
0.0
 10
284.1799641134796
 20
180.8556797227099
 30
0.0
 10
284.3377332075904
 20
180.8380429691701
 30
0.0
 10
284.4165625
 20
180.8292307692282
 30
0.0
  0
SPLINE
  5
254
330
1F
100
AcDbEntity
  8
0
  6
Continuous
 62
     7
370
    25
100
AcDbSpline
210
0.0
220
0.0
230
1.0
 70
     8
 71
     3
 72
    11
 73
     7
 74
     0
 42
0.000000001
 43
0.00000001
 40
0.0
 40
0.0
 40
0.0
 40
0.0
 40
0.1249532961511408
 40
0.2503821503405736
 40
0.5004907900907031
 40
1.0
 40
1.0
 40
1.0
 40
1.0
 10
284.4165625
 20
183.7907692307666
 30
0.0
 10
284.3371199748927
 20
183.7801780305992
 30
0.0
 10
284.1779325754601
 20
183.7589553213606
 30
0.0
 10
283.9172157690098
 20
183.5650505092948
 30
0.0
 10
283.5924595447867
 20
183.0998880294933
 30
0.0
 10
283.5509759810549
 20
182.6174506106811
 30
0.0
 10
283.5233333333333
 20
182.2959775641
 30
0.0
  0
SPLINE
  5
255
330
1F
100
AcDbEntity
  8
0
  6
Continuous
 62
     7
370
    25
100
AcDbSpline
210
0.0
220
0.0
230
1.0
 70
     8
 71
     3
 72
    12
 73
     8
 74
     0
 42
0.000000001
 43
0.00000001
 40
0.0
 40
0.0
 40
0.0
 40
0.0
 40
0.2506351414332839
 40
0.5009640909924623
 40
0.75029894466177
 40
0.8753629805214626
 40
0.9999999999999999
 40
0.9999999999999999
 40
0.9999999999999999
 40
0.9999999999999999
 10
285.3182051282051
 20
182.312103365382
 30
0.0
 10
285.3105514767143
 20
182.4703704328381
 30
0.0
 10
285.2952535239216
 20
182.7867112186065
 30
0.0
 10
285.1495751049831
 20
183.2444940798557
 30
0.0
 10
284.9170113714744
 20
183.5711522117817
 30
0.0
 10
284.6542358771732
 20
183.7604618720304
 30
0.0
 10
284.4956965858253
 20
183.7806783019638
 30
0.0
 10
284.4165625
 20
183.7907692307666
 30
0.0
  0
SPLINE
  5
256
330
1F
100
AcDbEntity
  8
0
  6
Continuous
 62
     7
370
    25
100
AcDbSpline
210
0.0
220
0.0
230
1.0
 70
     8
 71
     3
 72
    11
 73
     7
 74
     0
 42
0.000000001
 43
0.00000001
 40
0.0
 40
0.0
 40
0.0
 40
0.0
 40
0.125053933695608
 40
0.2504342417755216
 40
0.5004247085281824
 40
1.0
 40
1.0
 40
1.0
 40
1.0
 10
280.2883573717948
 20
180.8292307692282
 30
0.0
 10
280.367885122748
 20
180.8387142034084
 30
0.0
 10
280.5271481816657
 20
180.8577058222897
 30
0.0
 10
280.7944573553067
 20
181.0421754503778
 30
0.0
 10
281.121413532079
 20
181.508601853084
 30
0.0
 10
281.1625698673412
 20
181.9907549457605
 30
0.0
 10
281.1899999999999
 20
182.312103365382
 30
0.0
  0
SPLINE
  5
257
330
1F
100
AcDbEntity
  8
0
  6
Continuous
 62
     7
370
    25
100
AcDbSpline
210
0.0
220
0.0
230
1.0
 70
     8
 71
     3
 72
    11
 73
     7
 74
     0
 42
0.000000001
 43
0.00000001
 40
0.0
 40
0.0
 40
0.0
 40
0.0
 40
0.1249532961511372
 40
0.2503821503405738
 40
0.5004907900907036
 40
1.0
 40
1.0
 40
1.0
 40
1.0
 10
280.2883573717948
 20
183.7907692307666
 30
0.0
 10
280.2089148466876
 20
183.7801780305992
 30
0.0
 10
280.049727447255
 20
183.7589553213606
 30
0.0
 10
279.7890106408046
 20
183.5650505092948
 30
0.0
 10
279.4642544165816
 20
183.0998880294933
 30
0.0
 10
279.4227708528497
 20
182.6174506106811
 30
0.0
 10
279.3951282051282
 20
182.2959775641
 30
0.0
  0
SPLINE
  5
258
330
1F
100
AcDbEntity
  8
0
  6
Continuous
 62
     7
370
    25
100
AcDbSpline
210
0.0
220
0.0
230
1.0
 70
     8
 71
     3
 72
    12
 73
     8
 74
     0
 42
0.000000001
 43
0.00000001
 40
0.0
 40
0.0
 40
0.0
 40
0.0
 40
0.2506351414332831
 40
0.5009640909924613
 40
0.750298944661772
 40
0.8753629805214633
 40
0.9999999999999999
 40
0.9999999999999999
 40
0.9999999999999999
 40
0.9999999999999999
 10
281.1899999999999
 20
182.312103365382
 30
0.0
 10
281.1823463485092
 20
182.4703704328381
 30
0.0
 10
281.1670483957164
 20
182.7867112186065
 30
0.0
 10
281.021369976778
 20
183.2444940798557
 30
0.0
 10
280.7888062432693
 20
183.5711522117817
 30
0.0
 10
280.526030748968
 20
183.7604618720304
 30
0.0
 10
280.3674914576202
 20
183.7806783019638
 30
0.0
 10
280.2883573717948
 20
183.7907692307666
 30
0.0
  0
SPLINE
  5
259
330
1F
100
AcDbEntity
  8
0
  6
Continuous
 62
     7
370
    25
100
AcDbSpline
210
0.0
220
0.0
230
1.0
 70
     8
 71
     3
 72
    11
 73
     7
 74
     0
 42
0.000000001
 43
0.00000001
 40
0.0
 40
0.0
 40
0.0
 40
0.0
 40
0.4991016982356788
 40
0.7494814255329281
 40
0.8748284505783376
 40
1.0
 40
1.0
 40
1.0
 40
1.0
 10
279.3951282051282
 20
182.2959775641
 30
0.0
 10
279.4253761118029
 20
181.9795136989931
 30
0.0
 10
279.4707982057251
 20
181.5042923371175
 30
0.0
 10
279.7889562222281
 20
181.0414642241337
 30
0.0
 10
280.0517589852744
 20
180.8556797227099
 30
0.0
 10
280.2095280793853
 20
180.8380429691701
 30
0.0
 10
280.2883573717948
 20
180.8292307692282
 30
0.0
  0
SPLINE
  5
25A
330
1F
100
AcDbEntity
  8
0
  6
Continuous
 62
     7
370
    25
100
AcDbSpline
210
0.0
220
0.0
230
1.0
 70
     8
 71
     3
 72
    11
 73
     7
 74
     0
 42
0.000000001
 43
0.00000001
 40
0.0
 40
0.0
 40
0.0
 40
0.0
 40
0.1252383510079264
 40
0.2507095095621852
 40
0.500684794879971
 40
1.0
 40
1.0
 40
1.0
 40
1.0
 10
295.1899999999999
 20
180.8292307692282
 30
0.0
 10
295.2442482453162
 20
180.8351815617483
 30
0.0
 10
295.3528455788676
 20
180.8470942088107
 30
0.0
 10
295.5388281623407
 20
180.9669539514076
 30
0.0
 10
295.7650123058307
 20
181.2835872653736
 30
0.0
 10
295.7969334127955
 20
181.6113294306557
 30
0.0
 10
295.8182051282051
 20
181.8297315705102
 30
0.0
  0
SPLINE
  5
25B
330
1F
100
AcDbEntity
  8
0
  6
Continuous
 62
     7
370
    25
100
AcDbSpline
210
0.0
220
0.0
230
1.0
 70
     8
 71
     3
 72
    11
 73
     7
 74
     0
 42
0.000000001
 43
0.00000001
 40
0.0
 40
0.0
 40
0.0
 40
0.0
 40
0.4992930200825775
 40
0.749274692916146
 40
0.8747539920694997
 40
1.0
 40
1.0
 40
1.0
 40
1.0
 10
294.5617948717949
 20
181.8297315705102
 30
0.0
 10
294.583093133965
 20
181.6113545847363
 30
0.0
 10
294.6150548242057
 20
181.283642515121
 30
0.0
 10
294.8411542353197
 20
180.966959211718
 30
0.0
 10
295.0271474946176
 20
180.8470970973136
 30
0.0
 10
295.1357495150132
 20
180.8351825165549
 30
0.0
 10
295.1899999999999
 20
180.8292307692282
 30
0.0
  0
SPLINE
  5
25C
330
1F
100
AcDbEntity
  8
0
  6
Continuous
 62
     7
370
    25
100
AcDbSpline
210
0.0
220
0.0
230
1.0
 70
     8
 71
     3
 72
    11
 73
     7
 74
     0
 42
0.000000001
 43
0.00000001
 40
0.0
 40
0.0
 40
0.0
 40
0.0
 40
0.1252064616421751
 40
0.2505310710863857
 40
0.5009789373972882
 40
0.9999999999999999
 40
0.9999999999999999
 40
0.9999999999999999
 40
0.9999999999999999
 10
295.1899999999999
 20
182.848461538459
 30
0.0
 10
295.1351590742552
 20
182.8421015509604
 30
0.0
 10
295.0254254735607
 20
182.8293755745275
 30
0.0
 10
294.841872906716
 20
182.7011908776594
 30
0.0
 10
294.6176879452123
 20
182.3806931093908
 30
0.0
 10
294.5841353159141
 20
182.049950726814
 30
0.0
 10
294.5617948717949
 20
181.8297315705102
 30
0.0
  0
SPLINE
  5
25D
330
1F
100
AcDbEntity
  8
0
  6
Continuous
 62
     7
370
    25
100
AcDbSpline
210
0.0
220
0.0
230
1.0
 70
     8
 71
     3
 72
    11
 73
     7
 74
     0
 42
0.000000001
 43
0.00000001
 40
0.0
 40
0.0
 40
0.0
 40
0.0
 40
0.4989901191017467
 40
0.7494656583161072
 40
0.8748113416411794
 40
1.0
 40
1.0
 40
1.0
 40
1.0
 10
295.8182051282051
 20
181.8297315705102
 30
0.0
 10
295.7956507753204
 20
182.0498295488303
 30
0.0
 10
295.7617749283136
 20
182.3804089929937
 30
0.0
 10
295.5377325258397
 20
182.7006893621077
 30
0.0
 10
295.354509792335
 20
182.8292430730662
 30
0.0
 10
295.2448136797241
 20
182.8420580606363
 30
0.0
 10
295.1899999999999
 20
182.848461538459
 30
0.0
  0
LINE
  5
25E
330
1F
100
AcDbEntity
  8
0
  6
Continuous
 62
     7
370
    25
100
AcDbLine
 10
249.94
 20
179.36
 30
0.0
 11
249.94
 21
179.06
 31
0.0
  0
LINE
  5
25F
330
1F
100
AcDbEntity
  8
0
  6
Continuous
 62
     7
370
    25
100
AcDbLine
 10
249.94
 20
179.06
 30
0.0
 11
240.94
 21
179.06
 31
0.0
  0
LINE
  5
260
330
1F
100
AcDbEntity
  8
0
  6
Continuous
 62
     7
370
    25
100
AcDbLine
 10
240.94
 20
179.06
 30
0.0
 11
240.94
 21
179.36
 31
0.0
  0
LINE
  5
261
330
1F
100
AcDbEntity
  8
0
  6
Continuous
 62
     7
370
    25
100
AcDbLine
 10
296.94
 20
179.36
 30
0.0
 11
296.94
 21
179.06
 31
0.0
  0
LINE
  5
262
330
1F
100
AcDbEntity
  8
0
  6
Continuous
 62
     7
370
    25
100
AcDbLine
 10
296.94
 20
179.06
 30
0.0
 11
257.94
 21
179.06
 31
0.0
  0
LINE
  5
263
330
1F
100
AcDbEntity
  8
0
  6
Continuous
 62
     7
370
    25
100
AcDbLine
 10
257.94
 20
179.06
 30
0.0
 11
257.94
 21
179.36
 31
0.0
  0
LINE
  5
264
330
1F
100
AcDbEntity
  8
0
  6
Continuous
 62
     7
370
    25
100
AcDbLine
 10
271.9099519231
 20
182.0407692308
 30
0.0
 11
271.565
 21
183.3855208333
 31
0.0
  0
LINE
  5
265
330
1F
100
AcDbEntity
  8
0
  6
Continuous
 62
     7
370
    25
100
AcDbLine
 10
271.2200480769
 20
182.0407692308
 30
0.0
 11
271.9099519231
 21
182.0407692308
 31
0.0
  0
LINE
  5
266
330
1F
100
AcDbEntity
  8
0
  6
Continuous
 62
     7
370
    25
100
AcDbLine
 10
271.565
 20
183.3855208333
 30
0.0
 11
271.2200480769
 21
182.0407692308
 31
0.0
  0
LINE
  5
267
330
1F
100
AcDbEntity
  8
0
  6
Continuous
 62
     7
370
    25
100
AcDbLine
 10
289.095849359
 20
182.0407692308
 30
0.0
 11
288.7508974359
 21
183.3855208333
 31
0.0
  0
LINE
  5
268
330
1F
100
AcDbEntity
  8
0
  6
Continuous
 62
     7
370
    25
100
AcDbLine
 10
288.4059455128
 20
182.0407692308
 30
0.0
 11
289.095849359
 21
182.0407692308
 31
0.0
  0
LINE
  5
269
330
1F
100
AcDbEntity
  8
0
  6
Continuous
 62
     7
370
    25
100
AcDbLine
 10
288.7508974359
 20
183.3855208333
 30
0.0
 11
288.4059455128
 21
182.0407692308
 31
0.0
  0
LINE
  5
26A
330
1F
100
AcDbEntity
  8
0
  6
Continuous
 62
     7
370
    25
100
AcDbLine
 10
240.94
 20
214.06
 30
0.0
 11
296.94
 21
214.06
 31
0.0
  0
LINE
  5
26B
330
1F
100
AcDbEntity
  8
0
  6
Continuous
 62
     7
370
    25
100
AcDbLine
 10
296.94
 20
214.06
 30
0.0
 11
296.94
 21
213.76
 31
0.0
  0
LINE
  5
26C
330
1F
100
AcDbEntity
  8
0
  6
Continuous
 62
     7
370
    25
100
AcDbLine
 10
240.94
 20
213.76
 30
0.0
 11
240.94
 21
214.06
 31
0.0
  0
CIRCLE
  5
26D
330
1F
100
AcDbEntity
  8
0
  6
Continuous
 62
     7
370
    25
100
AcDbCircle
 10
251.44
 20
196.56
 30
0.0
 40
6.579999999999984
  0
CIRCLE
  5
26E
330
1F
100
AcDbEntity
  8
0
  6
Continuous
 62
     7
370
    25
100
AcDbCircle
 10
276.44
 20
196.56
 30
0.0
 40
6.579999999999927
  0
CIRCLE
  5
26F
330
1F
100
AcDbEntity
  8
0
  6
Continuous
 62
     7
370
    25
100
AcDbCircle
 10
251.44
 20
196.56
 30
0.0
 40
1.249999999999972
  0
CIRCLE
  5
270
330
1F
100
AcDbEntity
  8
0
  6
Continuous
 62
     7
370
    25
100
AcDbCircle
 10
276.44
 20
196.56
 30
0.0
 40
1.25
  0
LINE
  5
271
330
1F
100
AcDbEntity
  8
0
  6
Continuous
 62
     8
370
    25
100
AcDbLine
 10
435.94
 20
200.56
 30
0.0
 11
435.94
 21
192.56
 31
0.0
  0
DIMENSION
  5
272
330
1F
100
AcDbEntity
  8
0
  6
Continuous
 62
     7
370
    18
100
AcDbDimension
  2
_D_4
 10
296.94
 20
157.06
 30
0.0
 11
268.94
 21
157.06
 31
0.0
 70
   160
  1
<>
 71
     2
 42
-1.0
  3
SLDDIMSTYLE0
100
AcDbAlignedDimension
 13
240.94
 23
179.06
 33
0.0
 14
296.94
 24
179.06
 34
0.0
100
AcDbRotatedDimension
  0
DIMENSION
  5
27C
330
1F
100
AcDbEntity
  8
0
  6
Continuous
 62
     7
370
    18
100
AcDbDimension
  2
_D_5
 10
299.94
 20
224.06
 30
0.0
 11
312.1087502436
 21
224.06
 31
0.0
 70
   160
  1
<>
 71
     2
 42
-1.0
  3
SLDDIMSTYLE2
100
AcDbAlignedDimension
 13
296.94
 23
214.06
 33
0.0
 14
299.94
 24
210.56
 34
0.0
100
AcDbRotatedDimension
  0
DIMENSION
  5
288
330
1F
100
AcDbEntity
  8
0
  6
Continuous
 62
     7
370
    18
100
AcDbDimension
  2
_D_6
 10
252.3238834765
 20
195.6761165235
 30
0.0
 11
230.94001
 21
217.06001
 31
0.0
 70
   163
  1
<>
 71
     1
 42
-1.0
  3
SLDDIMSTYLE3
100
AcDbDiametricDimension
 15
250.5561165235
 25
197.4438834765
 35
0.0
 40
0.0
  0
DIMENSION
  5
292
330
1F
100
AcDbEntity
  8
0
  6
Continuous
 62
     7
370
    18
100
AcDbDimension
  2
_D_7
 10
257.94
 20
169.06
 30
0.0
 11
237.7712497564
 21
169.06
 31
0.0
 70
   160
  1
<>
 71
     2
 42
-1.0
  3
SLDDIMSTYLE0
100
AcDbAlignedDimension
 13
249.94
 23
179.06
 33
0.0
 14
257.94
 24
179.06
 34
0.0
100
AcDbRotatedDimension
  0
DIMENSION
  5
29D
330
1F
100
AcDbEntity
  8
0
  6
Continuous
 62
     7
370
    18
100
AcDbDimension
  2
_D_8
 10
218.94
 20
181.06
 30
0.0
 11
218.94
 21
166.8912497564
 31
0.0
 70
   160
  1
<>
 71
     2
 42
-1.0
  3
SLDDIMSTYLE2
100
AcDbAlignedDimension
 13
240.94
 23
179.06
 33
0.0
 14
249.94
 24
181.06
 34
0.0
 50
90.0
100
AcDbRotatedDimension
  0
DIMENSION
  5
2A9
330
1F
100
AcDbEntity
  8
0
  6
Continuous
 62
     7
370
    18
100
AcDbDimension
  2
_D_9
 10
257.1384471569
 20
193.27
 30
0.0
 11
212.94001
 21
218.7879953638
 31
0.0
 70
   163
  1
1/4
 71
     1
 42
-1.0
  3
SLDDIMSTYLE4
100
AcDbDiametricDimension
 15
245.7415528431
 25
199.85
 35
0.0
 40
0.0
  0
DIMENSION
  5
2B2
330
1F
100
AcDbEntity
  8
0
  6
Continuous
 62
     7
370
    18
100
AcDbDimension
  2
_D_10
 10
476.94
 20
205.56
 30
0.0
 11
476.94
 21
177.9386822987
 31
0.0
 70
   160
  1
%%c<>
 71
     2
 42
-1.0
  3
SLDDIMSTYLE0
100
AcDbAlignedDimension
 13
415.44
 23
187.56
 33
0.0
 14
415.44
 24
205.56
 34
0.0
 50
90.0
100
AcDbRotatedDimension
  0
DIMENSION
  5
2BF
330
1F
100
AcDbEntity
  8
0
  6
Continuous
 62
     7
370
    18
100
AcDbDimension
  2
_D_11
 10
488.94
 20
181.56
 30
0.0
 11
488.94
 21
196.56
 31
0.0
 70
   160
  1
%%c<>
 71
     2
 42
-1.0
  3
SLDDIMSTYLE0
100
AcDbAlignedDimension
 13
298.94
 23
211.56
 33
0.0
 14
298.94
 24
181.56
 34
0.0
 50
90.0
100
AcDbRotatedDimension
  0
DIMENSION
  5
2CA
330
1F
100
AcDbEntity
  8
0
  6
Continuous
 62
     7
370
    18
100
AcDbDimension
  2
_D_12
 10
420.94
 20
169.06
 30
0.0
 11
588.5983366901
 21
169.06
 31
0.0
 70
   160
  1
<>
 71
     2
 42
-1.0
  3
SLDDIMSTYLE0
100
AcDbAlignedDimension
 13
296.94
 23
179.06
 33
0.0
 14
420.94
 24
189.06
 34
0.0
 50
0.0
100
AcDbRotatedDimension
  0
INSERT
  5
2E0
330
1F
100
AcDbEntity
  8
0
  6
Continuous
 62
     7
370
     0
100
AcDbBlockReference
  2
SW_CENTERMARKSYMBOL_1
 10
251.44
 20
196.56
 30
0.0
  0
INSERT
  5
2EC
330
1F
100
AcDbEntity
  8
0
  6
Continuous
 62
     7
370
     0
100
AcDbBlockReference
  2
SW_CENTERMARKSYMBOL_2
 10
276.44
 20
196.56
 30
0.0
  0
LINE
  5
2ED
330
1F
100
AcDbEntity
  8
0
  6
CENTERX2
 62
     7
370
    18
100
AcDbLine
 10
417.44
 20
196.56
 30
0.0
 11
276.94
 21
196.56
 31
0.0
  0
LINE
  5
2EE
330
1F
100
AcDbEntity
  8
0
  6
CENTERX2
 62
     7
370
    18
100
AcDbLine
 10
413.94
 20
196.56
 30
0.0
 11
422.64
 21
196.56
 31
0.0
  0
LINE
  5
2EF
330
1F
100
AcDbEntity
  8
0
  6
CENTERX2
 62
     7
370
    18
100
AcDbLine
 10
238.94
 20
196.56
 30
0.0
 11
275.44
 21
196.56
 31
0.0
  0
LINE
  5
2F0
330
1F
100
AcDbEntity
  8
0
  6
Continuous
 62
     7
370
    25
100
AcDbLine
 10
282.94
 20
91.56
 30
0.0
 11
281.94
 21
90.56
 31
0.0
  0
LINE
  5
2F1
330
1F
100
AcDbEntity
  8
0
  6
Continuous
 62
     7
370
    25
100
AcDbLine
 10
281.94
 20
82.56
 30
0.0
 11
282.94
 21
81.56
 31
0.0
  0
ARC
  5
2F2
330
1F
100
AcDbEntity
  8
0
  6
Continuous
 62
     7
370
    25
100
AcDbCircle
 10
280.94
 20
91.56
 30
0.0
 40
1.0
100
AcDbArc
 50
180.0
 51
270.0
  0
ARC
  5
2F3
330
1F
100
AcDbEntity
  8
0
  6
Continuous
 62
     7
370
    25
100
AcDbCircle
 10
280.94
 20
81.56
 30
0.0
 40
1.0
100
AcDbArc
 50
90.0
 51
180.0
  0
LINE
  5
2F4
330
1F
100
AcDbEntity
  8
0
  6
Continuous
 62
     7
370
    25
100
AcDbLine
 10
282.94
 20
81.56
 30
0.0
 11
292.94
 21
81.56
 31
0.0
  0
LINE
  5
2F5
330
1F
100
AcDbEntity
  8
0
  6
Continuous
 62
     7
370
    25
100
AcDbLine
 10
292.94
 20
91.56
 30
0.0
 11
282.94
 21
91.56
 31
0.0
  0
LINE
  5
2F6
330
1F
100
AcDbEntity
  8
0
  6
Continuous
 62
     7
370
    25
100
AcDbLine
 10
292.94
 20
81.56
 30
0.0
 11
293.94
 21
82.56
 31
0.0
  0
LINE
  5
2F7
330
1F
100
AcDbEntity
  8
0
  6
Continuous
 62
     7
370
    25
100
AcDbLine
 10
293.94
 20
90.56
 30
0.0
 11
292.94
 21
91.56
 31
0.0
  0
LINE
  5
2F8
330
1F
100
AcDbEntity
  8
0
  6
Continuous
 62
     7
370
    25
100
AcDbLine
 10
280.94
 20
82.56
 30
0.0
 11
281.94
 21
82.56
 31
0.0
  0
LINE
  5
2F9
330
1F
100
AcDbEntity
  8
0
  6
Continuous
 62
     7
370
    25
100
AcDbLine
 10
281.94
 20
90.56
 30
0.0
 11
280.94
 21
90.56
 31
0.0
  0
LINE
  5
2FA
330
1F
100
AcDbEntity
  8
0
  6
Continuous
 62
     7
370
    25
100
AcDbLine
 10
112.44
 20
59.06
 30
0.0
 11
112.44
 21
54.66
 31
0.0
  0
LINE
  5
2FB
330
1F
100
AcDbEntity
  8
0
  6
Continuous
 62
     7
370
    25
100
AcDbLine
 10
130.44
 20
54.66
 30
0.0
 11
130.44
 21
59.06
 31
0.0
  0
LINE
  5
2FC
330
1F
100
AcDbEntity
  8
0
  6
Continuous
 62
     7
370
    25
100
AcDbLine
 10
112.44
 20
54.66
 30
0.0
 11
112.94
 21
54.16
 31
0.0
  0
LINE
  5
2FD
330
1F
100
AcDbEntity
  8
0
  6
Continuous
 62
     7
370
    25
100
AcDbLine
 10
129.94
 20
54.16
 30
0.0
 11
130.44
 21
54.66
 31
0.0
  0
LINE
  5
2FE
330
1F
100
AcDbEntity
  8
0
  6
Continuous
 62
     7
370
    25
100
AcDbLine
 10
87.44
 20
59.06
 30
0.0
 11
87.44
 21
54.66
 31
0.0
  0
LINE
  5
2FF
330
1F
100
AcDbEntity
  8
0
  6
Continuous
 62
     7
370
    25
100
AcDbLine
 10
105.44
 20
54.66
 30
0.0
 11
105.44
 21
59.06
 31
0.0
  0
LINE
  5
300
330
1F
100
AcDbEntity
  8
0
  6
Continuous
 62
     7
370
    25
100
AcDbLine
 10
87.44
 20
54.66
 30
0.0
 11
87.94
 21
54.16
 31
0.0
  0
LINE
  5
301
330
1F
100
AcDbEntity
  8
0
  6
Continuous
 62
     7
370
    25
100
AcDbLine
 10
104.94
 20
54.16
 30
0.0
 11
105.44
 21
54.66
 31
0.0
  0
LINE
  5
302
330
1F
100
AcDbEntity
  8
0
  6
Continuous
 62
     7
370
    25
100
AcDbLine
 10
144.94
 20
77.56
 30
0.0
 11
260.44
 21
77.56
 31
0.0
  0
LINE
  5
303
330
1F
100
AcDbEntity
  8
0
  6
Continuous
 62
     7
370
    25
100
AcDbLine
 10
260.44
 20
95.56
 30
0.0
 11
144.94
 21
95.56
 31
0.0
  0
LINE
  5
304
330
1F
100
AcDbEntity
  8
0
  6
Continuous
 62
     7
370
    25
100
AcDbLine
 10
260.44
 20
77.56
 30
0.0
 11
260.94
 21
78.06
 31
0.0
  0
LINE
  5
305
330
1F
100
AcDbEntity
  8
0
  6
Continuous
 62
     7
370
    25
100
AcDbLine
 10
260.94
 20
95.06
 30
0.0
 11
260.44
 21
95.56
 31
0.0
  0
LINE
  5
306
330
1F
100
AcDbEntity
  8
0
  6
Continuous
 62
     7
370
    25
100
AcDbLine
 10
141.94
 20
71.56
 30
0.0
 11
143.94
 21
71.56
 31
0.0
  0
LINE
  5
307
330
1F
100
AcDbEntity
  8
0
  6
Continuous
 62
     7
370
    25
100
AcDbLine
 10
143.94
 20
101.56
 30
0.0
 11
141.94
 21
101.56
 31
0.0
  0
LINE
  5
308
330
1F
100
AcDbEntity
  8
0
  6
Continuous
 62
     7
370
    25
100
AcDbLine
 10
143.94
 20
71.56
 30
0.0
 11
144.94
 21
72.56
 31
0.0
  0
LINE
  5
309
330
1F
100
AcDbEntity
  8
0
  6
Continuous
 62
     7
370
    25
100
AcDbLine
 10
144.94
 20
100.56
 30
0.0
 11
143.94
 21
101.56
 31
0.0
  0
LINE
  5
30A
330
1F
100
AcDbEntity
  8
0
  6
Continuous
 62
     7
370
    25
100
AcDbLine
 10
273.94
 20
90.81
 30
0.0
 11
273.94
 21
82.31
 31
0.0
  0
SPLINE
  5
30B
330
1F
100
AcDbEntity
  8
0
  6
Continuous
 62
     7
370
    25
100
AcDbSpline
210
0.0
220
0.0
230
1.0
 70
     8
 71
     3
 72
    11
 73
     7
 74
     0
 42
0.000000001
 43
0.00000001
 40
0.0
 40
0.0
 40
0.0
 40
0.0
 40
0.43204301936387
 40
0.6543455292941838
 40
0.8796482225985358
 40
1.0
 40
1.0
 40
1.0
 40
1.0
 10
272.6250454237764
 20
86.55999999998512
 30
0.0
 10
272.9342199059057
 20
85.97781731337174
 30
0.0
 10
273.4024763782612
 20
85.09607956702683
 30
0.0
 10
273.780978325532
 20
83.83341705235628
 30
0.0
 10
273.9226884352373
 20
82.9994499573007
 30
0.0
 10
273.9355290779957
 20
82.48805883101863
 30
0.0
 10
273.94
 20
82.30999999998514
 30
0.0
  0
SPLINE
  5
30C
330
1F
100
AcDbEntity
  8
0
  6
Continuous
 62
     7
370
    25
100
AcDbSpline
210
0.0
220
0.0
230
1.0
 70
     8
 71
     3
 72
    10
 73
     6
 74
     0
 42
0.000000001
 43
0.00000001
 40
0.0
 40
0.0
 40
0.0
 40
0.0
 40
0.2497057580813442
 40
0.5046223899004513
 40
0.9999999999999999
 40
0.9999999999999999
 40
0.9999999999999999
 40
0.9999999999999999
 10
273.9400000000001
 20
90.80999999998512
 30
0.0
 10
273.9207271020136
 20
90.4406452752115
 30
0.0
 10
273.8817791181269
 20
89.6942281105918
 30
0.0
 10
273.50240412957
 20
88.24338364583161
 30
0.0
 10
272.9739526084188
 20
87.2294464244259
 30
0.0
 10
272.6250454237764
 20
86.55999999998512
 30
0.0
  0
SPLINE
  5
30D
330
1F
100
AcDbEntity
  8
0
  6
Continuous
 62
     7
370
    25
100
AcDbSpline
210
0.0
220
0.0
230
1.0
 70
     8
 71
     3
 72
    14
 73
    10
 74
     0
 42
0.000000001
 43
0.00000001
 40
0.0
 40
0.0
 40
0.0
 40
0.0
 40
0.1244822891566299
 40
0.2496517336499237
 40
0.3767766887834357
 40
0.5044798147218964
 40
0.6276452239118756
 40
0.8754394741865482
 40
1.0
 40
1.0
 40
1.0
 40
1.0
 10
265.94
 20
82.30999999998514
 30
0.0
 10
265.9446304110984
 20
82.49426560592491
 30
0.0
 10
265.9539167936517
 20
82.86381398334136
 30
0.0
 10
266.0286220272312
 20
83.41841906661553
 30
0.0
 10
266.1463373663711
 20
83.97179784396054
 30
0.0
 10
266.3062758942856
 20
84.51423552748483
 30
0.0
 10
266.5657442438774
 20
85.21743894735151
 30
0.0
 10
266.8832065132211
 20
85.89879860994247
 30
0.0
 10
267.1617694116281
 20
86.3942582880734
 30
0.0
 10
267.2549545762237
 20
86.55999999998512
 30
0.0
  0
LINE
  5
30E
330
1F
100
AcDbEntity
  8
0
  6
Continuous
 62
     7
370
    25
100
AcDbLine
 10
272.6250454238
 20
86.56
 30
0.0
 11
267.2549545762
 21
86.56
 31
0.0
  0
SPLINE
  5
30F
330
1F
100
AcDbEntity
  8
0
  6
Continuous
 62
     7
370
    25
100
AcDbSpline
210
0.0
220
0.0
230
1.0
 70
     8
 71
     3
 72
    10
 73
     6
 74
     0
 42
0.000000001
 43
0.00000001
 40
0.0
 40
0.0
 40
0.0
 40
0.0
 40
0.2497057580813441
 40
0.5046223899004499
 40
1.0
 40
1.0
 40
1.0
 40
1.0
 10
273.9400000000001
 20
82.30999999998514
 30
0.0
 10
273.9207271020137
 20
81.9406452752115
 30
0.0
 10
273.8817791181269
 20
81.1942281105918
 30
0.0
 10
273.50240412957
 20
79.74338364583163
 30
0.0
 10
272.9739526084188
 20
78.7294464244259
 30
0.0
 10
272.6250454237764
 20
78.05999999998512
 30
0.0
  0
LINE
  5
310
330
1F
100
AcDbEntity
  8
0
  6
Continuous
 62
     7
370
    25
100
AcDbLine
 10
272.6250454238
 20
78.06
 30
0.0
 11
267.2549545762
 21
78.06
 31
0.0
  0
SPLINE
  5
311
330
1F
100
AcDbEntity
  8
0
  6
Continuous
 62
     7
370
    25
100
AcDbSpline
210
0.0
220
0.0
230
1.0
 70
     8
 71
     3
 72
    12
 73
     8
 74
     0
 42
0.000000001
 43
0.00000001
 40
0.0
 40
0.0
 40
0.0
 40
0.0
 40
0.2155166871398612
 40
0.4322256310650851
 40
0.6544566654419549
 40
0.8796869185624282
 40
1.0
 40
1.0
 40
1.0
 40
1.0
 10
267.2549545762236
 20
78.05999999998512
 30
0.0
 10
267.095991156802
 20
78.34776743033491
 30
0.0
 10
266.7771849186977
 20
78.92489424512394
 30
0.0
 10
266.3889746179447
 20
79.8348264314855
 30
0.0
 10
266.0978836146866
 20
80.78604925746374
 30
0.0
 10
265.9574489730873
 20
81.62061447994303
 30
0.0
 10
265.9445064093742
 20
82.13195781066065
 30
0.0
 10
265.94
 20
82.30999999998514
 30
0.0
  0
SPLINE
  5
312
330
1F
100
AcDbEntity
  8
0
  6
Continuous
 62
     7
370
    25
100
AcDbSpline
210
0.0
220
0.0
230
1.0
 70
     8
 71
     3
 72
    10
 73
     6
 74
     0
 42
0.000000001
 43
0.00000001
 40
0.0
 40
0.0
 40
0.0
 40
0.0
 40
0.2497057580813435
 40
0.5046223899004497
 40
1.0
 40
1.0
 40
1.0
 40
1.0
 10
279.94
 20
90.80999999998512
 30
0.0
 10
279.9207271020136
 20
90.44064527521151
 30
0.0
 10
279.8817791181269
 20
89.6942281105918
 30
0.0
 10
279.50240412957
 20
88.24338364583161
 30
0.0
 10
278.9739526084188
 20
87.2294464244259
 30
0.0
 10
278.6250454237764
 20
86.55999999998512
 30
0.0
  0
LINE
  5
313
330
1F
100
AcDbEntity
  8
0
  6
Continuous
 62
     7
370
    25
100
AcDbLine
 10
279.94
 20
90.81
 30
0.0
 11
279.94
 21
82.31
 31
0.0
  0
SPLINE
  5
314
330
1F
100
AcDbEntity
  8
0
  6
Continuous
 62
     7
370
    25
100
AcDbSpline
210
0.0
220
0.0
230
1.0
 70
     8
 71
     3
 72
    11
 73
     7
 74
     0
 42
0.000000001
 43
0.00000001
 40
0.0
 40
0.0
 40
0.0
 40
0.0
 40
0.4320430193638699
 40
0.6543455292941821
 40
0.8796482225985359
 40
1.0
 40
1.0
 40
1.0
 40
1.0
 10
278.6250454237764
 20
86.55999999998512
 30
0.0
 10
278.9342199059056
 20
85.97781731337174
 30
0.0
 10
279.4024763782611
 20
85.09607956702683
 30
0.0
 10
279.780978325532
 20
83.83341705235628
 30
0.0
 10
279.9226884352373
 20
82.9994499573007
 30
0.0
 10
279.9355290779957
 20
82.48805883101863
 30
0.0
 10
279.94
 20
82.30999999998512
 30
0.0
  0
SPLINE
  5
315
330
1F
100
AcDbEntity
  8
0
  6
Continuous
 62
     7
370
    25
100
AcDbSpline
210
0.0
220
0.0
230
1.0
 70
     8
 71
     3
 72
    10
 73
     6
 74
     0
 42
0.000000001
 43
0.00000001
 40
0.0
 40
0.0
 40
0.0
 40
0.0
 40
0.2497057580813442
 40
0.5046223899004504
 40
1.0
 40
1.0
 40
1.0
 40
1.0
 10
273.94
 20
82.30999999998514
 30
0.0
 10
273.9592728979864
 20
82.67935472475875
 30
0.0
 10
273.9982208818731
 20
83.42577188937845
 30
0.0
 10
274.37759587043
 20
84.87661635413862
 30
0.0
 10
274.9060473915811
 20
85.89055357554435
 30
0.0
 10
275.2549545762236
 20
86.55999999998512
 30
0.0
  0
LINE
  5
316
330
1F
100
AcDbEntity
  8
0
  6
Continuous
 62
     7
370
    25
100
AcDbLine
 10
278.6250454238
 20
86.56
 30
0.0
 11
275.2549545762
 21
86.56
 31
0.0
  0
SPLINE
  5
317
330
1F
100
AcDbEntity
  8
0
  6
Continuous
 62
     7
370
    25
100
AcDbSpline
210
0.0
220
0.0
230
1.0
 70
     8
 71
     3
 72
    10
 73
     6
 74
     0
 42
0.000000001
 43
0.00000001
 40
0.0
 40
0.0
 40
0.0
 40
0.0
 40
0.2497057580813441
 40
0.5046223899004507
 40
1.0
 40
1.0
 40
1.0
 40
1.0
 10
279.9400000000001
 20
82.30999999998512
 30
0.0
 10
279.9207271020136
 20
81.9406452752115
 30
0.0
 10
279.8817791181269
 20
81.1942281105918
 30
0.0
 10
279.50240412957
 20
79.74338364583163
 30
0.0
 10
278.9739526084189
 20
78.7294464244259
 30
0.0
 10
278.6250454237764
 20
78.05999999998512
 30
0.0
  0
LINE
  5
318
330
1F
100
AcDbEntity
  8
0
  6
Continuous
 62
     7
370
    25
100
AcDbLine
 10
278.6250454238
 20
78.06
 30
0.0
 11
275.2549545762
 21
78.06
 31
0.0
  0
SPLINE
  5
319
330
1F
100
AcDbEntity
  8
0
  6
Continuous
 62
     7
370
    25
100
AcDbSpline
210
0.0
220
0.0
230
1.0
 70
     8
 71
     3
 72
    11
 73
     7
 74
     0
 42
0.000000001
 43
0.00000001
 40
0.0
 40
0.0
 40
0.0
 40
0.0
 40
0.4320430193638694
 40
0.6543455292941821
 40
0.8796482225985351
 40
1.0
 40
1.0
 40
1.0
 40
1.0
 10
275.2549545762236
 20
78.05999999998512
 30
0.0
 10
274.9457800940943
 20
78.6421826865985
 30
0.0
 10
274.477523621739
 20
79.5239204329434
 30
0.0
 10
274.0990216744681
 20
80.78658294761398
 30
0.0
 10
273.9573115647628
 20
81.62055004266955
 30
0.0
 10
273.9444709220043
 20
82.13194116895161
 30
0.0
 10
273.94
 20
82.30999999998514
 30
0.0
  0
SPLINE
  5
31A
330
1F
100
AcDbEntity
  8
0
  6
Continuous
 62
     7
370
    25
100
AcDbSpline
210
0.0
220
0.0
230
1.0
 70
     8
 71
     3
 72
    11
 73
     7
 74
     0
 42
0.000000001
 43
0.00000001
 40
0.0
 40
0.0
 40
0.0
 40
0.0
 40
0.432043019363871
 40
0.6543455292941843
 40
0.8796482225985377
 40
1.0
 40
1.0
 40
1.0
 40
1.0
 10
275.2549545762237
 20
86.55999999998512
 30
0.0
 10
274.9457800940943
 20
87.14218268659852
 30
0.0
 10
274.4775236217389
 20
88.02392043294341
 30
0.0
 10
274.0990216744681
 20
89.286582947614
 30
0.0
 10
273.9573115647627
 20
90.12055004266955
 30
0.0
 10
273.9444709220044
 20
90.63194116895161
 30
0.0
 10
273.94
 20
90.80999999998512
 30
0.0
  0
SPLINE
  5
31B
330
1F
100
AcDbEntity
  8
0
  6
Continuous
 62
     7
370
    25
100
AcDbSpline
210
0.0
220
0.0
230
1.0
 70
     8
 71
     3
 72
    10
 73
     6
 74
     0
 42
0.000000001
 43
0.00000001
 40
0.0
 40
0.0
 40
0.0
 40
0.0
 40
0.2497057580813441
 40
0.5046223899004496
 40
1.0
 40
1.0
 40
1.0
 40
1.0
 10
273.94
 20
90.80999999998512
 30
0.0
 10
273.9592728979864
 20
91.17935472475874
 30
0.0
 10
273.9982208818731
 20
91.92577188937844
 30
0.0
 10
274.37759587043
 20
93.37661635413863
 30
0.0
 10
274.9060473915811
 20
94.39055357554435
 30
0.0
 10
275.2549545762236
 20
95.05999999998511
 30
0.0
  0
LINE
  5
31C
330
1F
100
AcDbEntity
  8
0
  6
Continuous
 62
     7
370
    25
100
AcDbLine
 10
278.6250454238
 20
95.06
 30
0.0
 11
275.2549545762
 21
95.06
 31
0.0
  0
SPLINE
  5
31D
330
1F
100
AcDbEntity
  8
0
  6
Continuous
 62
     7
370
    25
100
AcDbSpline
210
0.0
220
0.0
230
1.0
 70
     8
 71
     3
 72
    11
 73
     7
 74
     0
 42
0.000000001
 43
0.00000001
 40
0.0
 40
0.0
 40
0.0
 40
0.0
 40
0.4320430193638687
 40
0.6543455292941818
 40
0.8796482225985357
 40
1.0
 40
1.0
 40
1.0
 40
1.0
 10
278.6250454237764
 20
95.05999999998511
 30
0.0
 10
278.9342199059056
 20
94.47781731337173
 30
0.0
 10
279.4024763782611
 20
93.59607956702683
 30
0.0
 10
279.780978325532
 20
92.33341705235627
 30
0.0
 10
279.9226884352373
 20
91.4994499573007
 30
0.0
 10
279.9355290779957
 20
90.98805883101862
 30
0.0
 10
279.94
 20
90.80999999998512
 30
0.0
  0
LINE
  5
31E
330
1F
100
AcDbEntity
  8
0
  6
Continuous
 62
     7
370
    25
100
AcDbLine
 10
265.94
 20
90.81
 30
0.0
 11
265.94
 21
82.31
 31
0.0
  0
SPLINE
  5
31F
330
1F
100
AcDbEntity
  8
0
  6
Continuous
 62
     7
370
    25
100
AcDbSpline
210
0.0
220
0.0
230
1.0
 70
     8
 71
     3
 72
    13
 73
     9
 74
     0
 42
0.000000001
 43
0.00000001
 40
0.0
 40
0.0
 40
0.0
 40
0.0
 40
0.2155124587266795
 40
0.4322171508467775
 40
0.6544438250757277
 40
0.8796696592039465
 40
0.9397957081739265
 40
1.0
 40
1.0
 40
1.0
 40
1.0
 10
267.2549545762236
 20
86.55999999998512
 30
0.0
 10
267.0959589032207
 20
86.84776675512836
 30
0.0
 10
266.777087979524
 20
87.42489221576899
 30
0.0
 10
266.3893690243888
 20
88.3348346881133
 30
0.0
 10
266.0963540376217
 20
89.28601723681926
 30
0.0
 10
265.9763299899003
 20
90.03223158740073
 30
0.0
 10
265.9432570583222
 20
90.54284902372615
 30
0.0
 10
265.9410861566386
 20
90.72091108057552
 30
0.0
 10
265.94
 20
90.80999999998512
 30
0.0
  0
SPLINE
  5
320
330
1F
100
AcDbEntity
  8
0
  6
Continuous
 62
     7
370
    25
100
AcDbSpline
210
0.0
220
0.0
230
1.0
 70
     8
 71
     3
 72
    10
 73
     6
 74
     0
 42
0.000000001
 43
0.00000001
 40
0.0
 40
0.0
 40
0.0
 40
0.0
 40
0.2497057580813442
 40
0.504622389900451
 40
1.0
 40
1.0
 40
1.0
 40
1.0
 10
265.9400000000001
 20
90.80999999998512
 30
0.0
 10
265.9592728979864
 20
91.17935472475874
 30
0.0
 10
265.9982208818731
 20
91.92577188937845
 30
0.0
 10
266.37759587043
 20
93.37661635413862
 30
0.0
 10
266.9060473915811
 20
94.39055357554435
 30
0.0
 10
267.2549545762236
 20
95.05999999998512
 30
0.0
  0
LINE
  5
321
330
1F
100
AcDbEntity
  8
0
  6
Continuous
 62
     7
370
    25
100
AcDbLine
 10
272.6250454238
 20
95.06
 30
0.0
 11
267.2549545762
 21
95.06
 31
0.0
  0
SPLINE
  5
322
330
1F
100
AcDbEntity
  8
0
  6
Continuous
 62
     7
370
    25
100
AcDbSpline
210
0.0
220
0.0
230
1.0
 70
     8
 71
     3
 72
    11
 73
     7
 74
     0
 42
0.000000001
 43
0.00000001
 40
0.0
 40
0.0
 40
0.0
 40
0.0
 40
0.4320430193638704
 40
0.6543455292941829
 40
0.8796482225985359
 40
1.0
 40
1.0
 40
1.0
 40
1.0
 10
272.6250454237764
 20
95.05999999998512
 30
0.0
 10
272.9342199059056
 20
94.47781731337173
 30
0.0
 10
273.4024763782611
 20
93.59607956702683
 30
0.0
 10
273.780978325532
 20
92.33341705235627
 30
0.0
 10
273.9226884352373
 20
91.4994499573007
 30
0.0
 10
273.9355290779957
 20
90.98805883101862
 30
0.0
 10
273.94
 20
90.80999999998512
 30
0.0
  0
LINE
  5
323
330
1F
100
AcDbEntity
  8
0
  6
Continuous
 62
     7
370
    25
100
AcDbLine
 10
273.94
 20
82.31
 30
0.0
 11
273.94
 21
78.06
 31
0.0
  0
SPLINE
  5
324
330
1F
100
AcDbEntity
  8
0
  6
Continuous
 62
     7
370
    25
100
AcDbSpline
210
0.0
220
0.0
230
1.0
 70
    24
 71
     3
 72
    11
 73
     7
 74
     0
 42
0.000000001
 43
0.00000001
 40
0.0
 40
0.0
 40
0.0
 40
0.0
 40
0.246865051663257
 40
0.4987789882867749
 40
0.748207427494998
 40
1.0
 40
1.0
 40
1.0
 40
1.0
 10
273.94
 20
78.05999999998512
 30
0.0
 10
273.9583401463469
 20
78.05999999998512
 30
0.0
 10
273.9953955317821
 20
78.05999999998512
 30
0.0
 10
274.2843249499524
 20
78.05999999998512
 30
0.0
 10
274.7021934918507
 20
78.05999999998512
 30
0.0
 10
275.070122405421
 20
78.05999999998512
 30
0.0
 10
275.2549545762236
 20
78.05999999998512
 30
0.0
  0
SPLINE
  5
325
330
1F
100
AcDbEntity
  8
0
  6
Continuous
 62
     7
370
    25
100
AcDbSpline
210
0.0
220
0.0
230
1.0
 70
    24
 71
     3
 72
    11
 73
     7
 74
     0
 42
0.000000001
 43
0.00000001
 40
0.0
 40
0.0
 40
0.0
 40
0.0
 40
0.2548051944591316
 40
0.6218775796891869
 40
0.9992051938695975
 40
1.0
 40
1.0
 40
1.0
 40
1.0
 10
265.94
 20
78.05999999998512
 30
0.0
 10
265.9600612178074
 20
78.05999999998512
 30
0.0
 10
266.0090226277274
 20
78.05999999998512
 30
0.0
 10
266.4597457956518
 20
78.05999999998511
 30
0.0
 10
266.9656521762831
 20
78.05999999998514
 30
0.0
 10
267.2543477436361
 20
78.05999999998511
 30
0.0
 10
267.2549545762237
 20
78.05999999998511
 30
0.0
  0
LINE
  5
326
330
1F
100
AcDbEntity
  8
0
  6
Continuous
 62
     7
370
    25
100
AcDbLine
 10
265.94
 20
82.31
 30
0.0
 11
265.94
 21
78.06
 31
0.0
  0
LINE
  5
327
330
1F
100
AcDbEntity
  8
0
  6
Continuous
 62
     7
370
    25
100
AcDbLine
 10
273.94
 20
95.06
 30
0.0
 11
273.94
 21
90.81
 31
0.0
  0
SPLINE
  5
328
330
1F
100
AcDbEntity
  8
0
  6
Continuous
 62
     7
370
    25
100
AcDbSpline
210
0.0
220
0.0
230
1.0
 70
    24
 71
     3
 72
    10
 73
     6
 74
     0
 42
0.000000001
 43
0.00000001
 40
0.0
 40
0.0
 40
0.0
 40
0.0
 40
0.274584477196565
 40
0.6326482916133181
 40
1.0
 40
1.0
 40
1.0
 40
1.0
 10
273.94
 20
95.05999999998512
 30
0.0
 10
273.9163517617276
 20
95.05999999998512
 30
0.0
 10
273.8618657336189
 20
95.05999999998512
 30
0.0
 10
273.4075351898119
 20
95.05999999998512
 30
0.0
 10
272.88809225035
 20
95.05999999998512
 30
0.0
 10
272.6250454237764
 20
95.05999999998512
 30
0.0
  0
SPLINE
  5
329
330
1F
100
AcDbEntity
  8
0
  6
Continuous
 62
     7
370
    25
100
AcDbSpline
210
0.0
220
0.0
230
1.0
 70
    24
 71
     3
 72
    11
 73
     7
 74
     0
 42
0.000000001
 43
0.00000001
 40
0.0
 40
0.0
 40
0.0
 40
0.0
 40
0.2468650516632566
 40
0.4987789882867753
 40
0.7482074274949995
 40
1.0
 40
1.0
 40
1.0
 40
1.0
 10
279.94
 20
95.05999999998512
 30
0.0
 10
279.9216598536532
 20
95.05999999998512
 30
0.0
 10
279.8846044682179
 20
95.05999999998511
 30
0.0
 10
279.5956750500475
 20
95.05999999998511
 30
0.0
 10
279.1778065081494
 20
95.05999999998512
 30
0.0
 10
278.8098775945791
 20
95.05999999998512
 30
0.0
 10
278.6250454237764
 20
95.05999999998511
 30
0.0
  0
LINE
  5
32A
330
1F
100
AcDbEntity
  8
0
  6
Continuous
 62
     7
370
    25
100
AcDbLine
 10
279.94
 20
95.06
 30
0.0
 11
279.94
 21
90.81
 31
0.0
  0
SPLINE
  5
32B
330
1F
100
AcDbEntity
  8
0
  6
Continuous
 62
     7
370
    25
100
AcDbSpline
210
0.0
220
0.0
230
1.0
 70
    24
 71
     3
 72
    11
 73
     7
 74
     0
 42
0.000000001
 43
0.00000001
 40
0.0
 40
0.0
 40
0.0
 40
0.0
 40
0.1474359376230618
 40
0.4794671065464775
 40
0.8188674347468204
 40
0.9999999999999999
 40
0.9999999999999999
 40
0.9999999999999999
 40
0.9999999999999999
 10
275.2549545762236
 20
95.05999999998511
 30
0.0
 10
275.1451224305292
 20
95.05999999998511
 30
0.0
 10
274.7879442421519
 20
95.05999999998511
 30
0.0
 10
274.2954047534173
 20
95.05999999998511
 30
0.0
 10
273.9794473300294
 20
95.05999999998511
 30
0.0
 10
273.950183194843
 20
95.05999999998511
 30
0.0
 10
273.94
 20
95.05999999998512
 30
0.0
  0
SPLINE
  5
32C
330
1F
100
AcDbEntity
  8
0
  6
Continuous
 62
     7
370
    25
100
AcDbSpline
210
0.0
220
0.0
230
1.0
 70
    24
 71
     3
 72
    10
 73
     6
 74
     0
 42
0.000000001
 43
0.00000001
 40
0.0
 40
0.0
 40
0.0
 40
0.0
 40
0.3327966051279221
 40
0.671131415823687
 40
1.0
 40
1.0
 40
1.0
 40
1.0
 10
267.2549545762236
 20
95.05999999998512
 30
0.0
 10
267.0155055427252
 20
95.05999999998512
 30
0.0
 10
266.5326227056011
 20
95.05999999998512
 30
0.0
 10
266.0417169906445
 20
95.05999999998512
 30
0.0
 10
265.9735834391525
 20
95.05999999998512
 30
0.0
 10
265.94
 20
95.05999999998512
 30
0.0
  0
LINE
  5
32D
330
1F
100
AcDbEntity
  8
0
  6
Continuous
 62
     7
370
    25
100
AcDbLine
 10
265.94
 20
95.06
 30
0.0
 11
265.94
 21
90.81
 31
0.0
  0
SPLINE
  5
32E
330
1F
100
AcDbEntity
  8
0
  6
Continuous
 62
     7
370
    25
100
AcDbSpline
210
0.0
220
0.0
230
1.0
 70
    24
 71
     3
 72
    11
 73
     7
 74
     0
 42
0.000000001
 43
0.00000001
 40
0.0
 40
0.0
 40
0.0
 40
0.0
 40
0.0035612647728529
 40
0.3440427754292037
 40
0.6905920266648378
 40
1.0
 40
1.0
 40
1.0
 40
1.0
 10
272.6250454237764
 20
78.05999999998511
 30
0.0
 10
272.6277631099348
 20
78.05999999998511
 30
0.0
 10
272.890310364446
 20
78.05999999998508
 30
0.0
 10
273.3626977814927
 20
78.05999999998514
 30
0.0
 10
273.8485263285061
 20
78.05999999998511
 30
0.0
 10
273.910681889743
 20
78.05999999998512
 30
0.0
 10
273.94
 20
78.05999999998512
 30
0.0
  0
SPLINE
  5
32F
330
1F
100
AcDbEntity
  8
0
  6
Continuous
 62
     7
370
    25
100
AcDbSpline
210
0.0
220
0.0
230
1.0
 70
    24
 71
     3
 72
    11
 73
     7
 74
     0
 42
0.000000001
 43
0.00000001
 40
0.0
 40
0.0
 40
0.0
 40
0.0
 40
0.14743593762306
 40
0.4794671065464761
 40
0.8188674347468198
 40
1.0
 40
1.0
 40
1.0
 40
1.0
 10
278.6250454237764
 20
78.05999999998512
 30
0.0
 10
278.7348775694708
 20
78.05999999998512
 30
0.0
 10
279.092055757848
 20
78.05999999998512
 30
0.0
 10
279.5845952465828
 20
78.05999999998512
 30
0.0
 10
279.9005526699705
 20
78.05999999998512
 30
0.0
 10
279.9298168051569
 20
78.05999999998512
 30
0.0
 10
279.94
 20
78.05999999998512
 30
0.0
  0
LINE
  5
330
330
1F
100
AcDbEntity
  8
0
  6
Continuous
 62
     7
370
    25
100
AcDbLine
 10
279.94
 20
82.31
 30
0.0
 11
279.94
 21
78.06
 31
0.0
  0
LINE
  5
331
330
1F
100
AcDbEntity
  8
0
  6
Continuous
 62
     7
370
    25
100
AcDbLine
 10
282.94
 20
91.56
 30
0.0
 11
282.94
 21
81.56
 31
0.0
  0
LINE
  5
332
330
1F
100
AcDbEntity
  8
0
  6
Continuous
 62
     7
370
    25
100
AcDbLine
 10
281.94
 20
90.56
 30
0.0
 11
281.94
 21
82.56
 31
0.0
  0
LINE
  5
333
330
1F
100
AcDbEntity
  8
0
  6
Continuous
 62
     7
370
    25
100
AcDbLine
 10
292.94
 20
81.56
 30
0.0
 11
292.94
 21
91.56
 31
0.0
  0
LINE
  5
334
330
1F
100
AcDbEntity
  8
0
  6
Continuous
 62
     7
370
    25
100
AcDbLine
 10
293.94
 20
90.56
 30
0.0
 11
293.94
 21
82.56
 31
0.0
  0
LINE
  5
335
330
1F
100
AcDbEntity
  8
0
  6
Continuous
 62
     7
370
    25
100
AcDbLine
 10
112.44
 20
54.66
 30
0.0
 11
130.44
 21
54.66
 31
0.0
  0
LINE
  5
336
330
1F
100
AcDbEntity
  8
0
  6
Continuous
 62
     7
370
    25
100
AcDbLine
 10
129.94
 20
54.16
 30
0.0
 11
112.94
 21
54.16
 31
0.0
  0
LINE
  5
337
330
1F
100
AcDbEntity
  8
0
  6
Continuous
 62
     7
370
    25
100
AcDbLine
 10
87.44
 20
54.66
 30
0.0
 11
105.44
 21
54.66
 31
0.0
  0
LINE
  5
338
330
1F
100
AcDbEntity
  8
0
  6
Continuous
 62
     7
370
    25
100
AcDbLine
 10
104.94
 20
54.16
 30
0.0
 11
87.94
 21
54.16
 31
0.0
  0
LINE
  5
339
330
1F
100
AcDbEntity
  8
0
  6
Continuous
 62
     7
370
    25
100
AcDbLine
 10
260.44
 20
77.56
 30
0.0
 11
260.44
 21
95.56
 31
0.0
  0
LINE
  5
33A
330
1F
100
AcDbEntity
  8
0
  6
Continuous
 62
     7
370
    25
100
AcDbLine
 10
260.94
 20
95.06
 30
0.0
 11
260.94
 21
94.06
 31
0.0
  0
LINE
  5
33B
330
1F
100
AcDbEntity
  8
0
  6
Continuous
 62
     7
370
    25
100
AcDbLine
 10
260.94
 20
94.06
 30
0.0
 11
260.94
 21
90.56
 31
0.0
  0
LINE
  5
33C
330
1F
100
AcDbEntity
  8
0
  6
Continuous
 62
     7
370
    25
100
AcDbLine
 10
260.94
 20
90.56
 30
0.0
 11
260.94
 21
82.56
 31
0.0
  0
LINE
  5
33D
330
1F
100
AcDbEntity
  8
0
  6
Continuous
 62
     7
370
    25
100
AcDbLine
 10
260.94
 20
82.56
 30
0.0
 11
260.94
 21
79.06
 31
0.0
  0
LINE
  5
33E
330
1F
100
AcDbEntity
  8
0
  6
Continuous
 62
     7
370
    25
100
AcDbLine
 10
260.94
 20
79.06
 30
0.0
 11
260.94
 21
78.06
 31
0.0
  0
LINE
  5
33F
330
1F
100
AcDbEntity
  8
0
  6
Continuous
 62
     7
370
    25
100
AcDbLine
 10
260.94
 20
82.56
 30
0.0
 11
265.64
 21
82.56
 31
0.0
  0
LINE
  5
340
330
1F
100
AcDbEntity
  8
0
  6
Continuous
 62
     7
370
    25
100
AcDbLine
 10
265.64
 20
79.06
 30
0.0
 11
265.64
 21
82.56
 31
0.0
  0
LINE
  5
341
330
1F
100
AcDbEntity
  8
0
  6
Continuous
 62
     7
370
    25
100
AcDbLine
 10
260.94
 20
79.06
 30
0.0
 11
265.64
 21
79.06
 31
0.0
  0
LINE
  5
342
330
1F
100
AcDbEntity
  8
0
  6
Continuous
 62
     7
370
    25
100
AcDbLine
 10
260.94
 20
94.06
 30
0.0
 11
265.64
 21
94.06
 31
0.0
  0
LINE
  5
343
330
1F
100
AcDbEntity
  8
0
  6
Continuous
 62
     7
370
    25
100
AcDbLine
 10
265.64
 20
90.56
 30
0.0
 11
265.64
 21
94.06
 31
0.0
  0
LINE
  5
344
330
1F
100
AcDbEntity
  8
0
  6
Continuous
 62
     7
370
    25
100
AcDbLine
 10
260.94
 20
90.56
 30
0.0
 11
265.64
 21
90.56
 31
0.0
  0
LINE
  5
345
330
1F
100
AcDbEntity
  8
0
  6
Continuous
 62
     7
370
    25
100
AcDbLine
 10
265.64
 20
94.06
 30
0.0
 11
265.94
 21
94.06
 31
0.0
  0
LINE
  5
346
330
1F
100
AcDbEntity
  8
0
  6
Continuous
 62
     7
370
    25
100
AcDbLine
 10
265.94
 20
89.8751168908
 30
0.0
 11
265.64
 21
90.56
 31
0.0
  0
LINE
  5
347
330
1F
100
AcDbEntity
  8
0
  6
Continuous
 62
     7
370
    25
100
AcDbLine
 10
265.64
 20
82.56
 30
0.0
 11
265.94
 21
83.2448831091
 31
0.0
  0
LINE
  5
348
330
1F
100
AcDbEntity
  8
0
  6
Continuous
 62
     7
370
    25
100
AcDbLine
 10
265.94
 20
79.06
 30
0.0
 11
265.64
 21
79.06
 31
0.0
  0
LINE
  5
349
330
1F
100
AcDbEntity
  8
0
  6
Continuous
 62
     7
370
    25
100
AcDbLine
 10
143.94
 20
71.56
 30
0.0
 11
143.94
 21
101.56
 31
0.0
  0
LINE
  5
34A
330
1F
100
AcDbEntity
  8
0
  6
Continuous
 62
     7
370
    25
100
AcDbLine
 10
144.94
 20
100.56
 30
0.0
 11
144.94
 21
72.56
 31
0.0
  0
LINE
  5
34B
330
1F
100
AcDbEntity
  8
0
  6
Continuous
 62
     7
370
    25
100
AcDbLine
 10
131.2282612179
 20
63.701025641
 30
0.0
 11
131.081025641
 21
63.701025641
 31
0.0
  0
SPLINE
  5
34C
330
1F
100
AcDbEntity
  8
0
  6
Continuous
 62
     7
370
    25
100
AcDbSpline
210
0.0
220
0.0
230
1.0
 70
     8
 71
     3
 72
     9
 73
     5
 74
     0
 42
0.000000001
 43
0.00000001
 40
0.0
 40
0.0
 40
0.0
 40
0.0
 40
0.5588328183272322
 40
1.0
 40
1.0
 40
1.0
 40
1.0
 10
131.8739943910256
 20
63.60286858972871
 30
0.0
 10
131.756041991592
 20
63.63775785923044
 30
0.0
 10
131.5449727852655
 20
63.70019025109703
 30
0.0
 10
131.3252123221184
 20
63.70076991314066
 30
0.0
 10
131.2282612179487
 20
63.70102564101077
 30
0.0
  0
SPLINE
  5
34D
330
1F
100
AcDbEntity
  8
0
  6
Continuous
 62
     7
370
    25
100
AcDbSpline
210
0.0
220
0.0
230
1.0
 70
     8
 71
     3
 72
    10
 73
     6
 74
     0
 42
0.000000001
 43
0.00000001
 40
0.0
 40
0.0
 40
0.0
 40
0.0
 40
0.559902288346146
 40
0.780508580994785
 40
1.0
 40
1.0
 40
1.0
 40
1.0
 10
132.4271794871795
 20
62.26653044870307
 30
0.0
 10
132.4076520054193
 20
62.54990832303182
 30
0.0
 10
132.3804305287504
 20
62.94493950468849
 30
0.0
 10
132.1477328915811
 20
63.40792539483882
 30
0.0
 10
131.965086328613
 20
63.53799735931739
 30
0.0
 10
131.8739943910256
 20
63.60286858972871
 30
0.0
  0
SPLINE
  5
34E
330
1F
100
AcDbEntity
  8
0
  6
Continuous
 62
     7
370
    25
100
AcDbSpline
210
0.0
220
0.0
230
1.0
 70
     8
 71
     3
 72
    10
 73
     6
 74
     0
 42
0.000000001
 43
0.00000001
 40
0.0
 40
0.0
 40
0.0
 40
0.0
 40
0.2782840619999054
 40
0.5588575699718852
 40
1.0
 40
1.0
 40
1.0
 40
1.0
 10
131.9223717948718
 20
61.0080168269082
 30
0.0
 10
132.0250576935891
 20
61.0926749881367
 30
0.0
 10
132.2312742890172
 20
61.26268779419693
 30
0.0
 10
132.396440026476
 20
61.72084434634961
 30
0.0
 10
132.4155181526909
 20
62.05951874388734
 30
0.0
 10
132.4271794871795
 20
62.26653044870308
 30
0.0
  0
SPLINE
  5
34F
330
1F
100
AcDbEntity
  8
0
  6
Continuous
 62
     7
370
    25
100
AcDbSpline
210
0.0
220
0.0
230
1.0
 70
     8
 71
     3
 72
     9
 73
     5
 74
     0
 42
0.000000001
 43
0.00000001
 40
0.0
 40
0.0
 40
0.0
 40
0.0
 40
0.5610183281682669
 40
1.0
 40
1.0
 40
1.0
 40
1.0
 10
131.3222115384615
 20
60.91897435895949
 30
0.0
 10
131.4371778828695
 20
60.91870347641704
 30
0.0
 10
131.6421022830819
 20
60.91822063560979
 30
0.0
 10
131.8368716239819
 20
60.98062323117871
 30
0.0
 10
131.9223717948718
 20
61.0080168269082
 30
0.0
  0
LINE
  5
350
330
1F
100
AcDbEntity
  8
0
  6
Continuous
 62
     7
370
    25
100
AcDbLine
 10
131.081025641
 20
60.918974359
 30
0.0
 11
131.3222115385
 21
60.918974359
 31
0.0
  0
LINE
  5
351
330
1F
100
AcDbEntity
  8
0
  6
Continuous
 62
     7
370
    25
100
AcDbLine
 10
131.081025641
 20
63.701025641
 30
0.0
 11
131.081025641
 21
60.918974359
 31
0.0
  0
SPLINE
  5
352
330
1F
100
AcDbEntity
  8
0
  6
Continuous
 62
     7
370
    25
100
AcDbSpline
210
0.0
220
0.0
230
1.0
 70
     8
 71
     3
 72
    11
 73
     7
 74
     0
 42
0.000000001
 43
0.00000001
 40
0.0
 40
0.0
 40
0.0
 40
0.0
 40
0.4993152051200287
 40
0.7492904904378189
 40
0.874761648992074
 40
0.9999999999999999
 40
0.9999999999999999
 40
0.9999999999999999
 40
0.9999999999999999
 10
139.5617948717949
 20
61.82973157049795
 30
0.0
 10
139.5830665872045
 20
61.61132943064336
 30
0.0
 10
139.6149876941692
 20
61.28358726536128
 30
0.0
 10
139.8411718376592
 20
60.96695395139532
 30
0.0
 10
140.0271544211324
 20
60.84709420879837
 30
0.0
 10
140.1357517546838
 20
60.83518156173602
 30
0.0
 10
140.19
 20
60.8292307692159
 30
0.0
  0
SPLINE
  5
353
330
1F
100
AcDbEntity
  8
0
  6
Continuous
 62
     7
370
    25
100
AcDbSpline
210
0.0
220
0.0
230
1.0
 70
     8
 71
     3
 72
    11
 73
     7
 74
     0
 42
0.000000001
 43
0.00000001
 40
0.0
 40
0.0
 40
0.0
 40
0.0
 40
0.1252016924080618
 40
0.2505571886795163
 40
0.5009934463009188
 40
1.0
 40
1.0
 40
1.0
 40
1.0
 10
140.19
 20
62.84846153844667
 30
0.0
 10
140.1351469661271
 20
62.84214559015712
 30
0.0
 10
140.0253735142399
 20
62.8295059347592
 30
0.0
 10
139.8418855969988
 20
62.70116094231891
 30
0.0
 10
139.6175866874279
 20
62.38077019476548
 30
0.0
 10
139.5840949204982
 20
62.04998230116857
 30
0.0
 10
139.5617948717949
 20
61.82973157049796
 30
0.0
  0
SPLINE
  5
354
330
1F
100
AcDbEntity
  8
0
  6
Continuous
 62
     7
370
    25
100
AcDbSpline
210
0.0
220
0.0
230
1.0
 70
     8
 71
     3
 72
    11
 73
     7
 74
     0
 42
0.000000001
 43
0.00000001
 40
0.0
 40
0.0
 40
0.0
 40
0.0
 40
0.4989953754620793
 40
0.7494681080172558
 40
0.8748125599623205
 40
0.9999999999999999
 40
0.9999999999999999
 40
0.9999999999999999
 40
0.9999999999999999
 10
140.8182051282051
 20
61.82973157049796
 30
0.0
 10
140.7956494408299
 20
62.04983150179108
 30
0.0
 10
140.7617718355985
 20
62.38041147746366
 30
0.0
 10
140.5377296689788
 20
62.70069247092934
 30
0.0
 10
140.3545080432109
 20
62.82924346935788
 30
0.0
 10
140.2448130986086
 20
62.8420581924736
 30
0.0
 10
140.19
 20
62.84846153844667
 30
0.0
  0
SPLINE
  5
355
330
1F
100
AcDbEntity
  8
0
  6
Continuous
 62
     7
370
    25
100
AcDbSpline
210
0.0
220
0.0
230
1.0
 70
     8
 71
     3
 72
    11
 73
     7
 74
     0
 42
0.000000001
 43
0.00000001
 40
0.0
 40
0.0
 40
0.0
 40
0.0
 40
0.1252460079305004
 40
0.2507253070838505
 40
0.500706979917423
 40
1.0
 40
1.0
 40
1.0
 40
1.0
 10
140.19
 20
60.8292307692159
 30
0.0
 10
140.2442504849867
 20
60.83518251654266
 30
0.0
 10
140.3528525053824
 20
60.84709709730132
 30
0.0
 10
140.5388457646803
 20
60.96695921170571
 30
0.0
 10
140.7649451757942
 20
61.2836425151087
 30
0.0
 10
140.7969068660349
 20
61.611354584724
 30
0.0
 10
140.8182051282051
 20
61.82973157049796
 30
0.0
  0
SPLINE
  5
356
330
1F
100
AcDbEntity
  8
0
  6
Continuous
 62
     7
370
    25
100
AcDbSpline
210
0.0
220
0.0
230
1.0
 70
     8
 71
     3
 72
    11
 73
     7
 74
     0
 42
0.000000001
 43
0.00000001
 40
0.0
 40
0.0
 40
0.0
 40
0.0
 40
0.1250490604142644
 40
0.2504153431054256
 40
0.5004166025508203
 40
1.0
 40
1.0
 40
1.0
 40
1.0
 10
129.4165625
 20
60.82923076921589
 30
0.0
 10
129.4960964146649
 20
60.83871727285909
 30
0.0
 10
129.6553660042431
 20
60.85771434534255
 30
0.0
 10
129.9225614677397
 20
61.04232547686762
 30
0.0
 10
130.2502768697898
 20
61.50824057649294
 30
0.0
 10
130.2910383831031
 20
61.99061219230175
 30
0.0
 10
130.3182051282051
 20
62.31210336536974
 30
0.0
  0
SPLINE
  5
357
330
1F
100
AcDbEntity
  8
0
  6
Continuous
 62
     7
370
    25
100
AcDbSpline
210
0.0
220
0.0
230
1.0
 70
     8
 71
     3
 72
    11
 73
     7
 74
     0
 42
0.000000001
 43
0.00000001
 40
0.0
 40
0.0
 40
0.0
 40
0.0
 40
0.4991160317194285
 40
0.7495418913814517
 40
0.8748444187760704
 40
1.0
 40
1.0
 40
1.0
 40
1.0
 10
128.5233333333333
 20
62.29597756408768
 30
0.0
 10
128.5535477549577
 20
61.97950105547161
 30
0.0
 10
128.5989219230712
 20
61.50423601533914
 30
0.0
 10
128.9171934374729
 20
61.0414302607717
 30
0.0
 10
129.1800378036324
 20
60.85576990817835
 30
0.0
 10
129.3377517786439
 20
60.83807368802277
 30
0.0
 10
129.4165625
 20
60.82923076921589
 30
0.0
  0
SPLINE
  5
358
330
1F
100
AcDbEntity
  8
0
  6
Continuous
 62
     7
370
    25
100
AcDbSpline
210
0.0
220
0.0
230
1.0
 70
     8
 71
     3
 72
    11
 73
     7
 74
     0
 42
0.000000001
 43
0.00000001
 40
0.0
 40
0.0
 40
0.0
 40
0.0
 40
0.1249546649233442
 40
0.2503355151445406
 40
0.5004718750725806
 40
1.0
 40
1.0
 40
1.0
 40
1.0
 10
129.4165625
 20
63.79076923075436
 30
0.0
 10
129.3371220743103
 20
63.78017658839433
 30
0.0
 10
129.1779702739312
 20
63.75895517514364
 30
0.0
 10
128.9171543036739
 20
63.56520530036991
 30
0.0
 10
128.5925978960869
 20
63.09984949932701
 30
0.0
 10
128.5510309012546
 20
62.61743050685019
 30
0.0
 10
128.5233333333333
 20
62.29597756408768
 30
0.0
  0
SPLINE
  5
359
330
1F
100
AcDbEntity
  8
0
  6
Continuous
 62
     7
370
    25
100
AcDbSpline
210
0.0
220
0.0
230
1.0
 70
     8
 71
     3
 72
    11
 73
     7
 74
     0
 42
0.000000001
 43
0.00000001
 40
0.0
 40
0.0
 40
0.0
 40
0.0
 40
0.4993358358504846
 40
0.7495692015935346
 40
0.8749806247542864
 40
0.9999999999999999
 40
0.9999999999999999
 40
0.9999999999999999
 40
0.9999999999999999
 10
130.3182051282051
 20
62.31210336536974
 30
0.0
 10
130.2903145881138
 20
62.63249719527023
 30
0.0
 10
130.2484471947338
 20
63.11345075404085
 30
0.0
 10
129.917017824762
 20
63.572091087676
 30
0.0
 10
129.6542137661117
 20
63.76027904209033
 30
0.0
 10
129.4956968696199
 20
63.78061644722833
 30
0.0
 10
129.4165625
 20
63.79076923075436
 30
0.0
  0
LINE
  5
35A
330
1F
100
AcDbEntity
  8
0
  6
Continuous
 62
     7
370
    25
100
AcDbLine
 10
102.94
 20
59.36
 30
0.0
 11
141.94
 21
59.36
 31
0.0
  0
LINE
  5
35B
330
1F
100
AcDbEntity
  8
0
  6
Continuous
 62
     7
370
    25
100
AcDbLine
 10
102.94
 20
59.36
 30
0.0
 11
102.94
 21
113.76
 31
0.0
  0
LINE
  5
35C
330
1F
100
AcDbEntity
  8
0
  6
Continuous
 62
     7
370
    25
100
AcDbLine
 10
141.94
 20
113.76
 30
0.0
 11
102.94
 21
113.76
 31
0.0
  0
LINE
  5
35D
330
1F
100
AcDbEntity
  8
0
  6
Continuous
 62
     7
370
    25
100
AcDbLine
 10
141.94
 20
59.36
 30
0.0
 11
141.94
 21
113.76
 31
0.0
  0
CIRCLE
  5
35E
330
1F
100
AcDbEntity
  8
0
  6
Continuous
 62
     7
370
    25
100
AcDbCircle
 10
108.44
 20
66.56
 30
0.0
 40
3.250000000000007
  0
CIRCLE
  5
35F
330
1F
100
AcDbEntity
  8
0
  6
Continuous
 62
     7
370
    25
100
AcDbCircle
 10
108.44
 20
106.56
 30
0.0
 40
3.25
  0
SPLINE
  5
360
330
1F
100
AcDbEntity
  8
0
  6
Continuous
 62
     7
370
    25
100
AcDbSpline
210
0.0
220
0.0
230
1.0
 70
     8
 71
     3
 72
     9
 73
     5
 74
     0
 42
0.000000001
 43
0.00000001
 40
0.0
 40
0.0
 40
0.0
 40
0.0
 40
0.5600019179101271
 40
1.0
 40
1.0
 40
1.0
 40
1.0
 10
139.3823076923077
 20
61.83183493588257
 30
0.0
 10
139.3906110050852
 20
62.00916377979421
 30
0.0
 10
139.4054382985496
 20
62.3258213451351
 30
0.0
 10
139.537877045216
 20
62.61281144494954
 30
0.0
 10
139.5961498397436
 20
62.73908653844668
 30
0.0
  0
SPLINE
  5
361
330
1F
100
AcDbEntity
  8
0
  6
Continuous
 62
     7
370
    25
100
AcDbSpline
210
0.0
220
0.0
230
1.0
 70
     8
 71
     3
 72
    11
 73
     7
 74
     0
 42
0.000000001
 43
0.00000001
 40
0.0
 40
0.0
 40
0.0
 40
0.0
 40
0.1252832470308244
 40
0.250580940515384
 40
0.5007620617270917
 40
1.0
 40
1.0
 40
1.0
 40
1.0
 10
140.1907011217949
 20
60.51512820511333
 30
0.0
 10
140.1195655932466
 20
60.52216579957856
 30
0.0
 10
139.9772863334883
 20
60.53624180001642
 30
0.0
 10
139.7356439062542
 20
60.69738880955827
 30
0.0
 10
139.4554412879034
 20
61.12103330595649
 30
0.0
 10
139.4115479604912
 20
61.54764228659408
 30
0.0
 10
139.3823076923077
 20
61.83183493588257
 30
0.0
  0
SPLINE
  5
362
330
1F
100
AcDbEntity
  8
0
  6
Continuous
 62
     7
370
    25
100
AcDbSpline
210
0.0
220
0.0
230
1.0
 70
     8
 71
     3
 72
    11
 73
     7
 74
     0
 42
0.000000001
 43
0.00000001
 40
0.0
 40
0.0
 40
0.0
 40
0.0
 40
0.499218813218502
 40
0.7493807953189894
 40
0.8747214212364928
 40
0.9999999999999999
 40
0.9999999999999999
 40
0.9999999999999999
 40
0.9999999999999999
 10
140.9976923076923
 20
61.83183493588257
 30
0.0
 10
140.9683843278245
 20
61.5478865216921
 30
0.0
 10
140.9243899175959
 20
61.12164960348828
 30
0.0
 10
140.6452474258023
 20
60.69782883008802
 30
0.0
 10
140.404031006466
 20
60.5362324998762
 30
0.0
 10
140.2617993456643
 20
60.52216180884855
 30
0.0
 10
140.1907011217949
 20
60.51512820511333
 30
0.0
  0
SPLINE
  5
363
330
1F
100
AcDbEntity
  8
0
  6
Continuous
 62
     7
370
    25
100
AcDbSpline
210
0.0
220
0.0
230
1.0
 70
     8
 71
     3
 72
     9
 73
     5
 74
     0
 42
0.000000001
 43
0.00000001
 40
0.0
 40
0.0
 40
0.0
 40
0.0
 40
0.5593287449576955
 40
1.0
 40
1.0
 40
1.0
 40
1.0
 10
140.7838501602564
 20
62.74118990383129
 30
0.0
 10
140.8547983816629
 20
62.57846376071463
 30
0.0
 10
140.9816436797922
 20
62.28753263195785
 30
0.0
 10
140.9927833675204
 20
61.97122334593555
 30
0.0
 10
140.9976923076923
 20
61.83183493588257
 30
0.0
  0
SPLINE
  5
364
330
1F
100
AcDbEntity
  8
0
  6
Continuous
 62
     7
370
    25
100
AcDbSpline
210
0.0
220
0.0
230
1.0
 70
     8
 71
     3
 72
    10
 73
     6
 74
     0
 42
0.000000001
 43
0.00000001
 40
0.0
 40
0.0
 40
0.0
 40
0.0
 40
0.2796942056378951
 40
0.5597380375246975
 40
1.0
 40
1.0
 40
1.0
 40
1.0
 10
140.1907011217949
 20
63.16256410254923
 30
0.0
 10
140.2621379206659
 20
63.15453613594277
 30
0.0
 10
140.4051008165756
 20
63.13847016752787
 30
0.0
 10
140.6236534941506
 20
62.9912759938705
 30
0.0
 10
140.7230794743691
 20
62.83606018791403
 30
0.0
 10
140.7838501602564
 20
62.74118990383129
 30
0.0
  0
SPLINE
  5
365
330
1F
100
AcDbEntity
  8
0
  6
Continuous
 62
     7
370
    25
100
AcDbSpline
210
0.0
220
0.0
230
1.0
 70
     8
 71
     3
 72
    10
 73
     6
 74
     0
 42
0.000000001
 43
0.00000001
 40
0.0
 40
0.0
 40
0.0
 40
0.0
 40
0.5586685747843335
 40
0.7793955152712618
 40
1.0
 40
1.0
 40
1.0
 40
1.0
 10
139.5961498397436
 20
62.73908653844668
 30
0.0
 10
139.6762973089538
 20
62.86053624686957
 30
0.0
 10
139.7881106109404
 20
63.02997008000105
 30
0.0
 10
140.0217320002301
 20
63.1482827006885
 30
0.0
 10
140.1343885008328
 20
63.15780451593162
 30
0.0
 10
140.1907011217949
 20
63.16256410254923
 30
0.0
  0
LINE
  5
366
330
1F
100
AcDbEntity
  8
0
  6
Continuous
 62
     7
370
    25
100
AcDbLine
 10
137.9015384615
 20
60.56
 30
0.0
 11
137.7220512821
 21
60.56
 31
0.0
  0
LINE
  5
367
330
1F
100
AcDbEntity
  8
0
  6
Continuous
 62
     7
370
    25
100
AcDbLine
 10
137.9015384615
 20
61.4195753205
 30
0.0
 11
137.9015384615
 21
60.56
 31
0.0
  0
SPLINE
  5
368
330
1F
100
AcDbEntity
  8
0
  6
Continuous
 62
     7
370
    25
100
AcDbSpline
210
0.0
220
0.0
230
1.0
 70
     8
 71
     3
 72
     9
 73
     5
 74
     0
 42
0.000000001
 43
0.00000001
 40
0.0
 40
0.0
 40
0.0
 40
0.0
 40
0.5598536501505464
 40
1.0
 40
1.0
 40
1.0
 40
1.0
 10
137.9386979166667
 20
62.29737980767744
 30
0.0
 10
137.9248694011018
 20
62.13383347489206
 30
0.0
 10
137.9001691681729
 20
61.84171010882772
 30
0.0
 10
137.9011199697117
 20
61.54859074052609
 30
0.0
 10
137.9015384615385
 20
61.41957532049795
 30
0.0
  0
SPLINE
  5
369
330
1F
100
AcDbEntity
  8
0
  6
Continuous
 62
     7
370
    25
100
AcDbSpline
210
0.0
220
0.0
230
1.0
 70
     8
 71
     3
 72
    11
 73
     7
 74
     0
 42
0.000000001
 43
0.00000001
 40
0.0
 40
0.0
 40
0.0
 40
0.0
 40
0.1243154872215685
 40
0.2496920049174232
 40
0.4996699758624276
 40
1.0
 40
1.0
 40
1.0
 40
1.0
 10
138.2759375
 20
62.84846153844667
 30
0.0
 10
138.2474096621893
 20
62.84320238987143
 30
0.0
 10
138.1901105019791
 20
62.83263920598131
 30
0.0
 10
138.1027629748762
 20
62.75310958978822
 30
0.0
 10
137.9956321226655
 20
62.58125387145587
 30
0.0
 10
137.9614750050198
 20
62.41094641528054
 30
0.0
 10
137.9386979166667
 20
62.29737980767744
 30
0.0
  0
SPLINE
  5
36A
330
1F
100
AcDbEntity
  8
0
  6
Continuous
 62
     7
370
    25
100
AcDbSpline
210
0.0
220
0.0
230
1.0
 70
     8
 71
     3
 72
     9
 73
     5
 74
     0
 42
0.000000001
 43
0.00000001
 40
0.0
 40
0.0
 40
0.0
 40
0.0
 40
0.5610727427929593
 40
1.0
 40
1.0
 40
1.0
 40
1.0
 10
138.3825080128205
 20
62.80288862178001
 30
0.0
 10
138.3643606522475
 20
62.81580760091825
 30
0.0
 10
138.3320166098642
 20
62.83883309859961
 30
0.0
 10
138.2930437503375
 20
62.84552449998827
 30
0.0
 10
138.2759375
 20
62.84846153844667
 30
0.0
  0
LINE
  5
36B
330
1F
100
AcDbEntity
  8
0
  6
Continuous
 62
     7
370
    25
100
AcDbLine
 10
138.4848717949
 20
63.0749238782
 30
0.0
 11
138.3825080128
 21
62.8028886218
 31
0.0
  0
SPLINE
  5
36C
330
1F
100
AcDbEntity
  8
0
  6
Continuous
 62
     7
370
    25
100
AcDbSpline
210
0.0
220
0.0
230
1.0
 70
     8
 71
     3
 72
     9
 73
     5
 74
     0
 42
0.000000001
 43
0.00000001
 40
0.0
 40
0.0
 40
0.0
 40
0.0
 40
0.5580894598618646
 40
1.0
 40
1.0
 40
1.0
 40
1.0
 10
138.3074879807692
 20
63.16256410254923
 30
0.0
 10
138.3448924442166
 20
63.15472748694715
 30
0.0
 10
138.4119147876534
 20
63.14068562418909
 30
0.0
 10
138.4625122451152
 20
63.0950782552378
 30
0.0
 10
138.4848717948718
 20
63.07492387819026
 30
0.0
  0
SPLINE
  5
36D
330
1F
100
AcDbEntity
  8
0
  6
Continuous
 62
     7
370
    25
100
AcDbSpline
210
0.0
220
0.0
230
1.0
 70
     8
 71
     3
 72
    10
 73
     6
 74
     0
 42
0.000000001
 43
0.00000001
 40
0.0
 40
0.0
 40
0.0
 40
0.0
 40
0.5604679869639355
 40
0.7808281323003021
 40
1.0
 40
1.0
 40
1.0
 40
1.0
 10
137.9015384615385
 20
62.74118990383129
 30
0.0
 10
137.9490872876519
 20
62.84676721397197
 30
0.0
 10
138.0153309660614
 20
62.99385453351184
 30
0.0
 10
138.1716814532166
 20
63.13891910765069
 30
0.0
 10
138.2623008015829
 20
63.15469665581752
 30
0.0
 10
138.3074879807692
 20
63.16256410254923
 30
0.0
  0
LINE
  5
36E
330
1F
100
AcDbEntity
  8
0
  6
Continuous
 62
     7
370
    25
100
AcDbLine
 10
137.9015384615
 20
63.1176923077
 30
0.0
 11
137.9015384615
 21
62.7411899038
 31
0.0
  0
LINE
  5
36F
330
1F
100
AcDbEntity
  8
0
  6
Continuous
 62
     7
370
    25
100
AcDbLine
 10
137.7220512821
 20
63.1176923077
 30
0.0
 11
137.9015384615
 21
63.1176923077
 31
0.0
  0
LINE
  5
370
330
1F
100
AcDbEntity
  8
0
  6
Continuous
 62
     7
370
    25
100
AcDbLine
 10
137.7220512821
 20
60.56
 30
0.0
 11
137.7220512821
 21
63.1176923077
 31
0.0
  0
SPLINE
  5
371
330
1F
100
AcDbEntity
  8
0
  6
Continuous
 62
     7
370
    25
100
AcDbSpline
210
0.0
220
0.0
230
1.0
 70
     8
 71
     3
 72
    11
 73
     7
 74
     0
 42
0.000000001
 43
0.00000001
 40
0.0
 40
0.0
 40
0.0
 40
0.0
 40
0.4995734263720146
 40
0.7496408895270538
 40
0.8748507448789904
 40
1.0
 40
1.0
 40
1.0
 40
1.0
 10
135.8374358974359
 20
62.49159054485693
 30
0.0
 10
135.8492447130996
 20
62.63635285743077
 30
0.0
 10
135.8669645729061
 20
62.85357767972756
 30
0.0
 10
136.0087304566442
 20
63.06870468080082
 30
0.0
 10
136.1303372154882
 20
63.15159523107883
 30
0.0
 10
136.2024365985272
 20
63.15890840211799
 30
0.0
 10
136.2384775641026
 20
63.16256410254923
 30
0.0
  0
SPLINE
  5
372
330
1F
100
AcDbEntity
  8
0
  6
Continuous
 62
     7
370
    25
100
AcDbSpline
210
0.0
220
0.0
230
1.0
 70
     8
 71
     3
 72
     9
 73
     5
 74
     0
 42
0.000000001
 43
0.00000001
 40
0.0
 40
0.0
 40
0.0
 40
0.0
 40
0.5597122590108353
 40
1.0
 40
1.0
 40
1.0
 40
1.0
 10
135.908249198718
 20
62.09756009613898
 30
0.0
 10
135.8846201916105
 20
62.16932834251242
 30
0.0
 10
135.8424038443232
 20
62.29755180951361
 30
0.0
 10
135.8389545704414
 20
62.43227401107179
 30
0.0
 10
135.8374358974359
 20
62.49159054485693
 30
0.0
  0
SPLINE
  5
373
330
1F
100
AcDbEntity
  8
0
  6
Continuous
 62
     7
370
    25
100
AcDbSpline
210
0.0
220
0.0
230
1.0
 70
     8
 71
     3
 72
     9
 73
     5
 74
     0
 42
0.000000001
 43
0.00000001
 40
0.0
 40
0.0
 40
0.0
 40
0.0
 40
0.560267315671155
 40
0.9999999999999999
 40
0.9999999999999999
 40
0.9999999999999999
 40
0.9999999999999999
 10
136.1767788461538
 20
61.74840144229282
 30
0.0
 10
136.116191413927
 20
61.80579942485409
 30
0.0
 10
136.0080511913366
 20
61.90824691903372
 30
0.0
 10
135.9387313837744
 20
62.03973881274835
 30
0.0
 10
135.908249198718
 20
62.09756009613897
 30
0.0
  0
SPLINE
  5
374
330
1F
100
AcDbEntity
  8
0
  6
Continuous
 62
     7
370
    25
100
AcDbSpline
210
0.0
220
0.0
230
1.0
 70
     8
 71
     3
 72
     9
 73
     5
 74
     0
 42
0.000000001
 43
0.00000001
 40
0.0
 40
0.0
 40
0.0
 40
0.0
 40
0.5593487126569076
 40
1.0
 40
1.0
 40
1.0
 40
1.0
 10
136.4130568910256
 20
61.48477964742102
 30
0.0
 10
136.3747152568693
 20
61.53915199934906
 30
0.0
 10
136.3061683320464
 20
61.63635853741324
 30
0.0
 10
136.2163551433662
 20
61.71413093512248
 30
0.0
 10
136.1767788461538
 20
61.74840144229282
 30
0.0
  0
SPLINE
  5
375
330
1F
100
AcDbEntity
  8
0
  6
Continuous
 62
     7
370
    25
100
AcDbSpline
210
0.0
220
0.0
230
1.0
 70
     8
 71
     3
 72
    11
 73
     7
 74
     0
 42
0.000000001
 43
0.00000001
 40
0.0
 40
0.0
 40
0.0
 40
0.0
 40
0.1862601302698975
 40
0.3732986476973197
 40
0.5609166544164506
 40
1.0
 40
1.0
 40
1.0
 40
1.0
 10
136.1858934294872
 20
60.8292307692159
 30
0.0
 10
136.220133994505
 20
60.83434740696213
 30
0.0
 10
136.2887582169784
 20
60.84460206505055
 30
0.0
 10
136.3647945779901
 20
60.91880046538627
 30
0.0
 10
136.445347112824
 20
61.04392744071968
 30
0.0
 10
136.457280313433
 20
61.15968587707435
 30
0.0
 10
136.465641025641
 20
61.24078926280564
 30
0.0
  0
SPLINE
  5
376
330
1F
100
AcDbEntity
  8
0
  6
Continuous
 62
     7
370
    25
100
AcDbSpline
210
0.0
220
0.0
230
1.0
 70
     8
 71
     3
 72
    10
 73
     6
 74
     0
 42
0.000000001
 43
0.00000001
 40
0.0
 40
0.0
 40
0.0
 40
0.0
 40
0.5602130058460001
 40
0.7805388860236457
 40
0.9999999999999999
 40
0.9999999999999999
 40
0.9999999999999999
 40
0.9999999999999999
 10
135.8710897435897
 20
61.09846153844667
 30
0.0
 10
135.9133448745292
 20
61.0291336510619
 30
0.0
 10
135.9722185038239
 20
60.93253983509372
 30
0.0
 10
136.0906718159475
 20
60.84321649315044
 30
0.0
 10
136.1541945271705
 20
60.833886561954
 30
0.0
 10
136.1858934294872
 20
60.8292307692159
 30
0.0
  0
LINE
  5
377
330
1F
100
AcDbEntity
  8
0
  6
Continuous
 62
     7
370
    25
100
AcDbLine
 10
135.7476923077
 20
60.8614823718
 30
0.0
 11
135.8710897436
 21
61.0984615384
 31
0.0
  0
SPLINE
  5
378
330
1F
100
AcDbEntity
  8
0
  6
Continuous
 62
     7
370
    25
100
AcDbSpline
210
0.0
220
0.0
230
1.0
 70
     8
 71
     3
 72
    10
 73
     6
 74
     0
 42
0.000000001
 43
0.00000001
 40
0.0
 40
0.0
 40
0.0
 40
0.0
 40
0.2793901970033615
 40
0.5598447618830583
 40
1.0
 40
1.0
 40
1.0
 40
1.0
 10
136.1908012820513
 20
60.51512820511333
 30
0.0
 10
136.1357172773046
 20
60.52315628589352
 30
0.0
 10
136.0253394191988
 20
60.53924303131612
 30
0.0
 10
135.8634112692531
 20
60.66352158403286
 30
0.0
 10
135.7915722534836
 20
60.78641681192728
 30
0.0
 10
135.7476923076923
 20
60.86148237178001
 30
0.0
  0
SPLINE
  5
379
330
1F
100
AcDbEntity
  8
0
  6
Continuous
 62
     7
370
    25
100
AcDbSpline
210
0.0
220
0.0
230
1.0
 70
     8
 71
     3
 72
    11
 73
     7
 74
     0
 42
0.000000001
 43
0.00000001
 40
0.0
 40
0.0
 40
0.0
 40
0.0
 40
0.4992861974134584
 40
0.7494855930319606
 40
0.8747844742604408
 40
0.9999999999999999
 40
0.9999999999999999
 40
0.9999999999999999
 40
0.9999999999999999
 10
136.6451282051282
 20
61.2541105769082
 30
0.0
 10
136.6300288702047
 20
61.09386470268517
 30
0.0
 10
136.6073630443753
 20
60.85331734789116
 30
0.0
 10
136.4459790707737
 20
60.61803096817747
 30
0.0
 10
136.3106362855013
 20
60.52731141219552
 30
0.0
 10
136.2307374214237
 20
60.51918837319469
 30
0.0
 10
136.1908012820513
 20
60.51512820511333
 30
0.0
  0
SPLINE
  5
37A
330
1F
100
AcDbEntity
  8
0
  6
Continuous
 62
     7
370
    25
100
AcDbSpline
210
0.0
220
0.0
230
1.0
 70
     8
 71
     3
 72
     9
 73
     5
 74
     0
 42
0.000000001
 43
0.00000001
 40
0.0
 40
0.0
 40
0.0
 40
0.0
 40
0.5596909322181038
 40
1.0
 40
1.0
 40
1.0
 40
1.0
 10
136.5722115384615
 20
61.6495432692159
 30
0.0
 10
136.5961928664538
 20
61.57755893229847
 30
0.0
 10
136.6390403142358
 20
61.44894449033825
 30
0.0
 10
136.6432671090457
 20
61.31367219511477
 30
0.0
 10
136.6451282051282
 20
61.2541105769082
 30
0.0
  0
SPLINE
  5
37B
330
1F
100
AcDbEntity
  8
0
  6
Continuous
 62
     7
370
    25
100
AcDbSpline
210
0.0
220
0.0
230
1.0
 70
     8
 71
     3
 72
     9
 73
     5
 74
     0
 42
0.000000001
 43
0.00000001
 40
0.0
 40
0.0
 40
0.0
 40
0.0
 40
0.5603102752842192
 40
0.9999999999999999
 40
0.9999999999999999
 40
0.9999999999999999
 40
0.9999999999999999
 10
136.2917628205128
 20
62.00851762819025
 30
0.0
 10
136.3544886743298
 20
61.94934388837572
 30
0.0
 10
136.4664371010925
 20
61.84373500982264
 30
0.0
 10
136.5399074020561
 20
61.70885057099323
 30
0.0
 10
136.5722115384615
 20
61.6495432692159
 30
0.0
  0
SPLINE
  5
37C
330
1F
100
AcDbEntity
  8
0
  6
Continuous
 62
     7
370
    25
100
AcDbSpline
210
0.0
220
0.0
230
1.0
 70
     8
 71
     3
 72
     9
 73
     5
 74
     0
 42
0.000000001
 43
0.00000001
 40
0.0
 40
0.0
 40
0.0
 40
0.0
 40
0.5593347287454993
 40
1.0
 40
1.0
 40
1.0
 40
1.0
 10
136.0695072115385
 20
62.27213942306205
 30
0.0
 10
136.1048308917975
 20
62.21772412343019
 30
0.0
 10
136.167983917068
 20
62.12043837156222
 30
0.0
 10
136.2539017953667
 20
62.04275152396126
 30
0.0
 10
136.2917628205128
 20
62.00851762819025
 30
0.0
  0
SPLINE
  5
37D
330
1F
100
AcDbEntity
  8
0
  6
Continuous
 62
     7
370
    25
100
AcDbSpline
210
0.0
220
0.0
230
1.0
 70
     8
 71
     3
 72
     9
 73
     5
 74
     0
 42
0.000000001
 43
0.00000001
 40
0.0
 40
0.0
 40
0.0
 40
0.0
 40
0.559881814842868
 40
1.0
 40
1.0
 40
1.0
 40
1.0
 10
136.0169230769231
 20
62.50421073716461
 30
0.0
 10
136.0198021150078
 20
62.45923093329109
 30
0.0
 10
136.0249443396852
 20
62.37889290001142
 30
0.0
 10
136.0558882388128
 20
62.30476462495063
 30
0.0
 10
136.0695072115385
 20
62.27213942306205
 30
0.0
  0
SPLINE
  5
37E
330
1F
100
AcDbEntity
  8
0
  6
Continuous
 62
     7
370
    25
100
AcDbSpline
210
0.0
220
0.0
230
1.0
 70
     8
 71
     3
 72
    11
 73
     7
 74
     0
 42
0.000000001
 43
0.00000001
 40
0.0
 40
0.0
 40
0.0
 40
0.0
 40
0.1856841555641188
 40
0.3726511068625243
 40
0.560282487850627
 40
1.0
 40
1.0
 40
1.0
 40
1.0
 10
136.2328685897436
 20
62.84846153844667
 30
0.0
 10
136.205155336143
 20
62.84346418845342
 30
0.0
 10
136.1495373724152
 20
62.83343496436211
 30
0.0
 10
136.0925450259842
 20
62.76820004725492
 30
0.0
 10
136.0322127658473
 20
62.66400954951786
 30
0.0
 10
136.023223663224
 20
62.57006074974514
 30
0.0
 10
136.0169230769231
 20
62.50421073716461
 30
0.0
  0
SPLINE
  5
37F
330
1F
100
AcDbEntity
  8
0
  6
Continuous
 62
     7
370
    25
100
AcDbSpline
210
0.0
220
0.0
230
1.0
 70
     8
 71
     3
 72
    10
 73
     6
 74
     0
 42
0.000000001
 43
0.00000001
 40
0.0
 40
0.0
 40
0.0
 40
0.0
 40
0.5607562815450916
 40
0.7811275659936755
 40
1.0
 40
1.0
 40
1.0
 40
1.0
 10
136.5189262820513
 20
62.5792307692159
 30
0.0
 10
136.4799466895032
 20
62.64474033318718
 30
0.0
 10
136.4256485295848
 20
62.73599446254477
 30
0.0
 10
136.3223027998635
 20
62.8308957857318
 30
0.0
 10
136.2626120980577
 20
62.84261962279472
 30
0.0
 10
136.2328685897436
 20
62.84846153844667
 30
0.0
  0
LINE
  5
380
330
1F
100
AcDbEntity
  8
0
  6
Continuous
 62
     7
370
    25
100
AcDbLine
 10
136.6451282051
 20
62.798681891
 30
0.0
 11
136.5189262821
 21
62.5792307692
 31
0.0
  0
SPLINE
  5
381
330
1F
100
AcDbEntity
  8
0
  6
Continuous
 62
     7
370
    25
100
AcDbSpline
210
0.0
220
0.0
230
1.0
 70
     8
 71
     3
 72
    10
 73
     6
 74
     0
 42
0.000000001
 43
0.00000001
 40
0.0
 40
0.0
 40
0.0
 40
0.0
 40
0.2777284116762636
 40
0.5583945168819039
 40
1.0
 40
1.0
 40
1.0
 40
1.0
 10
136.2384775641026
 20
63.16256410254923
 30
0.0
 10
136.2907130610716
 20
63.15069869030759
 30
0.0
 10
136.3957365799767
 20
63.12684235851826
 30
0.0
 10
136.5305623178543
 20
62.98485743747425
 30
0.0
 10
136.6016589030517
 20
62.86932177571863
 30
0.0
 10
136.6451282051282
 20
62.79868189101077
 30
0.0
  0
SPLINE
  5
382
330
1F
100
AcDbEntity
  8
0
  6
Continuous
 62
     7
370
    25
100
AcDbSpline
210
0.0
220
0.0
230
1.0
 70
     8
 71
     3
 72
    10
 73
     6
 74
     0
 42
0.000000001
 43
0.00000001
 40
0.0
 40
0.0
 40
0.0
 40
0.0
 40
0.2783662009923313
 40
0.5589551287586995
 40
1.0
 40
1.0
 40
1.0
 40
1.0
 10
131.9805649038461
 20
63.93379807690822
 30
0.0
 10
132.1090059512823
 20
63.81662563717402
 30
0.0
 10
132.3669136353031
 20
63.58134514728295
 30
0.0
 10
132.5659176659696
 20
62.97881935764141
 30
0.0
 10
132.5912091389546
 20
62.53629149702243
 30
0.0
 10
132.6066666666667
 20
62.2658293269082
 30
0.0
  0
SPLINE
  5
383
330
1F
100
AcDbEntity
  8
0
  6
Continuous
 62
     7
370
    25
100
AcDbSpline
210
0.0
220
0.0
230
1.0
 70
     8
 71
     3
 72
     9
 73
     5
 74
     0
 42
0.000000001
 43
0.00000001
 40
0.0
 40
0.0
 40
0.0
 40
0.0
 40
0.5609894723462309
 40
0.9999999999999999
 40
0.9999999999999999
 40
0.9999999999999999
 40
0.9999999999999999
 10
131.3215104166667
 20
64.05999999998512
 30
0.0
 10
131.4494797334492
 20
64.05915381029398
 30
0.0
 10
131.677593313277
 20
64.05764542246699
 30
0.0
 10
131.8881349213798
 20
63.97158118375659
 30
0.0
 10
131.9805649038461
 20
63.93379807690822
 30
0.0
  0
LINE
  5
384
330
1F
100
AcDbEntity
  8
0
  6
Continuous
 62
     7
370
    25
100
AcDbLine
 10
130.9015384615
 20
64.06
 30
0.0
 11
131.3215104167
 21
64.06
 31
0.0
  0
LINE
  5
385
330
1F
100
AcDbEntity
  8
0
  6
Continuous
 62
     7
370
    25
100
AcDbLine
 10
130.9015384615
 20
60.56
 30
0.0
 11
130.9015384615
 21
64.06
 31
0.0
  0
LINE
  5
386
330
1F
100
AcDbEntity
  8
0
  6
Continuous
 62
     7
370
    25
100
AcDbLine
 10
131.545869391
 20
60.56
 30
0.0
 11
130.9015384615
 21
60.56
 31
0.0
  0
LINE
  5
387
330
1F
100
AcDbEntity
  8
0
  6
Continuous
 62
     7
370
    25
100
AcDbLine
 10
127.3286217949
 20
60.56
 30
0.0
 11
126.7733333333
 21
60.56
 31
0.0
  0
SPLINE
  5
388
330
1F
100
AcDbEntity
  8
0
  6
Continuous
 62
     7
370
    25
100
AcDbSpline
210
0.0
220
0.0
230
1.0
 70
     8
 71
     3
 72
    11
 73
     7
 74
     0
 42
0.000000001
 43
0.00000001
 40
0.0
 40
0.0
 40
0.0
 40
0.0
 40
0.4990946872954803
 40
0.7489909372803711
 40
0.8744495343206184
 40
1.0
 40
1.0
 40
1.0
 40
1.0
 10
127.9848717948718
 20
61.55348958331847
 30
0.0
 10
127.9635092170714
 20
61.33159834507912
 30
0.0
 10
127.9314504162532
 20
60.99860636833863
 30
0.0
 10
127.6924743314299
 20
60.67884566416217
 30
0.0
 10
127.4942736947991
 20
60.57313206151917
 30
0.0
 10
127.3838525661259
 20
60.56437842176598
 30
0.0
 10
127.3286217948718
 20
60.55999999998512
 30
0.0
  0
SPLINE
  5
389
330
1F
100
AcDbEntity
  8
0
  6
Continuous
 62
     7
370
    25
100
AcDbSpline
210
0.0
220
0.0
230
1.0
 70
     8
 71
     3
 72
    10
 73
     6
 74
     0
 42
0.000000001
 43
0.00000001
 40
0.0
 40
0.0
 40
0.0
 40
0.0
 40
0.2796080239342774
 40
0.5597236367910253
 40
1.0
 40
1.0
 40
1.0
 40
1.0
 10
127.5740144230769
 20
62.44812099357487
 30
0.0
 10
127.65275012206
 20
62.39086489064641
 30
0.0
 10
127.8103644535802
 20
62.27624874441187
 30
0.0
 10
127.9558370763346
 20
61.95158487505154
 30
0.0
 10
127.9738580540366
 20
61.70449908476172
 30
0.0
 10
127.9848717948718
 20
61.55348958331847
 30
0.0
  0
SPLINE
  5
38A
330
1F
100
AcDbEntity
  8
0
  6
Continuous
 62
     7
370
    25
100
AcDbSpline
210
0.0
220
0.0
230
1.0
 70
     8
 71
     3
 72
     9
 73
     5
 74
     0
 42
0.000000001
 43
0.00000001
 40
0.0
 40
0.0
 40
0.0
 40
0.0
 40
0.5610147951224855
 40
1.0
 40
1.0
 40
1.0
 40
1.0
 10
127.8053846153846
 20
63.19271233972871
 30
0.0
 10
127.7990499902619
 20
63.04106942401978
 30
0.0
 10
127.7877586211611
 20
62.77076832496262
 30
0.0
 10
127.6392204726383
 20
62.54654966705417
 30
0.0
 10
127.5740144230769
 20
62.44812099357487
 30
0.0
  0
SPLINE
  5
38B
330
1F
100
AcDbEntity
  8
0
  6
Continuous
 62
     7
370
    25
100
AcDbSpline
210
0.0
220
0.0
230
1.0
 70
     8
 71
     3
 72
    11
 73
     7
 74
     0
 42
0.000000001
 43
0.00000001
 40
0.0
 40
0.0
 40
0.0
 40
0.0
 40
0.249970876008807
 40
0.3753685739471359
 40
0.5011026084581857
 40
0.9999999999999999
 40
0.9999999999999999
 40
0.9999999999999999
 40
0.9999999999999999
 10
127.1659615384615
 20
64.05999999998512
 30
0.0
 10
127.2702060524698
 20
64.05336426228874
 30
0.0
 10
127.4267447468563
 20
64.04339971187409
 30
0.0
 10
127.5919100587737
 20
63.91471041773384
 30
0.0
 10
127.7636640768779
 20
63.65939240335089
 30
0.0
 10
127.7868588174622
 20
63.39993930425297
 30
0.0
 10
127.8053846153846
 20
63.19271233972871
 30
0.0
  0
LINE
  5
38C
330
1F
100
AcDbEntity
  8
0
  6
Continuous
 62
     7
370
    25
100
AcDbLine
 10
126.7733333333
 20
64.06
 30
0.0
 11
127.1659615385
 21
64.06
 31
0.0
  0
LINE
  5
38D
330
1F
100
AcDbEntity
  8
0
  6
Continuous
 62
     7
370
    25
100
AcDbLine
 10
126.7733333333
 20
60.56
 30
0.0
 11
126.7733333333
 21
64.06
 31
0.0
  0
LINE
  5
38E
330
1F
100
AcDbEntity
  8
0
  6
Continuous
 62
     7
370
    25
100
AcDbLine
 10
123.048974359
 20
60.56
 30
0.0
 11
123.0041025641
 21
60.56
 31
0.0
  0
LINE
  5
38F
330
1F
100
AcDbEntity
  8
0
  6
Continuous
 62
     7
370
    25
100
AcDbLine
 10
123.9464102564
 20
64.06
 30
0.0
 11
123.048974359
 21
60.56
 31
0.0
  0
LINE
  5
390
330
1F
100
AcDbEntity
  8
0
  6
Continuous
 62
     7
370
    25
100
AcDbLine
 10
123.7507972756
 20
64.06
 30
0.0
 11
123.9464102564
 21
64.06
 31
0.0
  0
LINE
  5
391
330
1F
100
AcDbEntity
  8
0
  6
Continuous
 62
     7
370
    25
100
AcDbLine
 10
123.0265384615
 20
61.2344791667
 30
0.0
 11
123.7507972756
 21
64.06
 31
0.0
  0
LINE
  5
392
330
1F
100
AcDbEntity
  8
0
  6
Continuous
 62
     7
370
    25
100
AcDbLine
 10
122.3022796474
 20
64.06
 30
0.0
 11
123.0265384615
 21
61.2344791667
 31
0.0
  0
LINE
  5
393
330
1F
100
AcDbEntity
  8
0
  6
Continuous
 62
     7
370
    25
100
AcDbLine
 10
122.1066666667
 20
64.06
 30
0.0
 11
122.3022796474
 21
64.06
 31
0.0
  0
LINE
  5
394
330
1F
100
AcDbEntity
  8
0
  6
Continuous
 62
     7
370
    25
100
AcDbLine
 10
123.0041025641
 20
60.56
 30
0.0
 11
122.1066666667
 21
64.06
 31
0.0
  0
LINE
  5
395
330
1F
100
AcDbEntity
  8
0
  6
Continuous
 62
     7
370
    25
100
AcDbLine
 10
118.1130769231
 20
63.3126041667
 30
0.0
 11
118.1130769231
 21
60.56
 31
0.0
  0
LINE
  5
396
330
1F
100
AcDbEntity
  8
0
  6
Continuous
 62
     7
370
    25
100
AcDbLine
 10
119.4634375
 20
60.56
 30
0.0
 11
118.1130769231
 21
63.3126041667
 31
0.0
  0
LINE
  5
397
330
1F
100
AcDbEntity
  8
0
  6
Continuous
 62
     7
370
    25
100
AcDbLine
 10
119.5041025641
 20
60.56
 30
0.0
 11
119.4634375
 21
60.56
 31
0.0
  0
LINE
  5
398
330
1F
100
AcDbEntity
  8
0
  6
Continuous
 62
     7
370
    25
100
AcDbLine
 10
119.5041025641
 20
64.06
 30
0.0
 11
119.5041025641
 21
60.56
 31
0.0
  0
LINE
  5
399
330
1F
100
AcDbEntity
  8
0
  6
Continuous
 62
     7
370
    25
100
AcDbLine
 10
119.3246153846
 20
64.06
 30
0.0
 11
119.5041025641
 21
64.06
 31
0.0
  0
LINE
  5
39A
330
1F
100
AcDbEntity
  8
0
  6
Continuous
 62
     7
370
    25
100
AcDbLine
 10
119.3246153846
 20
61.3010857372
 30
0.0
 11
119.3246153846
 21
64.06
 31
0.0
  0
LINE
  5
39B
330
1F
100
AcDbEntity
  8
0
  6
Continuous
 62
     7
370
    25
100
AcDbLine
 10
117.9714503205
 20
64.06
 30
0.0
 11
119.3246153846
 21
61.3010857372
 31
0.0
  0
LINE
  5
39C
330
1F
100
AcDbEntity
  8
0
  6
Continuous
 62
     7
370
    25
100
AcDbLine
 10
117.9335897436
 20
64.06
 30
0.0
 11
117.9714503205
 21
64.06
 31
0.0
  0
LINE
  5
39D
330
1F
100
AcDbEntity
  8
0
  6
Continuous
 62
     7
370
    25
100
AcDbLine
 10
117.9335897436
 20
60.56
 30
0.0
 11
117.9335897436
 21
64.06
 31
0.0
  0
LINE
  5
39E
330
1F
100
AcDbEntity
  8
0
  6
Continuous
 62
     7
370
    25
100
AcDbLine
 10
118.1130769231
 20
60.56
 30
0.0
 11
117.9335897436
 21
60.56
 31
0.0
  0
SPLINE
  5
39F
330
1F
100
AcDbEntity
  8
0
  6
Continuous
 62
     7
370
    25
100
AcDbSpline
210
0.0
220
0.0
230
1.0
 70
     8
 71
     3
 72
    11
 73
     7
 74
     0
 42
0.000000001
 43
0.00000001
 40
0.0
 40
0.0
 40
0.0
 40
0.0
 40
0.1233763181090196
 40
0.2483740556635523
 40
0.497994333179397
 40
1.0
 40
1.0
 40
1.0
 40
1.0
 10
114.815
 20
60.8292307692159
 30
0.0
 10
114.8570861067083
 20
60.83992631594428
 30
0.0
 10
114.9418114184248
 20
60.86145797095866
 30
0.0
 10
115.045233238932
 20
61.00831151246612
 30
0.0
 10
115.1144446334518
 20
61.30184377096727
 30
0.0
 10
115.1097812845239
 20
61.55949265010224
 30
0.0
 10
115.1066666666667
 20
61.7315745192159
 30
0.0
  0
SPLINE
  5
3A0
330
1F
100
AcDbEntity
  8
0
  6
Continuous
 62
     7
370
    25
100
AcDbSpline
210
0.0
220
0.0
230
1.0
 70
     8
 71
     3
 72
     9
 73
     5
 74
     0
 42
0.000000001
 43
0.00000001
 40
0.0
 40
0.0
 40
0.0
 40
0.0
 40
0.5603789936930933
 40
0.9999999999999999
 40
0.9999999999999999
 40
0.9999999999999999
 40
0.9999999999999999
 10
114.6775801282051
 20
60.87971153844666
 30
0.0
 10
114.7011818192776
 20
60.86429760811901
 30
0.0
 10
114.7432991922308
 20
60.83679134806799
 30
0.0
 10
114.7931045281179
 20
60.83153956386995
 30
0.0
 10
114.815
 20
60.8292307692159
 30
0.0
  0
SPLINE
  5
3A1
330
1F
100
AcDbEntity
  8
0
  6
Continuous
 62
     7
370
    25
100
AcDbSpline
210
0.0
220
0.0
230
1.0
 70
     8
 71
     3
 72
     9
 73
     5
 74
     0
 42
0.000000001
 43
0.00000001
 40
0.0
 40
0.0
 40
0.0
 40
0.0
 40
0.5601340991606547
 40
1.0
 40
1.0
 40
1.0
 40
1.0
 10
114.4083493589743
 20
61.14333333331847
 30
0.0
 10
114.4545647297894
 20
61.08991506809754
 30
0.0
 10
114.5370724201521
 20
60.9945481456035
 30
0.0
 10
114.6346563048535
 20
60.91479307460008
 30
0.0
 10
114.6775801282051
 20
60.87971153844666
 30
0.0
  0
LINE
  5
3A2
330
1F
100
AcDbEntity
  8
0
  6
Continuous
 62
     7
370
    25
100
AcDbLine
 10
114.298974359
 20
60.8741025641
 30
0.0
 11
114.408349359
 21
61.1433333333
 31
0.0
  0
SPLINE
  5
3A3
330
1F
100
AcDbEntity
  8
0
  6
Continuous
 62
     7
370
    25
100
AcDbSpline
210
0.0
220
0.0
230
1.0
 70
     8
 71
     3
 72
    10
 73
     6
 74
     0
 42
0.000000001
 43
0.00000001
 40
0.0
 40
0.0
 40
0.0
 40
0.0
 40
0.278380769123111
 40
0.5586591976644288
 40
0.9999999999999999
 40
0.9999999999999999
 40
0.9999999999999999
 40
0.9999999999999999
 10
114.8009775641025
 20
60.47025641024153
 30
0.0
 10
114.7386902225504
 20
60.48143878076138
 30
0.0
 10
114.6136909405749
 20
60.50387974951895
 30
0.0
 10
114.4436550467451
 20
60.66011119805157
 30
0.0
 10
114.3538803651995
 20
60.79289330626101
 30
0.0
 10
114.2989743589743
 20
60.87410256408769
 30
0.0
  0
SPLINE
  5
3A4
330
1F
100
AcDbEntity
  8
0
  6
Continuous
 62
     7
370
    25
100
AcDbSpline
210
0.0
220
0.0
230
1.0
 70
     8
 71
     3
 72
    11
 73
     7
 74
     0
 42
0.000000001
 43
0.00000001
 40
0.0
 40
0.0
 40
0.0
 40
0.0
 40
0.5016739800393254
 40
0.7508217685283782
 40
0.875633037749071
 40
1.0
 40
1.0
 40
1.0
 40
1.0
 10
115.2861538461538
 20
61.69651842947231
 30
0.0
 10
115.2910373684574
 20
61.45268733898514
 30
0.0
 10
115.298346208458
 20
61.08776171424491
 30
0.0
 10
115.1601024419731
 20
60.67877425965627
 30
0.0
 10
114.9841977784316
 20
60.49645642961426
 30
0.0
 10
114.8619783261576
 20
60.47897936231014
 30
0.0
 10
114.8009775641025
 20
60.47025641024153
 30
0.0
  0
LINE
  5
3A5
330
1F
100
AcDbEntity
  8
0
  6
Continuous
 62
     7
370
    25
100
AcDbLine
 10
115.2861538462
 20
64.06
 30
0.0
 11
115.2861538462
 21
61.6965184295
 31
0.0
  0
LINE
  5
3A6
330
1F
100
AcDbEntity
  8
0
  6
Continuous
 62
     7
370
    25
100
AcDbLine
 10
115.1066666667
 20
64.06
 30
0.0
 11
115.2861538462
 21
64.06
 31
0.0
  0
LINE
  5
3A7
330
1F
100
AcDbEntity
  8
0
  6
Continuous
 62
     7
370
    25
100
AcDbLine
 10
115.1066666667
 20
61.7315745192
 30
0.0
 11
115.1066666667
 21
64.06
 31
0.0
  0
LINE
  5
3A8
330
1F
100
AcDbEntity
  8
0
  6
Continuous
 62
     7
370
    25
100
AcDbLine
 10
115.6451282051
 20
60.56
 30
0.0
 11
116.5425641026
 21
64.06
 31
0.0
  0
LINE
  5
3A9
330
1F
100
AcDbEntity
  8
0
  6
Continuous
 62
     7
370
    25
100
AcDbLine
 10
115.8407411859
 20
60.56
 30
0.0
 11
115.6451282051
 21
60.56
 31
0.0
  0
LINE
  5
3AA
330
1F
100
AcDbEntity
  8
0
  6
Continuous
 62
     7
370
    25
100
AcDbLine
 10
116.1282011218
 20
61.6817948718
 30
0.0
 11
115.8407411859
 21
60.56
 31
0.0
  0
LINE
  5
3AB
330
1F
100
AcDbEntity
  8
0
  6
Continuous
 62
     7
370
    25
100
AcDbLine
 10
117.0017988782
 20
61.6817948718
 30
0.0
 11
116.1282011218
 21
61.6817948718
 31
0.0
  0
LINE
  5
3AC
330
1F
100
AcDbEntity
  8
0
  6
Continuous
 62
     7
370
    25
100
AcDbLine
 10
117.2892588141
 20
60.56
 30
0.0
 11
117.0017988782
 21
61.6817948718
 31
0.0
  0
LINE
  5
3AD
330
1F
100
AcDbEntity
  8
0
  6
Continuous
 62
     7
370
    25
100
AcDbLine
 10
117.4848717949
 20
60.56
 30
0.0
 11
117.2892588141
 21
60.56
 31
0.0
  0
LINE
  5
3AE
330
1F
100
AcDbEntity
  8
0
  6
Continuous
 62
     7
370
    25
100
AcDbLine
 10
116.5874358974
 20
64.06
 30
0.0
 11
117.4848717949
 21
60.56
 31
0.0
  0
LINE
  5
3AF
330
1F
100
AcDbEntity
  8
0
  6
Continuous
 62
     7
370
    25
100
AcDbLine
 10
116.5425641026
 20
64.06
 30
0.0
 11
116.5874358974
 21
64.06
 31
0.0
  0
SPLINE
  5
3B0
330
1F
100
AcDbEntity
  8
0
  6
Continuous
 62
     7
370
    25
100
AcDbSpline
210
0.0
220
0.0
230
1.0
 70
     8
 71
     3
 72
     9
 73
     5
 74
     0
 42
0.000000001
 43
0.00000001
 40
0.0
 40
0.0
 40
0.0
 40
0.0
 40
0.5605225427369381
 40
1.0
 40
1.0
 40
1.0
 40
1.0
 10
121.3522596153846
 20
62.54697916665179
 30
0.0
 10
121.5008851338165
 20
62.35928753767151
 30
0.0
 10
121.7660404257092
 20
62.02443636814707
 30
0.0
 10
121.8156386124446
 20
61.60278029429109
 30
0.0
 10
121.8374358974359
 20
61.41747195511333
 30
0.0
  0
SPLINE
  5
3B1
330
1F
100
AcDbEntity
  8
0
  6
Continuous
 62
     7
370
    25
100
AcDbSpline
210
0.0
220
0.0
230
1.0
 70
     8
 71
     3
 72
     9
 73
     5
 74
     0
 42
0.000000001
 43
0.00000001
 40
0.0
 40
0.0
 40
0.0
 40
0.0
 40
0.5599316618565399
 40
0.9999999999999999
 40
0.9999999999999999
 40
0.9999999999999999
 40
0.9999999999999999
 10
121.0753165064102
 20
62.89543669870307
 30
0.0
 10
121.1255718864975
 20
62.82925493859997
 30
0.0
 10
121.2153245893909
 20
62.71105880037187
 30
0.0
 10
121.3104138447871
 20
62.59712001748633
 30
0.0
 10
121.3522596153846
 20
62.54697916665179
 30
0.0
  0
SPLINE
  5
3B2
330
1F
100
AcDbEntity
  8
0
  6
Continuous
 62
     7
370
    25
100
AcDbSpline
210
0.0
220
0.0
230
1.0
 70
     8
 71
     3
 72
     9
 73
     5
 74
     0
 42
0.000000001
 43
0.00000001
 40
0.0
 40
0.0
 40
0.0
 40
0.0
 40
0.5594618219459236
 40
1.0
 40
1.0
 40
1.0
 40
1.0
 10
120.94
 20
63.34766025639538
 30
0.0
 10
120.9473871663268
 20
63.25764241693621
 30
0.0
 10
120.9605912242931
 20
63.09674164421493
 30
0.0
 10
121.0402317946472
 20
62.95699876993457
 30
0.0
 10
121.0753165064102
 20
62.89543669870307
 30
0.0
  0
SPLINE
  5
3B3
330
1F
100
AcDbEntity
  8
0
  6
Continuous
 62
     7
370
    25
100
AcDbSpline
210
0.0
220
0.0
230
1.0
 70
     8
 71
     3
 72
    11
 73
     7
 74
     0
 42
0.000000001
 43
0.00000001
 40
0.0
 40
0.0
 40
0.0
 40
0.0
 40
0.1255743189565532
 40
0.2515068450936772
 40
0.5014577229488304
 40
1.0
 40
1.0
 40
1.0
 40
1.0
 10
121.2337700320513
 20
63.79076923075436
 30
0.0
 10
121.2090969387908
 20
63.78888951951603
 30
0.0
 10
121.1596803710068
 20
63.78512473506673
 30
0.0
 10
121.0725946061426
 20
63.73552920056803
 30
0.0
 10
120.9644665494805
 20
63.59531880409018
 30
0.0
 10
120.9497812852602
 20
63.44666967756726
 30
0.0
 10
120.94
 20
63.34766025639538
 30
0.0
  0
SPLINE
  5
3B4
330
1F
100
AcDbEntity
  8
0
  6
Continuous
 62
     7
370
    25
100
AcDbSpline
210
0.0
220
0.0
230
1.0
 70
     8
 71
     3
 72
    10
 73
     6
 74
     0
 42
0.000000001
 43
0.00000001
 40
0.0
 40
0.0
 40
0.0
 40
0.0
 40
0.5618652137534458
 40
0.7817631476607346
 40
1.0
 40
1.0
 40
1.0
 40
1.0
 10
121.6242948717949
 20
63.34205128203641
 30
0.0
 10
121.5775940785543
 20
63.44883981923191
 30
0.0
 10
121.512615933924
 20
63.59742232786303
 30
0.0
 10
121.3716245063726
 20
63.76315173318377
 30
0.0
 10
121.279605233922
 20
63.78158669545732
 30
0.0
 10
121.2337700320513
 20
63.79076923075436
 30
0.0
  0
LINE
  5
3B5
330
1F
100
AcDbEntity
  8
0
  6
Continuous
 62
     7
370
    25
100
AcDbLine
 10
121.7925641026
 20
63.5572956731
 30
0.0
 11
121.6242948718
 21
63.342051282
 31
0.0
  0
SPLINE
  5
3B6
330
1F
100
AcDbEntity
  8
0
  6
Continuous
 62
     7
370
    25
100
AcDbSpline
210
0.0
220
0.0
230
1.0
 70
     8
 71
     3
 72
    11
 73
     7
 74
     0
 42
0.000000001
 43
0.00000001
 40
0.0
 40
0.0
 40
0.0
 40
0.0
 40
0.4993523446987422
 40
0.7493373823641009
 40
0.8747430891468093
 40
1.0
 40
1.0
 40
1.0
 40
1.0
 10
120.7605128205128
 20
63.33293669870307
 30
0.0
 10
120.7751683714801
 20
63.50998166411481
 30
0.0
 10
120.7971607628558
 20
63.77565862017762
 30
0.0
 10
120.9771557239262
 20
64.03259940625786
 30
0.0
 10
121.124398530272
 20
64.13451174273463
 30
0.0
 10
121.2122875203541
 20
64.14466831707998
 30
0.0
 10
121.2562059294872
 20
64.14974358972871
 30
0.0
  0
SPLINE
  5
3B7
330
1F
100
AcDbEntity
  8
0
  6
Continuous
 62
     7
370
    25
100
AcDbSpline
210
0.0
220
0.0
230
1.0
 70
     8
 71
     3
 72
     9
 73
     5
 74
     0
 42
0.000000001
 43
0.00000001
 40
0.0
 40
0.0
 40
0.0
 40
0.0
 40
0.559749521892624
 40
0.9999999999999999
 40
0.9999999999999999
 40
0.9999999999999999
 40
0.9999999999999999
 10
120.8754967948718
 20
62.8000841346005
 30
0.0
 10
120.8381005758292
 20
62.89628605980479
 30
0.0
 10
120.771291730837
 20
63.06815208459211
 30
0.0
 10
120.7638076782448
 20
63.25199831004792
 30
0.0
 10
120.7605128205128
 20
63.33293669870307
 30
0.0
  0
SPLINE
  5
3B8
330
1F
100
AcDbEntity
  8
0
  6
Continuous
 62
     7
370
    25
100
AcDbSpline
210
0.0
220
0.0
230
1.0
 70
     8
 71
     3
 72
     9
 73
     5
 74
     0
 42
0.000000001
 43
0.00000001
 40
0.0
 40
0.0
 40
0.0
 40
0.0
 40
0.5602913181833113
 40
1.0
 40
1.0
 40
1.0
 40
1.0
 10
121.2127363782051
 20
62.32402243588256
 30
0.0
 10
121.1430855739801
 20
62.4082732089357
 30
0.0
 10
121.0187738062181
 20
62.55864279404067
 30
0.0
 10
120.9192557487417
 20
62.72634431839015
 30
0.0
 10
120.8754967948718
 20
62.8000841346005
 30
0.0
  0
SPLINE
  5
3B9
330
1F
100
AcDbEntity
  8
0
  6
Continuous
 62
     7
370
    25
100
AcDbSpline
210
0.0
220
0.0
230
1.0
 70
     8
 71
     3
 72
     9
 73
     5
 74
     0
 42
0.000000001
 43
0.00000001
 40
0.0
 40
0.0
 40
0.0
 40
0.0
 40
0.559662603313303
 40
1.0
 40
1.0
 40
1.0
 40
1.0
 10
121.5843309294872
 20
61.76592948716461
 30
0.0
 10
121.5243509552834
 20
61.87636586688613
 30
0.0
 10
121.4171792881956
 20
62.07369257599216
 30
0.0
 10
121.2752383023816
 20
62.24749203469278
 30
0.0
 10
121.2127363782051
 20
62.32402243588256
 30
0.0
  0
SPLINE
  5
3BA
330
1F
100
AcDbEntity
  8
0
  6
Continuous
 62
     7
370
    25
100
AcDbSpline
210
0.0
220
0.0
230
1.0
 70
     8
 71
     3
 72
     9
 73
     5
 74
     0
 42
0.000000001
 43
0.00000001
 40
0.0
 40
0.0
 40
0.0
 40
0.0
 40
0.5597943230199004
 40
1.0
 40
1.0
 40
1.0
 40
1.0
 10
121.6579487179487
 20
61.42237980767744
 30
0.0
 10
121.6538792847981
 20
61.48868445866316
 30
0.0
 10
121.6466097699366
 20
61.60712912353226
 30
0.0
 10
121.6033667516338
 20
61.71739140493454
 30
0.0
 10
121.5843309294872
 20
61.76592948716461
 30
0.0
  0
SPLINE
  5
3BB
330
1F
100
AcDbEntity
  8
0
  6
Continuous
 62
     7
370
    25
100
AcDbSpline
210
0.0
220
0.0
230
1.0
 70
     8
 71
     3
 72
    11
 73
     7
 74
     0
 42
0.000000001
 43
0.00000001
 40
0.0
 40
0.0
 40
0.0
 40
0.0
 40
0.1254427097772219
 40
0.251108049880821
 40
0.5012246243326215
 40
1.0
 40
1.0
 40
1.0
 40
1.0
 10
121.2541025641025
 20
60.8292307692159
 30
0.0
 10
121.2871593452236
 20
60.83251686616996
 30
0.0
 10
121.3533315752192
 20
60.83909489210166
 30
0.0
 10
121.4689408893898
 20
60.90688701976535
 30
0.0
 10
121.623007763899
 20
61.08753711938307
 30
0.0
 10
121.6439805013239
 20
61.28852097833107
 30
0.0
 10
121.6579487179487
 20
61.42237980767743
 30
0.0
  0
SPLINE
  5
3BC
330
1F
100
AcDbEntity
  8
0
  6
Continuous
 62
     7
370
    25
100
AcDbSpline
210
0.0
220
0.0
230
1.0
 70
     8
 71
     3
 72
    10
 73
     6
 74
     0
 42
0.000000001
 43
0.00000001
 40
0.0
 40
0.0
 40
0.0
 40
0.0
 40
0.561795544370285
 40
0.7823693959978608
 40
1.0
 40
1.0
 40
1.0
 40
1.0
 10
120.8011778846154
 20
61.41256410254923
 30
0.0
 10
120.851740349935
 20
61.27704548522161
 30
0.0
 10
120.9221548020409
 20
61.088319141897
 30
0.0
 10
121.0853585330899
 20
60.87308490909421
 30
0.0
 10
121.1981069828177
 20
60.84378321317195
 30
0.0
 10
121.2541025641025
 20
60.82923076921589
 30
0.0
  0
LINE
  5
3BD
330
1F
100
AcDbEntity
  8
0
  6
Continuous
 62
     7
370
    25
100
AcDbLine
 10
120.6258974359
 20
61.2351802884
 30
0.0
 11
120.8011778846
 21
61.4125641025
 31
0.0
  0
SPLINE
  5
3BE
330
1F
100
AcDbEntity
  8
0
  6
Continuous
 62
     7
370
    25
100
AcDbSpline
210
0.0
220
0.0
230
1.0
 70
     8
 71
     3
 72
    10
 73
     6
 74
     0
 42
0.000000001
 43
0.00000001
 40
0.0
 40
0.0
 40
0.0
 40
0.0
 40
0.276490402556675
 40
0.5571898806745151
 40
1.0
 40
1.0
 40
1.0
 40
1.0
 10
121.2505969551282
 20
60.47025641024153
 30
0.0
 10
121.1538624557509
 20
60.49495899194415
 30
0.0
 10
120.9589208459637
 20
60.5447402083045
 30
0.0
 10
120.7588712635152
 20
60.85487732262004
 30
0.0
 10
120.6763828693751
 20
61.09079277680958
 30
0.0
 10
120.6258974358974
 20
61.23518028844666
 30
0.0
  0
SPLINE
  5
3BF
330
1F
100
AcDbEntity
  8
0
  6
Continuous
 62
     7
370
    25
100
AcDbSpline
210
0.0
220
0.0
230
1.0
 70
     8
 71
     3
 72
    12
 73
     8
 74
     0
 42
0.000000001
 43
0.00000001
 40
0.0
 40
0.0
 40
0.0
 40
0.0
 40
0.1247093436109282
 40
0.249595220452998
 40
0.4991887285375984
 40
0.7494516917125972
 40
1.0
 40
1.0
 40
1.0
 40
1.0
 10
125.2960697115385
 20
60.47025641024153
 30
0.0
 10
125.1989221643522
 20
60.48157667735643
 30
0.0
 10
125.0044895520527
 20
60.50423323607382
 30
0.0
 10
124.682265538156
 20
60.73874679098496
 30
0.0
 10
124.4207555217794
 20
61.15481659817261
 30
0.0
 10
124.2417550477257
 20
61.71278980523554
 30
0.0
 10
124.2243490054582
 20
62.10057316685048
 30
0.0
 10
124.215641025641
 20
62.29457532049794
 30
0.0
  0
SPLINE
  5
3C0
330
1F
100
AcDbEntity
  8
0
  6
Continuous
 62
     7
370
    25
100
AcDbSpline
210
0.0
220
0.0
230
1.0
 70
     8
 71
     3
 72
    12
 73
     8
 74
     0
 42
0.000000001
 43
0.00000001
 40
0.0
 40
0.0
 40
0.0
 40
0.0
 40
0.2505828292360021
 40
0.5008573904419283
 40
0.7504687067827908
 40
0.8753540477224988
 40
1.0
 40
1.0
 40
1.0
 40
1.0
 10
126.3694871794872
 20
62.31140224357487
 30
0.0
 10
126.3610296067857
 20
62.11658940627544
 30
0.0
 10
126.3441248659234
 20
61.72720339123256
 30
0.0
 10
126.1676937878205
 20
61.16590708241178
 30
0.0
 10
125.9090096469674
 20
60.74629989446306
 30
0.0
 10
125.5887605957178
 20
60.50598997769583
 30
0.0
 10
125.3935709209806
 20
60.48215997893055
 30
0.0
 10
125.2960697115385
 20
60.47025641024153
 30
0.0
  0
SPLINE
  5
3C1
330
1F
100
AcDbEntity
  8
0
  6
Continuous
 62
     7
370
    25
100
AcDbSpline
210
0.0
220
0.0
230
1.0
 70
     8
 71
     3
 72
    12
 73
     8
 74
     0
 42
0.000000001
 43
0.00000001
 40
0.0
 40
0.0
 40
0.0
 40
0.0
 40
0.2506573523135966
 40
0.5011268930735296
 40
0.7505329229105748
 40
0.875493093156614
 40
1.0
 40
1.0
 40
1.0
 40
1.0
 10
124.215641025641
 20
62.29457532049794
 30
0.0
 10
124.2252084042249
 20
62.489435300737
 30
0.0
 10
124.2443359927851
 20
62.87900925729664
 30
0.0
 10
124.4122472042461
 20
63.44371504475099
 30
0.0
 10
124.6711229278733
 20
63.8634499205564
 30
0.0
 10
124.986813747237
 20
64.10965502198597
 30
0.0
 10
125.1818845845267
 20
64.1363969298436
 30
0.0
 10
125.2792427884615
 20
64.14974358972871
 30
0.0
  0
SPLINE
  5
3C2
330
1F
100
AcDbEntity
  8
0
  6
Continuous
 62
     7
370
    25
100
AcDbSpline
210
0.0
220
0.0
230
1.0
 70
     8
 71
     3
 72
    12
 73
     8
 74
     0
 42
0.000000001
 43
0.00000001
 40
0.0
 40
0.0
 40
0.0
 40
0.0
 40
0.124709343610928
 40
0.2495952204529982
 40
0.4991887285375938
 40
0.7494516917125947
 40
1.0
 40
1.0
 40
1.0
 40
1.0
 10
129.4242748397436
 20
60.47025641024153
 30
0.0
 10
129.3271272925573
 20
60.48157667735643
 30
0.0
 10
129.1326946802578
 20
60.50423323607383
 30
0.0
 10
128.8104706663612
 20
60.73874679098497
 30
0.0
 10
128.5489606499846
 20
61.15481659817261
 30
0.0
 10
128.3699601759309
 20
61.71278980523553
 30
0.0
 10
128.3525541336633
 20
62.10057316685048
 30
0.0
 10
128.3438461538461
 20
62.29457532049794
 30
0.0
  0
SPLINE
  5
3C3
330
1F
100
AcDbEntity
  8
0
  6
Continuous
 62
     7
370
    25
100
AcDbSpline
210
0.0
220
0.0
230
1.0
 70
     8
 71
     3
 72
    12
 73
     8
 74
     0
 42
0.000000001
 43
0.00000001
 40
0.0
 40
0.0
 40
0.0
 40
0.0
 40
0.2505828292360022
 40
0.5008573904419256
 40
0.7504687067827901
 40
0.8753540477224969
 40
1.0
 40
1.0
 40
1.0
 40
1.0
 10
130.4976923076923
 20
62.31140224357487
 30
0.0
 10
130.4892347349908
 20
62.11658940627544
 30
0.0
 10
130.4723299941286
 20
61.72720339123257
 30
0.0
 10
130.2958989160256
 20
61.16590708241178
 30
0.0
 10
130.0372147751725
 20
60.74629989446306
 30
0.0
 10
129.7169657239229
 20
60.50598997769583
 30
0.0
 10
129.5217760491857
 20
60.48215997893055
 30
0.0
 10
129.4242748397436
 20
60.47025641024153
 30
0.0
  0
SPLINE
  5
3C4
330
1F
100
AcDbEntity
  8
0
  6
Continuous
 62
     7
370
    25
100
AcDbSpline
210
0.0
220
0.0
230
1.0
 70
     8
 71
     3
 72
    12
 73
     8
 74
     0
 42
0.000000001
 43
0.00000001
 40
0.0
 40
0.0
 40
0.0
 40
0.0
 40
0.1247685152723245
 40
0.2496513218955151
 40
0.4991413615556108
 40
0.7494245220454574
 40
0.9999999999999999
 40
0.9999999999999999
 40
0.9999999999999999
 40
0.9999999999999999
 10
129.4074479166666
 20
64.14974358972871
 30
0.0
 10
129.5056955333057
 20
64.139065828535
 30
0.0
 10
129.7022807640708
 20
64.11770052502811
 30
0.0
 10
130.0297627978196
 20
63.88371783519724
 30
0.0
 10
130.2960434247263
 20
63.4639945487432
 30
0.0
 10
130.4721155130279
 20
62.89893624031034
 30
0.0
 10
130.4891633929043
 20
62.50732309522858
 30
0.0
 10
130.4976923076923
 20
62.31140224357487
 30
0.0
  0
SPLINE
  5
3C5
330
1F
100
AcDbEntity
  8
0
  6
Continuous
 62
     7
370
    25
100
AcDbSpline
210
0.0
220
0.0
230
1.0
 70
     8
 71
     3
 72
    12
 73
     8
 74
     0
 42
0.000000001
 43
0.00000001
 40
0.0
 40
0.0
 40
0.0
 40
0.0
 40
0.250657352313597
 40
0.5011268930735285
 40
0.7505329229105748
 40
0.8754930931566147
 40
0.9999999999999999
 40
0.9999999999999999
 40
0.9999999999999999
 40
0.9999999999999999
 10
128.3438461538461
 20
62.29457532049794
 30
0.0
 10
128.3534135324301
 20
62.489435300737
 30
0.0
 10
128.3725411209902
 20
62.87900925729664
 30
0.0
 10
128.5404523324512
 20
63.44371504475099
 30
0.0
 10
128.7993280560785
 20
63.8634499205564
 30
0.0
 10
129.1150188754421
 20
64.10965502198599
 30
0.0
 10
129.3100897127318
 20
64.1363969298436
 30
0.0
 10
129.4074479166666
 20
64.14974358972871
 30
0.0
  0
LINE
  5
3C6
330
1F
100
AcDbEntity
  8
0
  6
Continuous
 62
     7
370
    25
100
AcDbLine
 10
132.831025641
 20
60.56
 30
0.0
 11
133.7284615385
 21
64.06
 31
0.0
  0
LINE
  5
3C7
330
1F
100
AcDbEntity
  8
0
  6
Continuous
 62
     7
370
    25
100
AcDbLine
 10
133.0266386218
 20
60.56
 30
0.0
 11
132.831025641
 21
60.56
 31
0.0
  0
LINE
  5
3C8
330
1F
100
AcDbEntity
  8
0
  6
Continuous
 62
     7
370
    25
100
AcDbLine
 10
133.3140985577
 20
61.6817948718
 30
0.0
 11
133.0266386218
 21
60.56
 31
0.0
  0
LINE
  5
3C9
330
1F
100
AcDbEntity
  8
0
  6
Continuous
 62
     7
370
    25
100
AcDbLine
 10
134.1876963141
 20
61.6817948718
 30
0.0
 11
133.3140985577
 21
61.6817948718
 31
0.0
  0
LINE
  5
3CA
330
1F
100
AcDbEntity
  8
0
  6
Continuous
 62
     7
370
    25
100
AcDbLine
 10
134.47515625
 20
60.56
 30
0.0
 11
134.1876963141
 21
61.6817948718
 31
0.0
  0
LINE
  5
3CB
330
1F
100
AcDbEntity
  8
0
  6
Continuous
 62
     7
370
    25
100
AcDbLine
 10
134.6707692308
 20
60.56
 30
0.0
 11
134.47515625
 21
60.56
 31
0.0
  0
LINE
  5
3CC
330
1F
100
AcDbEntity
  8
0
  6
Continuous
 62
     7
370
    25
100
AcDbLine
 10
133.7733333333
 20
64.06
 30
0.0
 11
134.6707692308
 21
60.56
 31
0.0
  0
LINE
  5
3CD
330
1F
100
AcDbEntity
  8
0
  6
Continuous
 62
     7
370
    25
100
AcDbLine
 10
133.7284615385
 20
64.06
 30
0.0
 11
133.7733333333
 21
64.06
 31
0.0
  0
SPLINE
  5
3CE
330
1F
100
AcDbEntity
  8
0
  6
Continuous
 62
     7
370
    25
100
AcDbSpline
210
0.0
220
0.0
230
1.0
 70
     8
 71
     3
 72
    11
 73
     7
 74
     0
 42
0.000000001
 43
0.00000001
 40
0.0
 40
0.0
 40
0.0
 40
0.0
 40
0.1857141050778686
 40
0.3724542555639246
 40
0.5601199017239207
 40
1.0
 40
1.0
 40
1.0
 40
1.0
 10
137.2284615384615
 20
60.51512820511333
 30
0.0
 10
137.2051502858531
 20
60.51955215138359
 30
0.0
 10
137.1583989891065
 20
60.52842448563114
 30
0.0
 10
137.1102052447656
 20
60.58326214069992
 30
0.0
 10
137.060566164374
 20
60.67194214975794
 30
0.0
 10
137.0537512758283
 20
60.75122283460209
 30
0.0
 10
137.0489743589743
 20
60.80679487178
 30
0.0
  0
SPLINE
  5
3CF
330
1F
100
AcDbEntity
  8
0
  6
Continuous
 62
     7
370
    25
100
AcDbSpline
210
0.0
220
0.0
230
1.0
 70
     8
 71
     3
 72
    10
 73
     6
 74
     0
 42
0.000000001
 43
0.00000001
 40
0.0
 40
0.0
 40
0.0
 40
0.0
 40
0.5596114125997572
 40
0.780791284150203
 40
1.0
 40
1.0
 40
1.0
 40
1.0
 10
137.4079487179487
 20
60.80679487178
 30
0.0
 10
137.3995833419702
 20
60.73718245461353
 30
0.0
 10
137.387911648889
 20
60.64005654301051
 30
0.0
 10
137.3103774305798
 20
60.53411936888005
 30
0.0
 10
137.2556852360577
 20
60.52143967515919
 30
0.0
 10
137.2284615384615
 20
60.51512820511333
 30
0.0
  0
SPLINE
  5
3D0
330
1F
100
AcDbEntity
  8
0
  6
Continuous
 62
     7
370
    25
100
AcDbSpline
210
0.0
220
0.0
230
1.0
 70
     8
 71
     3
 72
    11
 73
     7
 74
     0
 42
0.000000001
 43
0.00000001
 40
0.0
 40
0.0
 40
0.0
 40
0.0
 40
0.1859027081876066
 40
0.372680286692615
 40
0.5601967664387701
 40
1.0
 40
1.0
 40
1.0
 40
1.0
 10
137.2284615384615
 20
61.09846153844667
 30
0.0
 10
137.2518957160149
 20
61.09423671416371
 30
0.0
 10
137.2988743538955
 20
61.08576718329807
 30
0.0
 10
137.3471597005189
 20
61.03072275072092
 30
0.0
 10
137.3968669175152
 20
60.94193452078238
 30
0.0
 10
137.4033814732103
 20
60.86249122315918
 30
0.0
 10
137.4079487179487
 20
60.80679487178
 30
0.0
  0
SPLINE
  5
3D1
330
1F
100
AcDbEntity
  8
0
  6
Continuous
 62
     7
370
    25
100
AcDbSpline
210
0.0
220
0.0
230
1.0
 70
     8
 71
     3
 72
    10
 73
     6
 74
     0
 42
0.000000001
 43
0.00000001
 40
0.0
 40
0.0
 40
0.0
 40
0.0
 40
0.5594713163304259
 40
0.7807294745950802
 40
0.9999999999999999
 40
0.9999999999999999
 40
0.9999999999999999
 40
0.9999999999999999
 10
137.0489743589743
 20
60.80679487178
 30
0.0
 10
137.0570197179266
 20
60.8765825072647
 30
0.0
 10
137.068246833034
 20
60.97396956249852
 30
0.0
 10
137.1461711281889
 20
61.08010519112008
 30
0.0
 10
137.2011140344814
 20
61.0923611887229
 30
0.0
 10
137.2284615384615
 20
61.09846153844667
 30
0.0
  0
SPLINE
  5
3D2
330
1F
100
AcDbEntity
  8
0
  6
Continuous
 62
     7
370
    25
100
AcDbSpline
210
0.0
220
0.0
230
1.0
 70
     8
 71
     3
 72
    11
 73
     7
 74
     0
 42
0.000000001
 43
0.00000001
 40
0.0
 40
0.0
 40
0.0
 40
0.0
 40
0.1857141050778713
 40
0.3724542555639335
 40
0.5601199017239392
 40
1.0
 40
1.0
 40
1.0
 40
1.0
 10
138.8887179487179
 20
60.51512820511333
 30
0.0
 10
138.8654066961095
 20
60.51955215138358
 30
0.0
 10
138.8186553993629
 20
60.52842448563114
 30
0.0
 10
138.770461655022
 20
60.58326214069993
 30
0.0
 10
138.7208225746304
 20
60.67194214975795
 30
0.0
 10
138.7140076860847
 20
60.75122283460209
 30
0.0
 10
138.7092307692307
 20
60.80679487177999
 30
0.0
  0
SPLINE
  5
3D3
330
1F
100
AcDbEntity
  8
0
  6
Continuous
 62
     7
370
    25
100
AcDbSpline
210
0.0
220
0.0
230
1.0
 70
     8
 71
     3
 72
    10
 73
     6
 74
     0
 42
0.000000001
 43
0.00000001
 40
0.0
 40
0.0
 40
0.0
 40
0.0
 40
0.5596114125997742
 40
0.7807912841502068
 40
1.0
 40
1.0
 40
1.0
 40
1.0
 10
139.0682051282051
 20
60.80679487178
 30
0.0
 10
139.0598397522267
 20
60.73718245461353
 30
0.0
 10
139.0481680591454
 20
60.64005654301051
 30
0.0
 10
138.9706338408362
 20
60.53411936888005
 30
0.0
 10
138.9159416463141
 20
60.5214396751592
 30
0.0
 10
138.8887179487179
 20
60.51512820511333
 30
0.0
  0
SPLINE
  5
3D4
330
1F
100
AcDbEntity
  8
0
  6
Continuous
 62
     7
370
    25
100
AcDbSpline
210
0.0
220
0.0
230
1.0
 70
     8
 71
     3
 72
    11
 73
     7
 74
     0
 42
0.000000001
 43
0.00000001
 40
0.0
 40
0.0
 40
0.0
 40
0.0
 40
0.1859027081876153
 40
0.3726802866926076
 40
0.5601967664387492
 40
1.0
 40
1.0
 40
1.0
 40
1.0
 10
138.8887179487179
 20
61.09846153844667
 30
0.0
 10
138.9121521262713
 20
61.0942367141637
 30
0.0
 10
138.959130764152
 20
61.08576718329805
 30
0.0
 10
139.0074161107753
 20
61.03072275072093
 30
0.0
 10
139.0571233277716
 20
60.94193452078238
 30
0.0
 10
139.0636378834667
 20
60.86249122315918
 30
0.0
 10
139.0682051282051
 20
60.80679487178
 30
0.0
  0
SPLINE
  5
3D5
330
1F
100
AcDbEntity
  8
0
  6
Continuous
 62
     7
370
    25
100
AcDbSpline
210
0.0
220
0.0
230
1.0
 70
     8
 71
     3
 72
    10
 73
     6
 74
     0
 42
0.000000001
 43
0.00000001
 40
0.0
 40
0.0
 40
0.0
 40
0.0
 40
0.5594713163304218
 40
0.7807294745950768
 40
1.0
 40
1.0
 40
1.0
 40
1.0
 10
138.7092307692307
 20
60.80679487178
 30
0.0
 10
138.717276128183
 20
60.8765825072647
 30
0.0
 10
138.7285032432905
 20
60.97396956249851
 30
0.0
 10
138.8064275384453
 20
61.08010519112008
 30
0.0
 10
138.8613704447378
 20
61.0923611887229
 30
0.0
 10
138.8887179487179
 20
61.09846153844667
 30
0.0
  0
SPLINE
  5
3D6
330
1F
100
AcDbEntity
  8
0
  6
Continuous
 62
     7
370
    25
100
AcDbSpline
210
0.0
220
0.0
230
1.0
 70
     8
 71
     3
 72
    11
 73
     7
 74
     0
 42
0.000000001
 43
0.00000001
 40
0.0
 40
0.0
 40
0.0
 40
0.0
 40
0.1857141050778702
 40
0.3724542555639399
 40
0.5601199017239291
 40
1.0
 40
1.0
 40
1.0
 40
1.0
 10
141.5810256410256
 20
60.51512820511333
 30
0.0
 10
141.5577143884172
 20
60.51955215138357
 30
0.0
 10
141.5109630916706
 20
60.52842448563113
 30
0.0
 10
141.4627693473297
 20
60.58326214069995
 30
0.0
 10
141.4131302669381
 20
60.67194214975793
 30
0.0
 10
141.4063153783924
 20
60.75122283460208
 30
0.0
 10
141.4015384615385
 20
60.80679487178
 30
0.0
  0
SPLINE
  5
3D7
330
1F
100
AcDbEntity
  8
0
  6
Continuous
 62
     7
370
    25
100
AcDbSpline
210
0.0
220
0.0
230
1.0
 70
     8
 71
     3
 72
    10
 73
     6
 74
     0
 42
0.000000001
 43
0.00000001
 40
0.0
 40
0.0
 40
0.0
 40
0.0
 40
0.5596114125997625
 40
0.7807912841501963
 40
1.0
 40
1.0
 40
1.0
 40
1.0
 10
141.7605128205128
 20
60.80679487178
 30
0.0
 10
141.7521474445344
 20
60.73718245461353
 30
0.0
 10
141.7404757514531
 20
60.64005654301052
 30
0.0
 10
141.6629415331439
 20
60.53411936888006
 30
0.0
 10
141.6082493386218
 20
60.5214396751592
 30
0.0
 10
141.5810256410256
 20
60.51512820511333
 30
0.0
  0
SPLINE
  5
3D8
330
1F
100
AcDbEntity
  8
0
  6
Continuous
 62
     7
370
    25
100
AcDbSpline
210
0.0
220
0.0
230
1.0
 70
     8
 71
     3
 72
    11
 73
     7
 74
     0
 42
0.000000001
 43
0.00000001
 40
0.0
 40
0.0
 40
0.0
 40
0.0
 40
0.1859027081876149
 40
0.3726802866925934
 40
0.5601967664387503
 40
1.0
 40
1.0
 40
1.0
 40
1.0
 10
141.5810256410256
 20
61.09846153844667
 30
0.0
 10
141.604459818579
 20
61.09423671416371
 30
0.0
 10
141.6514384564596
 20
61.08576718329806
 30
0.0
 10
141.699723803083
 20
61.03072275072093
 30
0.0
 10
141.7494310200792
 20
60.94193452078238
 30
0.0
 10
141.7559455757744
 20
60.86249122315918
 30
0.0
 10
141.7605128205128
 20
60.80679487178
 30
0.0
  0
SPLINE
  5
3D9
330
1F
100
AcDbEntity
  8
0
  6
Continuous
 62
     7
370
    25
100
AcDbSpline
210
0.0
220
0.0
230
1.0
 70
     8
 71
     3
 72
    10
 73
     6
 74
     0
 42
0.000000001
 43
0.00000001
 40
0.0
 40
0.0
 40
0.0
 40
0.0
 40
0.5594713163304376
 40
0.780729474595079
 40
1.0
 40
1.0
 40
1.0
 40
1.0
 10
141.4015384615385
 20
60.80679487178
 30
0.0
 10
141.4095838204907
 20
60.87658250726471
 30
0.0
 10
141.4208109355982
 20
60.97396956249852
 30
0.0
 10
141.498735230753
 20
61.08010519112008
 30
0.0
 10
141.5536781370455
 20
61.09236118872291
 30
0.0
 10
141.5810256410256
 20
61.09846153844667
 30
0.0
  0
SPLINE
  5
3DA
330
1F
100
AcDbEntity
  8
0
  6
Continuous
 62
     7
370
    25
100
AcDbSpline
210
0.0
220
0.0
230
1.0
 70
     8
 71
     3
 72
    13
 73
     9
 74
     0
 42
0.000000001
 43
0.00000001
 40
0.0
 40
0.0
 40
0.0
 40
0.0
 40
0.2503726932161079
 40
0.5004093052718432
 40
0.6255741748249362
 40
0.7503555881609607
 40
0.8749685067404769
 40
1.0
 40
1.0
 40
1.0
 40
1.0
 10
132.6066666666667
 20
62.26582932690821
 30
0.0
 10
132.5996087182006
 20
62.07744739521321
 30
0.0
 10
132.5855022953189
 20
61.70093640132499
 30
0.0
 10
132.4567812491289
 20
61.24240810119239
 30
0.0
 10
132.284566635412
 20
60.90720035499682
 30
0.0
 10
132.0942831322096
 20
60.69167498722669
 30
0.0
 10
131.8283813935434
 20
60.57416050511791
 30
0.0
 10
131.6401452626733
 20
60.56472544156802
 30
0.0
 10
131.5458693910256
 20
60.55999999998513
 30
0.0
  0
SPLINE
  5
3DB
330
1F
100
AcDbEntity
  8
0
  6
Continuous
 62
     7
370
    25
100
AcDbSpline
210
0.0
220
0.0
230
1.0
 70
     8
 71
     3
 72
     9
 73
     5
 74
     0
 42
0.000000001
 43
0.00000001
 40
0.0
 40
0.0
 40
0.0
 40
0.0
 40
0.5600778268018413
 40
1.0
 40
1.0
 40
1.0
 40
1.0
 10
136.465641025641
 20
61.24078926280564
 30
0.0
 10
136.4633375391115
 20
61.2880686610084
 30
0.0
 10
136.4592247418907
 20
61.37248442599722
 30
0.0
 10
136.4271620014702
 20
61.45047143356888
 30
0.0
 10
136.4130568910256
 20
61.48477964742102
 30
0.0
  0
SPLINE
  5
3DC
330
1F
100
AcDbEntity
  8
0
  6
Continuous
 62
     7
370
    25
100
AcDbSpline
210
0.0
220
0.0
230
1.0
 70
     8
 71
     3
 72
    10
 73
     6
 74
     0
 42
0.000000001
 43
0.00000001
 40
0.0
 40
0.0
 40
0.0
 40
0.0
 40
0.2771143690014554
 40
0.5575217321915844
 40
1.0
 40
1.0
 40
1.0
 40
1.0
 10
121.2562059294872
 20
64.14974358972871
 30
0.0
 10
121.3341322589342
 20
64.13096040609393
 30
0.0
 10
121.4909109288141
 20
64.09317083526125
 30
0.0
 10
121.6621273493224
 20
63.85326282981521
 30
0.0
 10
121.7430384319199
 20
63.66967176003573
 30
0.0
 10
121.7925641025641
 20
63.55729567306205
 30
0.0
  0
SPLINE
  5
3DD
330
1F
100
AcDbEntity
  8
0
  6
Continuous
 62
     7
370
    25
100
AcDbSpline
210
0.0
220
0.0
230
1.0
 70
     8
 71
     3
 72
    12
 73
     8
 74
     0
 42
0.000000001
 43
0.00000001
 40
0.0
 40
0.0
 40
0.0
 40
0.0
 40
0.124768515272325
 40
0.2496513218955195
 40
0.4991413615556112
 40
0.7494245220454585
 40
1.0
 40
1.0
 40
1.0
 40
1.0
 10
125.2792427884615
 20
64.14974358972871
 30
0.0
 10
125.3774904051006
 20
64.13906582853498
 30
0.0
 10
125.5740756358656
 20
64.1177005250281
 30
0.0
 10
125.9015576696145
 20
63.88371783519724
 30
0.0
 10
126.1678382965212
 20
63.4639945487432
 30
0.0
 10
126.3439103848228
 20
62.89893624031034
 30
0.0
 10
126.3609582646991
 20
62.50732309522858
 30
0.0
 10
126.3694871794872
 20
62.31140224357487
 30
0.0
  0
SPLINE
  5
3DE
330
1F
100
AcDbEntity
  8
0
  6
Continuous
 62
     7
370
    25
100
AcDbSpline
210
0.0
220
0.0
230
1.0
 70
     8
 71
     3
 72
    11
 73
     7
 74
     0
 42
0.000000001
 43
0.00000001
 40
0.0
 40
0.0
 40
0.0
 40
0.0
 40
0.4989332970631628
 40
0.7494451748307326
 40
0.8748430229421714
 40
1.0
 40
1.0
 40
1.0
 40
1.0
 10
121.8374358974359
 20
61.41747195511333
 30
0.0
 10
121.8151159269407
 20
61.21306724312436
 30
0.0
 10
121.7815892124713
 20
60.90603196202668
 30
0.0
 10
121.5753591020665
 20
60.60598902583227
 30
0.0
 10
121.4038173426287
 20
60.48733583331254
 30
0.0
 10
121.3016376741301
 20
60.47594590135889
 30
0.0
 10
121.2505969551282
 20
60.47025641024153
 30
0.0
  0
SPLINE
  5
3DF
330
1F
100
AcDbEntity
  8
0
  6
Continuous
 62
     7
370
    25
100
AcDbSpline
210
0.0
220
0.0
230
1.0
 70
     8
 71
     3
 72
    11
 73
     7
 74
     0
 42
0.000000001
 43
0.00000001
 40
0.0
 40
0.0
 40
0.0
 40
0.0
 40
0.1250490604142626
 40
0.2504153431054252
 40
0.5004166025508178
 40
1.0
 40
1.0
 40
1.0
 40
1.0
 10
125.2883573717949
 20
60.8292307692159
 30
0.0
 10
125.3678912864598
 20
60.83871727285909
 30
0.0
 10
125.5271608760381
 20
60.85771434534255
 30
0.0
 10
125.7943563395345
 20
61.04232547686764
 30
0.0
 10
126.1220717415847
 20
61.50824057649293
 30
0.0
 10
126.162833254898
 20
61.99061219230173
 30
0.0
 10
126.19
 20
62.31210336536974
 30
0.0
  0
SPLINE
  5
3E0
330
1F
100
AcDbEntity
  8
0
  6
Continuous
 62
     7
370
    25
100
AcDbSpline
210
0.0
220
0.0
230
1.0
 70
     8
 71
     3
 72
    11
 73
     7
 74
     0
 42
0.000000001
 43
0.00000001
 40
0.0
 40
0.0
 40
0.0
 40
0.0
 40
0.1249546649233451
 40
0.2503355151445391
 40
0.5004718750725822
 40
0.9999999999999999
 40
0.9999999999999999
 40
0.9999999999999999
 40
0.9999999999999999
 10
125.2883573717949
 20
63.79076923075436
 30
0.0
 10
125.2089169461052
 20
63.78017658839433
 30
0.0
 10
125.0497651457261
 20
63.75895517514364
 30
0.0
 10
124.7889491754688
 20
63.5652053003699
 30
0.0
 10
124.4643927678818
 20
63.09984949932704
 30
0.0
 10
124.4228257730495
 20
62.61743050685019
 30
0.0
 10
124.3951282051282
 20
62.29597756408768
 30
0.0
  0
SPLINE
  5
3E1
330
1F
100
AcDbEntity
  8
0
  6
Continuous
 62
     7
370
    25
100
AcDbSpline
210
0.0
220
0.0
230
1.0
 70
     8
 71
     3
 72
    11
 73
     7
 74
     0
 42
0.000000001
 43
0.00000001
 40
0.0
 40
0.0
 40
0.0
 40
0.0
 40
0.4993358358504839
 40
0.7495692015935345
 40
0.8749806247542855
 40
0.9999999999999999
 40
0.9999999999999999
 40
0.9999999999999999
 40
0.9999999999999999
 10
126.19
 20
62.31210336536974
 30
0.0
 10
126.1621094599087
 20
62.63249719527023
 30
0.0
 10
126.1202420665287
 20
63.11345075404085
 30
0.0
 10
125.7888126965569
 20
63.572091087676
 30
0.0
 10
125.5260086379066
 20
63.76027904209035
 30
0.0
 10
125.3674917414147
 20
63.78061644722833
 30
0.0
 10
125.2883573717949
 20
63.79076923075436
 30
0.0
  0
SPLINE
  5
3E2
330
1F
100
AcDbEntity
  8
0
  6
Continuous
 62
     7
370
    25
100
AcDbSpline
210
0.0
220
0.0
230
1.0
 70
     8
 71
     3
 72
    11
 73
     7
 74
     0
 42
0.000000001
 43
0.00000001
 40
0.0
 40
0.0
 40
0.0
 40
0.0
 40
0.4991160317194256
 40
0.749541891381454
 40
0.8748444187760729
 40
1.0
 40
1.0
 40
1.0
 40
1.0
 10
124.3951282051282
 20
62.29597756408768
 30
0.0
 10
124.4253426267526
 20
61.97950105547162
 30
0.0
 10
124.4707167948661
 20
61.50423601533914
 30
0.0
 10
124.7889883092678
 20
61.0414302607717
 30
0.0
 10
125.0518326754272
 20
60.85576990817837
 30
0.0
 10
125.2095466504388
 20
60.83807368802277
 30
0.0
 10
125.2883573717949
 20
60.8292307692159
 30
0.0
  0
SPLINE
  5
3E3
330
1F
100
AcDbEntity
  8
0
  6
Continuous
 62
     7
370
    25
100
AcDbSpline
210
0.0
220
0.0
230
1.0
 70
     8
 71
     3
 72
    11
 73
     7
 74
     0
 42
0.000000001
 43
0.00000001
 40
0.0
 40
0.0
 40
0.0
 40
0.0
 40
0.2810224925325866
 40
0.560577971011056
 40
0.7796494856786639
 40
1.0
 40
1.0
 40
1.0
 40
1.0
 10
127.6258974358974
 20
63.18640224357487
 30
0.0
 10
127.6221857179296
 20
63.25759171146256
 30
0.0
 10
127.6147816581739
 20
63.39959901880012
 30
0.0
 10
127.5300940364909
 20
63.588950777861
 30
0.0
 10
127.3675472280861
 20
63.69118047380787
 30
0.0
 10
127.2552342188486
 20
63.69773755683883
 30
0.0
 10
127.1989142628205
 20
63.70102564101077
 30
0.0
  0
SPLINE
  5
3E4
330
1F
100
AcDbEntity
  8
0
  6
Continuous
 62
     7
370
    25
100
AcDbSpline
210
0.0
220
0.0
230
1.0
 70
     8
 71
     3
 72
    10
 73
     6
 74
     0
 42
0.000000001
 43
0.00000001
 40
0.0
 40
0.0
 40
0.0
 40
0.0
 40
0.2820080937468404
 40
0.5596255006190668
 40
1.0
 40
1.0
 40
1.0
 40
1.0
 10
127.0748157051282
 20
62.5792307692159
 30
0.0
 10
127.1649561042859
 20
62.58055967699239
 30
0.0
 10
127.343833473848
 20
62.58319680229546
 30
0.0
 10
127.5938122463068
 20
62.8155684662153
 30
0.0
 10
127.6136996552687
 20
63.04542289691567
 30
0.0
 10
127.6258974358974
 20
63.18640224357487
 30
0.0
  0
LINE
  5
3E5
330
1F
100
AcDbEntity
  8
0
  6
Continuous
 62
     7
370
    25
100
AcDbLine
 10
126.9528205128
 20
62.5792307692
 30
0.0
 11
127.0748157051
 21
62.5792307692
 31
0.0
  0
LINE
  5
3E6
330
1F
100
AcDbEntity
  8
0
  6
Continuous
 62
     7
370
    25
100
AcDbLine
 10
126.9528205128
 20
63.701025641
 30
0.0
 11
126.9528205128
 21
62.5792307692
 31
0.0
  0
LINE
  5
3E7
330
1F
100
AcDbEntity
  8
0
  6
Continuous
 62
     7
370
    25
100
AcDbLine
 10
127.1989142628
 20
63.701025641
 30
0.0
 11
126.9528205128
 21
63.701025641
 31
0.0
  0
LINE
  5
3E8
330
1F
100
AcDbEntity
  8
0
  6
Continuous
 62
     7
370
    25
100
AcDbLine
 10
127.0727123397
 20
62.2202564102
 30
0.0
 11
126.9528205128
 21
62.2202564102
 31
0.0
  0
SPLINE
  5
3E9
330
1F
100
AcDbEntity
  8
0
  6
Continuous
 62
     7
370
    25
100
AcDbSpline
210
0.0
220
0.0
230
1.0
 70
     8
 71
     3
 72
    10
 73
     6
 74
     0
 42
0.000000001
 43
0.00000001
 40
0.0
 40
0.0
 40
0.0
 40
0.0
 40
0.5580099882118047
 40
0.7791152929078794
 40
0.9999999999999999
 40
0.9999999999999999
 40
0.9999999999999999
 40
0.9999999999999999
 10
127.8053846153846
 20
61.55348958331846
 30
0.0
 10
127.7884347316691
 20
61.69733851323058
 30
0.0
 10
127.7647686434364
 20
61.89818599540938
 30
0.0
 10
127.601980856741
 20
62.10328819233914
 30
0.0
 10
127.5010548196086
 20
62.15369793352451
 30
0.0
 10
127.4506169871795
 20
62.1788902243441
 30
0.0
  0
SPLINE
  5
3EA
330
1F
100
AcDbEntity
  8
0
  6
Continuous
 62
     7
370
    25
100
AcDbSpline
210
0.0
220
0.0
230
1.0
 70
     8
 71
     3
 72
     9
 73
     5
 74
     0
 42
0.000000001
 43
0.00000001
 40
0.0
 40
0.0
 40
0.0
 40
0.0
 40
0.5592435255972102
 40
1.0
 40
1.0
 40
1.0
 40
1.0
 10
127.4506169871795
 20
62.1788902243441
 30
0.0
 10
127.3809069264104
 20
62.19390819497792
 30
0.0
 10
127.2562562910819
 20
62.22076227543916
 30
0.0
 10
127.1288621376637
 20
62.22041116461189
 30
0.0
 10
127.0727123397436
 20
62.22025641024154
 30
0.0
  0
LINE
  5
3EB
330
1F
100
AcDbEntity
  8
0
  6
Continuous
 62
     7
370
    25
100
AcDbLine
 10
126.9528205128
 20
62.2202564102
 30
0.0
 11
126.9528205128
 21
60.918974359
 31
0.0
  0
LINE
  5
3EC
330
1F
100
AcDbEntity
  8
0
  6
Continuous
 62
     7
370
    25
100
AcDbLine
 10
126.9528205128
 20
60.918974359
 30
0.0
 11
127.2185456731
 21
60.918974359
 31
0.0
  0
SPLINE
  5
3ED
330
1F
100
AcDbEntity
  8
0
  6
Continuous
 62
     7
370
    25
100
AcDbSpline
210
0.0
220
0.0
230
1.0
 70
     8
 71
     3
 72
    10
 73
     6
 74
     0
 42
0.000000001
 43
0.00000001
 40
0.0
 40
0.0
 40
0.0
 40
0.0
 40
0.2820406501341715
 40
0.5599771541584678
 40
1.0
 40
1.0
 40
1.0
 40
1.0
 10
127.2185456730769
 20
60.91897435895949
 30
0.0
 10
127.3132565603352
 20
60.92026195586567
 30
0.0
 10
127.5013001387679
 20
60.92281841306743
 30
0.0
 10
127.7646221824502
 20
61.1653136514944
 30
0.0
 10
127.7898952565588
 20
61.40598621164177
 30
0.0
 10
127.8053846153846
 20
61.55348958331846
 30
0.0
  0
LINE
  5
3EE
330
1F
100
AcDbEntity
  8
0
  6
Continuous
 62
     7
370
    25
100
AcDbLine
 10
85.94
 20
59.36
 30
0.0
 11
94.94
 21
59.36
 31
0.0
  0
LINE
  5
3EF
330
1F
100
AcDbEntity
  8
0
  6
Continuous
 62
     7
370
    25
100
AcDbLine
 10
94.94
 20
59.36
 30
0.0
 11
94.94
 21
59.06
 31
0.0
  0
LINE
  5
3F0
330
1F
100
AcDbEntity
  8
0
  6
Continuous
 62
     7
370
    25
100
AcDbLine
 10
94.94
 20
59.06
 30
0.0
 11
85.94
 21
59.06
 31
0.0
  0
LINE
  5
3F1
330
1F
100
AcDbEntity
  8
0
  6
Continuous
 62
     7
370
    25
100
AcDbLine
 10
85.94
 20
59.06
 30
0.0
 11
85.94
 21
59.36
 31
0.0
  0
LINE
  5
3F2
330
1F
100
AcDbEntity
  8
0
  6
Continuous
 62
     7
370
    25
100
AcDbLine
 10
141.94
 20
59.06
 30
0.0
 11
102.94
 21
59.06
 31
0.0
  0
LINE
  5
3F3
330
1F
100
AcDbEntity
  8
0
  6
Continuous
 62
     7
370
    25
100
AcDbLine
 10
102.94
 20
59.06
 30
0.0
 11
102.94
 21
59.36
 31
0.0
  0
LINE
  5
3F4
330
1F
100
AcDbEntity
  8
0
  6
Continuous
 62
     7
370
    25
100
AcDbLine
 10
141.94
 20
59.36
 30
0.0
 11
141.94
 21
59.06
 31
0.0
  0
LINE
  5
3F5
330
1F
100
AcDbEntity
  8
0
  6
Continuous
 62
     7
370
    25
100
AcDbLine
 10
94.94
 20
113.76
 30
0.0
 11
85.94
 21
113.76
 31
0.0
  0
LINE
  5
3F6
330
1F
100
AcDbEntity
  8
0
  6
Continuous
 62
     7
370
    25
100
AcDbLine
 10
94.94
 20
113.76
 30
0.0
 11
94.94
 21
59.36
 31
0.0
  0
CIRCLE
  5
3F7
330
1F
100
AcDbEntity
  8
0
  6
Continuous
 62
     7
370
    25
100
AcDbCircle
 10
89.44
 20
106.56
 30
0.0
 40
3.25
  0
CIRCLE
  5
3F8
330
1F
100
AcDbEntity
  8
0
  6
Continuous
 62
     7
370
    25
100
AcDbCircle
 10
89.44
 20
66.56
 30
0.0
 40
3.249999999999993
  0
LINE
  5
3F9
330
1F
100
AcDbEntity
  8
0
  6
Continuous
 62
     7
370
    25
100
AcDbLine
 10
85.94
 20
59.36
 30
0.0
 11
85.94
 21
113.76
 31
0.0
  0
LINE
  5
3FA
330
1F
100
AcDbEntity
  8
0
  6
Continuous
 62
     7
370
    25
100
AcDbLine
 10
116.9099519231
 20
62.0407692308
 30
0.0
 11
116.565
 21
63.3855208333
 31
0.0
  0
LINE
  5
3FB
330
1F
100
AcDbEntity
  8
0
  6
Continuous
 62
     7
370
    25
100
AcDbLine
 10
116.565
 20
63.3855208333
 30
0.0
 11
116.2200480769
 21
62.0407692308
 31
0.0
  0
LINE
  5
3FC
330
1F
100
AcDbEntity
  8
0
  6
Continuous
 62
     7
370
    25
100
AcDbLine
 10
116.2200480769
 20
62.0407692308
 30
0.0
 11
116.9099519231
 21
62.0407692308
 31
0.0
  0
LINE
  5
3FD
330
1F
100
AcDbEntity
  8
0
  6
Continuous
 62
     7
370
    25
100
AcDbLine
 10
133.4059455128
 20
62.0407692308
 30
0.0
 11
134.095849359
 21
62.0407692308
 31
0.0
  0
LINE
  5
3FE
330
1F
100
AcDbEntity
  8
0
  6
Continuous
 62
     7
370
    25
100
AcDbLine
 10
133.7508974359
 20
63.3855208333
 30
0.0
 11
133.4059455128
 21
62.0407692308
 31
0.0
  0
LINE
  5
3FF
330
1F
100
AcDbEntity
  8
0
  6
Continuous
 62
     7
370
    25
100
AcDbLine
 10
134.095849359
 20
62.0407692308
 30
0.0
 11
133.7508974359
 21
63.3855208333
 31
0.0
  0
LINE
  5
400
330
1F
100
AcDbEntity
  8
0
  6
Continuous
 62
     7
370
    25
100
AcDbLine
 10
85.94
 20
114.06
 30
0.0
 11
94.94
 21
114.06
 31
0.0
  0
LINE
  5
401
330
1F
100
AcDbEntity
  8
0
  6
Continuous
 62
     7
370
    25
100
AcDbLine
 10
94.94
 20
114.06
 30
0.0
 11
94.94
 21
113.76
 31
0.0
  0
LINE
  5
402
330
1F
100
AcDbEntity
  8
0
  6
Continuous
 62
     7
370
    25
100
AcDbLine
 10
85.94
 20
113.76
 30
0.0
 11
85.94
 21
114.06
 31
0.0
  0
LINE
  5
403
330
1F
100
AcDbEntity
  8
0
  6
Continuous
 62
     7
370
    25
100
AcDbLine
 10
102.94
 20
114.06
 30
0.0
 11
141.94
 21
114.06
 31
0.0
  0
LINE
  5
404
330
1F
100
AcDbEntity
  8
0
  6
Continuous
 62
     7
370
    25
100
AcDbLine
 10
102.94
 20
113.76
 30
0.0
 11
102.94
 21
114.06
 31
0.0
  0
LINE
  5
405
330
1F
100
AcDbEntity
  8
0
  6
Continuous
 62
     7
370
    25
100
AcDbLine
 10
141.94
 20
114.06
 30
0.0
 11
141.94
 21
113.76
 31
0.0
  0
LINE
  5
406
330
1F
100
AcDbEntity
  8
0
  6
Continuous
 62
     7
370
    25
100
AcDbLine
 10
94.94
 20
59.06
 30
0.0
 11
102.94
 21
59.06
 31
0.0
  0
LINE
  5
407
330
1F
100
AcDbEntity
  8
0
  6
Continuous
 62
     7
370
    25
100
AcDbLine
 10
102.94
 20
114.06
 30
0.0
 11
94.94
 21
114.06
 31
0.0
  0
LINE
  5
408
330
1F
100
AcDbEntity
  8
0
  6
Continuous
 62
     8
370
    25
100
AcDbLine
 10
280.94
 20
90.56
 30
0.0
 11
280.94
 21
82.56
 31
0.0
  0
DIMENSION
  5
409
330
1F
100
AcDbEntity
  8
0
  6
Continuous
 62
     7
370
    18
100
AcDbDimension
  2
_D_13
 10
141.94
 20
44.16
 30
0.0
 11
120.44
 21
44.16
 31
0.0
 70
   160
  1
<>
 71
     2
 42
-1.0
  3
SLDDIMSTYLE0
100
AcDbAlignedDimension
 13
98.94
 23
57.06
 33
0.0
 14
141.94
 24
59.06
 34
0.0
100
AcDbRotatedDimension
  0
DIMENSION
  5
413
330
1F
100
AcDbEntity
  8
0
  6
Continuous
 62
     7
370
    18
100
AcDbDimension
  2
_D_14
 10
91.7449206687
 20
108.8512530875
 30
0.0
 11
75.8594809884
 21
93.06001
 31
0.0
 70
   163
  1
<>
 71
     1
 42
-1.0
  3
SLDDIMSTYLE5
100
AcDbDiametricDimension
 15
87.1350793313
 25
104.2687469125
 35
0.0
 40
0.0
  0
DIMENSION
  5
41D
330
1F
100
AcDbEntity
  8
0
  6
Continuous
 62
     7
370
    18
100
AcDbDimension
  2
_D_15
 10
108.44
 20
124.06
 30
0.0
 11
98.94
 21
124.06
 31
0.0
 70
   160
  1
<>
 71
     2
 42
-1.0
  3
SLDDIMSTYLE2
100
AcDbAlignedDimension
 13
89.44
 23
112.31
 33
0.0
 14
108.44
 24
112.31
 34
0.0
100
AcDbRotatedDimension
  0
DIMENSION
  5
427
330
1F
100
AcDbEntity
  8
0
  6
Continuous
 62
     7
370
    18
100
AcDbDimension
  2
_D_16
 10
63.94
 20
66.56
 30
0.0
 11
63.94
 21
86.56
 31
0.0
 70
   160
  1
<>
 71
     2
 42
-1.0
  3
SLDDIMSTYLE0
100
AcDbAlignedDimension
 13
83.69
 23
106.56
 33
0.0
 14
83.69
 24
66.56
 34
0.0
 50
90.0
100
AcDbRotatedDimension
  0
DIMENSION
  5
431
330
1F
100
AcDbEntity
  8
0
  6
Continuous
 62
     7
370
    18
100
AcDbDimension
  2
_D_17
 10
141.94
 20
124.06
 30
0.0
 11
125.19
 21
124.06
 31
0.0
 70
   160
  1
<>
 71
     2
 42
-1.0
  3
SLDDIMSTYLE6
100
AcDbAlignedDimension
 13
108.44
 23
112.31
 33
0.0
 14
141.94
 24
114.06
 34
0.0
100
AcDbRotatedDimension
  0
INSERT
  5
447
330
1F
100
AcDbEntity
  8
0
  6
Continuous
 62
     7
370
     0
100
AcDbBlockReference
  2
SW_CENTERMARKSYMBOL_3
 10
89.44
 20
106.56
 30
0.0
  0
INSERT
  5
453
330
1F
100
AcDbEntity
  8
0
  6
Continuous
 62
     7
370
     0
100
AcDbBlockReference
  2
SW_CENTERMARKSYMBOL_4
 10
108.44
 20
106.56
 30
0.0
  0
INSERT
  5
45F
330
1F
100
AcDbEntity
  8
0
  6
Continuous
 62
     7
370
     0
100
AcDbBlockReference
  2
SW_CENTERMARKSYMBOL_5
 10
89.44
 20
66.56
 30
0.0
  0
INSERT
  5
46B
330
1F
100
AcDbEntity
  8
0
  6
Continuous
 62
     7
370
     0
100
AcDbBlockReference
  2
SW_CENTERMARKSYMBOL_6
 10
108.44
 20
66.56
 30
0.0
  0
LINE
  5
46C
330
1F
100
AcDbEntity
  8
0
  6
CENTERX2
 62
     7
370
    18
100
AcDbLine
 10
98.94
 20
57.06
 30
0.0
 11
98.94
 21
116.06
 31
0.0
  0
LINE
  5
46D
330
1F
100
AcDbEntity
  8
0
  6
CENTERX2
 62
     7
370
    18
100
AcDbLine
 10
262.44
 20
86.56
 30
0.0
 11
121.94
 21
86.56
 31
0.0
  0
LINE
  5
46E
330
1F
100
AcDbEntity
  8
0
  6
CENTERX2
 62
     7
370
    18
100
AcDbLine
 10
258.94
 20
86.56
 30
0.0
 11
267.64
 21
86.56
 31
0.0
  0
LINE
  5
46F
330
1F
100
AcDbEntity
  8
0
  6
CENTERX2
 62
     7
370
    18
100
AcDbLine
 10
83.94
 20
86.56
 30
0.0
 11
104.94
 21
86.56
 31
0.0
  0
LINE
  5
470
330
1F
100
AcDbEntity
  8
0
  6
CENTERX2
 62
     7
370
    18
100
AcDbLine
 10
92.94
 20
86.56
 30
0.0
 11
143.94
 21
86.56
 31
0.0
  0
LINE
  5
471
330
1F
100
AcDbEntity
  8
0
  6
CENTERX2
 62
     7
370
    18
100
AcDbLine
 10
96.44
 20
52.66
 30
0.0
 11
96.44
 21
61.16
 31
0.0
  0
LINE
  5
472
330
1F
100
AcDbEntity
  8
0
  6
CENTERX2
 62
     7
370
    18
100
AcDbLine
 10
121.44
 20
52.66
 30
0.0
 11
121.44
 21
61.16
 31
0.0
  0
ENDSEC
  0
SECTION
  2
OBJECTS
  0
DICTIONARY
  5
C
330
0
100
AcDbDictionary
281
     1
  3
ACAD_GROUP
350
D
  3
ACAD_LAYOUT
350
1A
  3
ACAD_MLINESTYLE
350
17
  3
ACAD_PLOTSETTINGS
350
19
  3
ACAD_PLOTSTYLENAME
350
E
  3
ACAD_SCALELIST
350
47
  0
DICTIONARY
  5
D
102
{ACAD_REACTORS
330
C
102
}
330
C
100
AcDbDictionary
281
     1
  0
DICTIONARY
  5
1A
102
{ACAD_REACTORS
330
C
102
}
330
C
100
AcDbDictionary
281
     1
  3
Layout1
350
1E
  3
Layout2
350
26
  3
Model
350
22
  0
DICTIONARY
  5
17
102
{ACAD_REACTORS
330
C
102
}
330
C
100
AcDbDictionary
281
     1
  3
Standard
350
18
  0
DICTIONARY
  5
19
102
{ACAD_REACTORS
330
C
102
}
330
C
100
AcDbDictionary
281
     1
  0
ACDBDICTIONARYWDFLT
  5
E
102
{ACAD_REACTORS
330
C
102
}
330
C
100
AcDbDictionary
281
     1
  3
Normal
350
F
100
AcDbDictionaryWithDefault
340
F
  0
DICTIONARY
  5
47
102
{ACAD_REACTORS
330
C
102
}
330
C
100
AcDbDictionary
281
     1
  3
A0
350
48
  3
A1
350
49
  3
A2
350
4A
  3
A3
350
4B
  3
A4
350
4C
  3
A5
350
4D
  3
A6
350
4E
  3
A7
350
4F
  3
A8
350
50
  3
A9
350
51
  3
B0
350
52
  3
B1
350
53
  3
B2
350
54
  3
B3
350
55
  3
B4
350
56
  3
B5
350
57
  3
B6
350
58
  3
B7
350
59
  3
B8
350
5A
  3
B9
350
5B
  3
C0
350
5C
  3
C1
350
5D
  3
C2
350
5E
  3
C3
350
5F
  3
C4
350
60
  3
C5
350
61
  3
C6
350
62
  3
C7
350
63
  3
C8
350
64
  3
C9
350
65
  3
D0
350
66
  3
D1
350
67
  3
D2
350
68
  0
LAYOUT
  5
1E
102
{ACAD_REACTORS
330
1A
102
}
330
1A
100
AcDbPlotSettings
  1

  2
none_device
  4

  6

 40
0.0
 41
0.0
 42
0.0
 43
0.0
 44
0.0
 45
0.0
 46
0.0
 47
0.0
 48
0.0
 49
0.0
140
0.0
141
0.0
142
1.0
143
1.0
 70
   688
 72
     1
 73
     0
 74
     5
  7

 75
    16
147
1.0
148
0.0
149
0.0
100
AcDbLayout
  1
Layout1
 70
     1
 71
     1
 10
0.0
 20
0.0
 11
420.0
 21
297.0
 12
0.0
 22
0.0
 32
0.0
 14
1.0000000000E+20
 24
1.0000000000E+20
 34
1.0000000000E+20
 15
-1.0000000000E+20
 25
-1.0000000000E+20
 35
-1.0000000000E+20
146
0.0
 13
0.0
 23
0.0
 33
0.0
 16
1.0
 26
0.0
 36
0.0
 17
0.0
 27
1.0
 37
0.0
 76
     0
330
1B
  0
LAYOUT
  5
26
102
{ACAD_REACTORS
330
1A
102
}
330
1A
100
AcDbPlotSettings
  1

  2
none_device
  4

  6

 40
0.0
 41
0.0
 42
0.0
 43
0.0
 44
0.0
 45
0.0
 46
0.0
 47
0.0
 48
0.0
 49
0.0
140
0.0
141
0.0
142
1.0
143
1.0
 70
   688
 72
     1
 73
     0
 74
     5
  7

 75
    16
147
1.0
148
0.0
149
0.0
100
AcDbLayout
  1
Layout2
 70
     1
 71
     2
 10
0.0
 20
0.0
 11
0.0
 21
0.0
 12
0.0
 22
0.0
 32
0.0
 14
0.0
 24
0.0
 34
0.0
 15
0.0
 25
0.0
 35
0.0
146
0.0
 13
0.0
 23
0.0
 33
0.0
 16
1.0
 26
0.0
 36
0.0
 17
0.0
 27
1.0
 37
0.0
 76
     0
330
23
  0
LAYOUT
  5
22
102
{ACAD_REACTORS
330
1A
102
}
330
1A
100
AcDbPlotSettings
  1

  2
none_device
  4
Letter_(8.50_x_11.00_Inches)
  6

 40
6.35
 41
6.35
 42
6.35000508
 43
6.35000508
 44
215.9
 45
279.4
 46
0.0
 47
0.0
 48
0.0
 49
0.0
140
0.0
141
0.0
142
1.0
143
1.0
 70
  1712
 72
     1
 73
     0
 74
     0
  7

 75
     0
147
1.0
148
0.0
149
0.0
100
AcDbLayout
  1
Model
 70
     1
 71
     0
 10
0.0
 20
0.0
 11
420.0
 21
297.0
 12
0.0
 22
0.0
 32
0.0
 14
0.0
 24
0.0
 34
0.0
 15
420.0
 25
297.0
 35
0.0
146
0.0
 13
0.0
 23
0.0
 33
0.0
 16
1.0
 26
0.0
 36
0.0
 17
0.0
 27
1.0
 37
0.0
 76
     0
330
1F
331
29
  0
MLINESTYLE
  5
18
102
{ACAD_REACTORS
330
17
102
}
330
17
100
AcDbMlineStyle
  2
Standard
 70
     0
  3

 62
   256
 51
90.0
 52
90.0
 71
     2
 49
0.5
 62
   256
  6
BYLAYER
 49
-0.5
 62
   256
  6
BYLAYER
  0
ACDBPLACEHOLDER
  5
F
102
{ACAD_REACTORS
330
E
102
}
330
E
  0
SCALE
  5
48
102
{ACAD_REACTORS
330
47
102
}
330
47
100
AcDbScale
 70
     0
300
1:1
140
1.0
141
1.0
290
     1
  0
SCALE
  5
49
102
{ACAD_REACTORS
330
47
102
}
330
47
100
AcDbScale
 70
     0
300
1:2
140
1.0
141
2.0
290
     0
  0
SCALE
  5
4A
102
{ACAD_REACTORS
330
47
102
}
330
47
100
AcDbScale
 70
     0
300
1:4
140
1.0
141
4.0
290
     0
  0
SCALE
  5
4B
102
{ACAD_REACTORS
330
47
102
}
330
47
100
AcDbScale
 70
     0
300
1:5
140
1.0
141
5.0
290
     0
  0
SCALE
  5
4C
102
{ACAD_REACTORS
330
47
102
}
330
47
100
AcDbScale
 70
     0
300
1:8
140
1.0
141
8.0
290
     0
  0
SCALE
  5
4D
102
{ACAD_REACTORS
330
47
102
}
330
47
100
AcDbScale
 70
     0
300
1:10
140
1.0
141
10.0
290
     0
  0
SCALE
  5
4E
102
{ACAD_REACTORS
330
47
102
}
330
47
100
AcDbScale
 70
     0
300
1:16
140
1.0
141
16.0
290
     0
  0
SCALE
  5
4F
102
{ACAD_REACTORS
330
47
102
}
330
47
100
AcDbScale
 70
     0
300
1:20
140
1.0
141
20.0
290
     0
  0
SCALE
  5
50
102
{ACAD_REACTORS
330
47
102
}
330
47
100
AcDbScale
 70
     0
300
1:30
140
1.0
141
30.0
290
     0
  0
SCALE
  5
51
102
{ACAD_REACTORS
330
47
102
}
330
47
100
AcDbScale
 70
     0
300
1:40
140
1.0
141
40.0
290
     0
  0
SCALE
  5
52
102
{ACAD_REACTORS
330
47
102
}
330
47
100
AcDbScale
 70
     0
300
1:50
140
1.0
141
50.0
290
     0
  0
SCALE
  5
53
102
{ACAD_REACTORS
330
47
102
}
330
47
100
AcDbScale
 70
     0
300
1:100
140
1.0
141
100.0
290
     0
  0
SCALE
  5
54
102
{ACAD_REACTORS
330
47
102
}
330
47
100
AcDbScale
 70
     0
300
2:1
140
2.0
141
1.0
290
     0
  0
SCALE
  5
55
102
{ACAD_REACTORS
330
47
102
}
330
47
100
AcDbScale
 70
     0
300
4:1
140
4.0
141
1.0
290
     0
  0
SCALE
  5
56
102
{ACAD_REACTORS
330
47
102
}
330
47
100
AcDbScale
 70
     0
300
8:1
140
8.0
141
1.0
290
     0
  0
SCALE
  5
57
102
{ACAD_REACTORS
330
47
102
}
330
47
100
AcDbScale
 70
     0
300
10:1
140
10.0
141
1.0
290
     0
  0
SCALE
  5
58
102
{ACAD_REACTORS
330
47
102
}
330
47
100
AcDbScale
 70
     0
300
100:1
140
100.0
141
1.0
290
     0
  0
SCALE
  5
59
102
{ACAD_REACTORS
330
47
102
}
330
47
100
AcDbScale
 70
     0
300
1/128" = 1'-0"
140
0.0078125
141
12.0
290
     0
  0
SCALE
  5
5A
102
{ACAD_REACTORS
330
47
102
}
330
47
100
AcDbScale
 70
     0
300
1/64" = 1'-0"
140
0.015625
141
12.0
290
     0
  0
SCALE
  5
5B
102
{ACAD_REACTORS
330
47
102
}
330
47
100
AcDbScale
 70
     0
300
1/32" = 1'-0"
140
0.03125
141
12.0
290
     0
  0
SCALE
  5
5C
102
{ACAD_REACTORS
330
47
102
}
330
47
100
AcDbScale
 70
     0
300
1/16" = 1'-0"
140
0.0625
141
12.0
290
     0
  0
SCALE
  5
5D
102
{ACAD_REACTORS
330
47
102
}
330
47
100
AcDbScale
 70
     0
300
3/32" = 1'-0"
140
0.09375
141
12.0
290
     0
  0
SCALE
  5
5E
102
{ACAD_REACTORS
330
47
102
}
330
47
100
AcDbScale
 70
     0
300
1/8" = 1'-0"
140
0.125
141
12.0
290
     0
  0
SCALE
  5
5F
102
{ACAD_REACTORS
330
47
102
}
330
47
100
AcDbScale
 70
     0
300
3/16" = 1'-0"
140
0.1875
141
12.0
290
     0
  0
SCALE
  5
60
102
{ACAD_REACTORS
330
47
102
}
330
47
100
AcDbScale
 70
     0
300
1/4" = 1'-0"
140
0.25
141
12.0
290
     0
  0
SCALE
  5
61
102
{ACAD_REACTORS
330
47
102
}
330
47
100
AcDbScale
 70
     0
300
3/8" = 1'-0"
140
0.375
141
12.0
290
     0
  0
SCALE
  5
62
102
{ACAD_REACTORS
330
47
102
}
330
47
100
AcDbScale
 70
     0
300
1/2" = 1'-0"
140
0.5
141
12.0
290
     0
  0
SCALE
  5
63
102
{ACAD_REACTORS
330
47
102
}
330
47
100
AcDbScale
 70
     0
300
3/4" = 1'-0"
140
0.75
141
12.0
290
     0
  0
SCALE
  5
64
102
{ACAD_REACTORS
330
47
102
}
330
47
100
AcDbScale
 70
     0
300
1" = 1'-0"
140
1.0
141
12.0
290
     0
  0
SCALE
  5
65
102
{ACAD_REACTORS
330
47
102
}
330
47
100
AcDbScale
 70
     0
300
1-1/2" = 1'-0"
140
1.5
141
12.0
290
     0
  0
SCALE
  5
66
102
{ACAD_REACTORS
330
47
102
}
330
47
100
AcDbScale
 70
     0
300
3" = 1'-0"
140
3.0
141
12.0
290
     0
  0
SCALE
  5
67
102
{ACAD_REACTORS
330
47
102
}
330
47
100
AcDbScale
 70
     0
300
6" = 1'-0"
140
6.0
141
12.0
290
     0
  0
SCALE
  5
68
102
{ACAD_REACTORS
330
47
102
}
330
47
100
AcDbScale
 70
     0
300
1'-0" = 1'-0"
140
12.0
141
12.0
290
     0
  0
ENDSEC
  0
EOF
